0
SECTION
2
HEADER
9
$ACADVER
1
AC1015
9
$DWGCODEPAGE
3
ANSI_1252
9
$HANDSEED
5
249
9
$ANGBASE
50
0
9
$ANGDIR
70
0
9
$ATTMODE
70
1
9
$AUNITS
70
0
9
$AUPREC
70
0
9
$CECOLOR
62
256
9
$CELTSCALE
40
1
9
$CELTYPE
6
ByLayer
9
$CELWEIGHT
370
-1
9
$CLAYER
8
0
9
$CMLJUST
70
0
9
$CMLSCALE
40
1
9
$CMLSTYLE
2
Standard
9
$DIMSTYLE
2
Standard
9
$TEXTSIZE
40
0.2
9
$TEXTSTYLE
7
Standard
9
$LUNITS
70
2
9
$LUPREC
70
4
9
$EXTNAMES
290
1
9
$INSUNITS
70
4
9
$LTSCALE
40
1
9
$LWDISPLAY
290
0
9
$PDMODE
70
0
9
$PDSIZE
40
0
9
$PLINEGEN
70
0
0
ENDSEC
0
SECTION
2
CLASSES
0
CLASS
1
RASTERVARIABLES
2
AcDbRasterVariables
3
ISM
90
0
280
0
281
0
0
ENDSEC
0
SECTION
2
TABLES
0
TABLE
2
VPORT
5
23f
100
AcDbSymbolTable
0
VPORT
5
1
100
AcDbSymbolTableRecord
100
AcDbViewportTableRecord
2
*Active
70
0
10
0
20
0
11
1
21
1
12
-1
22
1
13
0
23
0
14
0.5
24
0.5
15
10
25
10
16
0
26
0
36
1
17
0
27
0
37
0
0
ENDTAB
0
TABLE
2
LTYPE
5
240
100
AcDbSymbolTable
0
LTYPE
5
14
100
AcDbSymbolTableRecord
100
AcDbLinetypeTableRecord
70
0
2
ByBlock
3

72
65
73
0
40
0
0
LTYPE
5
15
100
AcDbSymbolTableRecord
100
AcDbLinetypeTableRecord
70
0
2
ByLayer
3

72
65
73
0
40
0
0
LTYPE
5
16
100
AcDbSymbolTableRecord
100
AcDbLinetypeTableRecord
70
0
2
CONTINUOUS
3
Solid line
72
65
73
0
40
0
0
LTYPE
5
3C
100
AcDbSymbolTableRecord
100
AcDbLinetypeTableRecord
70
0
2
DASHED
3
__ __ __ __ __ __ __ __ __
72
65
73
2
40
25.72
49
12.86
74
0
49
-12.86
74
0
0
LTYPE
5
3D
100
AcDbSymbolTableRecord
100
AcDbLinetypeTableRecord
70
0
2
HIDDEN
3
_ _ _ _ _ _ _ _ _ _ _ _ _ _ _
72
65
73
2
40
0.5
49
0.25
74
0
49
-0.25
74
0
0
LTYPE
5
3E
100
AcDbSymbolTableRecord
100
AcDbLinetypeTableRecord
70
0
2
PHANTOM
3
____ _ _ ____ _ _ _____ _ _ ____
72
65
73
6
40
50.5
49
18
74
0
49
-6.5
74
0
49
6.5
74
0
49
-6.5
74
0
49
6.5
74
0
49
-6.5
74
0
0
LTYPE
5
3F
100
AcDbSymbolTableRecord
100
AcDbLinetypeTableRecord
70
0
2
CENTER
3
____ _ ____ _ ____ _ ____
72
65
73
4
40
47.5
49
22
74
0
49
-8.5
74
0
49
8.5
74
0
49
-8.5
74
0
0
LTYPE
5
40
100
AcDbSymbolTableRecord
100
AcDbLinetypeTableRecord
70
0
2
DOT
3
.........................
72
65
73
2
40
10
49
0
74
0
49
-10
74
0
0
LTYPE
5
41
100
AcDbSymbolTableRecord
100
AcDbLinetypeTableRecord
70
0
2
DASHDOT
3
_._._._._._._._._._._._._._._._.
72
65
73
4
40
70
49
31
74
0
49
-13
74
0
49
13
74
0
49
-13
74
0
0
ENDTAB
0
TABLE
2
LAYER
5
241
100
AcDbSymbolTable
0
LAYER
5
10
100
AcDbSymbolTableRecord
100
AcDbLayerTableRecord
2
0
70
0
62
7
6
CONTINUOUS
290
1
370
-3
390
0
0
LAYER
5
43
100
AcDbSymbolTableRecord
100
AcDbLayerTableRecord
2
80
70
0
62
-6
6
CONTINUOUS
290
1
370
-3
390
0
0
LAYER
5
45
100
AcDbSymbolTableRecord
100
AcDbLayerTableRecord
2
81
70
0
62
-3
6
CONTINUOUS
290
1
370
-3
390
0
0
LAYER
5
47
100
AcDbSymbolTableRecord
100
AcDbLayerTableRecord
2
2
70
0
62
7
6
CONTINUOUS
290
1
370
-3
390
0
0
LAYER
5
4B
100
AcDbSymbolTableRecord
100
AcDbLayerTableRecord
2
4
70
0
62
-2
6
CENTER
290
1
370
-3
390
0
0
LAYER
5
4D
100
AcDbSymbolTableRecord
100
AcDbLayerTableRecord
2
1
70
0
62
4
6
CONTINUOUS
290
1
370
-3
390
0
0
LAYER
5
22c
100
AcDbSymbolTableRecord
100
AcDbLayerTableRecord
2
SK4
70
0
62
2
6
CENTER
290
1
370
-3
390
0
0
LAYER
5
22d
100
AcDbSymbolTableRecord
100
AcDbLayerTableRecord
2
SK6
70
0
62
5
6
CONTINUOUS
290
1
370
-3
390
0
0
LAYER
5
22e
100
AcDbSymbolTableRecord
100
AcDbLayerTableRecord
2
SK2
70
0
62
7
6
CONTINUOUS
290
1
370
-3
390
0
0
ENDTAB
0
TABLE
2
STYLE
5
242
100
AcDbSymbolTable
0
STYLE
5
11
100
AcDbSymbolTableRecord
100
AcDbTextStyleTableRecord
2
Standard
3
txt
70
0
71
0
40
0
41
1
42
0
50
0
0
STYLE
5
1AC
100
AcDbSymbolTableRecord
100
AcDbTextStyleTableRecord
2
DEFAULT
3
simplex.shx
70
0
71
0
40
0
41
1
42
0
50
0
0
STYLE
5
1AD
100
AcDbSymbolTableRecord
100
AcDbTextStyleTableRecord
2
DWGDirectTextStyle
3
SIMPLEX
70
0
71
0
40
0
41
1
42
0
50
0
0
ENDTAB
0
TABLE
2
DIMSTYLE
5
243
100
AcDbSymbolTable
100
AcDbDimStyleTable
0
DIMSTYLE
105
27
100
AcDbSymbolTableRecord
100
AcDbDimStyleTableRecord
2
Standard
70
0
3
<>
41
0.18
42
0.0625
44
0.18
140
0.18
147
0.09
73
0
74
0
77
1
271
2
275
0
278
52
280
0
340
11
0
ENDTAB
0
TABLE
2
VIEW
5
244
100
AcDbSymbolTable
0
ENDTAB
0
TABLE
2
UCS
5
245
100
AcDbSymbolTable
0
ENDTAB
0
TABLE
2
APPID
5
246
100
AcDbSymbolTable
0
APPID
5
12
100
AcDbSymbolTableRecord
100
AcDbRegAppTableRecord
2
ACAD
70
0
0
ENDTAB
0
TABLE
2
BLOCK_RECORD
5
247
100
AcDbSymbolTable
0
BLOCK_RECORD
5
1F
100
AcDbSymbolTableRecord
100
AcDbBlockTableRecord
2
*Model_Space
340
0
70
0
0
BLOCK_RECORD
5
1B
100
AcDbSymbolTableRecord
100
AcDbBlockTableRecord
2
*Paper_Space
340
0
70
0
0
BLOCK_RECORD
5
23
100
AcDbSymbolTableRecord
100
AcDbBlockTableRecord
2
*Paper_Space0
340
0
70
0
0
BLOCK_RECORD
5
1AF
100
AcDbSymbolTableRecord
100
AcDbBlockTableRecord
2
DimnDraft3D1
340
0
70
0
0
BLOCK_RECORD
5
1BD
100
AcDbSymbolTableRecord
100
AcDbBlockTableRecord
2
_CLOSED
340
0
70
0
0
BLOCK_RECORD
5
1C4
100
AcDbSymbolTableRecord
100
AcDbBlockTableRecord
2
DimnDraft3D2
340
0
70
0
0
BLOCK_RECORD
5
1D2
100
AcDbSymbolTableRecord
100
AcDbBlockTableRecord
2
DimnDraft3D3
340
0
70
0
0
BLOCK_RECORD
5
1E1
100
AcDbSymbolTableRecord
100
AcDbBlockTableRecord
2
DimnDraft3D4
340
0
70
0
0
ENDTAB
0
ENDSEC
0
SECTION
2
BLOCKS
0
BLOCK
5
20
100
AcDbEntity
8
0
100
AcDbBlockBegin
2
*Model_Space
70
0
10
0
20
0
30
0
3
*Model_Space
0
ENDBLK
5
21
100
AcDbEntity
8
0
100
AcDbBlockEnd
0
BLOCK
5
1C
100
AcDbEntity
8
0
100
AcDbBlockBegin
2
*Paper_Space
70
0
10
0
20
0
30
0
3
*Paper_Space
0
ENDBLK
5
1D
100
AcDbEntity
8
0
100
AcDbBlockEnd
0
BLOCK
5
24
100
AcDbEntity
8
0
100
AcDbBlockBegin
2
*Paper_Space0
70
0
10
0
20
0
30
0
3
*Paper_Space0
0
ENDBLK
5
25
100
AcDbEntity
8
0
100
AcDbBlockEnd
0
BLOCK
5
1BA
100
AcDbEntity
8
0
100
AcDbBlockBegin
2
DimnDraft3D1
70
0
10
0
20
0
30
0
3
DimnDraft3D1
0
MTEXT
5
1B0
100
AcDbEntity
8
2
62
256
6
ByLayer
370
-1
48
1
60
0
100
AcDbMText
10
17.865461
20
40.875
30
0
210
0
220
0
230
1
1
\W01.000;\fsimplex.shx,bigfont.shx;40\P
40
4.5
41
0
44
1.084337
50
0
71
7
72
5
7
DEFAULT
0
LINE
5
1B1
100
AcDbEntity
8
2
62
256
6
ByLayer
370
-1
48
1
60
0
100
AcDbLine
10
40
20
22
30
0
11
40
21
41.75
31
0
39
0
210
0
220
0
230
1
0
LINE
5
1B2
100
AcDbEntity
8
2
62
256
6
ByLayer
370
-1
48
1
60
0
100
AcDbLine
10
0
20
19
30
0
11
0
21
41.75
31
0
39
0
210
0
220
0
230
1
0
LINE
5
1B3
100
AcDbEntity
8
2
62
256
6
ByLayer
370
-1
48
1
60
0
100
AcDbLine
10
40
20
39.75
30
0
11
0
21
39.75
31
0
39
0
210
0
220
0
230
1
0
LINE
5
1B4
100
AcDbEntity
8
2
62
256
6
ByLayer
370
-1
48
1
60
0
100
AcDbLine
10
40
20
39.75
30
0
11
36.825002
21
39.332003
31
0
39
0
210
0
220
0
230
1
0
LINE
5
1B5
100
AcDbEntity
8
2
62
256
6
ByLayer
370
-1
48
1
60
0
100
AcDbLine
10
40
20
39.75
30
0
11
36.824998
21
40.167997
31
0
39
0
210
0
220
0
230
1
0
LINE
5
1B6
100
AcDbEntity
8
2
62
256
6
ByLayer
370
-1
48
1
60
0
100
AcDbLine
10
36.825002
20
39.332003
30
0
11
36.824998
21
40.167997
31
0
39
0
210
0
220
0
230
1
0
LINE
5
1B7
100
AcDbEntity
8
2
62
256
6
ByLayer
370
-1
48
1
60
0
100
AcDbLine
10
0
20
39.75
30
0
11
3.174998
21
40.167997
31
0
39
0
210
0
220
0
230
1
0
LINE
5
1B8
100
AcDbEntity
8
2
62
256
6
ByLayer
370
-1
48
1
60
0
100
AcDbLine
10
0
20
39.75
30
0
11
3.175002
21
39.332003
31
0
39
0
210
0
220
0
230
1
0
LINE
5
1B9
100
AcDbEntity
8
2
62
256
6
ByLayer
370
-1
48
1
60
0
100
AcDbLine
10
3.174998
20
40.167997
30
0
11
3.175002
21
39.332003
31
0
39
0
210
0
220
0
230
1
0
ENDBLK
5
1BB
100
AcDbEntity
8
0
100
AcDbBlockEnd
0
BLOCK
5
1BE
100
AcDbEntity
8
0
100
AcDbBlockBegin
2
_CLOSED
70
0
10
0
20
0
30
0
3
_CLOSED
0
LINE
5
1C0
100
AcDbEntity
8
0
62
256
6
ByLayer
370
-2
48
1
60
0
100
AcDbLine
10
-1
20
0.166667
30
0
11
0
21
0
31
0
39
0
210
0
220
0
230
1
0
LINE
5
1C1
100
AcDbEntity
8
0
62
256
6
ByLayer
370
-2
48
1
60
0
100
AcDbLine
10
0
20
0
30
0
11
-1
21
-0.166667
31
0
39
0
210
0
220
0
230
1
0
LINE
5
1C2
100
AcDbEntity
8
0
62
256
6
ByLayer
370
-2
48
1
60
0
100
AcDbLine
10
-1
20
0.166667
30
0
11
-1
21
-0.166667
31
0
39
0
210
0
220
0
230
1
0
LINE
5
1C3
100
AcDbEntity
8
0
62
256
6
ByLayer
370
-2
48
1
60
0
100
AcDbLine
10
0
20
0
30
0
11
-1
21
0
31
0
39
0
210
0
220
0
230
1
0
ENDBLK
5
1BF
100
AcDbEntity
8
0
100
AcDbBlockEnd
0
BLOCK
5
1CF
100
AcDbEntity
8
0
100
AcDbBlockBegin
2
DimnDraft3D2
70
0
10
0
20
0
30
0
3
DimnDraft3D2
0
MTEXT
5
1C5
100
AcDbEntity
8
2
62
256
6
ByLayer
370
-1
48
1
60
0
100
AcDbMText
10
46.51875
20
30.875
30
0
210
0
220
0
230
1
1
\W01.000;\fsimplex.shx,bigfont.shx;10\P
40
4.5
41
0
44
1.084337
50
0
71
7
72
5
7
DEFAULT
0
LINE
5
1C6
100
AcDbEntity
8
2
62
256
6
ByLayer
370
-1
48
1
60
0
100
AcDbLine
10
40
20
22
30
0
11
40
21
31.75
31
0
39
0
210
0
220
0
230
1
0
LINE
5
1C7
100
AcDbEntity
8
2
62
256
6
ByLayer
370
-1
48
1
60
0
100
AcDbLine
10
29.8
20
22
30
0
11
29.8
21
31.75
31
0
39
0
210
0
220
0
230
1
0
LINE
5
1C8
100
AcDbEntity
8
2
62
256
6
ByLayer
370
-1
48
1
60
0
100
AcDbLine
10
29.8
20
29.75
30
0
11
50.148355
21
29.75
31
0
39
0
210
0
220
0
230
1
0
LINE
5
1C9
100
AcDbEntity
8
2
62
256
6
ByLayer
370
-1
48
1
60
0
100
AcDbLine
10
40
20
29.75
30
0
11
36.825002
21
29.332003
31
0
39
0
210
0
220
0
230
1
0
LINE
5
1CA
100
AcDbEntity
8
2
62
256
6
ByLayer
370
-1
48
1
60
0
100
AcDbLine
10
40
20
29.75
30
0
11
36.824998
21
30.167997
31
0
39
0
210
0
220
0
230
1
0
LINE
5
1CB
100
AcDbEntity
8
2
62
256
6
ByLayer
370
-1
48
1
60
0
100
AcDbLine
10
36.825002
20
29.332003
30
0
11
36.824998
21
30.167997
31
0
39
0
210
0
220
0
230
1
0
LINE
5
1CC
100
AcDbEntity
8
2
62
256
6
ByLayer
370
-1
48
1
60
0
100
AcDbLine
10
29.8
20
29.75
30
0
11
32.974998
21
30.167997
31
0
39
0
210
0
220
0
230
1
0
LINE
5
1CD
100
AcDbEntity
8
2
62
256
6
ByLayer
370
-1
48
1
60
0
100
AcDbLine
10
29.8
20
29.75
30
0
11
32.975002
21
29.332003
31
0
39
0
210
0
220
0
230
1
0
LINE
5
1CE
100
AcDbEntity
8
2
62
256
6
ByLayer
370
-1
48
1
60
0
100
AcDbLine
10
32.974998
20
30.167997
30
0
11
32.975002
21
29.332003
31
0
39
0
210
0
220
0
230
1
0
ENDBLK
5
1D0
100
AcDbEntity
8
0
100
AcDbBlockEnd
0
BLOCK
5
1DE
100
AcDbEntity
8
0
100
AcDbBlockBegin
2
DimnDraft3D3
70
0
10
0
20
0
30
0
3
DimnDraft3D3
0
MTEXT
5
1D3
100
AcDbEntity
8
SK2
62
256
6
ByLayer
370
-1
48
1
60
0
100
AcDbMText
10
-10.875
20
-3.739145
30
0
210
0
220
0
230
1
1
\W01.000;\fsimplex.shx,bigfont.shx;%%c16\P
40
4.5
41
0
44
1.084337
50
90
71
7
72
5
7
DEFAULT
0
LINE
5
1D5
100
AcDbEntity
8
SK2
62
256
6
ByLayer
370
-1
48
1
60
0
100
AcDbLine
10
-2
20
8
30
0
11
-11.75
21
8
31
0
39
0
210
0
220
0
230
1
0
LINE
5
1D6
100
AcDbEntity
8
SK2
62
256
6
ByLayer
370
-1
48
1
60
0
100
AcDbLine
10
-2
20
-8
30
0
11
-11.75
21
-8
31
0
39
0
210
0
220
0
230
1
0
LINE
5
1D7
100
AcDbEntity
8
SK2
62
256
6
ByLayer
370
-1
48
1
60
0
100
AcDbLine
10
-9.75
20
19.25
30
0
11
-9.75
21
-19.25
31
0
39
0
210
0
220
0
230
1
0
LINE
5
1D8
100
AcDbEntity
8
SK2
62
256
6
ByLayer
370
-1
48
1
60
0
100
AcDbLine
10
-9.75
20
8
30
0
11
-10.167997
21
11.174998
31
0
39
0
210
0
220
0
230
1
0
LINE
5
1D9
100
AcDbEntity
8
SK2
62
256
6
ByLayer
370
-1
48
1
60
0
100
AcDbLine
10
-9.75
20
8
30
0
11
-9.332003
21
11.175002
31
0
39
0
210
0
220
0
230
1
0
LINE
5
1DA
100
AcDbEntity
8
SK2
62
256
6
ByLayer
370
-1
48
1
60
0
100
AcDbLine
10
-10.167997
20
11.174998
30
0
11
-9.332003
21
11.175002
31
0
39
0
210
0
220
0
230
1
0
LINE
5
1DB
100
AcDbEntity
8
SK2
62
256
6
ByLayer
370
-1
48
1
60
0
100
AcDbLine
10
-9.75
20
-8
30
0
11
-9.332003
21
-11.174998
31
0
39
0
210
0
220
0
230
1
0
LINE
5
1DC
100
AcDbEntity
8
SK2
62
256
6
ByLayer
370
-1
48
1
60
0
100
AcDbLine
10
-9.75
20
-8
30
0
11
-10.167997
21
-11.175002
31
0
39
0
210
0
220
0
230
1
0
LINE
5
1DD
100
AcDbEntity
8
SK2
62
256
6
ByLayer
370
-1
48
1
60
0
100
AcDbLine
10
-9.332003
20
-11.174998
30
0
11
-10.167997
21
-11.175002
31
0
39
0
210
0
220
0
230
1
0
ENDBLK
5
1DF
100
AcDbEntity
8
0
100
AcDbBlockEnd
0
BLOCK
5
1EC
100
AcDbEntity
8
0
100
AcDbBlockBegin
2
DimnDraft3D4
70
0
10
0
20
0
30
0
3
DimnDraft3D4
0
MTEXT
5
1E2
100
AcDbEntity
8
2
62
256
6
ByLayer
370
-1
48
1
60
0
100
AcDbMText
10
53.125
20
-4.818257
30
0
210
0
220
0
230
1
1
\W01.000;\fsimplex.shx,bigfont.shx;%%c40\P
40
4.5
41
0
44
1.084337
50
90
71
7
72
5
7
DEFAULT
0
LINE
5
1E3
100
AcDbEntity
8
2
62
256
6
ByLayer
370
-1
48
1
60
0
100
AcDbLine
10
42
20
20
30
0
11
56.25
21
20
31
0
39
0
210
0
220
0
230
1
0
LINE
5
1E4
100
AcDbEntity
8
2
62
256
6
ByLayer
370
-1
48
1
60
0
100
AcDbLine
10
42
20
-20
30
0
11
56.25
21
-20
31
0
39
0
210
0
220
0
230
1
0
LINE
5
1E5
100
AcDbEntity
8
2
62
256
6
ByLayer
370
-1
48
1
60
0
100
AcDbLine
10
54.25
20
20
30
0
11
54.25
21
-20
31
0
39
0
210
0
220
0
230
1
0
LINE
5
1E6
100
AcDbEntity
8
2
62
256
6
ByLayer
370
-1
48
1
60
0
100
AcDbLine
10
54.25
20
20
30
0
11
54.667997
21
16.825002
31
0
39
0
210
0
220
0
230
1
0
LINE
5
1E7
100
AcDbEntity
8
2
62
256
6
ByLayer
370
-1
48
1
60
0
100
AcDbLine
10
54.25
20
20
30
0
11
53.832003
21
16.824998
31
0
39
0
210
0
220
0
230
1
0
LINE
5
1E8
100
AcDbEntity
8
2
62
256
6
ByLayer
370
-1
48
1
60
0
100
AcDbLine
10
54.667997
20
16.825002
30
0
11
53.832003
21
16.824998
31
0
39
0
210
0
220
0
230
1
0
LINE
5
1E9
100
AcDbEntity
8
2
62
256
6
ByLayer
370
-1
48
1
60
0
100
AcDbLine
10
54.25
20
-20
30
0
11
53.832003
21
-16.825002
31
0
39
0
210
0
220
0
230
1
0
LINE
5
1EA
100
AcDbEntity
8
2
62
256
6
ByLayer
370
-1
48
1
60
0
100
AcDbLine
10
54.25
20
-20
30
0
11
54.667997
21
-16.824998
31
0
39
0
210
0
220
0
230
1
0
LINE
5
1EB
100
AcDbEntity
8
2
62
256
6
ByLayer
370
-1
48
1
60
0
100
AcDbLine
10
53.832003
20
-16.825002
30
0
11
54.667997
21
-16.824998
31
0
39
0
210
0
220
0
230
1
0
ENDBLK
5
1ED
100
AcDbEntity
8
0
100
AcDbBlockEnd
0
ENDSEC
0
SECTION
2
ENTITIES
0
ARC
5
A5
100
AcDbEntity
8
1
62
256
6
ByLayer
370
-1
48
1
60
0
100
AcDbCircle
39
0
10
-13.5
20
-22
30
0
40
5
210
0
220
0
230
-1
100
AcDbArc
50
90
51
96.743682
0
ARC
5
A6
100
AcDbEntity
8
1
62
256
6
ByLayer
370
-1
48
1
60
0
100
AcDbCircle
39
0
10
-13.5
20
22
30
0
40
5
210
0
220
0
230
-1
100
AcDbArc
50
263.256318
51
270
0
ARC
5
A7
100
AcDbEntity
8
1
62
256
6
ByLayer
370
-1
48
1
60
0
100
AcDbCircle
39
0
10
0.5
20
-16.5
30
0
40
0.5
210
0
220
0
230
1
100
AcDbArc
50
180
51
270
0
ARC
5
A8
100
AcDbEntity
8
1
62
256
6
ByLayer
370
-1
48
1
60
0
100
AcDbCircle
39
0
10
0.5
20
16.5
30
0
40
0.5
210
0
220
0
230
1
100
AcDbArc
50
90
51
180
0
ELLIPSE
5
A9
100
AcDbEntity
8
1
62
256
6
ByLayer
370
-1
48
1
60
0
100
AcDbEllipse
10
219.019603
20
-23.418892
30
0
11
210.978337738322
21
-38.8435864526672
31
0
210
0
220
0
230
-1
40
0.051957
41
-2.77780881265067
42
-2.73114414341931
0
ELLIPSE
5
AA
100
AcDbEntity
8
1
62
256
6
ByLayer
370
-1
48
1
60
0
100
AcDbEllipse
10
30.993152
20
-1.514086
30
0
11
1.94929783658952
21
4.20964450465119
31
0
210
0
220
0
230
-1
40
0.355699
41
-1.3425786914417
42
1.03970083317691
0
ELLIPSE
5
AB
100
AcDbEntity
8
1
62
256
6
ByLayer
370
-1
48
1
60
0
100
AcDbEllipse
10
30.192114
20
22.002026
30
0
11
1.12252979829972
21
6.74912318773331
31
0
210
0
220
0
230
-1
40
0.144212
41
-2.53441956903812
42
-2.16973707131734
0
ELLIPSE
5
AC
100
AcDbEntity
8
1
62
256
6
ByLayer
370
-1
48
1
60
0
100
AcDbEllipse
10
36.048458
20
-0.523028
30
0
11
-0.988183132677367
21
0.272248225507432
31
0
210
0
220
0
230
1
40
0.386314
41
-3.03556092721411
42
0.106031726375684
0
ELLIPSE
5
AD
100
AcDbEntity
8
1
62
256
6
ByLayer
370
-1
48
1
60
0
100
AcDbEllipse
10
36.316759
20
0.450829
30
0
11
-1.5
21
1.83690953073357E-16
31
0
210
0
220
0
230
1
40
0.917187
41
0.13786783969941
42
0.570970319139683
0
ELLIPSE
5
AE
100
AcDbEntity
8
1
62
256
6
ByLayer
370
-1
48
1
60
0
100
AcDbEllipse
10
36.048458
20
-15.874029
30
0
11
-0.238651432110864
21
0.996830223233342
31
0
210
0
220
0
230
1
40
0.96775
41
-1.81331561556256
42
0.589561220409168
0
ELLIPSE
5
AF
100
AcDbEntity
8
1
62
256
6
ByLayer
370
-1
48
1
60
0
100
AcDbEllipse
10
35.983049
20
0.117777
30
0
11
4.49733455788845
21
19.2181733553047
31
0
210
0
220
0
230
-1
40
0.095504
41
1.55124130709055
42
1.58131665693284
0
ELLIPSE
5
B0
100
AcDbEntity
8
1
62
256
6
ByLayer
370
-1
48
1
60
0
100
AcDbEllipse
10
25.990427
20
-28.294719
30
0
11
-6.03240508507918
21
13.9597752545066
31
0
210
0
220
0
230
1
40
0.987171
41
0.31136377032708
42
0.320494213832211
0
ELLIPSE
5
B1
100
AcDbEntity
8
1
62
256
6
ByLayer
370
-1
48
1
60
0
100
AcDbEllipse
10
33.448485
20
0.558921
30
0
11
6.05972482623481
21
19.0897320062677
31
0
210
0
220
0
230
-1
40
0.458687
41
2.84850538556687
42
2.87482737842266
0
ELLIPSE
5
B2
100
AcDbEntity
8
1
62
256
6
ByLayer
370
-1
48
1
60
0
100
AcDbEllipse
10
31.263082
20
10.346819
30
0
11
0.800125536970421
21
-3.44057111037822
31
0
210
0
220
0
230
-1
40
0.174341
41
2.45490561180778
42
2.53512249102754
0
ELLIPSE
5
B3
100
AcDbEntity
8
1
62
256
6
ByLayer
370
-1
48
1
60
0
100
AcDbEllipse
10
29.071099
20
10.224618
30
0
11
1.10480300350305
21
0.588758107767294
31
0
210
0
220
0
230
-1
40
0.487362
41
-1.29549433054348
42
-1.08821957753782
0
ELLIPSE
5
B4
100
AcDbEntity
8
1
62
256
6
ByLayer
370
-1
48
1
60
0
100
AcDbEllipse
10
27.710596
20
8.708365
30
0
11
0.264095858836145
21
1.22178286833038
31
0
210
0
220
0
230
1
40
0.048736
41
0.60570952927625
42
2.43830524387029
0
ELLIPSE
5
B5
100
AcDbEntity
8
1
62
256
6
ByLayer
370
-1
48
1
60
0
100
AcDbEllipse
10
32.888616
20
0.104884
30
0
11
4.04676597288619
21
19.1328949310535
31
0
210
0
220
0
230
-1
40
0.138461
41
-0.570803968003597
42
-0.533742300687683
0
ELLIPSE
5
B6
100
AcDbEntity
8
1
62
256
6
ByLayer
370
-1
48
1
60
0
100
AcDbEllipse
10
35.983049
20
0.007768
30
0
11
0.313821825433658
21
19.222452137532
31
0
210
0
220
0
230
-1
40
0.252168
41
2.58781157105412
42
2.69998235096205
0
ELLIPSE
5
B7
100
AcDbEntity
8
1
62
256
6
ByLayer
370
-1
48
1
60
0
100
AcDbEllipse
10
36.316759
20
-0.264653
30
0
11
0.0279223493439811
21
-3.45468033315581
31
0
210
0
220
0
230
-1
40
0.434118
41
1.66110682758681
42
1.83691982806699
0
ELLIPSE
5
B8
100
AcDbEntity
8
1
62
256
6
ByLayer
370
-1
48
1
60
0
100
AcDbEllipse
10
30.126116
20
17.392515
30
0
11
-13.7759579132405
21
2.4945908627719
31
0
210
0
220
0
230
1
40
0.568669
41
1.51151312146621
42
1.56160839193458
0
ELLIPSE
5
B9
100
AcDbEntity
8
1
62
256
6
ByLayer
370
-1
48
1
60
0
100
AcDbEllipse
10
32.888616
20
0.007735
30
0
11
0.312486335595033
21
19.1406501284275
31
0
210
0
220
0
230
-1
40
0.252168
41
2.58933946178154
42
2.65657679620633
0
ELLIPSE
5
BA
100
AcDbEntity
8
1
62
256
6
ByLayer
370
-1
48
1
60
0
100
AcDbEllipse
10
36.448065
20
0.927431
30
0
11
1.55695255917586
21
0.175773075526641
31
0
210
0
220
0
230
-1
40
0.629973
41
-3.0002603446128
42
0.141332308976986
0
ELLIPSE
5
BB
100
AcDbEntity
8
1
62
256
6
ByLayer
370
-1
48
1
60
0
100
AcDbEllipse
10
30.311803
20
14.480862
30
0
11
-0.447515124346372
21
-1.52284577417615
31
0
210
0
220
0
230
1
40
0.408271
41
0.446878575712933
42
0.56112440732685
0
ELLIPSE
5
BC
100
AcDbEntity
8
1
62
256
6
ByLayer
370
-1
48
1
60
0
100
AcDbEllipse
10
25.990427
20
16.963003
30
0
11
-14.9640430498718
21
2.70973280387692
31
0
210
0
220
0
230
1
40
0.568669
41
0.940301771522196
42
1.51151312146622
0
ELLIPSE
5
BD
100
AcDbEntity
8
1
62
256
6
ByLayer
370
-1
48
1
60
0
100
AcDbEllipse
10
29.920351
20
10.022741
30
0
11
1.69344307365004
21
-0.165109853050532
31
0
210
0
220
0
230
-1
40
0.512826
41
2.4315033211907
42
-2.32582044797128
0
ELLIPSE
5
BE
100
AcDbEntity
8
1
62
256
6
ByLayer
370
-1
48
1
60
0
100
AcDbEllipse
10
36.316759
20
0.450829
30
0
11
1.44612165757663
21
-0.398412037327949
31
0
210
0
220
0
230
1
40
0.386314
41
0.106031726375685
42
3.04518878671151
0
ELLIPSE
5
BF
100
AcDbEntity
8
1
62
256
6
ByLayer
370
-1
48
1
60
0
100
AcDbEllipse
10
30.102041
20
8.301603
30
0
11
0.103904830190453
21
1.24567402889484
31
0
210
0
220
0
230
1
40
0.137225
41
-2.61824304319423
42
-2.03008967511598
0
ELLIPSE
5
C0
100
AcDbEntity
8
1
62
256
6
ByLayer
370
-1
48
1
60
0
100
AcDbEllipse
10
219.019602
20
-18.782298
30
0
11
210.964479456829
21
-31.3871329418592
31
0
210
0
220
0
230
-1
40
0.100348
41
2.70664991948581
42
2.7533145888052
0
ELLIPSE
5
C1
100
AcDbEntity
8
1
62
256
6
ByLayer
370
-1
48
1
60
0
100
AcDbEllipse
10
343.523559
20
-2.860897
30
0
11
377.872719719152
21
-3.61355813507625
31
0
210
0
220
0
230
-1
40
0.089095
41
2.55445275815819
42
2.60807024930255
0
ELLIPSE
5
C2
100
AcDbEntity
8
1
62
256
6
ByLayer
370
-1
48
1
60
0
100
AcDbEllipse
10
30.993152
20
-18.610276
30
0
11
1.78622390042797
21
6.57029705953266
31
0
210
0
220
0
230
-1
40
0.257
41
-1.24029676160953
42
1.14198276300908
0
ELLIPSE
5
C3
100
AcDbEntity
8
1
62
256
6
ByLayer
370
-1
48
1
60
0
100
AcDbEllipse
10
54.267662
20
-1.890934
30
0
11
77.9676975314752
21
-18.2435237325095
31
0
210
0
220
0
230
-1
40
0.094982
41
1.75052307285495
42
1.82857786995387
0
ELLIPSE
5
C4
100
AcDbEntity
8
1
62
256
6
ByLayer
370
-1
48
1
60
0
100
AcDbEllipse
10
343.523559
20
-41.044462
30
0
11
377.868645414493
21
-51.4935180747085
31
0
210
0
220
0
230
-1
40
0.034644
41
2.55058373277697
42
2.60420122395655
0
ELLIPSE
5
C5
100
AcDbEntity
8
1
62
256
6
ByLayer
370
-1
48
1
60
0
100
AcDbEllipse
10
36.316759
20
-15.809795
30
0
11
-1.5
21
1.83690953073357E-16
31
0
210
0
220
0
230
1
40
0.060496
41
2.07560728145046
42
2.89408512708997
0
ELLIPSE
5
C6
100
AcDbEntity
8
1
62
256
6
ByLayer
370
-1
48
1
60
0
100
AcDbEllipse
10
36.742808
20
-15.707795
30
0
11
1.36209868686984
21
0.803055592331357
31
0
210
0
220
0
230
-1
40
0.943664
41
-2.5846886479759
42
0.556904005613895
0
ELLIPSE
5
C7
100
AcDbEntity
8
1
62
256
6
ByLayer
370
-1
48
1
60
0
100
AcDbEllipse
10
30.311803
20
-4.640459
30
0
11
-0.766012115439193
21
-1.39016347148286
31
0
210
0
220
0
230
1
40
0.005034
41
-1.51717431313587
42
-1.40292848152457
0
ELLIPSE
5
C8
100
AcDbEntity
8
1
62
256
6
ByLayer
370
-1
48
1
60
0
100
AcDbEllipse
10
31.521027
20
-4.706858
30
0
11
-1.84362301537729
21
0.507925178889893
31
0
210
0
220
0
230
1
40
0.386314
41
-2.16469887249972
42
-1.74891334652083
0
ELLIPSE
5
C9
100
AcDbEntity
8
1
62
256
6
ByLayer
370
-1
48
1
60
0
100
AcDbEllipse
10
30.192114
20
14.268267
30
0
11
1.14007835627435
21
3.75290685508815
31
0
210
0
220
0
230
-1
40
0.253853
41
-2.84171384065359
42
-2.18795948292195
0
ELLIPSE
5
CA
100
AcDbEntity
8
1
62
256
6
ByLayer
370
-1
48
1
60
0
100
AcDbEllipse
10
30.993152
20
17.632724
30
0
11
2.24826301484233
21
-2.21674369774472
31
0
210
0
220
0
230
-1
40
0.44821
41
1.14857395984014
42
1.58147876141303
0
ELLIPSE
5
CB
100
AcDbEntity
8
1
62
256
6
ByLayer
370
-1
48
1
60
0
100
AcDbEllipse
10
219.019605
20
4.131739
30
0
11
210.985258503965
21
6.99923581662997
31
0
210
0
220
0
230
-1
40
0.153482
41
2.72667010279071
42
2.77333477168004
0
ELLIPSE
5
CC
100
AcDbEntity
8
1
62
256
6
ByLayer
370
-1
48
1
60
0
100
AcDbEllipse
10
343.523558
20
-36.560537
30
0
11
377.865713310683
21
-45.9309052832018
31
0
210
0
220
0
230
-1
40
0.050583
41
-2.61507073063732
42
-2.56145323940437
0
ELLIPSE
5
CD
100
AcDbEntity
8
1
62
256
6
ByLayer
370
-1
48
1
60
0
100
AcDbEllipse
10
36.316759
20
0.450829
30
0
11
-1.5
21
1.83690953073357E-16
31
0
210
0
220
0
230
1
40
0.917187
41
2.07560728145045
42
2.89408512708996
0
ELLIPSE
5
CE
100
AcDbEntity
8
1
62
256
6
ByLayer
370
-1
48
1
60
0
100
AcDbEllipse
10
71.504316
20
-2.670965
30
0
11
95.5568333587329
21
-5.77937948961738
31
0
210
0
220
0
230
-1
40
0.212178
41
2.00826198757809
42
2.00963751793445
0
ELLIPSE
5
CF
100
AcDbEntity
8
1
62
256
6
ByLayer
370
-1
48
1
60
0
100
AcDbEllipse
10
54.267662
20
-0.124723
30
0
11
77.9862981715499
21
-1.27218217659222
31
0
210
0
220
0
230
-1
40
0.250779
41
1.76865316701672
42
1.84670796403844
0
ELLIPSE
5
D0
100
AcDbEntity
8
1
62
256
6
ByLayer
370
-1
48
1
60
0
100
AcDbEllipse
10
54.267662
20
-1.69112
30
0
11
77.953909492703
21
-16.4839820420226
31
0
210
0
220
0
230
-1
40
0.137704
41
-1.87990922684791
42
-1.80185442980157
0
ELLIPSE
5
D1
100
AcDbEntity
8
1
62
256
6
ByLayer
370
-1
48
1
60
0
100
AcDbEllipse
10
33.448485
20
0.671484
30
0
11
6.99488877930191
21
19.0685016921133
31
0
210
0
220
0
230
-1
40
0.421055
41
-1.05528665231722
42
-1.02896466055898
0
ELLIPSE
5
D2
100
AcDbEntity
8
1
62
256
6
ByLayer
370
-1
48
1
60
0
100
AcDbEllipse
10
23.805537
20
9.552467
30
0
11
0.264095858836145
21
1.22178286833038
31
0
210
0
220
0
230
1
40
0.048736
41
0.605709529276287
42
2.43830524387029
0
ELLIPSE
5
D3
100
AcDbEntity
8
1
62
256
6
ByLayer
370
-1
48
1
60
0
100
AcDbEllipse
10
30.311803
20
-19.811204
30
0
11
-0.377132019855059
21
-1.54178483519749
31
0
210
0
220
0
230
1
40
0.432473
41
-2.56409268756551
42
-2.44984685595304
0
ELLIPSE
5
D4
100
AcDbEntity
8
1
62
256
6
ByLayer
370
-1
48
1
60
0
100
AcDbEllipse
10
29.895487
20
16.118901
30
0
11
-14.9640430498718
21
2.70973280387692
31
0
210
0
220
0
230
1
40
0.568669
41
1.51151312146622
42
1.66950337304698
0
ELLIPSE
5
D5
100
AcDbEntity
8
1
62
256
6
ByLayer
370
-1
48
1
60
0
100
AcDbEllipse
10
36.316759
20
-15.809795
30
0
11
0.349245998211015
21
-1.45877593643904
31
0
210
0
220
0
230
1
40
0.96775
41
1.32827703802724
42
2.97933151999155
0
ELLIPSE
5
D6
100
AcDbEntity
8
1
62
256
6
ByLayer
370
-1
48
1
60
0
100
AcDbEllipse
10
25.990427
20
-10.512156
30
0
11
-15.0133539606155
21
2.42166040560887
31
0
210
0
220
0
230
1
40
0.39094
41
-1.19473067473109
42
-0.774711808265067
0
ELLIPSE
5
D7
100
AcDbEntity
8
1
62
256
6
ByLayer
370
-1
48
1
60
0
100
AcDbEllipse
10
36.633345
20
16.560533
30
0
11
1.55941506455915
21
-0.000953446999742465
31
0
210
0
220
0
230
-1
40
0.366234
41
0.734929835305674
42
3.08449759524642
0
ELLIPSE
5
D8
100
AcDbEntity
8
1
62
256
6
ByLayer
370
-1
48
1
60
0
100
AcDbEllipse
10
35.983049
20
0.105332
30
0
11
4.064060809318
21
19.2146640839721
31
0
210
0
220
0
230
-1
40
0.138461
41
-0.614209520096158
42
-0.532214437924572
0
ELLIPSE
5
D9
100
AcDbEntity
8
1
62
256
6
ByLayer
370
-1
48
1
60
0
100
AcDbEllipse
10
26.221057
20
18.236618
30
0
11
-13.7759579132405
21
2.49459086277191
31
0
210
0
220
0
230
1
40
0.568669
41
1.03816073245373
42
1.51151312146622
0
ELLIPSE
5
DA
100
AcDbEntity
8
1
62
256
6
ByLayer
370
-1
48
1
60
0
100
AcDbEllipse
10
343.523559
20
4.996959
30
0
11
377.872441904141
21
6.31114867796535
31
0
210
0
220
0
230
-1
40
0.088701
41
-2.59590296501127
42
-2.55382328987633
0
ELLIPSE
5
DB
100
AcDbEntity
8
1
62
256
6
ByLayer
370
-1
48
1
60
0
100
AcDbEllipse
10
33.448452
20
1.259016
30
0
11
10.6481476487555
21
19.3238263474616
31
0
210
0
220
0
230
-1
40
0.004399
41
1.8910607505935
42
1.91738287265731
0
ELLIPSE
5
DC
100
AcDbEntity
8
1
62
256
6
ByLayer
370
-1
48
1
60
0
100
AcDbEllipse
10
34.304034
20
16.478632
30
0
11
0.679625931856636
21
1.58547582534329
31
0
210
0
220
0
230
1
40
0.963822
41
1.52995122407391
42
2.08661694621856
0
ELLIPSE
5
DD
100
AcDbEntity
8
1
62
256
6
ByLayer
370
-1
48
1
60
0
100
AcDbEllipse
10
34.261425
20
16.496897
30
0
11
0.407775559113982
21
0.951285495205976
31
0
210
0
220
0
230
1
40
0.963822
41
0.942934180382458
42
1.64658154139659
0
ELLIPSE
5
DE
100
AcDbEntity
8
1
62
256
6
ByLayer
370
-1
48
1
60
0
100
AcDbEllipse
10
34.261425
20
16.496897
30
0
11
0.407775559113982
21
0.951285495205976
31
0
210
0
220
0
230
1
40
0.963822
41
-1.15231890167063
42
-0.10597933013395
0
ELLIPSE
5
DF
100
AcDbEntity
8
1
62
256
6
ByLayer
370
-1
48
1
60
0
100
AcDbEllipse
10
34.304034
20
16.478632
30
0
11
0.679625931856636
21
1.58547582534329
31
0
210
0
220
0
230
1
40
0.963822
41
-1.42894252418557
42
-1.17900626522823
0
ELLIPSE
5
E0
100
AcDbEntity
8
1
62
256
6
ByLayer
370
-1
48
1
60
0
100
AcDbEllipse
10
34.304034
20
16.478632
30
0
11
0.679625931856636
21
1.58547582534329
31
0
210
0
220
0
230
1
40
0.963822
41
-1.17900568249193
42
0
0
ELLIPSE
5
E1
100
AcDbEntity
8
1
62
256
6
ByLayer
370
-1
48
1
60
0
100
AcDbEllipse
10
34.304034
20
16.478632
30
0
11
0.679625931856636
21
1.58547582534329
31
0
210
0
220
0
230
1
40
0.963822
41
0
42
2.08325967825179
0
ELLIPSE
5
E2
100
AcDbEntity
8
1
62
256
6
ByLayer
370
-1
48
1
60
0
100
AcDbEllipse
10
34.506413
20
16.391881
30
0
11
-0.294701563494935
21
-0.687499082525671
31
0
210
0
220
0
230
1
40
0.963822
41
1.97012834828163
42
2.34689214733114
0
ELLIPSE
5
E3
100
AcDbEntity
8
1
62
256
6
ByLayer
370
-1
48
1
60
0
100
AcDbEllipse
10
34.919074
20
17.134604
30
0
11
-0.0728874187788276
21
-0.17003653779044
31
0
210
0
220
0
230
1
40
0.963822
41
-2.3061963874548
42
-1.9460290285736
0
ELLIPSE
5
E4
100
AcDbEntity
8
1
62
256
6
ByLayer
370
-1
48
1
60
0
100
AcDbEllipse
10
34.506413
20
16.391881
30
0
11
-0.294701563494935
21
-0.687499082525671
31
0
210
0
220
0
230
1
40
0.963822
41
-2.6853838765485
42
-1.81471223762684
0
ELLIPSE
5
E5
100
AcDbEntity
8
1
62
256
6
ByLayer
370
-1
48
1
60
0
100
AcDbEllipse
10
34.093752
20
17.112015
30
0
11
-0.0728874187788276
21
-0.17003653779044
31
0
210
0
220
0
230
1
40
0.963822
41
-2.5941165378812
42
-0.900588959586522
0
ELLIPSE
5
E6
100
AcDbEntity
8
1
62
256
6
ByLayer
370
-1
48
1
60
0
100
AcDbEllipse
10
34.506413
20
16.391881
30
0
11
0.294701563494935
21
0.687499082525671
31
0
210
0
220
0
230
1
40
0.963822
41
0.380746073207216
42
0.456208777041293
0
ELLIPSE
5
E7
100
AcDbEntity
8
1
62
256
6
ByLayer
370
-1
48
1
60
0
100
AcDbEllipse
10
34.302019
20
16.479496
30
0
11
0.294701563494935
21
0.687499082525671
31
0
210
0
220
0
230
1
40
0.963822
41
0.380746073207224
42
0.456208777041297
0
ELLIPSE
5
E8
100
AcDbEntity
8
1
62
256
6
ByLayer
370
-1
48
1
60
0
100
AcDbEllipse
10
34.261425
20
16.496897
30
0
11
0.512181861689059
21
1.19485134663553
31
0
210
0
220
0
230
1
40
0.963822
41
-1.42746948266253
42
-1.17900561525311
0
ELLIPSE
5
E9
100
AcDbEntity
8
1
62
256
6
ByLayer
370
-1
48
1
60
0
100
AcDbEllipse
10
34.261425
20
16.496897
30
0
11
0.512181861689059
21
1.19485134663553
31
0
210
0
220
0
230
1
40
0.963822
41
-1.17900561525312
42
0
0
ELLIPSE
5
EA
100
AcDbEntity
8
1
62
256
6
ByLayer
370
-1
48
1
60
0
100
AcDbEllipse
10
34.261425
20
16.496897
30
0
11
0.512181861689059
21
1.19485134663553
31
0
210
0
220
0
230
1
40
0.963822
41
0
42
1.90291285340397
0
ELLIPSE
5
EB
100
AcDbEntity
8
1
62
256
6
ByLayer
370
-1
48
1
60
0
100
AcDbEllipse
10
34.506413
20
16.391881
30
0
11
-0.294701563494935
21
-0.687499082525671
31
0
210
0
220
0
230
1
40
0.963822
41
3.02132092793662
42
-2.76084658038258
0
ELLIPSE
5
EC
100
AcDbEntity
8
1
62
256
6
ByLayer
370
-1
48
1
60
0
100
AcDbEllipse
10
34.506413
20
17.55353
30
0
11
-0.166262112025217
21
-0.387867129446302
31
0
210
0
220
0
230
1
40
0.963822
41
-4.60527019858923E-06
42
0.351564102808107
0
ELLIPSE
5
ED
100
AcDbEntity
8
1
62
256
6
ByLayer
370
-1
48
1
60
0
100
AcDbEllipse
10
34.261425
20
16.496897
30
0
11
0.407775559113982
21
0.951285495205976
31
0
210
0
220
0
230
1
40
0.963822
41
-1.36793073366793
42
-1.15231890167064
0
ELLIPSE
5
EE
100
AcDbEntity
8
1
62
256
6
ByLayer
370
-1
48
1
60
0
100
AcDbEllipse
10
33.523798
20
16.946113
30
0
11
-0.166262112025217
21
-0.387867129446302
31
0
210
0
220
0
230
1
40
0.963822
41
1.67774876150742
42
2.24100369400326
0
ELLIPSE
5
EF
100
AcDbEntity
8
1
62
256
6
ByLayer
370
-1
48
1
60
0
100
AcDbEllipse
10
34.261425
20
16.496897
30
0
11
0.407775559113982
21
0.951285495205976
31
0
210
0
220
0
230
1
40
0.963822
41
-0.10597933013395
42
0.942934180382458
0
ELLIPSE
5
F0
100
AcDbEntity
8
1
62
256
6
ByLayer
370
-1
48
1
60
0
100
AcDbEllipse
10
34.506413
20
17.55353
30
0
11
-0.166262112025217
21
-0.387867129446302
31
0
210
0
220
0
230
1
40
0.963822
41
0.485390747440397
42
1.19556362501621
0
ELLIPSE
5
F1
100
AcDbEntity
8
1
62
256
6
ByLayer
370
-1
48
1
60
0
100
AcDbEllipse
10
34.304034
20
8.845748
30
0
11
-1.64855021519665
21
0.507845634002169
31
0
210
0
220
0
230
1
40
0.554548
41
0.0361819903686519
42
0.862393012611297
0
ELLIPSE
5
F2
100
AcDbEntity
8
1
62
256
6
ByLayer
370
-1
48
1
60
0
100
AcDbEllipse
10
34.304034
20
8.845748
30
0
11
-1.64855021519665
21
0.507845634002169
31
0
210
0
220
0
230
1
40
0.554548
41
2.85079709481004
42
-3.10541032710309
0
ELLIPSE
5
F3
100
AcDbEntity
8
1
62
256
6
ByLayer
370
-1
48
1
60
0
100
AcDbEllipse
10
35.412869
20
-16.245584
30
0
11
-0.221189132200312
21
0.92389142641139
31
0
210
0
220
0
230
1
40
0.96775
41
-1.81335221771009
42
-0.0781128615856196
0
ELLIPSE
5
F4
100
AcDbEntity
8
1
62
256
6
ByLayer
370
-1
48
1
60
0
100
AcDbEllipse
10
34.261425
20
8.707429
30
0
11
-0.989130129117992
21
0.304707380401301
31
0
210
0
220
0
230
1
40
0.554548
41
-0.877141124246567
42
0.169198447290131
0
ELLIPSE
5
F5
100
AcDbEntity
8
1
62
256
6
ByLayer
370
-1
48
1
60
0
100
AcDbEllipse
10
34.506413
20
9.502701
30
0
11
-0.714849600560636
21
0.220213643033984
31
0
210
0
220
0
230
1
40
0.554548
41
1.70226342216797
42
1.77772612600206
0
ELLIPSE
5
F6
100
AcDbEntity
8
1
62
256
6
ByLayer
370
-1
48
1
60
0
100
AcDbEllipse
10
34.261425
20
8.707429
30
0
11
-0.989130129117992
21
0.304707380401301
31
0
210
0
220
0
230
1
40
0.554548
41
-2.97239420629967
42
-1.92605463476298
0
ELLIPSE
5
F7
100
AcDbEntity
8
1
62
256
6
ByLayer
370
-1
48
1
60
0
100
AcDbEllipse
10
34.093752
20
9.167397
30
0
11
0.176801037571815
21
-0.0544646042263194
31
0
210
0
220
0
230
1
40
0.554548
41
-2.99198298509032
42
-0.624511679612822
0
ELLIPSE
5
F8
100
AcDbEntity
8
1
62
256
6
ByLayer
370
-1
48
1
60
0
100
AcDbEllipse
10
34.261425
20
8.707429
30
0
11
-0.989130129117992
21
0.304707380401301
31
0
210
0
220
0
230
1
40
0.554548
41
-1.92605463476298
42
-0.877141124246567
0
ELLIPSE
5
F9
100
AcDbEntity
8
1
62
256
6
ByLayer
370
-1
48
1
60
0
100
AcDbEllipse
10
33.523798
20
9.372012
30
0
11
0.403297501920573
21
-0.124238178289226
31
0
210
0
220
0
230
1
40
0.554548
41
7.97319822497575E-06
42
0.323043006959433
0
ELLIPSE
5
FA
100
AcDbEntity
8
1
62
256
6
ByLayer
370
-1
48
1
60
0
100
AcDbEllipse
10
34.261425
20
8.707429
30
0
11
-1.24238566942357
21
0.382724245914677
31
0
210
0
220
0
230
1
40
0.554548
41
0
42
6.28318530717959
0
ELLIPSE
5
FB
100
AcDbEntity
8
1
62
256
6
ByLayer
370
-1
48
1
60
0
100
AcDbEllipse
10
34.506413
20
8.834331
30
0
11
0.403297501920573
21
-0.124238178289226
31
0
210
0
220
0
230
1
40
0.554548
41
0.962908574193069
42
1.67308145176887
0
ELLIPSE
5
FC
100
AcDbEntity
8
1
62
256
6
ByLayer
370
-1
48
1
60
0
100
AcDbEllipse
10
34.919074
20
8.996331
30
0
11
0.176801037571815
21
-0.0544646042263194
31
0
210
0
220
0
230
1
40
0.554548
41
-2.1786840793967
42
-1.16698567805607
0
ELLIPSE
5
FD
100
AcDbEntity
8
1
62
256
6
ByLayer
370
-1
48
1
60
0
100
AcDbEllipse
10
34.261425
20
8.707429
30
0
11
-0.989130129117992
21
0.304707380401301
31
0
210
0
220
0
230
1
40
0.554548
41
2.26445152934323
42
-2.97239420629968
0
ELLIPSE
5
FE
100
AcDbEntity
8
1
62
256
6
ByLayer
370
-1
48
1
60
0
100
AcDbEllipse
10
34.302019
20
8.839205
30
0
11
-0.714849600560636
21
0.220213643033984
31
0
210
0
220
0
230
1
40
0.554548
41
1.70226342216797
42
1.77772612600206
0
ELLIPSE
5
FF
100
AcDbEntity
8
1
62
256
6
ByLayer
370
-1
48
1
60
0
100
AcDbEllipse
10
34.506413
20
9.502701
30
0
11
-0.714849600560636
21
0.220213643033984
31
0
210
0
220
0
230
1
40
0.554548
41
1.77772612600206
42
2.23318927459707
0
ELLIPSE
5
100
100
AcDbEntity
8
1
62
256
6
ByLayer
370
-1
48
1
60
0
100
AcDbEllipse
10
34.506413
20
8.834331
30
0
11
0.403297501920573
21
-0.124238178289226
31
0
210
0
220
0
230
1
40
0.554548
41
1.80690809640118
42
2.51708097397697
0
ELLIPSE
5
101
100
AcDbEntity
8
1
62
256
6
ByLayer
370
-1
48
1
60
0
100
AcDbEllipse
10
34.261425
20
8.707429
30
0
11
-0.989130129117992
21
0.304707380401301
31
0
210
0
220
0
230
1
40
0.554548
41
0.169198447290131
42
1.21553801882682
0
ELLIPSE
5
102
100
AcDbEntity
8
1
62
256
6
ByLayer
370
-1
48
1
60
0
100
AcDbEllipse
10
34.506413
20
9.502701
30
0
11
0.714849600560636
21
-0.220213643033983
31
0
210
0
220
0
230
1
40
0.554548
41
-2.20426224685466
42
-1.43932923142182
0
ELLIPSE
5
103
100
AcDbEntity
8
1
62
256
6
ByLayer
370
-1
48
1
60
0
100
AcDbEllipse
10
34.261425
20
8.707429
30
0
11
-0.989130129117992
21
0.304707380401301
31
0
210
0
220
0
230
1
40
0.554548
41
1.21553801882682
42
2.26445152934323
0
ELLIPSE
5
104
100
AcDbEntity
8
1
62
256
6
ByLayer
370
-1
48
1
60
0
100
AcDbEllipse
10
34.304034
20
8.845748
30
0
11
-1.64855021519665
21
0.507845634002169
31
0
210
0
220
0
230
1
40
0.554548
41
0
42
6.28318530717959
0
ELLIPSE
5
105
100
AcDbEntity
8
1
62
256
6
ByLayer
370
-1
48
1
60
0
100
AcDbEllipse
10
34.302019
20
8.839205
30
0
11
-0.714849600560636
21
0.220213643033984
31
0
210
0
220
0
230
1
40
0.554548
41
-1.43932923142182
42
-1.36386652758773
0
POINT
5
42
100
AcDbEntity
8
80
62
256
6
ByLayer
370
-1
48
1
60
0
100
AcDbPoint
10
0
20
0
30
0
39
0
210
0
220
0
230
1
50
360
0
POINT
5
44
100
AcDbEntity
8
81
62
256
6
ByLayer
370
-1
48
1
60
0
100
AcDbPoint
10
40
20
19.935
30
0
39
0
210
0
220
0
230
1
50
360
0
POINT
5
46
100
AcDbEntity
8
2
62
256
6
ByLayer
370
-1
48
1
60
0
100
AcDbPoint
10
40
20
19.935
30
0
39
0
210
0
220
0
230
1
50
360
0
SPLINE
5
106
100
AcDbEntity
8
1
62
256
6
ByLayer
370
-1
48
1
60
0
100
AcDbSpline
70
4
71
1
72
4
73
2
40
0
40
0
40
1
40
1
41
1
10
39.5094834290446
20
6.78364458233935
30
0
41
1
10
39.6476048954434
20
7.82857449045798
30
0
0
SPLINE
5
107
100
AcDbEntity
8
1
62
256
6
ByLayer
370
-1
48
1
60
0
100
AcDbSpline
70
4
71
1
72
4
73
2
40
0
40
0
40
1
40
1
41
1
10
39.8671510167302
20
9.48950609164396
30
0
41
1
10
39.9724929449131
20
10.2864490593598
30
0
0
SPLINE
5
108
100
AcDbEntity
8
1
62
256
6
ByLayer
370
-1
48
1
60
0
100
AcDbSpline
70
4
71
3
72
8
73
4
40
0
40
0
40
0
40
0
40
1
40
1
40
1
40
1
41
1
10
29.3517784761655
20
-6.52216905065259
30
-7E-16
41
1
10
29.4395680648324
20
-6.54088142831284
30
-6E-16
41
1
10
29.523341679711
20
-6.5575103465824
30
-6E-16
41
1
10
29.6048726355737
20
-6.57230942260227
30
-6E-16
0
SPLINE
5
109
100
AcDbEntity
8
1
62
256
6
ByLayer
370
-1
48
1
60
0
100
AcDbSpline
70
4
71
3
72
13
73
9
40
0
40
0
40
0
40
0
40
0.32800178767235
40
0.760473984305523
40
0.88779534353488
40
0.935602469104001
40
0.97866854005577
40
1
40
1
40
1
40
1
41
1
10
29.9297894830233
20
-6.69914574970292
30
-6E-16
41
1
10
29.9497951951998
20
-6.70466257852877
30
-6E-16
41
1
10
29.9956917060904
20
-6.71671028558802
30
-6E-16
41
1
10
30.0496128013737
20
-6.73031888791155
30
-6E-16
41
1
10
30.0843832212827
20
-6.73724157793365
30
-6E-16
41
1
10
30.0937929490919
20
-6.73814823590209
30
-6E-16
41
1
10
30.0966382656328
20
-6.73780149567963
30
-6E-16
41
1
10
30.0969424093965
20
-6.73722259055523
30
-6E-16
41
1
10
30.0969399656001
20
-6.73700112190744
30
-6E-16
0
SPLINE
5
10A
100
AcDbEntity
8
1
62
256
6
ByLayer
370
-1
48
1
60
0
100
AcDbSpline
70
4
71
3
72
8
73
4
40
0
40
0
40
0
40
0
40
1
40
1
40
1
40
1
41
1
10
31.360557908965
20
-7.07714287849078
30
-5E-16
41
1
10
31.4416684058895
20
-7.09914368995899
30
-5E-16
41
1
10
31.5224315428379
20
-7.12182483279182
30
-5E-16
41
1
10
31.6027519341939
20
-7.14530171895754
30
-5E-16
0
SPLINE
5
10B
100
AcDbEntity
8
1
62
256
6
ByLayer
370
-1
48
1
60
0
100
AcDbSpline
70
4
71
3
72
8
73
4
40
0
40
0
40
0
40
0
40
1
40
1
40
1
40
1
41
1
10
39.435742091176
20
6.87241940874927
30
0
41
1
10
39.4243482349588
20
7.05871051086271
30
0
41
1
10
39.4131345995495
20
7.24583801447466
30
0
41
1
10
39.4020919602749
20
7.43364738576972
30
0
0
SPLINE
5
10C
100
AcDbEntity
8
1
62
256
6
ByLayer
370
-1
48
1
60
0
100
AcDbSpline
70
4
71
1
72
4
73
2
40
0
40
0
40
1
40
1
41
1
10
39.272349886632
20
5.17015732433424
30
0
41
1
10
39.395280587118
20
6.72159664254235
30
0
0
SPLINE
5
10D
100
AcDbEntity
8
1
62
256
6
ByLayer
370
-1
48
1
60
0
100
AcDbSpline
70
4
71
2
72
6
73
3
40
0
40
0
40
0
40
1
40
1
40
1
41
1
10
29.9798171849242
20
-19.712193744123
30
-2E-16
41
1
10
30.0601160268932
20
-19.7233131405815
30
-2E-16
41
1
10
30.1406694247189
20
-19.7253604558928
30
-2E-16
0
SPLINE
5
10E
100
AcDbEntity
8
1
62
256
6
ByLayer
370
-1
48
1
60
0
100
AcDbSpline
70
4
71
2
72
6
73
3
40
0
40
0
40
0
40
1
40
1
40
1
41
1
10
30.1421366294821
20
19.5852448854336
30
-2E-16
41
1
10
30.0610546940815
20
19.5821330074919
30
-2E-16
41
1
10
29.9802264470284
20
19.5700308593375
30
-2E-16
0
SPLINE
5
10F
100
AcDbEntity
8
1
62
256
6
ByLayer
370
-1
48
1
60
0
100
AcDbSpline
70
4
71
2
72
6
73
3
40
0
40
0
40
0
40
1
40
1
40
1
41
1
10
39.9717943995975
20
8.79908685527315
30
0
41
1
10
39.7349108238983
20
10.3533610828941
30
0
41
1
10
39.5063628522144
20
11.8885163897441
30
0
0
SPLINE
5
110
100
AcDbEntity
8
1
62
256
6
ByLayer
370
-1
48
1
60
0
100
AcDbSpline
70
4
71
2
72
6
73
3
40
0
40
0
40
0
40
1
40
1
40
1
41
1
10
30.109965810885
20
12.3789224176117
30
-6E-16
41
1
10
30.0404812083648
20
12.3941008298809
30
-6E-16
41
1
10
29.971266392525
20
12.403147127562
30
-6E-16
0
SPLINE
5
111
100
AcDbEntity
8
1
62
256
6
ByLayer
370
-1
48
1
60
0
100
AcDbSpline
70
4
71
2
72
6
73
3
40
0
40
0
40
0
40
1
40
1
40
1
41
1
10
38.8214920642125
20
6.75029512630613
30
-1E-16
41
1
10
38.9352274799939
20
6.72884748584704
30
-1E-16
41
1
10
39.0473828480555
20
6.71300313860587
30
-1E-16
0
SPLINE
5
112
100
AcDbEntity
8
1
62
256
6
ByLayer
370
-1
48
1
60
0
100
AcDbSpline
70
4
71
2
72
6
73
3
40
0
40
0
40
0
40
1
40
1
40
1
41
1
10
31.1490158227905
20
13.7299959928022
30
-5E-16
41
1
10
30.4003818562689
20
13.0305483092738
30
-6E-16
41
1
10
29.6332624787848
20
12.3364065709771
30
-6E-16
0
SPLINE
5
113
100
AcDbEntity
8
1
62
256
6
ByLayer
370
-1
48
1
60
0
100
AcDbSpline
70
4
71
3
72
11
73
7
40
0
40
0
40
0
40
0
40
0.203245175634977
40
0.437628019732965
40
0.703218887537658
40
1
40
1
40
1
40
1
41
1
10
39.5060685974428
20
-12.2169629775309
30
0
41
1
10
39.5366107088723
20
-12.0173140289617
30
0
41
1
10
39.6028756499962
20
-11.58477925244
30
0
41
1
10
39.7111169464987
20
-10.8792269457047
30
0
41
1
10
39.835940288879
20
-10.0712177613333
30
0
41
1
10
39.9246851312445
20
-9.49508185825422
30
0
41
1
10
39.9717947445278
20
-9.18932540172742
30
0
0
SPLINE
5
114
100
AcDbEntity
8
1
62
256
6
ByLayer
370
-1
48
1
60
0
100
AcDbSpline
70
4
71
1
72
4
73
2
40
0
40
0
40
1
40
1
41
1
10
39.9723731487191
20
-9.31866434308384
30
0
41
1
10
39.5099185105528
20
-5.70821717734538
30
0
0
SPLINE
5
115
100
AcDbEntity
8
1
62
256
6
ByLayer
370
-1
48
1
60
0
100
AcDbSpline
70
4
71
3
72
8
73
4
40
0
40
0
40
0
40
0
40
1
40
1
40
1
40
1
41
1
10
31.6419249593523
20
14.1109831253755
30
-5E-16
41
1
10
31.6268408879984
20
14.1123155370647
30
-5E-16
41
1
10
31.6115884239334
20
14.1125367276109
30
-5E-16
41
1
10
31.5964244199619
20
14.1116096973507
30
-5E-16
0
SPLINE
5
116
100
AcDbEntity
8
1
62
256
6
ByLayer
370
-1
48
1
60
0
100
AcDbSpline
70
4
71
3
72
16
73
12
40
0
40
0
40
0
40
0
40
0.0561124671589847
40
0.0561124671589847
40
0.348893786757491
40
0.348893786757491
40
0.634701742972085
40
0.634701742972085
40
0.839222396818462
40
0.839222396818462
40
1
40
1
40
1
40
1
41
1
10
0.499999999999972
20
4.62250000000006
30
1.1E-15
41
1
10
0.486388284273119
20
4.63611171572688
30
1.1E-15
41
1
10
0.472851851414219
20
4.64964814858578
30
1.1E-15
41
1
10
0.389760658828507
20
4.73273934117151
30
1.1E-15
41
1
10
0.322095366994503
20
4.80040463300551
30
1.1E-15
41
1
10
0.200923267525809
20
4.92157673247419
30
1.1E-15
41
1
10
0.145506688763334
20
4.97699331123667
30
1.1E-15
41
1
10
0.0685021390688973
20
5.0539978609311
30
-7E-16
41
1
10
0.0410605845537475
20
5.08143941544625
30
-7E-16
41
1
10
0.008701121693548
20
5.11379887830645
30
-7E-16
41
1
10
-7.7789524369E-06
20
5.12250777895244
30
-7E-16
41
1
10
3.359093057E-06
20
5.12249664090695
30
-7E-16
0
SPLINE
5
117
100
AcDbEntity
8
1
62
256
6
ByLayer
370
-1
48
1
60
0
100
AcDbSpline
70
4
71
3
72
8
73
4
40
0
40
0
40
0
40
0
40
1
40
1
40
1
40
1
41
1
10
31.5964244199622
20
-17.1279845017658
30
-5E-16
41
1
10
31.6117344296757
20
-17.1283813510811
30
-5E-16
41
1
10
31.6269838802568
20
-17.1276585955567
30
-5E-16
41
1
10
31.6419249593526
20
-17.1259349503132
30
-5E-16
0
SPLINE
5
118
100
AcDbEntity
8
1
62
256
6
ByLayer
370
-1
48
1
60
0
100
AcDbSpline
70
4
71
3
72
8
73
4
40
0
40
0
40
0
40
0
40
1
40
1
40
1
40
1
41
1
10
31.6419249593523
20
-3.57016502107851
30
-5E-16
41
1
10
31.6268408879984
20
-3.56772022970114
30
-5E-16
41
1
10
31.6115884239334
20
-3.56601749659723
30
-5E-16
41
1
10
31.5964244199619
20
-3.56510372690113
30
-5E-16
0
SPLINE
5
119
100
AcDbEntity
8
1
62
256
6
ByLayer
370
-1
48
1
60
0
100
AcDbSpline
70
4
71
3
72
8
73
4
40
0
40
0
40
0
40
0
40
1
40
1
40
1
40
1
41
1
10
35.1546850519306
20
-16.3288931605817
30
-3E-16
41
1
10
34.5269684786021
20
-16.3178973111446
30
-3E-16
41
1
10
33.8992519562521
20
-16.3068979375325
30
-4E-16
41
1
10
33.2715354852219
20
-16.2958950203633
30
-4E-16
0
SPLINE
5
11A
100
AcDbEntity
8
1
62
256
6
ByLayer
370
-1
48
1
60
0
100
AcDbSpline
70
4
71
3
72
8
73
4
40
0
40
0
40
0
40
0
40
1
40
1
40
1
40
1
41
1
10
39.23623838
20
-9.89469084219374
30
0
41
1
10
39.23623838
20
-9.85982901227968
30
0
41
1
10
39.2350921978521
20
-9.82492632780028
30
0
41
1
10
39.2327968546243
20
-9.79009532167123
30
0
0
SPLINE
5
11B
100
AcDbEntity
8
1
62
256
6
ByLayer
370
-1
48
1
60
0
100
AcDbSpline
70
4
71
3
72
10
73
6
40
0
40
0
40
0
40
0
40
0.5
40
0.5
40
1
40
1
40
1
40
1
41
1
10
29.975624640404
20
0.113695487046925
30
-6E-16
41
1
10
30.0002239902132
20
-0.357921314867667
30
-6E-16
41
1
10
30.1048074319245
20
-0.834415862111115
30
-6E-16
41
1
10
30.6447143326418
20
-1.6115512687733
30
-6E-16
41
1
10
31.1273022470083
20
-1.8553687087801
30
-5E-16
41
1
10
31.5964244199618
20
-1.77608265517753
30
-5E-16
0
SPLINE
5
11C
100
AcDbEntity
8
1
62
256
6
ByLayer
370
-1
48
1
60
0
100
AcDbSpline
70
4
71
3
72
16
73
12
40
0
40
0
40
0
40
0
40
0.0105567045026258
40
0.0105567045026258
40
0.151467730290853
40
0.151467730290853
40
0.331459930995227
40
0.331459930995227
40
0.666938151174186
40
0.666938151174186
40
1
40
1
40
1
40
1
41
1
10
-3.5358875152E-06
20
-5.12250353588749
30
-7E-16
41
1
10
3.5358874015E-06
20
-5.12249646411257
30
-7E-16
41
1
10
3.79492189353E-05
20
-5.12246205078105
30
-7E-16
41
1
10
0.0011036336218808
20
-5.12139636637812
30
-7E-16
41
1
10
0.0086836109218495
20
-5.11381638907815
30
-7E-16
41
1
10
0.0360003047473469
20
-5.08649969525266
30
-7E-16
41
1
10
0.0587841112219252
20
-5.06371588877806
30
-7E-16
41
1
10
0.135241334518668
20
-4.98725866548131
30
1.1E-15
41
1
10
0.200462226633931
20
-4.92203777336604
30
1.1E-15
41
1
10
0.341461616562157
20
-4.78103838343785
30
1.1E-15
41
1
10
0.419857038348752
20
-4.70264296165124
30
1.1E-15
41
1
10
0.499999999999943
20
-4.62250000000006
30
1.1E-15
0
SPLINE
5
11D
100
AcDbEntity
8
1
62
256
6
ByLayer
370
-1
48
1
60
0
100
AcDbSpline
70
4
71
3
72
8
73
4
40
0
40
0
40
0
40
0
40
1
40
1
40
1
40
1
41
1
10
38.6252048024891
20
-16.389651221887
30
-1E-16
41
1
10
38.5052555816366
20
-16.3875525153062
30
-1E-16
41
1
10
38.3853063626244
20
-16.3854536813302
30
-1E-16
41
1
10
38.2653571454551
20
-16.3833547198264
30
-1E-16
0
SPLINE
5
11E
100
AcDbEntity
8
1
62
256
6
ByLayer
370
-1
48
1
60
0
100
AcDbSpline
70
4
71
3
72
10
73
6
40
0
40
0
40
0
40
0
40
0.762152280797863
40
0.762152280797863
40
1
40
1
40
1
40
1
41
1
10
29.0952925945781
20
10.9028280923388
30
-7E-16
41
1
10
29.0235021348182
20
10.8763929937166
30
-7E-16
41
1
10
28.9532567825183
20
10.8432730982794
30
-7E-16
41
1
10
28.8637224082762
20
10.7935209961129
30
-7E-16
41
1
10
28.8425113147227
20
10.7811496052706
30
-7E-16
41
1
10
28.82148742922
20
10.7683378515447
30
-7E-16
0
SPLINE
5
11F
100
AcDbEntity
8
1
62
256
6
ByLayer
370
-1
48
1
60
0
100
AcDbSpline
70
4
71
3
72
18
73
14
40
0
40
0
40
0
40
0
40
0.151593194637025
40
0.151593194637025
40
0.32706081396311
40
0.32706081396311
40
0.506392922491952
40
0.506392922491952
40
0.692486934626019
40
0.692486934626019
40
0.885646282736642
40
0.885646282736642
40
1
40
1
40
1
40
1
41
1
10
29.8367053924813
20
7.38369909023189
30
-6E-16
41
1
10
29.8342483646306
20
7.37040060936081
30
-6E-16
41
1
10
29.8348522379119
20
7.35663183467076
30
-6E-16
41
1
10
29.8426082205992
20
7.32775890848905
30
-6E-16
41
1
10
29.8509018796031
20
7.3124039280458
30
-6E-16
41
1
10
29.8744680419954
20
7.28407815231688
30
-6E-16
41
1
10
29.8901917081247
20
7.27078961253329
30
-6E-16
41
1
10
29.927286605297
20
7.24782135784198
30
-6E-16
41
1
10
29.9493361786853
20
7.23798500169417
30
-6E-16
41
1
10
29.9971050194954
20
7.22317623586338
30
-6E-16
41
1
10
30.0235821508795
20
7.21819635343064
30
-6E-16
41
1
10
30.0658321211761
20
7.21494264406198
30
-6E-16
41
1
10
30.0817741010549
20
7.21473278867214
30
-6E-16
41
1
10
30.0974764624372
20
7.2155361678515
30
-6E-16
0
SPLINE
5
120
100
AcDbEntity
8
1
62
256
6
ByLayer
370
-1
48
1
60
0
100
AcDbSpline
70
4
71
3
72
16
73
12
40
0
40
0
40
0
40
0
40
0.213357202241398
40
0.213357202241398
40
0.426993165885572
40
0.426993165885572
40
0.639508080018516
40
0.639508080018516
40
0.844600676750348
40
0.844600676750348
40
1
40
1
40
1
40
1
41
1
10
31.5964244199619
20
14.1116096973485
30
-5E-16
41
1
10
31.4401002345972
20
14.1020530360261
30
-5E-16
41
1
10
31.2806306504573
20
14.0743396353533
30
-5E-16
41
1
10
30.9810781547915
20
13.9863775094624
30
-6E-16
41
1
10
30.8368813987471
20
13.9248259107532
30
-6E-16
41
1
10
30.5855688658763
20
13.7754069494034
30
-6E-16
41
1
10
30.4746975723933
20
13.685456025674
30
-6E-16
41
1
10
30.3061167770728
20
13.4918197275198
30
-6E-16
41
1
10
30.2443633288037
20
13.3859111119244
30
-6E-16
41
1
10
30.1836602257506
20
13.1961336282571
30
-6E-16
41
1
10
30.1724538884937
20
13.1115109833928
30
-6E-16
41
1
10
30.1769181324114
20
13.0286019108974
30
-6E-16
0
SPLINE
5
121
100
AcDbEntity
8
1
62
256
6
ByLayer
370
-1
48
1
60
0
100
AcDbSpline
70
4
71
3
72
8
73
4
40
0
40
0
40
0
40
0
40
1
40
1
40
1
40
1
41
1
10
29.0923859200635
20
16.5849985673987
30
-7E-16
41
1
10
29.3867933938803
20
16.6062694374802
30
-6E-16
41
1
10
29.6812063502838
20
16.6275252523519
30
-6E-16
41
1
10
29.975624640404
20
16.6487663746081
30
-6E-16
0
SPLINE
5
122
100
AcDbEntity
8
1
62
256
6
ByLayer
370
-1
48
1
60
0
100
AcDbSpline
70
4
71
3
72
8
73
4
40
0
40
0
40
0
40
0
40
1
40
1
40
1
40
1
41
1
10
38.6252048024892
20
16.9614659913288
30
-1E-16
41
1
10
38.4617859556522
20
16.9569355617717
30
-1E-16
41
1
10
38.2983671122312
20
16.9524050436105
30
-1E-16
41
1
10
38.1349482722322
20
16.9478744367193
30
-1E-16
0
SPLINE
5
123
100
AcDbEntity
8
1
62
256
6
ByLayer
370
-1
48
1
60
0
100
AcDbSpline
70
4
71
3
72
8
73
4
40
0
40
0
40
0
40
0
40
1
40
1
40
1
40
1
41
1
10
39.2532483471264
20
-13.5245848959782
30
0
41
1
10
39.3160025968182
20
-13.9498919609678
30
0
41
1
10
39.3804534125263
20
-14.3749612133585
30
0
41
1
10
39.4463462499999
20
-14.799812199252
30
0
0
SPLINE
5
124
100
AcDbEntity
8
1
62
256
6
ByLayer
370
-1
48
1
60
0
100
AcDbSpline
70
4
71
3
72
8
73
4
40
0
40
0
40
0
40
0
40
1
40
1
40
1
40
1
41
1
10
39.44634625
20
6.71401454886413
30
0
41
1
10
39.425024384944
20
6.66242198631249
30
0
41
1
10
39.4037061860896
20
6.61082987916268
30
0
41
1
10
39.3823918583906
20
6.55923825312698
30
0
0
SPLINE
5
125
100
AcDbEntity
8
1
62
256
6
ByLayer
370
-1
48
1
60
0
100
AcDbSpline
70
4
71
3
72
10
73
6
40
0
40
0
40
0
40
0
40
0.5
40
0.5
40
1
40
1
40
1
40
1
41
1
10
33.271535485222
20
0.0201534261444181
30
-4E-16
41
1
10
33.1118377571562
20
-0.364865213026519
30
-4E-16
41
1
10
32.9117348731497
20
-0.724313802266778
30
-4E-16
41
1
10
32.3800615755955
20
-1.36123178950516
30
-5E-16
41
1
10
32.0447565067381
20
-1.64039811653987
30
-5E-16
41
1
10
31.6419249593522
20
-1.76516951408698
30
-5E-16
0
SPLINE
5
126
100
AcDbEntity
8
1
62
256
6
ByLayer
370
-1
48
1
60
0
100
AcDbSpline
70
4
71
3
72
18
73
14
40
0
40
0
40
0
40
0
40
0.105868825714045
40
0.105868825714045
40
0.215587012352065
40
0.215587012352065
40
0.335239382000309
40
0.335239382000309
40
0.521703426440117
40
0.521703426440117
40
0.772061207520703
40
0.772061207520703
40
1
40
1
40
1
40
1
41
1
10
15.9237874111269
20
-4.6759329900014
30
-1.5E-15
41
1
10
15.9154074140403
20
-4.58163975579251
30
-1.5E-15
41
1
10
15.923221375097
20
-4.48510716216191
30
-1.5E-15
41
1
10
15.9702460304723
20
-4.29851065675695
30
-1.5E-15
41
1
10
16.0111145252813
20
-4.20661853349094
30
-1.5E-15
41
1
10
16.1215330928665
20
-4.03278731288555
30
-1.5E-15
41
1
10
16.1943710664658
20
-3.9504166340233
30
-1.5E-15
41
1
10
16.4017335695614
20
-3.76834168405773
30
-1.4E-15
41
1
10
16.5512721355934
20
-3.68079489223334
30
-1.4E-15
41
1
10
16.9179355872413
20
-3.53019542454666
30
-1.4E-15
41
1
10
17.1473896347668
20
-3.48224540773077
30
-1.4E-15
41
1
10
17.5846063190304
20
-3.45515478756613
30
-1.4E-15
41
1
10
17.7972406878476
20
-3.46988469207517
30
-1.4E-15
41
1
10
18.0034680330208
20
-3.51029793212587
30
-1.3E-15
0
SPLINE
5
127
100
AcDbEntity
8
1
62
256
6
ByLayer
370
-1
48
1
60
0
100
AcDbSpline
70
4
71
3
72
10
73
6
40
0
40
0
40
0
40
0
40
0.5
40
0.5
40
1
40
1
40
1
40
1
41
1
10
33.271535485222
20
-16.2958950203633
30
-4E-16
41
1
10
33.1118627706858
20
-16.4945302548585
30
-4E-16
41
1
10
32.9117853817242
20
-16.6687932456676
30
-4E-16
41
1
10
32.3800519192425
20
-16.9612705270004
30
-5E-16
41
1
10
32.0447635353554
20
-17.0794623501086
30
-5E-16
41
1
10
31.6419249593522
20
-17.1259349503111
30
-5E-16
0
SPLINE
5
128
100
AcDbEntity
8
1
62
256
6
ByLayer
370
-1
48
1
60
0
100
AcDbSpline
70
4
71
3
72
8
73
4
40
0
40
0
40
0
40
0
40
1
40
1
40
1
40
1
41
1
10
28.6560969020417
20
9.52752060561994
30
-7E-16
41
1
10
28.6304032984065
20
9.54570105012425
30
-7E-16
41
1
10
28.6053661372442
20
9.56385759983846
30
-7E-16
41
1
10
28.5810090867682
20
9.58180596144487
30
-7E-16
0
SPLINE
5
129
100
AcDbEntity
8
1
62
256
6
ByLayer
370
-1
48
1
60
0
100
AcDbSpline
70
4
71
3
72
8
73
4
40
0
40
0
40
0
40
0
40
1
40
1
40
1
40
1
41
1
10
29.0923859200635
20
16.5849985673987
30
-7E-16
41
1
10
28.168140614551
20
16.5182220635208
30
-7E-16
41
1
10
27.2393886094684
20
16.5173641056691
30
-8E-16
41
1
10
26.3700177309536
20
16.5724155145674
30
-8E-16
0
SPLINE
5
12A
100
AcDbEntity
8
1
62
256
6
ByLayer
370
-1
48
1
60
0
100
AcDbSpline
70
4
71
3
72
26
73
22
40
0
40
0
40
0
40
0
40
0.0301543076394833
40
0.0301543076394833
40
0.15163836628233
40
0.15163836628233
40
0.292587871015031
40
0.292587871015031
40
0.396392864659871
40
0.396392864659871
40
0.5003845520164
40
0.5003845520164
40
0.602229290001431
40
0.602229290001431
40
0.715656606233009
40
0.715656606233009
40
0.848858873422844
40
0.848858873422844
40
0.948972011150492
40
0.948972011150492
40
1
40
1
40
1
40
1
41
1
10
35.1442590354596
20
-16.3418539932314
30
-3E-16
41
1
10
35.1540496093614
20
-16.3663836904808
30
-3E-16
41
1
10
35.1645913893136
20
-16.390317908973
30
-3E-16
41
1
10
35.2211730532677
20
-16.507120013438
30
-3E-16
41
1
10
35.2792740301717
20
-16.5920217987069
30
-3E-16
41
1
10
35.4295748086641
20
-16.7472240699165
30
-3E-16
41
1
10
35.5287816489684
20
-16.8156979033059
30
-3E-16
41
1
10
35.72326529
20
-16.8932416189099
30
-3E-16
41
1
10
35.815046195284
20
-16.9138209521823
30
-3E-16
41
1
10
36.0029505853833
20
-16.9249758816269
30
-2E-16
41
1
10
36.1015161709537
20
-16.9156044987381
30
-2E-16
41
1
10
36.2890144797703
20
-16.8700863705913
30
-2E-16
41
1
10
36.3803620105983
20
-16.8341076225867
30
-2E-16
41
1
10
36.5581824439741
20
-16.7370721053792
30
-2E-16
41
1
10
36.6451638066837
20
-16.6726385373327
30
-2E-16
41
1
10
36.8096223054064
20
-16.5130036027443
30
-2E-16
41
1
10
36.8855166047759
20
-16.4120497782365
30
-2E-16
41
1
10
36.98299127445
20
-16.21818186046
30
-2E-16
41
1
10
37.0140992315157
20
-16.1272407537015
30
-2E-16
41
1
10
37.0380283712343
20
-15.9864657082625
30
-2E-16
41
1
10
37.0422219708672
20
-15.9376680982523
30
-2E-16
41
1
10
37.0422219708672
20
-15.8892207427375
30
-2E-16
0
SPLINE
5
12B
100
AcDbEntity
8
1
62
256
6
ByLayer
370
-1
48
1
60
0
100
AcDbSpline
70
4
71
3
72
8
73
4
40
0
40
0
40
0
40
0
40
1
40
1
40
1
40
1
41
1
10
39.2532483471265
20
1.92478589901501
30
0
41
1
10
39.3160025968182
20
1.65282965312181
30
0
41
1
10
39.3804534125263
20
1.38106139239289
30
0
41
1
10
39.44634625
20
1.10946327857172
30
0
0
SPLINE
5
12C
100
AcDbEntity
8
1
62
256
6
ByLayer
370
-1
48
1
60
0
100
AcDbSpline
70
4
71
2
72
6
73
3
40
0
40
0
40
0
40
1
40
1
40
1
41
0.500000059861031
10
29.9113476131498
20
12.6343176509089
30
-6E-16
41
0.499999940138969
10
29.8521732652685
20
12.6403566255935
30
-6E-16
41
0.500000059861031
10
29.7930383219684
20
12.6463761057111
30
-6E-16
0
SPLINE
5
12D
100
AcDbEntity
8
1
62
256
6
ByLayer
370
-1
48
1
60
0
100
AcDbSpline
70
4
71
3
72
8
73
4
40
0
40
0
40
0
40
0
40
1
40
1
40
1
40
1
41
1
10
39.44634625
20
-12.0060156649289
30
0
41
1
10
39.3819449529929
20
-11.83588451691
30
0
41
1
10
39.3175771028331
20
-11.6657421832113
30
0
41
1
10
39.2532483471265
20
-11.4955867841602
30
0
0
SPLINE
5
12E
100
AcDbEntity
8
1
62
256
6
ByLayer
370
-1
48
1
60
0
100
AcDbSpline
70
4
71
3
72
8
73
4
40
0
40
0
40
0
40
0
40
1
40
1
40
1
40
1
41
1
10
29.0923859200635
20
0.172603875274405
30
-7E-16
41
1
10
28.168140614551
20
0.234329668350227
30
-7E-16
41
1
10
27.2393886094684
20
0.434761398438042
30
-8E-16
41
1
10
26.3700177309536
20
0.762400800490724
30
-8E-16
0
SPLINE
5
12F
100
AcDbEntity
8
1
62
256
6
ByLayer
370
-1
48
1
60
0
100
AcDbSpline
70
4
71
3
72
8
73
4
40
0
40
0
40
0
40
0
40
1
40
1
40
1
40
1
41
1
10
33.2715354852219
20
16.8130153400506
30
-4E-16
41
1
10
32.9544316449871
20
16.4395803823016
30
-4E-16
41
1
10
32.4452123705227
20
16.0053375375785
30
-5E-16
41
1
10
31.6419249593523
20
15.8470038954527
30
-5E-16
0
SPLINE
5
130
100
AcDbEntity
8
1
62
256
6
ByLayer
370
-1
48
1
60
0
100
AcDbSpline
70
4
71
3
72
18
73
14
40
0
40
0
40
0
40
0
40
0.0900667932071033
40
0.0900667932071033
40
0.295193577591905
40
0.295193577591905
40
0.497216560143025
40
0.497216560143025
40
0.700804841048798
40
0.700804841048798
40
0.909599157263936
40
0.909599157263936
40
1
40
1
40
1
40
1
41
1
10
39.44634625
20
11.9147036998897
30
0
41
1
10
39.44634625
20
11.9368531938596
30
0
41
1
10
39.4435413164322
20
11.9596459542912
30
0
41
1
10
39.4252882154694
20
12.0350007031439
30
0
41
1
10
39.397697935753
20
12.0897855407168
30
0
41
1
10
39.3178938385679
20
12.1942379531427
30
0
41
1
10
39.2649904803984
20
12.2453837088137
30
0
41
1
10
39.1411129540723
20
12.3384210168936
30
-1E-16
41
1
10
39.068367427594
20
12.3814893313349
30
-1E-16
41
1
10
38.9116846833758
20
12.4548101585069
30
-1E-16
41
1
10
38.8254297425898
20
12.4857025019555
30
-1E-16
41
1
10
38.7012480945535
20
12.5180266830153
30
-1E-16
41
1
10
38.6631142511474
20
12.5263703559157
30
-1E-16
41
1
10
38.6252048024892
20
12.5331123082728
30
-1E-16
0
SPLINE
5
131
100
AcDbEntity
8
1
62
256
6
ByLayer
370
-1
48
1
60
0
100
AcDbSpline
70
4
71
3
72
16
73
12
40
0
40
0
40
0
40
0
40
0.0332578220038894
40
0.0332578220038894
40
0.351400883599678
40
0.351400883599678
40
0.674898448843563
40
0.674898448843563
40
0.995249171886478
40
0.995249171886478
40
1
40
1
40
1
40
1
41
1
10
29.7930383219684
20
-5.31755657662575
30
-6E-16
41
1
10
29.7807309295711
20
-5.3142704095344
30
-6E-16
41
1
10
29.768369347754
20
-5.31119102762105
30
-6E-16
41
1
10
29.6386081603093
20
-5.28116620313904
30
-6E-16
41
1
10
29.515596749119
20
-5.27280067645364
30
-6E-16
41
1
10
29.2760941169906
20
-5.29505433078455
30
-7E-16
41
1
10
29.1563594100969
20
-5.32667150595103
30
-7E-16
41
1
10
28.940550430025
20
-5.4255492131679
30
-7E-16
41
1
10
28.841189809863
20
-5.49392100132351
30
-7E-16
41
1
10
28.7578471945907
20
-5.57708368561055
30
-7E-16
41
1
10
28.7566147181621
20
-5.57832027664602
30
-7E-16
41
1
10
28.7553858097356
20
-5.57956008603017
30
-7E-16
0
SPLINE
5
132
100
AcDbEntity
8
1
62
256
6
ByLayer
370
-1
48
1
60
0
100
AcDbSpline
70
4
71
3
72
8
73
4
40
0
40
0
40
0
40
0
40
1
40
1
40
1
40
1
41
1
10
39.23623838
20
-13.2899341575466
30
0
41
1
10
39.23623838
20
-13.3683338179812
30
0
41
1
10
39.241796631556
20
-13.4469726934217
30
0
41
1
10
39.2532483471264
20
-13.5245848959782
30
0
0
SPLINE
5
133
100
AcDbEntity
8
1
62
256
6
ByLayer
370
-1
48
1
60
0
100
AcDbSpline
70
4
71
3
72
8
73
4
40
0
40
0
40
0
40
0
40
1
40
1
40
1
40
1
41
1
10
29.0923859200635
20
0.172603875274405
30
-7E-16
41
1
10
29.3867933938803
20
0.152941849727284
30
-6E-16
41
1
10
29.6812063502838
20
0.133305930219763
30
-6E-16
41
1
10
29.975624640404
20
0.113695487046925
30
-6E-16
0
SPLINE
5
134
100
AcDbEntity
8
1
62
256
6
ByLayer
370
-1
48
1
60
0
100
AcDbSpline
70
4
71
3
72
10
73
6
40
0
40
0
40
0
40
0
40
0.739677159056118
40
0.739677159056118
40
1
40
1
40
1
40
1
41
1
10
22.5663847174588
20
16.7830195697988
30
-2E-16
41
1
10
20.538284813258
20
16.8772786562851
30
-3E-16
41
1
10
18.8750668138077
20
17.2307915817747
30
-4E-16
41
1
10
17.4070680705391
20
17.3791681825222
30
-1E-16
41
1
10
17.0865189389483
20
17.385717231776
30
-1E-16
41
1
10
16.8232157800802
20
17.353578402047
30
-1E-16
0
SPLINE
5
135
100
AcDbEntity
8
1
62
256
6
ByLayer
370
-1
48
1
60
0
100
AcDbSpline
70
4
71
3
72
20
73
16
40
0
40
0
40
0
40
0
40
0.0356596755262569
40
0.0356596755262569
40
0.15685058196738
40
0.15685058196738
40
0.277137746443013
40
0.277137746443013
40
0.442970007892876
40
0.442970007892876
40
0.66752899528477
40
0.66752899528477
40
0.953066718607118
40
0.953066718607118
40
1
40
1
40
1
40
1
41
1
10
15.9237874111269
20
-16.921819054614
30
-1E-16
41
1
10
15.9209411838633
20
-16.9150313248574
30
-1E-16
41
1
10
15.9199095307525
20
-16.9083189605204
30
-1E-16
41
1
10
15.9234398952791
20
-16.879560010557
30
-1E-16
41
1
10
15.9479998095959
20
-16.8585503616507
30
-1E-16
41
1
10
16.0324336966749
20
-16.8228533839813
30
-1E-16
41
1
10
16.0928340216703
20
-16.8076210535247
30
-1E-16
41
1
10
16.2625544877245
20
-16.7793382228466
30
3E-16
41
1
10
16.3841447237309
20
-16.7687157990044
30
3E-16
41
1
10
16.6913566828404
20
-16.7569218352129
30
3E-16
41
1
10
16.889790096166
20
-16.7600443250972
30
4E-16
41
1
10
17.3466342691754
20
-16.7856738399192
30
4E-16
41
1
10
17.6151829174955
20
-16.8135652888585
30
4E-16
41
1
10
17.9177977132856
20
-16.8578397780928
30
4E-16
41
1
10
17.9607391220241
20
-16.8644299880389
30
4E-16
41
1
10
18.0034680330209
20
-16.8712937208199
30
4E-16
0
SPLINE
5
136
100
AcDbEntity
8
1
62
256
6
ByLayer
370
-1
48
1
60
0
100
AcDbSpline
70
4
71
3
72
10
73
6
40
0
40
0
40
0
40
0
40
0.757704327669996
40
0.757704327669996
40
1
40
1
40
1
40
1
41
1
10
29.9113399135729
20
7.79452623858677
30
-6E-16
41
1
10
29.8900781350976
20
7.67592326878292
30
-6E-16
41
1
10
29.8700223314297
20
7.56512504964454
30
-6E-16
41
1
10
29.8470978426848
20
7.44005262792516
30
-6E-16
41
1
10
29.8417531576003
20
7.41101974402559
30
-6E-16
41
1
10
29.8367053925255
20
7.38369909023112
30
-6E-16
0
SPLINE
5
137
100
AcDbEntity
8
1
62
256
6
ByLayer
370
-1
48
1
60
0
100
AcDbSpline
70
4
71
3
72
16
73
12
40
0
40
0
40
0
40
0
40
0.213357202241769
40
0.213357202241769
40
0.426993165886347
40
0.426993165886347
40
0.639508080019695
40
0.639508080019695
40
0.844600676751914
40
0.844600676751914
40
1
40
1
40
1
40
1
41
1
10
31.5964244199618
20
-3.56510372690264
30
-5E-16
41
1
10
31.4401002345971
20
-3.55568376739706
30
-5E-16
41
1
10
31.2806306504573
20
-3.57231778822919
30
-5E-16
41
1
10
30.9810781547915
20
-3.65540910294479
30
-6E-16
41
1
10
30.8368813987471
20
-3.72311753940585
30
-6E-16
41
1
10
30.5855688658763
20
-3.89998163549802
30
-6E-16
41
1
10
30.4746975723933
20
-4.01151843745214
30
-6E-16
41
1
10
30.3061167770728
20
-4.25809082890839
30
-6E-16
41
1
10
30.2443633288037
20
-4.39571126777147
30
-6E-16
41
1
10
30.1836602257509
20
-4.64550564286105
30
-6E-16
41
1
10
30.1724538884939
20
-4.75790401424189
30
-6E-16
41
1
10
30.1769181324112
20
-4.86892685244624
30
-6E-16
0
SPLINE
5
138
100
AcDbEntity
8
1
62
256
6
ByLayer
370
-1
48
1
60
0
100
AcDbSpline
70
4
71
3
72
8
73
4
40
0
40
0
40
0
40
0
40
1
40
1
40
1
40
1
41
1
10
35.0247296302028
20
16.8616363020226
30
-3E-16
41
1
10
34.440331537579
20
16.8454304616473
30
-3E-16
41
1
10
33.8559334891602
20
16.829223476277
30
-4E-16
41
1
10
33.2715354852219
20
16.8130153400506
30
-4E-16
0
SPLINE
5
139
100
AcDbEntity
8
1
62
256
6
ByLayer
370
-1
48
1
60
0
100
AcDbSpline
70
4
71
3
72
10
73
6
40
0
40
0
40
0
40
0
40
0.219220291711499
40
0.219220291711499
40
1
40
1
40
1
40
1
41
1
10
18.8357285821476
20
-17.0046265997698
30
-3E-16
41
1
10
18.4445293159768
20
-17.0860156317682
30
-3E-16
41
1
10
18.0941412995433
20
-17.1609340920868
30
-3E-16
41
1
10
16.7034232628108
20
-17.4202908968867
30
-1E-16
41
1
10
16.1150594592585
20
-17.3779677920406
30
1E-16
41
1
10
15.9237874111269
20
-16.921819054614
30
-1E-16
0
SPLINE
5
13A
100
AcDbEntity
8
1
62
256
6
ByLayer
370
-1
48
1
60
0
100
AcDbSpline
70
4
71
3
72
10
73
6
40
0
40
0
40
0
40
0
40
0.5
40
0.5
40
1
40
1
40
1
40
1
41
1
10
22.5663847174588
20
2.25363421385683
30
-1.1E-15
41
1
10
20.5382504728082
20
3.08320665856545
30
-1.2E-15
41
1
10
18.8750125156106
20
4.68889141265632
30
-1.3E-15
41
1
10
16.7033205177507
20
8.19108655284515
30
3E-16
41
1
10
16.1146934574483
20
10.0654265232286
30
3E-16
41
1
10
15.9237874111269
20
11.6870104306802
30
3E-16
0
SPLINE
5
13B
100
AcDbEntity
8
1
62
256
6
ByLayer
370
-1
48
1
60
0
100
AcDbSpline
70
4
71
3
72
28
73
24
40
0
40
0
40
0
40
0
40
0.0893731816777053
40
0.0893731816777053
40
0.177630823340194
40
0.177630823340194
40
0.280641793095857
40
0.280641793095857
40
0.400158257488784
40
0.400158257488784
40
0.488178473312097
40
0.488178473312097
40
0.576356993858706
40
0.576356993858706
40
0.662715034095017
40
0.662715034095017
40
0.758894384475035
40
0.758894384475035
40
0.871841670482473
40
0.871841670482473
40
0.956731420774123
40
0.956731420774123
40
1
40
1
40
1
40
1
41
1
10
35.0546935494282
20
-0.292710563255014
30
-3E-16
41
1
10
35.0546935494282
20
-0.332068375893726
30
-3E-16
41
1
10
35.0656369316075
20
-0.388072842021501
30
-3E-16
41
1
10
35.1066915576489
20
-0.515111811847106
30
-3E-16
41
1
10
35.1369781221549
20
-0.587143042837624
30
-3E-16
41
1
10
35.2211730532678
20
-0.744613093650059
30
-3E-16
41
1
10
35.2792740301718
20
-0.832325533332323
30
-3E-16
41
1
10
35.4295748086642
20
-1.00760354566583
30
-3E-16
41
1
10
35.5287816489684
20
-1.09601701304069
30
-3E-16
41
1
10
35.7232652900001
20
-1.21469845304569
30
-3E-16
41
1
10
35.815046195284
20
-1.2552923534904
30
-3E-16
41
1
10
36.0029505853834
20
-1.30715454170786
30
-2E-16
41
1
10
36.1015161709538
20
-1.31899760673926
30
-2E-16
41
1
10
36.2890144797703
20
-1.31433727071286
30
-2E-16
41
1
10
36.3803620105983
20
-1.29854387154825
30
-2E-16
41
1
10
36.5581824439741
20
-1.24409245237535
30
-2E-16
41
1
10
36.6451638066837
20
-1.20255283549753
30
-2E-16
41
1
10
36.8096223054065
20
-1.09773560952976
30
-2E-16
41
1
10
36.8855166047759
20
-1.03031278861104
30
-2E-16
41
1
10
36.98299127445
20
-0.91307544817488
30
-2E-16
41
1
10
37.0140992315157
20
-0.861999202810608
30
-2E-16
41
1
10
37.0380283712344
20
-0.794255281044883
30
-2E-16
41
1
10
37.0422219708673
20
-0.772685313544741
30
-2E-16
41
1
10
37.0422219708673
20
-0.75334574378698
30
-2E-16
0
SPLINE
5
13C
100
AcDbEntity
8
1
62
256
6
ByLayer
370
-1
48
1
60
0
100
AcDbSpline
70
4
71
3
72
8
73
4
40
0
40
0
40
0
40
0
40
1
40
1
40
1
40
1
41
1
10
31.6419249593523
20
-18.3512670659524
30
4E-16
41
1
10
31.6268408879984
20
-18.3502116999905
30
4E-16
41
1
10
31.6115884239333
20
-18.3487367031779
30
4E-16
41
1
10
31.5964244199619
20
-18.3468503505442
30
4E-16
0
SPLINE
5
13D
100
AcDbEntity
8
1
62
256
6
ByLayer
370
-1
48
1
60
0
100
AcDbSpline
70
4
71
3
72
20
73
16
40
0
40
0
40
0
40
0
40
0.0046389411186841
40
0.0046389411186841
40
0.12171284041479
40
0.12171284041479
40
0.231681784592208
40
0.231681784592208
40
0.382877141609991
40
0.382877141609991
40
0.586107193716991
40
0.586107193716991
40
0.854423738558317
40
0.854423738558317
40
1
40
1
40
1
40
1
41
1
10
15.9237874111269
20
11.6870104306802
30
3E-16
41
1
10
15.9234141194355
20
11.6901812249598
30
3E-16
41
1
10
15.9230719704621
20
11.6933554623484
30
3E-16
41
1
10
15.9150307173167
20
11.7755343400195
30
3E-16
41
1
10
15.927397390074
20
11.8576525872754
30
3E-16
41
1
10
15.9867336850581
20
12.0086479957679
30
3E-16
41
1
10
16.0320426558363
20
12.0798613133245
30
3E-16
41
1
10
16.1660637467379
20
12.2343349912617
30
3E-16
41
1
10
16.266448621713
20
12.3148661828616
30
3E-16
41
1
10
16.5258600973641
20
12.4756037280109
30
3E-16
41
1
10
16.6974673579784
20
12.5496041918193
30
3E-16
41
1
10
17.1076724379106
20
12.6797901592672
30
4E-16
41
1
10
17.3577653225414
20
12.7256204315992
30
4E-16
41
1
10
17.7374280841029
20
12.7560312939141
30
4E-16
41
1
10
17.871612537624
20
12.7591556057374
30
4E-16
41
1
10
18.003468033021
20
12.7546503635134
30
4E-16
0
SPLINE
5
13E
100
AcDbEntity
8
1
62
256
6
ByLayer
370
-1
48
1
60
0
100
AcDbSpline
70
4
71
3
72
10
73
6
40
0
40
0
40
0
40
0
40
0.308377323131001
40
0.308377323131001
40
1
40
1
40
1
40
1
41
1
10
39.23623838
20
4.25662427312051
30
0
41
1
10
39.23623838
20
4.30045777282177
30
0
41
1
10
39.2318487778064
20
4.34430074660949
30
0
41
1
10
39.2034132992658
20
4.48422452240334
30
0
41
1
10
39.1624548122628
20
4.58114543371934
30
-1E-16
41
1
10
39.0897917705933
20
4.66594099229104
30
-1E-16
0
SPLINE
5
13F
100
AcDbEntity
8
1
62
256
6
ByLayer
370
-1
48
1
60
0
100
AcDbSpline
70
4
71
3
72
14
73
10
40
0
40
0
40
0
40
0
40
0.0744583506991837
40
0.0744583506991837
40
0.53608474289291
40
0.53608474289291
40
0.993220636337614
40
0.993220636337614
40
1
40
1
40
1
40
1
41
1
10
29.4555508059153
20
18.3359355656206
30
2E-16
41
1
10
29.4358841986005
20
18.3340166432522
30
2E-16
41
1
10
29.4162875201009
20
18.3322308493633
30
2E-16
41
1
10
29.2760941169906
20
18.3203783561653
30
2E-16
41
1
10
29.1563594100969
20
18.315216200417
30
2E-16
41
1
10
28.940550430025
20
18.3154469859118
30
2E-16
41
1
10
28.841189809863
20
18.3207338495411
30
2E-16
41
1
10
28.7578471945926
20
18.3304982656825
30
2E-16
41
1
10
28.7566147181658
20
18.3306440584954
30
2E-16
41
1
10
28.7553858097412
20
18.3307908280131
30
2E-16
0
SPLINE
5
140
100
AcDbEntity
8
1
62
256
6
ByLayer
370
-1
48
1
60
0
100
AcDbSpline
70
4
71
3
72
16
73
12
40
0
40
0
40
0
40
0
40
0.150292727691849
40
0.150292727691849
40
0.299763361377361
40
0.299763361377361
40
0.498919318565246
40
0.498919318565246
40
0.757967388457373
40
0.757967388457373
40
1
40
1
40
1
40
1
41
1
10
38.6252048024892
20
0.0709657851823806
30
-1E-16
41
1
10
38.6999708199935
20
0.0716761621741568
30
-1E-16
41
1
10
38.7759922510605
20
0.081445389415876
30
-1E-16
41
1
10
38.9166714523733
20
0.115974345748867
30
-1E-16
41
1
10
38.983279204375
20
0.140993583816339
30
-1E-16
41
1
10
39.1211764160118
20
0.210674664513846
30
-1E-16
41
1
10
39.1891776785081
20
0.260088161179397
30
0
41
1
10
39.3154800164236
20
0.382900029114069
30
0
41
1
10
39.3673913667303
20
0.461113762047177
30
0
41
1
10
39.4312297603852
20
0.615399653524264
30
0
41
1
10
39.44634625
20
0.692973378135861
30
0
41
1
10
39.44634625
20
0.769574196368723
30
0
0
SPLINE
5
141
100
AcDbEntity
8
1
62
256
6
ByLayer
370
-1
48
1
60
0
100
AcDbSpline
70
4
71
3
72
8
73
4
40
0
40
0
40
0
40
0
40
1
40
1
40
1
40
1
41
1
10
29.0923859200635
20
-15.9236934688609
30
-7E-16
41
1
10
28.1681406145509
20
-15.7977824774622
30
-7E-16
41
1
10
27.2393886094684
20
-15.598520649177
30
-8E-16
41
1
10
26.3700177309536
20
-15.3275781678091
30
-8E-16
0
SPLINE
5
142
100
AcDbEntity
8
1
62
256
6
ByLayer
370
-1
48
1
60
0
100
AcDbSpline
70
4
71
3
72
24
73
20
40
0
40
0
40
0
40
0
40
0.11724712398059
40
0.11724712398059
40
0.235111348731494
40
0.235111348731494
40
0.346724452115356
40
0.346724452115356
40
0.452946498166461
40
0.452946498166461
40
0.557245350121845
40
0.557245350121845
40
0.662578356787346
40
0.662578356787346
40
0.771496091639019
40
0.771496091639019
40
0.886274034275732
40
0.886274034275732
40
1
40
1
40
1
40
1
41
1
10
37.7710480836954
20
-0.513890110839384
30
-1E-16
41
1
10
37.730121809922
20
-0.687989113129078
30
-1E-16
41
1
10
37.6602924101181
20
-0.857824054297112
30
-1E-16
41
1
10
37.4696517334253
20
-1.16076713141942
30
-2E-16
41
1
10
37.3456732324323
20
-1.29794810152833
30
-2E-16
41
1
10
37.0681428895932
20
-1.50967192846949
30
-2E-16
41
1
10
36.9124829829179
20
-1.59009006200029
30
-2E-16
41
1
10
36.5950499417285
20
-1.68721547267469
30
-2E-16
41
1
10
36.4295442253093
20
-1.70813270647045
30
-2E-16
41
1
10
36.1084299005016
20
-1.6935093275477
30
-2E-16
41
1
10
35.9483740131793
20
-1.65880917717635
30
-2E-16
41
1
10
35.6506381267864
20
-1.54061219113504
30
-3E-16
41
1
10
35.5092503414813
20
-1.45512661341488
30
-3E-16
41
1
10
35.2595156416165
20
-1.24346791875547
30
-3E-16
41
1
10
35.1491517596253
20
-1.1133261848644
30
-3E-16
41
1
10
34.9710879220601
20
-0.821669170279677
30
-3E-16
41
1
10
34.9035829948471
20
-0.655121073644096
30
-3E-16
41
1
10
34.8234385900778
20
-0.31542959064663
30
-3E-16
41
1
10
34.8091965175265
20
-0.138470023580538
30
-3E-16
41
1
10
34.820612422623
20
0.0348446347344122
30
-3E-16
0
SPLINE
5
143
100
AcDbEntity
8
1
62
256
6
ByLayer
370
-1
48
1
60
0
100
AcDbSpline
70
4
71
3
72
10
73
6
40
0
40
0
40
0
40
0
40
0.212338061829607
40
0.212338061829607
40
1
40
1
40
1
40
1
41
1
10
28.708344478634
20
9.44054192584213
30
-7E-16
41
1
10
28.7044858462984
20
9.44690583440249
30
-7E-16
41
1
10
28.7006685036264
20
9.45321765956243
30
-7E-16
41
1
10
28.6827620655579
20
9.48288624306875
30
-7E-16
41
1
10
28.6691597126774
20
9.50562379642696
30
-7E-16
41
1
10
28.6560969020418
20
9.52752060561997
30
-7E-16
0
SPLINE
5
144
100
AcDbEntity
8
1
62
256
6
ByLayer
370
-1
48
1
60
0
100
AcDbSpline
70
4
71
3
72
10
73
6
40
0
40
0
40
0
40
0
40
0.5
40
0.5
40
1
40
1
40
1
40
1
41
1
10
22.5663847174588
20
-14.0556198901452
30
7E-16
41
1
10
20.5383571390141
20
-13.3258473404927
30
6E-16
41
1
10
18.8751811749221
20
-12.0793694290626
30
5E-16
41
1
10
16.7034945161601
20
-8.82540901734663
30
3E-16
41
1
10
16.1153141106241
20
-6.83102585536108
30
-1.5E-15
41
1
10
15.9237874111267
20
-4.6759329900014
30
-1.5E-15
0
SPLINE
5
145
100
AcDbEntity
8
1
62
256
6
ByLayer
370
-1
48
1
60
0
100
AcDbSpline
70
4
71
3
72
14
73
10
40
0
40
0
40
0
40
0
40
0.330620663745083
40
0.330620663745083
40
0.661841455817163
40
0.661841455817163
40
0.989976932563339
40
0.989976932563339
40
1
40
1
40
1
40
1
41
1
10
31.6419249593522
20
-18.3512670659516
30
4E-16
41
1
10
31.7965757666949
20
-18.3620873010347
30
4E-16
41
1
10
31.9491855212725
20
-18.3801565530816
30
4E-16
41
1
10
32.2258657832864
20
-18.4271399177544
30
4E-16
41
1
10
32.3536786442376
20
-18.4567035248208
30
4E-16
41
1
10
32.5643728418052
20
-18.5211951215334
30
4E-16
41
1
10
32.6506210241191
20
-18.5569602350958
30
4E-16
41
1
10
32.7117349829081
20
-18.5935725609405
30
4E-16
41
1
10
32.7135480425377
20
-18.5946735724258
30
4E-16
41
1
10
32.7153365988493
20
-18.5957747341656
30
4E-16
0
SPLINE
5
146
100
AcDbEntity
8
1
62
256
6
ByLayer
370
-1
48
1
60
0
100
AcDbSpline
70
4
71
3
72
26
73
22
40
0
40
0
40
0
40
0
40
0.110362379775156
40
0.110362379775156
40
0.221305624199729
40
0.221305624199729
40
0.326364812735274
40
0.326364812735274
40
0.426349506506704
40
0.426349506506704
40
0.524523936026296
40
0.524523936026296
40
0.623671794752416
40
0.623671794752416
40
0.726193886637028
40
0.726193886637028
40
0.834232075251149
40
0.834232075251149
40
0.949219817591432
40
0.949219817591432
40
1
40
1
40
1
40
1
41
1
10
37.7710480836953
20
-17.404392448207
30
-1E-16
41
1
10
37.7301218099219
20
-17.4781915086706
30
-1E-16
41
1
10
37.6602924101181
20
-17.5472676964471
30
-1E-16
41
1
10
37.4696517334251
20
-17.6659035346113
30
-2E-16
41
1
10
37.3456732324321
20
-17.7170678574005
30
-2E-16
41
1
10
37.0681428895929
20
-17.7926419341857
30
-2E-16
41
1
10
36.9124829829177
20
-17.8194275867641
30
-2E-16
41
1
10
36.5950499417282
20
-17.848533701966
30
-2E-16
41
1
10
36.4295442253091
20
-17.8523940454864
30
-2E-16
41
1
10
36.1084299005014
20
-17.8393270497723
30
-2E-16
41
1
10
35.948374013179
20
-17.822600602166
30
-2E-16
41
1
10
35.6506381267862
20
-17.7707939823244
30
-3E-16
41
1
10
35.5092503414811
20
-17.7348382780492
30
-3E-16
41
1
10
35.2595156416163
20
-17.6463167272391
30
-3E-16
41
1
10
35.1491517596251
20
-17.5920617723621
30
-3E-16
41
1
10
34.97108792206
20
-17.4688475318525
30
-3E-16
41
1
10
34.903582994847
20
-17.3976452385633
30
-3E-16
41
1
10
34.8204882299492
20
-17.2439932027102
30
-3E-16
41
1
10
34.8072769012799
20
-17.1590665945928
30
-3E-16
41
1
10
34.830845843664
20
-17.0371122719721
30
-3E-16
41
1
10
34.8438622363959
20
-16.9994257869699
30
-3E-16
41
1
10
34.8624699059797
20
-16.9621147109084
30
-3E-16
0
SPLINE
5
147
100
AcDbEntity
8
1
62
256
6
ByLayer
370
-1
48
1
60
0
100
AcDbSpline
70
4
71
3
72
10
73
6
40
0
40
0
40
0
40
0
40
0.5
40
0.5
40
1
40
1
40
1
40
1
41
1
10
29.975624640404
20
-16.0438954755791
30
-6E-16
41
1
10
30.0002239902132
20
-16.2961170237192
30
-6E-16
41
1
10
30.1048074319245
20
-16.5421222454715
30
-6E-16
41
1
10
30.6447143326418
20
-16.9613791500224
30
-6E-16
41
1
10
31.1273022470082
20
-17.1158244302411
30
-5E-16
41
1
10
31.5964244199618
20
-17.1279845017634
30
-5E-16
0
SPLINE
5
148
100
AcDbEntity
8
1
62
256
6
ByLayer
370
-1
48
1
60
0
100
AcDbSpline
70
4
71
3
72
16
73
12
40
0
40
0
40
0
40
0
40
0.0332578220040199
40
0.0332578220040199
40
0.351400883601169
40
0.351400883601169
40
0.67489844884644
40
0.67489844884644
40
0.995249171890723
40
0.995249171890723
40
1
40
1
40
1
40
1
41
1
10
29.7930383219684
20
12.6463761057111
30
-6E-16
41
1
10
29.7807309295711
20
12.6476289031215
30
-6E-16
41
1
10
29.768369347754
20
12.6487152932022
30
-6E-16
41
1
10
29.6386081603093
20
12.6583348596392
30
-6E-16
41
1
10
29.515596749119
20
12.651889287162
30
-6E-16
41
1
10
29.2760941169907
20
12.6095630327286
30
-7E-16
41
1
10
29.1563594100969
20
12.572566723319
30
-7E-16
41
1
10
28.940550430025
20
12.4729173926134
30
-7E-16
41
1
10
28.841189809863
20
12.4090379210418
30
-7E-16
41
1
10
28.7578471945919
20
12.334607287258
30
-7E-16
41
1
10
28.7566147181643
20
12.3335011263578
30
-7E-16
41
1
10
28.755385809739
20
12.3323926720186
30
-7E-16
0
SPLINE
5
149
100
AcDbEntity
8
1
62
256
6
ByLayer
370
-1
48
1
60
0
100
AcDbSpline
70
4
71
3
72
8
73
4
40
0
40
0
40
0
40
0
40
1
40
1
40
1
40
1
41
1
10
31.5964244199623
20
15.8379825732453
30
-5E-16
41
1
10
31.6117344296758
20
15.8410312571707
30
-5E-16
41
1
10
31.6269838802569
20
15.8440589028665
30
-5E-16
41
1
10
31.6419249593527
20
15.8470038954528
30
-5E-16
0
SPLINE
5
14A
100
AcDbEntity
8
1
62
256
6
ByLayer
370
-1
48
1
60
0
100
AcDbSpline
70
4
71
3
72
16
73
12
40
0
40
0
40
0
40
0
40
0.15029272769184
40
0.15029272769184
40
0.299763361377352
40
0.299763361377352
40
0.498919318565234
40
0.498919318565234
40
0.757967388457352
40
0.757967388457352
40
1
40
1
40
1
40
1
41
1
10
38.6252048024892
20
16.9614659913288
30
-1E-16
41
1
10
38.6999708199935
20
16.963538715388
30
-1E-16
41
1
10
38.7759922510605
20
16.960365723597
30
-1E-16
41
1
10
38.9166714523734
20
16.9448920114912
30
-1E-16
41
1
10
38.9832792043751
20
16.9325046937229
30
-1E-16
41
1
10
39.1211764160118
20
16.8964207905439
30
-1E-16
41
1
10
39.1891776785081
20
16.8698413598551
30
0
41
1
10
39.3154800164236
20
16.8023602639885
30
0
41
1
10
39.3673913667304
20
16.7584353852064
30
0
41
1
10
39.4312297603853
20
16.6705054042363
30
0
41
1
10
39.44634625
20
16.6257299742755
30
0
41
1
10
39.44634625
20
16.5810195077306
30
0
0
SPLINE
5
14B
100
AcDbEntity
8
1
62
256
6
ByLayer
370
-1
48
1
60
0
100
AcDbSpline
70
4
71
3
72
8
73
4
40
0
40
0
40
0
40
0
40
1
40
1
40
1
40
1
41
1
10
38.7705529550508
20
5.04988842696676
30
-1E-16
41
1
10
38.8743608801905
20
4.92100644380008
30
-1E-16
41
1
10
38.9808815494715
20
4.79303590632159
30
-1E-16
41
1
10
39.0897917705933
20
4.66594099229104
30
-1E-16
0
SPLINE
5
14C
100
AcDbEntity
8
1
62
256
6
ByLayer
370
-1
48
1
60
0
100
AcDbSpline
70
4
71
3
72
18
73
14
40
0
40
0
40
0
40
0
40
0.0900667932070913
40
0.0900667932070913
40
0.295193577591892
40
0.295193577591892
40
0.497216560143013
40
0.497216560143013
40
0.700804841048786
40
0.700804841048786
40
0.909599157263923
40
0.909599157263923
40
1
40
1
40
1
40
1
41
1
10
39.44634625
20
-18.2808047402764
30
0
41
1
10
39.44634625
20
-18.3194581704004
30
0
41
1
10
39.4435413164322
20
-18.3581767112285
30
0
41
1
10
39.4252882154694
20
-18.4827980245495
30
0
41
1
10
39.397697935753
20
-18.5680023334386
30
0
41
1
10
39.3178938385679
20
-18.7201976288974
30
0
41
1
10
39.2649904803984
20
-18.7895082542827
30
0
41
1
10
39.1411129540723
20
-18.9051671299008
30
-1E-16
41
1
10
39.068367427594
20
-18.9529011615964
30
-1E-16
41
1
10
38.9116846833757
20
-19.0217848853636
30
-1E-16
41
1
10
38.8254297425898
20
-19.0431773713875
30
-1E-16
41
1
10
38.7012480945535
20
-19.0527701603211
30
-1E-16
41
1
10
38.6631142511474
20
-19.052954325042
30
-1E-16
41
1
10
38.6252048024892
20
-19.0504278991839
30
-1E-16
0
SPLINE
5
14D
100
AcDbEntity
8
1
62
256
6
ByLayer
370
-1
48
1
60
0
100
AcDbSpline
70
4
71
3
72
8
73
4
40
0
40
0
40
0
40
0
40
1
40
1
40
1
40
1
41
1
10
38.53623838
20
5.8199665964876
30
-1E-16
41
1
10
38.53623838
20
5.55500223769064
30
-1E-16
41
1
10
38.5811835732581
20
5.2849986215231
30
-1E-16
41
1
10
38.7705529550475
20
5.04988842696588
30
-1E-16
0
SPLINE
5
14E
100
AcDbEntity
8
1
62
256
6
ByLayer
370
-1
48
1
60
0
100
AcDbSpline
70
4
71
3
72
10
73
6
40
0
40
0
40
0
40
0
40
0.5
40
0.5
40
1
40
1
40
1
40
1
41
1
10
29.975624640404
20
16.6487663746081
30
-6E-16
41
1
10
30.0002239902132
20
16.4275412643217
30
-6E-16
41
1
10
30.1048074319246
20
16.1949342473111
30
-6E-16
41
1
10
30.6447143326418
20
15.8341515082135
30
-6E-16
41
1
10
31.1273022470083
20
15.7445662231273
30
-5E-16
41
1
10
31.5964244199619
20
15.8379825732452
30
-5E-16
0
SPLINE
5
14F
100
AcDbEntity
8
1
62
256
6
ByLayer
370
-1
48
1
60
0
100
AcDbSpline
70
4
71
3
72
8
73
4
40
0
40
0
40
0
40
0
40
1
40
1
40
1
40
1
41
1
10
38.6252048024892
20
0.0709657851823806
30
-1E-16
41
1
10
38.3854869162832
20
0.0686881451988199
30
-1E-16
41
1
10
38.1457690374277
20
0.0664108322781658
30
-1E-16
41
1
10
37.9060511659412
20
0.064133847102454
30
-1E-16
0
SPLINE
5
150
100
AcDbEntity
8
1
62
256
6
ByLayer
370
-1
48
1
60
0
100
AcDbSpline
70
4
71
3
72
18
73
14
40
0
40
0
40
0
40
0
40
0.171325268630042
40
0.171325268630042
40
0.36186727188511
40
0.36186727188511
40
0.553693438030695
40
0.553693438030695
40
0.746960688215923
40
0.746960688215923
40
0.94125184684189
40
0.94125184684189
40
1
40
1
40
1
40
1
41
1
10
31.4818173653439
20
13.7597192688304
30
-5E-16
41
1
10
31.3837706448539
20
13.7798742815391
30
-5E-16
41
1
10
31.2814551378502
20
13.7889578515459
30
-5E-16
41
1
10
31.0708502505573
20
13.7834704642807
30
-5E-16
41
1
10
30.9601483962028
20
13.7660625515453
30
-6E-16
41
1
10
30.7564840700399
20
13.7051552750339
30
-6E-16
41
1
10
30.6608525283289
20
13.6606569502732
30
-6E-16
41
1
10
30.4975482403878
20
13.5508822250528
30
-6E-16
41
1
10
30.4278399705829
20
13.4839496507679
30
-6E-16
41
1
10
30.3239920459375
20
13.337089710514
30
-6E-16
41
1
10
30.288605221519
20
13.2550654002405
30
-6E-16
41
1
10
30.2680686410162
20
13.1459176756018
30
-6E-16
41
1
10
30.2650256890128
20
13.1201559249465
30
-6E-16
41
1
10
30.263760117395
20
13.0943082105179
30
-6E-16
0
SPLINE
5
151
100
AcDbEntity
8
1
62
256
6
ByLayer
370
-1
48
1
60
0
100
AcDbSpline
70
4
71
3
72
22
73
18
40
0
40
0
40
0
40
0
40
0.124409052045504
40
0.124409052045504
40
0.26209221567818
40
0.26209221567818
40
0.399648928616344
40
0.399648928616344
40
0.53769114405672
40
0.53769114405672
40
0.676663698673579
40
0.676663698673579
40
0.816680277337993
40
0.816680277337993
40
0.957438648295725
40
0.957438648295725
40
1
40
1
40
1
40
1
41
1
10
32.0407884749345
20
-4.09590219776797
30
-5E-16
41
1
10
31.9776528070597
20
-4.02257390402218
30
-5E-16
41
1
10
31.9017102707657
20
-3.95799819058652
30
-5E-16
41
1
10
31.7255573071372
20
-3.84967875378356
30
-5E-16
41
1
10
31.6211359811794
20
-3.80747611336258
30
-5E-16
41
1
10
31.4059532470354
20
-3.75944701841917
30
-5E-16
41
1
10
31.2922489949223
20
-3.75292434118353
30
-5E-16
41
1
10
31.0708502505573
20
-3.77580130820982
30
-5E-16
41
1
10
30.9601483962028
20
-3.80563239261426
30
-6E-16
41
1
10
30.7564840700399
20
-3.89726854084427
30
-6E-16
41
1
10
30.6608525283289
20
-3.96053408677014
30
-6E-16
41
1
10
30.4975482403878
20
-4.11173939945235
30
-6E-16
41
1
10
30.4278399705829
20
-4.20193496661338
30
-6E-16
41
1
10
30.3239920459374
20
-4.39662543911126
30
-6E-16
41
1
10
30.288605221519
20
-4.50388565386268
30
-6E-16
41
1
10
30.2680686410162
20
-4.64483553046028
30
-6E-16
41
1
10
30.2650256890128
20
-4.6779820132646
30
-6E-16
41
1
10
30.263760117395
20
-4.71111656716522
30
-6E-16
0
SPLINE
5
152
100
AcDbEntity
8
1
62
256
6
ByLayer
370
-1
48
1
60
0
100
AcDbSpline
70
4
71
3
72
8
73
4
40
0
40
0
40
0
40
0
40
1
40
1
40
1
40
1
41
1
10
31.5964244199623
20
-1.77608265517986
30
-5E-16
41
1
10
31.6117344296757
20
-1.77349511973432
30
-5E-16
41
1
10
31.6269838802568
20
-1.76979730287999
30
-5E-16
41
1
10
31.6419249593526
20
-1.765169514089
30
-5E-16
0
SPLINE
5
153
100
AcDbEntity
8
1
62
256
6
ByLayer
370
-1
48
1
60
0
100
AcDbSpline
70
4
71
3
72
14
73
10
40
0
40
0
40
0
40
0
40
0.330620663745088
40
0.330620663745088
40
0.661841455817168
40
0.661841455817168
40
0.989976932563343
40
0.989976932563343
40
1
40
1
40
1
40
1
41
1
10
31.6419249593523
20
14.1109831253734
30
-5E-16
41
1
10
31.796575766695
20
14.0973224538869
30
-5E-16
41
1
10
31.9491855212725
20
14.0659323278818
30
-5E-16
41
1
10
32.2258657832864
20
13.9711291720568
30
-5E-16
41
1
10
32.3536786442377
20
13.9062864494368
30
-5E-16
41
1
10
32.5643728418053
20
13.7511759008704
30
-5E-16
41
1
10
32.6506210241191
20
13.658851299173
30
-5E-16
41
1
10
32.7117349829081
20
13.5555434420397
30
-4E-16
41
1
10
32.7135480425378
20
13.552428796758
30
-4E-16
41
1
10
32.7153365988493
20
13.5493056987811
30
-4E-16
0
SPLINE
5
154
100
AcDbEntity
8
1
62
256
6
ByLayer
370
-1
48
1
60
0
100
AcDbSpline
70
4
71
3
72
16
73
12
40
0
40
0
40
0
40
0
40
0.0332578220042204
40
0.0332578220042204
40
0.351400883603204
40
0.351400883603204
40
0.67489844885034
40
0.67489844885034
40
0.995249171896469
40
0.995249171896469
40
1
40
1
40
1
40
1
41
1
10
29.7930383219683
20
-18.5692656250312
30
-2E-16
41
1
10
29.780730929571
20
-18.567283639858
30
-2E-16
41
1
10
29.768369347754
20
-18.5653346901733
30
-2E-16
41
1
10
29.6386081603093
20
-18.5453132006197
30
-2E-16
41
1
10
29.515596749119
20
-18.5301808481926
30
-2E-16
41
1
10
29.2760941169906
20
-18.5081724000175
30
-2E-16
41
1
10
29.1563594100969
20
-18.5011285722939
30
-2E-16
41
1
10
28.9405504300249
20
-18.4959039810453
30
2E-16
41
1
10
28.841189809863
20
-18.4975529798283
30
2E-16
41
1
10
28.7578471945933
20
-18.5029799458328
30
2E-16
41
1
10
28.7566147181672
20
-18.5030612584881
30
2E-16
41
1
10
28.7553858097434
20
-18.5031433956892
30
2E-16
0
SPLINE
5
155
100
AcDbEntity
8
1
62
256
6
ByLayer
370
-1
48
1
60
0
100
AcDbSpline
70
4
71
3
72
8
73
4
40
0
40
0
40
0
40
0
40
1
40
1
40
1
40
1
41
1
10
39.23623838
20
2.0751951471812
30
0
41
1
10
39.23623838
20
2.0248237048865
30
0
41
1
10
39.241796631556
20
1.97441386191582
30
0
41
1
10
39.2532483471265
20
1.92478589901504
30
0
0
SPLINE
5
156
100
AcDbEntity
8
1
62
256
6
ByLayer
370
-1
48
1
60
0
100
AcDbSpline
70
4
71
3
72
14
73
10
40
0
40
0
40
0
40
0
40
0.330620663745096
40
0.330620663745096
40
0.661841455817176
40
0.661841455817176
40
0.989976932563351
40
0.989976932563351
40
1
40
1
40
1
40
1
41
1
10
31.6419249593522
20
-3.57016502107996
30
-5E-16
41
1
10
31.7965757666949
20
-3.59523046603991
30
-5E-16
41
1
10
31.9491855212725
20
-3.64604828090881
30
-5E-16
41
1
10
32.2258657832864
20
-3.79195453779488
30
-5E-16
41
1
10
32.3536786442376
20
-3.88918442793533
30
-5E-16
41
1
10
32.5643728418052
20
-4.11555480946996
30
-5E-16
41
1
10
32.6506210241191
20
-4.247678988285
30
-5E-16
41
1
10
32.7117349829081
20
-4.39212124094846
30
-4E-16
41
1
10
32.7135480425378
20
-4.39647324065695
30
-4E-16
41
1
10
32.7153365988493
20
-4.40083421970266
30
-4E-16
0
SPLINE
5
157
100
AcDbEntity
8
1
62
256
6
ByLayer
370
-1
48
1
60
0
100
AcDbSpline
70
4
71
3
72
8
73
4
40
0
40
0
40
0
40
0
40
1
40
1
40
1
40
1
41
1
10
29.0923859200635
20
-15.9236934688609
30
-7E-16
41
1
10
29.3867933938802
20
-15.9638009345763
30
-6E-16
41
1
10
29.6812063502837
20
-16.0038679450538
30
-6E-16
41
1
10
29.975624640404
20
-16.0438954755791
30
-6E-16
0
SPLINE
5
158
100
AcDbEntity
8
1
62
256
6
ByLayer
370
-1
48
1
60
0
100
AcDbSpline
70
4
71
3
72
8
73
4
40
0
40
0
40
0
40
0
40
1
40
1
40
1
40
1
41
1
10
34.820612422623
20
0.0348446347344122
30
-3E-16
41
1
10
34.3042534088907
20
0.0299460285231419
30
-3E-16
41
1
10
33.7878944296936
20
0.0250489566795977
30
-4E-16
41
1
10
33.2715354852219
20
0.0201534261444749
30
-4E-16
0
SPLINE
5
159
100
AcDbEntity
8
1
62
256
6
ByLayer
370
-1
48
1
60
0
100
AcDbSpline
70
4
71
3
72
10
73
6
40
0
40
0
40
0
40
0
40
0.442784835964498
40
0.442784835964498
40
1
40
1
40
1
40
1
41
1
10
30.0974764624373
20
7.21553616785087
30
-6E-16
41
1
10
30.2105095744526
20
7.22131927566241
30
-6E-16
41
1
10
30.3235850548111
20
7.22796082136136
30
-6E-16
41
1
10
30.578869468818
20
7.24312191897417
30
-6E-16
41
1
10
30.7239124123273
20
7.2574577674724
30
-6E-16
41
1
10
30.8648107418233
20
7.24570508044448
30
-6E-16
0
SPLINE
5
15A
100
AcDbEntity
8
1
62
256
6
ByLayer
370
-1
48
1
60
0
100
AcDbSpline
70
4
71
2
72
6
73
3
40
0
40
0
40
0
40
1
40
1
40
1
41
0.500000058939898
10
29.9113476131497
20
-5.34914088086558
30
-6E-16
41
0.499999941060102
10
29.8521732652588
20
-5.33334605487725
30
-6E-16
41
0.500000058939898
10
29.7930383219683
20
-5.31755657662577
30
-6E-16
0
SPLINE
5
15B
100
AcDbEntity
8
1
62
256
6
ByLayer
370
-1
48
1
60
0
100
AcDbSpline
70
4
71
3
72
16
73
12
40
0
40
0
40
0
40
0
40
0.213357202241601
40
0.213357202241601
40
0.426993165886003
40
0.426993165886003
40
0.639508080019173
40
0.639508080019173
40
0.844600676751222
40
0.844600676751222
40
1
40
1
40
1
40
1
41
1
10
31.5964244199618
20
-18.3468503505434
30
4E-16
41
1
10
31.4401002345971
20
-18.3274041317661
30
4E-16
41
1
10
31.2806306504573
20
-18.3150618863209
30
4E-16
41
1
10
30.9810781547915
20
-18.3062509362495
30
3E-16
41
1
10
30.8368813987471
20
-18.3096721862843
30
3E-16
41
1
10
30.5855688658763
20
-18.3305047053993
30
3E-16
41
1
10
30.4746975723933
20
-18.3481211550123
30
3E-16
41
1
10
30.3061167770727
20
-18.3925268648229
30
3E-16
41
1
10
30.2443633288037
20
-18.4195792372564
30
3E-16
41
1
10
30.1836602257507
20
-18.4712540515957
30
3E-16
41
1
10
30.1724538884937
20
-18.4953122900216
30
3E-16
41
1
10
30.1769181324112
20
-18.5197858719659
30
-2E-16
0
SPLINE
5
15C
100
AcDbEntity
8
1
62
256
6
ByLayer
370
-1
48
1
60
0
100
AcDbSpline
70
4
71
3
72
26
73
22
40
0
40
0
40
0
40
0
40
0.110354619362885
40
0.110354619362885
40
0.221290062530318
40
0.221290062530318
40
0.326341863561116
40
0.326341863561116
40
0.426319526653835
40
0.426319526653835
40
0.524487052788062
40
0.524487052788062
40
0.623627939679656
40
0.623627939679656
40
0.726142822461931
40
0.726142822461931
40
0.834173414095307
40
0.834173414095307
40
0.94915307077925
40
0.94915307077925
40
1
40
1
40
1
40
1
41
1
10
37.7710480836954
20
16.1324172602703
30
-1E-16
41
1
10
37.730121809922
20
16.0362381585708
30
-1E-16
41
1
10
37.6602924101182
20
15.939629975101
30
-1E-16
41
1
10
37.4696517334255
20
15.7629315235104
30
-2E-16
41
1
10
37.3456732324325
20
15.6804749528839
30
-2E-16
41
1
10
37.0681428895934
20
15.5499718314543
30
-2E-16
41
1
10
36.9124829829181
20
15.4985701026641
30
-2E-16
41
1
10
36.5950499417287
20
15.4333904131932
30
-2E-16
41
1
10
36.4295442253095
20
15.4170529903693
30
-2E-16
41
1
10
36.1084299005019
20
15.4185710599763
30
-2E-16
41
1
10
35.9483740131795
20
15.4358138383732
30
-2E-16
41
1
10
35.6506381267867
20
15.4994829037913
30
-3E-16
41
1
10
35.5092503414815
20
15.5469767857629
30
-3E-16
41
1
10
35.2595156416167
20
15.6650503457759
30
-3E-16
41
1
10
35.1491517596254
20
15.7378159039765
30
-3E-16
41
1
10
34.9710879220602
20
15.8993366232902
30
-3E-16
41
1
10
34.9035829948472
20
15.9907673820929
30
-3E-16
41
1
10
34.8204882299493
20
16.1811709403717
30
-3E-16
41
1
10
34.80727690128
20
16.2827477030255
30
-3E-16
41
1
10
34.830845843664
20
16.423098508125
30
-3E-16
41
1
10
34.8438622363959
20
16.4657505468566
30
-3E-16
41
1
10
34.8624699059797
20
16.5073265699902
30
-3E-16
0
SPLINE
5
15D
100
AcDbEntity
8
1
62
256
6
ByLayer
370
-1
48
1
60
0
100
AcDbSpline
70
4
71
3
72
16
73
12
40
0
40
0
40
0
40
0
40
0.150292727691841
40
0.150292727691841
40
0.299763361377354
40
0.299763361377354
40
0.498919318565236
40
0.498919318565236
40
0.757967388457356
40
0.757967388457356
40
1
40
1
40
1
40
1
41
1
10
38.6252048024891
20
-16.389651221887
30
-1E-16
41
1
10
38.6999708199934
20
-16.3909593748858
30
-1E-16
41
1
10
38.7759922510605
20
-16.3782085857951
30
-1E-16
41
1
10
38.9166714523733
20
-16.3290084564924
30
-1E-16
41
1
10
38.983279204375
20
-16.2922181632984
30
-1E-16
41
1
10
39.1211764160117
20
-16.1882163716292
30
-1E-16
41
1
10
39.1891776785081
20
-16.1135030940482
30
0
41
1
10
39.3154800164236
20
-15.9264325745706
30
0
41
1
10
39.3673913667303
20
-15.806374264862
30
0
41
1
10
39.4312297603852
20
-15.5682999724555
30
0
41
1
10
39.4463462499999
20
-15.4480498768148
30
0
41
1
10
39.4463462499999
20
-15.3288260097806
30
0
0
SPLINE
5
15E
100
AcDbEntity
8
1
62
256
6
ByLayer
370
-1
48
1
60
0
100
AcDbSpline
70
4
71
3
72
8
73
4
40
0
40
0
40
0
40
0
40
1
40
1
40
1
40
1
41
1
10
35.587641092171
20
17.6130504632859
30
0
41
1
10
35.5772760899251
20
17.625810685536
30
0
41
1
10
35.5667135837998
20
17.6384015028895
30
0
41
1
10
35.5559609726832
20
17.6508163696967
30
-1E-16
0
SPLINE
5
15F
100
AcDbEntity
8
1
62
256
6
ByLayer
370
-1
48
1
60
0
100
AcDbSpline
70
4
71
3
72
8
73
4
40
0
40
0
40
0
40
0
40
1
40
1
40
1
40
1
41
1
10
33.0158874150127
20
17.5161407420601
30
0
41
1
10
32.9339203353453
20
17.4180758588161
30
0
41
1
10
32.8623861277508
20
17.3110650137372
30
0
41
1
10
32.8049444652568
20
17.1978652841166
30
0
0
SPLINE
5
160
100
AcDbEntity
8
1
62
256
6
ByLayer
370
-1
48
1
60
0
100
AcDbSpline
70
4
71
3
72
16
73
12
40
0
40
0
40
0
40
0
40
0.135258507300879
40
0.202887760951319
40
0.270517014601759
40
0.405775521902638
40
0.541034029203518
40
0.676292536504397
40
0.811551043805276
40
0.946809551106156
40
1
40
1
40
1
40
1
41
1
10
29.9416681354056
20
19.5679465622252
30
-2E-16
41
1
10
29.7890902291352
20
19.5594883404048
30
-2E-16
41
1
10
29.5681916880139
20
19.3695523486747
30
-2E-16
41
1
10
29.5525207806485
20
19.0645570315059
30
-2E-16
41
1
10
29.5250117622614
20
18.7780690757442
30
-2E-16
41
1
10
29.4817627028027
20
18.4398550417743
30
-2E-16
41
1
10
29.4150499989135
20
18.0456474735545
30
-2E-16
41
1
10
29.3328900883059
20
17.6429049932511
30
-2E-16
41
1
10
29.2422798064169
20
17.2182154031793
30
-2E-16
41
1
10
29.1688358865408
20
16.8512113488106
30
-2E-16
41
1
10
29.1173719771433
20
16.6356432180521
30
-1E-16
41
1
10
29.1018942728139
20
16.5749442552435
30
0
0
SPLINE
5
161
100
AcDbEntity
8
1
62
256
6
ByLayer
370
-1
48
1
60
0
100
AcDbSpline
70
4
71
3
72
15
73
11
40
0
40
0
40
0
40
0
40
0.0625
40
0.125
40
0.25
40
0.5
40
0.75
40
0.875
40
0.9375
40
1
40
1
40
1
40
1
41
1
10
39.1930592634412
20
19.9242775330309
30
0
41
1
10
38.9940057405945
20
19.9235122707579
30
0
41
1
10
38.5948632988264
20
19.9222986035529
30
0
41
1
10
37.8221755730431
20
19.9181719974104
30
0
41
1
10
36.4988313627284
20
19.8987917933565
30
0
41
1
10
34.5862973042088
20
19.8405236810502
30
-1E-16
41
1
10
32.6953921773316
20
19.7210240766232
30
0
41
1
10
31.3313350967295
20
19.6420949369247
30
-1E-16
41
1
10
30.5353367356836
20
19.59420960224
30
-1E-16
41
1
10
30.13976844631
20
19.5914661497212
30
-2E-16
41
1
10
29.9416681354056
20
19.5679465622252
30
-2E-16
0
SPLINE
5
162
100
AcDbEntity
8
1
62
256
6
ByLayer
370
-1
48
1
60
0
100
AcDbSpline
70
4
71
3
72
14
73
10
40
0
40
0
40
0
40
0
40
0.117996130164067
40
0.117996130164067
40
0.429338007343953
40
0.429338007343953
40
0.772130039769859
40
0.772130039769859
40
1
40
1
40
1
40
1
41
1
10
35.9100411096686
20
16.0557982027445
30
0
41
1
10
35.9269699178641
20
16.1196246396894
30
0
41
1
10
35.9404484359086
20
16.1842898597783
30
0
41
1
10
35.9763643976471
20
16.4200108345198
30
0
41
1
10
35.9772064531712
20
16.5964641225253
30
0
41
1
10
35.9226407334345
20
16.9535296399472
30
0
41
1
10
35.8625138629351
20
17.1367973423497
30
0
41
1
10
35.7261020584113
20
17.4129271890339
30
0
41
1
10
35.6610124245771
20
17.5174961154285
30
0
41
1
10
35.587641092171
20
17.6130504632859
30
0
0
SPLINE
5
163
100
AcDbEntity
8
1
62
256
6
ByLayer
370
-1
48
1
60
0
100
AcDbSpline
70
4
71
3
72
10
73
6
40
0
40
0
40
0
40
0
40
0.617913213449974
40
0.617913213449974
40
1
40
1
40
1
40
1
41
1
10
32.8049444652568
20
17.1978652841166
30
0
41
1
10
32.7180705749574
20
17.0194321920391
30
0
41
1
10
32.6599077063564
20
16.8231908215801
30
0
41
1
10
32.6233725837794
20
16.5040160543565
30
0
41
1
10
32.6217820883858
20
16.3800540261461
30
0
41
1
10
32.6326939885193
20
16.2579700306411
30
0
0
SPLINE
5
164
100
AcDbEntity
8
1
62
256
6
ByLayer
370
-1
48
1
60
0
100
AcDbSpline
70
4
71
3
72
17
73
13
40
0
40
0
40
0
40
0
40
0.0833834648969523
40
0.197960531784833
40
0.312537598672714
40
0.427114665560595
40
0.541691732448476
40
0.656268799336357
40
0.770845866224238
40
0.828134399668179
40
0.885422933112119
40
1
40
1
40
1
40
1
41
1
10
39.4428434656605
20
16.3477873207143
30
0
41
1
10
39.4706525857195
20
16.460132582592
30
0
41
1
10
39.5466413982067
20
16.7251725231087
30
0
41
1
10
39.6976171774624
20
17.1294830941239
30
0
41
1
10
39.9524524699416
20
17.5403010854371
30
0
41
1
10
39.9759699440039
20
18.0206847515566
30
0
41
1
10
39.970133329908
20
18.4912830631444
30
0
41
1
10
39.9737358222632
20
18.961804998606
30
0
41
1
10
39.9627884295857
20
19.3617597829183
30
0
41
1
10
39.7939225620952
20
19.629479075325
30
0
41
1
10
39.5685298529298
20
19.8424441338433
30
0
41
1
10
39.3465096726759
20
19.9227492690951
30
0
41
1
10
39.1930592634412
20
19.9242775330309
30
0
0
SPLINE
5
165
100
AcDbEntity
8
1
62
256
6
ByLayer
370
-1
48
1
60
0
100
AcDbSpline
70
4
71
3
72
12
73
8
40
0
40
0
40
0
40
0
40
0.412735415753668
40
0.412735415753668
40
0.752389997502621
40
0.752389997502621
40
1
40
1
40
1
40
1
41
1
10
34.8644426920228
20
17.1914295136855
30
0
41
1
10
34.8594448101921
20
17.1470513079815
30
0
41
1
10
34.8601443340928
20
17.0998684555232
30
0
41
1
10
34.8729638994361
20
17.0139618621228
30
0
41
1
10
34.883250440932
20
16.9742719029655
30
0
41
1
10
34.9082223970403
20
16.9096001091346
30
0
41
1
10
34.9212022745875
20
16.8830297469193
30
0
41
1
10
34.9359042315198
20
16.8585906367581
30
0
0
SPLINE
5
166
100
AcDbEntity
8
1
62
256
6
ByLayer
370
-1
48
1
60
0
100
AcDbSpline
70
4
71
3
72
10
73
6
40
0
40
0
40
0
40
0
40
0.678282717977626
40
0.678282717977626
40
1
40
1
40
1
40
1
41
1
10
35.0418290975952
20
16.7408612704462
30
0
41
1
10
35.0652760662059
20
16.7239760809053
30
0
41
1
10
35.0898336900751
20
16.7108942573656
30
0
41
1
10
35.1264502493474
20
16.6971755031059
30
0
41
1
10
35.1384422257702
20
16.6935585096838
30
0
41
1
10
35.1504824930114
20
16.6907535534602
30
0
0
SPLINE
5
167
100
AcDbEntity
8
1
62
256
6
ByLayer
370
-1
48
1
60
0
100
AcDbSpline
70
4
71
3
72
16
73
12
40
0
40
0
40
0
40
0
40
0.0650212293342999
40
0.0650212293342999
40
0.289691523269476
40
0.289691523269476
40
0.517236422326114
40
0.517236422326114
40
0.759263521180987
40
0.759263521180987
40
1
40
1
40
1
40
1
41
1
10
33.75894938897
20
17.373765400583
30
1E-16
41
1
10
33.7543580899785
20
17.3709163261408
30
1E-16
41
1
10
33.7499077067616
20
17.3678455322198
30
1E-16
41
1
10
33.7309447408889
20
17.3533505599667
30
1E-16
41
1
10
33.7181003734153
20
17.3395213811014
30
1E-16
41
1
10
33.6978368742163
20
17.3088527847031
30
1E-16
41
1
10
33.6902188001177
20
17.2915956590469
30
1E-16
41
1
10
33.680527257887
20
17.255055045785
30
1E-16
41
1
10
33.6786967525138
20
17.2352615293769
30
1E-16
41
1
10
33.6809995908041
20
17.1966615487202
30
1E-16
41
1
10
33.6851096838649
20
17.1774446751612
30
1E-16
41
1
10
33.6917024744013
20
17.1593311042064
30
1E-16
0
SPLINE
5
168
100
AcDbEntity
8
1
62
256
6
ByLayer
370
-1
48
1
60
0
100
AcDbSpline
70
4
71
3
72
12
73
8
40
0
40
0
40
0
40
0
40
0.464390992172109
40
0.464390992172109
40
0.846401077319349
40
0.846401077319349
40
1
40
1
40
1
40
1
41
1
10
33.9912627546607
20
17.3444233430198
30
1E-16
41
1
10
34.0267559973212
20
17.3126330234698
30
1E-16
41
1
10
34.0675787785045
20
17.284924226574
30
1E-16
41
1
10
34.1477497709492
20
17.2468420201566
30
1E-16
41
1
10
34.1869926044354
20
17.2339378885065
30
1E-16
41
1
10
34.2424515574902
20
17.2243687824729
30
1E-16
41
1
10
34.2586278056706
20
17.2225737667862
30
1E-16
41
1
10
34.2746624807227
20
17.2218174263198
30
1E-16
0
SPLINE
5
169
100
AcDbEntity
8
1
62
256
6
ByLayer
370
-1
48
1
60
0
100
AcDbSpline
70
4
71
3
72
14
73
10
40
0
40
0
40
0
40
0
40
0.114856267938499
40
0.114856267938499
40
0.470177506254256
40
0.470177506254256
40
0.792157271666155
40
0.792157271666155
40
1
40
1
40
1
40
1
41
1
10
35.184253421535
20
16.3562422867754
30
0
41
1
10
35.189505814517
20
16.3601855886253
30
0
41
1
10
35.1946242449553
20
16.3644852084654
30
0
41
1
10
35.2147685382689
20
16.3834376258333
30
0
41
1
10
35.22863167569
20
16.4014687274608
30
0
41
1
10
35.2491284440117
20
16.440156549925
30
0
41
1
10
35.2565989757748
20
16.4610092026107
30
0
41
1
10
35.263484907365
20
16.4961203736798
30
0
41
1
10
35.2648840138573
20
16.5103578238738
30
0
41
1
10
35.2648840138573
20
16.524362577265
30
0
0
SPLINE
5
16A
100
AcDbEntity
8
1
62
256
6
ByLayer
370
-1
48
1
60
0
100
AcDbSpline
70
4
71
3
72
14
73
10
40
0
40
0
40
0
40
0
40
0.284523597312295
40
0.284523597312295
40
0.571736866218034
40
0.571736866218034
40
0.831999616286238
40
0.831999616286238
40
1
40
1
40
1
40
1
41
1
10
34.8644426920228
20
17.1914295136855
30
0
41
1
10
34.8668819979385
20
17.2130890933567
30
0
41
1
10
34.866119910435
20
17.2361688803833
30
0
41
1
10
34.8574122852604
20
17.2816735874846
30
0
41
1
10
34.8492278432661
20
17.3047878117622
30
0
41
1
10
34.8269774154147
20
17.3446612262203
30
0
41
1
10
34.8131702677778
20
17.3623951280231
30
0
41
1
10
34.7870296825945
20
17.3863281086266
30
0
41
1
10
34.7757220596662
20
17.3945822706189
30
0
41
1
10
34.7638996961209
20
17.4012713272838
30
0
0
SPLINE
5
16B
100
AcDbEntity
8
1
62
256
6
ByLayer
370
-1
48
1
60
0
100
AcDbSpline
70
4
71
3
72
12
73
8
40
0
40
0
40
0
40
0
40
0.3770262906397
40
0.3770262906397
40
0.761056371823045
40
0.761056371823045
40
1
40
1
40
1
40
1
41
1
10
34.3293754637833
20
17.2233149444468
30
1E-16
41
1
10
34.3670177297029
20
17.2272381008339
30
1E-16
41
1
10
34.4031734323024
20
17.2374281390005
30
1E-16
41
1
10
34.467865412729
20
17.2675350624935
30
1E-16
41
1
10
34.4971884677273
20
17.2879302944501
30
1E-16
41
1
10
34.5380432757565
20
17.3264838901219
30
1E-16
41
1
10
34.5523136907111
20
17.3427675454409
30
1E-16
41
1
10
34.5650447587754
20
17.3601280058625
30
0
0
SPLINE
5
16C
100
AcDbEntity
8
1
62
256
6
ByLayer
370
-1
48
1
60
0
100
AcDbSpline
70
4
71
3
72
16
73
12
40
0
40
0
40
0
40
0
40
0.0760713024035812
40
0.0760713024035812
40
0.330918201404293
40
0.330918201404293
40
0.589155737078963
40
0.589155737078963
40
0.863928141795724
40
0.863928141795724
40
1
40
1
40
1
40
1
41
1
10
35.2648840138573
20
16.524362577265
30
0
41
1
10
35.2648840138573
20
16.5299702663969
30
0
41
1
10
35.2646631742011
20
16.5355653475013
30
0
41
1
10
35.2627613583507
20
16.559546874397
30
0
41
1
10
35.2587831295783
20
16.5776747117743
30
0
41
1
10
35.2465834844352
20
16.6106983117039
30
0
41
1
10
35.2381634510724
20
16.6259748127245
30
0
41
1
10
35.2177564816082
20
16.6527052597839
30
0
41
1
10
35.2053339627837
20
16.6642004227849
30
0
41
1
10
35.1854893756791
20
16.6771670087092
30
0
41
1
10
35.1786361868898
20
16.6808209779789
30
0
41
1
10
35.1716240404485
20
16.6838163366523
30
0
0
SPLINE
5
16D
100
AcDbEntity
8
1
62
256
6
ByLayer
370
-1
48
1
60
0
100
AcDbSpline
70
4
71
3
72
14
73
10
40
0
40
0
40
0
40
0
40
0.283738489034223
40
0.283738489034223
40
0.570489531030772
40
0.570489531030772
40
0.830294403552175
40
0.830294403552175
40
1
40
1
40
1
40
1
41
1
10
33.9912627546607
20
17.3444233430198
30
1E-16
41
1
10
33.9739632805622
20
17.359918005339
30
1E-16
41
1
10
33.9538031279601
20
17.3731032410039
30
1E-16
41
1
10
33.9103129213386
20
17.3920995274905
30
1E-16
41
1
10
33.8862645150097
20
17.3980877046381
30
1E-16
41
1
10
33.8405687019407
20
17.4005992152061
30
1E-16
41
1
10
33.8182195896279
20
17.397958736052
30
1E-16
41
1
10
33.7840072350256
20
17.3871775813581
30
1E-16
41
1
10
33.7709251036042
20
17.3811967838481
30
1E-16
41
1
10
33.75894938897
20
17.373765400583
30
1E-16
0
SPLINE
5
16E
100
AcDbEntity
8
1
62
256
6
ByLayer
370
-1
48
1
60
0
100
AcDbSpline
70
4
71
3
72
16
73
12
40
0
40
0
40
0
40
0
40
0.0668638488454765
40
0.0668638488454765
40
0.290854271538574
40
0.290854271538574
40
0.517824973971272
40
0.517824973971272
40
0.759328674281157
40
0.759328674281157
40
1
40
1
40
1
40
1
41
1
10
34.7638996961209
20
17.4012713272838
30
0
41
1
10
34.7591655499986
20
17.403949892492
30
0
41
1
10
34.754329785453
20
17.4063928484275
30
0
41
1
10
34.733118035358
20
17.4158700557789
30
0
41
1
10
34.7157926622873
20
17.4203931015292
30
0
41
1
10
34.6817161505292
20
17.4234597420921
30
0
41
1
10
34.6645427957394
20
17.4219772329493
30
0
41
1
10
34.6316177320774
20
17.4134032997482
30
0
41
1
10
34.6156105729577
20
17.4058714984304
30
0
41
1
10
34.5875572502629
20
17.3862422595348
30
0
41
1
10
34.5751938048288
20
17.3739675448105
30
0
41
1
10
34.5650447587754
20
17.3601280058625
30
0
0
SPLINE
5
16F
100
AcDbEntity
8
1
62
256
6
ByLayer
370
-1
48
1
60
0
100
AcDbSpline
70
4
71
3
72
14
73
10
40
0
40
0
40
0
40
0
40
0.168246813869565
40
0.168246813869565
40
0.465326321136779
40
0.465326321136779
40
0.860812133822879
40
0.860812133822879
40
1
40
1
40
1
40
1
41
1
10
33.6661720502072
20
16.8208451740544
30
1E-16
41
1
10
33.6767019069514
20
16.838062793074
30
1E-16
41
1
10
33.6857839287212
20
16.8561536527072
30
1E-16
41
1
10
33.7061357509776
20
16.9075600856982
30
1E-16
41
1
10
33.7140915878935
20
16.942560067713
30
1E-16
41
1
10
33.7211296519356
20
17.0230247644057
30
1E-16
41
1
10
33.7167175848092
20
17.0694718734206
30
1E-16
41
1
10
33.7019092684094
20
17.1288894357274
30
1E-16
41
1
10
33.6971855456764
20
17.1442664665474
30
1E-16
41
1
10
33.6917024744013
20
17.1593311042064
30
1E-16
0
SPLINE
5
170
100
AcDbEntity
8
1
62
256
6
ByLayer
370
-1
48
1
60
0
100
AcDbSpline
70
4
71
1
72
4
73
2
40
0
40
0
40
1
40
1
41
1
10
39.0917001415017
20
6.75260994216578
30
-1E-16
41
1
10
38.9158144286854
20
4.8752159653319
30
-1E-16
0
SPLINE
5
171
100
AcDbEntity
8
1
62
256
6
ByLayer
370
-1
48
1
60
0
100
AcDbSpline
70
4
71
3
72
10
73
6
40
0
40
0
40
0
40
0
40
0.105431152454178
40
0.910261113224299
40
1
40
1
40
1
40
1
41
1
10
39.4247885514712
20
7.13064209252269
30
0
41
1
10
39.4281601736729
20
7.13747756325435
30
0
41
1
10
39.4539197329822
20
7.19642192944895
30
0
41
1
10
39.448690417245
20
7.25854992317559
30
0
41
1
10
39.4431814941566
20
7.3178129205601
30
0
41
1
10
39.4426205944215
20
7.32379330604581
30
0
0
SPLINE
5
172
100
AcDbEntity
8
1
62
256
6
ByLayer
370
-1
48
1
60
0
100
AcDbSpline
70
4
71
3
72
14
73
10
40
0
40
0
40
0
40
0
40
0.0797102999851571
40
0.267927892847639
40
0.456145485710121
40
0.644363078572603
40
0.832580671435085
40
0.926689467866326
40
1
40
1
40
1
40
1
41
1
10
39.8382667978274
20
9.83018207932378
30
0
41
1
10
39.8676907065553
20
9.86358659731047
30
0
41
1
10
39.9569717383178
20
9.97477174227663
30
0
41
1
10
39.9759699440039
20
10.1577628783758
30
0
41
1
10
39.970133329908
20
10.3719732859489
30
0
41
1
10
39.9737358222631
20
10.5884985460131
30
0
41
1
10
39.9627884295857
20
10.7695102654117
30
0
41
1
10
39.8032525000927
20
10.8515607832602
30
0
41
1
10
39.7057872549258
20
10.8755087289305
30
0
41
1
10
39.6593784519651
20
10.8828699621997
30
0
0
SPLINE
5
173
100
AcDbEntity
8
1
62
256
6
ByLayer
370
-1
48
1
60
0
100
AcDbSpline
70
4
71
3
72
10
73
6
40
0
40
0
40
0
40
0
40
0.282250363340401
40
0.757818155921103
40
1
40
1
40
1
40
1
41
1
10
39.5095925287733
20
6.78575874549443
30
0
41
1
10
39.5079673916482
20
6.7528784218602
30
0
41
1
10
39.4946235540308
20
6.66322356163667
30
0
41
1
10
39.412161623891
20
6.53518182907098
30
0
41
1
10
39.3710503687107
20
6.44558894893362
30
0
41
1
10
39.3588731436045
20
6.41558799632742
30
0
0
SPLINE
5
174
100
AcDbEntity
8
1
62
256
6
ByLayer
370
-1
48
1
60
0
100
AcDbSpline
70
4
71
3
72
9
73
5
40
0
40
0
40
0
40
0
40
0.497740465717628
40
1
40
1
40
1
40
1
41
1
10
39.2722633772419
20
5.16888737770623
30
0
41
1
10
39.2684283941617
20
5.11353090538268
30
0
41
1
10
39.2433853677607
20
4.99770954690428
30
0
41
1
10
39.029194842521
20
4.87766315051039
30
-1E-16
41
1
10
38.9132125422593
20
4.84744357935185
30
-1E-16
0
SPLINE
5
175
100
AcDbEntity
8
1
62
256
6
ByLayer
370
-1
48
1
60
0
100
AcDbSpline
70
4
71
3
72
11
73
7
40
0
40
0
40
0
40
0
40
0.0271460647313004
40
0.40287396258945
40
0.778601860447599
40
1
40
1
40
1
40
1
41
1
10
39.9032604951126
20
-8.46334292367442
30
0
41
1
10
39.9069946610531
20
-8.46888689819389
30
0
41
1
10
39.9597252545515
20
-8.55216888662019
30
0
41
1
10
39.9759699440039
20
-8.74488076811562
30
0
41
1
10
39.9709324571912
20
-8.98765213341994
30
0
41
1
10
39.9718139310851
20
-9.13561786717432
30
0
41
1
10
39.9717943166643
20
-9.19073991783193
30
0
0
SPLINE
5
176
100
AcDbEntity
8
1
62
256
6
ByLayer
370
-1
48
1
60
0
100
AcDbSpline
70
4
71
3
72
18
73
14
40
0
40
0
40
0
40
0
40
0.010702681502368
40
0.0954771889669972
40
0.180251696431626
40
0.265026203896256
40
0.434575218825514
40
0.604124233754773
40
0.688898741219402
40
0.773673248684031
40
0.85844775614866
40
0.94322226361329
40
1
40
1
40
1
40
1
41
1
10
39.4532050593287
20
-12.4005892390427
30
0
41
1
10
39.4584635731408
20
-12.391274850058
30
0
41
1
10
39.5014955561672
20
-12.308213433036
30
0
41
1
10
39.5120832126082
20
-12.1536459386186
30
0
41
1
10
39.5105648823756
20
-11.9401528993716
30
0
41
1
10
39.3536999300215
20
-11.7020808089375
30
0
41
1
10
39.2766515965767
20
-11.3652264198969
30
0
41
1
10
39.2482218392225
20
-11.017388238662
30
0
41
1
10
39.2504404604311
20
-10.7331408116188
30
0
41
1
10
39.2577336962335
20
-10.5188367944743
30
0
41
1
10
39.2666424296508
20
-10.3044448492344
30
0
41
1
10
39.2792411817456
20
-10.1131169826834
30
0
41
1
10
39.263606512987
20
-9.996625366404
30
0
41
1
10
39.2417510084231
20
-9.95675567945318
30
0
0
SPLINE
5
177
100
AcDbEntity
8
1
62
256
6
ByLayer
370
-1
48
1
60
0
100
AcDbSpline
70
4
71
3
72
12
73
8
40
0
40
0
40
0
40
0
40
0.32113034524875
40
0.481695517873125
40
0.6422606904975
40
0.96339103574625
40
1
40
1
40
1
40
1
41
1
10
29.9416681354055
20
-19.7106332420537
30
-2E-16
41
1
10
29.7890902291351
20
-19.7041442863953
30
-2E-16
41
1
10
29.5681916880139
20
-19.5142238131946
30
-2E-16
41
1
10
29.5525207806485
20
-19.2048806068851
30
-2E-16
41
1
10
29.5250117622613
20
-18.9125319792871
30
-2E-16
41
1
10
29.497090163824
20
-18.6883254968721
30
-2E-16
41
1
10
29.474754390994
20
-18.5357425518626
30
-2E-16
41
1
10
29.4724364343202
20
-18.5201462053605
30
-1E-16
0
SPLINE
5
178
100
AcDbEntity
8
1
62
256
6
ByLayer
370
-1
48
1
60
0
100
AcDbSpline
70
4
71
3
72
14
73
10
40
0
40
0
40
0
40
0
40
0.194165341674199
40
0.291248012511299
40
0.388330683348398
40
0.582496025022597
40
0.776661366696796
40
0.970826708370995
40
1
40
1
40
1
40
1
41
1
10
38.6955376669994
20
-19.1335031844662
30
-1E-16
41
1
10
38.8117280529052
20
-19.1410272333608
30
-1E-16
41
1
10
38.9835852320805
20
-19.0849054643203
30
-1E-16
41
1
10
39.1735964462843
20
-18.9485843057542
30
-1E-16
41
1
10
39.3371764378799
20
-18.7795965206405
30
0
41
1
10
39.4971447119822
20
-18.5222010723389
30
0
41
1
10
39.5120832126082
20
-18.1591549785913
30
0
41
1
10
39.5109949495468
20
-17.9002589766247
30
0
41
1
10
39.4848046057298
20
-17.7655704837953
30
0
41
1
10
39.4810391555754
20
-17.7480268375956
30
0
0
SPLINE
5
179
100
AcDbEntity
8
1
62
256
6
ByLayer
370
-1
48
1
60
0
100
AcDbSpline
70
4
71
1
72
4
73
2
40
0
40
0
40
1
40
1
41
1
10
29.9416681354055
20
-19.7106332420537
30
-2E-16
41
1
10
31.4538342140276
20
-18.5491643733105
30
4E-16
0
SPLINE
5
17A
100
AcDbEntity
8
1
62
256
6
ByLayer
370
-1
48
1
60
0
100
AcDbSpline
70
4
71
3
72
15
73
11
40
0
40
0
40
0
40
0
40
0.0625
40
0.125
40
0.25
40
0.5
40
0.75
40
0.875
40
0.9375
40
1
40
1
40
1
40
1
41
1
10
39.1930592634411
20
-19.9061410733477
30
0
41
1
10
38.9940057405944
20
-19.9078002105555
30
0
41
1
10
38.5948632988263
20
-19.9113005527265
30
0
41
1
10
37.8221755730431
20
-19.9206760973395
30
0
41
1
10
36.4988313627283
20
-19.9282414395724
30
0
41
1
10
34.5862973042088
20
-19.905858810364
30
0
41
1
10
32.6953921773316
20
-19.8246233188768
30
0
41
1
10
31.3313350967294
20
-19.7674191608266
30
-1E-16
41
1
10
30.5353367356836
20
-19.7290382056486
30
-1E-16
41
1
10
30.1397684463099
20
-19.7317870415673
30
-2E-16
41
1
10
29.9416681354055
20
-19.7106332420537
30
-2E-16
0
SPLINE
5
17B
100
AcDbEntity
8
1
62
256
6
ByLayer
370
-1
48
1
60
0
100
AcDbSpline
70
4
71
3
72
9
73
5
40
0
40
0
40
0
40
0
40
0.12068692241206
40
1
40
1
40
1
40
1
41
1
10
31.1455850913903
20
-18.3136947979138
30
3E-16
41
1
10
31.1523882184817
20
-18.3283026091113
30
3E-16
41
1
10
31.2154692381483
20
-18.4466310070877
30
4E-16
41
1
10
31.3378206707939
20
-18.5386098911892
30
4E-16
41
1
10
31.4538342140276
20
-18.5491643733105
30
4E-16
0
SPLINE
5
17C
100
AcDbEntity
8
1
62
256
6
ByLayer
370
-1
48
1
60
0
100
AcDbSpline
70
4
71
1
72
4
73
2
40
0
40
0
40
1
40
1
41
1
10
39.1930592634411
20
-19.9061410733477
30
0
41
1
10
38.6955376669994
20
-19.1335031844662
30
-1E-16
0
SPLINE
5
17D
100
AcDbEntity
8
1
62
256
6
ByLayer
370
-1
48
1
60
0
100
AcDbSpline
70
4
71
3
72
8
73
4
40
0
40
0
40
0
40
0
40
1
40
1
40
1
40
1
41
1
10
31.4538342140276
20
-18.5491643733105
30
4E-16
41
1
10
33.8661867693205
20
-18.7683425220412
30
-4E-16
41
1
10
36.27953755751
20
-18.9758805160115
30
2E-16
41
1
10
38.6955376669994
20
-19.1335031844662
30
-1E-16
0
SPLINE
5
17E
100
AcDbEntity
8
1
62
256
6
ByLayer
370
-1
48
1
60
0
100
AcDbSpline
70
4
71
3
72
12
73
8
40
0
40
0
40
0
40
0
40
0.245000795921801
40
0.431881745316438
40
0.618762694711075
40
0.992524593500349
40
1
40
1
40
1
40
1
41
1
10
39.2548792856139
20
-13.2527723552108
30
0
41
1
10
39.3411872987618
20
-13.3044576786378
30
0
41
1
10
39.4588860160815
20
-13.4618971825584
30
0
41
1
10
39.4449509802382
20
-13.7243836876061
30
0
41
1
10
39.4227354195701
20
-14.0285533806686
30
0
41
1
10
39.4003167079207
20
-14.2515534498028
30
0
41
1
10
39.3851242311499
20
-14.3999059752458
30
0
41
1
10
39.3848263024654
20
-14.4028144356874
30
0
0
SPLINE
5
17F
100
AcDbEntity
8
1
62
256
6
ByLayer
370
-1
48
1
60
0
100
AcDbSpline
70
4
71
3
72
17
73
13
40
0
40
0
40
0
40
0
40
0.0833835002460353
40
0.197960562715281
40
0.312537625184526
40
0.427114687653772
40
0.541691750123018
40
0.656268812592263
40
0.770845875061509
40
0.828134406296132
40
0.885422937530754
40
1
40
1
40
1
40
1
41
1
10
39.4428434270754
20
-16.3119113929806
30
0
41
1
10
39.4706525561127
20
-16.4243984164387
30
0
41
1
10
39.5466413795774
20
-16.6899393605641
30
0
41
1
10
39.6976171774624
20
-17.0935752601562
30
0
41
1
10
39.9524524699416
20
-17.5032453648036
30
0
41
1
10
39.9759699440038
20
-17.9852252159397
30
0
41
1
10
39.970133329908
20
-18.4578291392316
30
0
41
1
10
39.9737358222631
20
-18.9302214385697
30
0
41
1
10
39.9627884295857
20
-19.3319406356301
30
0
41
1
10
39.7939225620951
20
-19.602811484569
30
0
41
1
10
39.5685298529297
20
-19.8193941324714
30
0
41
1
10
39.3465096726758
20
-19.9027347919984
30
0
41
1
10
39.1930592634411
20
-19.9061410733477
30
0
0
SPLINE
5
180
100
AcDbEntity
8
1
62
256
6
ByLayer
370
-1
48
1
60
0
100
AcDbSpline
70
4
71
3
72
19
73
15
40
0
40
0
40
0
40
0
40
0.0952448834870159
40
0.142867325230524
40
0.190489766974032
40
0.285734650461048
40
0.380979533948064
40
0.476224417435079
40
0.571469300922095
40
0.666714184409111
40
0.761959067896127
40
0.857203951383143
40
0.952448834870159
40
1
40
1
40
1
40
1
41
1
10
29.9416681354055
20
-6.70381850806513
30
-6E-16
41
1
10
29.7890902291352
20
-6.66415110911626
30
-6E-16
41
1
10
29.5681916880139
20
-6.57372481797853
30
-6E-16
41
1
10
29.5525207806485
20
-6.50768869360442
30
-6E-16
41
1
10
29.5250117622614
20
-6.47782486612138
30
-6E-16
41
1
10
29.4817627028027
20
-6.48151163217094
30
-6E-16
41
1
10
29.4150499989134
20
-6.51270707431726
30
-6E-16
41
1
10
29.3328900883059
20
-6.53181868159203
30
-7E-16
41
1
10
29.2422798064169
20
-6.48212440665037
30
-7E-16
41
1
10
29.1502159886832
20
-6.30690220214746
30
-7E-16
41
1
10
29.0312363378829
20
-6.07971859774114
30
-7E-16
41
1
10
28.8598785567941
20
-5.87414012308918
30
-7E-16
41
1
10
28.6498408299451
20
-5.68588527537125
30
-7E-16
41
1
10
28.6091698468293
20
-5.58401887099393
30
-7E-16
41
1
10
28.6009918542627
20
-5.55089417476415
30
-7E-16
0
SPLINE
5
181
100
AcDbEntity
8
1
62
256
6
ByLayer
370
-1
48
1
60
0
100
AcDbSpline
70
4
71
3
72
15
73
11
40
0
40
0
40
0
40
0
40
0.0625
40
0.125
40
0.25
40
0.5
40
0.75
40
0.875
40
0.9375
40
1
40
1
40
1
40
1
41
1
10
39.1930592634411
20
-9.78459742842898
30
0
41
1
10
38.9940057405944
20
-9.7403411072271
30
-1E-16
41
1
10
38.5948632988264
20
-9.65441917849512
30
-1E-16
41
1
10
37.8221755730431
20
-9.40800773310258
30
-1E-16
41
1
10
36.4988313627284
20
-8.91096761984039
30
-2E-16
41
1
10
34.5862973042088
20
-8.23361572876328
30
-3E-16
41
1
10
32.6953921773316
20
-7.48413834663413
30
-4E-16
41
1
10
31.3313350967294
20
-7.05335273459963
30
-5E-16
41
1
10
30.5353367356836
20
-6.85855160925357
30
-6E-16
41
1
10
30.1397684463099
20
-6.7578130910328
30
-6E-16
41
1
10
29.9416681354055
20
-6.70381850806513
30
-6E-16
0
SPLINE
5
182
100
AcDbEntity
8
1
62
256
6
ByLayer
370
-1
48
1
60
0
100
AcDbSpline
70
4
71
1
72
4
73
2
40
0
40
0
40
1
40
1
41
1
10
39.1930592634411
20
-9.78459742842898
30
0
41
1
10
38.6955376669995
20
-5.9651136655055
30
-1E-16
0
SPLINE
5
183
100
AcDbEntity
8
1
62
256
6
ByLayer
370
-1
48
1
60
0
100
AcDbSpline
70
4
71
3
72
14
73
10
40
0
40
0
40
0
40
0
40
0.194165358101484
40
0.291248037152226
40
0.388330716202967
40
0.582496074304451
40
0.776661432405935
40
0.970826790507418
40
1
40
1
40
1
40
1
41
1
10
38.6955376669995
20
-5.9651136655055
30
-1E-16
41
1
10
38.8117280529052
20
-5.99433675805409
30
-1E-16
41
1
10
38.9835852320805
20
-6.0107150395819
30
-1E-16
41
1
10
39.1735964462843
20
-5.99917538172301
30
-1E-16
41
1
10
39.3371764378799
20
-5.96863113226871
30
0
41
1
10
39.4971447119822
20
-5.9019806314862
30
0
41
1
10
39.5120832126082
20
-5.76042821741063
30
0
41
1
10
39.5109949497674
20
-5.65683462520235
30
0
41
1
10
39.4848046255726
20
-5.59715856506733
30
0
41
1
10
39.4810391883356
20
-5.58930567109655
30
0
0
SPLINE
5
184
100
AcDbEntity
8
1
62
256
6
ByLayer
370
-1
48
1
60
0
100
AcDbSpline
70
4
71
3
72
11
73
7
40
0
40
0
40
0
40
0
40
0.048751528998254
40
0.286563646748691
40
0.524375764499127
40
1
40
1
40
1
40
1
41
1
10
31.0949563120258
20
-3.78803212265231
30
-5E-16
41
1
10
31.0949332378304
20
-3.79294919401878
30
-5E-16
41
1
10
31.0950755799387
20
-3.82193368560954
30
-5E-16
41
1
10
31.0987545555308
20
-3.87596923800547
30
-5E-16
41
1
10
31.1764428486136
20
-3.98252265318081
30
-5E-16
41
1
10
31.3378206707939
20
-4.06733176197454
30
-5E-16
41
1
10
31.4538342140277
20
-4.09768556702633
30
-5E-16
0
SPLINE
5
185
100
AcDbEntity
8
1
62
256
6
ByLayer
370
-1
48
1
60
0
100
AcDbSpline
70
4
71
3
72
8
73
4
40
0
40
0
40
0
40
0
40
1
40
1
40
1
40
1
41
1
10
31.4538342140277
20
-4.09768556702633
30
-5E-16
41
1
10
33.8661867693206
20
-4.72955173528007
30
-4E-16
41
1
10
36.27953755751
20
-5.35699656190718
30
-2E-16
41
1
10
38.6955376669995
20
-5.9651136655055
30
-1E-16
0
SPLINE
5
186
100
AcDbEntity
8
1
62
256
6
ByLayer
370
-1
48
1
60
0
100
AcDbSpline
70
4
71
1
72
4
73
2
40
0
40
0
40
1
40
1
41
1
10
29.9416681354055
20
-6.70381850806513
30
-6E-16
41
1
10
31.4538342140277
20
-4.09768556702633
30
-5E-16
0
SPLINE
5
187
100
AcDbEntity
8
1
62
256
6
ByLayer
370
-1
48
1
60
0
100
AcDbSpline
70
4
71
3
72
13
73
9
40
0
40
0
40
0
40
0
40
0.0768522980615842
40
0.307639223546188
40
0.538426149030792
40
0.653819611773094
40
0.769213074515396
40
1
40
1
40
1
40
1
41
1
10
39.9723630979362
20
-9.31956492084197
30
0
41
1
10
39.9721289526318
20
-9.34046009824834
30
0
41
1
10
39.970934282731
20
-9.4239253600675
30
0
41
1
10
39.9737358222631
20
-9.57125554348306
30
0
41
1
10
39.9627884295857
20
-9.72913345302172
30
0
41
1
10
39.7939225620951
20
-9.79913733047226
30
0
41
1
10
39.5685298529297
20
-9.83471695206796
30
0
41
1
10
39.3465096726758
20
-9.81787311648674
30
0
41
1
10
39.1930592634411
20
-9.78459742842898
30
0
0
SPLINE
5
188
100
AcDbEntity
8
1
62
256
6
ByLayer
370
-1
48
1
60
0
100
AcDbSpline
70
4
71
3
72
9
73
5
40
0
40
0
40
0
40
0
40
0.0911157779776715
40
1
40
1
40
1
40
1
41
1
10
31.1512648359498
20
13.7321135959809
30
-5E-16
41
1
10
31.1565557250164
20
13.7370076127452
30
-5E-16
41
1
10
31.2194500222778
20
13.7885307894011
30
-5E-16
41
1
10
31.3378206707939
20
13.8139757076986
30
-5E-16
41
1
10
31.4538342140277
20
13.7949984719836
30
-5E-16
0
SPLINE
5
189
100
AcDbEntity
8
1
62
256
6
ByLayer
370
-1
48
1
60
0
100
AcDbSpline
70
4
71
3
72
14
73
10
40
0
40
0
40
0
40
0
40
0.258374536041623
40
0.258374536041623
40
0.520163709547354
40
0.520163709547354
40
0.8083974790164
40
0.8083974790164
40
1
40
1
40
1
40
1
41
1
10
35.8026261280037
20
8.09710911105458
30
-3E-16
41
1
10
35.8744171007635
20
8.15507800103191
30
-3E-16
41
1
10
35.9246300058288
20
8.23530993310291
30
-2E-16
41
1
10
35.9763643976471
20
8.41719227577673
30
-2E-16
41
1
10
35.9772064531712
20
8.51783532011933
30
-2E-16
41
1
10
35.9226407334345
20
8.72685258853031
30
-2E-16
41
1
10
35.8625138629351
20
8.84355861831213
30
-3E-16
41
1
10
35.7261020584113
20
9.04570235818329
30
-3E-16
41
1
10
35.661012424577
20
9.1293989277417
30
-3E-16
41
1
10
35.587641092171
20
9.21217995623286
30
-3E-16
0
SPLINE
5
18A
100
AcDbEntity
8
1
62
256
6
ByLayer
370
-1
48
1
60
0
100
AcDbSpline
70
4
71
3
72
25
73
21
40
0
40
0
40
0
40
0
40
0.0625
40
0.09375
40
0.125
40
0.1875
40
0.25
40
0.3125
40
0.375
40
0.4375
40
0.5
40
0.5625
40
0.625
40
0.6875
40
0.75
40
0.8125
40
0.875
40
0.90625
40
0.9375
40
1
40
1
40
1
40
1
41
1
10
39.1057266240884
20
6.70284338029495
30
-1E-16
41
1
10
39.2596795062292
20
6.67564336696506
30
0
41
1
10
39.4617858201567
20
6.70965066024871
30
0
41
1
10
39.4449509802382
20
6.83661718279811
30
0
41
1
10
39.4227354195701
20
6.92665957670275
30
0
41
1
10
39.3858625495057
20
6.9991137647965
30
0
41
1
10
39.3407596325154
20
7.05736127247292
30
0
41
1
10
39.3147761366479
20
7.12083600416867
30
0
41
1
10
39.3290195952826
20
7.23889941604156
30
0
41
1
10
39.4050021049254
20
7.46080923576477
30
0
41
1
10
39.531572880408
20
7.71306960872568
30
0
41
1
10
39.6976171774624
20
7.92219757023034
30
0
41
1
10
39.9524524699416
20
8.10695325780262
30
0
41
1
10
39.9759699440039
20
8.37673118667294
30
0
41
1
10
39.970133329908
20
8.64909574178904
30
0
41
1
10
39.9737358222631
20
8.91894870839499
30
0
41
1
10
39.9627884295857
20
9.15152236019125
30
0
41
1
10
39.7939225620951
20
9.34323659213203
30
0
41
1
10
39.5685298529297
20
9.51605112816733
30
0
41
1
10
39.3465096726758
20
9.61178187535489
30
0
41
1
10
39.1930592634411
20
9.64689141108903
30
0
0
SPLINE
5
18B
100
AcDbEntity
8
1
62
256
6
ByLayer
370
-1
48
1
60
0
100
AcDbSpline
70
4
71
3
72
8
73
4
40
0
40
0
40
0
40
0
40
1
40
1
40
1
40
1
41
1
10
33.0175849375758
20
8.48191828240206
30
-4E-16
41
1
10
33.0417635322173
20
8.46344891038393
30
-4E-16
41
1
10
33.0669798974215
20
8.44537904292821
30
-4E-16
41
1
10
33.0931362129759
20
8.42773250943367
30
-4E-16
0
SPLINE
5
18C
100
AcDbEntity
8
1
62
256
6
ByLayer
370
-1
48
1
60
0
100
AcDbSpline
70
4
71
3
72
8
73
4
40
0
40
0
40
0
40
0
40
1
40
1
40
1
40
1
41
1
10
35.7149401106021
20
8.03768598721371
30
-3E-16
41
1
10
35.7469562762678
20
8.05488451639164
30
-3E-16
41
1
10
35.7762442311624
20
8.07458243418091
30
-3E-16
41
1
10
35.8026261280037
20
8.09710911105458
30
-3E-16
0
SPLINE
5
18D
100
AcDbEntity
8
1
62
256
6
ByLayer
370
-1
48
1
60
0
100
AcDbSpline
70
4
71
3
72
18
73
14
40
0
40
0
40
0
40
0
40
0.162600988457448
40
0.162600988457448
40
0.33299609428467
40
0.33299609428467
40
0.503772203001936
40
0.503772203001936
40
0.669272814739438
40
0.669272814739438
40
0.830144082047364
40
0.830144082047364
40
1
40
1
40
1
40
1
41
1
10
35.587641092171
20
9.21217995623286
30
-3E-16
41
1
10
35.476946283952
20
9.33169319697609
30
-3E-16
41
1
10
35.3437250994761
20
9.44998553464393
30
-3E-16
41
1
10
35.0434126728807
20
9.66576803929436
30
-3E-16
41
1
10
34.8706843869633
20
9.76484798174525
30
-3E-16
41
1
10
34.5123876730948
20
9.91833521086596
30
-3E-16
41
1
10
34.3216001167809
20
9.97477439947272
30
-3E-16
41
1
10
33.9539852602043
20
10.029659048335
30
-4E-16
41
1
10
33.771731655951
20
10.0302567006408
30
-4E-16
41
1
10
33.4402595681622
20
9.9781199573126
30
-4E-16
41
1
10
33.2859239060437
20
9.92622325251196
30
-4E-16
41
1
10
33.0128914020641
20
9.78412398587869
30
-4E-16
41
1
10
32.8925342280348
20
9.69037687991303
30
-4E-16
41
1
10
32.8049444652568
20
9.59389598888862
30
-4E-16
0
SPLINE
5
18E
100
AcDbEntity
8
1
62
256
6
ByLayer
370
-1
48
1
60
0
100
AcDbSpline
70
4
71
3
72
15
73
11
40
0
40
0
40
0
40
0
40
0.0625
40
0.125
40
0.25
40
0.5
40
0.75
40
0.875
40
0.9375
40
1
40
1
40
1
40
1
41
1
10
29.3659876491224
20
7.88555026766014
30
-7E-16
41
1
10
29.5648198200535
20
7.84073909818824
30
-6E-16
41
1
10
29.9652516929151
20
7.75988396864383
30
-6E-16
41
1
10
30.774725297987
20
7.63323030622527
30
-6E-16
41
1
10
32.2074467929496
20
7.50357783081753
30
-5E-16
41
1
10
34.2454150399675
20
7.2835390424529
30
-4E-16
41
1
10
36.2913231296092
20
7.14585344190709
30
-2E-16
41
1
10
37.7088350095692
20
6.96028655595734
30
-1E-16
41
1
10
38.5047464249116
20
6.81034996047165
30
-1E-16
41
1
10
38.9072815125984
20
6.73249059376138
30
-1E-16
41
1
10
39.1057266240884
20
6.70284338029495
30
-1E-16
0
SPLINE
5
18F
100
AcDbEntity
8
1
62
256
6
ByLayer
370
-1
48
1
60
0
100
AcDbSpline
70
4
71
1
72
4
73
2
40
0
40
0
40
1
40
1
41
1
10
29.9416681354056
20
12.4094768852199
30
-6E-16
41
1
10
31.4538342140277
20
13.7949984719836
30
-5E-16
0
SPLINE
5
190
100
AcDbEntity
8
1
62
256
6
ByLayer
370
-1
48
1
60
0
100
AcDbSpline
70
4
71
3
72
14
73
10
40
0
40
0
40
0
40
0
40
0.301632841810062
40
0.301632841810062
40
0.602402032079645
40
0.602402032079645
40
0.899200904780735
40
0.899200904780735
40
1
40
1
40
1
40
1
41
1
10
32.8049444652568
20
9.59389598888862
30
-4E-16
41
1
10
32.7180705749574
20
9.49331168496266
30
-4E-16
41
1
10
32.6599077063564
20
9.39003021547069
30
-4E-16
41
1
10
32.6148227831131
20
9.17270822219291
30
-5E-16
41
1
10
32.6244740599948
20
9.04907041766774
30
-5E-16
41
1
10
32.7085788432896
20
8.80635876148557
30
-4E-16
41
1
10
32.7860489828323
20
8.68788391636173
30
-4E-16
41
1
10
32.9319537402735
20
8.54892009425078
30
-4E-16
41
1
10
32.9731754787909
20
8.51463614052335
30
-4E-16
41
1
10
33.0175849375758
20
8.48191828240206
30
-4E-16
0
SPLINE
5
191
100
AcDbEntity
8
1
62
256
6
ByLayer
370
-1
48
1
60
0
100
AcDbSpline
70
4
71
3
72
12
73
8
40
0
40
0
40
0
40
0
40
0.269070514224875
40
0.403605771337312
40
0.53814102844975
40
0.807211542674624
40
1
40
1
40
1
40
1
41
1
10
38.6955376669995
20
12.5653985224731
30
-1E-16
41
1
10
38.8117280529053
20
12.5446091365742
30
-1E-16
41
1
10
38.9835852320806
20
12.4753231033203
30
-1E-16
41
1
10
39.1735964462844
20
12.3561587340016
30
-1E-16
41
1
10
39.3371764378799
20
12.2239854778748
30
0
41
1
10
39.4790041750715
20
12.0625773922627
30
0
41
1
10
39.5019089844251
20
11.9411160337515
30
0
41
1
10
39.5061669586257
20
11.8908730064271
30
0
0
SPLINE
5
192
100
AcDbEntity
8
1
62
256
6
ByLayer
370
-1
48
1
60
0
100
AcDbSpline
70
4
71
3
72
8
73
4
40
0
40
0
40
0
40
0
40
1
40
1
40
1
40
1
41
1
10
31.4538342140277
20
13.7949984719836
30
-5E-16
41
1
10
33.8661867693206
20
13.3994474132756
30
-4E-16
41
1
10
36.27953755751
20
12.9970105718054
30
-2E-16
41
1
10
38.6955376669995
20
12.5653985224731
30
-1E-16
0
SPLINE
5
193
100
AcDbEntity
8
1
62
256
6
ByLayer
370
-1
48
1
60
0
100
AcDbSpline
70
4
71
3
72
15
73
11
40
0
40
0
40
0
40
0
40
0.0625
40
0.125
40
0.25
40
0.5
40
0.75
40
0.875
40
0.9375
40
1
40
1
40
1
40
1
41
1
10
39.1930592634411
20
9.64689141108903
30
0
41
1
10
38.9940057405944
20
9.69084422648558
30
-1E-16
41
1
10
38.5948632988264
20
9.7764435896934
30
-1E-16
41
1
10
37.8221755730431
20
10.0212967531955
30
-1E-16
41
1
10
36.4988313627284
20
10.5043559300562
30
-2E-16
41
1
10
34.5862973042088
20
11.1314277218233
30
-3E-16
41
1
10
32.6953921773316
20
11.7713323661186
30
-4E-16
41
1
10
31.3313350967294
20
12.1290971934
30
-5E-16
41
1
10
30.5353367356836
20
12.2789258950825
30
-6E-16
41
1
10
30.13976844631
20
12.3779918419163
30
-6E-16
41
1
10
29.9416681354056
20
12.4094768852199
30
-6E-16
0
SPLINE
5
194
100
AcDbEntity
8
1
62
256
6
ByLayer
370
-1
48
1
60
0
100
AcDbSpline
70
4
71
1
72
4
73
2
40
0
40
0
40
1
40
1
41
1
10
39.1930592634411
20
9.64689141108903
30
0
41
1
10
38.6955376669995
20
12.5653985224731
30
-1E-16
0
SPLINE
5
195
100
AcDbEntity
8
1
62
256
6
ByLayer
370
-1
48
1
60
0
100
AcDbSpline
70
4
71
3
72
25
73
21
40
0
40
0
40
0
40
0
40
0.0625
40
0.09375
40
0.125
40
0.1875
40
0.25
40
0.3125
40
0.375
40
0.4375
40
0.5
40
0.5625
40
0.625
40
0.6875
40
0.75
40
0.8125
40
0.875
40
0.90625
40
0.9375
40
1
40
1
40
1
40
1
41
1
10
29.9416681354056
20
12.4094768852199
30
-6E-16
41
1
10
29.7890902291352
20
12.4412536535758
30
-6E-16
41
1
10
29.5681916880139
20
12.3464129010096
30
-6E-16
41
1
10
29.5525207806485
20
12.1141520633532
30
-6E-16
41
1
10
29.5250117622614
20
11.863495227189
30
-6E-16
41
1
10
29.4817627028027
20
11.5282461309612
30
-6E-16
41
1
10
29.4150499989134
20
11.110324607432
30
-6E-16
41
1
10
29.3328900883059
20
10.6962427494271
30
-7E-16
41
1
10
29.2422798064169
20
10.3301480838453
30
-7E-16
41
1
10
29.1502159886832
20
10.0561881375852
30
-7E-16
41
1
10
29.0312363378829
20
9.82891576416193
30
-7E-16
41
1
10
28.8598785567941
20
9.60288381709083
30
-7E-16
41
1
10
28.6077578146411
20
9.42726831001428
30
-7E-16
41
1
10
28.5834016031778
20
9.15510281048805
30
-7E-16
41
1
10
28.5893003684924
20
8.8832772313294
30
-7E-16
41
1
10
28.5855629822915
20
8.61332596977977
30
-7E-16
41
1
10
28.6035026501553
20
8.37880825032511
30
-7E-16
41
1
10
28.7589710369209
20
8.19087836383997
30
-7E-16
41
1
10
28.9862800749424
20
8.01754895220969
30
-7E-16
41
1
10
29.2125658294282
20
7.92063974510134
30
-7E-16
41
1
10
29.3659876491224
20
7.88555026766014
30
-7E-16
0
SPLINE
5
196
100
AcDbEntity
8
1
62
256
6
ByLayer
370
-1
48
1
60
0
100
AcDbSpline
70
4
71
3
72
12
73
8
40
0
40
0
40
0
40
0
40
0.37702629084627
40
0.37702629084627
40
0.761056372063252
40
0.761056372063252
40
1
40
1
40
1
40
1
41
1
10
34.2746624807227
20
8.41734033027194
30
-4E-16
41
1
10
34.2358525662616
20
8.42185709316243
30
-4E-16
41
1
10
34.1959717569358
20
8.41888618289536
30
-4E-16
41
1
10
34.1203268388086
20
8.40078592706246
30
-4E-16
41
1
10
34.0836351151974
20
8.38536130721363
30
-4E-16
41
1
10
34.0294644999547
20
8.35380470040781
30
-4E-16
41
1
10
34.0096931069807
20
8.33998151473136
30
-4E-16
41
1
10
33.9912627546607
20
8.32492016911604
30
-4E-16
0
SPLINE
5
197
100
AcDbEntity
8
1
62
256
6
ByLayer
370
-1
48
1
60
0
100
AcDbSpline
70
4
71
3
72
16
73
12
40
0
40
0
40
0
40
0
40
0.0650212293342871
40
0.0650212293342871
40
0.289691523269458
40
0.289691523269458
40
0.517236422326109
40
0.517236422326109
40
0.759263521180992
40
0.759263521180992
40
1
40
1
40
1
40
1
41
1
10
34.7638996961209
20
8.09084907506028
30
-3E-16
41
1
10
34.7684909951123
20
8.0914643747615
30
-3E-16
41
1
10
34.7729979037763
20
8.09231714260397
30
-3E-16
41
1
10
34.7924599816644
20
8.09712078547753
30
-3E-16
41
1
10
34.8063753901275
20
8.10369991126197
30
-3E-16
41
1
10
34.8299819300383
20
8.12146732010376
30
-3E-16
41
1
10
34.8399278957307
20
8.13292916112005
30
-3E-16
41
1
10
34.8553817089322
20
8.15979138587701
30
-3E-16
41
1
10
34.8607776932267
20
8.17572140685789
30
-3E-16
41
1
10
34.8662911577611
20
8.20929502917778
30
-3E-16
41
1
10
34.8665093381705
20
8.22727709944917
30
-3E-16
41
1
10
34.8644426920228
20
8.24545275735505
30
-3E-16
0
SPLINE
5
198
100
AcDbEntity
8
1
62
256
6
ByLayer
370
-1
48
1
60
0
100
AcDbSpline
70
4
71
3
72
16
73
12
40
0
40
0
40
0
40
0
40
0.0670553612811559
40
0.0670553612811559
40
0.291697905104273
40
0.291697905104273
40
0.519329228663787
40
0.519329228663787
40
0.761535715028725
40
0.761535715028725
40
1
40
1
40
1
40
1
41
1
10
33.2579650712335
20
8.91541882766683
30
-4E-16
41
1
10
33.2579650712335
20
8.91219236771812
30
-4E-16
41
1
10
33.2582460124223
20
8.909007346436
30
-4E-16
41
1
10
33.2606659480707
20
8.89550438823434
30
-4E-16
41
1
10
33.2657268228196
20
8.88569005313377
30
-4E-16
41
1
10
33.2812912482724
20
8.86863987857168
30
-4E-16
41
1
10
33.2920501447483
20
8.86121943440915
30
-4E-16
41
1
10
33.3182409680905
20
8.84931799943845
30
-4E-16
41
1
10
33.3342400887526
20
8.84489885971243
30
-4E-16
41
1
10
33.368383511964
20
8.83994320295636
30
-4E-16
41
1
10
33.3868354385886
20
8.839289242013
30
-4E-16
41
1
10
33.4056626734127
20
8.84039308279242
30
-4E-16
0
SPLINE
5
199
100
AcDbEntity
8
1
62
256
6
ByLayer
370
-1
48
1
60
0
100
AcDbSpline
70
4
71
3
72
12
73
8
40
0
40
0
40
0
40
0
40
0.464390992172109
40
0.464390992172109
40
0.846401077319348
40
0.846401077319348
40
1
40
1
40
1
40
1
41
1
10
33.9912627546607
20
9.31747905407394
30
-4E-16
41
1
10
34.0267559973212
20
9.31166420135597
30
-4E-16
41
1
10
34.0675787785045
20
9.30583697633659
30
-4E-16
41
1
10
34.1477497709492
20
9.29406878593076
30
-4E-16
41
1
10
34.1869926044354
20
9.28814321123477
30
-4E-16
41
1
10
34.2424515574902
20
9.27848928946537
30
-4E-16
41
1
10
34.2586278056706
20
9.27552586041239
30
-4E-16
41
1
10
34.2746624807227
20
9.27241092951735
30
-4E-16
0
SPLINE
5
19A
100
AcDbEntity
8
1
62
256
6
ByLayer
370
-1
48
1
60
0
100
AcDbSpline
70
4
71
3
72
18
73
14
40
0
40
0
40
0
40
0
40
0.213393079737796
40
0.213393079737796
40
0.389003177496048
40
0.389003177496048
40
0.566251555260788
40
0.566251555260788
40
0.721174645896039
40
0.721174645896039
40
0.927415342089918
40
0.927415342089918
40
1
40
1
40
1
40
1
41
1
10
33.4056626734127
20
9.04420315406819
30
-4E-16
41
1
10
33.4516194693055
20
9.06025798661358
30
-4E-16
41
1
10
33.4968676996723
20
9.07932780069751
30
-4E-16
41
1
10
33.5716422340237
20
9.1163336511986
30
-4E-16
41
1
10
33.6032941805104
20
9.13425100723009
30
-4E-16
41
1
10
33.6563485439867
20
9.16872320647087
30
-4E-16
41
1
10
33.678305092363
20
9.18568559485075
30
-4E-16
41
1
10
33.7061357509776
20
9.21331283446574
30
-4E-16
41
1
10
33.7140915878934
20
9.22488545366232
30
-4E-16
41
1
10
33.7211296519356
20
9.24811068899595
30
-4E-16
41
1
10
33.7167175848092
20
9.25904387729761
30
-4E-16
41
1
10
33.7019092684094
20
9.27151723608551
30
-4E-16
41
1
10
33.6971855456764
20
9.27459341682123
30
-4E-16
41
1
10
33.6917024744012
20
9.27749018965005
30
-4E-16
0
SPLINE
5
19B
100
AcDbEntity
8
1
62
256
6
ByLayer
370
-1
48
1
60
0
100
AcDbSpline
70
4
71
3
72
16
73
12
40
0
40
0
40
0
40
0
40
0.0670553612811728
40
0.0670553612811728
40
0.291697905104274
40
0.291697905104274
40
0.519329228663788
40
0.519329228663788
40
0.76153571502873
40
0.76153571502873
40
1
40
1
40
1
40
1
41
1
10
35.2648840138573
20
8.49943957873782
30
-3E-16
41
1
10
35.2648840138573
20
8.50266603868653
30
-3E-16
41
1
10
35.2646631742011
20
8.5060461594004
30
-3E-16
41
1
10
35.2627613583506
20
8.5212310194382
30
-3E-16
41
1
10
35.2587831295783
20
8.53455980093392
30
-3E-16
41
1
10
35.2465834844351
20
8.56253260420854
30
-3E-16
41
1
10
35.2381634510724
20
8.5775453816124
30
-3E-16
41
1
10
35.2177564816082
20
8.60822215482915
30
-3E-16
41
1
10
35.2053339627836
20
8.62425153068648
30
-3E-16
41
1
10
35.1789879201331
20
8.65451876352182
30
-3E-16
41
1
10
35.164825556098
20
8.66909734812364
30
-3E-16
41
1
10
35.1504824930114
20
8.68254986421269
30
-3E-16
0
SPLINE
5
19C
100
AcDbEntity
8
1
62
256
6
ByLayer
370
-1
48
1
60
0
100
AcDbSpline
70
4
71
3
72
16
73
12
40
0
40
0
40
0
40
0
40
0.0668638488454725
40
0.0668638488454725
40
0.290854271538571
40
0.290854271538571
40
0.517824973971267
40
0.517824973971267
40
0.759328674281156
40
0.759328674281156
40
1
40
1
40
1
40
1
41
1
10
34.7638996961209
20
9.11571069750264
30
-3E-16
41
1
10
34.7591655499986
20
9.11830765803759
30
-3E-16
41
1
10
34.754329785453
20
9.12090339418378
30
-3E-16
41
1
10
34.733118035358
20
9.13204956381148
30
-3E-16
41
1
10
34.7157926622872
20
9.14052736440706
30
-3E-16
41
1
10
34.6817161505291
20
9.15614307763585
30
-3E-16
41
1
10
34.6645427957394
20
9.16346553317783
30
-3E-16
41
1
10
34.6316177320774
20
9.17662130652246
30
-3E-16
41
1
10
34.6156105729577
20
9.18250274083184
30
-3E-16
41
1
10
34.5875572502629
20
9.19203798135933
30
-3E-16
41
1
10
34.5751938048288
20
9.19580788437636
30
-3E-16
41
1
10
34.5650447587754
20
9.19854978291534
30
-3E-16
0
SPLINE
5
19D
100
AcDbEntity
8
1
62
256
6
ByLayer
370
-1
48
1
60
0
100
AcDbSpline
70
4
71
3
72
14
73
10
40
0
40
0
40
0
40
0
40
0.284519249123241
40
0.284519249123241
40
0.571733062184447
40
0.571733062184447
40
0.831996244286512
40
0.831996244286512
40
1
40
1
40
1
40
1
41
1
10
33.4056626734127
20
9.04420315406819
30
-4E-16
41
1
10
33.3832328303164
20
9.03636737335427
30
-4E-16
41
1
10
33.3612808877256
20
9.02673555071857
30
-4E-16
41
1
10
33.322065011551
20
9.00473912963093
30
-4E-16
41
1
10
33.3042652197331
20
8.99199137561351
30
-4E-16
41
1
10
33.2780316136559
20
8.96633881988012
30
-4E-16
41
1
10
33.2685130656541
20
8.95316387699603
30
-4E-16
41
1
10
33.2597442934663
20
8.93188403034407
30
-4E-16
41
1
10
33.2579650712335
20
8.92347665235118
30
-4E-16
41
1
10
33.2579650712335
20
8.91541882766683
30
-4E-16
0
SPLINE
5
19E
100
AcDbEntity
8
1
62
256
6
ByLayer
370
-1
48
1
60
0
100
AcDbSpline
70
4
71
3
72
14
73
10
40
0
40
0
40
0
40
0
40
0.284523597312287
40
0.284523597312287
40
0.571736866218026
40
0.571736866218026
40
0.831999616286235
40
0.831999616286235
40
1
40
1
40
1
40
1
41
1
10
33.6917024744012
20
8.4885296373198
30
-4E-16
41
1
10
33.6839208650658
20
8.46919504138873
30
-4E-16
41
1
10
33.6796054397407
20
8.44869693029079
30
-4E-16
41
1
10
33.679421085802
20
8.40822886832115
30
-4E-16
41
1
10
33.683668902488
20
8.38763944851323
30
-4E-16
41
1
10
33.7001825467736
20
8.35177131960242
30
-4E-16
41
1
10
33.7119417045693
20
8.33564546980065
30
-4E-16
41
1
10
33.7361995027902
20
8.31343163000753
30
-4E-16
41
1
10
33.7471270254246
20
8.30563297800097
30
-4E-16
41
1
10
33.7589493889699
20
8.29914770890201
30
-4E-16
0
SPLINE
5
19F
100
AcDbEntity
8
1
62
256
6
ByLayer
370
-1
48
1
60
0
100
AcDbSpline
70
4
71
3
72
14
73
10
40
0
40
0
40
0
40
0
40
0.28451924912323
40
0.28451924912323
40
0.571733062184452
40
0.571733062184452
40
0.831996244286526
40
0.831996244286526
40
1
40
1
40
1
40
1
41
1
10
35.1504824930113
20
8.47873979293698
30
-3E-16
41
1
10
35.1675701140858
20
8.46923384483804
30
-3E-16
41
1
10
35.184444618269
20
8.46238346969724
30
-3E-16
41
1
10
35.2147685382688
20
8.4555151427513
30
-3E-16
41
1
10
35.22863167569
20
8.4554838709812
30
-3E-16
41
1
10
35.2491284440116
20
8.46251371051261
30
-3E-16
41
1
10
35.2565989757748
20
8.46904045680935
30
-3E-16
41
1
10
35.263484907365
20
8.48420829409358
30
-3E-16
41
1
10
35.2648840138573
20
8.49138175405349
30
-3E-16
41
1
10
35.2648840138573
20
8.49943957873782
30
-3E-16
0
SPLINE
5
1A0
100
AcDbEntity
8
1
62
256
6
ByLayer
370
-1
48
1
60
0
100
AcDbSpline
70
4
71
3
72
18
73
14
40
0
40
0
40
0
40
0
40
0.213394464779722
40
0.213394464779722
40
0.389004322610661
40
0.389004322610661
40
0.566252444177965
40
0.566252444177965
40
0.721175490823056
40
0.721175490823056
40
0.927416435499179
40
0.927416435499179
40
1
40
1
40
1
40
1
41
1
10
34.8644426920228
20
9.03441330968533
30
-3E-16
41
1
10
34.8594448101921
20
9.03033067548148
30
-3E-16
41
1
10
34.8601443340928
20
9.02218174403006
30
-3E-16
41
1
10
34.872963899436
20
8.99779194107862
30
-3E-16
41
1
10
34.883250440932
20
8.98285037955358
30
-3E-16
41
1
10
34.9122626347847
20
8.94475121309003
30
-3E-16
41
1
10
34.9315502010716
20
8.92081616975722
30
-3E-16
41
1
10
34.9729592862713
20
8.87116690526045
30
-3E-16
41
1
10
34.9948918929612
20
8.8455326216822
30
-3E-16
41
1
10
35.0482204605301
20
8.78557982670858
30
-3E-16
41
1
10
35.0812288024935
20
8.75027204530451
30
-3E-16
41
1
10
35.1264502493473
20
8.70542269458409
30
-3E-16
41
1
10
35.1384422257701
20
8.69384256283647
30
-3E-16
41
1
10
35.1504824930113
20
8.68254986421272
30
-3E-16
0
SPLINE
5
1A1
100
AcDbEntity
8
1
62
256
6
ByLayer
370
-1
48
1
60
0
100
AcDbSpline
70
4
71
3
72
18
73
14
40
0
40
0
40
0
40
0
40
0.213393079737802
40
0.213393079737802
40
0.389003177496047
40
0.389003177496047
40
0.566251555260791
40
0.566251555260791
40
0.721174645896044
40
0.721174645896044
40
0.927415342089924
40
0.927415342089924
40
1
40
1
40
1
40
1
41
1
10
35.1504824930113
20
8.47873979293698
30
-3E-16
41
1
10
35.1154714449785
20
8.49821665305922
30
-3E-16
41
1
10
35.080532787657
20
8.51261340386148
30
-3E-16
41
1
10
35.0207733863908
20
8.52434913785279
30
-3E-16
41
1
10
34.9946054377994
20
8.5242337383709
30
-3E-16
41
1
10
34.9477953404873
20
8.51003145116545
30
-3E-16
41
1
10
34.9265581680197
20
8.49540427496362
30
-3E-16
41
1
10
34.8951684740967
20
8.45622382305197
30
-3E-16
41
1
10
34.8835575715749
20
8.43278626146397
30
-3E-16
41
1
10
34.8649465059943
20
8.37199316515179
30
-3E-16
41
1
10
34.8603297319406
20
8.33175087763996
30
-3E-16
41
1
10
34.8616735045792
20
8.2755694016036
30
-3E-16
41
1
10
34.8627239102617
20
8.2605690312941
30
-3E-16
41
1
10
34.8644426920228
20
8.24545275735508
30
-3E-16
0
SPLINE
5
1A2
100
AcDbEntity
8
1
62
256
6
ByLayer
370
-1
48
1
60
0
100
AcDbSpline
70
4
71
3
72
12
73
8
40
0
40
0
40
0
40
0
40
0.464390992171652
40
0.464390992171652
40
0.846401077318505
40
0.846401077318505
40
1
40
1
40
1
40
1
41
1
10
34.5650447587754
20
8.20599089795743
30
-3E-16
41
1
10
34.5405272194556
20
8.24743468374646
30
-3E-16
41
1
10
34.5100492522065
20
8.28684287135684
30
-3E-16
41
1
10
34.4449611820314
20
8.34757270106488
30
-3E-16
41
1
10
34.4112358139
20
8.37140887317278
30
-3E-16
41
1
10
34.3602013385329
20
8.39542537513557
30
-3E-16
41
1
10
34.3449277140512
20
8.40131886874573
30
-3E-16
41
1
10
34.3293754637833
20
8.40599982960856
30
-3E-16
0
SPLINE
5
1A3
100
AcDbEntity
8
1
62
256
6
ByLayer
370
-1
48
1
60
0
100
AcDbSpline
70
4
71
3
72
14
73
10
40
0
40
0
40
0
40
0
40
0.283738489034228
40
0.283738489034228
40
0.570489531030774
40
0.570489531030774
40
0.830294403552176
40
0.830294403552176
40
1
40
1
40
1
40
1
41
1
10
33.9912627546607
20
9.31747905407394
30
-4E-16
41
1
10
33.9739632805622
20
9.32031322436779
30
-4E-16
41
1
10
33.95380312796
20
9.32294435893763
30
-4E-16
41
1
10
33.9103129213386
20
9.32699833041821
30
-4E-16
41
1
10
33.8862645150096
20
9.32845805585444
30
-4E-16
41
1
10
33.8405687019406
20
9.3293704401552
30
-4E-16
41
1
10
33.8182195896279
20
9.32899870207314
30
-4E-16
41
1
10
33.7840072350256
20
9.32686273661932
30
-4E-16
41
1
10
33.7709251036041
20
9.32561424830803
30
-4E-16
41
1
10
33.7589493889699
20
9.3240093313444
30
-4E-16
0
SPLINE
5
1A4
100
AcDbEntity
8
1
62
256
6
ByLayer
370
-1
48
1
60
0
100
AcDbSpline
70
4
71
3
72
12
73
8
40
0
40
0
40
0
40
0
40
0.3770262906397
40
0.3770262906397
40
0.761056371823049
40
0.761056371823049
40
1
40
1
40
1
40
1
41
1
10
34.3293754637833
20
9.26107042885394
30
-3E-16
41
1
10
34.3670177297028
20
9.25276328737311
30
-3E-16
41
1
10
34.4031734323023
20
9.24364189035254
30
-3E-16
41
1
10
34.467865412729
20
9.22618711416109
30
-3E-16
41
1
10
34.4971884677273
20
9.21769182721619
30
-3E-16
41
1
10
34.5380432757565
20
9.20602313992461
30
-3E-16
41
1
10
34.5523136907111
20
9.20198924872736
30
-3E-16
41
1
10
34.5650447587754
20
9.19854978291534
30
-3E-16
0
SPLINE
5
1A5
100
AcDbEntity
8
1
62
256
6
ByLayer
370
-1
48
1
60
0
100
AcDbSpline
70
4
71
3
72
14
73
10
40
0
40
0
40
0
40
0
40
0.284523597312292
40
0.284523597312292
40
0.571736866218026
40
0.571736866218026
40
0.831999616286232
40
0.831999616286232
40
1
40
1
40
1
40
1
41
1
10
34.8644426920228
20
9.03441330968533
30
-3E-16
41
1
10
34.8668819979384
20
9.03640591257238
30
-3E-16
41
1
10
34.866119910435
20
9.0404215843113
30
-3E-16
41
1
10
34.8574122852604
20
9.05202482378525
30
-3E-16
41
1
10
34.849227843266
20
9.05983531223131
30
-3E-16
41
1
10
34.8269774154146
20
9.07708090084887
30
-3E-16
41
1
10
34.8131702677777
20
9.0865586397538
30
-3E-16
41
1
10
34.7870296825944
20
9.10266064428765
30
-3E-16
41
1
10
34.7757220596662
20
9.10922542840368
30
-3E-16
41
1
10
34.7638996961209
20
9.11571069750264
30
-3E-16
0
SPLINE
5
1A6
100
AcDbEntity
8
1
62
256
6
ByLayer
370
-1
48
1
60
0
100
AcDbSpline
70
4
71
3
72
16
73
12
40
0
40
0
40
0
40
0
40
0.0668638488455285
40
0.0668638488455285
40
0.290854271538802
40
0.290854271538802
40
0.517824973971675
40
0.517824973971675
40
0.759328674281752
40
0.759328674281752
40
1
40
1
40
1
40
1
41
1
10
33.7589493889699
20
8.29914770890201
30
-4E-16
41
1
10
33.7636835350922
20
8.29655074836708
30
-4E-16
41
1
10
33.7685794067772
20
8.2941501298528
30
-4E-16
41
1
10
33.7903093061796
20
8.28468595785407
30
-4E-16
41
1
10
33.8087173431396
20
8.27972266180109
30
-4E-16
41
1
10
33.8461586687727
20
8.27502968624376
30
-4E-16
41
1
10
33.8656709036184
20
8.27529961894194
30
-4E-16
41
1
10
33.9043798544919
20
8.2809192920495
30
-4E-16
41
1
10
33.9239636326279
20
8.28664814963662
30
-4E-16
41
1
10
33.9598605693536
20
8.30257456661468
30
-4E-16
41
1
10
33.9765703114407
20
8.31291345533069
30
-4E-16
41
1
10
33.9912627546605
20
8.32492016911593
30
-4E-16
0
SPLINE
5
1A7
100
AcDbEntity
8
1
62
256
6
ByLayer
370
-1
48
1
60
0
100
AcDbSpline
70
4
71
3
72
18
73
14
40
0
40
0
40
0
40
0
40
0.213394464779719
40
0.213394464779719
40
0.389004322610663
40
0.389004322610663
40
0.566252444177966
40
0.566252444177966
40
0.721175490823053
40
0.721175490823053
40
0.92741643549918
40
0.92741643549918
40
1
40
1
40
1
40
1
41
1
10
33.6917024744012
20
8.4885296373198
30
-4E-16
41
1
10
33.7076461752965
20
8.52814419533323
30
-4E-16
41
1
10
33.7172562890272
20
8.5697599013277
30
-4E-16
41
1
10
33.7194518527159
20
8.64289127561412
30
-4E-16
41
1
10
33.7146492737221
20
8.67563467879663
30
-4E-16
41
1
10
33.6918812768577
20
8.73400353273956
30
-4E-16
41
1
10
33.6733130527942
20
8.76027367890222
30
-4E-16
41
1
10
33.6283448876055
20
8.7983695860618
30
-4E-16
41
1
10
33.602757196861
20
8.81213886736109
30
-4E-16
41
1
10
33.5378555866983
20
8.8345236680841
30
-4E-16
41
1
10
33.4958183770216
20
8.84052226414681
30
-4E-16
41
1
10
33.4371324125273
20
8.841663582411
30
-4E-16
41
1
10
33.4214671732831
20
8.84131970062126
30
-4E-16
41
1
10
33.4056626734127
20
8.84039308279245
30
-4E-16
0
SPLINE
5
1A8
100
AcDbEntity
8
1
62
256
6
ByLayer
370
-1
48
1
60
0
100
AcDbSpline
70
4
71
3
72
14
73
10
40
0
40
0
40
0
40
0
40
0.0983010962345975
40
0.0983010962345975
40
0.43796456324822
40
0.43796456324822
40
0.781973946781321
40
0.781973946781321
40
1
40
1
40
1
40
1
41
1
10
33.7589493889699
20
9.3240093313444
30
-4E-16
41
1
10
33.7543580899785
20
9.32339403164315
30
-4E-16
41
1
10
33.7499077067616
20
9.32272475467207
30
-4E-16
41
1
10
33.7309447408889
20
9.31954131125528
30
-4E-16
41
1
10
33.7181003734153
20
9.31643896017468
30
-4E-16
41
1
10
33.6978368742162
20
9.30952360974538
30
-4E-16
41
1
10
33.6902188001177
20
9.30561848661986
30
-4E-16
41
1
10
33.682546067969
20
9.29916068279999
30
-4E-16
41
1
10
33.680693237833
20
9.29660170360179
30
-4E-16
41
1
10
33.6799258368166
20
9.29407333958935
30
-4E-16
0
SPLINE
5
1A9
100
AcDbEntity
8
1
62
256
6
ByLayer
370
-1
48
1
60
0
100
AcDbSpline
70
4
71
3
72
10
73
6
40
0
40
0
40
0
40
0
40
0.0008729607883126
40
0.0008729607883126
40
1
40
1
40
1
40
1
41
1
10
33.6798474309931
20
9.28900799827807
30
-4E-16
41
1
10
33.679848429107
20
9.28900442747488
30
-4E-16
41
1
10
33.6798494294749
20
9.28900085685842
30
-4E-16
41
1
10
33.680999590804
20
9.28490502532355
30
-4E-16
41
1
10
33.6851096838649
20
9.28097324057782
30
-4E-16
41
1
10
33.6917024744012
20
9.27749018965005
30
-4E-16
0
SPLINE
5
1AA
100
AcDbEntity
8
1
62
256
6
ByLayer
370
-1
48
1
60
0
100
AcDbSpline
70
4
71
3
72
14
73
10
40
0
40
0
40
0
40
0
40
0.283738489034221
40
0.283738489034221
40
0.570489531030765
40
0.570489531030765
40
0.830294403552164
40
0.830294403552164
40
1
40
1
40
1
40
1
41
1
10
34.5650447587754
20
8.20599089795743
30
-3E-16
41
1
10
34.5769946541535
20
8.18579111780045
30
-3E-16
41
1
10
34.5920677458141
20
8.16664654913123
30
-3E-16
41
1
10
34.6266366293957
20
8.13363249995672
30
-3E-16
41
1
10
34.646729545519
20
8.11933260460819
30
-3E-16
41
1
10
34.6866534126211
20
8.09968353709363
30
-3E-16
41
1
10
34.7069374006893
20
8.09335154319533
30
-3E-16
41
1
10
34.7392320409203
20
8.08926229329248
30
-3E-16
41
1
10
34.7519239814867
20
8.08924415809665
30
-3E-16
41
1
10
34.7638996961209
20
8.09084907506028
30
-3E-16
0
LINE
5
48
100
AcDbEntity
8
SK4
62
256
6
ByLayer
370
-1
48
0.05
60
0
100
AcDbLine
10
50
20
0
30
0
11
-10
21
0
31
0
39
0
210
0
220
0
230
1
0
LINE
5
4A
100
AcDbEntity
8
4
62
256
6
ByLayer
370
-1
48
0.05
60
0
100
AcDbLine
10
0
20
0
30
0
11
40
21
0
31
0
39
0
210
0
220
0
230
1
0
LINE
5
4C
100
AcDbEntity
8
1
62
256
6
ByLayer
370
-1
48
1
60
0
100
AcDbLine
10
16.82638
20
17.358497
30
0
11
14.087139
21
17.034593
31
0
39
0
210
0
220
0
230
1
0
LINE
5
4E
100
AcDbEntity
8
1
62
256
6
ByLayer
370
-1
48
1
60
0
100
AcDbLine
10
14.087139
20
-17.034593
30
0
11
16.553228
21
-17.326198
31
0
39
0
210
0
220
0
230
1
0
LINE
5
4F
100
AcDbEntity
8
1
62
256
6
ByLayer
370
-1
48
1
60
0
100
AcDbLine
10
35.101493
20
16.706885
30
0
11
35.201522
21
16.664007
31
0
39
0
210
0
220
0
230
1
0
LINE
5
50
100
AcDbEntity
8
1
62
256
6
ByLayer
370
-1
48
1
60
0
100
AcDbLine
10
33.717049
20
9.234647
30
0
11
33.74383
21
9.321582
31
0
39
0
210
0
220
0
230
1
0
LINE
5
51
100
AcDbEntity
8
1
62
256
6
ByLayer
370
-1
48
1
60
0
100
AcDbLine
10
35.00677
20
8.832591
30
0
11
34.875684
21
8.407067
31
0
39
0
210
0
220
0
230
1
0
LINE
5
52
100
AcDbEntity
8
1
62
256
6
ByLayer
370
-1
48
1
60
0
100
AcDbLine
10
35.957682
20
8.354449
30
0
11
35.964522
21
8.376653
31
0
39
0
210
0
220
0
230
1
0
LINE
5
53
100
AcDbEntity
8
1
62
256
6
ByLayer
370
-1
48
1
60
0
100
AcDbLine
10
33.702577
20
8.518953
30
0
11
33.927095
21
9.247773
31
0
39
0
210
0
220
0
230
1
0
LINE
5
54
100
AcDbEntity
8
1
62
256
6
ByLayer
370
-1
48
1
60
0
100
AcDbLine
10
35.16154
20
17.987859
30
0
11
34.98366
21
18.064108
31
0
39
0
210
0
220
0
230
1
0
LINE
5
55
100
AcDbEntity
8
1
62
256
6
ByLayer
370
-1
48
1
60
0
100
AcDbLine
10
34.127826
20
17.256677
30
0
11
34.340151
21
17.165662
31
0
39
0
210
0
220
0
230
1
0
LINE
5
56
100
AcDbEntity
8
1
62
256
6
ByLayer
370
-1
48
1
60
0
100
AcDbLine
10
35.955953
20
8.347187
30
0
11
35.961692
21
8.371301
31
0
39
0
210
0
220
0
230
1
0
LINE
5
57
100
AcDbEntity
8
1
62
256
6
ByLayer
370
-1
48
1
60
0
100
AcDbLine
10
32.646377
20
9.320194
30
0
11
32.64078
21
9.29668
31
0
39
0
210
0
220
0
230
1
0
LINE
5
58
100
AcDbEntity
8
1
62
256
6
ByLayer
370
-1
48
1
60
0
100
AcDbLine
10
0.5
20
-17
30
0
11
13.5
21
-17
31
0
39
0
210
0
220
0
230
1
0
LINE
5
59
100
AcDbEntity
8
1
62
256
6
ByLayer
370
-1
48
1
60
0
100
AcDbLine
10
13.5
20
17
30
0
11
0.5
21
17
31
0
39
0
210
0
220
0
230
1
0
LINE
5
5A
100
AcDbEntity
8
80
62
256
6
ByLayer
370
-1
48
1
60
0
100
AcDbLine
10
0
20
0
30
0
11
-5
21
0
31
0
39
0
210
0
220
0
230
1
0
LINE
5
5B
100
AcDbEntity
8
81
62
256
6
ByLayer
370
-1
48
1
60
0
100
AcDbLine
10
40
20
19.935
30
0
11
44
21
19.935
31
0
39
0
210
0
220
0
230
1
0
LINE
5
5C
100
AcDbEntity
8
1
62
256
6
ByLayer
370
-1
48
1
60
0
100
AcDbLine
10
35.154685
20
-16.328893
30
0
11
35.185978
21
-15.710113
31
0
39
0
210
0
220
0
230
1
0
LINE
5
5D
100
AcDbEntity
8
1
62
256
6
ByLayer
370
-1
48
1
60
0
100
AcDbLine
10
38.005091
20
0.963289
30
0
11
37.771048
21
0.113778
31
0
39
0
210
0
220
0
230
1
0
LINE
5
5E
100
AcDbEntity
8
1
62
256
6
ByLayer
370
-1
48
1
60
0
100
AcDbLine
10
29.329627
20
10.97479
30
0
11
29.388214
21
10.989105
31
0
39
0
210
0
220
0
230
1
0
LINE
5
5F
100
AcDbEntity
8
1
62
256
6
ByLayer
370
-1
48
1
60
0
100
AcDbLine
10
39.446346
20
6.714015
30
0
11
39.446346
21
1.109994
31
0
39
0
210
0
220
0
230
1
0
LINE
5
60
100
AcDbEntity
8
1
62
256
6
ByLayer
370
-1
48
1
60
0
100
AcDbLine
10
5
20
-4.2225
30
0
11
5.8
21
-3.4225
31
0
39
0
210
0
220
0
230
1
0
LINE
5
61
100
AcDbEntity
8
1
62
256
6
ByLayer
370
-1
48
1
60
0
100
AcDbLine
10
0.9
20
-4.2225
30
0
11
0.5
21
-4.6225
31
0
39
0
210
0
220
0
230
1
0
LINE
5
62
100
AcDbEntity
8
1
62
256
6
ByLayer
370
-1
48
1
60
0
100
AcDbLine
10
39.253248
20
-11.495587
30
0
11
39.253248
21
-13.274463
31
0
39
0
210
0
220
0
230
1
0
LINE
5
63
100
AcDbEntity
8
1
62
256
6
ByLayer
370
-1
48
1
60
0
100
AcDbLine
10
38.536238
20
6.605812
30
0
11
38.536238
21
5.819967
31
0
39
0
210
0
220
0
230
1
0
LINE
5
64
100
AcDbEntity
8
1
62
256
6
ByLayer
370
-1
48
1
60
0
100
AcDbLine
10
38.299638
20
-15.705477
30
0
11
38.265357
21
-16.383355
31
0
39
0
210
0
220
0
230
1
0
LINE
5
65
100
AcDbEntity
8
1
62
256
6
ByLayer
370
-1
48
1
60
0
100
AcDbLine
10
27.893807
20
9.720118
30
0
11
23.988748
21
10.564221
31
0
39
0
210
0
220
0
230
1
0
LINE
5
66
100
AcDbEntity
8
1
62
256
6
ByLayer
370
-1
48
1
60
0
100
AcDbLine
10
31.641925
20
-17.125935
30
0
11
31.641925
21
-18.351267
31
0
39
0
210
0
220
0
230
1
0
LINE
5
67
100
AcDbEntity
8
1
62
256
6
ByLayer
370
-1
48
1
60
0
100
AcDbLine
10
38.536238
20
6.605812
30
0
11
30.864811
21
7.245705
31
0
39
0
210
0
220
0
230
1
0
LINE
5
68
100
AcDbEntity
8
1
62
256
6
ByLayer
370
-1
48
1
60
0
100
AcDbLine
10
31.596424
20
-3.565104
30
0
11
31.596424
21
-1.776083
31
0
39
0
210
0
220
0
230
1
0
LINE
5
69
100
AcDbEntity
8
1
62
256
6
ByLayer
370
-1
48
1
60
0
100
AcDbLine
10
38.625205
20
12.533112
30
0
11
38.625205
21
16.961466
31
0
39
0
210
0
220
0
230
1
0
LINE
5
6A
100
AcDbEntity
8
1
62
256
6
ByLayer
370
-1
48
1
60
0
100
AcDbLine
10
27.470656
20
7.78481
30
0
11
23.565596
21
8.628913
31
0
39
0
210
0
220
0
230
1
0
LINE
5
6B
100
AcDbEntity
8
1
62
256
6
ByLayer
370
-1
48
1
60
0
100
AcDbLine
10
29.917244
20
12.595334
30
0
11
29.911348
21
12.634318
31
0
39
0
210
0
220
0
230
1
0
LINE
5
6C
100
AcDbEntity
8
1
62
256
6
ByLayer
370
-1
48
1
60
0
100
AcDbLine
10
37.771048
20
-15.832027
30
0
11
37.771048
21
-17.404392
31
0
39
0
210
0
220
0
230
1
0
LINE
5
6D
100
AcDbEntity
8
1
62
256
6
ByLayer
370
-1
48
1
60
0
100
AcDbLine
10
29.092386
20
0.172604
30
0
11
30.864811
21
7.245705
31
0
39
0
210
0
220
0
230
1
0
LINE
5
6E
100
AcDbEntity
8
1
62
256
6
ByLayer
370
-1
48
1
60
0
100
AcDbLine
10
38.299638
20
-15.705477
30
0
11
37.771048
21
-15.832027
31
0
39
0
210
0
220
0
230
1
0
LINE
5
6F
100
AcDbEntity
8
1
62
256
6
ByLayer
370
-1
48
1
60
0
100
AcDbLine
10
31.641925
20
-1.76517
30
0
11
31.641925
21
-3.570165
31
0
39
0
210
0
220
0
230
1
0
LINE
5
70
100
AcDbEntity
8
1
62
256
6
ByLayer
370
-1
48
1
60
0
100
AcDbLine
10
29.092386
20
-15.923693
30
0
11
30.558264
21
-6.866232
31
0
39
0
210
0
220
0
230
1
0
LINE
5
71
100
AcDbEntity
8
1
62
256
6
ByLayer
370
-1
48
1
60
0
100
AcDbLine
10
39.446346
20
16.58102
30
0
11
39.446346
21
11.914704
31
0
39
0
210
0
220
0
230
1
0
LINE
5
72
100
AcDbEntity
8
1
62
256
6
ByLayer
370
-1
48
1
60
0
100
AcDbLine
10
31.596424
20
14.11161
30
0
11
31.596424
21
15.837983
31
0
39
0
210
0
220
0
230
1
0
LINE
5
73
100
AcDbEntity
8
1
62
256
6
ByLayer
370
-1
48
1
60
0
100
AcDbLine
10
5
20
4.2225
30
0
11
0.9
21
4.2225
31
0
39
0
210
0
220
0
230
1
0
LINE
5
74
100
AcDbEntity
8
1
62
256
6
ByLayer
370
-1
48
1
60
0
100
AcDbLine
10
39.446346
20
-15.328826
30
0
11
39.446346
21
-18.280805
31
0
39
0
210
0
220
0
230
1
0
LINE
5
75
100
AcDbEntity
8
1
62
256
6
ByLayer
370
-1
48
1
60
0
100
AcDbLine
10
26.370018
20
0.762401
30
0
11
27.470656
21
7.78481
31
0
39
0
210
0
220
0
230
1
0
LINE
5
76
100
AcDbEntity
8
1
62
256
6
ByLayer
370
-1
48
1
60
0
100
AcDbLine
10
39.236238
20
-9.894691
30
0
11
39.236238
21
-13.289934
31
0
39
0
210
0
220
0
230
1
0
LINE
5
77
100
AcDbEntity
8
1
62
256
6
ByLayer
370
-1
48
1
60
0
100
AcDbLine
10
35.02473
20
16.861636
30
0
11
35.076451
21
16.528895
31
0
39
0
210
0
220
0
230
1
0
LINE
5
78
100
AcDbEntity
8
1
62
256
6
ByLayer
370
-1
48
1
60
0
100
AcDbLine
10
31.596424
20
-18.34685
30
0
11
31.596424
21
-17.127985
31
0
39
0
210
0
220
0
230
1
0
LINE
5
79
100
AcDbEntity
8
1
62
256
6
ByLayer
370
-1
48
1
60
0
100
AcDbLine
10
5.8
20
3.4225
30
0
11
5
21
4.2225
31
0
39
0
210
0
220
0
230
1
0
LINE
5
7A
100
AcDbEntity
8
1
62
256
6
ByLayer
370
-1
48
1
60
0
100
AcDbLine
10
35.076451
20
16.528895
30
0
11
34.916975
21
16.011209
31
0
39
0
210
0
220
0
230
1
0
LINE
5
7B
100
AcDbEntity
8
1
62
256
6
ByLayer
370
-1
48
1
60
0
100
AcDbLine
10
39.236238
20
5.053616
30
0
11
39.236238
21
4.256638
31
0
39
0
210
0
220
0
230
1
0
LINE
5
7C
100
AcDbEntity
8
1
62
256
6
ByLayer
370
-1
48
1
60
0
100
AcDbLine
10
0.5
20
-17
30
0
11
0.5
21
-4.6225
31
0
39
0
210
0
220
0
230
1
0
LINE
5
7D
100
AcDbEntity
8
1
62
256
6
ByLayer
370
-1
48
1
60
0
100
AcDbLine
10
26.370018
20
-15.327578
30
0
11
27.389793
21
-5.320793
31
0
39
0
210
0
220
0
230
1
0
LINE
5
7E
100
AcDbEntity
8
1
62
256
6
ByLayer
370
-1
48
1
60
0
100
AcDbLine
10
34.86247
20
0.63221
30
0
11
34.891038
21
0.891574
31
0
39
0
210
0
220
0
230
1
0
LINE
5
7F
100
AcDbEntity
8
1
62
256
6
ByLayer
370
-1
48
1
60
0
100
AcDbLine
10
39.446346
20
-12.006016
30
0
11
39.446346
21
-14.799763
31
0
39
0
210
0
220
0
230
1
0
LINE
5
80
100
AcDbEntity
8
1
62
256
6
ByLayer
370
-1
48
1
60
0
100
AcDbLine
10
22.566385
20
2.253634
30
0
11
23.565596
21
8.628913
31
0
39
0
210
0
220
0
230
1
0
LINE
5
81
100
AcDbEntity
8
1
62
256
6
ByLayer
370
-1
48
1
60
0
100
AcDbLine
10
22.566385
20
-14.05562
30
0
11
23.531686
21
-4.583379
31
0
39
0
210
0
220
0
230
1
0
LINE
5
82
100
AcDbEntity
8
1
62
256
6
ByLayer
370
-1
48
1
60
0
100
AcDbLine
10
39.253248
20
5.324227
30
0
11
39.253248
21
1.927449
31
0
39
0
210
0
220
0
230
1
0
LINE
5
83
100
AcDbEntity
8
1
62
256
6
ByLayer
370
-1
48
1
60
0
100
AcDbLine
10
0.5
20
4.6225
30
0
11
0.5
21
17
31
0
39
0
210
0
220
0
230
1
0
LINE
5
84
100
AcDbEntity
8
1
62
256
6
ByLayer
370
-1
48
1
60
0
100
AcDbLine
10
13.5
20
17
30
0
11
13.5
21
-17
31
0
39
0
210
0
220
0
230
1
0
LINE
5
85
100
AcDbEntity
8
1
62
256
6
ByLayer
370
-1
48
1
60
0
100
AcDbLine
10
37.771048
20
0.113778
30
0
11
37.771048
21
-0.51389
31
0
39
0
210
0
220
0
230
1
0
LINE
5
86
100
AcDbEntity
8
1
62
256
6
ByLayer
370
-1
48
1
60
0
100
AcDbLine
10
0
20
5.1225
30
0
11
0
21
16.5
31
0
39
0
210
0
220
0
230
1
0
LINE
5
87
100
AcDbEntity
8
1
62
256
6
ByLayer
370
-1
48
1
60
0
100
AcDbLine
10
0.9
20
-4.2225
30
0
11
5
21
-4.2225
31
0
39
0
210
0
220
0
230
1
0
LINE
5
88
100
AcDbEntity
8
1
62
256
6
ByLayer
370
-1
48
1
60
0
100
AcDbLine
10
0.9
20
4.2225
30
0
11
0.5
21
4.6225
31
0
39
0
210
0
220
0
230
1
0
LINE
5
89
100
AcDbEntity
8
1
62
256
6
ByLayer
370
-1
48
1
60
0
100
AcDbLine
10
38.625205
20
-19.050428
30
0
11
38.625205
21
-16.389651
31
0
39
0
210
0
220
0
230
1
0
LINE
5
8A
100
AcDbEntity
8
1
62
256
6
ByLayer
370
-1
48
1
60
0
100
AcDbLine
10
39.446346
20
0.769574
30
0
11
39.446346
21
-5.794026
31
0
39
0
210
0
220
0
230
1
0
LINE
5
8B
100
AcDbEntity
8
1
62
256
6
ByLayer
370
-1
48
1
60
0
100
AcDbLine
10
39.236238
20
4.256624
30
0
11
39.236238
21
2.075195
31
0
39
0
210
0
220
0
230
1
0
LINE
5
8C
100
AcDbEntity
8
1
62
256
6
ByLayer
370
-1
48
1
60
0
100
AcDbLine
10
38.005091
20
0.963289
30
0
11
37.906051
21
0.064134
31
0
39
0
210
0
220
0
230
1
0
LINE
5
8D
100
AcDbEntity
8
1
62
256
6
ByLayer
370
-1
48
1
60
0
100
AcDbLine
10
31.641925
20
15.847004
30
0
11
31.641925
21
14.110983
31
0
39
0
210
0
220
0
230
1
0
LINE
5
8E
100
AcDbEntity
8
1
62
256
6
ByLayer
370
-1
48
1
60
0
100
AcDbLine
10
29.793038
20
12.646376
30
0
11
29.732085
21
12.42651
31
0
39
0
210
0
220
0
230
1
0
LINE
5
8F
100
AcDbEntity
8
1
62
256
6
ByLayer
370
-1
48
1
60
0
100
AcDbLine
10
29.462669
20
11.454692
30
0
11
29.329627
21
10.97479
31
0
39
0
210
0
220
0
230
1
0
LINE
5
90
100
AcDbEntity
8
1
62
256
6
ByLayer
370
-1
48
1
60
0
100
AcDbLine
10
5.8
20
3.4225
30
0
11
5.8
21
-3.4225
31
0
39
0
210
0
220
0
230
1
0
LINE
5
91
100
AcDbEntity
8
1
62
256
6
ByLayer
370
-1
48
1
60
0
100
AcDbLine
10
38.536238
20
6.79396
30
0
11
38.536238
21
6.605812
31
0
39
0
210
0
220
0
230
1
0
LINE
5
92
100
AcDbEntity
8
1
62
256
6
ByLayer
370
-1
48
1
60
0
100
AcDbLine
10
14.087139
20
17.034593
30
0
11
14.087139
21
-17.034593
31
0
39
0
210
0
220
0
230
1
0
LINE
5
93
100
AcDbEntity
8
1
62
256
6
ByLayer
370
-1
48
1
60
0
100
AcDbLine
10
0
20
-16.5
30
0
11
0
21
-5.1225
31
0
39
0
210
0
220
0
230
1
0
LINE
5
94
100
AcDbEntity
8
1
62
256
6
ByLayer
370
-1
48
1
60
0
100
AcDbLine
10
39.446346
20
-14.799812
30
0
11
39.446346
21
-15.328826
31
0
39
0
210
0
220
0
230
1
0
LINE
5
95
100
AcDbEntity
8
1
62
256
6
ByLayer
370
-1
48
1
60
0
100
AcDbLine
10
38.625205
20
-5.91595
30
0
11
38.625205
21
0.070966
31
0
39
0
210
0
220
0
230
1
0
LINE
5
96
100
AcDbEntity
8
1
62
256
6
ByLayer
370
-1
48
1
60
0
100
AcDbLine
10
28.656097
20
9.527521
30
0
11
29.187195
21
10.185166
31
0
39
0
210
0
220
0
230
1
0
LINE
5
97
100
AcDbEntity
8
1
62
256
6
ByLayer
370
-1
48
1
60
0
100
AcDbLine
10
34.86247
20
16.507327
30
0
11
34.86247
21
16.086039
31
0
39
0
210
0
220
0
230
1
0
LINE
5
98
100
AcDbEntity
8
1
62
256
6
ByLayer
370
-1
48
1
60
0
100
AcDbLine
10
39.446346
20
1.109463
30
0
11
39.446346
21
0.769574
31
0
39
0
210
0
220
0
230
1
0
LINE
5
99
100
AcDbEntity
8
1
62
256
6
ByLayer
370
-1
48
1
60
0
100
AcDbLine
10
35.181619
20
16.677407
30
0
11
35.150482
21
16.690754
31
0
39
0
210
0
220
0
230
1
0
LINE
5
9A
100
AcDbEntity
8
1
62
256
6
ByLayer
370
-1
48
1
60
0
100
AcDbLine
10
34.533769
20
17.1357
30
0
11
34.329375
21
17.223315
31
0
39
0
210
0
220
0
230
1
0
LINE
5
9B
100
AcDbEntity
8
1
62
256
6
ByLayer
370
-1
48
1
60
0
100
AcDbLine
10
34.274662
20
17.221817
30
0
11
34.479056
21
17.134203
31
0
39
0
210
0
220
0
230
1
0
LINE
5
9C
100
AcDbEntity
8
1
62
256
6
ByLayer
370
-1
48
1
60
0
100
AcDbLine
10
33.920043
20
17.061451
30
0
11
33.691702
21
17.159331
31
0
39
0
210
0
220
0
230
1
0
LINE
5
9D
100
AcDbEntity
8
1
62
256
6
ByLayer
370
-1
48
1
60
0
100
AcDbLine
10
34.793304
20
17.262283
30
0
11
34.565045
21
17.360128
31
0
39
0
210
0
220
0
230
1
0
LINE
5
9E
100
AcDbEntity
8
1
62
256
6
ByLayer
370
-1
48
1
60
0
100
AcDbLine
10
34.329375
20
8.406
30
0
11
34.533769
21
9.069496
31
0
39
0
210
0
220
0
230
1
0
LINE
5
9F
100
AcDbEntity
8
1
62
256
6
ByLayer
370
-1
48
1
60
0
100
AcDbLine
10
35.197735
20
8.632128
30
0
11
35.150482
21
8.47874
31
0
39
0
210
0
220
0
230
1
0
LINE
5
A0
100
AcDbEntity
8
1
62
256
6
ByLayer
370
-1
48
1
60
0
100
AcDbLine
10
34.479056
20
9.080836
30
0
11
34.274662
21
8.41734
31
0
39
0
210
0
220
0
230
1
0
LINE
5
A1
100
AcDbEntity
8
1
62
256
6
ByLayer
370
-1
48
1
60
0
100
AcDbLine
10
34.219522
20
9.065886
30
0
11
33.991263
21
8.32492
31
0
39
0
210
0
220
0
230
1
0
LINE
5
A2
100
AcDbEntity
8
1
62
256
6
ByLayer
370
-1
48
1
60
0
100
AcDbLine
10
33.477758
20
9.074425
30
0
11
33.405663
21
8.840393
31
0
39
0
210
0
220
0
230
1
0
LINE
5
A3
100
AcDbEntity
8
1
62
256
6
ByLayer
370
-1
48
1
60
0
100
AcDbLine
10
34.793304
20
8.946957
30
0
11
34.565045
21
8.205991
31
0
39
0
210
0
220
0
230
1
0
LINE
5
A4
100
AcDbEntity
8
1
62
256
6
ByLayer
370
-1
48
1
60
0
100
AcDbLine
10
33.701653
20
9.309792
30
0
11
33.691702
21
9.27749
31
0
39
0
210
0
220
0
230
1
0
MTEXT
5
1AB
100
AcDbEntity
8
SK6
62
256
6
ByLayer
370
-1
48
1
60
0
100
AcDbMText
10
0.873386
20
-30.938367
30
0
210
0
220
0
230
1
1
\W00.703;\fsimplex.shx,bigfont.shx;R390-040Q16-11H\P
40
3.5
41
0
44
1.084337
50
0
71
7
72
5
7
DEFAULT
0
DIMENSION
5
1BC
100
AcDbEntity
8
2
62
256
6
ByLayer
370
-3
48
1
60
0
100
AcDbDimension
2
DimnDraft3D1
10
0
20
39.75
30
0
11
16.346711
21
39.75
31
0
70
32
71
5
72
1
41
1
210
0
220
0
230
1
3
Standard
100
AcDbAlignedDimension
13
40
23
22
33
0
14
0
24
19
34
0
50
0
100
AcDbRotatedDimension
1001
ACAD
1000
DSTYLE
1002
{
1070
   279
1070
     0
1070
   172
1070
     1
1070
   173
1070
     1
1070
   340
1005
1AC
1070
   271
1070
     2
1070
   272
1070
     2
1070
    77
1070
     1
1070
    73
1070
     0
1070
   171
1070
     4
1070
   274
1070
     4
1070
   177
1070
     2
1070
   176
1070
     2
1070
   178
1070
     7
1070
    78
1070
     8
1070
    41
1041
3.175
1070
   147
1041
2.25
1070
    42
1041
2.0
1070
    44
1041
2.0
1070
   140
1041
4.5
1070
   343
1005
1BD
1070
   344
1005
1BD
1002
}
0
DIMENSION
5
1D1
100
AcDbEntity
8
2
62
256
6
ByLayer
370
-3
48
1
60
0
100
AcDbDimension
2
DimnDraft3D2
10
29.8
20
29.75
30
0
11
45
21
29.75
31
0
70
32
71
5
72
1
41
1
210
0
220
0
230
1
3
Standard
100
AcDbAlignedDimension
13
40
23
22
33
0
14
29.8
24
22
34
0
50
0
100
AcDbRotatedDimension
1001
ACAD
1000
DSTYLE
1002
{
1070
   279
1070
     0
1070
   172
1070
     1
1070
   173
1070
     1
1070
   340
1005
1AC
1070
   271
1070
     2
1070
   272
1070
     2
1070
    77
1070
     1
1070
    73
1070
     0
1070
   171
1070
     4
1070
   274
1070
     4
1070
   177
1070
     2
1070
   176
1070
     2
1070
   178
1070
     7
1070
    78
1070
     8
1070
    41
1041
3.175
1070
   147
1041
2.25
1070
    42
1041
2.0
1070
    44
1041
2.0
1070
   140
1041
4.5
1070
   343
1005
1BD
1070
   344
1005
1BD
1002
}
0
DIMENSION
5
1E0
100
AcDbEntity
8
SK2
62
256
6
ByLayer
370
-3
48
1
60
0
100
AcDbDimension
2
DimnDraft3D3
10
-9.75
20
-8
30
0
11
-9.75
21
-5.257895
31
0
70
32
71
5
72
1
41
1
210
0
220
0
230
1
3
Standard
100
AcDbAlignedDimension
13
-2
23
8
33
0
14
-2
24
-8
34
0
50
90
100
AcDbRotatedDimension
1001
ACAD
1000
DSTYLE
1002
{
1070
    74
1070
     0
1070
   279
1070
     0
1070
   172
1070
     1
1070
   173
1070
     1
1070
   340
1005
1AC
1070
   271
1070
     2
1070
   272
1070
     2
1070
    77
1070
     1
1070
    73
1070
     0
1070
   171
1070
     4
1070
   274
1070
     4
1070
   177
1070
     2
1070
   176
1070
     2
1070
   178
1070
     7
1070
    78
1070
     8
1070
    41
1041
3.175
1070
   147
1041
2.25
1070
    42
1041
2.0
1070
    44
1041
2.0
1070
   140
1041
4.5
1070
   343
1005
1BD
1070
   344
1005
1BD
1002
}
0
DIMENSION
5
1EE
100
AcDbEntity
8
2
62
256
6
ByLayer
370
-3
48
1
60
0
100
AcDbDimension
2
DimnDraft3D4
10
54.25
20
-20
30
0
11
54.25
21
-6.337007
31
0
70
32
71
5
72
1
41
1
210
0
220
0
230
1
3
Standard
100
AcDbAlignedDimension
13
42
23
20
33
0
14
42
24
-20
34
0
50
90
100
AcDbRotatedDimension
1001
ACAD
1000
DSTYLE
1002
{
1070
    74
1070
     0
1070
   279
1070
     0
1070
   172
1070
     1
1070
   173
1070
     1
1070
   340
1005
1AC
1070
   271
1070
     2
1070
   272
1070
     2
1070
    77
1070
     1
1070
    73
1070
     0
1070
   171
1070
     4
1070
   274
1070
     4
1070
   177
1070
     2
1070
   176
1070
     2
1070
   178
1070
     7
1070
    78
1070
     8
1070
    41
1041
3.175
1070
   147
1041
2.25
1070
    42
1041
2.0
1070
    44
1041
2.0
1070
   140
1041
4.5
1070
   343
1005
1BD
1070
   344
1005
1BD
1002
}
0
ENDSEC
0
SECTION
2
OBJECTS
0
DICTIONARY
5
23c
330
0
100
AcDbDictionary
280
0
281
1
3
ACAD_GROUP
350
23d
3
ACAD_MLINESTYLE
350
23e
0
DICTIONARY
5
23d
330
0
100
AcDbDictionary
280
0
281
1
0
DICTIONARY
5
23e
330
0
100
AcDbDictionary
280
0
281
1
3
Standard
350
18
0
MLINESTYLE
5
18
330
23e
100
AcDbMlineStyle
2
Standard
70
0
3

62
256
51
90
52
90
71
2
49
-0.5
62
256
6
ByLayer
49
0.5
62
256
6
ByLayer
0
RASTERVARIABLES
5
22b
330

100
AcDbRasterVariables
90
0
70
1
71
1
72
1
0
ENDSEC
0
EOF
