0
SECTION
2
HEADER
9
$ACADVER
1
AC1015
9
$DWGCODEPAGE
3
ANSI_1252
9
$HANDSEED
5
29b
9
$ANGBASE
50
0
9
$ANGDIR
70
0
9
$ATTMODE
70
1
9
$AUNITS
70
0
9
$AUPREC
70
0
9
$CECOLOR
62
256
9
$CELTSCALE
40
1
9
$CELTYPE
6
ByLayer
9
$CELWEIGHT
370
-1
9
$CLAYER
8
0
9
$CMLJUST
70
0
9
$CMLSCALE
40
1
9
$CMLSTYLE
2
Standard
9
$DIMSTYLE
2
Standard
9
$TEXTSIZE
40
0.2
9
$TEXTSTYLE
7
Standard
9
$LUNITS
70
2
9
$LUPREC
70
4
9
$EXTNAMES
290
1
9
$INSUNITS
70
4
9
$LTSCALE
40
1
9
$LWDISPLAY
290
0
9
$PDMODE
70
0
9
$PDSIZE
40
0
9
$PLINEGEN
70
0
0
ENDSEC
0
SECTION
2
CLASSES
0
CLASS
1
RASTERVARIABLES
2
AcDbRasterVariables
3
ISM
90
0
280
0
281
0
0
ENDSEC
0
SECTION
2
TABLES
0
TABLE
2
VPORT
5
291
100
AcDbSymbolTable
0
VPORT
5
1
100
AcDbSymbolTableRecord
100
AcDbViewportTableRecord
2
*Active
70
0
10
0
20
0
11
1
21
1
12
-1
22
1
13
0
23
0
14
0.5
24
0.5
15
10
25
10
16
0
26
0
36
1
17
0
27
0
37
0
0
ENDTAB
0
TABLE
2
LTYPE
5
292
100
AcDbSymbolTable
0
LTYPE
5
14
100
AcDbSymbolTableRecord
100
AcDbLinetypeTableRecord
70
0
2
ByBlock
3

72
65
73
0
40
0
0
LTYPE
5
15
100
AcDbSymbolTableRecord
100
AcDbLinetypeTableRecord
70
0
2
ByLayer
3

72
65
73
0
40
0
0
LTYPE
5
16
100
AcDbSymbolTableRecord
100
AcDbLinetypeTableRecord
70
0
2
CONTINUOUS
3
Solid line
72
65
73
0
40
0
0
LTYPE
5
3C
100
AcDbSymbolTableRecord
100
AcDbLinetypeTableRecord
70
0
2
DASHED
3
__ __ __ __ __ __ __ __ __
72
65
73
2
40
25.72
49
12.86
74
0
49
-12.86
74
0
0
LTYPE
5
3D
100
AcDbSymbolTableRecord
100
AcDbLinetypeTableRecord
70
0
2
HIDDEN
3
_ _ _ _ _ _ _ _ _ _ _ _ _ _ _
72
65
73
2
40
0.5
49
0.25
74
0
49
-0.25
74
0
0
LTYPE
5
3E
100
AcDbSymbolTableRecord
100
AcDbLinetypeTableRecord
70
0
2
PHANTOM
3
____ _ _ ____ _ _ _____ _ _ ____
72
65
73
6
40
50.5
49
18
74
0
49
-6.5
74
0
49
6.5
74
0
49
-6.5
74
0
49
6.5
74
0
49
-6.5
74
0
0
LTYPE
5
3F
100
AcDbSymbolTableRecord
100
AcDbLinetypeTableRecord
70
0
2
CENTER
3
____ _ ____ _ ____ _ ____
72
65
73
4
40
47.5
49
22
74
0
49
-8.5
74
0
49
8.5
74
0
49
-8.5
74
0
0
LTYPE
5
40
100
AcDbSymbolTableRecord
100
AcDbLinetypeTableRecord
70
0
2
DOT
3
.........................
72
65
73
2
40
10
49
0
74
0
49
-10
74
0
0
LTYPE
5
41
100
AcDbSymbolTableRecord
100
AcDbLinetypeTableRecord
70
0
2
DASHDOT
3
_._._._._._._._._._._._._._._._.
72
65
73
4
40
70
49
31
74
0
49
-13
74
0
49
13
74
0
49
-13
74
0
0
ENDTAB
0
TABLE
2
LAYER
5
293
100
AcDbSymbolTable
0
LAYER
5
10
100
AcDbSymbolTableRecord
100
AcDbLayerTableRecord
2
0
70
0
62
7
6
CONTINUOUS
290
1
370
-3
390
0
0
LAYER
5
43
100
AcDbSymbolTableRecord
100
AcDbLayerTableRecord
2
81
70
0
62
-3
6
CONTINUOUS
290
1
370
-3
390
0
0
LAYER
5
45
100
AcDbSymbolTableRecord
100
AcDbLayerTableRecord
2
2
70
0
62
7
6
CONTINUOUS
290
1
370
-3
390
0
0
LAYER
5
47
100
AcDbSymbolTableRecord
100
AcDbLayerTableRecord
2
80
70
0
62
-6
6
CONTINUOUS
290
1
370
-3
390
0
0
LAYER
5
4D
100
AcDbSymbolTableRecord
100
AcDbLayerTableRecord
2
4
70
0
62
-2
6
CENTER
290
1
370
-3
390
0
0
LAYER
5
4F
100
AcDbSymbolTableRecord
100
AcDbLayerTableRecord
2
1
70
0
62
4
6
CONTINUOUS
290
1
370
-3
390
0
0
LAYER
5
27d
100
AcDbSymbolTableRecord
100
AcDbLayerTableRecord
2
SK4
70
0
62
2
6
CENTER
290
1
370
-3
390
0
0
LAYER
5
27e
100
AcDbSymbolTableRecord
100
AcDbLayerTableRecord
2
SK1
70
0
62
4
6
CONTINUOUS
290
1
370
-3
390
0
0
LAYER
5
27f
100
AcDbSymbolTableRecord
100
AcDbLayerTableRecord
2
SK6
70
0
62
5
6
CONTINUOUS
290
1
370
-3
390
0
0
LAYER
5
280
100
AcDbSymbolTableRecord
100
AcDbLayerTableRecord
2
SK2
70
0
62
7
6
CONTINUOUS
290
1
370
-3
390
0
0
ENDTAB
0
TABLE
2
STYLE
5
294
100
AcDbSymbolTable
0
STYLE
5
11
100
AcDbSymbolTableRecord
100
AcDbTextStyleTableRecord
2
Standard
3
txt
70
0
71
0
40
0
41
1
42
0
50
0
0
STYLE
5
1EF
100
AcDbSymbolTableRecord
100
AcDbTextStyleTableRecord
2
DEFAULT
3
simplex.shx
70
0
71
0
40
0
41
1
42
0
50
0
0
STYLE
5
1F0
100
AcDbSymbolTableRecord
100
AcDbTextStyleTableRecord
2
DWGDirectTextStyle
3
SIMPLEX
70
0
71
0
40
0
41
1
42
0
50
0
0
ENDTAB
0
TABLE
2
DIMSTYLE
5
295
100
AcDbSymbolTable
100
AcDbDimStyleTable
0
DIMSTYLE
105
27
100
AcDbSymbolTableRecord
100
AcDbDimStyleTableRecord
2
Standard
70
0
3
<>
41
0.18
42
0.0625
44
0.18
140
0.18
147
0.09
73
0
74
0
77
1
271
2
275
0
278
52
280
0
340
11
0
ENDTAB
0
TABLE
2
VIEW
5
296
100
AcDbSymbolTable
0
ENDTAB
0
TABLE
2
UCS
5
297
100
AcDbSymbolTable
0
ENDTAB
0
TABLE
2
APPID
5
298
100
AcDbSymbolTable
0
APPID
5
12
100
AcDbSymbolTableRecord
100
AcDbRegAppTableRecord
2
ACAD
70
0
0
ENDTAB
0
TABLE
2
BLOCK_RECORD
5
299
100
AcDbSymbolTable
0
BLOCK_RECORD
5
1F
100
AcDbSymbolTableRecord
100
AcDbBlockTableRecord
2
*Model_Space
340
0
70
0
0
BLOCK_RECORD
5
1B
100
AcDbSymbolTableRecord
100
AcDbBlockTableRecord
2
*Paper_Space
340
0
70
0
0
BLOCK_RECORD
5
23
100
AcDbSymbolTableRecord
100
AcDbBlockTableRecord
2
*Paper_Space0
340
0
70
0
0
BLOCK_RECORD
5
1F2
100
AcDbSymbolTableRecord
100
AcDbBlockTableRecord
2
DimnDraft3D1
340
0
70
0
0
BLOCK_RECORD
5
200
100
AcDbSymbolTableRecord
100
AcDbBlockTableRecord
2
_CLOSED
340
0
70
0
0
BLOCK_RECORD
5
207
100
AcDbSymbolTableRecord
100
AcDbBlockTableRecord
2
DimnDraft3D2
340
0
70
0
0
BLOCK_RECORD
5
215
100
AcDbSymbolTableRecord
100
AcDbBlockTableRecord
2
DimnDraft3D3
340
0
70
0
0
BLOCK_RECORD
5
223
100
AcDbSymbolTableRecord
100
AcDbBlockTableRecord
2
DimnDraft3D4
340
0
70
0
0
BLOCK_RECORD
5
232
100
AcDbSymbolTableRecord
100
AcDbBlockTableRecord
2
DimnDraft3D5
340
0
70
0
0
ENDTAB
0
ENDSEC
0
SECTION
2
BLOCKS
0
BLOCK
5
20
100
AcDbEntity
8
0
100
AcDbBlockBegin
2
*Model_Space
70
0
10
0
20
0
30
0
3
*Model_Space
0
ENDBLK
5
21
100
AcDbEntity
8
0
100
AcDbBlockEnd
0
BLOCK
5
1C
100
AcDbEntity
8
0
100
AcDbBlockBegin
2
*Paper_Space
70
0
10
0
20
0
30
0
3
*Paper_Space
0
ENDBLK
5
1D
100
AcDbEntity
8
0
100
AcDbBlockEnd
0
BLOCK
5
24
100
AcDbEntity
8
0
100
AcDbBlockBegin
2
*Paper_Space0
70
0
10
0
20
0
30
0
3
*Paper_Space0
0
ENDBLK
5
25
100
AcDbEntity
8
0
100
AcDbBlockEnd
0
BLOCK
5
1FD
100
AcDbEntity
8
0
100
AcDbBlockBegin
2
DimnDraft3D1
70
0
10
0
20
0
30
0
3
DimnDraft3D1
0
MTEXT
5
1F3
100
AcDbEntity
8
2
62
256
6
ByLayer
370
-1
48
1
60
0
100
AcDbMText
10
48.185197
20
45.875
30
0
210
0
220
0
230
1
1
\W01.000;\fsimplex.shx,bigfont.shx;50\P
40
4.5
41
0
44
1.084337
50
0
71
7
72
5
7
DEFAULT
0
LINE
5
1F4
100
AcDbEntity
8
2
62
256
6
ByLayer
370
-1
48
1
60
0
100
AcDbLine
10
75
20
22
30
0
11
75
21
46.75
31
0
39
0
210
0
220
0
230
1
0
LINE
5
1F5
100
AcDbEntity
8
2
62
256
6
ByLayer
370
-1
48
1
60
0
100
AcDbLine
10
25
20
20.611507
30
0
11
25
21
46.75
31
0
39
0
210
0
220
0
230
1
0
LINE
5
1F6
100
AcDbEntity
8
2
62
256
6
ByLayer
370
-1
48
1
60
0
100
AcDbLine
10
75
20
44.75
30
0
11
25
21
44.75
31
0
39
0
210
0
220
0
230
1
0
LINE
5
1F7
100
AcDbEntity
8
2
62
256
6
ByLayer
370
-1
48
1
60
0
100
AcDbLine
10
75
20
44.75
30
0
11
71.825002
21
44.332003
31
0
39
0
210
0
220
0
230
1
0
LINE
5
1F8
100
AcDbEntity
8
2
62
256
6
ByLayer
370
-1
48
1
60
0
100
AcDbLine
10
75
20
44.75
30
0
11
71.824998
21
45.167997
31
0
39
0
210
0
220
0
230
1
0
LINE
5
1F9
100
AcDbEntity
8
2
62
256
6
ByLayer
370
-1
48
1
60
0
100
AcDbLine
10
71.825002
20
44.332003
30
0
11
71.824998
21
45.167997
31
0
39
0
210
0
220
0
230
1
0
LINE
5
1FA
100
AcDbEntity
8
2
62
256
6
ByLayer
370
-1
48
1
60
0
100
AcDbLine
10
25
20
44.75
30
0
11
28.174998
21
45.167997
31
0
39
0
210
0
220
0
230
1
0
LINE
5
1FB
100
AcDbEntity
8
2
62
256
6
ByLayer
370
-1
48
1
60
0
100
AcDbLine
10
25
20
44.75
30
0
11
28.175002
21
44.332003
31
0
39
0
210
0
220
0
230
1
0
LINE
5
1FC
100
AcDbEntity
8
2
62
256
6
ByLayer
370
-1
48
1
60
0
100
AcDbLine
10
28.174998
20
45.167997
30
0
11
28.175002
21
44.332003
31
0
39
0
210
0
220
0
230
1
0
ENDBLK
5
1FE
100
AcDbEntity
8
0
100
AcDbBlockEnd
0
BLOCK
5
201
100
AcDbEntity
8
0
100
AcDbBlockBegin
2
_CLOSED
70
0
10
0
20
0
30
0
3
_CLOSED
0
LINE
5
203
100
AcDbEntity
8
0
62
256
6
ByLayer
370
-2
48
1
60
0
100
AcDbLine
10
-1
20
0.166667
30
0
11
0
21
0
31
0
39
0
210
0
220
0
230
1
0
LINE
5
204
100
AcDbEntity
8
0
62
256
6
ByLayer
370
-2
48
1
60
0
100
AcDbLine
10
0
20
0
30
0
11
-1
21
-0.166667
31
0
39
0
210
0
220
0
230
1
0
LINE
5
205
100
AcDbEntity
8
0
62
256
6
ByLayer
370
-2
48
1
60
0
100
AcDbLine
10
-1
20
0.166667
30
0
11
-1
21
-0.166667
31
0
39
0
210
0
220
0
230
1
0
LINE
5
206
100
AcDbEntity
8
0
62
256
6
ByLayer
370
-2
48
1
60
0
100
AcDbLine
10
0
20
0
30
0
11
-1
21
0
31
0
39
0
210
0
220
0
230
1
0
ENDBLK
5
202
100
AcDbEntity
8
0
100
AcDbBlockEnd
0
BLOCK
5
212
100
AcDbEntity
8
0
100
AcDbBlockBegin
2
DimnDraft3D2
70
0
10
0
20
0
30
0
3
DimnDraft3D2
0
MTEXT
5
208
100
AcDbEntity
8
2
62
256
6
ByLayer
370
-1
48
1
60
0
100
AcDbMText
10
35.685197
20
55.875
30
0
210
0
220
0
230
1
1
\W01.000;\fsimplex.shx,bigfont.shx;75\P
40
4.5
41
0
44
1.084337
50
0
71
7
72
5
7
DEFAULT
0
LINE
5
209
100
AcDbEntity
8
2
62
256
6
ByLayer
370
-1
48
1
60
0
100
AcDbLine
10
75
20
22
30
0
11
75
21
56.75
31
0
39
0
210
0
220
0
230
1
0
LINE
5
20A
100
AcDbEntity
8
2
62
256
6
ByLayer
370
-1
48
1
60
0
100
AcDbLine
10
0
20
27
30
0
11
0
21
56.75
31
0
39
0
210
0
220
0
230
1
0
LINE
5
20B
100
AcDbEntity
8
2
62
256
6
ByLayer
370
-1
48
1
60
0
100
AcDbLine
10
75
20
54.75
30
0
11
0
21
54.75
31
0
39
0
210
0
220
0
230
1
0
LINE
5
20C
100
AcDbEntity
8
2
62
256
6
ByLayer
370
-1
48
1
60
0
100
AcDbLine
10
75
20
54.75
30
0
11
71.825002
21
54.332003
31
0
39
0
210
0
220
0
230
1
0
LINE
5
20D
100
AcDbEntity
8
2
62
256
6
ByLayer
370
-1
48
1
60
0
100
AcDbLine
10
75
20
54.75
30
0
11
71.824998
21
55.167997
31
0
39
0
210
0
220
0
230
1
0
LINE
5
20E
100
AcDbEntity
8
2
62
256
6
ByLayer
370
-1
48
1
60
0
100
AcDbLine
10
71.825002
20
54.332003
30
0
11
71.824998
21
55.167997
31
0
39
0
210
0
220
0
230
1
0
LINE
5
20F
100
AcDbEntity
8
2
62
256
6
ByLayer
370
-1
48
1
60
0
100
AcDbLine
10
0
20
54.75
30
0
11
3.174998
21
55.167997
31
0
39
0
210
0
220
0
230
1
0
LINE
5
210
100
AcDbEntity
8
2
62
256
6
ByLayer
370
-1
48
1
60
0
100
AcDbLine
10
0
20
54.75
30
0
11
3.175002
21
54.332003
31
0
39
0
210
0
220
0
230
1
0
LINE
5
211
100
AcDbEntity
8
2
62
256
6
ByLayer
370
-1
48
1
60
0
100
AcDbLine
10
3.174998
20
55.167997
30
0
11
3.175002
21
54.332003
31
0
39
0
210
0
220
0
230
1
0
ENDBLK
5
213
100
AcDbEntity
8
0
100
AcDbBlockEnd
0
BLOCK
5
220
100
AcDbEntity
8
0
100
AcDbBlockBegin
2
DimnDraft3D3
70
0
10
0
20
0
30
0
3
DimnDraft3D3
0
MTEXT
5
216
100
AcDbEntity
8
2
62
256
6
ByLayer
370
-1
48
1
60
0
100
AcDbMText
10
81.51875
20
30.875
30
0
210
0
220
0
230
1
1
\W01.000;\fsimplex.shx,bigfont.shx;10\P
40
4.5
41
0
44
1.084337
50
0
71
7
72
5
7
DEFAULT
0
LINE
5
217
100
AcDbEntity
8
2
62
256
6
ByLayer
370
-1
48
1
60
0
100
AcDbLine
10
75
20
22
30
0
11
75
21
31.75
31
0
39
0
210
0
220
0
230
1
0
LINE
5
218
100
AcDbEntity
8
2
62
256
6
ByLayer
370
-1
48
1
60
0
100
AcDbLine
10
64.8
20
22
30
0
11
64.8
21
31.75
31
0
39
0
210
0
220
0
230
1
0
LINE
5
219
100
AcDbEntity
8
2
62
256
6
ByLayer
370
-1
48
1
60
0
100
AcDbLine
10
64.8
20
29.75
30
0
11
85.148355
21
29.75
31
0
39
0
210
0
220
0
230
1
0
LINE
5
21A
100
AcDbEntity
8
2
62
256
6
ByLayer
370
-1
48
1
60
0
100
AcDbLine
10
75
20
29.75
30
0
11
71.825002
21
29.332003
31
0
39
0
210
0
220
0
230
1
0
LINE
5
21B
100
AcDbEntity
8
2
62
256
6
ByLayer
370
-1
48
1
60
0
100
AcDbLine
10
75
20
29.75
30
0
11
71.824998
21
30.167997
31
0
39
0
210
0
220
0
230
1
0
LINE
5
21C
100
AcDbEntity
8
2
62
256
6
ByLayer
370
-1
48
1
60
0
100
AcDbLine
10
71.825002
20
29.332003
30
0
11
71.824998
21
30.167997
31
0
39
0
210
0
220
0
230
1
0
LINE
5
21D
100
AcDbEntity
8
2
62
256
6
ByLayer
370
-1
48
1
60
0
100
AcDbLine
10
64.8
20
29.75
30
0
11
67.974998
21
30.167997
31
0
39
0
210
0
220
0
230
1
0
LINE
5
21E
100
AcDbEntity
8
2
62
256
6
ByLayer
370
-1
48
1
60
0
100
AcDbLine
10
64.8
20
29.75
30
0
11
67.975002
21
29.332003
31
0
39
0
210
0
220
0
230
1
0
LINE
5
21F
100
AcDbEntity
8
2
62
256
6
ByLayer
370
-1
48
1
60
0
100
AcDbLine
10
67.974998
20
30.167997
30
0
11
67.975002
21
29.332003
31
0
39
0
210
0
220
0
230
1
0
ENDBLK
5
221
100
AcDbEntity
8
0
100
AcDbBlockEnd
0
BLOCK
5
22F
100
AcDbEntity
8
0
100
AcDbBlockBegin
2
DimnDraft3D4
70
0
10
0
20
0
30
0
3
DimnDraft3D4
0
MTEXT
5
224
100
AcDbEntity
8
SK2
62
256
6
ByLayer
370
-1
48
1
60
0
100
AcDbMText
10
-40.875
20
-4.49852
30
0
210
0
220
0
230
1
1
\W01.000;\fsimplex.shx,bigfont.shx;%%c50\P
40
4.5
41
0
44
1.084337
50
90
71
7
72
5
7
DEFAULT
0
LINE
5
226
100
AcDbEntity
8
SK2
62
256
6
ByLayer
370
-1
48
1
60
0
100
AcDbLine
10
-2
20
25
30
0
11
-41.75
21
25
31
0
39
0
210
0
220
0
230
1
0
LINE
5
227
100
AcDbEntity
8
SK2
62
256
6
ByLayer
370
-1
48
1
60
0
100
AcDbLine
10
-2
20
-25
30
0
11
-41.75
21
-25
31
0
39
0
210
0
220
0
230
1
0
LINE
5
228
100
AcDbEntity
8
SK2
62
256
6
ByLayer
370
-1
48
1
60
0
100
AcDbLine
10
-39.75
20
25
30
0
11
-39.75
21
-25
31
0
39
0
210
0
220
0
230
1
0
LINE
5
229
100
AcDbEntity
8
SK2
62
256
6
ByLayer
370
-1
48
1
60
0
100
AcDbLine
10
-39.75
20
25
30
0
11
-39.332003
21
21.825002
31
0
39
0
210
0
220
0
230
1
0
LINE
5
22A
100
AcDbEntity
8
SK2
62
256
6
ByLayer
370
-1
48
1
60
0
100
AcDbLine
10
-39.75
20
25
30
0
11
-40.167997
21
21.824998
31
0
39
0
210
0
220
0
230
1
0
LINE
5
22B
100
AcDbEntity
8
SK2
62
256
6
ByLayer
370
-1
48
1
60
0
100
AcDbLine
10
-39.332003
20
21.825002
30
0
11
-40.167997
21
21.824998
31
0
39
0
210
0
220
0
230
1
0
LINE
5
22C
100
AcDbEntity
8
SK2
62
256
6
ByLayer
370
-1
48
1
60
0
100
AcDbLine
10
-39.75
20
-25
30
0
11
-40.167997
21
-21.825002
31
0
39
0
210
0
220
0
230
1
0
LINE
5
22D
100
AcDbEntity
8
SK2
62
256
6
ByLayer
370
-1
48
1
60
0
100
AcDbLine
10
-39.75
20
-25
30
0
11
-39.332003
21
-21.824998
31
0
39
0
210
0
220
0
230
1
0
LINE
5
22E
100
AcDbEntity
8
SK2
62
256
6
ByLayer
370
-1
48
1
60
0
100
AcDbLine
10
-40.167997
20
-21.825002
30
0
11
-39.332003
21
-21.824998
31
0
39
0
210
0
220
0
230
1
0
ENDBLK
5
230
100
AcDbEntity
8
0
100
AcDbBlockEnd
0
BLOCK
5
23D
100
AcDbEntity
8
0
100
AcDbBlockBegin
2
DimnDraft3D5
70
0
10
0
20
0
30
0
3
DimnDraft3D5
0
MTEXT
5
233
100
AcDbEntity
8
2
62
256
6
ByLayer
370
-1
48
1
60
0
100
AcDbMText
10
88.125
20
-4.818257
30
0
210
0
220
0
230
1
1
\W01.000;\fsimplex.shx,bigfont.shx;%%c40\P
40
4.5
41
0
44
1.084337
50
90
71
7
72
5
7
DEFAULT
0
LINE
5
234
100
AcDbEntity
8
2
62
256
6
ByLayer
370
-1
48
1
60
0
100
AcDbLine
10
77
20
20
30
0
11
91.25
21
20
31
0
39
0
210
0
220
0
230
1
0
LINE
5
235
100
AcDbEntity
8
2
62
256
6
ByLayer
370
-1
48
1
60
0
100
AcDbLine
10
77
20
-20
30
0
11
91.25
21
-20
31
0
39
0
210
0
220
0
230
1
0
LINE
5
236
100
AcDbEntity
8
2
62
256
6
ByLayer
370
-1
48
1
60
0
100
AcDbLine
10
89.25
20
20
30
0
11
89.25
21
-20
31
0
39
0
210
0
220
0
230
1
0
LINE
5
237
100
AcDbEntity
8
2
62
256
6
ByLayer
370
-1
48
1
60
0
100
AcDbLine
10
89.25
20
20
30
0
11
89.667997
21
16.825002
31
0
39
0
210
0
220
0
230
1
0
LINE
5
238
100
AcDbEntity
8
2
62
256
6
ByLayer
370
-1
48
1
60
0
100
AcDbLine
10
89.25
20
20
30
0
11
88.832003
21
16.824998
31
0
39
0
210
0
220
0
230
1
0
LINE
5
239
100
AcDbEntity
8
2
62
256
6
ByLayer
370
-1
48
1
60
0
100
AcDbLine
10
89.667997
20
16.825002
30
0
11
88.832003
21
16.824998
31
0
39
0
210
0
220
0
230
1
0
LINE
5
23A
100
AcDbEntity
8
2
62
256
6
ByLayer
370
-1
48
1
60
0
100
AcDbLine
10
89.25
20
-20
30
0
11
88.832003
21
-16.825002
31
0
39
0
210
0
220
0
230
1
0
LINE
5
23B
100
AcDbEntity
8
2
62
256
6
ByLayer
370
-1
48
1
60
0
100
AcDbLine
10
89.25
20
-20
30
0
11
89.667997
21
-16.824998
31
0
39
0
210
0
220
0
230
1
0
LINE
5
23C
100
AcDbEntity
8
2
62
256
6
ByLayer
370
-1
48
1
60
0
100
AcDbLine
10
88.832003
20
-16.825002
30
0
11
89.667997
21
-16.824998
31
0
39
0
210
0
220
0
230
1
0
ENDBLK
5
23E
100
AcDbEntity
8
0
100
AcDbBlockEnd
0
ENDSEC
0
SECTION
2
ENTITIES
0
ARC
5
B5
100
AcDbEntity
8
1
62
256
6
ByLayer
370
-1
48
1
60
0
100
AcDbCircle
39
0
10
-25.730809
20
-20.111507
30
0
40
1.5
210
0
220
0
230
-1
100
AcDbArc
50
38.048767
51
90
0
ARC
5
B6
100
AcDbEntity
8
1
62
256
6
ByLayer
370
-1
48
1
60
0
100
AcDbCircle
39
0
10
-25.730809
20
20.111507
30
0
40
1.5
210
0
220
0
230
-1
100
AcDbArc
50
270
51
321.951233
0
ARC
5
B7
100
AcDbEntity
8
1
62
256
6
ByLayer
370
-1
48
1
60
0
100
AcDbCircle
39
0
10
70.18818
20
3.914014
30
0
40
4
210
0
220
0
230
1
100
AcDbArc
50
274.37151
51
281.060992
0
ARC
5
B8
100
AcDbEntity
8
1
62
256
6
ByLayer
370
-1
48
1
60
0
100
AcDbCircle
39
0
10
70.18818
20
3.914014
30
0
40
4
210
0
220
0
230
1
100
AcDbArc
50
230.511332
51
237.200814
0
ARC
5
B9
100
AcDbEntity
8
SK1
62
256
6
ByLayer
370
-1
48
1
60
0
100
AcDbCircle
39
0
10
0.6
20
18.75
30
0
40
1
210
0
220
0
230
-1
100
AcDbArc
50
233.130102
51
246.421822
0
ARC
5
BA
100
AcDbEntity
8
SK1
62
256
6
ByLayer
370
-1
48
1
60
0
100
AcDbCircle
39
0
10
0.6
20
-18.75
30
0
40
1
210
0
220
0
230
-1
100
AcDbArc
50
113.578178
51
126.869898
0
ELLIPSE
5
BB
100
AcDbEntity
8
1
62
256
6
ByLayer
370
-1
48
1
60
0
100
AcDbEllipse
10
66.2385
20
4.10338
30
0
11
-1.19794156106812
21
0.902738066254917
31
0
210
0
220
0
230
1
40
0.116159
41
-1.03181819030043
42
-0.88847993377244
0
ELLIPSE
5
BC
100
AcDbEntity
8
1
62
256
6
ByLayer
370
-1
48
1
60
0
100
AcDbEllipse
10
72.468125
20
13.227052
30
0
11
1.57285213375662
21
0.104897421826334
31
0
210
0
220
0
230
-1
40
0.115329
41
1.05897427053796
42
2.15959770942293
0
ELLIPSE
5
BD
100
AcDbEntity
8
1
62
256
6
ByLayer
370
-1
48
1
60
0
100
AcDbEllipse
10
64.775383
20
1.365534
30
0
11
-16.815446911645
21
2.49814834660629
31
0
210
0
220
0
230
1
40
0.071949
41
1.59991777426218
42
1.64647985960929
0
ELLIPSE
5
BE
100
AcDbEntity
8
1
62
256
6
ByLayer
370
-1
48
1
60
0
100
AcDbEllipse
10
68.693555
20
0.634212
30
0
11
5.27908014785998
21
19.2030620307899
31
0
210
0
220
0
230
-1
40
0.485335
41
2.95405659852661
42
2.98636383388014
0
ELLIPSE
5
BF
100
AcDbEntity
8
1
62
256
6
ByLayer
370
-1
48
1
60
0
100
AcDbEllipse
10
67.888616
20
0.127559
30
0
11
4.82652355995658
21
19.1410712451093
31
0
210
0
220
0
230
-1
40
0.016442
41
-1.08531937790029
42
-0.9536581648611
0
ELLIPSE
5
C0
100
AcDbEntity
8
1
62
256
6
ByLayer
370
-1
48
1
60
0
100
AcDbEllipse
10
64.775383
20
1.365534
30
0
11
-16.815446911645
21
2.49814834660629
31
0
210
0
220
0
230
1
40
0.071949
41
1.41958705685002
42
1.4501918384753
0
ELLIPSE
5
C1
100
AcDbEntity
8
1
62
256
6
ByLayer
370
-1
48
1
60
0
100
AcDbEllipse
10
65.068521
20
3.338694
30
0
11
-14.8371590396867
21
2.20424854112319
31
0
210
0
220
0
230
1
40
0.071949
41
1.41958705685002
42
1.51686822290304
0
ELLIPSE
5
C2
100
AcDbEntity
8
1
62
256
6
ByLayer
370
-1
48
1
60
0
100
AcDbEllipse
10
66.2385
20
14.301948
30
0
11
-0.210999536894989
21
1.48508558522063
31
0
210
0
220
0
230
1
40
0.79717
41
2.56556845118896
42
2.70718985870114
0
ELLIPSE
5
C3
100
AcDbEntity
8
1
62
256
6
ByLayer
370
-1
48
1
60
0
100
AcDbEllipse
10
64.071099
20
2.194
30
0
11
1.1067804677898
21
0.342000200984385
31
0
210
0
220
0
230
-1
40
0.816414
41
-1.30247993155651
42
-1.09520517853272
0
ELLIPSE
5
C4
100
AcDbEntity
8
1
62
256
6
ByLayer
370
-1
48
1
60
0
100
AcDbEllipse
10
62.383623
20
12.954974
30
0
11
0.291850627873841
21
1.97859121877402
31
0
210
0
220
0
230
1
40
0.161772
41
-1.81611771323797
42
-1.65896439936657
0
ELLIPSE
5
C5
100
AcDbEntity
8
1
62
256
6
ByLayer
370
-1
48
1
60
0
100
AcDbEllipse
10
67.888616
20
-0.002302
30
0
11
0.093029243434229
21
-19.1407964238954
31
0
210
0
220
0
230
-1
40
0.252648
41
-0.532790745422913
42
-0.401129532418464
0
ELLIPSE
5
C6
100
AcDbEntity
8
1
62
256
6
ByLayer
370
-1
48
1
60
0
100
AcDbEllipse
10
69.812752
20
13.970716
30
0
11
-0.749239446379775
21
-0.992670013282336
31
0
210
0
220
0
230
1
40
0.982995
41
0.137247064649041
42
0.138414724363112
0
ELLIPSE
5
C7
100
AcDbEntity
8
1
62
256
6
ByLayer
370
-1
48
1
60
0
100
AcDbEllipse
10
66.263082
20
3.880635
30
0
11
0.587225074855434
21
-1.12983940628477
31
0
210
0
220
0
230
-1
40
0.716406
41
1.87454595985963
42
2.23524430290269
0
ELLIPSE
5
C8
100
AcDbEntity
8
1
62
256
6
ByLayer
370
-1
48
1
60
0
100
AcDbEllipse
10
65.449301
20
14.676949
30
0
11
2.58549725161466
21
-1.08645188123867
31
0
210
0
220
0
230
-1
40
0.175429
41
2.49674178124422
42
2.52023516886665
0
ELLIPSE
5
C9
100
AcDbEntity
8
1
62
256
6
ByLayer
370
-1
48
1
60
0
100
AcDbEllipse
10
65.068521
20
27.484336
30
0
11
9.03652260181824
21
11.9725210071576
31
0
210
0
220
0
230
1
40
0.982995
41
-2.64867619216884
42
-2.48908030328668
0
ELLIPSE
5
CA
100
AcDbEntity
8
1
62
256
6
ByLayer
370
-1
48
1
60
0
100
AcDbEllipse
10
64.939465
20
2.37955
30
0
11
1.69548835432793
21
-0.240930863372286
31
0
210
0
220
0
230
-1
40
0.064049
41
2.07167479572629
42
2.77081179433431
0
ELLIPSE
5
CB
100
AcDbEntity
8
1
62
256
6
ByLayer
370
-1
48
1
60
0
100
AcDbEllipse
10
73.97534
20
0
30
0
11
125.609802297596
21
0.275304056708218
31
0
210
0
220
0
230
-1
40
0.148153
41
1.6551190574693
42
1.82155633742795
0
ELLIPSE
5
CC
100
AcDbEntity
8
1
62
256
6
ByLayer
370
-1
48
1
60
0
100
AcDbEllipse
10
69.79436
20
13.984598
30
0
11
0.414559143278222
21
-1.17925430536608
31
0
210
0
220
0
230
1
40
0.966937
41
-0.983687103438994
42
-0.794892436498538
0
ELLIPSE
5
CD
100
AcDbEntity
8
1
62
256
6
ByLayer
370
-1
48
1
60
0
100
AcDbEllipse
10
71.316759
20
8.681514
30
0
11
1.5
21
0
31
0
210
0
220
0
230
1
40
0.997602
41
2.89408512708996
42
-3.14158741689584
0
ELLIPSE
5
CE
100
AcDbEntity
8
1
62
256
6
ByLayer
370
-1
48
1
60
0
100
AcDbEllipse
10
51.498181
20
3.487044
30
0
11
-16.815446911645
21
2.49814834660629
31
0
210
0
220
0
230
1
40
0.071949
41
0.765772905622296
42
1.41958705685002
0
ELLIPSE
5
CF
100
AcDbEntity
8
1
62
256
6
ByLayer
370
-1
48
1
60
0
100
AcDbEllipse
10
75.604979
20
-2.437516
30
0
11
-1.80626201604964
21
0.365664839068156
31
0
210
0
220
0
230
1
40
0.820978
41
0.0729855178144571
42
0.342674237139256
0
ELLIPSE
5
D0
100
AcDbEntity
8
1
62
256
6
ByLayer
370
-1
48
1
60
0
100
AcDbEllipse
10
66.2385
20
4.10338
30
0
11
-1.19794156106812
21
0.902738066254917
31
0
210
0
220
0
230
1
40
0.116159
41
-1.12659040867085
42
-1.08383725559333
0
ELLIPSE
5
D1
100
AcDbEntity
8
1
62
256
6
ByLayer
370
-1
48
1
60
0
100
AcDbEllipse
10
70.983049
20
-0.002312
30
0
11
0.0934268261139196
21
-19.2225991138752
31
0
210
0
220
0
230
-1
40
0.252648
41
-0.539661995378582
42
-0.357723976925137
0
ELLIPSE
5
D2
100
AcDbEntity
8
1
62
256
6
ByLayer
370
-1
48
1
60
0
100
AcDbEllipse
10
65.221063
20
13.506526
30
0
11
0.572493687771231
21
0.758498927665718
31
0
210
0
220
0
230
1
40
0.982995
41
-2.79913547159876
42
-2.68671472230357
0
ELLIPSE
5
D3
100
AcDbEntity
8
1
62
256
6
ByLayer
370
-1
48
1
60
0
100
AcDbEllipse
10
141.023681
20
-2.875587
30
0
11
124.649855896111
21
-4.83274542888476
31
0
210
0
220
0
230
-1
40
0.189176
41
2.22019454568744
42
2.22161452700551
0
ELLIPSE
5
D4
100
AcDbEntity
8
1
62
256
6
ByLayer
370
-1
48
1
60
0
100
AcDbEllipse
10
68.693555
20
1.520153
30
0
11
10.0055981980675
21
19.3212487867022
31
0
210
0
220
0
230
-1
40
0.19788
41
-1.56594363832254
42
-1.53363640279826
0
ELLIPSE
5
D5
100
AcDbEntity
8
1
62
256
6
ByLayer
370
-1
48
1
60
0
100
AcDbEllipse
10
64.642446
20
19.126104
30
0
11
1.1225297983115
21
6.74912318777757
31
0
210
0
220
0
230
-1
40
0.144212
41
-2.19689656896473
42
-1.72336831802176
0
ELLIPSE
5
D6
100
AcDbEntity
8
1
62
256
6
ByLayer
370
-1
48
1
60
0
100
AcDbEllipse
10
21.056258
20
0
30
0
11
11.7092723497254
21
24.6771864409353
31
0
210
0
220
0
230
-1
40
0.341999
41
-2.9743795816808
42
-2.05975995310045
0
ELLIPSE
5
D7
100
AcDbEntity
8
1
62
256
6
ByLayer
370
-1
48
1
60
0
100
AcDbEllipse
10
51.498181
20
29.664032
30
0
11
10.2413922820607
21
13.5688571414452
31
0
210
0
220
0
230
1
40
0.982995
41
2.98069496378261
42
3.07939024852275
0
ELLIPSE
5
D8
100
AcDbEntity
8
1
62
256
6
ByLayer
370
-1
48
1
60
0
100
AcDbEllipse
10
71.048458
20
7.622273
30
0
11
-0.993620726749308
21
0.251680057561535
31
0
210
0
220
0
230
1
40
0.067096
41
0.558966914426849
42
2.35065699992757
0
ELLIPSE
5
D9
100
AcDbEntity
8
1
62
256
6
ByLayer
370
-1
48
1
60
0
100
AcDbEllipse
10
61.773038
20
13.6675
30
0
11
5.46029927816072
21
-0.718146392895297
31
0
210
0
220
0
230
-1
40
0.047051
41
0.743206683935021
42
0.836180488686212
0
ELLIPSE
5
DA
100
AcDbEntity
8
1
62
256
6
ByLayer
370
-1
48
1
60
0
100
AcDbEllipse
10
71.048458
20
-16.412285
30
0
11
0.0728528427610339
21
1.02240767959833
31
0
210
0
220
0
230
1
40
0.969369
41
-1.49742051343132
42
-0.185167403175185
0
ELLIPSE
5
DB
100
AcDbEntity
8
1
62
256
6
ByLayer
370
-1
48
1
60
0
100
AcDbEllipse
10
70.034941
20
14.069173
30
0
11
0.414559143278222
21
-1.17925430536608
31
0
210
0
220
0
230
1
40
0.966937
41
-0.896288743175727
42
-0.670786731989605
0
ELLIPSE
5
DC
100
AcDbEntity
8
1
62
256
6
ByLayer
370
-1
48
1
60
0
100
AcDbEllipse
10
70.983049
20
0.128104
30
0
11
4.84715084429119
21
19.222875118419
31
0
210
0
220
0
230
-1
40
0.016442
41
-1.12872493311308
42
-0.946786914683808
0
ELLIPSE
5
DD
100
AcDbEntity
8
1
62
256
6
ByLayer
370
-1
48
1
60
0
100
AcDbEllipse
10
66.634156
20
13.721924
30
0
11
2.26019481988038
21
1.39678910392904
31
0
210
0
220
0
230
-1
40
0.136539
41
1.80046544354372
42
1.92988175259889
0
ELLIPSE
5
DE
100
AcDbEntity
8
1
62
256
6
ByLayer
370
-1
48
1
60
0
100
AcDbEllipse
10
49.106421
20
14.913418
30
0
11
0.291850627873841
21
1.97859121877402
31
0
210
0
220
0
230
1
40
0.161772
41
-1.91284446388717
42
-1.65896439936657
0
ELLIPSE
5
DF
100
AcDbEntity
8
1
62
256
6
ByLayer
370
-1
48
1
60
0
100
AcDbEllipse
10
9.89256
20
0.594648
30
0
11
273.498129936411
21
1.45314591720174
31
0
210
0
220
0
230
-1
40
0.058502
41
1.3359172164715
42
1.36205659526645
0
ELLIPSE
5
E0
100
AcDbEntity
8
1
62
256
6
ByLayer
370
-1
48
1
60
0
100
AcDbEllipse
10
65.311803
20
-20.131974
30
0
11
-0.318921124881581
21
-1.55486924033797
31
0
210
0
220
0
230
1
40
0.447948
41
-2.64943914250444
42
-2.62439312793933
0
ELLIPSE
5
E1
100
AcDbEntity
8
1
62
256
6
ByLayer
370
-1
48
1
60
0
100
AcDbEllipse
10
51.791319
20
5.460205
30
0
11
-14.8371590396867
21
2.20424854112319
31
0
210
0
220
0
230
1
40
0.071949
41
0.934397331891287
42
1.41958705685002
0
ELLIPSE
5
E2
100
AcDbEntity
8
1
62
256
6
ByLayer
370
-1
48
1
60
0
100
AcDbEllipse
10
-1.056258
20
0
30
0
11
11.7092723497282
21
-24.6771864409385
31
0
210
0
220
0
230
-1
40
0.341999
41
-1.08183270048924
42
-0.167213071908972
0
ELLIPSE
5
E3
100
AcDbEntity
8
1
62
256
6
ByLayer
370
-1
48
1
60
0
100
AcDbEllipse
10
66.263082
20
4.110557
30
0
11
0.846790227106621
21
0.556917584384324
31
0
210
0
220
0
230
-1
40
0.955127
41
-2.51828574933761
42
-2.1341334853365
0
ELLIPSE
5
E4
100
AcDbEntity
8
1
62
256
6
ByLayer
370
-1
48
1
60
0
100
AcDbEllipse
10
-1.056258
20
0
30
0
11
11.7092723497278
21
24.6771864409381
31
0
210
0
220
0
230
-1
40
0.341999
41
0.167213071908976
42
1.08183270048926
0
ELLIPSE
5
E5
100
AcDbEntity
8
1
62
256
6
ByLayer
370
-1
48
1
60
0
100
AcDbEllipse
10
66.2385
20
13.033689
30
0
11
0.788938456368066
21
0
31
0
210
0
220
0
230
1
40
0.108317
41
-2.20565885892057
42
-1.87621897935798
0
ELLIPSE
5
E6
100
AcDbEntity
8
1
62
256
6
ByLayer
370
-1
48
1
60
0
100
AcDbEllipse
10
66.2385
20
4.015092
30
0
11
0.788938456368066
21
0
31
0
210
0
220
0
230
1
40
0.997602
41
2.06452176242042
42
2.20565885892057
0
ELLIPSE
5
E7
100
AcDbEntity
8
1
62
256
6
ByLayer
370
-1
48
1
60
0
100
AcDbEllipse
10
89.267662
20
-2.056723
30
0
11
77.986287896303
21
-19.6645940325424
31
0
210
0
220
0
230
-1
40
0.016352
41
-1.85492204253
42
-1.77686724556226
0
ELLIPSE
5
E8
100
AcDbEntity
8
1
62
256
6
ByLayer
370
-1
48
1
60
0
100
AcDbEllipse
10
71.316759
20
-16.431404
30
0
11
-0.106613916235654
21
-1.4962063603878
31
0
210
0
220
0
230
1
40
0.969369
41
1.64417214015846
42
2.74112767126963
0
ELLIPSE
5
E9
100
AcDbEntity
8
1
62
256
6
ByLayer
370
-1
48
1
60
0
100
AcDbEllipse
10
65.739101
20
0.134409
30
0
11
0.283102540995124
21
1.97986185156493
31
0
210
0
220
0
230
1
40
0.075415
41
-1.64301327567826
42
-1.08302464430133
0
ELLIPSE
5
EA
100
AcDbEntity
8
1
62
256
6
ByLayer
370
-1
48
1
60
0
100
AcDbEllipse
10
64.939465
20
14.117383
30
0
11
1.59068997953034
21
0.686661714405427
31
0
210
0
220
0
230
-1
40
0.854929
41
1.92863431229633
42
3.13345864718247
0
ELLIPSE
5
EB
100
AcDbEntity
8
1
62
256
6
ByLayer
370
-1
48
1
60
0
100
AcDbEllipse
10
73.97534
20
0
30
0
11
125.609418510999
21
2.12750254885659
31
0
210
0
220
0
230
-1
40
0.147198
41
-1.81873846447006
42
-1.65230118448145
0
ELLIPSE
5
EC
100
AcDbEntity
8
1
62
256
6
ByLayer
370
-1
48
1
60
0
100
AcDbEllipse
10
89.267662
20
0.037122
30
0
11
77.9868926158977
21
0.378735866871794
31
0
210
0
220
0
230
-1
40
0.251256
41
1.77396427590448
42
1.85201907299728
0
ELLIPSE
5
ED
100
AcDbEntity
8
1
62
256
6
ByLayer
370
-1
48
1
60
0
100
AcDbEllipse
10
51.791319
20
29.442779
30
0
11
9.03652260181825
21
11.9725210071576
31
0
210
0
220
0
230
1
40
0.982995
41
-3.13386591712752
42
-2.64867619216883
0
ELLIPSE
5
EE
100
AcDbEntity
8
1
62
256
6
ByLayer
370
-1
48
1
60
0
100
AcDbEllipse
10
130.364954
20
0
30
0
11
115.229227821267
21
-0.933366284412129
31
0
210
0
220
0
230
-1
40
0.161314
41
2.22767222017774
42
2.38343307831678
0
ELLIPSE
5
EF
100
AcDbEntity
8
1
62
256
6
ByLayer
370
-1
48
1
60
0
100
AcDbEllipse
10
64.642446
20
2.790408
30
0
11
1.48534862608139
21
0.15159482032423
31
0
210
0
220
0
230
-1
40
0.221646
41
-2.88859503567583
42
-2.41506678472595
0
ELLIPSE
5
F0
100
AcDbEntity
8
1
62
256
6
ByLayer
370
-1
48
1
60
0
100
AcDbEllipse
10
73.97534
20
0
30
0
11
125.609656319163
21
-18.5642996829762
31
0
210
0
220
0
230
-1
40
0.010547
41
-1.82279034706816
42
-1.65635306709827
0
ELLIPSE
5
F1
100
AcDbEntity
8
1
62
256
6
ByLayer
370
-1
48
1
60
0
100
AcDbEllipse
10
65.311803
20
5.039447
30
0
11
-0.700286571172363
21
-1.42440435153806
31
0
210
0
220
0
230
1
40
0.217999
41
1.06562684558907
42
1.09067286015245
0
ELLIPSE
5
F2
100
AcDbEntity
8
1
62
256
6
ByLayer
370
-1
48
1
60
0
100
AcDbEllipse
10
71.316759
20
-16.431404
30
0
11
-1.5
21
1.83690953073357E-16
31
0
210
0
220
0
230
1
40
0.018006
41
-2.89408512709
42
-2.07560728145038
0
ELLIPSE
5
F3
100
AcDbEntity
8
1
62
256
6
ByLayer
370
-1
48
1
60
0
100
AcDbEllipse
10
71.316759
20
8.681514
30
0
11
1.45407911231606
21
-0.368312279358344
31
0
210
0
220
0
230
1
40
0.067096
41
-3.12459925516585
42
-4.32638383564218E-05
0
ELLIPSE
5
F4
100
AcDbEntity
8
1
62
256
6
ByLayer
370
-1
48
1
60
0
100
AcDbEllipse
10
70.095087
20
14.090317
30
0
11
0.406183347694809
21
-1.15542853005088
31
0
210
0
220
0
230
1
40
0.966937
41
-0.885082056041226
42
-0.575571928517405
0
ELLIPSE
5
F5
100
AcDbEntity
8
1
62
256
6
ByLayer
370
-1
48
1
60
0
100
AcDbEllipse
10
66.263082
20
3.84981
30
0
11
-1
21
1.22460635382238E-16
31
0
210
0
220
0
230
1
40
0.997602
41
-1.21293684176884
42
-0.545112887624879
0
ELLIPSE
5
F6
100
AcDbEntity
8
1
62
256
6
ByLayer
370
-1
48
1
60
0
100
AcDbEllipse
10
65.449303
20
3.56495
30
0
11
2.2927099359986
21
3.13632048045436
31
0
210
0
220
0
230
-1
40
0.38587
41
-2.1081388469063
42
-2.08464547086815
0
ELLIPSE
5
F7
100
AcDbEntity
8
1
62
256
6
ByLayer
370
-1
48
1
60
0
100
AcDbEllipse
10
21.056258
20
0
30
0
11
11.7092723497247
21
-24.6771864409343
31
0
210
0
220
0
230
-1
40
0.341999
41
2.05975995310042
42
2.9743795816808
0
ELLIPSE
5
F8
100
AcDbEntity
8
1
62
256
6
ByLayer
370
-1
48
1
60
0
100
AcDbEllipse
10
62.383623
20
0.642234
30
0
11
0.315568799535332
21
1.97494717214406
31
0
210
0
220
0
230
1
40
0.150243
41
0.072839167421654
42
1.64363549421655
0
ELLIPSE
5
F9
100
AcDbEntity
8
1
62
256
6
ByLayer
370
-1
48
1
60
0
100
AcDbEllipse
10
64.616601
20
2.459951
30
0
11
1.69548835432809
21
-0.240930863372303
31
0
210
0
220
0
230
-1
40
0.064049
41
2.40205941226239
42
-2.53121597658936
0
ELLIPSE
5
FA
100
AcDbEntity
8
1
62
256
6
ByLayer
370
-1
48
1
60
0
100
AcDbEllipse
10
61.773038
20
-1.822327
30
0
11
5.32909694217372
21
6.96539046295548
31
0
210
0
220
0
230
-1
40
0.170883
41
-0.622622994214812
42
-0.529649188359987
0
ELLIPSE
5
FB
100
AcDbEntity
8
1
62
256
6
ByLayer
370
-1
48
1
60
0
100
AcDbEllipse
10
9.892675
20
7.176823
30
0
11
273.497837061767
21
17.478876594553
31
0
210
0
220
0
230
-1
40
0.007092
41
-1.36129272202114
42
-1.34274334870135
0
ELLIPSE
5
FC
100
AcDbEntity
8
1
62
256
6
ByLayer
370
-1
48
1
60
0
100
AcDbEllipse
10
130.364954
20
0
30
0
11
115.229039662894
21
-18.5428774973688
31
0
210
0
220
0
230
-1
40
0.013858
41
-2.38696978242694
42
-2.23120892428544
0
ELLIPSE
5
FD
100
AcDbEntity
8
1
62
256
6
ByLayer
370
-1
48
1
60
0
100
AcDbEllipse
10
64.616601
20
14.558641
30
0
11
1.59068997953062
21
0.686661714407048
31
0
210
0
220
0
230
-1
40
0.854929
41
2.76470626511121
42
-2.16856912374058
0
ELLIPSE
5
FE
100
AcDbEntity
8
1
62
256
6
ByLayer
370
-1
48
1
60
0
100
AcDbEllipse
10
49.106421
20
2.763744
30
0
11
0.315568799535332
21
1.97494717214406
31
0
210
0
220
0
230
1
40
0.150243
41
0.0728391674216595
42
1.64363549421655
0
ELLIPSE
5
FF
100
AcDbEntity
8
1
62
256
6
ByLayer
370
-1
48
1
60
0
100
AcDbEllipse
10
75.617779
20
-1.705082
30
0
11
1.91603807223897
21
0.484270493946773
31
0
210
0
220
0
230
1
40
0.020614
41
-2.85696235131149
42
-2.38129472747843
0
ELLIPSE
5
100
100
AcDbEntity
8
1
62
256
6
ByLayer
370
-1
48
1
60
0
100
AcDbEllipse
10
65.102041
20
13.59636
30
0
11
-0.102101312283114
21
1.24582315038294
31
0
210
0
220
0
230
1
40
0.138079
41
-2.51419905013618
42
-2.42920154935435
0
ELLIPSE
5
101
100
AcDbEntity
8
1
62
256
6
ByLayer
370
-1
48
1
60
0
100
AcDbEllipse
10
66.521027
20
5.082005
30
0
11
-1.85376776815418
21
0.469551777689995
31
0
210
0
220
0
230
1
40
0.067096
41
1.87193847132047
42
2.28772399729921
0
ELLIPSE
5
102
100
AcDbEntity
8
1
62
256
6
ByLayer
370
-1
48
1
60
0
100
AcDbEllipse
10
69.304034
20
16.478632
30
0
11
0.679625931856636
21
1.58547582534329
31
0
210
0
220
0
230
1
40
0.963822
41
1.52995122407391
42
2.68246831724033
0
ELLIPSE
5
103
100
AcDbEntity
8
1
62
256
6
ByLayer
370
-1
48
1
60
0
100
AcDbEllipse
10
69.304034
20
16.478632
30
0
11
0.679625931856636
21
1.58547582534329
31
0
210
0
220
0
230
1
40
0.963822
41
2.68242056689921
42
-1.17900626522824
0
ELLIPSE
5
104
100
AcDbEntity
8
1
62
256
6
ByLayer
370
-1
48
1
60
0
100
AcDbEllipse
10
69.304034
20
16.478632
30
0
11
0.679625931856636
21
1.58547582534329
31
0
210
0
220
0
230
1
40
0.963822
41
-1.17900568249193
42
0
0
ELLIPSE
5
105
100
AcDbEntity
8
1
62
256
6
ByLayer
370
-1
48
1
60
0
100
AcDbEllipse
10
69.304034
20
16.478632
30
0
11
0.679625931856636
21
1.58547582534329
31
0
210
0
220
0
230
1
40
0.963822
41
0
42
1.54918940983037
0
ELLIPSE
5
106
100
AcDbEntity
8
1
62
256
6
ByLayer
370
-1
48
1
60
0
100
AcDbEllipse
10
68.523798
20
16.946113
30
0
11
-0.166262112025218
21
-0.387867129446301
31
0
210
0
220
0
230
1
40
0.963822
41
1.46610396615082
42
2.24100369400326
0
ELLIPSE
5
107
100
AcDbEntity
8
1
62
256
6
ByLayer
370
-1
48
1
60
0
100
AcDbEllipse
10
69.506413
20
17.55353
30
0
11
-0.166262112025218
21
-0.387867129446301
31
0
210
0
220
0
230
1
40
0.963822
41
0.485390747440405
42
1.19556362501621
0
ELLIPSE
5
108
100
AcDbEntity
8
1
62
256
6
ByLayer
370
-1
48
1
60
0
100
AcDbEllipse
10
69.261425
20
16.496897
30
0
11
0.407775559113982
21
0.951285495205976
31
0
210
0
220
0
230
1
40
0.963822
41
0.942934180382458
42
1.98927375191916
0
ELLIPSE
5
109
100
AcDbEntity
8
1
62
256
6
ByLayer
370
-1
48
1
60
0
100
AcDbEllipse
10
69.506413
20
16.391881
30
0
11
0.294701563494935
21
0.687499082525671
31
0
210
0
220
0
230
1
40
0.963822
41
0.380746073207216
42
0.456208777041302
0
ELLIPSE
5
10A
100
AcDbEntity
8
1
62
256
6
ByLayer
370
-1
48
1
60
0
100
AcDbEllipse
10
69.506413
20
16.391881
30
0
11
-0.294701563494935
21
-0.687499082525671
31
0
210
0
220
0
230
1
40
0.963822
41
-2.6853838765485
42
-1.67548868743899
0
ELLIPSE
5
10B
100
AcDbEntity
8
1
62
256
6
ByLayer
370
-1
48
1
60
0
100
AcDbEllipse
10
69.506413
20
16.391881
30
0
11
-0.294701563494935
21
-0.687499082525671
31
0
210
0
220
0
230
1
40
0.963822
41
-0.629149115902293
42
-0.0133818136916407
0
ELLIPSE
5
10C
100
AcDbEntity
8
1
62
256
6
ByLayer
370
-1
48
1
60
0
100
AcDbEllipse
10
69.261425
20
16.496897
30
0
11
0.407775559113982
21
0.951285495205976
31
0
210
0
220
0
230
1
40
0.963822
41
1.98927375191916
42
3.03561332345586
0
ELLIPSE
5
10D
100
AcDbEntity
8
1
62
256
6
ByLayer
370
-1
48
1
60
0
100
AcDbEllipse
10
69.302019
20
16.479496
30
0
11
0.294701563494935
21
0.687499082525671
31
0
210
0
220
0
230
1
40
0.963822
41
0.38074607320722
42
0.456208777041302
0
ELLIPSE
5
10E
100
AcDbEntity
8
1
62
256
6
ByLayer
370
-1
48
1
60
0
100
AcDbEllipse
10
69.919074
20
17.134604
30
0
11
-0.0728874187788278
21
-0.17003653779044
31
0
210
0
220
0
230
1
40
0.963822
41
-2.3061963874548
42
-1.9460290285736
0
ELLIPSE
5
10F
100
AcDbEntity
8
1
62
256
6
ByLayer
370
-1
48
1
60
0
100
AcDbEllipse
10
69.506413
20
15.230233
30
0
11
-0.166262112025218
21
-0.387867129446301
31
0
210
0
220
0
230
1
40
0.963822
41
3.05748880400614
42
3.1415880483196
0
ELLIPSE
5
110
100
AcDbEntity
8
1
62
256
6
ByLayer
370
-1
48
1
60
0
100
AcDbEllipse
10
69.261425
20
16.496897
30
0
11
0.512181861689059
21
1.19485134663553
31
0
210
0
220
0
230
1
40
0.963822
41
0
42
6.28318530717959
0
ELLIPSE
5
111
100
AcDbEntity
8
1
62
256
6
ByLayer
370
-1
48
1
60
0
100
AcDbEllipse
10
69.506413
20
16.391881
30
0
11
0.294701563494935
21
0.687499082525671
31
0
210
0
220
0
230
1
40
0.963822
41
-2.61240327473119
42
-2.19929240378448
0
ELLIPSE
5
112
100
AcDbEntity
8
1
62
256
6
ByLayer
370
-1
48
1
60
0
100
AcDbEllipse
10
69.506413
20
17.55353
30
0
11
-0.166262112025218
21
-0.387867129446301
31
0
210
0
220
0
230
1
40
0.963822
41
-4.6052701985893E-06
42
0.351564102808102
0
ELLIPSE
5
113
100
AcDbEntity
8
1
62
256
6
ByLayer
370
-1
48
1
60
0
100
AcDbEllipse
10
69.261425
20
16.496897
30
0
11
0.407775559113982
21
0.951285495205976
31
0
210
0
220
0
230
1
40
0.963822
41
-0.105979330133949
42
0.942934180382458
0
ELLIPSE
5
114
100
AcDbEntity
8
1
62
256
6
ByLayer
370
-1
48
1
60
0
100
AcDbEllipse
10
69.093752
20
17.112015
30
0
11
-0.0728874187788278
21
-0.17003653779044
31
0
210
0
220
0
230
1
40
0.963822
41
-2.59411653788124
42
-0.900588959586522
0
ELLIPSE
5
115
100
AcDbEntity
8
1
62
256
6
ByLayer
370
-1
48
1
60
0
100
AcDbEllipse
10
69.093752
20
15.649159
30
0
11
-0.0728874187788278
21
-0.17003653779044
31
0
210
0
220
0
230
1
40
0.963822
41
-1.40404884375477
42
-0.813247648981363
0
ELLIPSE
5
116
100
AcDbEntity
8
1
62
256
6
ByLayer
370
-1
48
1
60
0
100
AcDbEllipse
10
68.523798
20
16.946113
30
0
11
-0.166262112025218
21
-0.387867129446301
31
0
210
0
220
0
230
1
40
0.963822
41
0.691204238298345
42
1.46610396615082
0
ELLIPSE
5
117
100
AcDbEntity
8
1
62
256
6
ByLayer
370
-1
48
1
60
0
100
AcDbEllipse
10
69.261425
20
16.496897
30
0
11
0.407775559113982
21
0.951285495205976
31
0
210
0
220
0
230
1
40
0.963822
41
3.03561332345586
42
-2.19865847320733
0
ELLIPSE
5
118
100
AcDbEntity
8
1
62
256
6
ByLayer
370
-1
48
1
60
0
100
AcDbEllipse
10
69.261425
20
16.496897
30
0
11
0.407775559113982
21
0.951285495205976
31
0
210
0
220
0
230
1
40
0.963822
41
-1.15231890167063
42
-0.105979330133949
0
ELLIPSE
5
119
100
AcDbEntity
8
1
62
256
6
ByLayer
370
-1
48
1
60
0
100
AcDbEllipse
10
68.523798
20
15.783861
30
0
11
-0.166262112025218
21
-0.387867129446301
31
0
210
0
220
0
230
1
40
0.963822
41
1.73754380983505
42
2.5124435376875
0
ELLIPSE
5
11A
100
AcDbEntity
8
1
62
256
6
ByLayer
370
-1
48
1
60
0
100
AcDbEllipse
10
69.506413
20
16.391881
30
0
11
-0.294701563494935
21
-0.687499082525671
31
0
210
0
220
0
230
1
40
0.963822
41
1.97012834828162
42
2.34689214733115
0
ELLIPSE
5
11B
100
AcDbEntity
8
1
62
256
6
ByLayer
370
-1
48
1
60
0
100
AcDbEllipse
10
69.302019
20
16.479496
30
0
11
0.294701563494935
21
0.687499082525671
31
0
210
0
220
0
230
1
40
0.963822
41
-2.76084658038258
42
-2.68538387654849
0
ELLIPSE
5
11C
100
AcDbEntity
8
1
62
256
6
ByLayer
370
-1
48
1
60
0
100
AcDbEllipse
10
68.523798
20
15.783861
30
0
11
-0.166262112025218
21
-0.387867129446301
31
0
210
0
220
0
230
1
40
0.963822
41
2.5124435376875
42
3.14158904960826
0
ELLIPSE
5
11D
100
AcDbEntity
8
1
62
256
6
ByLayer
370
-1
48
1
60
0
100
AcDbEllipse
10
68.682316
20
16.369326
30
0
11
-0.0728874187788278
21
-0.17003653779044
31
0
210
0
220
0
230
1
40
0.963822
41
-2.45038841529144
42
-0.264560139013186
0
ELLIPSE
5
11E
100
AcDbEntity
8
1
62
256
6
ByLayer
370
-1
48
1
60
0
100
AcDbEllipse
10
69.506413
20
16.391881
30
0
11
-0.294701563494935
21
-0.687499082525671
31
0
210
0
220
0
230
1
40
0.963822
41
3.02132092793662
42
-2.76084658038258
0
ELLIPSE
5
11F
100
AcDbEntity
8
1
62
256
6
ByLayer
370
-1
48
1
60
0
100
AcDbEllipse
10
69.261425
20
16.496897
30
0
11
0.407775559113982
21
0.951285495205976
31
0
210
0
220
0
230
1
40
0.963822
41
-2.19865847320733
42
-1.15231890167063
0
ELLIPSE
5
120
100
AcDbEntity
8
1
62
256
6
ByLayer
370
-1
48
1
60
0
100
AcDbEllipse
10
69.506413
20
16.391881
30
0
11
-0.294701563494935
21
-0.687499082525671
31
0
210
0
220
0
230
1
40
0.963822
41
-1.67548868743899
42
-0.629149115902293
0
ELLIPSE
5
121
100
AcDbEntity
8
1
62
256
6
ByLayer
370
-1
48
1
60
0
100
AcDbEllipse
10
69.304034
20
0.423452
30
0
11
-1.67219097916347
21
0.423559121262095
31
0
210
0
220
0
230
1
40
0.067096
41
3.0004462978189
42
3.05437163539888
0
ELLIPSE
5
122
100
AcDbEntity
8
1
62
256
6
ByLayer
370
-1
48
1
60
0
100
AcDbEllipse
10
70.412869
20
-16.561084
30
0
11
0.0675221469492509
21
0.947597361578937
31
0
210
0
220
0
230
1
40
0.969369
41
0
42
6.28318530717959
0
ELLIPSE
5
123
100
AcDbEntity
8
1
62
256
6
ByLayer
370
-1
48
1
60
0
100
AcDbEllipse
10
70.412869
20
-16.561084
30
0
11
0.0675221469492509
21
0.947597361578937
31
0
210
0
220
0
230
1
40
0.969369
41
-1.49739167968043
42
-0.499150437131555
0
ELLIPSE
5
124
100
AcDbEntity
8
1
62
256
6
ByLayer
370
-1
48
1
60
0
100
AcDbEllipse
10
69.261425
20
0.25523
30
0
11
-1.26020189734059
21
0.319203975443898
31
0
210
0
220
0
230
1
40
0.067096
41
0
42
6.28318530717959
0
ELLIPSE
5
125
100
AcDbEntity
8
1
62
256
6
ByLayer
370
-1
48
1
60
0
100
AcDbEllipse
10
69.261425
20
0.25523
30
0
11
-1.00331458749808
21
0.254135472757257
31
0
210
0
220
0
230
1
40
0.067096
41
0.0169933984239489
42
1.06333296996065
0
ELLIPSE
5
126
100
AcDbEntity
8
1
62
256
6
ByLayer
370
-1
48
1
60
0
100
AcDbEllipse
10
69.261425
20
0.25523
30
0
11
-1.00331458749808
21
0.254135472757257
31
0
210
0
220
0
230
1
40
0.067096
41
2.11224648047706
42
-3.12459925516584
0
ELLIPSE
5
127
100
AcDbEntity
8
1
62
256
6
ByLayer
370
-1
48
1
60
0
100
AcDbEllipse
10
69.304034
20
0.423452
30
0
11
-1.67219097916347
21
0.423559121262095
31
0
210
0
220
0
230
1
40
0.067096
41
-2.44614799869114
42
-3.83693543881805E-15
0
ELLIPSE
5
128
100
AcDbEntity
8
1
62
256
6
ByLayer
370
-1
48
1
60
0
100
AcDbEllipse
10
69.304034
20
0.423452
30
0
11
-1.67219097916347
21
0.423559121262095
31
0
210
0
220
0
230
1
40
0.067096
41
0
42
-3.1318979061392
0
ELLIPSE
5
129
100
AcDbEntity
8
1
62
256
6
ByLayer
370
-1
48
1
60
0
100
AcDbEllipse
10
69.261425
20
0.25523
30
0
11
-1.00331458749808
21
0.254135472757257
31
0
210
0
220
0
230
1
40
0.067096
41
1.06333296996065
42
2.11224648047706
0
ELLIPSE
5
12A
100
AcDbEntity
8
1
62
256
6
ByLayer
370
-1
48
1
60
0
100
AcDbEllipse
10
69.261425
20
0.25523
30
0
11
-1.00331458749808
21
0.254135472757257
31
0
210
0
220
0
230
1
40
0.067096
41
-3.12459925516584
42
-2.07825968362914
0
ELLIPSE
5
12B
100
AcDbEntity
8
1
62
256
6
ByLayer
370
-1
48
1
60
0
100
AcDbEllipse
10
69.261425
20
0.25523
30
0
11
-1.00331458749808
21
0.254135472757257
31
0
210
0
220
0
230
1
40
0.067096
41
-2.07825968362914
42
-1.02934617311274
0
ELLIPSE
5
12C
100
AcDbEntity
8
1
62
256
6
ByLayer
370
-1
48
1
60
0
100
AcDbEllipse
10
69.261425
20
0.25523
30
0
11
-1.00331458749808
21
0.254135472757257
31
0
210
0
220
0
230
1
40
0.067096
41
-1.02934617311274
42
0.0169933984239489
0
POINT
5
42
100
AcDbEntity
8
81
62
256
6
ByLayer
370
-1
48
1
60
0
100
AcDbPoint
10
75
20
19.935
30
0
39
0
210
0
220
0
230
1
50
360
0
POINT
5
44
100
AcDbEntity
8
2
62
256
6
ByLayer
370
-1
48
1
60
0
100
AcDbPoint
10
75
20
19.935
30
0
39
0
210
0
220
0
230
1
50
360
0
POINT
5
46
100
AcDbEntity
8
80
62
256
6
ByLayer
370
-1
48
1
60
0
100
AcDbPoint
10
0
20
0
30
0
39
0
210
0
220
0
230
1
50
360
0
SPLINE
5
12D
100
AcDbEntity
8
1
62
256
6
ByLayer
370
-1
48
1
60
0
100
AcDbSpline
70
4
71
2
72
6
73
3
40
0
40
0
40
0
40
1
40
1
40
1
41
1
10
65.1421366294821
20
19.5852448854334
30
-2E-16
41
1
10
65.0610546940815
20
19.5821330074917
30
-2E-16
41
1
10
64.9802264470284
20
19.5700308593373
30
-2E-16
0
SPLINE
5
12E
100
AcDbEntity
8
1
62
256
6
ByLayer
370
-1
48
1
60
0
100
AcDbSpline
70
4
71
2
72
6
73
3
40
0
40
0
40
0
40
1
40
1
40
1
41
1
10
73.9103688350216
20
13.184857519188
30
0
41
1
10
73.9915635213529
20
13.1876780308717
30
0
41
1
10
74.0714782891093
20
13.2000728035395
30
0
0
SPLINE
5
12F
100
AcDbEntity
8
1
62
256
6
ByLayer
370
-1
48
1
60
0
100
AcDbSpline
70
4
71
3
72
12
73
8
40
0
40
0
40
0
40
0
40
0.140014974002149
40
0.310025103231124
40
0.510027736521677
40
0.740020188368479
40
1
40
1
40
1
40
1
41
1
10
74.9716682433271
20
-0.978306118987433
30
0
41
1
10
74.9500834848227
20
-0.796040794610434
30
0
41
1
10
74.90229706556
20
-0.3924427053351
30
0
41
1
10
74.8237104367276
20
0.271607840763693
30
0
41
1
10
74.7312924360467
20
1.05289663130017
30
0
41
1
10
74.6250559107369
20
1.95144733721682
30
0
41
1
10
74.5496377303639
20
2.58961337645698
30
0
41
1
10
74.5096281550203
20
2.92824779558069
30
0
0
SPLINE
5
130
100
AcDbEntity
8
1
62
256
6
ByLayer
370
-1
48
1
60
0
100
AcDbSpline
70
4
71
3
72
14
73
10
40
0
40
0
40
0
40
0
40
0.0619945439367129
40
0.0851851411426554
40
0.125272642201172
40
0.25456178093725
40
0.59159987649314
40
0.937966582066121
40
1
40
1
40
1
40
1
41
1
10
74.0999452048901
20
-0.658513729578203
30
-1E-16
41
1
10
74.0765508199903
20
-0.652540655344922
30
-1E-16
41
1
10
74.0512325344584
20
-0.646092652633428
30
-1E-16
41
1
10
74.0340367427705
20
-0.641872928000652
30
-1E-16
41
1
10
73.9971796161979
20
-0.63228492457381
30
-1E-16
41
1
10
73.8422040426512
20
-0.586457897473366
30
-1E-16
41
1
10
73.6076312012145
20
-0.504307627446678
30
-1E-16
41
1
10
73.3809712273358
20
-0.420782822149079
30
-1E-16
41
1
10
73.2576381865172
20
-0.374634268807256
30
-1E-16
41
1
10
73.2389216272368
20
-0.367615127912586
30
-1E-16
0
SPLINE
5
131
100
AcDbEntity
8
1
62
256
6
ByLayer
370
-1
48
1
60
0
100
AcDbSpline
70
4
71
3
72
8
73
4
40
0
40
0
40
0
40
0
40
1
40
1
40
1
40
1
41
1
10
69.5192425574947
20
1.09649951736361
30
-3E-16
41
1
10
69.4985243229733
20
1.10504188031726
30
-3E-16
41
1
10
69.4778100814931
20
1.11359532456643
30
-3E-16
41
1
10
69.4571003744171
20
1.12216058640595
30
-3E-16
0
SPLINE
5
132
100
AcDbEntity
8
1
62
256
6
ByLayer
370
-1
48
1
60
0
100
AcDbSpline
70
4
71
2
72
6
73
3
40
0
40
0
40
0
40
1
40
1
40
1
41
1
10
65.0871420074855
20
2.63513821323724
30
-6E-16
41
1
10
65.0258213421292
20
2.65186797994508
30
-6E-16
41
1
10
64.9647751560633
20
2.66641754076335
30
-6E-16
0
SPLINE
5
133
100
AcDbEntity
8
1
62
256
6
ByLayer
370
-1
48
1
60
0
100
AcDbSpline
70
4
71
3
72
13
73
9
40
0
40
0
40
0
40
0
40
0.0428248926461141
40
0.17738672346684
40
0.34015208344165
40
0.531344810943868
40
0.751327515745014
40
1
40
1
40
1
40
1
41
1
10
70.9269524209034
20
-0.0346793452899874
30
-2E-16
41
1
10
70.977330751058
20
-0.0471069842699308
30
-2E-16
41
1
10
71.1859383643175
20
-0.0989694239927417
30
-2E-16
41
1
10
71.5855783415611
20
-0.201598941508223
30
-2E-16
41
1
10
72.1577928425154
20
-0.355987690748464
30
-2E-16
41
1
10
72.8277946804453
20
-0.546245908433491
30
-1E-16
41
1
10
73.5929614824388
20
-0.782768044866998
30
-1E-16
41
1
10
74.1437591857637
20
-0.925176163799108
30
-1E-16
41
1
10
74.4370507853332
20
-0.997132612419193
30
0
0
SPLINE
5
134
100
AcDbEntity
8
1
62
256
6
ByLayer
370
-1
48
1
60
0
100
AcDbSpline
70
4
71
3
72
16
73
12
40
0
40
0
40
0
40
0
40
0.0081656657629886
40
0.173896835638756
40
0.342216087462861
40
0.480835507459293
40
0.543137825640017
40
0.63259888192247
40
0.731614354806591
40
0.945437204334269
40
1
40
1
40
1
40
1
41
1
10
66.3874021330647
20
1.07005407540208
30
-5E-16
41
1
10
66.3873713052896
20
1.06986676748258
30
-5E-16
41
1
10
66.3879367056929
20
1.06564144681784
30
-5E-16
41
1
10
66.4378425291573
20
1.04778262285726
30
-5E-16
41
1
10
66.5540384200494
20
1.01362984820739
30
-5E-16
41
1
10
66.7098505628746
20
0.976299800213951
30
-5E-16
41
1
10
66.8738114729906
20
0.938359276792966
30
-5E-16
41
1
10
67.040824049221
20
0.899812553016886
30
-5E-16
41
1
10
67.3116341223191
20
0.836271834857911
30
-5E-16
41
1
10
67.5594657850774
20
0.77690361983511
30
-5E-16
41
1
10
67.7411039870416
20
0.732830113673486
30
-4E-16
41
1
10
67.778052964843
20
0.7238394774798
30
-4E-16
0
SPLINE
5
135
100
AcDbEntity
8
1
62
256
6
ByLayer
370
-1
48
1
60
0
100
AcDbSpline
70
4
71
3
72
14
73
10
40
0
40
0
40
0
40
0
40
0.169111208988405
40
0.301542882571094
40
0.39845147819364
40
0.47076122389058
40
0.600806190793112
40
0.777391404429502
40
1
40
1
40
1
40
1
41
1
10
66.0955001282875
20
5.05180848017213
30
-5E-16
41
1
10
66.0107256738393
20
4.91690049348222
30
-6E-16
41
1
10
65.8585941348737
20
4.67538124946748
30
-6E-16
41
1
10
65.6561891001453
20
4.35522525159485
30
-6E-16
41
1
10
65.5004574969373
20
4.10989754497919
30
-6E-16
41
1
10
65.3415929274498
20
3.85736791347131
30
-6E-16
41
1
10
65.1445027290367
20
3.54554429374454
30
-6E-16
41
1
10
64.8704235286413
20
3.11504201863829
30
-6E-16
41
1
10
64.6639259053572
20
2.794714313253
30
-6E-16
41
1
10
64.5489348118086
20
2.61750002071082
30
-6E-16
0
SPLINE
5
136
100
AcDbEntity
8
1
62
256
6
ByLayer
370
-1
48
1
60
0
100
AcDbSpline
70
4
71
3
72
9
73
5
40
0
40
0
40
0
40
0
40
0.290258490761739
40
1
40
1
40
1
40
1
41
1
10
65.4512669771186
20
4.02689918361003
30
-6E-16
41
1
10
65.4383490700187
20
4.01563419449667
30
-6E-16
41
1
10
65.3924647657417
20
3.97586097199033
30
-6E-16
41
1
10
65.3418774713402
20
3.93272335298286
30
-6E-16
41
1
10
65.3047840642995
20
3.90035643896255
30
-6E-16
0
SPLINE
5
137
100
AcDbEntity
8
1
62
256
6
ByLayer
370
-1
48
1
60
0
100
AcDbSpline
70
4
71
3
72
11
73
7
40
0
40
0
40
0
40
0
40
0.0025252606569288
40
0.297359911439096
40
0.628229943535208
40
1
40
1
40
1
40
1
41
1
10
64.625084938427
20
3.12492610204345
30
-6E-16
41
1
10
64.6242224926317
20
3.12372967090019
30
-6E-16
41
1
10
64.5226677251555
20
2.98280559535459
30
-6E-16
41
1
10
64.3084953571624
20
2.67542010987927
30
-7E-16
41
1
10
63.9624697398025
20
2.17802379342876
30
-7E-16
41
1
10
63.7174001525728
20
1.82890123973587
30
-7E-16
41
1
10
63.5870575699035
20
1.64375493118788
30
-7E-16
0
SPLINE
5
138
100
AcDbEntity
8
1
62
256
6
ByLayer
370
-1
48
1
60
0
100
AcDbSpline
70
4
71
2
72
6
73
3
40
0
40
0
40
0
40
1
40
1
40
1
41
1
10
64.9791683489228
20
-19.8468086633079
30
1E-16
41
1
10
65.0586271016402
20
-19.8562955714517
30
-1E-16
41
1
10
65.1383417628058
20
-19.8566214289177
30
0
0
SPLINE
5
139
100
AcDbEntity
8
SK1
62
256
6
ByLayer
370
-1
48
1
60
0
100
AcDbSpline
70
4
71
2
72
6
73
3
40
0
40
0
40
0
40
1
40
1
40
1
41
1
10
-2.19492113517948
20
17.5202263833813
30
2E-16
41
1
10
-2.59746056758976
20
17.5101131917169
30
1E-16
41
1
10
-2.99999999999999
20
17.5000000000525
30
1E-16
0
SPLINE
5
13A
100
AcDbEntity
8
SK1
62
256
6
ByLayer
370
-1
48
1
60
0
100
AcDbSpline
70
4
71
2
72
6
73
3
40
0
40
0
40
0
40
1
40
1
40
1
41
1
10
-3.00000000000001
20
-17.5000000000206
30
1E-16
41
1
10
-2.59746056758976
20
-17.5101131916849
30
1E-16
41
1
10
-2.19492113517951
20
-17.5202263833493
30
2E-16
0
SPLINE
5
13B
100
AcDbEntity
8
SK1
62
256
6
ByLayer
370
-1
48
1
60
0
100
AcDbSpline
70
4
71
2
72
6
73
3
40
0
40
0
40
0
40
1
40
1
40
1
41
1
10
-2.99999999999999
20
17.5000000000525
30
1E-16
41
1
10
-15.7502365839532
20
17.179669677213
30
2E-16
41
1
10
-28.5004731679065
20
16.8593393543734
30
-1E-16
0
SPLINE
5
13C
100
AcDbEntity
8
SK1
62
256
6
ByLayer
370
-1
48
1
60
0
100
AcDbSpline
70
4
71
2
72
6
73
3
40
0
40
0
40
0
40
1
40
1
40
1
41
1
10
-28.5004731679065
20
-16.8593393543426
30
-1E-16
41
1
10
-15.7502365839533
20
-17.1796696771816
30
2E-16
41
1
10
-3.00000000000001
20
-17.5000000000206
30
1E-16
0
SPLINE
5
13D
100
AcDbEntity
8
SK1
62
256
6
ByLayer
370
-1
48
1
60
0
100
AcDbSpline
70
4
71
3
72
13
73
9
40
0
40
0
40
0
40
0
40
0.239468143100831
40
0.368375717557208
40
0.500016413682447
40
0.63165438007083
40
0.760554427529275
40
1
40
1
40
1
40
1
41
1
10
-1.99999999999999
20
17.3251501409625
30
2E-16
41
1
10
-2.0260719586289
20
17.325403217187
30
2E-16
41
1
10
-2.06363514911797
20
17.3325204701497
30
2E-16
41
1
10
-2.1104780508021
20
17.3567460306056
30
2E-16
41
1
10
-2.14242236455515
20
17.3827213492788
30
2E-16
41
1
10
-2.16840047419724
20
17.4146623713528
30
2E-16
41
1
10
-2.1926286185662
20
17.4615002450206
30
2E-16
41
1
10
-2.19974657466869
20
17.4990601036779
30
2E-16
41
1
10
-2.19999999999997
20
17.5251299249898
30
2E-16
0
SPLINE
5
13E
100
AcDbEntity
8
SK1
62
256
6
ByLayer
370
-1
48
1
60
0
100
AcDbSpline
70
4
71
3
72
13
73
9
40
0
40
0
40
0
40
0
40
0.239445575724692
40
0.368345624848242
40
0.499983592440372
40
0.631624288955268
40
0.76053186267547
40
1
40
1
40
1
40
1
41
1
10
-2.20000000000002
20
-17.5251299251293
30
2E-16
41
1
10
-2.19974657467482
20
-17.4990601038705
30
2E-16
41
1
10
-2.19262861856454
20
-17.4615002452732
30
2E-16
41
1
10
-2.16840047423855
20
-17.4146623717453
30
2E-16
41
1
10
-2.1424223646455
20
-17.3827213497401
30
2E-16
41
1
10
-2.11047805094361
20
-17.3567460311216
30
2E-16
41
1
10
-2.06363514965119
20
-17.3325204707744
30
2E-16
41
1
10
-2.02607195888457
20
-17.3254032177992
30
2E-16
41
1
10
-2.00000000000001
20
-17.325150141407
30
2E-16
0
SPLINE
5
13F
100
AcDbEntity
8
SK1
62
256
6
ByLayer
370
-1
48
1
60
0
100
AcDbSpline
70
4
71
2
72
6
73
3
40
0
40
0
40
0
40
1
40
1
40
1
41
1
10
-0.399999999999991
20
17.3251501409625
30
-2E-16
41
1
10
-1.19999999999999
20
17.3251501409624
30
2E-16
41
1
10
-1.99999999999999
20
17.3251501409625
30
2E-16
0
SPLINE
5
140
100
AcDbEntity
8
SK1
62
256
6
ByLayer
370
-1
48
1
60
0
100
AcDbSpline
70
4
71
2
72
6
73
3
40
0
40
0
40
0
40
1
40
1
40
1
41
1
10
-2
20
-17.325150141407
30
2E-16
41
1
10
-1.20000000000002
20
-17.325150141407
30
2E-16
41
1
10
-0.40000000000002
20
-17.325150141407
30
-2E-16
0
SPLINE
5
141
100
AcDbEntity
8
SK1
62
256
6
ByLayer
370
-1
48
1
60
0
100
AcDbSpline
70
4
71
2
72
6
73
3
40
0
40
0
40
0
40
1
40
1
40
1
41
1
10
-28.5003904504266
20
16.8597456617467
30
-1E-16
41
1
10
-29.2501952787077
20
16.401025384587
30
-2E-16
41
1
10
-30
20
15.9423013487184
30
-2E-16
0
SPLINE
5
142
100
AcDbEntity
8
SK1
62
256
6
ByLayer
370
-1
48
1
60
0
100
AcDbSpline
70
4
71
2
72
6
73
3
40
0
40
0
40
0
40
1
40
1
40
1
41
1
10
-30
20
-15.9408160639396
30
-2E-16
41
1
10
-29.250201613525
20
-16.3993636736337
30
-2E-16
41
1
10
-28.5004032853135
20
-16.8579102610955
30
-1E-16
0
SPLINE
5
143
100
AcDbEntity
8
SK1
62
256
6
ByLayer
370
-1
48
1
60
0
100
AcDbSpline
70
4
71
3
72
11
73
7
40
0
40
0
40
0
40
0
40
0.245755007744088
40
0.501794198210984
40
0.756953870258405
40
1
40
1
40
1
40
1
41
1
10
-0.200000000000003
20
17.5191731511751
30
-2E-16
41
1
10
-0.199994647676405
20
17.4938449669988
30
-2E-16
41
1
10
-0.209350242264577
20
17.4456228534319
30
-2E-16
41
1
10
-0.25417818424657
20
17.3766360753191
30
-2E-16
41
1
10
-0.324420736760786
20
17.3327598281098
30
-2E-16
41
1
10
-0.373991067023653
20
17.3239685556463
30
-2E-16
41
1
10
-0.400000000000006
20
17.3241476526063
30
-2E-16
0
SPLINE
5
144
100
AcDbEntity
8
SK1
62
256
6
ByLayer
370
-1
48
1
60
0
100
AcDbSpline
70
4
71
3
72
11
73
7
40
0
40
0
40
0
40
0
40
0.243046950855006
40
0.498204668192468
40
0.754242469704687
40
1
40
1
40
1
40
1
41
1
10
-0.400000000000034
20
-17.3241468641749
30
-2E-16
41
1
10
-0.373991174653824
20
-17.3239674893691
30
-2E-16
41
1
10
-0.32442120264767
20
-17.3327583040751
30
-2E-16
41
1
10
-0.254178044541192
20
-17.3766339294132
30
-2E-16
41
1
10
-0.209350044376123
20
-17.4456203921357
30
-2E-16
41
1
10
-0.199994500672233
20
-17.4938412312527
30
-2E-16
41
1
10
-0.200000000000031
20
-17.519168835571
30
-2E-16
0
SPLINE
5
145
100
AcDbEntity
8
1
62
256
6
ByLayer
370
-1
48
1
60
0
100
AcDbSpline
70
4
71
3
72
8
73
4
40
0
40
0
40
0
40
0
40
1
40
1
40
1
40
1
41
1
10
74.5097795535935
20
-2.05535661334875
30
0
41
1
10
74.5510661756035
20
-1.7047860480917
30
0
41
1
10
74.5923576173941
20
-1.35422705836425
30
0
41
1
10
74.6336532914788
20
-1.00367882825233
30
0
0
SPLINE
5
146
100
AcDbEntity
8
1
62
256
6
ByLayer
370
-1
48
1
60
0
100
AcDbSpline
70
4
71
3
72
9
73
5
40
0
40
0
40
0
40
0
40
0.441029295088217
40
1
40
1
40
1
40
1
41
1
10
74.8037704629474
20
0.440099542462917
30
0
41
1
10
74.8284520789544
20
0.649519956561647
30
0
41
1
10
74.8844213523425
20
1.12435221081327
30
0
41
1
10
74.9404062462097
20
1.59914889598031
30
0
41
1
10
74.9717045793327
20
1.86453639917863
30
0
0
SPLINE
5
147
100
AcDbEntity
8
1
62
256
6
ByLayer
370
-1
48
1
60
0
100
AcDbSpline
70
4
71
3
72
13
73
9
40
0
40
0
40
0
40
0
40
0.0123422839109351
40
0.0820717501821791
40
0.163462342579391
40
0.452333181222894
40
0.884758324182145
40
1
40
1
40
1
40
1
41
1
10
74.2819180127316
20
-1.6448809615421
30
0
41
1
10
74.2820767446407
20
-1.64488861147379
30
0
41
1
10
74.2831627704156
20
-1.64398646260463
30
0
41
1
10
74.2857052029376
20
-1.62927945422285
30
0
41
1
10
74.2927269830288
20
-1.54908865295485
30
0
41
1
10
74.3046720927369
20
-1.34227638586515
30
0
41
1
10
74.3169250847659
20
-1.1223218041581
30
0
41
1
10
74.3251187105578
20
-0.975131987293196
30
0
41
1
10
74.3268508262799
20
-0.944039893604014
30
0
0
SPLINE
5
148
100
AcDbEntity
8
1
62
256
6
ByLayer
370
-1
48
1
60
0
100
AcDbSpline
70
4
71
3
72
11
73
7
40
0
40
0
40
0
40
0
40
0.274256593230864
40
0.576517932489307
40
0.848812576019697
40
1
40
1
40
1
40
1
41
1
10
73.8932656273816
20
-2.12452402944936
30
-1E-16
41
1
10
73.8628223141563
20
-2.13208684832284
30
-1E-16
41
1
10
73.7996070147496
20
-2.14790486958012
30
-1E-16
41
1
10
73.7079242798593
20
-2.17123430922251
30
-1E-16
41
1
10
73.6332559830037
20
-2.1905031539242
30
-1E-16
41
1
10
73.5898170900381
20
-2.20172942380896
30
-1E-16
41
1
10
73.5742901622592
20
-2.20574380371261
30
-1E-16
0
SPLINE
5
149
100
AcDbEntity
8
1
62
256
6
ByLayer
370
-1
48
1
60
0
100
AcDbSpline
70
4
71
1
72
4
73
2
40
0
40
0
40
1
40
1
41
1
10
73.9968644673201
20
-2.09859553194329
30
-1E-16
41
1
10
73.8932656273816
20
-2.12452402944936
30
-1E-16
0
SPLINE
5
14A
100
AcDbEntity
8
1
62
256
6
ByLayer
370
-1
48
1
60
0
100
AcDbSpline
70
4
71
3
72
26
73
22
40
0
40
0
40
0
40
0
40
0.0576376636793252
40
0.0576376636793252
40
0.18026619819636
40
0.18026619819636
40
0.301555243637003
40
0.301555243637003
40
0.41587543267916
40
0.41587543267916
40
0.522512163404607
40
0.522512163404607
40
0.623648242625381
40
0.623648242625381
40
0.722087948188478
40
0.722087948188478
40
0.820554481776336
40
0.820554481776336
40
0.92177091636118
40
0.92177091636118
40
1
40
1
40
1
40
1
41
1
10
69.8624699059797
20
9.12954832226771
30
-3E-16
41
1
10
69.841401070401
20
9.04894884425329
30
-3E-16
41
1
10
69.8275005160951
20
8.96641166544902
30
-3E-16
41
1
10
69.8072968486028
20
8.70768742117062
30
-3E-16
41
1
10
69.827263434351
20
8.52616223660712
30
-3E-16
41
1
10
69.9333945598389
20
8.18505177247354
30
-3E-16
41
1
10
70.020606946335
20
8.02021521831998
30
-3E-16
41
1
10
70.2454327334594
20
7.74190944632429
30
-3E-16
41
1
10
70.3833395037774
20
7.6220612067961
30
-3E-16
41
1
10
70.6830370939247
20
7.44548871917965
30
-3E-16
41
1
10
70.846968508191
20
7.38264394967177
30
-3E-16
41
1
10
71.1754750647188
20
7.31764553503763
30
-2E-16
41
1
10
71.3441759113986
20
7.31167595504246
30
-2E-16
41
1
10
71.6653894456783
20
7.35229558684176
30
-2E-16
41
1
10
71.8225733783472
20
7.39803470590601
30
-2E-16
41
1
10
72.1087172443896
20
7.5322948058766
30
-2E-16
41
1
10
72.2414732501968
20
7.62254929561027
30
-2E-16
41
1
10
72.4699450526998
20
7.83580476973472
30
-2E-16
41
1
10
72.5675520088472
20
7.96233211725678
30
-1E-16
41
1
10
72.6981381218183
20
8.20098991807515
30
-1E-16
41
1
10
72.7418183699077
20
8.31169852978491
30
-1E-16
41
1
10
72.7710480836954
20
8.42392690802822
30
-1E-16
0
SPLINE
5
14B
100
AcDbEntity
8
1
62
256
6
ByLayer
370
-1
48
1
60
0
100
AcDbSpline
70
4
71
3
72
14
73
10
40
0
40
0
40
0
40
0
40
0.0505031312119351
40
0.0505031312119351
40
0.389276633682285
40
0.389276633682285
40
0.724018341543037
40
0.724018341543037
40
1
40
1
40
1
40
1
41
1
10
64.4428435821765
20
18.2479807185318
30
2E-16
41
1
10
64.4242831209534
20
18.2454137018917
30
2E-16
41
1
10
64.4057821556136
20
18.2429657307238
30
2E-16
41
1
10
64.2640161564635
20
18.2250736186934
30
2E-16
41
1
10
64.1414359719446
20
18.2146908302546
30
2E-16
41
1
10
63.9205280712675
20
18.2057943561249
30
2E-16
41
1
10
63.8187530695907
20
18.2070102311409
30
2E-16
41
1
10
63.6653071329373
20
18.2187729919297
30
2E-16
41
1
10
63.6063370629663
20
18.2277682456743
30
2E-16
41
1
10
63.5624471390865
20
18.239626799429
30
2E-16
0
SPLINE
5
14C
100
AcDbEntity
8
1
62
256
6
ByLayer
370
-1
48
1
60
0
100
AcDbSpline
70
4
71
3
72
14
73
10
40
0
40
0
40
0
40
0
40
0.13537285185205
40
0.13537285185205
40
0.447757482378344
40
0.447757482378344
40
0.769801733978519
40
0.769801733978519
40
1
40
1
40
1
40
1
41
1
10
67.715336598849
20
4.67971494724219
30
-4E-16
41
1
10
67.6916025792208
20
4.73707599620215
30
-4E-16
41
1
10
67.6634738608269
20
4.79280394897941
30
-4E-16
41
1
10
67.5578252237473
20
4.96844746957797
30
-5E-16
41
1
10
67.4617804125405
20
5.07980397313804
30
-5E-16
41
1
10
67.237556227988
20
5.26731934695195
30
-5E-16
41
1
10
67.1055237833763
20
5.34484629002918
30
-5E-16
41
1
10
66.8653309415002
20
5.43890429557663
30
-5E-16
41
1
10
66.7593281287629
20
5.46722441760409
30
-5E-16
41
1
10
66.6519661992591
20
5.48360684903489
30
-5E-16
0
SPLINE
5
14D
100
AcDbEntity
8
1
62
256
6
ByLayer
370
-1
48
1
60
0
100
AcDbSpline
70
4
71
3
72
10
73
6
40
0
40
0
40
0
40
0
40
0.767405127444941
40
0.767405127444941
40
1
40
1
40
1
40
1
41
1
10
73.6826849893724
20
-2.54973003418778
30
-1E-16
41
1
10
73.7578171267207
20
-2.63133300022946
30
-1E-16
41
1
10
73.8435396358112
20
-2.69374027022121
30
-1E-16
41
1
10
73.9568500168382
20
-2.7561742656475
30
-1E-16
41
1
10
73.9836578614233
20
-2.76948998726539
30
-1E-16
41
1
10
74.0106146093248
20
-2.78159045974206
30
-1E-16
0
SPLINE
5
14E
100
AcDbEntity
8
1
62
256
6
ByLayer
370
-1
48
1
60
0
100
AcDbSpline
70
4
71
3
72
8
73
4
40
0
40
0
40
0
40
0
40
1
40
1
40
1
40
1
41
1
10
73.6113964685214
20
-1.7708086407051
30
-1E-16
41
1
10
73.5531863785072
20
-1.55330397652207
30
-1E-16
41
1
10
73.53623838
20
-1.32425828672487
30
-1E-16
41
1
10
73.53623838
20
-1.09795416045822
30
-1E-16
0
SPLINE
5
14F
100
AcDbEntity
8
1
62
256
6
ByLayer
370
-1
48
1
60
0
100
AcDbSpline
70
4
71
3
72
18
73
14
40
0
40
0
40
0
40
0
40
0.080980596032093
40
0.080980596032093
40
0.544227292214085
40
0.544227292214085
40
0.699318265621666
40
0.699318265621666
40
0.85634627435648
40
0.85634627435648
40
0.966571999538837
40
0.966571999538837
40
1
40
1
40
1
40
1
41
1
10
8.10566243270262
20
8.05584836782757
30
-5E-16
41
1
10
8.11065289887438
20
8.03731605051101
30
-5E-16
41
1
10
8.11597900857613
20
8.01885383673346
30
-5E-16
41
1
10
8.1540017208951
20
7.89611164850137
30
-5E-16
41
1
10
8.19777443618254
20
7.79219397274073
30
-5E-16
41
1
10
8.28487257800728
20
7.67169814060108
30
-5E-16
41
1
10
8.30967508046024
20
7.64266520230251
30
-5E-16
41
1
10
8.36604668219431
20
7.59122859579512
30
-5E-16
41
1
10
8.39837750681671
20
7.56839473241348
30
-5E-16
41
1
10
8.4588957642362
20
7.54154007085754
30
-5E-16
41
1
10
8.48604318765895
20
7.53384342094319
30
-5E-16
41
1
10
8.52183069664623
20
7.5301083337724
30
-5E-16
41
1
10
8.53025906116032
20
7.52966679426484
30
-5E-16
41
1
10
8.53867513459481
20
7.52966679426484
30
-5E-16
0
SPLINE
5
150
100
AcDbEntity
8
1
62
256
6
ByLayer
370
-1
48
1
60
0
100
AcDbSpline
70
4
71
3
72
18
73
14
40
0
40
0
40
0
40
0
40
0.0809805960320811
40
0.0809805960320811
40
0.544227292214062
40
0.544227292214062
40
0.699318265621656
40
0.699318265621656
40
0.856346274356478
40
0.856346274356478
40
0.966571999538818
40
0.966571999538818
40
1
40
1
40
1
40
1
41
1
10
8.10566243270257
20
-23.6665017920811
30
-5E-16
41
1
10
8.11065289887433
20
-23.6728100136982
30
-5E-16
41
1
10
8.11597900857609
20
-23.6790700603509
30
-5E-16
41
1
10
8.15400172089505
20
-23.7205303134151
30
3E-16
41
1
10
8.19777443618248
20
-23.7548029562661
30
4E-16
41
1
10
8.28487257800722
20
-23.7938243006293
30
4E-16
41
1
10
8.3096750804602
20
-23.8031592998671
30
4E-16
41
1
10
8.36604668219427
20
-23.8196134016843
30
4E-16
41
1
10
8.39837750681667
20
-23.8268687494614
30
4E-16
41
1
10
8.45889576423615
20
-23.8353793525424
30
4E-16
41
1
10
8.48604318765891
20
-23.8378105604687
30
4E-16
41
1
10
8.52183069664618
20
-23.8389905264496
30
4E-16
41
1
10
8.53025906116028
20
-23.8391299750505
30
4E-16
41
1
10
8.53867513459477
20
-23.8391299750505
30
4E-16
0
SPLINE
5
151
100
AcDbEntity
8
1
62
256
6
ByLayer
370
-1
48
1
60
0
100
AcDbSpline
70
4
71
3
72
18
73
14
40
0
40
0
40
0
40
0
40
0.0177088945449557
40
0.0177088945449557
40
0.129858201561114
40
0.129858201561114
40
0.298368407081933
40
0.298368407081933
40
0.537357423161477
40
0.537357423161477
40
0.870131527779926
40
0.870131527779926
40
1
40
1
40
1
40
1
41
1
10
39.2522427664519
20
-18.3908701976914
30
0
41
1
10
39.259596793107
20
-18.3871772182434
30
0
41
1
10
39.2675692216407
20
-18.3834658675615
30
0
41
1
10
39.3299556679352
20
-18.3563479461652
30
0
41
1
10
39.4080291176457
20
-18.3323225927193
30
0
41
1
10
39.6415936441684
20
-18.2752623139748
30
1E-16
41
1
10
39.8194998402277
20
-18.2427881213858
30
1E-16
41
1
10
40.2865698171765
20
-18.1754334386797
30
-3E-16
41
1
10
40.5993892826864
20
-18.143828532115
30
-3E-16
41
1
10
41.3644493109445
20
-18.0917934823872
30
-3E-16
41
1
10
41.8383595729821
20
-18.0793825365318
30
-3E-16
41
1
10
42.4840999556644
20
-18.0851887760735
30
-2E-16
41
1
10
42.665973806109
20
-18.0893205562481
30
-2E-16
41
1
10
42.8460007001249
20
-18.0957574041967
30
-2E-16
0
SPLINE
5
152
100
AcDbEntity
8
1
62
256
6
ByLayer
370
-1
48
1
60
0
100
AcDbSpline
70
4
71
3
72
8
73
4
40
0
40
0
40
0
40
0
40
1
40
1
40
1
40
1
41
1
10
63.43676769338
20
12.4503159874844
30
-7E-16
41
1
10
62.2409295244859
20
12.3997516663429
30
-8E-16
41
1
10
61.0555450738242
20
12.4600906029781
30
-9E-16
41
1
10
59.8814713879952
20
12.6360817229587
30
9E-16
0
SPLINE
5
153
100
AcDbEntity
8
1
62
256
6
ByLayer
370
-1
48
1
60
0
100
AcDbSpline
70
4
71
3
72
8
73
4
40
0
40
0
40
0
40
0
40
1
40
1
40
1
40
1
41
1
10
73.6252048024892
20
11.7305139729918
30
-1E-16
41
1
10
73.66830305057
20
11.9885964548771
30
-1E-16
41
1
10
73.6780770291822
20
12.2490348833047
30
-1E-16
41
1
10
73.6252048024892
20
12.494059379694
30
-1E-16
0
SPLINE
5
154
100
AcDbEntity
8
1
62
256
6
ByLayer
370
-1
48
1
60
0
100
AcDbSpline
70
4
71
3
72
8
73
4
40
0
40
0
40
0
40
0
40
1
40
1
40
1
40
1
41
1
10
63.5098472784313
20
2.89578740661483
30
-7E-16
41
1
10
63.5238623043229
20
2.94247189776704
30
-7E-16
41
1
10
63.5414970502842
20
2.98831660279171
30
-7E-16
41
1
10
63.562447139085
20
3.03256757718495
30
-7E-16
0
SPLINE
5
155
100
AcDbEntity
8
1
62
256
6
ByLayer
370
-1
48
1
60
0
100
AcDbSpline
70
4
71
3
72
8
73
4
40
0
40
0
40
0
40
0
40
1
40
1
40
1
40
1
41
1
10
65.9190919671318
20
4.78859825908188
30
-6E-16
41
1
10
65.8468932236329
20
4.76229336735295
30
-6E-16
41
1
10
65.7774735937957
20
4.72771772951205
30
-6E-16
41
1
10
65.7136407658477
20
4.68614395625201
30
-6E-16
0
SPLINE
5
156
100
AcDbEntity
8
1
62
256
6
ByLayer
370
-1
48
1
60
0
100
AcDbSpline
70
4
71
3
72
8
73
4
40
0
40
0
40
0
40
0
40
1
40
1
40
1
40
1
41
1
10
70.4771405108644
20
12.9416315411127
30
-1E-16
41
1
10
70.4954962294048
20
12.9537360028332
30
-1E-16
41
1
10
70.5135150971346
20
12.966314597694
30
-1E-16
41
1
10
70.5311551830354
20
12.9793456555605
30
-1E-16
0
SPLINE
5
157
100
AcDbEntity
8
1
62
256
6
ByLayer
370
-1
48
1
60
0
100
AcDbSpline
70
4
71
3
72
8
73
4
40
0
40
0
40
0
40
0
40
1
40
1
40
1
40
1
41
1
10
73.53623838
20
-3.75861572182808
30
-1E-16
41
1
10
73.53623838
20
-3.18359827897544
30
-1E-16
41
1
10
73.4548157416443
20
-2.60673512569272
30
-1E-16
41
1
10
73.3019238049496
20
-2.04812745012063
30
-1E-16
0
SPLINE
5
158
100
AcDbEntity
8
1
62
256
6
ByLayer
370
-1
48
1
60
0
100
AcDbSpline
70
4
71
3
72
8
73
4
40
0
40
0
40
0
40
0
40
1
40
1
40
1
40
1
41
1
10
63.4367676933802
20
12.4503159874835
30
-7E-16
41
1
10
63.4787243481678
20
12.452090065132
30
-7E-16
41
1
10
63.5209873187763
20
12.4545015466971
30
-7E-16
41
1
10
63.5624471390895
20
12.4574947750682
30
-7E-16
0
SPLINE
5
159
100
AcDbEntity
8
1
62
256
6
ByLayer
370
-1
48
1
60
0
100
AcDbSpline
70
4
71
3
72
8
73
4
40
0
40
0
40
0
40
0
40
1
40
1
40
1
40
1
41
1
10
63.7407990849426
20
12.4712450006672
30
-7E-16
41
1
10
63.6813345855318
20
12.4663692574788
30
-7E-16
41
1
10
63.6218813947642
20
12.4617856836869
30
-7E-16
41
1
10
63.5624471390893
20
12.4574947750686
30
-7E-16
0
SPLINE
5
15A
100
AcDbEntity
8
1
62
256
6
ByLayer
370
-1
48
1
60
0
100
AcDbSpline
70
4
71
3
72
8
73
4
40
0
40
0
40
0
40
0
40
1
40
1
40
1
40
1
41
1
10
63.7407990849425
20
-14.3455625482082
30
-7E-16
41
1
10
64.6893959496278
20
-14.4815095738884
30
-6E-16
41
1
10
65.6380066085501
20
-14.6173639760753
30
-6E-16
41
1
10
66.5866299503849
20
-14.753133051849
30
-5E-16
0
SPLINE
5
15B
100
AcDbEntity
8
1
62
256
6
ByLayer
370
-1
48
1
60
0
100
AcDbSpline
70
4
71
3
72
8
73
4
40
0
40
0
40
0
40
0
40
1
40
1
40
1
40
1
41
1
10
74.0897917705933
20
-8.06056251521369
30
-1E-16
41
1
10
73.9520727447578
20
-7.85174071760295
30
-1E-16
41
1
10
73.8162697699362
20
-7.64163668666609
30
-1E-16
41
1
10
73.6826849894067
20
-7.43014058495422
30
-1E-16
0
SPLINE
5
15C
100
AcDbEntity
8
1
62
256
6
ByLayer
370
-1
48
1
60
0
100
AcDbSpline
70
4
71
3
72
8
73
4
40
0
40
0
40
0
40
0
40
1
40
1
40
1
40
1
41
1
10
66.5866299503849
20
12.7045529473361
30
-5E-16
41
1
10
66.6082212806164
20
12.7063228073563
30
-5E-16
41
1
10
66.6301394222309
20
12.7079033512991
30
-5E-16
41
1
10
66.651966199259
20
12.7092652258208
30
-5E-16
0
SPLINE
5
15D
100
AcDbEntity
8
1
62
256
6
ByLayer
370
-1
48
1
60
0
100
AcDbSpline
70
4
71
3
72
8
73
4
40
0
40
0
40
0
40
0
40
1
40
1
40
1
40
1
41
1
10
63.4367676933801
20
18.2549197526556
30
2E-16
41
1
10
63.4611662583962
20
18.2556265148649
30
2E-16
41
1
10
63.4855760373355
20
18.2574478656973
30
2E-16
41
1
10
63.5098472784313
20
18.2603690087873
30
2E-16
0
SPLINE
5
15E
100
AcDbEntity
8
1
62
256
6
ByLayer
370
-1
48
1
60
0
100
AcDbSpline
70
4
71
3
72
14
73
10
40
0
40
0
40
0
40
0
40
0.12114696602886
40
0.12114696602886
40
0.433197308385078
40
0.433197308385078
40
0.754719149178467
40
0.754719149178467
40
1
40
1
40
1
40
1
41
1
10
67.715336598849
20
-18.8928977837656
30
0
41
1
10
67.6940808077859
20
-18.8838912401069
30
0
41
1
10
67.6693088220035
20
-18.8747770094791
30
0
41
1
10
67.5697465865869
20
-18.8424558704904
30
0
41
1
10
67.475548377727
20
-18.8190780931968
30
0
41
1
10
67.254565215691
20
-18.7764769224134
30
0
41
1
10
67.1239723418296
20
-18.7568623285649
30
0
41
1
10
66.8790682267415
20
-18.7295573159342
30
-1E-16
41
1
10
66.7662633584264
20
-18.7199232648328
30
-1E-16
41
1
10
66.6519661992591
20
-18.7130962359622
30
-1E-16
0
SPLINE
5
15F
100
AcDbEntity
8
1
62
256
6
ByLayer
370
-1
48
1
60
0
100
AcDbSpline
70
4
71
3
72
16
73
12
40
0
40
0
40
0
40
0
40
0.0773436766578825
40
0.0773436766578825
40
0.181588290672629
40
0.181588290672629
40
0.353924998170037
40
0.353924998170037
40
0.659870482236134
40
0.659870482236134
40
1
40
1
40
1
40
1
41
1
10
11.4613248654052
20
7.52966679426481
30
-3E-16
41
1
10
11.4806912734381
20
7.52966679426481
30
-3E-16
41
1
10
11.5001920479834
20
7.53205286469685
30
-3E-16
41
1
10
11.5443643455559
20
7.54265601007364
30
-3E-16
41
1
10
11.5688999660418
20
7.55272636772341
30
-3E-16
41
1
10
11.6286300521075
20
7.58609718460585
30
-3E-16
41
1
10
11.6615871427901
20
7.61407037421804
30
-3E-16
41
1
10
11.7407360052433
20
7.69895209889242
30
-3E-16
41
1
10
11.7798892743245
20
7.76300791758396
30
-3E-16
41
1
10
11.8468244213921
20
7.9016758930583
30
-3E-16
41
1
10
11.8734747805013
20
7.97837348437835
30
-3E-16
41
1
10
11.8943375672974
20
8.05584836782754
30
-3E-16
0
SPLINE
5
160
100
AcDbEntity
8
1
62
256
6
ByLayer
370
-1
48
1
60
0
100
AcDbSpline
70
4
71
3
72
14
73
10
40
0
40
0
40
0
40
0
40
0.25
40
0.25
40
0.5
40
0.5
40
0.75
40
0.75
40
1
40
1
40
1
40
1
41
1
10
46.5931746946309
20
-12.1031947351805
30
0
41
1
10
44.8232949136104
20
-11.786922584238
30
-1E-16
41
1
10
43.1713066652932
20
-11.1397571264909
30
-2E-16
41
1
10
40.5387659092264
20
-9.0976690075351
30
1.4E-15
41
1
10
39.5686303505927
20
-7.67535709967444
30
1.4E-15
41
1
10
38.4505973910326
20
-4.42589379743717
30
1.3E-15
41
1
10
38.2696211003015
20
-2.62118053118175
30
1.3E-15
41
1
10
38.4083953011721
20
0.977022787963875
30
1.3E-15
41
1
10
38.7215682123141
20
2.76378680138174
30
1.3E-15
41
1
10
39.252242766452
20
4.44928615167021
30
1.4E-15
0
SPLINE
5
161
100
AcDbEntity
8
1
62
256
6
ByLayer
370
-1
48
1
60
0
100
AcDbSpline
70
4
71
3
72
8
73
4
40
0
40
0
40
0
40
0
40
1
40
1
40
1
40
1
41
1
10
73.6252048024891
20
-16.2811016100186
30
-1E-16
41
1
10
73.66830305057
20
-16.1081245193454
30
-1E-16
41
1
10
73.6780770291821
20
-15.9217309908891
30
-1E-16
41
1
10
73.6252048024891
20
-15.7338078237283
30
-1E-16
0
SPLINE
5
162
100
AcDbEntity
8
1
62
256
6
ByLayer
370
-1
48
1
60
0
100
AcDbSpline
70
4
71
3
72
8
73
4
40
0
40
0
40
0
40
0
40
1
40
1
40
1
40
1
41
1
10
63.4367676933801
20
-18.5665375172979
30
0
41
1
10
63.4611662583962
20
-18.5667895626865
30
0
41
1
10
63.4855760373354
20
-18.5681629043561
30
0
41
1
10
63.5098472784312
20
-18.5706454719499
30
0
0
SPLINE
5
163
100
AcDbEntity
8
1
62
256
6
ByLayer
370
-1
48
1
60
0
100
AcDbSpline
70
4
71
3
72
10
73
6
40
0
40
0
40
0
40
0
40
0.363940738598385
40
0.363940738598385
40
1
40
1
40
1
40
1
41
1
10
65.4080135132614
20
12.9954713558464
30
3E-16
41
1
10
65.4352961088426
20
13.0036692158964
30
3E-16
41
1
10
65.4666636944731
20
13.0093317910444
30
3E-16
41
1
10
65.5621493942618
20
13.0168176300726
30
3E-16
41
1
10
65.6348755704668
20
13.0123774067761
30
3E-16
41
1
10
65.7136407658477
20
13.0014190700854
30
3E-16
0
SPLINE
5
164
100
AcDbEntity
8
1
62
256
6
ByLayer
370
-1
48
1
60
0
100
AcDbSpline
70
4
71
3
72
8
73
4
40
0
40
0
40
0
40
0
40
1
40
1
40
1
40
1
41
1
10
63.4367676933801
20
-14.3120695946672
30
-7E-16
41
1
10
63.4787243481678
20
-14.3105438349574
30
-7E-16
41
1
10
63.5209873187763
20
-14.3129578295282
30
-7E-16
41
1
10
63.5624471390896
20
-14.3192496873828
30
-7E-16
0
SPLINE
5
165
100
AcDbEntity
8
1
62
256
6
ByLayer
370
-1
48
1
60
0
100
AcDbSpline
70
4
71
3
72
10
73
6
40
0
40
0
40
0
40
0
40
0.5
40
0.5
40
1
40
1
40
1
40
1
41
1
10
39.2522427664522
20
4.44928615167058
30
1.4E-15
41
1
10
39.4585186074017
20
5.10444813972703
30
1.4E-15
41
1
10
40.1065040788499
20
5.53891340300669
30
1.4E-15
41
1
10
41.4318293636501
20
5.97596889600621
30
1.5E-15
41
1
10
42.1545369177813
20
6.011933646854
30
1.5E-15
41
1
10
42.846000700123
20
5.91165759491955
30
1.6E-15
0
SPLINE
5
166
100
AcDbEntity
8
1
62
256
6
ByLayer
370
-1
48
1
60
0
100
AcDbSpline
70
4
71
3
72
12
73
8
40
0
40
0
40
0
40
0
40
0.105046979859916
40
0.105046979859916
40
0.786039733475054
40
0.786039733475054
40
1
40
1
40
1
40
1
41
1
10
74.23623838
20
-8.60485985953412
30
0
41
1
10
74.23623838
20
-8.58477616622255
30
0
41
1
10
74.2357332970115
20
-8.56468875049163
30
0
41
1
10
74.2282343421627
20
-8.41611566011224
30
0
41
1
10
74.2011009375265
20
-8.28592379713896
30
0
41
1
10
74.1318865555891
20
-8.13118194342243
30
-1E-16
41
1
10
74.1123711865937
20
-8.09479942771338
30
-1E-16
41
1
10
74.0897917705974
20
-8.06056251521144
30
-1E-16
0
SPLINE
5
167
100
AcDbEntity
8
1
62
256
6
ByLayer
370
-1
48
1
60
0
100
AcDbSpline
70
4
71
3
72
10
73
6
40
0
40
0
40
0
40
0
40
0.531265964771275
40
0.531265964771275
40
1
40
1
40
1
40
1
41
1
10
69.2040620689283
20
12.886615375855
30
1E-16
41
1
10
69.1789121933113
20
12.9027331980752
30
1E-16
41
1
10
69.155010921552
20
12.9207245086856
30
1E-16
41
1
10
69.1122103203943
20
12.9581129653487
30
1E-16
41
1
10
69.0930064386337
20
12.9771530100334
30
1E-16
41
1
10
69.0746848950405
20
12.9976140506144
30
1E-16
0
SPLINE
5
168
100
AcDbEntity
8
1
62
256
6
ByLayer
370
-1
48
1
60
0
100
AcDbSpline
70
4
71
3
72
8
73
4
40
0
40
0
40
0
40
0
40
1
40
1
40
1
40
1
41
1
10
38.5864104339498
20
-18.6108424231749
30
0
41
1
10
38.7420127947064
20
-18.6097851002963
30
0
41
1
10
38.9653413836965
20
-18.5349437725951
30
0
41
1
10
39.2522427664519
20
-18.3908701976914
30
0
0
SPLINE
5
169
100
AcDbEntity
8
1
62
256
6
ByLayer
370
-1
48
1
60
0
100
AcDbSpline
70
4
71
3
72
8
73
4
40
0
40
0
40
0
40
0
40
1
40
1
40
1
40
1
41
1
10
74.44634625
20
13.669720379153
30
0
41
1
10
74.4161740753949
20
13.4862550369532
30
0
41
1
10
74.3862229414355
20
13.3027523339616
30
0
41
1
10
74.3565108896406
20
13.1192102883452
30
0
0
SPLINE
5
16A
100
AcDbEntity
8
1
62
256
6
ByLayer
370
-1
48
1
60
0
100
AcDbSpline
70
4
71
3
72
8
73
4
40
0
40
0
40
0
40
0
40
1
40
1
40
1
40
1
41
1
10
73.5587151244968
20
11.4245839115504
30
-1E-16
41
1
10
73.5620538937841
20
11.4371933473417
30
-1E-16
41
1
10
73.5653233255902
20
11.4498041177595
30
-1E-16
41
1
10
73.5685216426599
20
11.462415392719
30
-1E-16
0
SPLINE
5
16B
100
AcDbEntity
8
1
62
256
6
ByLayer
370
-1
48
1
60
0
100
AcDbSpline
70
4
71
3
72
8
73
4
40
0
40
0
40
0
40
0
40
1
40
1
40
1
40
1
41
1
10
73.5795895164854
20
11.5072508744249
30
-1E-16
41
1
10
73.5974715709575
20
11.5817456552317
30
-1E-16
41
1
10
73.6127987691979
20
11.6562237174771
30
-1E-16
41
1
10
73.6252048024892
20
11.7305139729918
30
-1E-16
0
SPLINE
5
16C
100
AcDbEntity
8
1
62
256
6
ByLayer
370
-1
48
1
60
0
100
AcDbSpline
70
4
71
2
72
6
73
3
40
0
40
0
40
0
40
1
40
1
40
1
41
0.500000074799242
10
73.2490030829987
20
13.1202766147501
30
-1E-16
41
0.499999925200758
10
73.437135715288
20
13.1319802826631
30
-1E-16
41
0.500000074799242
10
73.6252048024911
20
13.1436779953609
30
-1E-16
0
SPLINE
5
16D
100
AcDbEntity
8
1
62
256
6
ByLayer
370
-1
48
1
60
0
100
AcDbSpline
70
4
71
3
72
10
73
6
40
0
40
0
40
0
40
0
40
0.167120455198375
40
0.167120455198375
40
1
40
1
40
1
40
1
41
1
10
73.0516510844298
20
-0.614626780744828
30
-1E-16
41
1
10
73.0493648805385
20
-0.63920251258179
30
-1E-16
41
1
10
73.0476861165586
20
-0.663864571238122
30
-1E-16
41
1
10
73.0413854202246
20
-0.812009592029767
30
-1E-16
41
1
10
73.0514349000727
20
-0.938614975301306
30
-1E-16
41
1
10
73.0741224528573
20
-1.06020989676554
30
-1E-16
0
SPLINE
5
16E
100
AcDbEntity
8
1
62
256
6
ByLayer
370
-1
48
1
60
0
100
AcDbSpline
70
4
71
3
72
8
73
4
40
0
40
0
40
0
40
0
40
1
40
1
40
1
40
1
41
1
10
73.5587151244968
20
-16.4809129763377
30
-1E-16
41
1
10
73.5857325391614
20
-16.4159813383265
30
-1E-16
41
1
10
73.6082096719333
20
-16.3493124624328
30
-1E-16
41
1
10
73.6252048024891
20
-16.2811016100186
30
-1E-16
0
SPLINE
5
16F
100
AcDbEntity
8
1
62
256
6
ByLayer
370
-1
48
1
60
0
100
AcDbSpline
70
4
71
3
72
18
73
14
40
0
40
0
40
0
40
0
40
0.0900667932070924
40
0.0900667932070924
40
0.295193577591892
40
0.295193577591892
40
0.497216560143013
40
0.497216560143013
40
0.700804841048785
40
0.700804841048785
40
0.909599157263924
40
0.909599157263924
40
1
40
1
40
1
40
1
41
1
10
74.44634625
20
-18.443709009193
30
0
41
1
10
74.44634625
20
-18.4824270881525
30
0
41
1
10
74.4435413164322
20
-18.521266098586
30
0
41
1
10
74.4252882154694
20
-18.6464583891057
30
0
41
1
10
74.397697935753
20
-18.7323532052369
30
0
41
1
10
74.3178938385679
20
-18.8863881281038
30
0
41
1
10
74.2649904803984
20
-18.9568654490356
30
0
41
1
10
74.1411129540723
20
-19.0751782348273
30
-1E-16
41
1
10
74.068367427594
20
-19.1244369818001
30
-1E-16
41
1
10
73.9116846833757
20
-19.1965479636328
30
-1E-16
41
1
10
73.8254297425898
20
-19.2196894333705
30
-1E-16
41
1
10
73.7012480945535
20
-19.2317647747716
30
-1E-16
41
1
10
73.6631142511474
20
-19.2327066657161
30
-1E-16
41
1
10
73.6252048024892
20
-19.2309289755996
30
-1E-16
0
SPLINE
5
170
100
AcDbEntity
8
1
62
256
6
ByLayer
370
-1
48
1
60
0
100
AcDbSpline
70
4
71
3
72
16
73
12
40
0
40
0
40
0
40
0
40
0.0190131882342359
40
0.0190131882342359
40
0.272688777185103
40
0.272688777185103
40
0.532188074593177
40
0.532188074593177
40
0.78859903167695
40
0.78859903167695
40
1
40
1
40
1
40
1
41
1
10
64.7787565367751
20
3.6227324400962
30
-6E-16
41
1
10
64.7697886457613
20
3.62458401542745
30
-6E-16
41
1
10
64.7607932105952
20
3.62632284018437
30
-6E-16
41
1
10
64.6328407639405
20
3.64938491313569
30
-6E-16
41
1
10
64.5080741756606
20
3.65096965505938
30
-6E-16
41
1
10
64.2640161564635
20
3.61402298117301
30
-7E-16
41
1
10
64.1414359719445
20
3.57401086071545
30
-7E-16
41
1
10
63.9205280712675
20
3.45753297543067
30
-7E-16
41
1
10
63.8187530695907
20
3.37974209693544
30
-7E-16
41
1
10
63.6653071329399
20
3.21231039360083
30
-7E-16
41
1
10
63.6063370629707
20
3.12527228675052
30
-7E-16
41
1
10
63.5624471390915
20
3.03256757718282
30
-7E-16
0
SPLINE
5
171
100
AcDbEntity
8
1
62
256
6
ByLayer
370
-1
48
1
60
0
100
AcDbSpline
70
4
71
3
72
16
73
12
40
0
40
0
40
0
40
0
40
0.172034518464007
40
0.172034518464007
40
0.342475680334361
40
0.342475680334361
40
0.537948869223107
40
0.537948869223107
40
0.77598020512373
40
0.77598020512373
40
1
40
1
40
1
40
1
41
1
10
73.6826849893724
20
-2.54973003418778
30
-1E-16
41
1
10
73.6539020626263
20
-2.5184681497623
30
-1E-16
41
1
10
73.6318089741409
20
-2.47946040517738
30
-1E-16
41
1
10
73.5999224689592
20
-2.39507135801062
30
-1E-16
41
1
10
73.5893546264028
20
-2.34871639518681
30
-1E-16
41
1
10
73.57397409648
20
-2.247490240844
30
-1E-16
41
1
10
73.5699296111436
20
-2.19117921490766
30
-1E-16
41
1
10
73.566686051034
20
-2.0689332536659
30
-1E-16
41
1
10
73.5685858431044
20
-2.00185519679863
30
-1E-16
41
1
10
73.5811493673296
20
-1.88079864476461
30
-1E-16
41
1
10
73.5915927665933
20
-1.82485151399865
30
-1E-16
41
1
10
73.609521659539
20
-1.77588264341449
30
-1E-16
0
SPLINE
5
172
100
AcDbEntity
8
1
62
256
6
ByLayer
370
-1
48
1
60
0
100
AcDbSpline
70
4
71
3
72
18
73
14
40
0
40
0
40
0
40
0
40
0.0809805960321044
40
0.0809805960321044
40
0.544227292214094
40
0.544227292214094
40
0.699318265621683
40
0.699318265621683
40
0.856346274356482
40
0.856346274356482
40
0.966571999538837
40
0.966571999538837
40
1
40
1
40
1
40
1
41
1
10
11.8943375672974
20
23.6665017920807
30
-3E-16
41
1
10
11.8893471011257
20
23.6728100136978
30
-3E-16
41
1
10
11.8840209914239
20
23.6790700603506
30
-3E-16
41
1
10
11.845998279105
20
23.7205303134147
30
-3E-16
41
1
10
11.8022255638175
20
23.7548029562657
30
-3E-16
41
1
10
11.7151274219928
20
23.793824300629
30
-3E-16
41
1
10
11.6903249195398
20
23.8031592998668
30
-3E-16
41
1
10
11.6339533178057
20
23.8196134016839
30
-3E-16
41
1
10
11.6016224931833
20
23.826868749461
30
-3E-16
41
1
10
11.5411042357638
20
23.835379352542
30
-3E-16
41
1
10
11.5139568123411
20
23.8378105604684
30
-3E-16
41
1
10
11.4781693033538
20
23.8389905264492
30
-3E-16
41
1
10
11.4697409388397
20
23.8391299750502
30
-3E-16
41
1
10
11.4613248654052
20
23.8391299750502
30
-3E-16
0
SPLINE
5
173
100
AcDbEntity
8
1
62
256
6
ByLayer
370
-1
48
1
60
0
100
AcDbSpline
70
4
71
3
72
18
73
14
40
0
40
0
40
0
40
0
40
0.0809805960320641
40
0.0809805960320641
40
0.544227292213938
40
0.544227292213938
40
0.699318265621562
40
0.699318265621562
40
0.856346274356419
40
0.856346274356419
40
0.966571999538781
40
0.966571999538781
40
1
40
1
40
1
40
1
41
1
10
11.8943375672974
20
-8.05584836782788
30
-3E-16
41
1
10
11.8893471011256
20
-8.03731605051132
30
-3E-16
41
1
10
11.8840209914239
20
-8.0188538367338
30
-3E-16
41
1
10
11.8459982791049
20
-7.89611164850172
30
-3E-16
41
1
10
11.8022255638175
20
-7.7921939727411
30
-3E-16
41
1
10
11.7151274219928
20
-7.67169814060148
30
-3E-16
41
1
10
11.6903249195398
20
-7.64266520230288
30
-3E-16
41
1
10
11.6339533178057
20
-7.59122859579549
30
-3E-16
41
1
10
11.6016224931833
20
-7.56839473241382
30
-3E-16
41
1
10
11.5411042357638
20
-7.54154007085788
30
-3E-16
41
1
10
11.5139568123411
20
-7.53384342094353
30
-3E-16
41
1
10
11.4781693033538
20
-7.53010833377274
30
-3E-16
41
1
10
11.4697409388397
20
-7.52966679426518
30
-3E-16
41
1
10
11.4613248654052
20
-7.52966679426518
30
-3E-16
0
SPLINE
5
174
100
AcDbEntity
8
1
62
256
6
ByLayer
370
-1
48
1
60
0
100
AcDbSpline
70
4
71
3
72
24
73
20
40
0
40
0
40
0
40
0
40
0.107928989304752
40
0.107928989304752
40
0.179990561403276
40
0.179990561403276
40
0.240459246730333
40
0.240459246730333
40
0.30115808879179
40
0.30115808879179
40
0.358898535230207
40
0.358898535230207
40
0.444515533288797
40
0.444515533288797
40
0.573130572867273
40
0.573130572867273
40
0.78165482947119
40
0.78165482947119
40
1
40
1
40
1
40
1
41
1
10
73.6252048024891
20
-15.7338078237284
30
-1E-16
41
1
10
73.5941875915328
20
-15.6235636958755
30
-1E-16
41
1
10
73.5403310067335
20
-15.5106821234683
30
-1E-16
41
1
10
73.3959960833744
20
-15.3355574099067
30
-1E-16
41
1
10
73.3219269409212
20
-15.2676848581758
30
-1E-16
41
1
10
73.1560751155917
20
-15.1607611591246
30
-1E-16
41
1
10
73.0670935513148
20
-15.1179378760535
30
-1E-16
41
1
10
72.8735657877801
20
-15.0543273662692
30
-1E-16
41
1
10
72.7664240013665
20
-15.0329027071081
30
-1E-16
41
1
10
72.5563225227501
20
-15.0144278733391
30
-1E-16
41
1
10
72.4510356253875
20
-15.0158482882781
30
-2E-16
41
1
10
72.1999311000643
20
-15.0403078936853
30
-2E-16
41
1
10
72.0546214158043
20
-15.0733772310585
30
-2E-16
41
1
10
71.7226640845893
20
-15.1815914081463
30
-2E-16
41
1
10
71.5444504312756
20
-15.2708293891972
30
-2E-16
41
1
10
71.1398800045063
20
-15.5260568945441
30
-2E-16
41
1
10
70.9418145688375
20
-15.7102157289165
30
-2E-16
41
1
10
70.6247397932036
20
-16.087914257711
30
-3E-16
41
1
10
70.5061932358389
20
-16.2862297885515
30
-3E-16
41
1
10
70.4250827673903
20
-16.4781099740638
30
-3E-16
0
SPLINE
5
175
100
AcDbEntity
8
1
62
256
6
ByLayer
370
-1
48
1
60
0
100
AcDbSpline
70
4
71
3
72
10
73
6
40
0
40
0
40
0
40
0
40
0.363940738598384
40
0.363940738598384
40
1
40
1
40
1
40
1
41
1
10
65.4080135132614
20
4.36708196899895
30
-6E-16
41
1
10
65.4352961088425
20
4.41287504619476
30
-6E-16
41
1
10
65.4666636944731
20
4.45711802505562
30
-6E-16
41
1
10
65.5621493942618
20
4.57042705602206
30
-6E-16
41
1
10
65.6348755704668
20
4.63484486017842
30
-6E-16
41
1
10
65.7136407658477
20
4.68614395625201
30
-6E-16
0
SPLINE
5
176
100
AcDbEntity
8
1
62
256
6
ByLayer
370
-1
48
1
60
0
100
AcDbSpline
70
4
71
3
72
8
73
4
40
0
40
0
40
0
40
0
40
1
40
1
40
1
40
1
41
1
10
63.4367676933801
20
2.90627665631496
30
-7E-16
41
1
10
63.4611662583962
20
2.90269325386669
30
-7E-16
41
1
10
63.4855760373354
20
2.89918976114601
30
-7E-16
41
1
10
63.5098472784313
20
2.89578740661483
30
-7E-16
0
SPLINE
5
177
100
AcDbEntity
8
1
62
256
6
ByLayer
370
-1
48
1
60
0
100
AcDbSpline
70
4
71
3
72
8
73
4
40
0
40
0
40
0
40
0
40
1
40
1
40
1
40
1
41
1
10
70.5549147122993
20
12.9973243697816
30
-1E-16
41
1
10
70.583956678716
20
13.0173093312059
30
1E-16
41
1
10
70.6126972614909
20
13.0383674642957
30
2E-16
41
1
10
70.6409743465745
20
13.0605108294712
30
2E-16
0
SPLINE
5
178
100
AcDbEntity
8
1
62
256
6
ByLayer
370
-1
48
1
60
0
100
AcDbSpline
70
4
71
3
72
8
73
4
40
0
40
0
40
0
40
0
40
1
40
1
40
1
40
1
41
1
10
63.43676769338
20
-14.3120695946705
30
-7E-16
41
1
10
62.2409295244858
20
-14.3555564195099
30
-8E-16
41
1
10
61.0555450738241
20
-14.3057331947715
30
-9E-16
41
1
10
59.8814713879951
20
-14.1500219790325
30
9E-16
0
SPLINE
5
179
100
AcDbEntity
8
1
62
256
6
ByLayer
370
-1
48
1
60
0
100
AcDbSpline
70
4
71
3
72
10
73
6
40
0
40
0
40
0
40
0
40
0.5
40
0.5
40
1
40
1
40
1
40
1
41
1
10
39.2522427664518
20
17.8832473327371
30
-4E-16
41
1
10
39.4596817955385
20
17.6952955472386
30
-4E-16
41
1
10
40.1047578130315
20
17.5386528429766
30
-4E-16
41
1
10
41.4357198216956
20
17.3789070559526
30
-3E-16
41
1
10
42.1536929314301
20
17.3644335404701
30
-2E-16
41
1
10
42.8460007001241
20
17.4019809279105
30
-2E-16
0
SPLINE
5
17A
100
AcDbEntity
8
1
62
256
6
ByLayer
370
-1
48
1
60
0
100
AcDbSpline
70
4
71
3
72
8
73
4
40
0
40
0
40
0
40
0
40
1
40
1
40
1
40
1
41
1
10
74.44634625
20
-11.3167603436369
30
0
41
1
10
74.3786742565857
20
-11.3144335788758
30
0
41
1
10
74.3121141916551
20
-11.3121793148806
30
0
41
1
10
74.2468696094541
20
-11.3100107645426
30
0
0
SPLINE
5
17B
100
AcDbEntity
8
1
62
256
6
ByLayer
370
-1
48
1
60
0
100
AcDbSpline
70
4
71
3
72
8
73
4
40
0
40
0
40
0
40
0
40
1
40
1
40
1
40
1
41
1
10
66.6519661992591
20
-18.7130962359662
30
-1E-16
41
1
10
66.630333088699
20
-18.7118040790007
30
-1E-16
41
1
10
66.6082977836299
20
-18.709468804471
30
-1E-16
41
1
10
66.586629950385
20
-18.7061272985881
30
-1E-16
0
SPLINE
5
17C
100
AcDbEntity
8
1
62
256
6
ByLayer
370
-1
48
1
60
0
100
AcDbSpline
70
4
71
3
72
14
73
10
40
0
40
0
40
0
40
0
40
0.0333559654538869
40
0.0333559654538869
40
0.510725141491812
40
0.510725141491812
40
0.796491768383824
40
0.796491768383824
40
1
40
1
40
1
40
1
41
1
10
66.8000488730725
20
4.91184632948227
30
-5E-16
41
1
10
66.7945572028975
20
4.9151569598128
30
-5E-16
41
1
10
66.789014354171
20
4.91842819499175
30
-5E-16
41
1
10
66.7036289409353
20
4.96773063845205
30
-5E-16
41
1
10
66.6112149927823
20
5.00614785509643
30
-5E-16
41
1
10
66.4571772681022
20
5.04490327434263
30
-5E-16
41
1
10
66.3969841144966
20
5.05466493806037
30
-5E-16
41
1
10
66.294197310196
20
5.06212149969872
30
-5E-16
41
1
10
66.2512682493747
20
5.06251157992023
30
-5E-16
41
1
10
66.2084450147804
20
5.06023632159096
30
-5E-16
0
SPLINE
5
17D
100
AcDbEntity
8
1
62
256
6
ByLayer
370
-1
48
1
60
0
100
AcDbSpline
70
4
71
3
72
14
73
10
40
0
40
0
40
0
40
0
40
0.0843401645150234
40
0.0843401645150234
40
0.436685251032175
40
0.436685251032175
40
0.794264015027252
40
0.794264015027252
40
1
40
1
40
1
40
1
41
1
10
66.083847709611
20
5.0459805682784
30
-5E-16
41
1
10
66.057725599501
20
5.04135686485176
30
-5E-16
41
1
10
66.0318465973113
20
5.03571750079715
30
-5E-16
41
1
10
65.8997295216226
20
5.0012811566431
30
-6E-16
41
1
10
65.7965269729128
20
4.95511364500189
30
-6E-16
41
1
10
65.612003887293
20
4.83191898324969
30
-6E-16
41
1
10
65.5284792297887
20
4.75269180816457
30
-6E-16
41
1
10
65.42282061794
20
4.61117597356647
30
-6E-16
41
1
10
65.3890622746604
20
4.55530722623442
30
-6E-16
41
1
10
65.361154845586
20
4.49697294948535
30
-6E-16
0
SPLINE
5
17E
100
AcDbEntity
8
1
62
256
6
ByLayer
370
-1
48
1
60
0
100
AcDbSpline
70
4
71
3
72
10
73
6
40
0
40
0
40
0
40
0
40
0.388872250003912
40
0.388872250003912
40
1
40
1
40
1
40
1
41
1
10
64.0952925945781
20
3.15592636351869
30
-7E-16
41
1
10
64.0235021348182
20
3.150251235073
30
-7E-16
41
1
10
63.9532567825183
20
3.13805028201466
30
-7E-16
41
1
10
63.7786018333015
20
3.09364476271537
30
-7E-16
41
1
10
63.6759693371272
20
3.05459544785373
30
-7E-16
41
1
10
63.5774722929738
20
3.00380357817932
30
-7E-16
0
SPLINE
5
17F
100
AcDbEntity
8
1
62
256
6
ByLayer
370
-1
48
1
60
0
100
AcDbSpline
70
4
71
3
72
12
73
8
40
0
40
0
40
0
40
0
40
0.33941916568833
40
0.33941916568833
40
0.875183760082447
40
0.875183760082447
40
1
40
1
40
1
40
1
41
1
10
73.5362383799999
20
-6.83770979634357
30
-1E-16
41
1
10
73.5362383799999
20
-6.90748378219908
30
-1E-16
41
1
10
73.5409365594853
20
-6.97744127341119
30
-1E-16
41
1
10
73.5668806939545
20
-7.15517462751163
30
-1E-16
41
1
10
73.596205995732
20
-7.26384966852078
30
-1E-16
41
1
10
73.6562511289543
20
-7.38552111209589
30
-1E-16
41
1
10
73.6688512661638
20
-7.40823854996009
30
-1E-16
41
1
10
73.682684989406
20
-7.43014058495459
30
-1E-16
0
SPLINE
5
180
100
AcDbEntity
8
1
62
256
6
ByLayer
370
-1
48
1
60
0
100
AcDbSpline
70
4
71
3
72
8
73
4
40
0
40
0
40
0
40
0
40
1
40
1
40
1
40
1
41
1
10
74.2362383799999
20
-11.7176270734723
30
0
41
1
10
74.2362383799999
20
-11.7631946141801
30
0
41
1
10
74.2397230708285
20
-11.8088931810484
30
0
41
1
10
74.2468696094541
20
-11.8538604838447
30
0
0
SPLINE
5
181
100
AcDbEntity
8
1
62
256
6
ByLayer
370
-1
48
1
60
0
100
AcDbSpline
70
4
71
3
72
16
73
12
40
0
40
0
40
0
40
0
40
0.0773436766578079
40
0.0773436766578079
40
0.181588290672548
40
0.181588290672548
40
0.353924998169909
40
0.353924998169909
40
0.659870482235865
40
0.659870482235865
40
1
40
1
40
1
40
1
41
1
10
8.53867513459481
20
-7.52966679426518
30
-5E-16
41
1
10
8.51930872656195
20
-7.52966679426518
30
-5E-16
41
1
10
8.4998079520166
20
-7.53205286469719
30
-5E-16
41
1
10
8.45563565444411
20
-7.54265601007396
30
-5E-16
41
1
10
8.43110003395827
20
-7.55272636772372
30
-5E-16
41
1
10
8.37136994789255
20
-7.58609718460616
30
-5E-16
41
1
10
8.33841285720997
20
-7.61407037421833
30
-5E-16
41
1
10
8.25926399475676
20
-7.69895209889265
30
-5E-16
41
1
10
8.22011072567561
20
-7.76300791758419
30
-5E-16
41
1
10
8.15317557860796
20
-7.90167589305852
30
-5E-16
41
1
10
8.12652521949875
20
-7.97837348437866
30
-5E-16
41
1
10
8.10566243270259
20
-8.05584836782791
30
-5E-16
0
SPLINE
5
182
100
AcDbEntity
8
1
62
256
6
ByLayer
370
-1
48
1
60
0
100
AcDbSpline
70
4
71
3
72
8
73
4
40
0
40
0
40
0
40
0
40
1
40
1
40
1
40
1
41
1
10
63.7407990849426
20
12.4712450006672
30
-7E-16
41
1
10
64.6893959496279
20
12.5490244278438
30
-6E-16
41
1
10
65.6380066085501
20
12.6267934712435
30
-6E-16
41
1
10
66.586629950385
20
12.7045529473359
30
-5E-16
0
SPLINE
5
183
100
AcDbEntity
8
1
62
256
6
ByLayer
370
-1
48
1
60
0
100
AcDbSpline
70
4
71
3
72
8
73
4
40
0
40
0
40
0
40
0
40
1
40
1
40
1
40
1
41
1
10
66.5866299503848
20
-14.7531330518511
30
-5E-16
41
1
10
66.6082212806163
20
-14.7562232509016
30
-5E-16
41
1
10
66.6301394222309
20
-14.7575848057974
30
-5E-16
41
1
10
66.651966199259
20
-14.7571983269564
30
-5E-16
0
SPLINE
5
184
100
AcDbEntity
8
1
62
256
6
ByLayer
370
-1
48
1
60
0
100
AcDbSpline
70
4
71
3
72
10
73
6
40
0
40
0
40
0
40
0
40
0.436819482998398
40
0.436819482998398
40
1
40
1
40
1
40
1
41
1
10
65.2917528379479
20
12.6627347989693
30
-2E-16
41
1
10
65.4033725412104
20
12.6891011233502
30
-1E-16
41
1
10
65.5132350337299
20
12.7225625474852
30
-1E-16
41
1
10
65.7574615835698
20
12.8120369957181
30
-1E-16
41
1
10
65.8909577887241
20
12.8721156418749
30
-1E-16
41
1
10
66.0184354714787
20
12.9421447733429
30
-1E-16
0
SPLINE
5
185
100
AcDbEntity
8
1
62
256
6
ByLayer
370
-1
48
1
60
0
100
AcDbSpline
70
4
71
3
72
10
73
6
40
0
40
0
40
0
40
0
40
0.800650207701945
40
0.800650207701945
40
1
40
1
40
1
40
1
41
1
10
63.7311577998419
20
15.5810206255639
30
2E-16
41
1
10
63.5995689162443
20
15.4909986438015
30
2E-16
41
1
10
63.4745622441309
20
15.4013540171767
30
2E-16
41
1
10
63.3268795130862
20
15.3069622439561
30
2E-16
41
1
10
63.2974202830728
20
15.2889245148532
30
2E-16
41
1
10
63.2684358506053
20
15.2725975353761
30
2E-16
0
SPLINE
5
186
100
AcDbEntity
8
1
62
256
6
ByLayer
370
-1
48
1
60
0
100
AcDbSpline
70
4
71
3
72
8
73
4
40
0
40
0
40
0
40
0
40
1
40
1
40
1
40
1
41
1
10
63.5098472784312
20
-18.5706454719499
30
0
41
1
10
63.5238623043234
20
-18.5686869073227
30
0
41
1
10
63.5414970502856
20
-18.5672956332858
30
0
41
1
10
63.5624471390876
20
-18.5672410848215
30
0
0
SPLINE
5
187
100
AcDbEntity
8
1
62
256
6
ByLayer
370
-1
48
1
60
0
100
AcDbSpline
70
4
71
3
72
8
73
4
40
0
40
0
40
0
40
0
40
1
40
1
40
1
40
1
41
1
10
73.609521659539
20
-1.77588264341449
30
-1E-16
41
1
10
73.610141489675
20
-1.77418971224426
30
-1E-16
41
1
10
73.6107664069227
20
-1.77249836062345
30
-1E-16
41
1
10
73.6113964685214
20
-1.7708086407051
30
-1E-16
0
SPLINE
5
188
100
AcDbEntity
8
1
62
256
6
ByLayer
370
-1
48
1
60
0
100
AcDbSpline
70
4
71
2
72
6
73
3
40
0
40
0
40
0
40
1
40
1
40
1
41
0.500000063385231
10
64.9188663686422
20
3.59379706927736
30
-6E-16
41
0.499999936614769
10
64.848773053927
20
3.60827632597298
30
-6E-16
41
0.500000063385231
10
64.778756536775
20
3.62273244009623
30
-6E-16
0
SPLINE
5
189
100
AcDbEntity
8
1
62
256
6
ByLayer
370
-1
48
1
60
0
100
AcDbSpline
70
4
71
3
72
18
73
14
40
0
40
0
40
0
40
0
40
0.163135949793241
40
0.163135949793241
40
0.325359707181063
40
0.325359707181063
40
0.502089416905308
40
0.502089416905308
40
0.713625185634064
40
0.713625185634064
40
0.967072350202607
40
0.967072350202607
40
1
40
1
40
1
40
1
41
1
10
73.6252048024892
20
13.1436779953608
30
-1E-16
41
1
10
73.7042723126349
20
13.1485959169138
30
-1E-16
41
1
10
73.7842057792769
20
13.151741262785
30
-1E-16
41
1
10
73.9315520740686
20
13.1542506937292
30
-1E-16
41
1
10
74.0010117255988
20
13.1536920055897
30
-1E-16
41
1
10
74.1295900550941
20
13.1493762999995
30
-1E-16
41
1
10
74.1888242997683
20
13.1453075975794
30
0
41
1
10
74.2976270890344
20
13.1335144368648
30
0
41
1
10
74.3444132621926
20
13.1251052239286
30
0
41
1
10
74.4183310040686
20
13.1039103752924
30
0
41
1
10
74.4408184151272
20
13.0903280826749
30
0
41
1
10
74.4460435404505
20
13.0737789294162
30
0
41
1
10
74.44634625
20
13.0718419816664
30
0
41
1
10
74.44634625
20
13.0698860345159
30
0
0
SPLINE
5
18A
100
AcDbEntity
8
1
62
256
6
ByLayer
370
-1
48
1
60
0
100
AcDbSpline
70
4
71
3
72
12
73
8
40
0
40
0
40
0
40
0
40
0.254601957108906
40
0.254601957108906
40
0.775053787394088
40
0.775053787394088
40
1
40
1
40
1
40
1
41
1
10
71.6046792442035
20
13.017945600486
30
-2E-16
41
1
10
71.4389363591109
20
12.91078613039
30
-2E-16
41
1
10
71.292568440118
20
12.7851387042989
30
-2E-16
41
1
10
70.9046084930817
20
12.3754852489393
30
-3E-16
41
1
10
70.7128664679767
20
12.0552364961335
30
-3E-16
41
1
10
70.5155824827468
20
11.5730887923112
30
-3E-16
41
1
10
70.4656554482394
20
11.4226188595843
30
-3E-16
41
1
10
70.4250827673927
20
11.269283399484
30
-3E-16
0
SPLINE
5
18B
100
AcDbEntity
8
1
62
256
6
ByLayer
370
-1
48
1
60
0
100
AcDbSpline
70
4
71
3
72
18
73
14
40
0
40
0
40
0
40
0
40
0.163135949793221
40
0.163135949793221
40
0.325359707181041
40
0.325359707181041
40
0.502089416905283
40
0.502089416905283
40
0.713625185634032
40
0.713625185634032
40
0.967072350202566
40
0.967072350202566
40
1
40
1
40
1
40
1
41
1
10
73.6252048024891
20
-14.6281379791155
30
-1E-16
41
1
10
73.7042723126349
20
-14.626610868772
30
-1E-16
41
1
10
73.7842057792768
20
-14.610061880322
30
-1E-16
41
1
10
73.9315520740685
20
-14.5525386817248
30
-1E-16
41
1
10
74.0010117255987
20
-14.511113475684
30
-1E-16
41
1
10
74.129590055094
20
-14.4074710313324
30
-1E-16
41
1
10
74.1888242997682
20
-14.3426318489896
30
0
41
1
10
74.2976270890344
20
-14.1880453441604
30
0
41
1
10
74.3444132621925
20
-14.0941479234218
30
0
41
1
10
74.4183310040686
20
-13.8808215161816
30
0
41
1
10
74.4408184151272
20
-13.7573104223386
30
0
41
1
10
74.4460435404504
20
-13.6185793891713
30
0
41
1
10
74.4463462499999
20
-13.6025058038067
30
0
41
1
10
74.4463462499999
20
-13.5864366587749
30
0
0
SPLINE
5
18C
100
AcDbEntity
8
1
62
256
6
ByLayer
370
-1
48
1
60
0
100
AcDbSpline
70
4
71
3
72
16
73
12
40
0
40
0
40
0
40
0
40
0.231930620472408
40
0.231930620472408
40
0.464196436170174
40
0.464196436170174
40
0.695028532241798
40
0.695028532241798
40
0.917568616542733
40
0.917568616542733
40
1
40
1
40
1
40
1
41
1
10
66.5866299503849
20
-18.7061272985838
30
-1E-16
41
1
10
66.4317814748967
20
-18.6822473339395
30
-1E-16
41
1
10
66.2750269414595
20
-18.663487144559
30
-1E-16
41
1
10
65.9829402263971
20
-18.6387355631269
30
-1E-16
41
1
10
65.8436123213919
20
-18.6324070371479
30
-1E-16
41
1
10
65.6037972328836
20
-18.6317382343718
30
-1E-16
41
1
10
65.4996831337693
20
-18.637288855087
30
-1E-16
41
1
10
65.345317166996
20
-18.6573891396058
30
-1E-16
41
1
10
65.2911508913211
20
-18.671866787154
30
-2E-16
41
1
10
65.2539620955298
20
-18.6956799975197
30
-2E-16
41
1
10
65.2474524449316
20
-18.7025857948203
30
-2E-16
41
1
10
65.2446286059739
20
-18.7098332023291
30
-2E-16
0
SPLINE
5
18D
100
AcDbEntity
8
1
62
256
6
ByLayer
370
-1
48
1
60
0
100
AcDbSpline
70
4
71
3
72
8
73
4
40
0
40
0
40
0
40
0
40
1
40
1
40
1
40
1
41
1
10
70.5537662191842
20
12.9964353315125
30
-1E-16
41
1
10
70.546292243083
20
12.990656412703
30
-1E-16
41
1
10
70.5387542451815
20
12.9849592233821
30
-1E-16
41
1
10
70.5311551830349
20
12.9793456555615
30
-1E-16
0
SPLINE
5
18E
100
AcDbEntity
8
1
62
256
6
ByLayer
370
-1
48
1
60
0
100
AcDbSpline
70
4
71
3
72
10
73
6
40
0
40
0
40
0
40
0
40
0.790095940872822
40
0.790095940872822
40
1
40
1
40
1
40
1
41
1
10
64.9321876386398
20
12.6030952180828
30
-2E-16
41
1
10
65.0229979483087
20
12.6134343794514
30
-2E-16
41
1
10
65.1196860274275
20
12.6268267210359
30
-2E-16
41
1
10
65.2406882146894
20
12.6511524301096
30
-2E-16
41
1
10
65.266268477745
20
12.6567149934311
30
-2E-16
41
1
10
65.2917528379483
20
12.6627347989682
30
-2E-16
0
SPLINE
5
18F
100
AcDbEntity
8
1
62
256
6
ByLayer
370
-1
48
1
60
0
100
AcDbSpline
70
4
71
3
72
8
73
4
40
0
40
0
40
0
40
0
40
1
40
1
40
1
40
1
41
1
10
63.5098472784313
20
18.2603690087873
30
2E-16
41
1
10
63.5238623043218
20
18.2524904391491
30
2E-16
41
1
10
63.5414970502878
20
18.2452872730007
30
2E-16
41
1
10
63.5624471390865
20
18.239626799429
30
2E-16
0
SPLINE
5
190
100
AcDbEntity
8
1
62
256
6
ByLayer
370
-1
48
1
60
0
100
AcDbSpline
70
4
71
3
72
36
73
32
40
0
40
0
40
0
40
0
40
0.0646856564823836
40
0.0646856564823836
40
0.129669315390028
40
0.129669315390028
40
0.191152267379212
40
0.191152267379212
40
0.252011011765719
40
0.252011011765719
40
0.317039582565791
40
0.317039582565791
40
0.390441520731087
40
0.390441520731087
40
0.475902061217889
40
0.475902061217889
40
0.575251479168741
40
0.575251479168741
40
0.684360816155036
40
0.684360816155036
40
0.759980670067447
40
0.759980670067447
40
0.820685268643306
40
0.820685268643306
40
0.881937371660769
40
0.881937371660769
40
0.935605150840645
40
0.935605150840645
40
0.990425690401678
40
0.990425690401678
40
1
40
1
40
1
40
1
41
1
10
62.5738440223587
20
0.465030074649235
30
-8E-16
41
1
10
62.4791088298033
20
0.379991430247117
30
-8E-16
41
1
10
62.3965016032586
20
0.278614025726966
30
-8E-16
41
1
10
62.2716385645497
20
0.0556596411360886
30
-8E-16
41
1
10
62.2279863886388
20
-0.0691761197395238
30
-8E-16
41
1
10
62.189400430231
20
-0.316341455575952
30
-8E-16
41
1
10
62.1914607115003
20
-0.441731511423939
30
-8E-16
41
1
10
62.2354183636754
20
-0.680669219509554
30
-8E-16
41
1
10
62.2773518218969
20
-0.797332031228081
30
-8E-16
41
1
10
62.3959563515056
20
-1.01771444535928
30
-8E-16
41
1
10
62.4760951415413
20
-1.12273648128402
30
-8E-16
41
1
10
62.6714488383578
20
-1.31624593124323
30
-8E-16
41
1
10
62.792041043396
20
-1.40331832492905
30
-7E-16
41
1
10
63.0698140782328
20
-1.55216769850455
30
-7E-16
41
1
10
63.233044569154
20
-1.60946665999208
30
-7E-16
41
1
10
63.5917284769095
20
-1.68289535604524
30
-7E-16
41
1
10
63.792889899478
20
-1.69205582013055
30
-7E-16
41
1
10
64.2025764848675
20
-1.64823745056231
30
-7E-16
41
1
10
64.4168410144005
20
-1.58850972788289
30
-6E-16
41
1
10
64.742670203877
20
-1.42304903911352
30
-6E-16
41
1
10
64.8688919686946
20
-1.33485890859481
30
-6E-16
41
1
10
65.0593082267135
20
-1.14245451268454
30
-6E-16
41
1
10
65.132528668994
20
-1.04253764322181
30
-6E-16
41
1
10
65.2379346654705
20
-0.825002544204182
30
-6E-16
41
1
10
65.2708811426896
20
-0.703836985564891
30
-6E-16
41
1
10
65.2861473456981
20
-0.476744879053484
30
-6E-16
41
1
10
65.2745417775411
20
-0.367976779329013
30
-6E-16
41
1
10
65.2187027353343
20
-0.15979882392628
30
-6E-16
41
1
10
65.1733978951463
20
-0.0581767765216057
30
-6E-16
41
1
10
65.1064920801258
20
0.0513195225058496
30
-6E-16
41
1
10
65.0960900366515
20
0.0675071371560136
30
-6E-16
41
1
10
65.0853411099679
20
0.083457356808168
30
-6E-16
0
SPLINE
5
191
100
AcDbEntity
8
1
62
256
6
ByLayer
370
-1
48
1
60
0
100
AcDbSpline
70
4
71
3
72
8
73
4
40
0
40
0
40
0
40
0
40
1
40
1
40
1
40
1
41
1
10
63.7407990849425
20
-14.3455625482082
30
-7E-16
41
1
10
63.6813345855318
20
-14.3370404645609
30
-7E-16
41
1
10
63.6218813947643
20
-14.3282693089267
30
-7E-16
41
1
10
63.5624471390894
20
-14.3192496873852
30
-7E-16
0
SPLINE
5
192
100
AcDbEntity
8
1
62
256
6
ByLayer
370
-1
48
1
60
0
100
AcDbSpline
70
4
71
3
72
22
73
18
40
0
40
0
40
0
40
0
40
0.124409052045505
40
0.124409052045505
40
0.26209221567818
40
0.26209221567818
40
0.399648928616344
40
0.399648928616344
40
0.537691144056721
40
0.537691144056721
40
0.676663698673579
40
0.676663698673579
40
0.816680277337993
40
0.816680277337993
40
0.957438648295726
40
0.957438648295726
40
1
40
1
40
1
40
1
41
1
10
67.0407884749345
20
4.82394838691496
30
-5E-16
41
1
10
66.9776528070597
20
4.90157607978853
30
-5E-16
41
1
10
66.9017102707656
20
4.97055367084332
30
-5E-16
41
1
10
66.7255573071372
20
5.087711186305
30
-5E-16
41
1
10
66.6211359811794
20
5.1344241545217
30
-5E-16
41
1
10
66.4059532470354
20
5.19047440860857
30
-5E-16
41
1
10
66.2922489949223
20
5.20061970553189
30
-5E-16
41
1
10
66.0708502505573
20
5.18369062636941
30
-5E-16
41
1
10
65.9601483962028
20
5.15626334257882
30
-6E-16
41
1
10
65.7564840700399
20
5.06798703391209
30
-6E-16
41
1
10
65.6608525283289
20
5.00571579149673
30
-6E-16
41
1
10
65.4975482403878
20
4.85503352616337
30
-6E-16
41
1
10
65.4278399705829
20
4.76436450771507
30
-6E-16
41
1
10
65.3239920459374
20
4.56736165199663
30
-6E-16
41
1
10
65.288605221519
20
4.45822370487269
30
-6E-16
41
1
10
65.2680686410162
20
4.31406992158023
30
-6E-16
41
1
10
65.2650256890128
20
4.28011908861814
30
-6E-16
41
1
10
65.263760117395
20
4.24612891401153
30
-6E-16
0
SPLINE
5
193
100
AcDbEntity
8
1
62
256
6
ByLayer
370
-1
48
1
60
0
100
AcDbSpline
70
4
71
3
72
8
73
4
40
0
40
0
40
0
40
0
40
1
40
1
40
1
40
1
41
1
10
73.0741224528573
20
-1.06020989676554
30
-1E-16
41
1
10
73.1361192346743
20
-1.39248433322234
30
-1E-16
41
1
10
73.2127229680151
20
-1.72222228300691
30
-1E-16
41
1
10
73.3019238049492
20
-2.04812745012072
30
-1E-16
0
SPLINE
5
194
100
AcDbEntity
8
1
62
256
6
ByLayer
370
-1
48
1
60
0
100
AcDbSpline
70
4
71
3
72
10
73
6
40
0
40
0
40
0
40
0
40
0.615459910652657
40
0.615459910652657
40
1
40
1
40
1
40
1
41
1
10
73.6252048024892
20
12.494059379694
30
-1E-16
41
1
10
73.5941875915323
20
12.637801699045
30
-1E-16
41
1
10
73.5403310067317
20
12.778902905155
30
-1E-16
41
1
10
73.399684409486
20
12.9835297783705
30
-1E-16
41
1
10
73.3314309686039
20
13.057558891691
30
-1E-16
41
1
10
73.2490030830031
20
13.1202766147521
30
-1E-16
0
SPLINE
5
195
100
AcDbEntity
8
1
62
256
6
ByLayer
370
-1
48
1
60
0
100
AcDbSpline
70
4
71
3
72
8
73
4
40
0
40
0
40
0
40
0
40
1
40
1
40
1
40
1
41
1
10
74.4463462499999
20
-13.0848339166431
30
0
41
1
10
74.3786742565856
20
-12.6747079323522
30
0
41
1
10
74.312114191655
20
-12.2643910969648
30
0
41
1
10
74.2468696094541
20
-11.8538604838447
30
0
0
SPLINE
5
196
100
AcDbEntity
8
1
62
256
6
ByLayer
370
-1
48
1
60
0
100
AcDbSpline
70
4
71
3
72
26
73
22
40
0
40
0
40
0
40
0
40
0.117304653098338
40
0.117304653098338
40
0.239710455042004
40
0.239710455042004
40
0.357976553157503
40
0.357976553157503
40
0.468398572023128
40
0.468398572023128
40
0.572011424727503
40
0.572011424727503
40
0.671481215119182
40
0.671481215119182
40
0.769585265506926
40
0.769585265506926
40
0.869027704110057
40
0.869027704110057
40
0.972551444272225
40
0.972551444272225
40
1
40
1
40
1
40
1
41
1
10
69.8624699059797
20
-17.61453555674
30
-3E-16
41
1
10
69.8197497575472
20
-17.6870500948545
30
-3E-16
41
1
10
69.8066906008076
20
-17.7613990311892
30
-3E-16
41
1
10
69.8435065289138
20
-17.90521133199
30
-3E-16
41
1
10
69.8968862420488
20
-17.9764190581484
30
-3E-16
41
1
10
70.0644247590606
20
-18.1007965009651
30
-3E-16
41
1
10
70.1791548243546
20
-18.156366936072
30
-3E-16
41
1
10
70.4464107393166
20
-18.2447482225349
30
-3E-16
41
1
10
70.5999319871624
20
-18.2801457161669
30
-3E-16
41
1
10
70.9187712013815
20
-18.3296383095866
30
-2E-16
41
1
10
71.0873252230559
20
-18.3456340996412
30
-2E-16
41
1
10
71.4162019366003
20
-18.359059093241
30
-2E-16
41
1
10
71.5811130916139
20
-18.3573854935078
30
-2E-16
41
1
10
71.8884202111557
20
-18.3375155720951
30
-2E-16
41
1
10
72.0352171520266
20
-18.3192580183875
30
-2E-16
41
1
10
72.2960055102085
20
-18.267522993549
30
-2E-16
41
1
10
72.4129734459461
20
-18.2331416846498
30
-2E-16
41
1
10
72.6062695813629
20
-18.1501453231509
30
-1E-16
41
1
10
72.6833220654705
20
-18.0999235927972
30
-1E-16
41
1
10
72.7486503643875
20
-18.0303169283441
30
-1E-16
41
1
10
72.7607304838482
20
-18.0152090967893
30
-1E-16
41
1
10
72.7710480836953
20
-17.9997825446583
30
-1E-16
0
SPLINE
5
197
100
AcDbEntity
8
1
62
256
6
ByLayer
370
-1
48
1
60
0
100
AcDbSpline
70
4
71
3
72
16
73
12
40
0
40
0
40
0
40
0
40
0.249999980182794
40
0.249999980182794
40
0.49999998933651
40
0.49999998933651
40
0.863638087818207
40
0.863638087818207
40
0.954547383230136
40
0.954547383230136
40
1
40
1
40
1
40
1
41
1
10
70.5541281311679
20
12.9967152700269
30
0
41
1
10
70.5541635498705
20
12.996742661548
30
0
41
1
10
70.5541989564101
20
12.9967700687933
30
0
41
1
10
70.5542697741673
20
12.9968248772406
30
0
41
1
10
70.55430518171
20
12.996852283195
30
0
41
1
10
70.5543920881584
20
12.9969195567014
30
0
41
1
10
70.5544435859923
20
12.9969594256386
30
0
41
1
10
70.5545079534722
20
12.9970092679581
30
0
41
1
10
70.5545211031646
20
12.9970194508084
30
0
41
1
10
70.554536916734
20
12.9970316987073
30
0
41
1
10
70.5545448238854
20
12.9970378221834
30
0
41
1
10
70.5545527295168
20
12.9970439476216
30
0
0
SPLINE
5
198
100
AcDbEntity
8
1
62
256
6
ByLayer
370
-1
48
1
60
0
100
AcDbSpline
70
4
71
3
72
14
73
10
40
0
40
0
40
0
40
0
40
0.25
40
0.25
40
0.5
40
0.5
40
0.75
40
0.75
40
1
40
1
40
1
40
1
41
1
10
46.593174694631
20
14.6028997517765
30
0
41
1
10
44.8232949136105
20
14.8610149763652
30
-1E-16
41
1
10
43.1713066652933
20
15.3848901241706
30
-2E-16
41
1
10
40.5387659092265
20
16.6265311321594
30
-3E-16
41
1
10
39.5686303505928
20
17.3301667782161
30
-4E-16
41
1
10
38.4505973910327
20
18.3188179940102
30
0
41
1
10
38.2696211003015
20
18.6024315359081
30
0
41
1
10
38.4083953011721
20
18.6201336556165
30
0
41
1
10
38.721568212314
20
18.3640692417472
30
0
41
1
10
39.2522427664518
20
17.8832473327371
30
-4E-16
0
SPLINE
5
199
100
AcDbEntity
8
1
62
256
6
ByLayer
370
-1
48
1
60
0
100
AcDbSpline
70
4
71
3
72
24
73
20
40
0
40
0
40
0
40
0
40
0.117249751936927
40
0.117249751936927
40
0.263912690620179
40
0.263912690620179
40
0.37192545339519
40
0.37192545339519
40
0.480132477572126
40
0.480132477572126
40
0.586105525087525
40
0.586105525087525
40
0.704130654420371
40
0.704130654420371
40
0.842732318770884
40
0.842732318770884
40
0.946903575050096
40
0.946903575050096
40
1
40
1
40
1
40
1
41
1
10
70.1859054975837
20
-16.9789548406699
30
-3E-16
41
1
10
70.2296537914175
20
-17.0607457658093
30
-3E-16
41
1
10
70.2843328681622
20
-17.1343790366448
30
-3E-16
41
1
10
70.4295748086641
20
-17.2749696193558
30
-3E-16
41
1
10
70.5287816489684
20
-17.3381818988487
30
-3E-16
41
1
10
70.72326529
20
-17.4081337908223
30
-3E-16
41
1
10
70.815046195284
20
-17.425897631257
30
-3E-16
41
1
10
71.0029505853833
20
-17.4328983664562
30
-2E-16
41
1
10
71.1015161709537
20
-17.4221396432418
30
-2E-16
41
1
10
71.2890144797703
20
-17.37535627387
30
-2E-16
41
1
10
71.3803620105983
20
-17.3394433159527
30
-2E-16
41
1
10
71.5581824439741
20
-17.2436287952826
30
-2E-16
41
1
10
71.6451638066837
20
-17.1804797715961
30
-2E-16
41
1
10
71.8096223054064
20
-17.024194749427
30
-2E-16
41
1
10
71.8855166047759
20
-16.9254594079009
30
-2E-16
41
1
10
71.98299127445
20
-16.7347745423833
30
-2E-16
41
1
10
72.0140992315157
20
-16.6449816807359
30
-2E-16
41
1
10
72.0380283712343
20
-16.5049876399479
30
-2E-16
41
1
10
72.0422219708672
20
-16.4562924225892
30
-2E-16
41
1
10
72.0422219708672
20
-16.4077640376518
30
-2E-16
0
SPLINE
5
19A
100
AcDbEntity
8
1
62
256
6
ByLayer
370
-1
48
1
60
0
100
AcDbSpline
70
4
71
3
72
8
73
4
40
0
40
0
40
0
40
0
40
1
40
1
40
1
40
1
41
1
10
66.6519661992591
20
5.48360684904347
30
-5E-16
41
1
10
66.630333088699
20
5.48690786041709
30
-5E-16
41
1
10
66.6082977836299
20
5.48803778415481
30
-5E-16
41
1
10
66.586629950385
20
5.4868881190551
30
-5E-16
0
SPLINE
5
19B
100
AcDbEntity
8
1
62
256
6
ByLayer
370
-1
48
1
60
0
100
AcDbSpline
70
4
71
3
72
8
73
4
40
0
40
0
40
0
40
0
40
1
40
1
40
1
40
1
41
1
10
74.0106146093248
20
-2.78159045974198
30
-1E-16
41
1
10
74.0345692288827
20
-2.84487479323803
30
-1E-16
41
1
10
74.0610487420519
20
-2.90685104239546
30
-1E-16
41
1
10
74.0897917706024
20
-2.96696469845094
30
-1E-16
0
SPLINE
5
19C
100
AcDbEntity
8
1
62
256
6
ByLayer
370
-1
48
1
60
0
100
AcDbSpline
70
4
71
3
72
16
73
12
40
0
40
0
40
0
40
0
40
0.077343676657881
40
0.077343676657881
40
0.181588290672628
40
0.181588290672628
40
0.353924998170016
40
0.353924998170016
40
0.659870482236098
40
0.659870482236098
40
1
40
1
40
1
40
1
41
1
10
11.4613248654051
20
-23.8391299750505
30
-3E-16
41
1
10
11.480691273438
20
-23.8391299750505
30
-3E-16
41
1
10
11.5001920479834
20
-23.8383766644786
30
-3E-16
41
1
10
11.5443643455559
20
-23.8350242537626
30
-3E-16
41
1
10
11.5688999660417
20
-23.8318379431385
30
-3E-16
41
1
10
11.6286300521075
20
-23.8212426939767
30
-3E-16
41
1
10
11.66158714279
20
-23.8123280847852
30
-3E-16
41
1
10
11.7407360052433
20
-23.785066339282
30
-3E-16
41
1
10
11.7798892743244
20
-23.7642694363117
30
-3E-16
41
1
10
11.846824421392
20
-23.7185457490816
30
-3E-16
41
1
10
11.8734747805012
20
-23.6928734932672
30
-3E-16
41
1
10
11.8943375672974
20
-23.6665017920811
30
-3E-16
0
SPLINE
5
19D
100
AcDbEntity
8
1
62
256
6
ByLayer
370
-1
48
1
60
0
100
AcDbSpline
70
4
71
3
72
16
73
12
40
0
40
0
40
0
40
0
40
0.0190131882343137
40
0.0190131882343137
40
0.272688777186272
40
0.272688777186272
40
0.532188074595466
40
0.532188074595466
40
0.788599031680342
40
0.788599031680342
40
1
40
1
40
1
40
1
41
1
10
64.7787565367751
20
-18.7083455638838
30
0
41
1
10
64.7697886457613
20
-18.706696776512
30
-2E-16
41
1
10
64.7607932105952
20
-18.7050553745473
30
-2E-16
41
1
10
64.6328407639405
20
-18.6818850935507
30
-2E-16
41
1
10
64.5080741756606
20
-18.661542741138
30
-2E-16
41
1
10
64.2640161564635
20
-18.6261677862693
30
0
41
1
10
64.1414359719445
20
-18.6107631426985
30
0
41
1
10
63.9205280712674
20
-18.5871829538177
30
0
41
1
10
63.8187530695906
20
-18.5785704334469
30
0
41
1
10
63.6653071329413
20
-18.5691514633334
30
0
41
1
10
63.6063370629731
20
-18.5671268071247
30
0
41
1
10
63.5624471390941
20
-18.5672410848238
30
0
0
SPLINE
5
19E
100
AcDbEntity
8
1
62
256
6
ByLayer
370
-1
48
1
60
0
100
AcDbSpline
70
4
71
3
72
18
73
14
40
0
40
0
40
0
40
0
40
0.137285480593755
40
0.137285480593755
40
0.321193898508853
40
0.321193898508853
40
0.512396925444708
40
0.512396925444708
40
0.725574942975272
40
0.725574942975272
40
0.904395721469737
40
0.904395721469737
40
1
40
1
40
1
40
1
41
1
10
65.0853411099672
20
0.0834573568074575
30
-6E-16
41
1
10
65.0130908882509
20
0.190668703596799
30
-6E-16
41
1
10
64.9277266948347
20
0.290935600320523
30
-6E-16
41
1
10
64.7046744236138
20
0.496300231046661
30
-6E-16
41
1
10
64.555935871514
20
0.593779181826221
30
-6E-16
41
1
10
64.2334857802725
20
0.739049763381928
30
-7E-16
41
1
10
64.0553169334284
20
0.786951816612685
30
-7E-16
41
1
10
63.6765823715496
20
0.833255171986508
30
-7E-16
41
1
10
63.4706550721632
20
0.826629850328885
30
-7E-16
41
1
10
63.1072956052567
20
0.756716993549588
30
-7E-16
41
1
10
62.9430935197249
20
0.701837871901006
30
-7E-16
41
1
10
62.7161860600644
20
0.576977914088133
30
-8E-16
41
1
10
62.6407534979843
20
0.52509108208875
30
-8E-16
41
1
10
62.5738440223598
20
0.4650300746504
30
-8E-16
0
SPLINE
5
19F
100
AcDbEntity
8
1
62
256
6
ByLayer
370
-1
48
1
60
0
100
AcDbSpline
70
4
71
3
72
18
73
14
40
0
40
0
40
0
40
0
40
0.0900667932071058
40
0.0900667932071058
40
0.295193577591908
40
0.295193577591908
40
0.497216560143028
40
0.497216560143028
40
0.700804841048799
40
0.700804841048799
40
0.909599157263939
40
0.909599157263939
40
1
40
1
40
1
40
1
41
1
10
74.44634625
20
2.9539719774304
30
0
41
1
10
74.44634625
20
2.95665187756461
30
0
41
1
10
74.4435413164322
20
2.96004634024138
30
0
41
1
10
74.4252882154694
20
2.97330716069351
30
0
41
1
10
74.397697935753
20
2.98619877944771
30
0
41
1
10
74.3178938385679
20
3.01695252770412
30
0
41
1
10
74.2649904803984
20
3.03515003339672
30
0
41
1
10
74.1411129540723
20
3.07452752171307
30
-1E-16
41
1
10
74.068367427594
20
3.09625198898061
30
-1E-16
41
1
10
73.9116846833757
20
3.14069088587911
30
-1E-16
41
1
10
73.8254297425898
20
3.16400886333474
30
-1E-16
41
1
10
73.7012480945535
20
3.19610961736743
30
-1E-16
41
1
10
73.6631142511474
20
3.20577568800675
30
-1E-16
41
1
10
73.6252048024892
20
3.2151970254649
30
-1E-16
0
SPLINE
5
1A0
100
AcDbEntity
8
1
62
256
6
ByLayer
370
-1
48
1
60
0
100
AcDbSpline
70
4
71
3
72
12
73
8
40
0
40
0
40
0
40
0
40
0.520905794595435
40
0.520905794595435
40
0.762263876242353
40
0.762263876242353
40
1
40
1
40
1
40
1
41
1
10
74.0897917706024
20
-2.96696469845094
30
-1E-16
41
1
10
74.1250857949082
20
-3.04077921783048
30
-1E-16
41
1
10
74.161642004892
20
-3.11354925993564
30
-1E-16
41
1
10
74.2035676121982
20
-3.20477766846977
30
0
41
1
10
74.2153051847729
20
-3.23197745518857
30
0
41
1
10
74.2315327878322
20
-3.27695568286475
30
0
41
1
10
74.23623838
20
-3.29537525144446
30
0
41
1
10
74.23623838
20
-3.3072509425414
30
0
0
SPLINE
5
1A1
100
AcDbEntity
8
1
62
256
6
ByLayer
370
-1
48
1
60
0
100
AcDbSpline
70
4
71
3
72
16
73
12
40
0
40
0
40
0
40
0
40
0.231930620472722
40
0.231930620472722
40
0.464196436170792
40
0.464196436170792
40
0.695028532242717
40
0.695028532242717
40
0.917568616543943
40
0.917568616543943
40
1
40
1
40
1
40
1
41
1
10
66.586629950385
20
5.48688811904589
30
-5E-16
41
1
10
66.4317814748967
20
5.47867207427518
30
-5E-16
41
1
10
66.2750269414595
20
5.44501289136664
30
-5E-16
41
1
10
65.9829402263971
20
5.33141018288359
30
-6E-16
41
1
10
65.8436123213919
20
5.24977918325706
30
-6E-16
41
1
10
65.6037972328836
20
5.04956725511741
30
-6E-16
41
1
10
65.4996831337694
20
4.92826466246504
30
-6E-16
41
1
10
65.345317166996
20
4.66726459079109
30
-6E-16
41
1
10
65.2911508913211
20
4.52463709979514
30
-6E-16
41
1
10
65.25396209553
20
4.32584297981043
30
-6E-16
41
1
10
65.2474524449318
20
4.27116992225149
30
-6E-16
41
1
10
65.2446286059741
20
4.21650482837145
30
-6E-16
0
SPLINE
5
1A2
100
AcDbEntity
8
1
62
256
6
ByLayer
370
-1
48
1
60
0
100
AcDbSpline
70
4
71
3
72
16
73
12
40
0
40
0
40
0
40
0
40
0.0773436766578263
40
0.0773436766578263
40
0.181588290672565
40
0.181588290672565
40
0.353924998169933
40
0.353924998169933
40
0.659870482235913
40
0.659870482235913
40
1
40
1
40
1
40
1
41
1
10
8.53867513459485
20
23.8391299750502
30
4E-16
41
1
10
8.51930872656199
20
23.8391299750502
30
4E-16
41
1
10
8.49980795201664
20
23.8383766644783
30
4E-16
41
1
10
8.45563565444414
20
23.8350242537623
30
4E-16
41
1
10
8.4311000339583
20
23.8318379431382
30
4E-16
41
1
10
8.37136994789257
20
23.8212426939764
30
4E-16
41
1
10
8.33841285721002
20
23.8123280847848
30
4E-16
41
1
10
8.25926399475679
20
23.7850663392817
30
4E-16
41
1
10
8.22011072567564
20
23.7642694363114
30
4E-16
41
1
10
8.153175578608
20
23.7185457490813
30
3E-16
41
1
10
8.12652521949879
20
23.6928734932669
30
3E-16
41
1
10
8.10566243270263
20
23.6665017920807
30
-5E-16
0
SPLINE
5
1A3
100
AcDbEntity
8
SK1
62
256
6
ByLayer
370
-1
48
1
60
0
100
AcDbSpline
70
4
71
3
72
14
73
10
40
0
40
0
40
0
40
0
40
0.10357574079845
40
0.255914577449822
40
0.408253414101195
40
0.560592250752568
40
0.712931087403941
40
0.865269924055314
40
1
40
1
40
1
40
1
41
1
10
-2.20000000000005
20
-15.0247808645649
30
-3E-16
41
1
10
-2.20000000000005
20
-14.8954704310021
30
-3E-16
41
1
10
-2.20000000000005
20
-14.5640748657281
30
-3E-16
41
1
10
-2.20000000000006
20
-13.9908991973701
30
6E-16
41
1
10
-2.20000000000006
20
-13.2960635543427
30
6E-16
41
1
10
-2.20000000000006
20
-12.5554382231015
30
6E-16
41
1
10
-2.20000000000006
20
-11.7775050699619
30
6E-16
41
1
10
-2.20000000000006
20
-11.002604524008
30
6E-16
41
1
10
-2.20000000000006
20
-10.4855729233104
30
6E-16
41
1
10
-2.20000000000006
20
-10.2416915120116
30
6E-16
0
SPLINE
5
1A4
100
AcDbEntity
8
SK1
62
256
6
ByLayer
370
-1
48
1
60
0
100
AcDbSpline
70
4
71
3
72
41
73
37
40
0
40
0
40
0
40
0
40
0.003586261541826
40
0.0346121196535795
40
0.065637977765333
40
0.0966638358770865
40
0.12768969398884
40
0.158715552100593
40
0.189741410212347
40
0.220767268324101
40
0.251793126435854
40
0.282818984547608
40
0.313844842659361
40
0.344870700771115
40
0.375896558882868
40
0.406922416994622
40
0.437948275106375
40
0.468974133218129
40
0.499999991329882
40
0.531025849441636
40
0.562051707553389
40
0.593077565665143
40
0.624103423776896
40
0.65512928188865
40
0.686155140000403
40
0.717180998112157
40
0.74820685622391
40
0.779232714335664
40
0.810258572447417
40
0.841284430559171
40
0.872310288670924
40
0.903336146782678
40
0.934362004894431
40
0.965387863006185
40
0.996413721117938
40
1
40
1
40
1
40
1
41
1
10
-2.20000000000003
20
-10.2416915120116
30
6E-16
41
1
10
-2.20000000000003
20
-10.20981704462
30
6E-16
41
1
10
-2.20000000000003
20
-9.90198508683864
30
6E-16
41
1
10
-2.20000000000003
20
-9.31498084801927
30
6E-16
41
1
10
-2.20000000000003
20
-8.48421552667983
30
6E-16
41
1
10
-2.20000000000003
20
-7.66447545612948
30
6E-16
41
1
10
-2.20000000000003
20
-6.86437716583364
30
-1.2E-15
41
1
10
-2.20000000000003
20
-6.09147129549595
30
-1.2E-15
41
1
10
-2.20000000000002
20
-5.35199475664419
30
-1.2E-15
41
1
10
-2.20000000000002
20
-4.65066711103057
30
-1.2E-15
41
1
10
-2.20000000000002
20
-3.99054255831794
30
-1.2E-15
41
1
10
-2.20000000000002
20
-3.37292400688898
30
-1.2E-15
41
1
10
-2.20000000000002
20
-2.79733805829053
30
-1.2E-15
41
1
10
-2.20000000000002
20
-2.26158054799655
30
-1.2E-15
41
1
10
-2.20000000000002
20
-1.76181929549966
30
-1.2E-15
41
1
10
-2.20000000000002
20
-1.29276519791202
30
-1.2E-15
41
1
10
-2.20000000000002
20
-0.847888335033048
30
-1.2E-15
41
1
10
-2.20000000000002
20
-0.419689842123262
30
-1.2E-15
41
1
10
-2.20000000000002
20
8.86503244E-08
30
-1.2E-15
41
1
10
-2.20000000000002
20
0.419689487520827
30
-1.2E-15
41
1
10
-2.20000000000002
20
0.847888498249944
30
-1.2E-15
41
1
10
-2.20000000000002
20
1.2927648996446
30
-1.2E-15
41
1
10
-2.20000000000002
20
1.76181941854253
30
-1.2E-15
41
1
10
-2.20000000000002
20
2.26158035409011
30
-1.2E-15
41
1
10
-2.20000000000002
20
2.79733812097996
30
-1.2E-15
41
1
10
-2.20000000000002
20
3.37292395003544
30
-1.2E-15
41
1
10
-2.20000000000002
20
3.99054254934367
30
-1.2E-15
41
1
10
-2.20000000000002
20
4.65066720377891
30
-1.2E-15
41
1
10
-2.20000000000002
20
5.35199467517882
30
-1.2E-15
41
1
10
-2.2
20
6.09147152860683
30
-1.2E-15
41
1
10
-2.2
20
6.86437702157352
30
-1.2E-15
41
1
10
-2.2
20
7.66447580005675
30
6E-16
41
1
10
-2.2
20
8.48421533830776
30
6E-16
41
1
10
-2.2
20
9.31498125757818
30
6E-16
41
1
10
-2.2
20
9.90198521620582
30
6E-16
41
1
10
-2.2
20
10.2098173562793
30
6E-16
41
1
10
-2.2
20
10.2416919827172
30
6E-16
0
SPLINE
5
1A5
100
AcDbEntity
8
SK1
62
256
6
ByLayer
370
-1
48
1
60
0
100
AcDbSpline
70
4
71
3
72
26
73
22
40
0
40
0
40
0
40
0
40
0.466011607458023
40
0.466011607458023
40
0.670240466301665
40
0.670240466301665
40
0.774567270182191
40
0.774567270182191
40
0.857070717706401
40
0.857070717706401
40
0.898538406950303
40
0.898538406950303
40
0.91804530799322
40
0.91804530799322
40
0.93777285580924
40
0.93777285580924
40
0.955553297254215
40
0.955553297254215
40
0.984230712729833
40
0.984230712729833
40
1
40
1
40
1
40
1
41
1
10
-0.200000000000031
20
-5.88142397393364
30
-1.1E-15
41
1
10
-0.200000000000031
20
-5.75538988127951
30
-1.1E-15
41
1
10
-0.204053336884698
20
-5.62782146467694
30
-1.1E-15
41
1
10
-0.224291300237965
20
-5.44372978251553
30
-1.1E-15
41
1
10
-0.232375898168357
20
-5.38732844996707
30
-1.1E-15
41
1
10
-0.25138967724466
20
-5.30297629006856
30
-1.1E-15
41
1
10
-0.25900395291697
20
-5.27447755328711
30
-1.1E-15
41
1
10
-0.277073232762461
20
-5.22483382882962
30
-1.1E-15
41
1
10
-0.286541211569741
20
-5.20296176881428
30
-1.1E-15
41
1
10
-0.306529791401147
20
-5.17375294403055
30
-1.1E-15
41
1
10
-0.314426911926432
20
-5.16437172981747
30
-1.1E-15
41
1
10
-0.328481919155976
20
-5.15398148698242
30
-1.1E-15
41
1
10
-0.333472930985607
20
-5.15114386616685
30
-1.1E-15
41
1
10
-0.343977733072492
20
-5.14732547572174
30
-1.1E-15
41
1
10
-0.349636276202247
20
-5.14634920679956
30
-1.1E-15
41
1
10
-0.360093315739704
20
-5.14653179253077
30
-1.1E-15
41
1
10
-0.365036235354111
20
-5.1474709448093
30
-1.1E-15
41
1
10
-0.377122372198727
20
-5.15149960910952
30
-1.1E-15
41
1
10
-0.38400245046968
20
-5.15555051547688
30
-1.1E-15
41
1
10
-0.393629001799496
20
-5.16285427826716
30
-1.1E-15
41
1
10
-0.396890469609744
20
-5.16568716298295
30
-1.1E-15
41
1
10
-0.400000000000048
20
-5.1686667957452
30
-1.1E-15
0
SPLINE
5
1A6
100
AcDbEntity
8
SK1
62
256
6
ByLayer
370
-1
48
1
60
0
100
AcDbSpline
70
4
71
3
72
79
73
75
40
0
40
0
40
0
40
0
40
0.0067087491658373
40
0.0208027850293923
40
0.0348968208929472
40
0.0489908567565022
40
0.0630848926200571
40
0.0771789284836121
40
0.0912729643471671
40
0.105367000210722
40
0.119461036074277
40
0.133555071937832
40
0.147649107801387
40
0.161743143664942
40
0.175837179528497
40
0.189931215392052
40
0.204025251255607
40
0.218119287119162
40
0.232213322982717
40
0.246307358846272
40
0.260401394709826
40
0.274495430573381
40
0.288589466436937
40
0.302683502300492
40
0.316777538164046
40
0.330871574027601
40
0.344965609891156
40
0.359059645754711
40
0.373153681618266
40
0.387247717481821
40
0.401341753345376
40
0.415435789208931
40
0.429529825072486
40
0.443623860936041
40
0.457717896799596
40
0.471811932663151
40
0.485905968526706
40
0.500000004390261
40
0.514094040253816
40
0.528188076117371
40
0.542282111980926
40
0.556376147844481
40
0.570470183708036
40
0.584564219571591
40
0.598658255435146
40
0.612752291298701
40
0.626846327162256
40
0.64094036302581
40
0.655034398889365
40
0.66912843475292
40
0.683222470616475
40
0.69731650648003
40
0.711410542343585
40
0.72550457820714
40
0.739598614070695
40
0.75369264993425
40
0.767786685797805
40
0.78188072166136
40
0.795974757524915
40
0.81006879338847
40
0.824162829252025
40
0.83825686511558
40
0.852350900979135
40
0.86644493684269
40
0.880538972706245
40
0.8946330085698
40
0.908727044433355
40
0.92282108029691
40
0.936915116160465
40
0.951009152024019
40
0.965103187887574
40
0.97919722375113
40
0.993291259614684
40
1
40
1
40
1
40
1
41
1
10
-2.99999999999999
20
-17.2891030042205
30
-3E-16
41
1
10
-2.99999999999999
20
-17.3064425257973
30
-3E-16
41
1
10
-2.99999999999999
20
-17.3576824681232
30
-3E-16
41
1
10
-2.99999999999999
20
-17.4290648746261
30
-3E-16
41
1
10
-2.99999999999999
20
-17.485942797131
30
-3E-16
41
1
10
-3
20
-17.5070292572438
30
1E-16
41
1
10
-3
20
-17.4859401738947
30
1E-16
41
1
10
-3
20
-17.4163913620314
30
1E-16
41
1
10
-3
20
-17.292508891145
30
0
41
1
10
-3
20
-17.109112389619
30
0
41
1
10
-3
20
-16.8619882313059
30
1E-16
41
1
10
-3
20
-16.5481197778909
30
1E-16
41
1
10
-3
20
-16.1658744357059
30
1E-16
41
1
10
-3
20
-15.7151402778229
30
-3E-16
41
1
10
-3
20
-15.1974002275416
30
-3E-16
41
1
10
-3
20
-14.615750585635
30
-3E-16
41
1
10
-3.00000000000001
20
-13.9748490556263
30
6E-16
41
1
10
-3.00000000000001
20
-13.2808105172311
30
6E-16
41
1
10
-3.00000000000001
20
-12.5410348198396
30
6E-16
41
1
10
-3.00000000000001
20
-11.7639940995022
30
6E-16
41
1
10
-3.00000000000001
20
-10.9589648821142
30
6E-16
41
1
10
-3.00000000000001
20
-10.1357380738662
30
6E-16
41
1
10
-3.00000000000001
20
-9.30429484700946
30
6E-16
41
1
10
-3.00000000000001
20
-8.47448256671299
30
6E-16
41
1
10
-3.00000000000001
20
-7.65568288920957
30
6E-16
41
1
10
-3.00000000000001
20
-6.85650245921613
30
-1.2E-15
41
1
10
-3.00000000000001
20
-6.08448325446003
30
-1.2E-15
41
1
10
-3
20
-5.34585503158118
30
-1.2E-15
41
1
10
-3
20
-4.64533193812409
30
-1.2E-15
41
1
10
-3
20
-3.98596467002128
30
-1.2E-15
41
1
10
-3
20
-3.36905464097919
30
-1.2E-15
41
1
10
-3
20
-2.79412899562004
30
-1.2E-15
41
1
10
-3
20
-2.258986098001
30
-1.2E-15
41
1
10
-3
20
-1.7597981638325
30
-1.2E-15
41
1
10
-3
20
-1.29128215780324
30
-1.2E-15
41
1
10
-3
20
-0.846915650735326
30
-1.2E-15
41
1
10
-3
20
-0.41920838047028
30
-1.2E-15
41
1
10
-3
20
8.85486315E-08
30
-1.2E-15
41
1
10
-3
20
0.419208026274617
30
-1.2E-15
41
1
10
-3
20
0.84691581376498
30
-1.2E-15
41
1
10
-3
20
1.29128185987795
30
-1.2E-15
41
1
10
-3
20
1.75979828673422
30
-1.2E-15
41
1
10
-3
20
2.258985904317
30
-1.2E-15
41
1
10
-3
20
2.79412905823756
30
-1.2E-15
41
1
10
-3
20
3.36905458419088
30
-1.2E-15
41
1
10
-3
20
3.9859646610573
30
-1.2E-15
41
1
10
-3
20
4.64533203076601
30
-1.2E-15
41
1
10
-3
20
5.34585495020926
30
-1.2E-15
41
1
10
-2.99999999999999
20
6.08448348730349
30
-1.2E-15
41
1
10
-2.99999999999999
20
6.8565023151215
30
-1.2E-15
41
1
10
-2.99999999999999
20
7.65568323274229
30
6E-16
41
1
10
-2.99999999999999
20
8.47448237855701
30
6E-16
41
1
10
-2.99999999999999
20
9.3042952560985
30
6E-16
41
1
10
-2.99999999999999
20
10.1357378664363
30
6E-16
41
1
10
-2.99999999999999
20
10.9589653027427
30
6E-16
41
1
10
-2.99999999999999
20
11.7639938999323
30
6E-16
41
1
10
-2.99999999999999
20
12.5410351974885
30
6E-16
41
1
10
-2.99999999999999
20
13.2808103509101
30
6E-16
41
1
10
-2.99999999999999
20
13.9748493432593
30
6E-16
41
1
10
-2.99999999999997
20
14.6157504724399
30
-3E-16
41
1
10
-2.99999999999997
20
15.1974003926869
30
-3E-16
41
1
10
-2.99999999999997
20
15.7151402291803
30
-3E-16
41
1
10
-2.99999999999997
20
16.1658744651287
30
1E-16
41
1
10
-2.99999999999997
20
16.5481197951875
30
1E-16
41
1
10
-2.99999999999997
20
16.8619881326946
30
1E-16
41
1
10
-2.99999999999997
20
17.1091124641424
30
0
41
1
10
-2.99999999999997
20
17.2925086916607
30
0
41
1
10
-2.99999999999997
20
17.416391849422
30
1E-16
41
1
10
-2.99999999999997
20
17.4859391868837
30
1E-16
41
1
10
-2.99999999999997
20
17.5070293524765
30
1E-16
41
1
10
-2.99999999999996
20
17.4859434032095
30
-3E-16
41
1
10
-2.99999999999996
20
17.4290646714906
30
-3E-16
41
1
10
-2.99999999999996
20
17.3576822645701
30
-3E-16
41
1
10
-2.99999999999994
20
17.3064424598159
30
-3E-16
41
1
10
-2.99999999999994
20
17.2891029960986
30
-3E-16
0
SPLINE
5
1A7
100
AcDbEntity
8
SK1
62
256
6
ByLayer
370
-1
48
1
60
0
100
AcDbSpline
70
4
71
3
72
73
73
69
40
0
40
0
40
0
40
0
40
0.0018466562387959
40
0.0173088926452582
40
0.0327711290517205
40
0.0482333654581828
40
0.0636956018646452
40
0.0791578382711075
40
0.0946200746775699
40
0.110082311084032
40
0.125544547490495
40
0.141006783896957
40
0.156469020303419
40
0.171931256709881
40
0.187393493116344
40
0.202855729522806
40
0.218317965929268
40
0.233780202335731
40
0.249242438742193
40
0.264704675148655
40
0.280166911555118
40
0.29562914796158
40
0.311091384368043
40
0.326553620774505
40
0.342015857180967
40
0.35747809358743
40
0.372940329993892
40
0.388402566400354
40
0.403864802806817
40
0.419327039213279
40
0.434789275619741
40
0.450251512026204
40
0.465713748432666
40
0.481175984839128
40
0.49663822124559
40
0.512100457652053
40
0.527562694058515
40
0.543024930464977
40
0.55848716687144
40
0.573949403277902
40
0.589411639684365
40
0.604873876090827
40
0.620336112497289
40
0.635798348903752
40
0.651260585310214
40
0.666722821716676
40
0.682185058123138
40
0.697647294529601
40
0.713109530936063
40
0.728571767342525
40
0.744034003748988
40
0.75949624015545
40
0.774958476561912
40
0.790420712968375
40
0.805882949374837
40
0.821345185781299
40
0.836807422187762
40
0.852269658594224
40
0.867731895000686
40
0.883194131407149
40
0.898656367813611
40
0.914118604220073
40
0.929580840626536
40
0.945043077032998
40
0.960505313439461
40
0.975967549845923
40
0.991429786252385
40
1
40
1
40
1
40
1
41
1
10
-28.5004731679065
20
16.5843275738779
30
-1E-16
41
1
10
-28.5004731679065
20
16.5890126472576
30
-1E-16
41
1
10
-28.5004731679065
20
16.6325284259759
30
-1E-16
41
1
10
-28.5004731679065
20
16.7076779742401
30
-1E-16
41
1
10
-28.5004731679065
20
16.7910009100056
30
-1E-16
41
1
10
-28.5004731679065
20
16.8457973580109
30
-1E-16
41
1
10
-28.5004731679065
20
16.8661113679709
30
-1E-16
41
1
10
-28.5004731679065
20
16.8457932960413
30
-1E-16
41
1
10
-28.5004731679065
20
16.7787920295582
30
1E-16
41
1
10
-28.5004731679065
20
16.6594441325877
30
0
41
1
10
-28.5004731679065
20
16.4827618905286
30
0
41
1
10
-28.5004731679065
20
16.2446845781521
30
1E-16
41
1
10
-28.5004731679065
20
15.9423067030316
30
-1E-16
41
1
10
-28.5004731679065
20
15.5740550609707
30
-1E-16
41
1
10
-28.5004731679065
20
15.1398218356869
30
-1E-16
41
1
10
-28.5004731679065
20
14.641036029933
30
-1E-16
41
1
10
-28.5004731679065
20
14.0806798361696
30
-1E-16
41
1
10
-28.5004731679065
20
13.4632415716311
30
8E-16
41
1
10
-28.5004731679065
20
12.7946107775083
30
8E-16
41
1
10
-28.5004731679065
20
12.0819181856552
30
8E-16
41
1
10
-28.5004731679065
20
11.3333237326367
30
8E-16
41
1
10
-28.5004731679065
20
10.5577665720679
30
8E-16
41
1
10
-28.5004731679065
20
9.76467681695485
30
8E-16
41
1
10
-28.5004731679065
20
8.96367263859318
30
8E-16
41
1
10
-28.5004731679065
20
8.16423852984695
30
8E-16
41
1
10
-28.5004731679065
20
7.37541494914294
30
8E-16
41
1
10
-28.5004731679065
20
6.60549138939049
30
8E-16
41
1
10
-28.5004731679065
20
5.86173553761273
30
8E-16
41
1
10
-28.5004731679065
20
5.15014758540369
30
8E-16
41
1
10
-28.5004731679065
20
4.47527023543944
30
8E-16
41
1
10
-28.5004731679065
20
3.84004176429164
30
8E-16
41
1
10
-28.5004731679065
20
3.24571625932066
30
8E-16
41
1
10
-28.5004731679065
20
2.69183828529151
30
8E-16
41
1
10
-28.5004731679065
20
2.17628628328643
30
8E-16
41
1
10
-28.5004731679065
20
1.69537351492622
30
8E-16
41
1
10
-28.5004731679065
20
1.24400909015796
30
8E-16
41
1
10
-28.5004731679065
20
0.815910920503256
30
8E-16
41
1
10
-28.5004731679065
20
0.403861164286866
30
8E-16
41
1
10
-28.5004731679065
20
8.5306965E-08
30
8E-16
41
1
10
-28.5004731679065
20
-0.403861505515664
30
8E-16
41
1
10
-28.5004731679065
20
-0.815910763441934
30
8E-16
41
1
10
-28.5004731679065
20
-1.24400937717635
30
8E-16
41
1
10
-28.5004731679065
20
-1.69537339652376
30
8E-16
41
1
10
-28.5004731679065
20
-2.17628646987976
30
8E-16
41
1
10
-28.5004731679065
20
-2.69183822496635
30
8E-16
41
1
10
-28.5004731679065
20
-3.24571631402995
30
8E-16
41
1
10
-28.5004731679065
20
-3.84004177292741
30
8E-16
41
1
10
-28.5004731679065
20
-4.47527014618899
30
8E-16
41
1
10
-28.5004731679065
20
-5.15014766379662
30
8E-16
41
1
10
-28.5004731679065
20
-5.86173531329345
30
8E-16
41
1
10
-28.5004731679065
20
-6.60549152820988
30
8E-16
41
1
10
-28.5004731679065
20
-7.37541461818662
30
8E-16
41
1
10
-28.5004731679065
20
-8.16423871111465
30
8E-16
41
1
10
-28.5004731679065
20
-8.96367224448051
30
8E-16
41
1
10
-28.5004731679065
20
-9.76467701679087
30
8E-16
41
1
10
-28.5004731679065
20
-10.5577661668382
30
8E-16
41
1
10
-28.5004731679065
20
-11.3333239249004
30
8E-16
41
1
10
-28.5004731679065
20
-12.0819178218316
30
8E-16
41
1
10
-28.5004731679065
20
-12.7946109377404
30
8E-16
41
1
10
-28.5004731679065
20
-13.4632412945281
30
8E-16
41
1
10
-28.5004731679065
20
-14.0806799452207
30
-1E-16
41
1
10
-28.5004731679065
20
-14.6410358708334
30
-1E-16
41
1
10
-28.5004731679065
20
-15.1398218825487
30
-1E-16
41
1
10
-28.5004731679065
20
-15.5740550326249
30
-1E-16
41
1
10
-28.5004731679065
20
-15.9423066863682
30
-1E-16
41
1
10
-28.5004731679065
20
-16.2446846731533
30
1E-16
41
1
10
-28.5004731679065
20
-16.4473889046056
30
0
41
1
10
-28.5004731679065
20
-16.5460150995768
30
0
41
1
10
-28.5004731679065
20
-16.5781578652803
30
0
0
SPLINE
5
1A8
100
AcDbEntity
8
SK1
62
256
6
ByLayer
370
-1
48
1
60
0
100
AcDbSpline
70
4
71
3
72
22
73
18
40
0
40
0
40
0
40
0
40
0.0434921783994957
40
0.0434921783994957
40
0.0876860403067018
40
0.0876860403067018
40
0.118952127699581
40
0.118952127699581
40
0.150155842428293
40
0.150155842428293
40
0.196307791915999
40
0.196307791915999
40
0.283435745194097
40
0.283435745194097
40
0.579041181948964
40
0.579041181948964
40
1
40
1
40
1
40
1
41
1
10
-0.400000000000034
20
-5.16866679574545
30
-1.1E-15
41
1
10
-0.420550053748514
20
-5.18835839085125
30
-1.1E-15
41
1
10
-0.443027188827415
20
-5.20675192843464
30
-1.1E-15
41
1
10
-0.49273201607339
20
-5.2377596337341
30
-1.1E-15
41
1
10
-0.520750465867962
20
-5.25056923469441
30
-1.1E-15
41
1
10
-0.571323171411436
20
-5.26230651341552
30
-1.1E-15
41
1
10
-0.593569294960204
20
-5.26418855716787
30
-1.1E-15
41
1
10
-0.636876257397901
20
-5.26111275520481
30
-1.1E-15
41
1
10
-0.65841397451905
20
-5.25617334660464
30
-1.1E-15
41
1
10
-0.708019059178255
20
-5.23795018495898
30
-1.1E-15
41
1
10
-0.735222931334576
20
-5.22174262349009
30
-1.1E-15
41
1
10
-0.805307091704577
20
-5.16870577827899
30
-1.1E-15
41
1
10
-0.843008552736919
20
-5.12565182749108
30
-1.1E-15
41
1
10
-0.986978354799746
20
-4.93030734845323
30
-1.1E-15
41
1
10
-1.05565821402414
20
-4.75512394253218
30
-1.1E-15
41
1
10
-1.19912511806339
20
-4.32976589005278
30
-1.1E-15
41
1
10
-1.25838015422249
20
-4.06924736884392
30
-1.1E-15
41
1
10
-1.30710678118656
20
-3.80474664113288
30
-1.1E-15
0
SPLINE
5
1A9
100
AcDbEntity
8
SK1
62
256
6
ByLayer
370
-1
48
1
60
0
100
AcDbSpline
70
4
71
3
72
20
73
16
40
0
40
0
40
0
40
0
40
0.048262570563689
40
0.048262570563689
40
0.325220898604862
40
0.325220898604862
40
0.463381471380921
40
0.463381471380921
40
0.601551524436392
40
0.601551524436392
40
0.739735425206432
40
0.739735425206432
40
0.877939603519785
40
0.877939603519785
40
1
40
1
40
1
40
1
41
1
10
-2.2
20
15.0247809138968
30
-3E-16
41
1
10
-2.2
20
15.0987632316056
30
-3E-16
41
1
10
-2.19999999163143
20
15.1713153633955
30
-3E-16
41
1
10
-2.19999985652704
20
15.6498272161841
30
-3E-16
41
1
10
-2.19999939887505
20
16.0101821224504
30
-3E-16
41
1
10
-2.1999968301155
20
16.4712024133171
30
2E-16
41
1
10
-2.19999564996829
20
16.6117543332687
30
2E-16
41
1
10
-2.19999230715832
20
16.8650200442631
30
-1E-16
41
1
10
-2.19999013861343
20
16.9778482087753
30
-1E-16
41
1
10
-2.19998437020206
20
17.1737303581386
30
0
41
1
10
-2.19998076728285
20
17.2568757984565
30
0
41
1
10
-2.19997155592218
20
17.3908966291518
30
-1E-16
41
1
10
-2.19996594630393
20
17.4418577268987
30
-1E-16
41
1
10
-2.19995283284742
20
17.5043876537344
30
2E-16
41
1
10
-2.19994561248375
20
17.5199107584729
30
2E-16
41
1
10
-2.19993704319938
20
17.5200998959622
30
2E-16
0
SPLINE
5
1AA
100
AcDbEntity
8
SK1
62
256
6
ByLayer
370
-1
48
1
60
0
100
AcDbSpline
70
4
71
3
72
20
73
16
40
0
40
0
40
0
40
0
40
0.10770985974307
40
0.10770985974307
40
0.254805889956332
40
0.254805889956332
40
0.401872722923316
40
0.401872722923316
40
0.548920274155365
40
0.548920274155365
40
0.695955076720036
40
0.695955076720036
40
0.842981467921934
40
0.842981467921934
40
1
40
1
40
1
40
1
41
1
10
-2.19993655780451
20
-17.5200998571235
30
2E-16
41
1
10
-2.19994418187717
20
-17.5204461970913
30
2E-16
41
1
10
-2.19995074650438
20
-17.5087568436317
30
2E-16
41
1
10
-2.19996422500266
20
-17.4552443316024
30
-1E-16
41
1
10
-2.19997041029711
20
-17.4038992989507
30
-1E-16
41
1
10
-2.19998045819514
20
-17.2645372816577
30
0
41
1
10
-2.19998432672418
20
-17.1764163911094
30
0
41
1
10
-2.19999043378134
20
-16.9665639550931
30
-1E-16
41
1
10
-2.19999267824224
20
-16.8447172876609
30
-1E-16
41
1
10
-2.19999607391786
20
-16.5697986634621
30
2E-16
41
1
10
-2.1999972302832
20
-16.4165791409567
30
2E-16
41
1
10
-2.19999885859691
20
-16.0808080953319
30
-3E-16
41
1
10
-2.19999933084272
20
-15.8980848535624
30
-3E-16
41
1
10
-2.19999991533382
20
-15.4916218225699
30
-3E-16
41
1
10
-2.20000000000003
20
-15.2657541717875
30
-3E-16
41
1
10
-2.20000000000003
20
-15.0247808645657
30
-3E-16
0
SPLINE
5
1AB
100
AcDbEntity
8
SK1
62
256
6
ByLayer
370
-1
48
1
60
0
100
AcDbSpline
70
4
71
3
72
22
73
18
40
0
40
0
40
0
40
0
40
0.352684316750051
40
0.352684316750051
40
0.750046292484896
40
0.750046292484896
40
0.835479263400858
40
0.835479263400858
40
0.869352774138347
40
0.869352774138347
40
0.903637365464606
40
0.903637365464606
40
0.934112944215772
40
0.934112944215772
40
0.983611230456551
40
0.983611230456551
40
1
40
1
40
1
40
1
41
1
10
-1.30710678118658
20
3.80474436172725
30
-1.1E-15
41
1
10
-1.26637440296075
20
4.02584957204758
30
-1.1E-15
41
1
10
-1.21786346361695
20
4.24386265362031
30
-1.1E-15
41
1
10
-1.08311917044625
20
4.69265802851197
30
-1.1E-15
41
1
10
-1.00360006874375
20
4.93633956823049
30
-1.1E-15
41
1
10
-0.803344749762786
20
5.16879396055796
30
-1.1E-15
41
1
10
-0.761021311877826
20
5.2085340012795
30
-1.1E-15
41
1
10
-0.689167148695745
20
5.24561851051834
30
-1.1E-15
41
1
10
-0.666676206231415
20
5.25408214518671
30
-1.1E-15
41
1
10
-0.619919785859764
20
5.2635527096034
30
-1.1E-15
41
1
10
-0.595012690956537
20
5.26445496143637
30
-1.1E-15
41
1
10
-0.54992619516284
20
5.25839930645867
30
-1.1E-15
41
1
10
-0.529028206588023
20
5.2523184480491
30
-1.1E-15
41
1
10
-0.478237300450658
20
5.23079657049823
30
-1.1E-15
41
1
10
-0.449806665426408
20
5.21177878736719
30
-1.1E-15
41
1
10
-0.416050679082105
20
5.18357602352111
30
-1.1E-15
41
1
10
-0.407890864165253
20
5.17622805658158
30
-1.1E-15
41
1
10
-0.400000000000006
20
5.16866682996346
30
-1.1E-15
0
SPLINE
5
1AC
100
AcDbEntity
8
SK1
62
256
6
ByLayer
370
-1
48
1
60
0
100
AcDbSpline
70
4
71
3
72
24
73
20
40
0
40
0
40
0
40
0
40
0.0299003298961529
40
0.0299003298961529
40
0.0528622635029462
40
0.0528622635029462
40
0.0709275158044826
40
0.0709275158044826
40
0.0890039000876007
40
0.0890039000876007
40
0.113622484917845
40
0.113622484917845
40
0.157577258657164
40
0.157577258657164
40
0.296025140029457
40
0.296025140029457
40
0.87815082805682
40
0.87815082805682
40
1
40
1
40
1
40
1
41
1
10
-0.400000000000034
20
5.1686668299628
30
-1.1E-15
41
1
10
-0.394094307655578
20
5.1630078454437
30
-1.1E-15
41
1
10
-0.387606238508326
20
5.15782429554116
30
-1.1E-15
41
1
10
-0.374945775641876
20
5.15075407261173
30
-1.1E-15
41
1
10
-0.368929355824335
20
5.14835070696048
30
-1.1E-15
41
1
10
-0.357708677012326
20
5.14629827954829
30
-1.1E-15
41
1
10
-0.352495529695631
20
5.146182097414
30
-1.1E-15
41
1
10
-0.342356257615719
20
5.14777530545445
30
-1.1E-15
41
1
10
-0.337316914191902
20
5.14950079287593
30
-1.1E-15
41
1
10
-0.326353738404194
20
5.15512166080438
30
-1.1E-15
41
1
10
-0.32057108777606
20
5.15961290941786
30
-1.1E-15
41
1
10
-0.306345382412005
20
5.17348963231092
30
-1.1E-15
41
1
10
-0.298929389281341
20
5.18414440403333
30
-1.1E-15
41
1
10
-0.272649182798816
20
5.229294374586
30
-1.1E-15
41
1
10
-0.260939846150848
20
5.26761390191805
30
-1.1E-15
41
1
10
-0.21079653079866
20
5.46289223314807
30
-1.1E-15
41
1
10
-0.204366482898266
20
5.62478131775688
30
-1.1E-15
41
1
10
-0.200325121553291
20
5.81542789035393
30
-1.1E-15
41
1
10
-0.200000000000031
20
5.84846798543992
30
-1.1E-15
41
1
10
-0.200000000000031
20
5.88142452370525
30
-1.1E-15
0
SPLINE
5
1AD
100
AcDbEntity
8
SK1
62
256
6
ByLayer
370
-1
48
1
60
0
100
AcDbSpline
70
4
71
3
72
30
73
26
40
0
40
0
40
0
40
0
40
0.0056618331952247
40
0.050866756754499
40
0.0960716803137733
40
0.141276603873048
40
0.186481527432322
40
0.231686450991596
40
0.276891374550871
40
0.322096298110145
40
0.367301221669419
40
0.412506145228694
40
0.457711068787968
40
0.502915992347242
40
0.548120915906517
40
0.593325839465791
40
0.638530763025065
40
0.68373568658434
40
0.728940610143614
40
0.774145533702888
40
0.819350457262163
40
0.864555380821437
40
0.909760304380711
40
0.954965227939986
40
1
40
1
40
1
40
1
41
1
10
-0.400000000000034
20
-5.16866679574545
30
-1.1E-15
41
1
10
-0.400000000000034
20
-5.19818239171087
30
-1.1E-15
41
1
10
-0.400000000000034
20
-5.4642693870785
30
-1.1E-15
41
1
10
-0.400000000000034
20
-5.98219146197619
30
-1.1E-15
41
1
10
-0.400000000000048
20
-6.74713361247512
30
-1.1E-15
41
1
10
-0.400000000000048
20
-7.53968849279423
30
7E-16
41
1
10
-0.400000000000048
20
-8.35230648563572
30
7E-16
41
1
10
-0.400000000000048
20
-9.17636769820621
30
7E-16
41
1
10
-0.400000000000048
20
-10.0024728331478
30
7E-16
41
1
10
-0.400000000000048
20
-10.8207538150477
30
7E-16
41
1
10
-0.400000000000048
20
-11.621207093194
30
7E-16
41
1
10
-0.400000000000048
20
-12.3940190774916
30
7E-16
41
1
10
-0.400000000000034
20
-13.1298916243888
30
7E-16
41
1
10
-0.400000000000034
20
-13.8203332490727
30
7E-16
41
1
10
-0.400000000000034
20
-14.4579281585873
30
-2E-16
41
1
10
-0.400000000000034
20
-15.0365497976466
30
-2E-16
41
1
10
-0.400000000000034
20
-15.5515337877381
30
-2E-16
41
1
10
-0.400000000000034
20
-15.999782545611
30
-2E-16
41
1
10
-0.400000000000034
20
-16.3798174815961
30
-2E-16
41
1
10
-0.400000000000034
20
-16.6917603323908
30
0
41
1
10
-0.400000000000034
20
-16.937258665185
30
0
41
1
10
-0.400000000000034
20
-17.1193485969268
30
0
41
1
10
-0.400000000000034
20
-17.2422669751989
30
0
41
1
10
-0.40000000000002
20
-17.3111334605861
30
-2E-16
41
1
10
-0.400000000000006
20
-17.3250933804122
30
-2E-16
41
1
10
-0.400000000000006
20
-17.3251497959095
30
-2E-16
0
SPLINE
5
1AE
100
AcDbEntity
8
SK1
62
256
6
ByLayer
370
-1
48
1
60
0
100
AcDbSpline
70
4
71
3
72
14
73
10
40
0
40
0
40
0
40
0
40
0.134730002443746
40
0.287068852257179
40
0.439407702070613
40
0.591746551884047
40
0.744085401697481
40
0.896424251510915
40
1
40
1
40
1
40
1
41
1
10
-2.20000000000003
20
10.2416919827172
30
6E-16
41
1
10
-2.20000000000003
20
10.4855732775986
30
6E-16
41
1
10
-2.20000000000005
20
11.002605071344
30
6E-16
41
1
10
-2.20000000000003
20
11.7775048701628
30
6E-16
41
1
10
-2.20000000000003
20
12.5554386011841
30
6E-16
41
1
10
-2.20000000000003
20
13.2960633878306
30
6E-16
41
1
10
-2.20000000000003
20
13.9908994853334
30
6E-16
41
1
10
-2.20000000000003
20
14.5640747934533
30
-3E-16
41
1
10
-2.20000000000002
20
14.8954704523376
30
-3E-16
41
1
10
-2.20000000000002
20
15.0247809138971
30
-3E-16
0
SPLINE
5
1AF
100
AcDbEntity
8
SK1
62
256
6
ByLayer
370
-1
48
1
60
0
100
AcDbSpline
70
4
71
3
72
79
73
75
40
0
40
0
40
0
40
0
40
0.007403071817784
40
0.0214772708429282
40
0.0355514698680725
40
0.0496256688932167
40
0.0636998679183609
40
0.0777740669435051
40
0.0918482659686493
40
0.105922464993794
40
0.119996664018938
40
0.134070863044082
40
0.148145062069226
40
0.16221926109437
40
0.176293460119515
40
0.190367659144659
40
0.204441858169803
40
0.218516057194947
40
0.232590256220091
40
0.246664455245236
40
0.26073865427038
40
0.274812853295524
40
0.288887052320668
40
0.302961251345813
40
0.317035450370957
40
0.331109649396101
40
0.345183848421245
40
0.35925804744639
40
0.373332246471534
40
0.387406445496678
40
0.401480644521822
40
0.415554843546966
40
0.42962904257211
40
0.443703241597255
40
0.457777440622399
40
0.471851639647543
40
0.485925838672687
40
0.500000037697832
40
0.514074236722976
40
0.52814843574812
40
0.542222634773264
40
0.556296833798409
40
0.570371032823553
40
0.584445231848697
40
0.598519430873841
40
0.612593629898985
40
0.62666782892413
40
0.640742027949274
40
0.654816226974418
40
0.668890425999562
40
0.682964625024706
40
0.697038824049851
40
0.711113023074995
40
0.725187222100139
40
0.739261421125283
40
0.753335620150427
40
0.767409819175572
40
0.781484018200716
40
0.79555821722586
40
0.809632416251004
40
0.823706615276149
40
0.837780814301293
40
0.851855013326437
40
0.865929212351581
40
0.880003411376725
40
0.89407761040187
40
0.908151809427014
40
0.922226008452158
40
0.936300207477302
40
0.950374406502447
40
0.964448605527591
40
0.978522804552735
40
0.992597003577879
40
1
40
1
40
1
40
1
41
1
10
-1.99999999999999
20
17.1116144553988
30
-3E-16
41
1
10
-2
20
17.1306737742697
30
-3E-16
41
1
10
-1.99999999999999
20
17.1831798976957
30
-3E-16
41
1
10
-1.99999999999999
20
17.2550395308992
30
-3E-16
41
1
10
-1.99999999999999
20
17.3112459497449
30
-3E-16
41
1
10
-1.99999999999999
20
17.332108973513
30
2E-16
41
1
10
-1.99999999999999
20
17.3112189889208
30
2E-16
41
1
10
-1.99999999999999
20
17.2422674474921
30
-1E-16
41
1
10
-1.99999999999999
20
17.1193484069473
30
-1E-16
41
1
10
-1.99999999999999
20
16.9372587367202
30
0
41
1
10
-1.99999999999999
20
16.6917602356257
30
-1E-16
41
1
10
-1.99999999999999
20
16.379817495302
30
2E-16
41
1
10
-1.99999999999999
20
15.9997825770268
30
2E-16
41
1
10
-2
20
15.5515337348696
30
-3E-16
41
1
10
-2
20
15.0365499649752
30
-3E-16
41
1
10
-2
20
14.4579280405671
30
-3E-16
41
1
10
-2
20
13.8203335391022
30
6E-16
41
1
10
-2
20
13.1298914527521
30
6E-16
41
1
10
-2
20
12.3940194577498
30
6E-16
41
1
10
-2
20
11.6212068879992
30
6E-16
41
1
10
-2
20
10.8207542384818
30
6E-16
41
1
10
-2
20
10.0024726200598
30
6E-16
41
1
10
-2
20
9.1763681102681
30
6E-16
41
1
10
-2
20
8.35230629219896
30
6E-16
41
1
10
-2
20
7.53968883941295
30
6E-16
41
1
10
-2
20
6.74713346409766
30
-1.2E-15
41
1
10
-2.00000000000003
20
5.98219169787015
30
-1.2E-15
41
1
10
-2.00000000000003
20
5.25109264883235
30
-1.2E-15
41
1
10
-2.00000000000003
20
4.55854550233667
30
-1.2E-15
41
1
10
-2.00000000000003
20
3.90758262960762
30
-1.2E-15
41
1
10
-2.00000000000003
20
3.29948777527204
30
-1.2E-15
41
1
10
-2.00000000000003
20
2.7337538784453
30
-1.2E-15
41
1
10
-2.00000000000003
20
2.20813463136855
30
-1.2E-15
41
1
10
-2.00000000000003
20
1.71876156390905
30
-1.2E-15
41
1
10
-2.00000000000003
20
1.26029526086316
30
-1.2E-15
41
1
10
-2.00000000000003
20
0.826158476850594
30
-1.2E-15
41
1
10
-2.00000000000003
20
0.408799134273721
30
-1.2E-15
41
1
10
-2.00000000000003
20
2.402492782E-07
30
-1.2E-15
41
1
10
-2.00000000000003
20
-0.408799553455907
30
-1.2E-15
41
1
10
-2.00000000000003
20
-0.826158426773731
30
-1.2E-15
41
1
10
-2.00000000000003
20
-1.26029551010342
30
-1.2E-15
41
1
10
-2.00000000000003
20
-1.71876142586791
30
-1.2E-15
41
1
10
-2.00000000000003
20
-2.20813448047173
30
-1.2E-15
41
1
10
-2.00000000000003
20
-2.73375376338797
30
-1.2E-15
41
1
10
-2.00000000000003
20
-3.29948825001531
30
-1.2E-15
41
1
10
-2.00000000000003
20
-3.90758266192134
30
-1.2E-15
41
1
10
-2.00000000000003
20
-4.55854530449361
30
-1.2E-15
41
1
10
-2.00000000000003
20
-5.25109273249805
30
-1.2E-15
41
1
10
-2.00000000000003
20
-5.98219146197619
30
-1.2E-15
41
1
10
-2.00000000000003
20
-6.74713361247512
30
-1.2E-15
41
1
10
-2.00000000000003
20
-7.53968849279423
30
6E-16
41
1
10
-2.00000000000003
20
-8.35230648563569
30
6E-16
41
1
10
-2.00000000000003
20
-9.17636769820621
30
6E-16
41
1
10
-2.00000000000003
20
-10.0024728331478
30
6E-16
41
1
10
-2.00000000000003
20
-10.8207538150477
30
6E-16
41
1
10
-2.00000000000003
20
-11.621207093194
30
6E-16
41
1
10
-2.00000000000003
20
-12.3940190774916
30
6E-16
41
1
10
-2.00000000000003
20
-13.1298916243888
30
6E-16
41
1
10
-2.00000000000003
20
-13.8203332490727
30
6E-16
41
1
10
-2.00000000000003
20
-14.4579281585873
30
-3E-16
41
1
10
-2.00000000000003
20
-15.0365497976466
30
-3E-16
41
1
10
-2.00000000000003
20
-15.5515337877381
30
-3E-16
41
1
10
-2.00000000000001
20
-15.999782545611
30
2E-16
41
1
10
-2.00000000000001
20
-16.3798174815961
30
2E-16
41
1
10
-2.00000000000001
20
-16.6917603323908
30
-1E-16
41
1
10
-2.00000000000001
20
-16.937258665185
30
0
41
1
10
-2.00000000000001
20
-17.1193485969268
30
-1E-16
41
1
10
-2.00000000000001
20
-17.2422669751989
30
-1E-16
41
1
10
-2.00000000000001
20
-17.3112199736997
30
2E-16
41
1
10
-2.00000000000001
20
-17.3321088799283
30
2E-16
41
1
10
-2.00000000000001
20
-17.3112453434674
30
-3E-16
41
1
10
-2.00000000000001
20
-17.2550397180128
30
-3E-16
41
1
10
-2.00000000000001
20
-17.1831802763064
30
-3E-16
41
1
10
-2.00000000000001
20
-17.130674249872
30
-3E-16
41
1
10
-2.00000000000001
20
-17.1116151088438
30
-3E-16
0
SPLINE
5
1B0
100
AcDbEntity
8
SK1
62
256
6
ByLayer
370
-1
48
1
60
0
100
AcDbSpline
70
4
71
3
72
10
73
6
40
0
40
0
40
0
40
0
40
0.5
40
0.5
40
1
40
1
40
1
40
1
41
1
10
-1.30710678118655
20
3.80474436172725
30
-1.1E-15
41
1
10
-1.52921682270321
20
2.59907728352417
30
-1.1E-15
41
1
10
-1.70909405340875
20
1.31281235086649
30
-1.1E-15
41
1
10
-1.70963179300864
20
-1.3064983237451
30
-1.1E-15
41
1
10
-1.52966155970611
20
-2.59666176964447
30
-1.1E-15
41
1
10
-1.30710678118665
20
-3.80474664113314
30
-1.1E-15
0
SPLINE
5
1B1
100
AcDbEntity
8
1
62
256
6
ByLayer
370
-1
48
1
60
0
100
AcDbSpline
70
4
71
3
72
8
73
4
40
0
40
0
40
0
40
0
40
1
40
1
40
1
40
1
41
1
10
70.5876410921711
20
17.6130504632857
30
0
41
1
10
70.5772760899251
20
17.6258106855358
30
0
41
1
10
70.5667135837998
20
17.6384015028892
30
0
41
1
10
70.5559609726832
20
17.6508163696965
30
-1E-16
0
SPLINE
5
1B2
100
AcDbEntity
8
1
62
256
6
ByLayer
370
-1
48
1
60
0
100
AcDbSpline
70
4
71
3
72
8
73
4
40
0
40
0
40
0
40
0
40
1
40
1
40
1
40
1
41
1
10
68.0158874150128
20
17.51614074206
30
0
41
1
10
67.9339203353453
20
17.418075858816
30
0
41
1
10
67.8623861277508
20
17.3110650137371
30
0
41
1
10
67.8049444652568
20
17.1978652841164
30
0
0
SPLINE
5
1B3
100
AcDbEntity
8
1
62
256
6
ByLayer
370
-1
48
1
60
0
100
AcDbSpline
70
4
71
3
72
14
73
10
40
0
40
0
40
0
40
0
40
0.258374536041623
40
0.258374536041623
40
0.520163709547353
40
0.520163709547353
40
0.8083974790164
40
0.8083974790164
40
1
40
1
40
1
40
1
41
1
10
70.8026261280037
20
15.7583539623991
30
0
41
1
10
70.8744171007636
20
15.9122940589163
30
0
41
1
10
70.9246300058288
20
16.0804715133719
30
0
41
1
10
70.9763643976471
20
16.4200108345196
30
0
41
1
10
70.9772064531712
20
16.5964641225251
30
0
41
1
10
70.9226407334345
20
16.953529639947
30
0
41
1
10
70.8625138629351
20
17.1367973423495
30
0
41
1
10
70.7261020584113
20
17.4129271890337
30
0
41
1
10
70.6610124245771
20
17.5174961154283
30
0
41
1
10
70.587641092171
20
17.6130504632857
30
0
0
SPLINE
5
1B4
100
AcDbEntity
8
1
62
256
6
ByLayer
370
-1
48
1
60
0
100
AcDbSpline
70
4
71
3
72
14
73
10
40
0
40
0
40
0
40
0
40
0.301632841810063
40
0.301632841810063
40
0.602402032079645
40
0.602402032079645
40
0.899200904780736
40
0.899200904780736
40
1
40
1
40
1
40
1
41
1
10
67.8049444652568
20
17.1978652841164
30
0
41
1
10
67.7180705749574
20
17.0194321920389
30
0
41
1
10
67.6599077063564
20
16.8231908215799
30
0
41
1
10
67.6148227831131
20
16.4293240745578
30
0
41
1
10
67.6244740599948
20
16.2274195518306
30
0
41
1
10
67.7085788432896
20
15.848770644184
30
0
41
1
10
67.7860489828323
20
15.6651310077196
30
0
41
1
10
67.9319537402735
20
15.4502015673011
30
0
41
1
10
67.9731754787909
20
15.3974116986131
30
0
41
1
10
68.0175849375759
20
15.3476359638432
30
0
0
SPLINE
5
1B5
100
AcDbEntity
8
1
62
256
6
ByLayer
370
-1
48
1
60
0
100
AcDbSpline
70
4
71
3
72
25
73
21
40
0
40
0
40
0
40
0
40
0.0625
40
0.09375
40
0.125
40
0.1875
40
0.25
40
0.3125
40
0.375
40
0.4375
40
0.5
40
0.5625
40
0.625
40
0.6875
40
0.75
40
0.8125
40
0.875
40
0.90625
40
0.9375
40
1
40
1
40
1
40
1
41
1
10
64.9416681354056
20
19.567946562225
30
-2E-16
41
1
10
64.7890902291352
20
19.5594883404046
30
-2E-16
41
1
10
64.5681916880139
20
19.3695523486745
30
-2E-16
41
1
10
64.5525207806485
20
19.0645570315057
30
-2E-16
41
1
10
64.5250117622614
20
18.778069075744
30
-2E-16
41
1
10
64.4817627028027
20
18.4398550417741
30
-2E-16
41
1
10
64.4150499989134
20
18.0456474735543
30
-2E-16
41
1
10
64.3328900883059
20
17.6429049932509
30
-2E-16
41
1
10
64.2422798064169
20
17.2182154031791
30
-2E-16
41
1
10
64.1502159886832
20
16.7581665056538
30
-2E-16
41
1
10
64.0312363378829
20
16.2922024162814
30
2E-16
41
1
10
63.8598785567941
20
15.8497672506681
30
2E-16
41
1
10
63.6077578146411
20
15.4377492847649
30
2E-16
41
1
10
63.5834016031778
20
14.9576665871537
30
2E-16
41
1
10
63.5893003684924
20
14.4869991664914
30
2E-16
41
1
10
63.5855629822915
20
14.0164846750476
30
2E-16
41
1
10
63.6035026501553
20
13.6158169418356
30
2E-16
41
1
10
63.758971036921
20
13.3494282552425
30
2E-16
41
1
10
63.9862800749424
20
13.1362602254287
30
0
41
1
10
64.2125658294282
20
13.0555215558397
30
0
41
1
10
64.3659876491224
20
13.0539915896959
30
0
0
SPLINE
5
1B6
100
AcDbEntity
8
1
62
256
6
ByLayer
370
-1
48
1
60
0
100
AcDbSpline
70
4
71
3
72
15
73
11
40
0
40
0
40
0
40
0
40
0.0625
40
0.125
40
0.25
40
0.5
40
0.75
40
0.875
40
0.9375
40
1
40
1
40
1
40
1
41
1
10
64.3659876491224
20
13.0539915896959
30
0
41
1
10
64.5648198200535
20
13.0547885970469
30
0
41
1
10
64.9652516929152
20
13.0538676488474
30
1E-16
41
1
10
65.774725297987
20
13.0446435379867
30
1E-16
41
1
10
67.2074467929496
20
13.0161518285248
30
0
41
1
10
69.2454150399675
20
13.021296151879
30
1E-16
41
1
10
71.2913231296092
20
13.0746417805437
30
0
41
1
10
72.7088350095693
20
13.1303408257156
30
0
41
1
10
73.5047464249116
20
13.1790417307792
30
0
41
1
10
73.9072815125984
20
13.177447208175
30
0
41
1
10
74.1057266240884
20
13.2017385812641
30
0
0
SPLINE
5
1B7
100
AcDbEntity
8
1
62
256
6
ByLayer
370
-1
48
1
60
0
100
AcDbSpline
70
4
71
3
72
25
73
21
40
0
40
0
40
0
40
0
40
0.0625
40
0.09375
40
0.125
40
0.1875
40
0.25
40
0.3125
40
0.375
40
0.4375
40
0.5
40
0.5625
40
0.625
40
0.6875
40
0.75
40
0.8125
40
0.875
40
0.90625
40
0.9375
40
1
40
1
40
1
40
1
41
1
10
74.1057266240884
20
13.2017385812641
30
0
41
1
10
74.2596795062292
20
13.2095916120458
30
0
41
1
10
74.4617858201568
20
13.4075584140489
30
0
41
1
10
74.4449509802382
20
13.7264575333922
30
0
41
1
10
74.4227354195701
20
14.0341294741212
30
0
41
1
10
74.3858625495057
20
14.4071597240292
30
0
41
1
10
74.3407596325154
20
14.8487470254855
30
0
41
1
10
74.314776136648
20
15.2977705235282
30
0
41
1
10
74.3290195952826
20
15.75523335847
30
0
41
1
10
74.4050021049254
20
16.2221649751427
30
0
41
1
10
74.531572880408
20
16.6848192885328
30
0
41
1
10
74.6976171774624
20
17.1294830941237
30
0
41
1
10
74.9524524699416
20
17.5403010854369
30
0
41
1
10
74.9759699440039
20
18.0206847515564
30
0
41
1
10
74.970133329908
20
18.4912830631442
30
0
41
1
10
74.9737358222632
20
18.9618049986058
30
0
41
1
10
74.9627884295857
20
19.3617597829181
30
0
41
1
10
74.7939225620952
20
19.6294790753249
30
0
41
1
10
74.5685298529298
20
19.8424441338431
30
0
41
1
10
74.3465096726759
20
19.9227492690949
30
0
41
1
10
74.1930592634412
20
19.9242775330307
30
0
0
SPLINE
5
1B8
100
AcDbEntity
8
1
62
256
6
ByLayer
370
-1
48
1
60
0
100
AcDbSpline
70
4
71
3
72
15
73
11
40
0
40
0
40
0
40
0
40
0.0625
40
0.125
40
0.25
40
0.5
40
0.75
40
0.875
40
0.9375
40
1
40
1
40
1
40
1
41
1
10
74.1930592634412
20
19.9242775330307
30
0
41
1
10
73.9940057405944
20
19.9235122707577
30
0
41
1
10
73.5948632988264
20
19.9222986035527
30
0
41
1
10
72.8221755730431
20
19.9181719974102
30
0
41
1
10
71.4988313627284
20
19.8987917933563
30
0
41
1
10
69.5862973042088
20
19.84052368105
30
-1E-16
41
1
10
67.6953921773316
20
19.721024076623
30
0
41
1
10
66.3313350967294
20
19.6420949369245
30
-1E-16
41
1
10
65.5353367356836
20
19.5942096022398
30
-1E-16
41
1
10
65.13976844631
20
19.591466149721
30
-2E-16
41
1
10
64.9416681354056
20
19.567946562225
30
-2E-16
0
SPLINE
5
1B9
100
AcDbEntity
8
1
62
256
6
ByLayer
370
-1
48
1
60
0
100
AcDbSpline
70
4
71
3
72
10
73
6
40
0
40
0
40
0
40
0
40
0.701308861482937
40
0.701308861482937
40
1
40
1
40
1
40
1
41
1
10
68.0175849375759
20
15.3476359638432
30
0
41
1
10
68.1365845833127
20
15.207427219995
30
0
41
1
10
68.2807222205916
20
15.0853076363477
30
0
41
1
10
68.5053791800593
20
14.9500478047991
30
0
41
1
10
68.5756089793712
20
14.9141723173662
30
1E-16
41
1
10
68.6479770404273
20
14.8832194795641
30
1E-16
0
SPLINE
5
1BA
100
AcDbEntity
8
1
62
256
6
ByLayer
370
-1
48
1
60
0
100
AcDbSpline
70
4
71
3
72
16
73
12
40
0
40
0
40
0
40
0
40
0.12040710513485
40
0.12040710513485
40
0.345208959798805
40
0.345208959798805
40
0.56314846169588
40
0.56314846169588
40
0.774933334748046
40
0.774933334748046
40
1
40
1
40
1
40
1
41
1
10
68.6786275646562
20
14.8704559935306
30
1E-16
41
1
10
68.7751076197451
20
14.8313607530119
30
1E-16
41
1
10
68.8750701187532
20
14.8009827755845
30
1E-16
41
1
10
69.1645667416043
20
14.7417807557721
30
1E-16
41
1
10
69.3621695319749
20
14.7361105761574
30
1E-16
41
1
10
69.7337519438496
20
14.7923192282274
30
0
41
1
10
69.9133238429478
20
14.8530475391699
30
0
41
1
10
70.2297614826627
20
15.0272695381754
30
0
41
1
10
70.3717747812137
20
15.1413133807992
30
0
41
1
10
70.6180152683655
20
15.4148286227222
30
0
41
1
10
70.7234184513965
20
15.5807972871605
30
0
41
1
10
70.8026261280037
20
15.7583539623991
30
0
0
SPLINE
5
1BB
100
AcDbEntity
8
1
62
256
6
ByLayer
370
-1
48
1
60
0
100
AcDbSpline
70
4
71
3
72
18
73
14
40
0
40
0
40
0
40
0
40
0.213394464779719
40
0.213394464779719
40
0.389004322610662
40
0.389004322610662
40
0.566252444177965
40
0.566252444177965
40
0.721175490823054
40
0.721175490823054
40
0.927416435499181
40
0.927416435499181
40
1
40
1
40
1
40
1
41
1
10
69.8644426920228
20
17.1914295136853
30
0
41
1
10
69.8594448101921
20
17.1470513079813
30
0
41
1
10
69.8601443340928
20
17.099868455523
30
0
41
1
10
69.8729638994361
20
17.0139618621226
30
0
41
1
10
69.883250440932
20
16.9742719029653
30
0
41
1
10
69.9122626347848
20
16.899136794955
30
0
41
1
10
69.9315502010716
20
16.8626902862807
30
0
41
1
10
69.9729592862714
20
16.8039417939656
30
0
41
1
10
69.9948918929612
20
16.7796926946354
30
0
41
1
10
70.0482204605302
20
16.7335344565165
30
0
41
1
10
70.0812288024936
20
16.714118163175
30
0
41
1
10
70.1264502493474
20
16.6971755031057
30
0
41
1
10
70.1384422257702
20
16.6935585096836
30
0
41
1
10
70.1504824930114
20
16.69075355346
30
0
0
SPLINE
5
1BC
100
AcDbEntity
8
1
62
256
6
ByLayer
370
-1
48
1
60
0
100
AcDbSpline
70
4
71
3
72
16
73
12
40
0
40
0
40
0
40
0
40
0.0668638488455272
40
0.0668638488455272
40
0.290854271538802
40
0.290854271538802
40
0.517824973971674
40
0.517824973971674
40
0.759328674281753
40
0.759328674281753
40
1
40
1
40
1
40
1
41
1
10
68.75894938897
20
15.5925235834943
30
0
41
1
10
68.7636835350922
20
15.589845018286
30
0
41
1
10
68.7685794067772
20
15.587376296981
30
0
41
1
10
68.7903093061796
20
15.5776769810989
30
0
41
1
10
68.8087173431396
20
15.5726898434699
30
0
41
1
10
68.8461586687728
20
15.5681808505678
30
0
41
1
10
68.8656709036184
20
15.5686607814864
30
0
41
1
10
68.9043798544919
20
15.5747554086817
30
0
41
1
10
68.923963632628
20
15.5807540658208
30
0
41
1
10
68.9598605693537
20
15.5970210815847
30
0
41
1
10
68.9765703114408
20
15.6074327241221
30
0
41
1
10
68.9912627546606
20
15.6193247022914
30
0
0
SPLINE
5
1BD
100
AcDbEntity
8
1
62
256
6
ByLayer
370
-1
48
1
60
0
100
AcDbSpline
70
4
71
3
72
12
73
8
40
0
40
0
40
0
40
0
40
0.464390992171652
40
0.464390992171652
40
0.846401077318505
40
0.846401077318505
40
1
40
1
40
1
40
1
41
1
10
69.5650447587754
20
15.6350293651342
30
0
41
1
10
69.5405272194556
20
15.6621148683183
30
0
41
1
10
69.5100492522065
20
15.6853892842557
30
0
41
1
10
69.4449611820314
20
15.7170060845542
30
0
41
1
10
69.4112358139
20
15.7275451138967
30
0
41
1
10
69.3602013385329
20
15.7352176348651
30
0
41
1
10
69.3449277140512
20
15.7366257342315
30
0
41
1
10
69.3293754637833
20
15.7371752797482
30
0
0
SPLINE
5
1BE
100
AcDbEntity
8
1
62
256
6
ByLayer
370
-1
48
1
60
0
100
AcDbSpline
70
4
71
3
72
16
73
12
40
0
40
0
40
0
40
0
40
0.0670553612811559
40
0.0670553612811559
40
0.291697905104275
40
0.291697905104275
40
0.519329228663786
40
0.519329228663786
40
0.761535715028727
40
0.761535715028727
40
1
40
1
40
1
40
1
41
1
10
68.2579650712335
20
16.469432333513
30
0
41
1
10
68.2579650712335
20
16.4638246443811
30
0
41
1
10
68.2582460124224
20
16.4582038003105
30
0
41
1
10
68.2606659480707
20
16.4340001775337
30
0
41
1
10
68.2657268228197
20
16.4154082559559
30
0
41
1
10
68.2812912482724
20
16.3809423180753
30
0
41
1
10
68.2920501447483
20
16.3646632460931
30
0
41
1
10
68.3182409680905
20
16.3354535073165
30
0
41
1
10
68.3342400887527
20
16.3224252075007
30
0
41
1
10
68.3683835119641
20
16.3018681222313
30
0
41
1
10
68.3868354385887
20
16.2940323454727
30
0
41
1
10
68.4056626734127
20
16.2887687459405
30
0
0
SPLINE
5
1BF
100
AcDbEntity
8
1
62
256
6
ByLayer
370
-1
48
1
60
0
100
AcDbSpline
70
4
71
3
72
14
73
10
40
0
40
0
40
0
40
0
40
0.284523597312285
40
0.284523597312285
40
0.57173686621803
40
0.57173686621803
40
0.831999616286237
40
0.831999616286237
40
1
40
1
40
1
40
1
41
1
10
68.6917024744013
20
15.7880927857152
30
1E-16
41
1
10
68.6839208650658
20
15.7687232238935
30
1E-16
41
1
10
68.6796054397408
20
15.7478199502722
30
1E-16
41
1
10
68.6794210858021
20
15.7061268557444
30
-1E-16
41
1
10
68.6836689024881
20
15.6847000950035
30
-1E-16
41
1
10
68.7001825467736
20
15.6472857952253
30
-1E-16
41
1
10
68.7119417045694
20
15.6304297794059
30
-1E-16
41
1
10
68.7361995027902
20
15.6073038693509
30
-1E-16
41
1
10
68.7471270254246
20
15.5992126401591
30
0
41
1
10
68.75894938897
20
15.5925235834943
30
0
0
SPLINE
5
1C0
100
AcDbEntity
8
1
62
256
6
ByLayer
370
-1
48
1
60
0
100
AcDbSpline
70
4
71
3
72
18
73
14
40
0
40
0
40
0
40
0
40
0.2133930797378
40
0.2133930797378
40
0.389003177496046
40
0.389003177496046
40
0.566251555260788
40
0.566251555260788
40
0.721174645896041
40
0.721174645896041
40
0.927415342089921
40
0.927415342089921
40
1
40
1
40
1
40
1
41
1
10
70.1504824930114
20
16.3365252227758
30
0
41
1
10
70.1154714449785
20
16.3214607866385
30
0
41
1
10
70.080532787657
20
16.2996492952704
30
0
41
1
10
70.0207733863909
20
16.2483971916959
30
0
41
1
10
69.9946054377994
20
16.2203450862898
30
0
41
1
10
69.9477953404873
20
16.1573532983942
30
0
41
1
10
69.9265581680197
20
16.1213759820661
30
0
41
1
10
69.8951684740967
20
16.052604449411
30
0
41
1
10
69.883557571575
20
16.0191712382852
30
0
41
1
10
69.8649465059944
20
15.9436673942458
30
0
41
1
10
69.8603297319407
20
15.9010905647411
30
0
41
1
10
69.8616735045792
20
15.847444678643
30
0
41
1
10
69.8627239102618
20
15.8336422423286
30
0
41
1
10
69.8644426920228
20
15.8201911951943
30
0
0
SPLINE
5
1C1
100
AcDbEntity
8
1
62
256
6
ByLayer
370
-1
48
1
60
0
100
AcDbSpline
70
4
71
3
72
16
73
12
40
0
40
0
40
0
40
0
40
0.0650212293342878
40
0.0650212293342878
40
0.289691523269462
40
0.289691523269462
40
0.517236422326113
40
0.517236422326113
40
0.759263521180988
40
0.759263521180988
40
1
40
1
40
1
40
1
41
1
10
69.7638996961209
20
15.6200295101951
30
0
41
1
10
69.7684909951124
20
15.6228785846372
30
0
41
1
10
69.7729979037763
20
15.6259251485076
30
0
41
1
10
69.7924599816644
20
15.6402061727059
30
0
41
1
10
69.8063753901275
20
15.6535762419343
30
0
41
1
10
69.8299819300383
20
15.6828118192208
30
0
41
1
10
69.8399278957308
20
15.6990710769383
30
0
41
1
10
69.8553817089323
20
15.7331416501557
30
0
41
1
10
69.8607776932267
20
15.7514067976694
30
0
41
1
10
69.8662911577611
20
15.7866562623447
30
0
41
1
10
69.8665093381705
20
15.8040177894875
30
0
41
1
10
69.8644426920228
20
15.8201911951942
30
0
0
SPLINE
5
1C2
100
AcDbEntity
8
1
62
256
6
ByLayer
370
-1
48
1
60
0
100
AcDbSpline
70
4
71
3
72
14
73
10
40
0
40
0
40
0
40
0
40
0.28451924912323
40
0.28451924912323
40
0.571733062184449
40
0.571733062184449
40
0.831996244286522
40
0.831996244286522
40
1
40
1
40
1
40
1
41
1
10
70.1504824930114
20
16.3365252227758
30
0
41
1
10
70.1675701140859
20
16.3438776269703
30
0
41
1
10
70.184444618269
20
16.3549078790148
30
0
41
1
10
70.2147685382689
20
16.3834376258331
30
0
41
1
10
70.22863167569
20
16.4014687274606
30
0
41
1
10
70.2491284440117
20
16.4401565499248
30
0
41
1
10
70.2565989757748
20
16.4610092026105
30
0
41
1
10
70.263484907365
20
16.4961203736797
30
0
41
1
10
70.2648840138573
20
16.5103578238736
30
0
41
1
10
70.2648840138573
20
16.5243625772649
30
0
0
SPLINE
5
1C3
100
AcDbEntity
8
1
62
256
6
ByLayer
370
-1
48
1
60
0
100
AcDbSpline
70
4
71
3
72
14
73
10
40
0
40
0
40
0
40
0
40
0.284523597312295
40
0.284523597312295
40
0.571736866218034
40
0.571736866218034
40
0.831999616286238
40
0.831999616286238
40
1
40
1
40
1
40
1
41
1
10
69.8644426920228
20
17.1914295136853
30
0
41
1
10
69.8668819979385
20
17.2130890933565
30
0
41
1
10
69.866119910435
20
17.2361688803831
30
0
41
1
10
69.8574122852604
20
17.2816735874844
30
0
41
1
10
69.8492278432661
20
17.304787811762
30
0
41
1
10
69.8269774154147
20
17.3446612262201
30
0
41
1
10
69.8131702677778
20
17.362395128023
30
0
41
1
10
69.7870296825945
20
17.3863281086264
30
0
41
1
10
69.7757220596662
20
17.3945822706187
30
0
41
1
10
69.7638996961209
20
17.4012713272836
30
0
0
SPLINE
5
1C4
100
AcDbEntity
8
1
62
256
6
ByLayer
370
-1
48
1
60
0
100
AcDbSpline
70
4
71
3
72
16
73
12
40
0
40
0
40
0
40
0
40
0.0668638488454765
40
0.0668638488454765
40
0.290854271538574
40
0.290854271538574
40
0.517824973971272
40
0.517824973971272
40
0.759328674281157
40
0.759328674281157
40
1
40
1
40
1
40
1
41
1
10
69.7638996961209
20
17.4012713272836
30
0
41
1
10
69.7591655499986
20
17.4039498924918
30
0
41
1
10
69.754329785453
20
17.4063928484273
30
0
41
1
10
69.733118035358
20
17.4158700557787
30
0
41
1
10
69.7157926622873
20
17.420393101529
30
0
41
1
10
69.6817161505292
20
17.4234597420919
30
0
41
1
10
69.6645427957394
20
17.4219772329491
30
0
41
1
10
69.6316177320774
20
17.413403299748
30
0
41
1
10
69.6156105729577
20
17.4058714984302
30
0
41
1
10
69.5875572502629
20
17.3862422595345
30
0
41
1
10
69.5751938048288
20
17.3739675448103
30
0
41
1
10
69.5650447587754
20
17.3601280058623
30
0
0
SPLINE
5
1C5
100
AcDbEntity
8
1
62
256
6
ByLayer
370
-1
48
1
60
0
100
AcDbSpline
70
4
71
3
72
14
73
10
40
0
40
0
40
0
40
0
40
0.283738489034221
40
0.283738489034221
40
0.570489531030764
40
0.570489531030764
40
0.830294403552165
40
0.830294403552165
40
1
40
1
40
1
40
1
41
1
10
69.5650447587754
20
15.6350293651342
30
0
41
1
10
69.5769946541535
20
15.6218278392758
30
0
41
1
10
69.5920677458142
20
15.6108232098854
30
0
41
1
10
69.6266366293957
20
15.5956511144633
30
0
41
1
10
69.646729545519
20
15.5913584874301
30
0
41
1
10
69.6866534126211
20
15.5913211641652
30
0
41
1
10
69.7069374006893
20
15.5948468740914
30
0
41
1
10
69.7392320409203
20
15.6064500712257
30
0
41
1
10
69.7519239814867
20
15.6125981269299
30
0
41
1
10
69.7638996961209
20
15.6200295101951
30
0
0
SPLINE
5
1C6
100
AcDbEntity
8
1
62
256
6
ByLayer
370
-1
48
1
60
0
100
AcDbSpline
70
4
71
3
72
16
73
12
40
0
40
0
40
0
40
0
40
0.0760713024035908
40
0.0760713024035908
40
0.330918201404335
40
0.330918201404335
40
0.589155737079038
40
0.589155737079038
40
0.863928141795834
40
0.863928141795834
40
1
40
1
40
1
40
1
41
1
10
70.2648840138573
20
16.5243625772649
30
0
41
1
10
70.2648840138573
20
16.5299702663967
30
0
41
1
10
70.2646631742011
20
16.5355653475011
30
0
41
1
10
70.2627613583507
20
16.5595468743968
30
0
41
1
10
70.2587831295783
20
16.5776747117741
30
0
41
1
10
70.2465834844352
20
16.6106983117037
30
0
41
1
10
70.2381634510724
20
16.6259748127243
30
0
41
1
10
70.2177564816082
20
16.6527052597837
30
0
41
1
10
70.2053339627836
20
16.6642004227847
30
0
41
1
10
70.1854893756791
20
16.677167008709
30
0
41
1
10
70.1786361868898
20
16.6808209779787
30
0
41
1
10
70.1716240404485
20
16.6838163366521
30
0
0
SPLINE
5
1C7
100
AcDbEntity
8
1
62
256
6
ByLayer
370
-1
48
1
60
0
100
AcDbSpline
70
4
71
3
72
16
73
12
40
0
40
0
40
0
40
0
40
0.0650212293342999
40
0.0650212293342999
40
0.289691523269476
40
0.289691523269476
40
0.517236422326114
40
0.517236422326114
40
0.759263521180987
40
0.759263521180987
40
1
40
1
40
1
40
1
41
1
10
68.75894938897
20
17.3737654005828
30
1E-16
41
1
10
68.7543580899785
20
17.3709163261406
30
1E-16
41
1
10
68.7499077067616
20
17.3678455322196
30
1E-16
41
1
10
68.7309447408889
20
17.3533505599665
30
1E-16
41
1
10
68.7181003734153
20
17.3395213811012
30
1E-16
41
1
10
68.6978368742163
20
17.3088527847029
30
1E-16
41
1
10
68.6902188001177
20
17.2915956590467
30
1E-16
41
1
10
68.680527257887
20
17.2550550457848
30
1E-16
41
1
10
68.6786967525138
20
17.2352615293767
30
1E-16
41
1
10
68.6809995908041
20
17.19666154872
30
1E-16
41
1
10
68.6851096838649
20
17.177444675161
30
1E-16
41
1
10
68.6917024744013
20
17.1593311042063
30
1E-16
0
SPLINE
5
1C8
100
AcDbEntity
8
1
62
256
6
ByLayer
370
-1
48
1
60
0
100
AcDbSpline
70
4
71
3
72
14
73
10
40
0
40
0
40
0
40
0
40
0.283738489034223
40
0.283738489034223
40
0.570489531030772
40
0.570489531030772
40
0.830294403552175
40
0.830294403552175
40
1
40
1
40
1
40
1
41
1
10
68.9912627546607
20
17.3444233430196
30
1E-16
41
1
10
68.9739632805622
20
17.3599180053388
30
1E-16
41
1
10
68.9538031279601
20
17.3731032410037
30
1E-16
41
1
10
68.9103129213386
20
17.3920995274903
30
1E-16
41
1
10
68.8862645150097
20
17.3980877046379
30
1E-16
41
1
10
68.8405687019407
20
17.4005992152059
30
1E-16
41
1
10
68.8182195896279
20
17.3979587360518
30
1E-16
41
1
10
68.7840072350256
20
17.3871775813579
30
1E-16
41
1
10
68.7709251036042
20
17.3811967838479
30
1E-16
41
1
10
68.75894938897
20
17.3737654005828
30
1E-16
0
SPLINE
5
1C9
100
AcDbEntity
8
1
62
256
6
ByLayer
370
-1
48
1
60
0
100
AcDbSpline
70
4
71
3
72
12
73
8
40
0
40
0
40
0
40
0
40
0.377026290846269
40
0.377026290846269
40
0.761056372063254
40
0.761056372063254
40
1
40
1
40
1
40
1
41
1
10
69.2746624807227
20
15.7356777616212
30
0
41
1
10
69.2358525662616
20
15.7322551264014
30
0
41
1
10
69.1959717569358
20
15.7236618827503
30
0
41
1
10
69.1203268388086
20
15.6982500169378
30
0
41
1
10
69.0836351151974
20
15.6810134192431
30
0
41
1
10
69.0294644999548
20
15.6481677427742
30
0
41
1
10
69.0096931069807
20
15.6342421223668
30
0
41
1
10
68.9912627546607
20
15.6193247022915
30
0
0
SPLINE
5
1CA
100
AcDbEntity
8
1
62
256
6
ByLayer
370
-1
48
1
60
0
100
AcDbSpline
70
4
71
3
72
14
73
10
40
0
40
0
40
0
40
0
40
0.28451924912324
40
0.28451924912324
40
0.571733062184446
40
0.571733062184446
40
0.831996244286519
40
0.831996244286519
40
1
40
1
40
1
40
1
41
1
10
68.4056626734127
20
16.6429970766248
30
0
41
1
10
68.3832328303164
20
16.6379346553878
30
0
41
1
10
68.3612808877257
20
16.6290808848475
30
0
41
1
10
68.322065011551
20
16.60436274077
30
0
41
1
10
68.3042652197331
20
16.5880191151481
30
0
41
1
10
68.2780316136559
20
16.5517904305927
30
0
41
1
10
68.2685130656542
20
16.531815675206
30
0
41
1
10
68.2597442934663
20
16.4975115976763
30
0
41
1
10
68.2579650712335
20
16.4834370869043
30
0
41
1
10
68.2579650712335
20
16.469432333513
30
0
0
SPLINE
5
1CB
100
AcDbEntity
8
1
62
256
6
ByLayer
370
-1
48
1
60
0
100
AcDbSpline
70
4
71
3
72
18
73
14
40
0
40
0
40
0
40
0
40
0.213393079737798
40
0.213393079737798
40
0.389003177496047
40
0.389003177496047
40
0.56625155526079
40
0.56625155526079
40
0.721174645896042
40
0.721174645896042
40
0.927415342089922
40
0.927415342089922
40
1
40
1
40
1
40
1
41
1
10
68.4056626734127
20
16.6429970766248
30
0
41
1
10
68.4516194693055
20
16.6533695370344
30
0
41
1
10
68.4968676996723
20
16.6707617537116
30
0
41
1
10
68.5716422340237
20
16.7155775095022
30
1E-16
41
1
10
68.6032941805104
20
16.7412788586745
30
1E-16
41
1
10
68.6563485439867
20
16.8015939957233
30
1E-16
41
1
10
68.6783050923631
20
16.8372629462507
30
1E-16
41
1
10
68.7061357509776
20
16.9075600856979
30
1E-16
41
1
10
68.7140915878935
20
16.9425600677128
30
1E-16
41
1
10
68.7211296519356
20
17.0230247644055
30
1E-16
41
1
10
68.7167175848092
20
17.0694718734204
30
1E-16
41
1
10
68.7019092684094
20
17.1288894357272
30
1E-16
41
1
10
68.6971855456764
20
17.1442664665473
30
1E-16
41
1
10
68.6917024744013
20
17.1593311042062
30
1E-16
0
SPLINE
5
1CC
100
AcDbEntity
8
1
62
256
6
ByLayer
370
-1
48
1
60
0
100
AcDbSpline
70
4
71
3
72
18
73
14
40
0
40
0
40
0
40
0
40
0.21339446477972
40
0.21339446477972
40
0.389004322610664
40
0.389004322610664
40
0.566252444177965
40
0.566252444177965
40
0.721175490823053
40
0.721175490823053
40
0.927416435499179
40
0.927416435499179
40
1
40
1
40
1
40
1
41
1
10
68.6917024744013
20
15.7880927857152
30
1E-16
41
1
10
68.7076461752965
20
15.8277789851692
30
1E-16
41
1
10
68.7172562890272
20
15.8705425352513
30
1E-16
41
1
10
68.719451852716
20
15.9500127826053
30
1E-16
41
1
10
68.7146492737221
20
15.9873520007004
30
1E-16
41
1
10
68.6918812768577
20
16.0598104875164
30
1E-16
41
1
10
68.6733130527942
20
16.0959486448296
30
1E-16
41
1
10
68.6283448876055
20
16.1562227630895
30
1E-16
41
1
10
68.602757196861
20
16.182038641217
30
1E-16
41
1
10
68.5378555866983
20
16.2331577495878
30
0
41
1
10
68.4958183770216
20
16.2564443338131
30
0
41
1
10
68.4371324125274
20
16.2791586588944
30
0
41
1
10
68.4214671732831
20
16.2843502235764
30
0
41
1
10
68.4056626734127
20
16.2887687459405
30
0
0
SPLINE
5
1CD
100
AcDbEntity
8
1
62
256
6
ByLayer
370
-1
48
1
60
0
100
AcDbSpline
70
4
71
3
72
12
73
8
40
0
40
0
40
0
40
0
40
0.464390992172109
40
0.464390992172109
40
0.846401077319349
40
0.846401077319349
40
1
40
1
40
1
40
1
41
1
10
68.9912627546607
20
17.3444233430196
30
1E-16
41
1
10
69.0267559973212
20
17.3126330234696
30
1E-16
41
1
10
69.0675787785046
20
17.2849242265738
30
1E-16
41
1
10
69.1477497709492
20
17.2468420201564
30
1E-16
41
1
10
69.1869926044354
20
17.2339378885063
30
1E-16
41
1
10
69.2424515574902
20
17.2243687824727
30
1E-16
41
1
10
69.2586278056706
20
17.222573766786
30
1E-16
41
1
10
69.2746624807227
20
17.2218174263196
30
1E-16
0
SPLINE
5
1CE
100
AcDbEntity
8
1
62
256
6
ByLayer
370
-1
48
1
60
0
100
AcDbSpline
70
4
71
3
72
12
73
8
40
0
40
0
40
0
40
0
40
0.3770262906397
40
0.3770262906397
40
0.761056371823045
40
0.761056371823045
40
1
40
1
40
1
40
1
41
1
10
69.3293754637833
20
17.2233149444466
30
1E-16
41
1
10
69.3670177297029
20
17.2272381008337
30
1E-16
41
1
10
69.4031734323024
20
17.2374281390003
30
1E-16
41
1
10
69.467865412729
20
17.2675350624933
30
1E-16
41
1
10
69.4971884677273
20
17.2879302944499
30
1E-16
41
1
10
69.5380432757565
20
17.3264838901217
30
1E-16
41
1
10
69.5523136907111
20
17.3427675454407
30
1E-16
41
1
10
69.5650447587754
20
17.3601280058623
30
0
0
SPLINE
5
1CF
100
AcDbEntity
8
1
62
256
6
ByLayer
370
-1
48
1
60
0
100
AcDbSpline
70
4
71
3
72
20
73
16
40
0
40
0
40
0
40
0
40
5.35473018492E-05
40
0.0714782939231457
40
0.142903040544442
40
0.214327787165739
40
0.285752533787035
40
0.428602027029628
40
0.571451520272221
40
0.642876266893518
40
0.714301013514814
40
0.785725760136111
40
0.857150506757407
40
0.928575253378704
40
1
40
1
40
1
40
1
41
1
10
74.2931436978631
20
-2.12476651787191
30
0
41
1
10
74.293200580454
20
-2.12475068173265
30
0
41
1
10
74.3691221212627
20
-2.10361366675116
30
0
41
1
10
74.4971447119822
20
-2.06684165732386
30
0
41
1
10
74.5120832126082
20
-2.0553297666865
30
0
41
1
10
74.5105648823756
20
-2.04801989564231
30
0
41
1
10
74.3536999300215
20
-2.0779314465527
30
0
41
1
10
74.2766515965767
20
-2.08470974512141
30
0
41
1
10
74.2482218392225
20
-2.07916687233381
30
0
41
1
10
74.2504404604311
20
-2.0683943244731
30
0
41
1
10
74.2577336962335
20
-2.05889383133805
30
0
41
1
10
74.2666424296508
20
-2.04899389946567
30
0
41
1
10
74.2807996558376
20
-2.03778482513982
30
0
41
1
10
74.2443533094302
20
-2.0392341637108
30
0
41
1
10
74.029194842521
20
-2.09022179180826
30
-1E-16
41
1
10
73.9132125422593
20
-2.11932978440643
30
-1E-16
0
SPLINE
5
1D0
100
AcDbEntity
8
1
62
256
6
ByLayer
370
-1
48
1
60
0
100
AcDbSpline
70
4
71
3
72
12
73
8
40
0
40
0
40
0
40
0
40
0.124708894465004
40
0.415915697769775
40
0.707122501074545
40
0.998329304379315
40
1
40
1
40
1
40
1
41
1
10
74.6297915699272
20
1.81095958991821
30
0
41
1
10
74.6550493150263
20
1.81682793383249
30
0
41
1
10
74.7461846591911
20
1.83840743669654
30
0
41
1
10
74.9524524699416
20
1.87872932803333
30
0
41
1
10
74.9759699440039
20
1.87596839153059
30
0
41
1
10
74.9720677061064
20
1.86802504299519
30
0
41
1
10
74.9717022936042
20
1.86451461652012
30
0
41
1
10
74.9717002600958
20
1.86449460672884
30
0
0
SPLINE
5
1D1
100
AcDbEntity
8
1
62
256
6
ByLayer
370
-1
48
1
60
0
100
AcDbSpline
70
4
71
1
72
4
73
2
40
0
40
0
40
1
40
1
41
1
10
73.9968117645621
20
-0.881354258777833
30
-1E-16
41
1
10
73.9132125422593
20
-2.11932978440643
30
-1E-16
0
SPLINE
5
1D2
100
AcDbEntity
8
1
62
256
6
ByLayer
370
-1
48
1
60
0
100
AcDbSpline
70
4
71
3
72
8
73
4
40
0
40
0
40
0
40
0
40
1
40
1
40
1
40
1
41
1
10
73.9132125422593
20
-2.11932978440643
30
-1E-16
41
1
10
73.8001875370151
20
-2.14741063663652
30
-1E-16
41
1
10
73.6871630703032
20
-2.17550689453722
30
-1E-16
41
1
10
73.5741389783119
20
-2.2036184906697
30
-1E-16
0
SPLINE
5
1D3
100
AcDbEntity
8
1
62
256
6
ByLayer
370
-1
48
1
60
0
100
AcDbSpline
70
4
71
1
72
4
73
2
40
0
40
0
40
1
40
1
41
1
10
74.1930592634411
20
-19.7776302223736
30
0
41
1
10
73.6955376669994
20
-19.3127348407176
30
-1E-16
0
SPLINE
5
1D4
100
AcDbEntity
8
1
62
256
6
ByLayer
370
-1
48
1
60
0
100
AcDbSpline
70
4
71
3
72
9
73
5
40
0
40
0
40
0
40
0
40
0.0857153659791761
40
1
40
1
40
1
40
1
41
1
10
66.1522993538387
20
-18.6551874936575
30
-1E-16
41
1
10
66.1573006569892
20
-18.6649370045391
30
-1E-16
41
1
10
66.2201492030872
20
-18.7767091750326
30
-1E-16
41
1
10
66.3378206707939
20
-18.8629829007802
30
-1E-16
41
1
10
66.4538342140276
20
-18.871254203608
30
-1E-16
0
SPLINE
5
1D5
100
AcDbEntity
8
1
62
256
6
ByLayer
370
-1
48
1
60
0
100
AcDbSpline
70
4
71
3
72
14
73
10
40
0
40
0
40
0
40
0
40
0.194165288490619
40
0.291247932735928
40
0.388330576981238
40
0.582495865471856
40
0.776661153962475
40
0.970826442453094
40
1
40
1
40
1
40
1
41
1
10
73.6955376669994
20
-19.3127348407176
30
-1E-16
41
1
10
73.8117280529052
20
-19.3179636886285
30
-1E-16
41
1
10
73.9835852320805
20
-19.2583346105914
30
-1E-16
41
1
10
74.1735964462843
20
-19.1180114311522
30
-1E-16
41
1
10
74.3371764378799
20
-18.9454919693787
30
0
41
1
10
74.4971447119822
20
-18.6844887176785
30
0
41
1
10
74.5120832126082
20
-18.3205387145199
30
0
41
1
10
74.5109949488328
20
-18.0612311506447
30
0
41
1
10
74.4848045414887
20
-17.9268374253005
30
0
41
1
10
74.4810390495136
20
-17.9093390636529
30
0
0
SPLINE
5
1D6
100
AcDbEntity
8
1
62
256
6
ByLayer
370
-1
48
1
60
0
100
AcDbSpline
70
4
71
1
72
4
73
2
40
0
40
0
40
1
40
1
41
1
10
64.9416681354055
20
-19.8460888947559
30
1E-16
41
1
10
66.4538342140276
20
-18.871254203608
30
-1E-16
0
SPLINE
5
1D7
100
AcDbEntity
8
1
62
256
6
ByLayer
370
-1
48
1
60
0
100
AcDbSpline
70
4
71
3
72
12
73
8
40
0
40
0
40
0
40
0
40
0.325918722604909
40
0.488878083907363
40
0.651837445209817
40
0.977756167814727
40
1
40
1
40
1
40
1
41
1
10
64.9416681354055
20
-19.8460888947559
30
1E-16
41
1
10
64.7890902291351
20
-19.8428525225974
30
0
41
1
10
64.5681916880139
20
-19.653900555153
30
0
41
1
10
64.5525207806485
20
-19.3389833746628
30
0
41
1
10
64.5250117622613
20
-19.0385025112056
30
0
41
1
10
64.497881633666
20
-18.8124291901816
30
0
41
1
10
64.4765838315085
20
-18.6600517322941
30
0
41
1
10
64.4752115975949
20
-18.6503222203015
30
0
0
SPLINE
5
1D8
100
AcDbEntity
8
1
62
256
6
ByLayer
370
-1
48
1
60
0
100
AcDbSpline
70
4
71
3
72
17
73
13
40
0
40
0
40
0
40
0
40
0.0833835596575352
40
0.197960614700343
40
0.312537669743151
40
0.42711472478596
40
0.541691779828768
40
0.656268834871576
40
0.770845889914384
40
0.828134417435788
40
0.885422944957192
40
1
40
1
40
1
40
1
41
1
10
74.4428433622252
20
-16.1722396368751
30
0
41
1
10
74.4706525063523
20
-16.2843998858264
30
0
41
1
10
74.5466413482671
20
-16.5494414765081
30
0
41
1
10
74.6976171774624
20
-16.9499696609736
30
0
41
1
10
74.9524524699416
20
-17.3557282302443
30
0
41
1
10
74.9759699440038
20
-17.8379248690972
30
0
41
1
10
74.970133329908
20
-18.3114616795348
30
0
41
1
10
74.9737358222631
20
-18.7845667448489
30
0
41
1
10
74.9627884295857
20
-19.1871764013164
30
0
41
1
10
74.7939225620951
20
-19.4618559004978
30
0
41
1
10
74.5685298529297
20
-19.6832788970262
30
0
41
1
10
74.3465096726758
20
-19.7711697163476
30
0
41
1
10
74.1930592634411
20
-19.7776302223736
30
0
0
SPLINE
5
1D9
100
AcDbEntity
8
1
62
256
6
ByLayer
370
-1
48
1
60
0
100
AcDbSpline
70
4
71
3
72
15
73
11
40
0
40
0
40
0
40
0
40
0.0625
40
0.125
40
0.25
40
0.5
40
0.75
40
0.875
40
0.9375
40
1
40
1
40
1
40
1
41
1
10
74.1930592634411
20
-19.7776302223736
30
0
41
1
10
73.9940057405944
20
-19.7832457642782
30
-1E-16
41
1
10
73.5948632988263
20
-19.7944375890027
30
-1E-16
41
1
10
72.8221755730431
20
-19.8258467726883
30
1E-16
41
1
10
71.4988313627283
20
-19.8774388575054
30
0
41
1
10
69.5862973042088
20
-19.9138512546228
30
0
41
1
10
67.6953921773316
20
-19.8955928438272
30
0
41
1
10
66.3313350967294
20
-19.8741998282901
30
0
41
1
10
65.5353367356836
20
-19.851552072877
30
0
41
1
10
65.1397684463099
20
-19.8632688505087
30
0
41
1
10
64.9416681354055
20
-19.8460888947559
30
1E-16
0
SPLINE
5
1DA
100
AcDbEntity
8
1
62
256
6
ByLayer
370
-1
48
1
60
0
100
AcDbSpline
70
4
71
3
72
8
73
4
40
0
40
0
40
0
40
0
40
1
40
1
40
1
40
1
41
1
10
66.4538342140276
20
-18.871254203608
30
-1E-16
41
1
10
68.8661867693205
20
-19.0428845262942
30
1E-16
41
1
10
71.27953755751
20
-19.2028353988802
30
2E-16
41
1
10
73.6955376669994
20
-19.3127348407176
30
-1E-16
0
SPLINE
5
1DB
100
AcDbEntity
8
1
62
256
6
ByLayer
370
-1
48
1
60
0
100
AcDbSpline
70
4
71
3
72
8
73
4
40
0
40
0
40
0
40
0
40
1
40
1
40
1
40
1
41
1
10
66.4538342140277
20
4.99567880195568
30
-5E-16
41
1
10
68.8661867693206
20
4.40020517662083
30
-4E-16
41
1
10
71.27953755751
20
3.80367182806742
30
-2E-16
41
1
10
73.6955376669995
20
3.20300712535777
30
-1E-16
0
SPLINE
5
1DC
100
AcDbEntity
8
1
62
256
6
ByLayer
370
-1
48
1
60
0
100
AcDbSpline
70
4
71
3
72
25
73
21
40
0
40
0
40
0
40
0
40
0.0625
40
0.09375
40
0.125
40
0.1875
40
0.25
40
0.3125
40
0.375
40
0.4375
40
0.5
40
0.5625
40
0.625
40
0.6875
40
0.75
40
0.8125
40
0.875
40
0.90625
40
0.9375
40
1
40
1
40
1
40
1
41
1
10
64.9416681354055
20
2.67279252701295
30
-6E-16
41
1
10
64.7890902291352
20
2.71393516657235
30
-6E-16
41
1
10
64.5681916880139
20
2.71715972233426
30
-6E-16
41
1
10
64.5525207806485
20
2.63126620890242
30
-6E-16
41
1
10
64.5250117622614
20
2.51358362317336
30
-6E-16
41
1
10
64.4817627028027
20
2.32985562827307
30
-6E-16
41
1
10
64.4150499989134
20
2.08476783759352
30
-6E-16
41
1
10
64.3328900883059
20
1.84905127369785
30
-7E-16
41
1
10
64.2422798064169
20
1.68083833959432
30
-7E-16
41
1
10
64.1502159886832
20
1.63826143829118
30
-7E-16
41
1
10
64.0312363378829
20
1.65231912469011
30
-7E-16
41
1
10
63.8598785567941
20
1.65400995369274
30
-7E-16
41
1
10
63.6077578146411
20
1.69530424037538
30
-7E-16
41
1
10
63.5834016031778
20
1.66650358774737
30
-7E-16
41
1
10
63.5893003684924
20
1.63257607454193
30
-7E-16
41
1
10
63.5855629822915
20
1.60069357666839
30
-7E-16
41
1
10
63.6035026501553
20
1.56825957738394
30
-7E-16
41
1
10
63.7589710369209
20
1.51024295470455
30
-7E-16
41
1
10
63.9862800749424
20
1.43768591730634
30
-7E-16
41
1
10
64.2125658294282
20
1.37460427357917
30
-7E-16
41
1
10
64.3659876491224
20
1.33553843824188
30
-7E-16
0
SPLINE
5
1DD
100
AcDbEntity
8
1
62
256
6
ByLayer
370
-1
48
1
60
0
100
AcDbSpline
70
4
71
3
72
13
73
9
40
0
40
0
40
0
40
0
40
0.248016536801331
40
0.372024805201996
40
0.496033073602662
40
0.744049610403992
40
0.992066147205323
40
1
40
1
40
1
40
1
41
1
10
73.6955376669995
20
3.20300712535777
30
-1E-16
41
1
10
73.8117280529052
20
3.17411603524769
30
-1E-16
41
1
10
73.9835852320805
20
3.12672065368858
30
-1E-16
41
1
10
74.1735964462843
20
3.06916937911234
30
-1E-16
41
1
10
74.3371764378799
20
3.01604415316115
30
0
41
1
10
74.4971447119822
20
2.95770378430134
30
0
41
1
10
74.5072630026717
20
2.93809370301037
30
0
41
1
10
74.5094807009378
20
2.92889637341963
30
0
41
1
10
74.5095460937663
20
2.92861215382334
30
0
0
SPLINE
5
1DE
100
AcDbEntity
8
1
62
256
6
ByLayer
370
-1
48
1
60
0
100
AcDbSpline
70
4
71
3
72
11
73
7
40
0
40
0
40
0
40
0
40
0.248539797141431
40
0.497079594282861
40
0.994159188565722
40
1
40
1
40
1
40
1
41
1
10
64.3659876491224
20
1.33553843824188
30
-7E-16
41
1
10
64.5648198200535
20
1.28403822635801
30
-6E-16
41
1
10
64.9652516929151
20
1.19249525572948
30
-6E-16
41
1
10
65.774725297987
20
1.05365704984484
30
-6E-16
41
1
10
66.3935587504891
20
0.99708756804543
30
-5E-16
41
1
10
66.8071187560068
20
0.954689486364202
30
-5E-16
41
1
10
66.8119216746261
20
0.954196478091291
30
-5E-16
0
SPLINE
5
1DF
100
AcDbEntity
8
1
62
256
6
ByLayer
370
-1
48
1
60
0
100
AcDbSpline
70
4
71
3
72
18
73
14
40
0
40
0
40
0
40
0
40
0.162600988457447
40
0.162600988457447
40
0.332996094284669
40
0.332996094284669
40
0.503772203001935
40
0.503772203001935
40
0.669272814739438
40
0.669272814739438
40
0.830144082047364
40
0.830144082047364
40
1
40
1
40
1
40
1
41
1
10
70.587641092171
20
0.176402125518678
30
-3E-16
41
1
10
70.4769462839519
20
0.232702115108765
30
-3E-16
41
1
10
70.3437250994761
20
0.298927174049851
30
-3E-16
41
1
10
70.0434126728807
20
0.437207986653306
30
-3E-16
41
1
10
69.8706843869633
20
0.511106485198013
30
-3E-16
41
1
10
69.5123876730948
20
0.646153501180635
30
-3E-16
41
1
10
69.3216001167809
20
0.709186818990275
30
-3E-16
41
1
10
68.9539852602043
20
0.806223929124116
30
-4E-16
41
1
10
68.771731655951
20
0.84204291204918
30
-4E-16
41
1
10
68.4402595681622
20
0.881305045555621
30
-4E-16
41
1
10
68.2859239060437
20
0.886045326481707
30
-4E-16
41
1
10
68.0128914020641
20
0.877163100354892
30
-4E-16
41
1
10
67.8925342280348
20
0.863060211314291
30
-4E-16
41
1
10
67.8049444652568
20
0.854271406129783
30
-4E-16
0
SPLINE
5
1E0
100
AcDbEntity
8
1
62
256
6
ByLayer
370
-1
48
1
60
0
100
AcDbSpline
70
4
71
3
72
15
73
11
40
0
40
0
40
0
40
0
40
0.0625
40
0.125
40
0.25
40
0.5
40
0.75
40
0.875
40
0.9375
40
1
40
1
40
1
40
1
41
1
10
74.1930592634411
20
-0.682075741790243
30
0
41
1
10
73.9940057405944
20
-0.631571662493911
30
-1E-16
41
1
10
73.5948632988264
20
-0.533375574578287
30
-1E-16
41
1
10
72.8221755730431
20
-0.25210646638709
30
-1E-16
41
1
10
71.4988313627284
20
0.309378038606127
30
-2E-16
41
1
10
69.5862973042088
20
1.05764650444857
30
-3E-16
41
1
10
67.6953921773316
20
1.85638946425229
30
-4E-16
41
1
10
66.3313350967294
20
2.31005615097081
30
-5E-16
41
1
10
65.5353367356836
20
2.50873306478746
30
-6E-16
41
1
10
65.1397684463099
20
2.62316155317751
30
-6E-16
41
1
10
64.9416681354055
20
2.67279252701295
30
-6E-16
0
SPLINE
5
1E1
100
AcDbEntity
8
1
62
256
6
ByLayer
370
-1
48
1
60
0
100
AcDbSpline
70
4
71
3
72
12
73
8
40
0
40
0
40
0
40
0
40
0.393265094946933
40
0.393265094946933
40
0.785404171907791
40
0.785404171907791
40
1
40
1
40
1
40
1
41
1
10
67.8049444652568
20
0.854271406129783
30
-4E-16
41
1
10
67.7180705749574
20
0.844218306162929
30
-4E-16
41
1
10
67.6599077063564
20
0.841522798297547
30
-4E-16
41
1
10
67.6148227831131
20
0.824689305390791
30
-5E-16
41
1
10
67.6244740599948
20
0.802127450842136
30
-5E-16
41
1
10
67.6899926128234
20
0.759546040965631
30
-4E-16
41
1
10
67.7241252063401
20
0.744427112527916
30
-4E-16
41
1
10
67.7684421009227
20
0.729835272324948
30
-4E-16
0
SPLINE
5
1E2
100
AcDbEntity
8
1
62
256
6
ByLayer
370
-1
48
1
60
0
100
AcDbSpline
70
4
71
3
72
12
73
8
40
0
40
0
40
0
40
0
40
0.218757741634925
40
0.218757741634925
40
0.688043632422083
40
0.688043632422083
40
1
40
1
40
1
40
1
41
1
10
70.9702477296742
20
-0.0238389900506775
30
-2E-16
41
1
10
70.9708245701144
20
-0.0187059843114241
30
-2E-16
41
1
10
70.9645512360601
20
-0.0122914302523611
30
-2E-16
41
1
10
70.9226407334345
20
0.0099273740755166
30
-2E-16
41
1
10
70.8625138629351
20
0.0355094412678625
30
-3E-16
41
1
10
70.7261020584113
20
0.104008758756322
30
-3E-16
41
1
10
70.661012424577
20
0.138087119167181
30
-3E-16
41
1
10
70.587641092171
20
0.176402125518678
30
-3E-16
0
SPLINE
5
1E3
100
AcDbEntity
8
1
62
256
6
ByLayer
370
-1
48
1
60
0
100
AcDbSpline
70
4
71
1
72
4
73
2
40
0
40
0
40
1
40
1
41
1
10
74.1930592634411
20
-0.682075741790243
30
0
41
1
10
73.6955376669995
20
3.20300712535777
30
-1E-16
0
SPLINE
5
1E4
100
AcDbEntity
8
1
62
256
6
ByLayer
370
-1
48
1
60
0
100
AcDbSpline
70
4
71
1
72
4
73
2
40
0
40
0
40
1
40
1
41
1
10
64.9416681354055
20
2.67279252701295
30
-6E-16
41
1
10
66.4538342140277
20
4.99567880195568
30
-5E-16
0
SPLINE
5
1E5
100
AcDbEntity
8
1
62
256
6
ByLayer
370
-1
48
1
60
0
100
AcDbSpline
70
4
71
3
72
17
73
13
40
0
40
0
40
0
40
0
40
0.0901594532777821
40
0.203889521618059
40
0.317619589958337
40
0.431349658298614
40
0.545079726638891
40
0.658809794979168
40
0.772539863319446
40
0.829404897489584
40
0.886269931659723
40
1
40
1
40
1
40
1
41
1
10
74.4354930814022
20
-0.997188424975946
30
0
41
1
10
74.4649628517778
20
-0.996168053286226
30
0
41
1
10
74.5430438023501
20
-0.988793913985404
30
0
41
1
10
74.6976171774624
20
-1.00950421106475
30
0
41
1
10
74.9524524699416
20
-1.03968639665751
30
0
41
1
10
74.9759699440039
20
-1.0137811019969
30
0
41
1
10
74.970133329908
20
-0.979199299837347
30
0
41
1
10
74.9737358222631
20
-0.947433105238986
30
0
41
1
10
74.9627884295857
20
-0.916795585523801
30
0
41
1
10
74.7939225620951
20
-0.855248398389051
30
0
41
1
10
74.5685298529297
20
-0.783158861444321
30
0
41
1
10
74.3465096726758
20
-0.721165417510917
30
0
41
1
10
74.1930592634411
20
-0.682075741790243
30
0
0
SPLINE
5
1E6
100
AcDbEntity
8
1
62
256
6
ByLayer
370
-1
48
1
60
0
100
AcDbSpline
70
4
71
3
72
10
73
6
40
0
40
0
40
0
40
0
40
0.213222758157203
40
0.475481838771469
40
1
40
1
40
1
40
1
41
1
10
66.0954344995008
20
5.05159320106998
30
-5E-16
41
1
10
66.0963518815063
20
5.05474948177647
30
-5E-16
41
1
10
66.1023860295886
20
5.06074493862485
30
-5E-16
41
1
10
66.1764428486136
20
5.05667145119529
30
-5E-16
41
1
10
66.3378206707939
20
5.02427116881552
30
-5E-16
41
1
10
66.4538342140277
20
4.99567880195568
30
-5E-16
0
SPLINE
5
1E7
100
AcDbEntity
8
1
62
256
6
ByLayer
370
-1
48
1
60
0
100
AcDbSpline
70
4
71
3
72
16
73
12
40
0
40
0
40
0
40
0
40
0.0668638488455246
40
0.0668638488455246
40
0.290854271538804
40
0.290854271538804
40
0.517824973971679
40
0.517824973971679
40
0.759328674281758
40
0.759328674281758
40
1
40
1
40
1
40
1
41
1
10
68.7589493889699
20
0.319895468233312
30
-4E-16
41
1
10
68.7636835350922
20
0.318506585252209
30
-4E-16
41
1
10
68.7685794067772
20
0.317218414094867
30
-4E-16
41
1
10
68.7903093061796
20
0.31212041477545
30
-4E-16
41
1
10
68.8087173431396
20
0.309388614120337
30
-4E-16
41
1
10
68.8461586687727
20
0.306684647881696
30
-4E-16
41
1
10
68.8656709036184
20
0.306710994584165
30
-4E-16
41
1
10
68.9043798544919
20
0.309541721612447
30
-4E-16
41
1
10
68.9239636326279
20
0.312552998082964
30
-4E-16
41
1
10
68.9598605693536
20
0.321164240926834
30
-4E-16
41
1
10
68.9765703114407
20
0.32684124792786
30
-4E-16
41
1
10
68.9912627546605
20
0.333550720247786
30
-4E-16
0
SPLINE
5
1E8
100
AcDbEntity
8
1
62
256
6
ByLayer
370
-1
48
1
60
0
100
AcDbSpline
70
4
71
3
72
14
73
10
40
0
40
0
40
0
40
0
40
0.283738489034224
40
0.283738489034224
40
0.570489531030766
40
0.570489531030766
40
0.830294403552167
40
0.830294403552167
40
1
40
1
40
1
40
1
41
1
10
69.5650447587754
20
0.188910145868959
30
-3E-16
41
1
10
69.5769946541535
20
0.173636880100673
30
-3E-16
41
1
10
69.5920677458141
20
0.158278753190103
30
-3E-16
41
1
10
69.6266366293957
20
0.129565933608887
30
-3E-16
41
1
10
69.646729545519
20
0.115794360114961
30
-3E-16
41
1
10
69.6866534126211
20
0.0934387677498592
30
-3E-16
41
1
10
69.7069374006893
20
0.0841627375843927
30
-3E-16
41
1
10
69.7392320409203
20
0.0727103539131519
30
-3E-16
41
1
10
69.7519239814867
20
0.0690891414495809
30
-3E-16
41
1
10
69.7638996961209
20
0.0665647806094398
30
-3E-16
0
SPLINE
5
1E9
100
AcDbEntity
8
1
62
256
6
ByLayer
370
-1
48
1
60
0
100
AcDbSpline
70
4
71
3
72
16
73
12
40
0
40
0
40
0
40
0
40
0.0650212293342901
40
0.0650212293342901
40
0.289691523269457
40
0.289691523269457
40
0.517236422326109
40
0.517236422326109
40
0.759263521180988
40
0.759263521180988
40
1
40
1
40
1
40
1
41
1
10
69.7638996961209
20
0.0665647806094398
30
-3E-16
41
1
10
69.7684909951123
20
0.0655969807132806
30
-3E-16
41
1
10
69.7729979037763
20
0.0647839646516672
30
-3E-16
41
1
10
69.7924599816644
20
0.0618910538951241
30
-3E-16
41
1
10
69.8063753901275
20
0.061553655191517
30
-3E-16
41
1
10
69.8299819300383
20
0.064666588756694
30
-3E-16
41
1
10
69.8399278957307
20
0.0681978677338577
30
-3E-16
41
1
10
69.8553817089322
20
0.0788369070111514
30
-3E-16
41
1
10
69.8607776932267
20
0.0862820645964177
30
-3E-16
41
1
10
69.8662911577611
20
0.103874008277302
30
-3E-16
41
1
10
69.8665093381705
20
0.114185351635115
30
-3E-16
41
1
10
69.8644426920228
20
0.125412977062069
30
-3E-16
0
SPLINE
5
1EA
100
AcDbEntity
8
1
62
256
6
ByLayer
370
-1
48
1
60
0
100
AcDbSpline
70
4
71
3
72
8
73
4
40
0
40
0
40
0
40
0
40
1
40
1
40
1
40
1
41
1
10
69.5650447587754
20
0.188910145868959
30
-3E-16
41
1
10
69.5437069600288
20
0.216182173016989
30
-3E-16
41
1
10
69.5178545235247
20
0.243388818398358
30
-3E-16
41
1
10
69.4879758894553
20
0.268297681761197
30
-3E-16
0
SPLINE
5
1EB
100
AcDbEntity
8
1
62
256
6
ByLayer
370
-1
48
1
60
0
100
AcDbSpline
70
4
71
3
72
14
73
10
40
0
40
0
40
0
40
0
40
0.284523597312273
40
0.284523597312273
40
0.571736866218024
40
0.571736866218024
40
0.831999616286237
40
0.831999616286237
40
1
40
1
40
1
40
1
41
1
10
68.6917024744012
20
0.421040615185262
30
-4E-16
41
1
10
68.6839208650658
20
0.410364929683084
30
-4E-16
41
1
10
68.6796054397408
20
0.399262374335706
30
-4E-16
41
1
10
68.679421085802
20
0.377592319203671
30
-4E-16
41
1
10
68.683668902488
20
0.366692352418596
30
-4E-16
41
1
10
68.7001825467736
20
0.347755115241483
30
-4E-16
41
1
10
68.7119417045693
20
0.339261690329352
30
-4E-16
41
1
10
68.7361995027902
20
0.327506836811125
30
-4E-16
41
1
10
68.7471270254246
20
0.323363861286737
30
-4E-16
41
1
10
68.7589493889699
20
0.319895468233312
30
-4E-16
0
SPLINE
5
1EC
100
AcDbEntity
8
1
62
256
6
ByLayer
370
-1
48
1
60
0
100
AcDbSpline
70
4
71
3
72
12
73
8
40
0
40
0
40
0
40
0
40
0.290044200724984
40
0.290044200724984
40
0.721493232054894
40
0.721493232054894
40
1
40
1
40
1
40
1
41
1
10
70.2166682606614
20
0.0335163799916245
30
-3E-16
41
1
10
70.2251287267285
20
0.0269460716253604
30
-3E-16
41
1
10
70.2328319738111
20
0.0211851969276324
30
-3E-16
41
1
10
70.2491284440116
20
0.0095363621706213
30
-3E-16
41
1
10
70.2565989757748
20
0.004757196315893
30
-3E-16
41
1
10
70.263484907365
20
0.0014685992998693
30
-3E-16
41
1
10
70.2648840138573
20
0.00130008674941
30
-3E-16
41
1
10
70.2648840138573
20
0.0022750149117599
30
-3E-16
0
SPLINE
5
1ED
100
AcDbEntity
8
1
62
256
6
ByLayer
370
-1
48
1
60
0
100
AcDbSpline
70
4
71
3
72
10
73
6
40
0
40
0
40
0
40
0
40
0.434010789901126
40
0.434010789901126
40
1
40
1
40
1
40
1
41
1
10
69.1001149706125
20
0.368583162347932
30
-4E-16
41
1
10
69.0828809047954
20
0.365149964932613
30
-4E-16
41
1
10
69.0662189730482
20
0.360886970872912
30
-4E-16
41
1
10
69.0294644999547
20
0.349554336895722
30
-4E-16
41
1
10
69.0096931069807
20
0.34196715153081
30
-4E-16
41
1
10
68.9912627546607
20
0.333550720247871
30
-4E-16
0
LINE
5
48
100
AcDbEntity
8
81
62
256
6
ByLayer
370
-1
48
1
60
0
100
AcDbLine
10
75
20
19.935
30
0
11
85.5
21
19.935
31
0
39
0
210
0
220
0
230
1
0
LINE
5
49
100
AcDbEntity
8
SK4
62
256
6
ByLayer
370
-1
48
0.05
60
0
100
AcDbLine
10
85
20
0
30
0
11
-40
21
0
31
0
39
0
210
0
220
0
230
1
0
LINE
5
4B
100
AcDbEntity
8
80
62
256
6
ByLayer
370
-1
48
1
60
0
100
AcDbLine
10
0
20
0
30
0
11
-10
21
0
31
0
39
0
210
0
220
0
230
1
0
LINE
5
4C
100
AcDbEntity
8
4
62
256
6
ByLayer
370
-1
48
0.05
60
0
100
AcDbLine
10
0
20
0
30
0
11
75
21
0
31
0
39
0
210
0
220
0
230
1
0
LINE
5
4E
100
AcDbEntity
8
1
62
256
6
ByLayer
370
-1
48
1
60
0
100
AcDbLine
10
20
20
-25
30
0
11
24.549579
21
-19.187009
31
0
39
0
210
0
220
0
230
1
0
LINE
5
50
100
AcDbEntity
8
1
62
256
6
ByLayer
370
-1
48
1
60
0
100
AcDbLine
10
24.549579
20
19.187009
30
0
11
20
21
25
31
0
39
0
210
0
220
0
230
1
0
LINE
5
51
100
AcDbEntity
8
1
62
256
6
ByLayer
370
-1
48
1
60
0
100
AcDbLine
10
20
20
25
30
0
11
0.3
21
25
31
0
39
0
210
0
220
0
230
1
0
LINE
5
52
100
AcDbEntity
8
1
62
256
6
ByLayer
370
-1
48
1
60
0
100
AcDbLine
10
0.3
20
-25
30
0
11
20
21
-25
31
0
39
0
210
0
220
0
230
1
0
LINE
5
53
100
AcDbEntity
8
1
62
256
6
ByLayer
370
-1
48
1
60
0
100
AcDbLine
10
0.3
20
25
30
0
11
0
21
24.7
31
0
39
0
210
0
220
0
230
1
0
LINE
5
54
100
AcDbEntity
8
1
62
256
6
ByLayer
370
-1
48
1
60
0
100
AcDbLine
10
0
20
-24.7
30
0
11
0.3
21
-25
31
0
39
0
210
0
220
0
230
1
0
LINE
5
55
100
AcDbEntity
8
1
62
256
6
ByLayer
370
-1
48
1
60
0
100
AcDbLine
10
25.730809
20
-18.611507
30
0
11
38.591705
21
-18.611507
31
0
39
0
210
0
220
0
230
1
0
LINE
5
56
100
AcDbEntity
8
1
62
256
6
ByLayer
370
-1
48
1
60
0
100
AcDbLine
10
38.343561
20
18.611507
30
0
11
25.730809
21
18.611507
31
0
39
0
210
0
220
0
230
1
0
LINE
5
57
100
AcDbEntity
8
1
62
256
6
ByLayer
370
-1
48
1
60
0
100
AcDbLine
10
70.969911
20
-0.025768
30
0
11
70.976238
21
-5.6E-05
31
0
39
0
210
0
220
0
230
1
0
LINE
5
58
100
AcDbEntity
8
1
62
256
6
ByLayer
370
-1
48
1
60
0
100
AcDbLine
10
67.631831
20
0.84696
30
0
11
67.625792
21
0.822423
31
0
39
0
210
0
220
0
230
1
0
LINE
5
59
100
AcDbEntity
8
1
62
256
6
ByLayer
370
-1
48
1
60
0
100
AcDbLine
10
70.16154
20
17.987859
30
0
11
69.98366
21
18.064108
31
0
39
0
210
0
220
0
230
1
0
LINE
5
5A
100
AcDbEntity
8
1
62
256
6
ByLayer
370
-1
48
1
60
0
100
AcDbLine
10
70.101493
20
16.706885
30
0
11
70.201522
21
16.664007
31
0
39
0
210
0
220
0
230
1
0
LINE
5
5B
100
AcDbEntity
8
1
62
256
6
ByLayer
370
-1
48
1
60
0
100
AcDbLine
10
69.672675
20
15.6181
30
0
11
69.46035
21
15.709115
31
0
39
0
210
0
220
0
230
1
0
LINE
5
5C
100
AcDbEntity
8
1
62
256
6
ByLayer
370
-1
48
1
60
0
100
AcDbLine
10
68.69006
20
16.171728
30
0
11
68.468787
21
16.266578
31
0
39
0
210
0
220
0
230
1
0
LINE
5
5D
100
AcDbEntity
8
1
62
256
6
ByLayer
370
-1
48
1
60
0
100
AcDbLine
10
69.127826
20
17.256677
30
0
11
69.340151
21
17.165662
31
0
39
0
210
0
220
0
230
1
0
LINE
5
5E
100
AcDbEntity
8
1
62
256
6
ByLayer
370
-1
48
1
60
0
100
AcDbLine
10
74.089792
20
-8.071162
30
0
11
74.089792
21
-2.966965
31
0
39
0
210
0
220
0
230
1
0
LINE
5
5F
100
AcDbEntity
8
1
62
256
6
ByLayer
370
-1
48
1
60
0
100
AcDbLine
10
70.553766
20
12.996435
30
0
11
73.536238
21
13.240864
31
0
39
0
210
0
220
0
230
1
0
LINE
5
60
100
AcDbEntity
8
1
62
256
6
ByLayer
370
-1
48
1
60
0
100
AcDbLine
10
8.538675
20
-23.83913
30
0
11
8.538675
21
-7.529667
31
0
39
0
210
0
220
0
230
1
0
LINE
5
61
100
AcDbEntity
8
1
62
256
6
ByLayer
370
-1
48
1
60
0
100
AcDbLine
10
65.267849
20
-18.687912
30
0
11
65.26376
21
-18.694136
31
0
39
0
210
0
220
0
230
1
0
LINE
5
62
100
AcDbEntity
8
1
62
256
6
ByLayer
370
-1
48
1
60
0
100
AcDbLine
10
73.536238
20
13.241658
30
0
11
70.554915
21
12.997324
31
0
39
0
210
0
220
0
230
1
0
LINE
5
63
100
AcDbEntity
8
1
62
256
6
ByLayer
370
-1
48
1
60
0
100
AcDbLine
10
0.3
20
-25
30
0
11
0.3
21
25
31
0
39
0
210
0
220
0
230
1
0
LINE
5
64
100
AcDbEntity
8
1
62
256
6
ByLayer
370
-1
48
1
60
0
100
AcDbLine
10
74.446346
20
13.66972
30
0
11
74.446346
21
16.359859
31
0
39
0
210
0
220
0
230
1
0
LINE
5
65
100
AcDbEntity
8
1
62
256
6
ByLayer
370
-1
48
1
60
0
100
AcDbLine
10
74.446346
20
-13.586437
30
0
11
74.446346
21
-18.443709
31
0
39
0
210
0
220
0
230
1
0
LINE
5
66
100
AcDbEntity
8
1
62
256
6
ByLayer
370
-1
48
1
60
0
100
AcDbLine
10
66.58663
20
5.486888
30
0
11
66.58663
21
12.704553
31
0
39
0
210
0
220
0
230
1
0
LINE
5
67
100
AcDbEntity
8
1
62
256
6
ByLayer
370
-1
48
1
60
0
100
AcDbLine
10
74.24687
20
-2.096239
30
0
11
74.24687
21
-11.310011
31
0
39
0
210
0
220
0
230
1
0
LINE
5
68
100
AcDbEntity
8
1
62
256
6
ByLayer
370
-1
48
1
60
0
100
AcDbLine
10
73.682685
20
-2.54973
30
0
11
73.682685
21
-7.440074
31
0
39
0
210
0
220
0
230
1
0
LINE
5
69
100
AcDbEntity
8
1
62
256
6
ByLayer
370
-1
48
1
60
0
100
AcDbLine
10
74.089792
20
13.17043
30
0
11
74.089792
21
13.227844
31
0
39
0
210
0
220
0
230
1
0
LINE
5
6A
100
AcDbEntity
8
1
62
256
6
ByLayer
370
-1
48
1
60
0
100
AcDbLine
10
63.740799
20
-14.345563
30
0
11
65.867596
21
-0.029741
31
0
39
0
210
0
220
0
230
1
0
LINE
5
6B
100
AcDbEntity
8
1
62
256
6
ByLayer
370
-1
48
1
60
0
100
AcDbLine
10
69.204062
20
12.886615
30
0
11
68.276127
21
12.810567
31
0
39
0
210
0
220
0
230
1
0
LINE
5
6C
100
AcDbEntity
8
1
62
256
6
ByLayer
370
-1
48
1
60
0
100
AcDbLine
10
62.064722
20
0.545794
30
0
11
48.78752
21
2.667304
31
0
39
0
210
0
220
0
230
1
0
LINE
5
6D
100
AcDbEntity
8
1
62
256
6
ByLayer
370
-1
48
1
60
0
100
AcDbLine
10
46.593175
20
-12.103195
30
0
11
48.78752
21
2.667304
31
0
39
0
210
0
220
0
230
1
0
LINE
5
6E
100
AcDbEntity
8
1
62
256
6
ByLayer
370
-1
48
1
60
0
100
AcDbLine
10
66.58663
20
-18.706127
30
0
11
66.58663
21
-14.753133
31
0
39
0
210
0
220
0
230
1
0
LINE
5
6F
100
AcDbEntity
8
1
62
256
6
ByLayer
370
-1
48
1
60
0
100
AcDbLine
10
73.536238
20
13.138144
30
0
11
73.536238
21
13.240864
31
0
39
0
210
0
220
0
230
1
0
LINE
5
70
100
AcDbEntity
8
1
62
256
6
ByLayer
370
-1
48
1
60
0
100
AcDbLine
10
11.894338
20
-23.666502
30
0
11
11.894338
21
-8.055848
31
0
39
0
210
0
220
0
230
1
0
LINE
5
71
100
AcDbEntity
8
1
62
256
6
ByLayer
370
-1
48
1
60
0
100
AcDbLine
10
63.236108
20
15.296289
30
0
11
63.19597
21
15.302367
31
0
39
0
210
0
220
0
230
1
0
LINE
5
72
100
AcDbEntity
8
1
62
256
6
ByLayer
370
-1
48
1
60
0
100
AcDbLine
10
74.446346
20
-13.586437
30
0
11
74.446346
21
-13.084834
31
0
39
0
210
0
220
0
230
1
0
LINE
5
73
100
AcDbEntity
8
1
62
256
6
ByLayer
370
-1
48
1
60
0
100
AcDbLine
10
74.236238
20
13.26221
30
0
11
74.236238
21
13.160167
31
0
39
0
210
0
220
0
230
1
0
LINE
5
74
100
AcDbEntity
8
1
62
256
6
ByLayer
370
-1
48
1
60
0
100
AcDbLine
10
74.236238
20
-3.30725
30
0
11
74.236238
21
-2.083218
31
0
39
0
210
0
220
0
230
1
0
LINE
5
75
100
AcDbEntity
8
1
62
256
6
ByLayer
370
-1
48
1
60
0
100
AcDbLine
10
63.562447
20
-14.31925
30
0
11
63.562447
21
-18.567241
31
0
39
0
210
0
220
0
230
1
0
LINE
5
76
100
AcDbEntity
8
1
62
256
6
ByLayer
370
-1
48
1
60
0
100
AcDbLine
10
11.461325
20
7.529667
30
0
11
11.461325
21
23.83913
31
0
39
0
210
0
220
0
230
1
0
LINE
5
77
100
AcDbEntity
8
1
62
256
6
ByLayer
370
-1
48
1
60
0
100
AcDbLine
10
73.536238
20
-6.83771
30
0
11
73.536238
21
-3.758616
31
0
39
0
210
0
220
0
230
1
0
LINE
5
78
100
AcDbEntity
8
1
62
256
6
ByLayer
370
-1
48
1
60
0
100
AcDbLine
10
65.867596
20
-0.029741
30
0
11
73.074122
21
-1.06021
31
0
39
0
210
0
220
0
230
1
0
LINE
5
79
100
AcDbEntity
8
1
62
256
6
ByLayer
370
-1
48
1
60
0
100
AcDbLine
10
73.625205
20
-19.230929
30
0
11
73.625205
21
-16.281102
31
0
39
0
210
0
220
0
230
1
0
LINE
5
7A
100
AcDbEntity
8
1
62
256
6
ByLayer
370
-1
48
1
60
0
100
AcDbLine
10
73.625205
20
3.215197
30
0
11
73.625205
21
11.730514
31
0
39
0
210
0
220
0
230
1
0
LINE
5
7B
100
AcDbEntity
8
1
62
256
6
ByLayer
370
-1
48
1
60
0
100
AcDbLine
10
11.461325
20
7.529667
30
0
11
8.538675
21
7.529667
31
0
39
0
210
0
220
0
230
1
0
LINE
5
7C
100
AcDbEntity
8
1
62
256
6
ByLayer
370
-1
48
1
60
0
100
AcDbLine
10
62.676761
20
12.733722
30
0
11
49.399559
21
14.692166
31
0
39
0
210
0
220
0
230
1
0
LINE
5
7D
100
AcDbEntity
8
1
62
256
6
ByLayer
370
-1
48
1
60
0
100
AcDbLine
10
8.538675
20
7.529667
30
0
11
8.538675
21
23.83913
31
0
39
0
210
0
220
0
230
1
0
LINE
5
7E
100
AcDbEntity
8
1
62
256
6
ByLayer
370
-1
48
1
60
0
100
AcDbLine
10
74.446346
20
-11.31676
30
0
11
74.446346
21
-2.066283
31
0
39
0
210
0
220
0
230
1
0
LINE
5
7F
100
AcDbEntity
8
1
62
256
6
ByLayer
370
-1
48
1
60
0
100
AcDbLine
10
72.771048
20
-16.424787
30
0
11
72.771048
21
-17.999783
31
0
39
0
210
0
220
0
230
1
0
LINE
5
80
100
AcDbEntity
8
1
62
256
6
ByLayer
370
-1
48
1
60
0
100
AcDbLine
10
8.105662
20
8.055848
30
0
11
8.105662
21
23.666502
31
0
39
0
210
0
220
0
230
1
0
LINE
5
81
100
AcDbEntity
8
1
62
256
6
ByLayer
370
-1
48
1
60
0
100
AcDbLine
10
73.625205
20
12.494059
30
0
11
73.625205
21
13.143678
31
0
39
0
210
0
220
0
230
1
0
LINE
5
82
100
AcDbEntity
8
1
62
256
6
ByLayer
370
-1
48
1
60
0
100
AcDbLine
10
70.425083
20
11.269283
30
0
11
69.86247
21
9.048115
31
0
39
0
210
0
220
0
230
1
0
LINE
5
83
100
AcDbEntity
8
1
62
256
6
ByLayer
370
-1
48
1
60
0
100
AcDbLine
10
8.538675
20
23.83913
30
0
11
11.461325
21
23.83913
31
0
39
0
210
0
220
0
230
1
0
LINE
5
84
100
AcDbEntity
8
1
62
256
6
ByLayer
370
-1
48
1
60
0
100
AcDbLine
10
73.625205
20
-15.733808
30
0
11
73.625205
21
-14.628138
31
0
39
0
210
0
220
0
230
1
0
LINE
5
85
100
AcDbEntity
8
1
62
256
6
ByLayer
370
-1
48
1
60
0
100
AcDbLine
10
20
20
-25
30
0
11
20
21
25
31
0
39
0
210
0
220
0
230
1
0
LINE
5
86
100
AcDbEntity
8
1
62
256
6
ByLayer
370
-1
48
1
60
0
100
AcDbLine
10
66.651966
20
12.709265
30
0
11
66.651966
21
5.483607
31
0
39
0
210
0
220
0
230
1
0
LINE
5
87
100
AcDbEntity
8
1
62
256
6
ByLayer
370
-1
48
1
60
0
100
AcDbLine
10
64.778757
20
3.622732
30
0
11
64.329627
21
3.153902
31
0
39
0
210
0
220
0
230
1
0
LINE
5
88
100
AcDbEntity
8
1
62
256
6
ByLayer
370
-1
48
1
60
0
100
AcDbLine
10
8.538675
20
-7.529667
30
0
11
11.461325
21
-7.529667
31
0
39
0
210
0
220
0
230
1
0
LINE
5
89
100
AcDbEntity
8
1
62
256
6
ByLayer
370
-1
48
1
60
0
100
AcDbLine
10
69.86247
20
9.129548
30
0
11
69.86247
21
9.048115
31
0
39
0
210
0
220
0
230
1
0
LINE
5
8A
100
AcDbEntity
8
1
62
256
6
ByLayer
370
-1
48
1
60
0
100
AcDbLine
10
0
20
-24.7
30
0
11
0
21
24.7
31
0
39
0
210
0
220
0
230
1
0
LINE
5
8B
100
AcDbEntity
8
1
62
256
6
ByLayer
370
-1
48
1
60
0
100
AcDbLine
10
25.730809
20
-18.611507
30
0
11
25.730809
21
18.611507
31
0
39
0
210
0
220
0
230
1
0
LINE
5
8C
100
AcDbEntity
8
1
62
256
6
ByLayer
370
-1
48
1
60
0
100
AcDbLine
10
74.24687
20
13.26663
30
0
11
74.24687
21
13.153289
31
0
39
0
210
0
220
0
230
1
0
LINE
5
8D
100
AcDbEntity
8
1
62
256
6
ByLayer
370
-1
48
1
60
0
100
AcDbLine
10
73.802864
20
-2.591376
30
0
11
73.741627
21
-2.595408
31
0
39
0
210
0
220
0
230
1
0
LINE
5
8E
100
AcDbEntity
8
1
62
256
6
ByLayer
370
-1
48
1
60
0
100
AcDbLine
10
66.651966
20
-14.757198
30
0
11
66.651966
21
-18.713096
31
0
39
0
210
0
220
0
230
1
0
LINE
5
8F
100
AcDbEntity
8
1
62
256
6
ByLayer
370
-1
48
1
60
0
100
AcDbLine
10
74.236238
20
-11.717627
30
0
11
74.236238
21
-8.60486
31
0
39
0
210
0
220
0
230
1
0
LINE
5
90
100
AcDbEntity
8
1
62
256
6
ByLayer
370
-1
48
1
60
0
100
AcDbLine
10
74.446346
20
2.926593
30
0
11
74.446346
21
2.953972
31
0
39
0
210
0
220
0
230
1
0
LINE
5
91
100
AcDbEntity
8
1
62
256
6
ByLayer
370
-1
48
1
60
0
100
AcDbLine
10
11.894338
20
8.055848
30
0
11
11.894338
21
23.666502
31
0
39
0
210
0
220
0
230
1
0
LINE
5
92
100
AcDbEntity
8
1
62
256
6
ByLayer
370
-1
48
1
60
0
100
AcDbLine
10
63.353603
20
13.419682
30
0
11
63.702765
21
13.469291
31
0
39
0
210
0
220
0
230
1
0
LINE
5
93
100
AcDbEntity
8
1
62
256
6
ByLayer
370
-1
48
1
60
0
100
AcDbLine
10
62.676761
20
2.615395
30
0
11
49.399559
21
4.736905
31
0
39
0
210
0
220
0
230
1
0
LINE
5
94
100
AcDbEntity
8
1
62
256
6
ByLayer
370
-1
48
1
60
0
100
AcDbLine
10
74.446346
20
13.069886
30
0
11
74.446346
21
2.953972
31
0
39
0
210
0
220
0
230
1
0
LINE
5
95
100
AcDbEntity
8
1
62
256
6
ByLayer
370
-1
48
1
60
0
100
AcDbLine
10
73.536238
20
-0.761066
30
0
11
73.536238
21
-3.483606
31
0
39
0
210
0
220
0
230
1
0
LINE
5
96
100
AcDbEntity
8
1
62
256
6
ByLayer
370
-1
48
1
60
0
100
AcDbLine
10
11.461325
20
-23.83913
30
0
11
11.461325
21
-7.529667
31
0
39
0
210
0
220
0
230
1
0
LINE
5
97
100
AcDbEntity
8
1
62
256
6
ByLayer
370
-1
48
1
60
0
100
AcDbLine
10
73.558715
20
-16.480913
30
0
11
72.771048
21
-16.424787
31
0
39
0
210
0
220
0
230
1
0
LINE
5
98
100
AcDbEntity
8
1
62
256
6
ByLayer
370
-1
48
1
60
0
100
AcDbLine
10
63.353603
20
2.56476
30
0
11
63.729725
21
3.063877
31
0
39
0
210
0
220
0
230
1
0
LINE
5
99
100
AcDbEntity
8
1
62
256
6
ByLayer
370
-1
48
1
60
0
100
AcDbLine
10
65.019392
20
3.349735
30
0
11
64.918866
21
3.593797
31
0
39
0
210
0
220
0
230
1
0
LINE
5
9A
100
AcDbEntity
8
1
62
256
6
ByLayer
370
-1
48
1
60
0
100
AcDbLine
10
11.461325
20
-23.83913
30
0
11
8.538675
21
-23.83913
31
0
39
0
210
0
220
0
230
1
0
LINE
5
9B
100
AcDbEntity
8
1
62
256
6
ByLayer
370
-1
48
1
60
0
100
AcDbLine
10
8.105662
20
-23.666502
30
0
11
8.105662
21
-8.055848
31
0
39
0
210
0
220
0
230
1
0
LINE
5
9C
100
AcDbEntity
8
1
62
256
6
ByLayer
370
-1
48
1
60
0
100
AcDbLine
10
59.881471
20
-14.150022
30
0
11
62.064722
21
0.545794
31
0
39
0
210
0
220
0
230
1
0
LINE
5
9D
100
AcDbEntity
8
1
62
256
6
ByLayer
370
-1
48
1
60
0
100
AcDbLine
10
63.562447
20
12.457495
30
0
11
63.562447
21
3.032568
31
0
39
0
210
0
220
0
230
1
0
LINE
5
9E
100
AcDbEntity
8
1
62
256
6
ByLayer
370
-1
48
1
60
0
100
AcDbLine
10
63.436768
20
-18.566538
30
0
11
63.436768
21
-14.31207
31
0
39
0
210
0
220
0
230
1
0
LINE
5
9F
100
AcDbEntity
8
1
62
256
6
ByLayer
370
-1
48
1
60
0
100
AcDbLine
10
64.329627
20
3.153902
30
0
11
64.860886
21
3.101494
31
0
39
0
210
0
220
0
230
1
0
LINE
5
A0
100
AcDbEntity
8
1
62
256
6
ByLayer
370
-1
48
1
60
0
100
AcDbLine
10
24.549579
20
-19.187009
30
0
11
24.549579
21
19.187009
31
0
39
0
210
0
220
0
230
1
0
LINE
5
A1
100
AcDbEntity
8
1
62
256
6
ByLayer
370
-1
48
1
60
0
100
AcDbLine
10
74.236238
20
-3.307251
30
0
11
74.236238
21
-8.617953
31
0
39
0
210
0
220
0
230
1
0
LINE
5
A2
100
AcDbEntity
8
1
62
256
6
ByLayer
370
-1
48
1
60
0
100
AcDbLine
10
63.436768
20
2.906277
30
0
11
63.436768
21
12.450316
31
0
39
0
210
0
220
0
230
1
0
LINE
5
A3
100
AcDbEntity
8
1
62
256
6
ByLayer
370
-1
48
1
60
0
100
AcDbLine
10
73.301924
20
-2.048656
30
0
11
73.301924
21
-0.690372
31
0
39
0
210
0
220
0
230
1
0
LINE
5
A4
100
AcDbEntity
8
1
62
256
6
ByLayer
370
-1
48
1
60
0
100
AcDbLine
10
63.236108
20
2.719621
30
0
11
63.19597
21
2.726046
31
0
39
0
210
0
220
0
230
1
0
LINE
5
A5
100
AcDbEntity
8
SK1
62
256
6
ByLayer
370
-1
48
1
60
0
100
AcDbLine
10
-0.2
20
17.833485
30
0
11
-0.2
21
5.881425
31
0
39
0
210
0
220
0
230
1
0
LINE
5
A7
100
AcDbEntity
8
SK1
62
256
6
ByLayer
370
-1
48
1
60
0
100
AcDbLine
10
-0.2
20
-5.881424
30
0
11
-0.2
21
-17.833485
31
0
39
0
210
0
220
0
230
1
0
LINE
5
A8
100
AcDbEntity
8
SK1
62
256
6
ByLayer
370
-1
48
1
60
0
100
AcDbLine
10
-30
20
-15.939791
30
0
11
-30
21
15.941288
31
0
39
0
210
0
220
0
230
1
0
LINE
5
A9
100
AcDbEntity
8
SK1
62
256
6
ByLayer
370
-1
48
1
60
0
100
AcDbLine
10
-1.307107
20
3.804744
30
0
11
-1.307107
21
-3.804747
31
0
39
0
210
0
220
0
230
1
0
LINE
5
AA
100
AcDbEntity
8
SK1
62
256
6
ByLayer
370
-1
48
1
60
0
100
AcDbLine
10
-0.4
20
17.32515
30
0
11
-0.4
21
5.168667
31
0
39
0
210
0
220
0
230
1
0
LINE
5
AB
100
AcDbEntity
8
1
62
256
6
ByLayer
370
-1
48
1
60
0
100
AcDbLine
10
70.181619
20
16.677407
30
0
11
70.150482
21
16.690754
31
0
39
0
210
0
220
0
230
1
0
LINE
5
AC
100
AcDbEntity
8
1
62
256
6
ByLayer
370
-1
48
1
60
0
100
AcDbLine
10
69.666338
20
15.591609
30
0
11
69.565045
21
15.635029
31
0
39
0
210
0
220
0
230
1
0
LINE
5
AD
100
AcDbEntity
8
1
62
256
6
ByLayer
370
-1
48
1
60
0
100
AcDbLine
10
69.533769
20
17.1357
30
0
11
69.329375
21
17.223315
31
0
39
0
210
0
220
0
230
1
0
LINE
5
AE
100
AcDbEntity
8
1
62
256
6
ByLayer
370
-1
48
1
60
0
100
AcDbLine
10
69.793304
20
17.262283
30
0
11
69.565045
21
17.360128
31
0
39
0
210
0
220
0
230
1
0
LINE
5
AF
100
AcDbEntity
8
1
62
256
6
ByLayer
370
-1
48
1
60
0
100
AcDbLine
10
68.634003
20
16.545117
30
0
11
68.405663
21
16.642997
31
0
39
0
210
0
220
0
230
1
0
LINE
5
B0
100
AcDbEntity
8
1
62
256
6
ByLayer
370
-1
48
1
60
0
100
AcDbLine
10
69.274662
20
17.221817
30
0
11
69.479056
21
17.134203
31
0
39
0
210
0
220
0
230
1
0
LINE
5
B1
100
AcDbEntity
8
1
62
256
6
ByLayer
370
-1
48
1
60
0
100
AcDbLine
10
68.920043
20
15.690213
30
0
11
68.691702
21
15.788093
31
0
39
0
210
0
220
0
230
1
0
LINE
5
B2
100
AcDbEntity
8
1
62
256
6
ByLayer
370
-1
48
1
60
0
100
AcDbLine
10
68.920043
20
17.061451
30
0
11
68.691702
21
17.159331
31
0
39
0
210
0
220
0
230
1
0
LINE
5
B3
100
AcDbEntity
8
1
62
256
6
ByLayer
370
-1
48
1
60
0
100
AcDbLine
10
69.005322
20
0.389056
30
0
11
68.991263
21
0.333551
31
0
39
0
210
0
220
0
230
1
0
LINE
5
B4
100
AcDbEntity
8
1
62
256
6
ByLayer
370
-1
48
1
60
0
100
AcDbLine
10
69.578794
20
0.243191
30
0
11
69.565045
21
0.18891
31
0
39
0
210
0
220
0
230
1
0
MTEXT
5
1EE
100
AcDbEntity
8
SK6
62
256
6
ByLayer
370
-1
48
1
60
0
100
AcDbMText
10
0.873386
20
-35.938367
30
0
210
0
220
0
230
1
1
\W00.708;\fsimplex.shx,bigfont.shx;R390-040C5-11M\P
40
3.5
41
0
44
1.084337
50
0
71
7
72
5
7
DEFAULT
0
DIMENSION
5
1FF
100
AcDbEntity
8
2
62
256
6
ByLayer
370
-3
48
1
60
0
100
AcDbDimension
2
DimnDraft3D1
10
25
20
44.75
30
0
11
46.666447
21
44.75
31
0
70
32
71
5
72
1
41
1
210
0
220
0
230
1
3
Standard
100
AcDbAlignedDimension
13
75
23
22
33
0
14
25
24
20.611507
34
0
50
0
100
AcDbRotatedDimension
1001
ACAD
1000
DSTYLE
1002
{
1070
   279
1070
     0
1070
   172
1070
     1
1070
   173
1070
     1
1070
   340
1005
1EF
1070
   271
1070
     2
1070
   272
1070
     2
1070
    77
1070
     1
1070
    73
1070
     0
1070
   171
1070
     4
1070
   274
1070
     4
1070
   177
1070
     2
1070
   176
1070
     2
1070
   178
1070
     7
1070
    78
1070
     8
1070
    41
1041
3.175
1070
   147
1041
2.25
1070
    42
1041
2.0
1070
    44
1041
2.0
1070
   140
1041
4.5
1070
   343
1005
200
1070
   344
1005
200
1002
}
0
DIMENSION
5
214
100
AcDbEntity
8
2
62
256
6
ByLayer
370
-3
48
1
60
0
100
AcDbDimension
2
DimnDraft3D2
10
0
20
54.75
30
0
11
34.166447
21
54.75
31
0
70
32
71
5
72
1
41
1
210
0
220
0
230
1
3
Standard
100
AcDbAlignedDimension
13
75
23
22
33
0
14
0
24
27
34
0
50
0
100
AcDbRotatedDimension
1001
ACAD
1000
DSTYLE
1002
{
1070
   279
1070
     0
1070
   172
1070
     1
1070
   173
1070
     1
1070
   340
1005
1EF
1070
   271
1070
     2
1070
   272
1070
     2
1070
    77
1070
     1
1070
    73
1070
     0
1070
   171
1070
     4
1070
   274
1070
     4
1070
   177
1070
     2
1070
   176
1070
     2
1070
   178
1070
     7
1070
    78
1070
     8
1070
    41
1041
3.175
1070
   147
1041
2.25
1070
    42
1041
2.0
1070
    44
1041
2.0
1070
   140
1041
4.5
1070
   343
1005
200
1070
   344
1005
200
1002
}
0
DIMENSION
5
222
100
AcDbEntity
8
2
62
256
6
ByLayer
370
-3
48
1
60
0
100
AcDbDimension
2
DimnDraft3D3
10
64.8
20
29.75
30
0
11
80
21
29.75
31
0
70
32
71
5
72
1
41
1
210
0
220
0
230
1
3
Standard
100
AcDbAlignedDimension
13
75
23
22
33
0
14
64.8
24
22
34
0
50
0
100
AcDbRotatedDimension
1001
ACAD
1000
DSTYLE
1002
{
1070
   279
1070
     0
1070
   172
1070
     1
1070
   173
1070
     1
1070
   340
1005
1EF
1070
   271
1070
     2
1070
   272
1070
     2
1070
    77
1070
     1
1070
    73
1070
     0
1070
   171
1070
     4
1070
   274
1070
     4
1070
   177
1070
     2
1070
   176
1070
     2
1070
   178
1070
     7
1070
    78
1070
     8
1070
    41
1041
3.175
1070
   147
1041
2.25
1070
    42
1041
2.0
1070
    44
1041
2.0
1070
   140
1041
4.5
1070
   343
1005
200
1070
   344
1005
200
1002
}
0
DIMENSION
5
231
100
AcDbEntity
8
SK2
62
256
6
ByLayer
370
-3
48
1
60
0
100
AcDbDimension
2
DimnDraft3D4
10
-39.75
20
-25
30
0
11
-39.75
21
-6.01727
31
0
70
32
71
5
72
1
41
1
210
0
220
0
230
1
3
Standard
100
AcDbAlignedDimension
13
-2
23
25
33
0
14
-2
24
-25
34
0
50
90
100
AcDbRotatedDimension
1001
ACAD
1000
DSTYLE
1002
{
1070
    74
1070
     0
1070
   279
1070
     0
1070
   172
1070
     1
1070
   173
1070
     1
1070
   340
1005
1EF
1070
   271
1070
     2
1070
   272
1070
     2
1070
    77
1070
     1
1070
    73
1070
     0
1070
   171
1070
     4
1070
   274
1070
     4
1070
   177
1070
     2
1070
   176
1070
     2
1070
   178
1070
     7
1070
    78
1070
     8
1070
    41
1041
3.175
1070
   147
1041
2.25
1070
    42
1041
2.0
1070
    44
1041
2.0
1070
   140
1041
4.5
1070
   343
1005
200
1070
   344
1005
200
1002
}
0
DIMENSION
5
23F
100
AcDbEntity
8
2
62
256
6
ByLayer
370
-3
48
1
60
0
100
AcDbDimension
2
DimnDraft3D5
10
89.25
20
-20
30
0
11
89.25
21
-6.337007
31
0
70
32
71
5
72
1
41
1
210
0
220
0
230
1
3
Standard
100
AcDbAlignedDimension
13
77
23
20
33
0
14
77
24
-20
34
0
50
90
100
AcDbRotatedDimension
1001
ACAD
1000
DSTYLE
1002
{
1070
    74
1070
     0
1070
   279
1070
     0
1070
   172
1070
     1
1070
   173
1070
     1
1070
   340
1005
1EF
1070
   271
1070
     2
1070
   272
1070
     2
1070
    77
1070
     1
1070
    73
1070
     0
1070
   171
1070
     4
1070
   274
1070
     4
1070
   177
1070
     2
1070
   176
1070
     2
1070
   178
1070
     7
1070
    78
1070
     8
1070
    41
1041
3.175
1070
   147
1041
2.25
1070
    42
1041
2.0
1070
    44
1041
2.0
1070
   140
1041
4.5
1070
   343
1005
200
1070
   344
1005
200
1002
}
0
ENDSEC
0
SECTION
2
OBJECTS
0
DICTIONARY
5
28e
330
0
100
AcDbDictionary
280
0
281
1
3
ACAD_GROUP
350
28f
3
ACAD_MLINESTYLE
350
290
0
DICTIONARY
5
28f
330
0
100
AcDbDictionary
280
0
281
1
0
DICTIONARY
5
290
330
0
100
AcDbDictionary
280
0
281
1
3
Standard
350
18
0
MLINESTYLE
5
18
330
290
100
AcDbMlineStyle
2
Standard
70
0
3

62
256
51
90
52
90
71
2
49
-0.5
62
256
6
ByLayer
49
0.5
62
256
6
ByLayer
0
RASTERVARIABLES
5
27c
330

100
AcDbRasterVariables
90
0
70
1
71
1
72
1
0
ENDSEC
0
EOF
