0
SECTION
2
HEADER
9
$ACADVER
1
AC1015
9
$DWGCODEPAGE
3
ANSI_1252
9
$HANDSEED
5
1ea
9
$ANGBASE
50
0
9
$ANGDIR
70
0
9
$ATTMODE
70
1
9
$AUNITS
70
0
9
$AUPREC
70
0
9
$CECOLOR
62
256
9
$CELTSCALE
40
1
9
$CELTYPE
6
ByLayer
9
$CELWEIGHT
370
-1
9
$CLAYER
8
0
9
$CMLJUST
70
0
9
$CMLSCALE
40
1
9
$CMLSTYLE
2
Standard
9
$DIMSTYLE
2
Standard
9
$TEXTSIZE
40
0.2
9
$TEXTSTYLE
7
Standard
9
$LUNITS
70
2
9
$LUPREC
70
4
9
$EXTNAMES
290
1
9
$INSUNITS
70
4
9
$LTSCALE
40
1
9
$LWDISPLAY
290
0
9
$PDMODE
70
0
9
$PDSIZE
40
0
9
$PLINEGEN
70
0
0
ENDSEC
0
SECTION
2
CLASSES
0
CLASS
1
RASTERVARIABLES
2
AcDbRasterVariables
3
ISM
90
0
280
0
281
0
0
ENDSEC
0
SECTION
2
TABLES
0
TABLE
2
VPORT
5
1e0
100
AcDbSymbolTable
0
VPORT
5
1
100
AcDbSymbolTableRecord
100
AcDbViewportTableRecord
2
*Active
70
0
10
0
20
0
11
1
21
1
12
-1
22
1
13
0
23
0
14
0.5
24
0.5
15
10
25
10
16
0
26
0
36
1
17
0
27
0
37
0
0
ENDTAB
0
TABLE
2
LTYPE
5
1e1
100
AcDbSymbolTable
0
LTYPE
5
14
100
AcDbSymbolTableRecord
100
AcDbLinetypeTableRecord
70
0
2
ByBlock
3

72
65
73
0
40
0
0
LTYPE
5
15
100
AcDbSymbolTableRecord
100
AcDbLinetypeTableRecord
70
0
2
ByLayer
3

72
65
73
0
40
0
0
LTYPE
5
16
100
AcDbSymbolTableRecord
100
AcDbLinetypeTableRecord
70
0
2
CONTINUOUS
3
Solid line
72
65
73
0
40
0
0
LTYPE
5
3C
100
AcDbSymbolTableRecord
100
AcDbLinetypeTableRecord
70
0
2
DASHED
3
__ __ __ __ __ __ __ __ __
72
65
73
2
40
25.72
49
12.86
74
0
49
-12.86
74
0
0
LTYPE
5
3D
100
AcDbSymbolTableRecord
100
AcDbLinetypeTableRecord
70
0
2
HIDDEN
3
_ _ _ _ _ _ _ _ _ _ _ _ _ _ _
72
65
73
2
40
0.5
49
0.25
74
0
49
-0.25
74
0
0
LTYPE
5
3E
100
AcDbSymbolTableRecord
100
AcDbLinetypeTableRecord
70
0
2
PHANTOM
3
____ _ _ ____ _ _ _____ _ _ ____
72
65
73
6
40
50.5
49
18
74
0
49
-6.5
74
0
49
6.5
74
0
49
-6.5
74
0
49
6.5
74
0
49
-6.5
74
0
0
LTYPE
5
3F
100
AcDbSymbolTableRecord
100
AcDbLinetypeTableRecord
70
0
2
CENTER
3
____ _ ____ _ ____ _ ____
72
65
73
4
40
47.5
49
22
74
0
49
-8.5
74
0
49
8.5
74
0
49
-8.5
74
0
0
LTYPE
5
40
100
AcDbSymbolTableRecord
100
AcDbLinetypeTableRecord
70
0
2
DOT
3
.........................
72
65
73
2
40
10
49
0
74
0
49
-10
74
0
0
LTYPE
5
41
100
AcDbSymbolTableRecord
100
AcDbLinetypeTableRecord
70
0
2
DASHDOT
3
_._._._._._._._._._._._._._._._.
72
65
73
4
40
70
49
31
74
0
49
-13
74
0
49
13
74
0
49
-13
74
0
0
ENDTAB
0
TABLE
2
LAYER
5
1e2
100
AcDbSymbolTable
0
LAYER
5
10
100
AcDbSymbolTableRecord
100
AcDbLayerTableRecord
2
0
70
0
62
7
6
CONTINUOUS
290
1
370
-3
390
0
0
LAYER
5
43
100
AcDbSymbolTableRecord
100
AcDbLayerTableRecord
2
80
70
0
62
-6
6
CONTINUOUS
290
1
370
-3
390
0
0
LAYER
5
47
100
AcDbSymbolTableRecord
100
AcDbLayerTableRecord
2
81
70
0
62
-3
6
CONTINUOUS
290
1
370
-3
390
0
0
LAYER
5
49
100
AcDbSymbolTableRecord
100
AcDbLayerTableRecord
2
2
70
0
62
7
6
CONTINUOUS
290
1
370
-3
390
0
0
LAYER
5
4B
100
AcDbSymbolTableRecord
100
AcDbLayerTableRecord
2
1
70
0
62
4
6
CONTINUOUS
290
1
370
-3
390
0
0
LAYER
5
5A
100
AcDbSymbolTableRecord
100
AcDbLayerTableRecord
2
4
70
0
62
-2
6
CENTER
290
1
370
-3
390
0
0
LAYER
5
1cc
100
AcDbSymbolTableRecord
100
AcDbLayerTableRecord
2
SK2
70
0
62
7
6
CONTINUOUS
290
1
370
-3
390
0
0
LAYER
5
1cd
100
AcDbSymbolTableRecord
100
AcDbLayerTableRecord
2
SK1
70
0
62
4
6
CONTINUOUS
290
1
370
-3
390
0
0
LAYER
5
1ce
100
AcDbSymbolTableRecord
100
AcDbLayerTableRecord
2
SK4
70
0
62
2
6
CENTER
290
1
370
-3
390
0
0
LAYER
5
1cf
100
AcDbSymbolTableRecord
100
AcDbLayerTableRecord
2
SK6
70
0
62
5
6
CONTINUOUS
290
1
370
-3
390
0
0
ENDTAB
0
TABLE
2
STYLE
5
1e3
100
AcDbSymbolTable
0
STYLE
5
11
100
AcDbSymbolTableRecord
100
AcDbTextStyleTableRecord
2
Standard
3
txt
70
0
71
0
40
0
41
1
42
0
50
0
0
STYLE
5
131
100
AcDbSymbolTableRecord
100
AcDbTextStyleTableRecord
2
DEFAULT
3
simplex.shx
70
0
71
0
40
0
41
1
42
0
50
0
0
STYLE
5
132
100
AcDbSymbolTableRecord
100
AcDbTextStyleTableRecord
2
DWGDirectTextStyle
3
SIMPLEX
70
0
71
0
40
0
41
1
42
0
50
0
0
ENDTAB
0
TABLE
2
DIMSTYLE
5
1e4
100
AcDbSymbolTable
100
AcDbDimStyleTable
0
DIMSTYLE
105
27
100
AcDbSymbolTableRecord
100
AcDbDimStyleTableRecord
2
Standard
70
0
3
<>
41
0.18
42
0.0625
44
0.18
140
0.18
147
0.09
73
0
74
0
77
1
271
2
275
0
278
52
280
0
340
11
0
ENDTAB
0
TABLE
2
VIEW
5
1e5
100
AcDbSymbolTable
0
ENDTAB
0
TABLE
2
UCS
5
1e6
100
AcDbSymbolTable
0
ENDTAB
0
TABLE
2
APPID
5
1e7
100
AcDbSymbolTable
0
APPID
5
12
100
AcDbSymbolTableRecord
100
AcDbRegAppTableRecord
2
ACAD
70
0
0
ENDTAB
0
TABLE
2
BLOCK_RECORD
5
1e8
100
AcDbSymbolTable
0
BLOCK_RECORD
5
1F
100
AcDbSymbolTableRecord
100
AcDbBlockTableRecord
2
*Model_Space
340
0
70
0
0
BLOCK_RECORD
5
1B
100
AcDbSymbolTableRecord
100
AcDbBlockTableRecord
2
*Paper_Space
340
0
70
0
0
BLOCK_RECORD
5
23
100
AcDbSymbolTableRecord
100
AcDbBlockTableRecord
2
*Paper_Space0
340
0
70
0
0
BLOCK_RECORD
5
134
100
AcDbSymbolTableRecord
100
AcDbBlockTableRecord
2
DimnDraft3D1
340
0
70
0
0
BLOCK_RECORD
5
142
100
AcDbSymbolTableRecord
100
AcDbBlockTableRecord
2
_CLOSED
340
0
70
0
0
BLOCK_RECORD
5
149
100
AcDbSymbolTableRecord
100
AcDbBlockTableRecord
2
DimnDraft3D2
340
0
70
0
0
BLOCK_RECORD
5
157
100
AcDbSymbolTableRecord
100
AcDbBlockTableRecord
2
DimnDraft3D3
340
0
70
0
0
BLOCK_RECORD
5
165
100
AcDbSymbolTableRecord
100
AcDbBlockTableRecord
2
DimnDraft3D4
340
0
70
0
0
BLOCK_RECORD
5
173
100
AcDbSymbolTableRecord
100
AcDbBlockTableRecord
2
DimnDraft3D5
340
0
70
0
0
BLOCK_RECORD
5
181
100
AcDbSymbolTableRecord
100
AcDbBlockTableRecord
2
DimnDraft3D6
340
0
70
0
0
ENDTAB
0
ENDSEC
0
SECTION
2
BLOCKS
0
BLOCK
5
20
100
AcDbEntity
8
0
100
AcDbBlockBegin
2
*Model_Space
70
0
10
0
20
0
30
0
3
*Model_Space
0
ENDBLK
5
21
100
AcDbEntity
8
0
100
AcDbBlockEnd
0
BLOCK
5
1C
100
AcDbEntity
8
0
100
AcDbBlockBegin
2
*Paper_Space
70
0
10
0
20
0
30
0
3
*Paper_Space
0
ENDBLK
5
1D
100
AcDbEntity
8
0
100
AcDbBlockEnd
0
BLOCK
5
24
100
AcDbEntity
8
0
100
AcDbBlockBegin
2
*Paper_Space0
70
0
10
0
20
0
30
0
3
*Paper_Space0
0
ENDBLK
5
25
100
AcDbEntity
8
0
100
AcDbBlockEnd
0
BLOCK
5
13F
100
AcDbEntity
8
0
100
AcDbBlockBegin
2
DimnDraft3D1
70
0
10
0
20
0
30
0
3
DimnDraft3D1
0
MTEXT
5
135
100
AcDbEntity
8
2
62
256
6
ByLayer
370
-1
48
1
60
0
100
AcDbMText
10
23.197697
20
40.875
30
0
210
0
220
0
230
1
1
\W01.000;\fsimplex.shx,bigfont.shx;50\P
40
4.5
41
0
44
1.084337
50
0
71
7
72
5
7
DEFAULT
0
LINE
5
136
100
AcDbEntity
8
2
62
256
6
ByLayer
370
-1
48
1
60
0
100
AcDbLine
10
50.0125
20
22
30
0
11
50.0125
21
41.75
31
0
39
0
210
0
220
0
230
1
0
LINE
5
137
100
AcDbEntity
8
2
62
256
6
ByLayer
370
-1
48
1
60
0
100
AcDbLine
10
0.0125
20
20.34011
30
0
11
0.0125
21
41.75
31
0
39
0
210
0
220
0
230
1
0
LINE
5
138
100
AcDbEntity
8
2
62
256
6
ByLayer
370
-1
48
1
60
0
100
AcDbLine
10
50.0125
20
39.75
30
0
11
0.0125
21
39.75
31
0
39
0
210
0
220
0
230
1
0
LINE
5
139
100
AcDbEntity
8
2
62
256
6
ByLayer
370
-1
48
1
60
0
100
AcDbLine
10
50.0125
20
39.75
30
0
11
46.837502
21
39.332003
31
0
39
0
210
0
220
0
230
1
0
LINE
5
13A
100
AcDbEntity
8
2
62
256
6
ByLayer
370
-1
48
1
60
0
100
AcDbLine
10
50.0125
20
39.75
30
0
11
46.837498
21
40.167997
31
0
39
0
210
0
220
0
230
1
0
LINE
5
13B
100
AcDbEntity
8
2
62
256
6
ByLayer
370
-1
48
1
60
0
100
AcDbLine
10
46.837502
20
39.332003
30
0
11
46.837498
21
40.167997
31
0
39
0
210
0
220
0
230
1
0
LINE
5
13C
100
AcDbEntity
8
2
62
256
6
ByLayer
370
-1
48
1
60
0
100
AcDbLine
10
0.0125
20
39.75
30
0
11
3.187498
21
40.167997
31
0
39
0
210
0
220
0
230
1
0
LINE
5
13D
100
AcDbEntity
8
2
62
256
6
ByLayer
370
-1
48
1
60
0
100
AcDbLine
10
0.0125
20
39.75
30
0
11
3.187502
21
39.332003
31
0
39
0
210
0
220
0
230
1
0
LINE
5
13E
100
AcDbEntity
8
2
62
256
6
ByLayer
370
-1
48
1
60
0
100
AcDbLine
10
3.187498
20
40.167997
30
0
11
3.187502
21
39.332003
31
0
39
0
210
0
220
0
230
1
0
ENDBLK
5
140
100
AcDbEntity
8
0
100
AcDbBlockEnd
0
BLOCK
5
143
100
AcDbEntity
8
0
100
AcDbBlockBegin
2
_CLOSED
70
0
10
0
20
0
30
0
3
_CLOSED
0
LINE
5
145
100
AcDbEntity
8
0
62
256
6
ByLayer
370
-2
48
1
60
0
100
AcDbLine
10
-1
20
0.166667
30
0
11
0
21
0
31
0
39
0
210
0
220
0
230
1
0
LINE
5
146
100
AcDbEntity
8
0
62
256
6
ByLayer
370
-2
48
1
60
0
100
AcDbLine
10
0
20
0
30
0
11
-1
21
-0.166667
31
0
39
0
210
0
220
0
230
1
0
LINE
5
147
100
AcDbEntity
8
0
62
256
6
ByLayer
370
-2
48
1
60
0
100
AcDbLine
10
-1
20
0.166667
30
0
11
-1
21
-0.166667
31
0
39
0
210
0
220
0
230
1
0
LINE
5
148
100
AcDbEntity
8
0
62
256
6
ByLayer
370
-2
48
1
60
0
100
AcDbLine
10
0
20
0
30
0
11
-1
21
0
31
0
39
0
210
0
220
0
230
1
0
ENDBLK
5
144
100
AcDbEntity
8
0
100
AcDbBlockEnd
0
BLOCK
5
154
100
AcDbEntity
8
0
100
AcDbBlockBegin
2
DimnDraft3D2
70
0
10
0
20
0
30
0
3
DimnDraft3D2
0
MTEXT
5
14A
100
AcDbEntity
8
SK2
62
256
6
ByLayer
370
-1
48
1
60
0
100
AcDbMText
10
7.658553
20
50.875
30
0
210
0
220
0
230
1
1
\W01.000;\fsimplex.shx,bigfont.shx;74.5\P
40
4.5
41
0
44
1.084337
50
0
71
7
72
5
7
DEFAULT
0
LINE
5
14B
100
AcDbEntity
8
SK2
62
256
6
ByLayer
370
-1
48
1
60
0
100
AcDbLine
10
50.0125
20
22
30
0
11
50.0125
21
51.75
31
0
39
0
210
0
220
0
230
1
0
LINE
5
14C
100
AcDbEntity
8
SK2
62
256
6
ByLayer
370
-1
48
1
60
0
100
AcDbLine
10
-24.4875
20
17.996
30
0
11
-24.4875
21
51.75
31
0
39
0
210
0
220
0
230
1
0
LINE
5
14D
100
AcDbEntity
8
SK2
62
256
6
ByLayer
370
-1
48
1
60
0
100
AcDbLine
10
50.0125
20
49.75
30
0
11
-24.4875
21
49.75
31
0
39
0
210
0
220
0
230
1
0
LINE
5
14E
100
AcDbEntity
8
SK2
62
256
6
ByLayer
370
-1
48
1
60
0
100
AcDbLine
10
50.0125
20
49.75
30
0
11
46.837502
21
49.332003
31
0
39
0
210
0
220
0
230
1
0
LINE
5
14F
100
AcDbEntity
8
SK2
62
256
6
ByLayer
370
-1
48
1
60
0
100
AcDbLine
10
50.0125
20
49.75
30
0
11
46.837498
21
50.167997
31
0
39
0
210
0
220
0
230
1
0
LINE
5
150
100
AcDbEntity
8
SK2
62
256
6
ByLayer
370
-1
48
1
60
0
100
AcDbLine
10
46.837502
20
49.332003
30
0
11
46.837498
21
50.167997
31
0
39
0
210
0
220
0
230
1
0
LINE
5
151
100
AcDbEntity
8
SK2
62
256
6
ByLayer
370
-1
48
1
60
0
100
AcDbLine
10
-24.4875
20
49.75
30
0
11
-21.312502
21
50.167997
31
0
39
0
210
0
220
0
230
1
0
LINE
5
152
100
AcDbEntity
8
SK2
62
256
6
ByLayer
370
-1
48
1
60
0
100
AcDbLine
10
-24.4875
20
49.75
30
0
11
-21.312498
21
49.332003
31
0
39
0
210
0
220
0
230
1
0
LINE
5
153
100
AcDbEntity
8
SK2
62
256
6
ByLayer
370
-1
48
1
60
0
100
AcDbLine
10
-21.312502
20
50.167997
30
0
11
-21.312498
21
49.332003
31
0
39
0
210
0
220
0
230
1
0
ENDBLK
5
155
100
AcDbEntity
8
0
100
AcDbBlockEnd
0
BLOCK
5
162
100
AcDbEntity
8
0
100
AcDbBlockBegin
2
DimnDraft3D3
70
0
10
0
20
0
30
0
3
DimnDraft3D3
0
MTEXT
5
158
100
AcDbEntity
8
SK2
62
256
6
ByLayer
370
-1
48
1
60
0
100
AcDbMText
10
-10.263487
20
60.875
30
0
210
0
220
0
230
1
1
\W01.000;\fsimplex.shx,bigfont.shx;110.0\P
40
4.5
41
0
44
1.084337
50
0
71
7
72
5
7
DEFAULT
0
LINE
5
159
100
AcDbEntity
8
SK2
62
256
6
ByLayer
370
-1
48
1
60
0
100
AcDbLine
10
50.0125
20
22
30
0
11
50.0125
21
61.75
31
0
39
0
210
0
220
0
230
1
0
LINE
5
15A
100
AcDbEntity
8
SK2
62
256
6
ByLayer
370
-1
48
1
60
0
100
AcDbLine
10
-60
20
17.996
30
0
11
-60
21
61.75
31
0
39
0
210
0
220
0
230
1
0
LINE
5
15B
100
AcDbEntity
8
SK2
62
256
6
ByLayer
370
-1
48
1
60
0
100
AcDbLine
10
50.0125
20
59.75
30
0
11
-60
21
59.75
31
0
39
0
210
0
220
0
230
1
0
LINE
5
15C
100
AcDbEntity
8
SK2
62
256
6
ByLayer
370
-1
48
1
60
0
100
AcDbLine
10
50.0125
20
59.75
30
0
11
46.837502
21
59.332003
31
0
39
0
210
0
220
0
230
1
0
LINE
5
15D
100
AcDbEntity
8
SK2
62
256
6
ByLayer
370
-1
48
1
60
0
100
AcDbLine
10
50.0125
20
59.75
30
0
11
46.837498
21
60.167997
31
0
39
0
210
0
220
0
230
1
0
LINE
5
15E
100
AcDbEntity
8
SK2
62
256
6
ByLayer
370
-1
48
1
60
0
100
AcDbLine
10
46.837502
20
59.332003
30
0
11
46.837498
21
60.167997
31
0
39
0
210
0
220
0
230
1
0
LINE
5
15F
100
AcDbEntity
8
SK2
62
256
6
ByLayer
370
-1
48
1
60
0
100
AcDbLine
10
-60
20
59.75
30
0
11
-56.825002
21
60.167997
31
0
39
0
210
0
220
0
230
1
0
LINE
5
160
100
AcDbEntity
8
SK2
62
256
6
ByLayer
370
-1
48
1
60
0
100
AcDbLine
10
-60
20
59.75
30
0
11
-56.824998
21
59.332003
31
0
39
0
210
0
220
0
230
1
0
LINE
5
161
100
AcDbEntity
8
SK2
62
256
6
ByLayer
370
-1
48
1
60
0
100
AcDbLine
10
-56.825002
20
60.167997
30
0
11
-56.824998
21
59.332003
31
0
39
0
210
0
220
0
230
1
0
ENDBLK
5
163
100
AcDbEntity
8
0
100
AcDbBlockEnd
0
BLOCK
5
170
100
AcDbEntity
8
0
100
AcDbBlockBegin
2
DimnDraft3D4
70
0
10
0
20
0
30
0
3
DimnDraft3D4
0
MTEXT
5
166
100
AcDbEntity
8
2
62
256
6
ByLayer
370
-1
48
1
60
0
100
AcDbMText
10
56.53125
20
30.875
30
0
210
0
220
0
230
1
1
\W01.000;\fsimplex.shx,bigfont.shx;15.7\P
40
4.5
41
0
44
1.084337
50
0
71
7
72
5
7
DEFAULT
0
LINE
5
167
100
AcDbEntity
8
2
62
256
6
ByLayer
370
-1
48
1
60
0
100
AcDbLine
10
50.0125
20
22
30
0
11
50.0125
21
31.75
31
0
39
0
210
0
220
0
230
1
0
LINE
5
168
100
AcDbEntity
8
2
62
256
6
ByLayer
370
-1
48
1
60
0
100
AcDbLine
10
33.8125
20
22
30
0
11
33.8125
21
31.75
31
0
39
0
210
0
220
0
230
1
0
LINE
5
169
100
AcDbEntity
8
2
62
256
6
ByLayer
370
-1
48
1
60
0
100
AcDbLine
10
33.8125
20
29.75
30
0
11
66.099671
21
29.75
31
0
39
0
210
0
220
0
230
1
0
LINE
5
16A
100
AcDbEntity
8
2
62
256
6
ByLayer
370
-1
48
1
60
0
100
AcDbLine
10
50.0125
20
29.75
30
0
11
46.837502
21
29.332003
31
0
39
0
210
0
220
0
230
1
0
LINE
5
16B
100
AcDbEntity
8
2
62
256
6
ByLayer
370
-1
48
1
60
0
100
AcDbLine
10
50.0125
20
29.75
30
0
11
46.837498
21
30.167997
31
0
39
0
210
0
220
0
230
1
0
LINE
5
16C
100
AcDbEntity
8
2
62
256
6
ByLayer
370
-1
48
1
60
0
100
AcDbLine
10
46.837502
20
29.332003
30
0
11
46.837498
21
30.167997
31
0
39
0
210
0
220
0
230
1
0
LINE
5
16D
100
AcDbEntity
8
2
62
256
6
ByLayer
370
-1
48
1
60
0
100
AcDbLine
10
33.8125
20
29.75
30
0
11
36.987498
21
30.167997
31
0
39
0
210
0
220
0
230
1
0
LINE
5
16E
100
AcDbEntity
8
2
62
256
6
ByLayer
370
-1
48
1
60
0
100
AcDbLine
10
33.8125
20
29.75
30
0
11
36.987502
21
29.332003
31
0
39
0
210
0
220
0
230
1
0
LINE
5
16F
100
AcDbEntity
8
2
62
256
6
ByLayer
370
-1
48
1
60
0
100
AcDbLine
10
36.987498
20
30.167997
30
0
11
36.987502
21
29.332003
31
0
39
0
210
0
220
0
230
1
0
ENDBLK
5
171
100
AcDbEntity
8
0
100
AcDbBlockEnd
0
BLOCK
5
17E
100
AcDbEntity
8
0
100
AcDbBlockBegin
2
DimnDraft3D5
70
0
10
0
20
0
30
0
3
DimnDraft3D5
0
MTEXT
5
174
100
AcDbEntity
8
SK2
62
256
6
ByLayer
370
-1
48
1
60
0
100
AcDbMText
10
-70.875
20
-4.49852
30
0
210
0
220
0
230
1
1
\W01.000;\fsimplex.shx,bigfont.shx;%%c32\P
40
4.5
41
0
44
1.084337
50
90
71
7
72
5
7
DEFAULT
0
LINE
5
175
100
AcDbEntity
8
SK2
62
256
6
ByLayer
370
-1
48
1
60
0
100
AcDbLine
10
-62
20
15.996
30
0
11
-71.75
21
15.996
31
0
39
0
210
0
220
0
230
1
0
LINE
5
176
100
AcDbEntity
8
SK2
62
256
6
ByLayer
370
-1
48
1
60
0
100
AcDbLine
10
-62
20
-15.996
30
0
11
-71.75
21
-15.996
31
0
39
0
210
0
220
0
230
1
0
LINE
5
177
100
AcDbEntity
8
SK2
62
256
6
ByLayer
370
-1
48
1
60
0
100
AcDbLine
10
-69.75
20
15.996
30
0
11
-69.75
21
-15.996
31
0
39
0
210
0
220
0
230
1
0
LINE
5
178
100
AcDbEntity
8
SK2
62
256
6
ByLayer
370
-1
48
1
60
0
100
AcDbLine
10
-69.75
20
15.996
30
0
11
-69.332003
21
12.821002
31
0
39
0
210
0
220
0
230
1
0
LINE
5
179
100
AcDbEntity
8
SK2
62
256
6
ByLayer
370
-1
48
1
60
0
100
AcDbLine
10
-69.75
20
15.996
30
0
11
-70.167997
21
12.820998
31
0
39
0
210
0
220
0
230
1
0
LINE
5
17A
100
AcDbEntity
8
SK2
62
256
6
ByLayer
370
-1
48
1
60
0
100
AcDbLine
10
-69.332003
20
12.821002
30
0
11
-70.167997
21
12.820998
31
0
39
0
210
0
220
0
230
1
0
LINE
5
17B
100
AcDbEntity
8
SK2
62
256
6
ByLayer
370
-1
48
1
60
0
100
AcDbLine
10
-69.75
20
-15.996
30
0
11
-70.167997
21
-12.821002
31
0
39
0
210
0
220
0
230
1
0
LINE
5
17C
100
AcDbEntity
8
SK2
62
256
6
ByLayer
370
-1
48
1
60
0
100
AcDbLine
10
-69.75
20
-15.996
30
0
11
-69.332003
21
-12.820998
31
0
39
0
210
0
220
0
230
1
0
LINE
5
17D
100
AcDbEntity
8
SK2
62
256
6
ByLayer
370
-1
48
1
60
0
100
AcDbLine
10
-70.167997
20
-12.821002
30
0
11
-69.332003
21
-12.820998
31
0
39
0
210
0
220
0
230
1
0
ENDBLK
5
17F
100
AcDbEntity
8
0
100
AcDbBlockEnd
0
BLOCK
5
18C
100
AcDbEntity
8
0
100
AcDbBlockBegin
2
DimnDraft3D6
70
0
10
0
20
0
30
0
3
DimnDraft3D6
0
MTEXT
5
182
100
AcDbEntity
8
2
62
256
6
ByLayer
370
-1
48
1
60
0
100
AcDbMText
10
63.1375
20
-4.818257
30
0
210
0
220
0
230
1
1
\W01.000;\fsimplex.shx,bigfont.shx;%%c40\P
40
4.5
41
0
44
1.084337
50
90
71
7
72
5
7
DEFAULT
0
LINE
5
183
100
AcDbEntity
8
2
62
256
6
ByLayer
370
-1
48
1
60
0
100
AcDbLine
10
52.0125
20
20
30
0
11
66.2625
21
20
31
0
39
0
210
0
220
0
230
1
0
LINE
5
184
100
AcDbEntity
8
2
62
256
6
ByLayer
370
-1
48
1
60
0
100
AcDbLine
10
52.0125
20
-20
30
0
11
66.2625
21
-20
31
0
39
0
210
0
220
0
230
1
0
LINE
5
185
100
AcDbEntity
8
2
62
256
6
ByLayer
370
-1
48
1
60
0
100
AcDbLine
10
64.2625
20
20
30
0
11
64.2625
21
-20
31
0
39
0
210
0
220
0
230
1
0
LINE
5
186
100
AcDbEntity
8
2
62
256
6
ByLayer
370
-1
48
1
60
0
100
AcDbLine
10
64.2625
20
20
30
0
11
64.680497
21
16.825002
31
0
39
0
210
0
220
0
230
1
0
LINE
5
187
100
AcDbEntity
8
2
62
256
6
ByLayer
370
-1
48
1
60
0
100
AcDbLine
10
64.2625
20
20
30
0
11
63.844503
21
16.824998
31
0
39
0
210
0
220
0
230
1
0
LINE
5
188
100
AcDbEntity
8
2
62
256
6
ByLayer
370
-1
48
1
60
0
100
AcDbLine
10
64.680497
20
16.825002
30
0
11
63.844503
21
16.824998
31
0
39
0
210
0
220
0
230
1
0
LINE
5
189
100
AcDbEntity
8
2
62
256
6
ByLayer
370
-1
48
1
60
0
100
AcDbLine
10
64.2625
20
-20
30
0
11
63.844503
21
-16.825002
31
0
39
0
210
0
220
0
230
1
0
LINE
5
18A
100
AcDbEntity
8
2
62
256
6
ByLayer
370
-1
48
1
60
0
100
AcDbLine
10
64.2625
20
-20
30
0
11
64.680497
21
-16.824998
31
0
39
0
210
0
220
0
230
1
0
LINE
5
18B
100
AcDbEntity
8
2
62
256
6
ByLayer
370
-1
48
1
60
0
100
AcDbLine
10
63.844503
20
-16.825002
30
0
11
64.680497
21
-16.824998
31
0
39
0
210
0
220
0
230
1
0
ENDBLK
5
18D
100
AcDbEntity
8
0
100
AcDbBlockEnd
0
ENDSEC
0
SECTION
2
ENTITIES
0
ARC
5
91
100
AcDbEntity
8
1
62
256
6
ByLayer
370
-1
48
1
60
0
100
AcDbCircle
39
0
10
0.7875
20
-16.796
30
0
40
0.8
210
0
220
0
230
-1
100
AcDbArc
50
169.858207
51
180
0
ARC
5
92
100
AcDbEntity
8
1
62
256
6
ByLayer
370
-1
48
1
60
0
100
AcDbCircle
39
0
10
0.7875
20
16.796
30
0
40
0.8
210
0
220
0
230
-1
100
AcDbArc
50
180
51
190.141793
0
ARC
5
93
100
AcDbEntity
8
SK1
62
256
6
ByLayer
370
-1
48
1
60
0
100
AcDbCircle
39
0
10
0.7875
20
-16.796
30
0
40
0.8
210
0
220
0
230
-1
100
AcDbArc
50
90
51
169.858207
0
ARC
5
94
100
AcDbEntity
8
SK1
62
256
6
ByLayer
370
-1
48
1
60
0
100
AcDbCircle
39
0
10
0.7875
20
16.796
30
0
40
0.8
210
0
220
0
230
-1
100
AcDbArc
50
190.141793
51
270
0
ELLIPSE
5
95
100
AcDbEntity
8
1
62
256
6
ByLayer
370
-1
48
1
60
0
100
AcDbEllipse
10
36.484549
20
9.627753
30
0
11
3.54433585633019
21
2.25567681458517
31
0
210
0
220
0
230
-1
40
0.021811
41
-1.76027555271422
42
-1.70514501072913
0
ELLIPSE
5
96
100
AcDbEntity
8
1
62
256
6
ByLayer
370
-1
48
1
60
0
100
AcDbEllipse
10
43.773803
20
10.982433
30
0
11
0.0394887031481568
21
-1.2503156821036
31
0
210
0
220
0
230
-1
40
0.190871
41
-0.912581099556836
42
-0.786072372196515
0
ELLIPSE
5
97
100
AcDbEntity
8
1
62
256
6
ByLayer
370
-1
48
1
60
0
100
AcDbEllipse
10
35.629999
20
9.566935
30
0
11
-0.141979752203863
21
1.99495407214405
31
0
210
0
220
0
230
1
40
0.059593
41
-1.78134463858472
42
-1.71996259901162
0
ELLIPSE
5
98
100
AcDbEntity
8
1
62
256
6
ByLayer
370
-1
48
1
60
0
100
AcDbEllipse
10
34.201503
20
10.664927
30
0
11
1.58145030521307
21
1.71820078160182
31
0
210
0
220
0
230
-1
40
0.851356
41
-2.86084499178493
42
-2.76287245985907
0
ELLIPSE
5
99
100
AcDbEntity
8
1
62
256
6
ByLayer
370
-1
48
1
60
0
100
AcDbEllipse
10
43.116509
20
-19.142387
30
0
11
0.00318267108611583
21
-3.29488698609011
31
0
210
0
220
0
230
-1
40
0.607052
41
-2.72924963851069
42
-2.72518591456888
0
ELLIPSE
5
9A
100
AcDbEntity
8
1
62
256
6
ByLayer
370
-1
48
1
60
0
100
AcDbEllipse
10
68.152064
20
0
30
0
11
277.928715915769
21
1.65119622338287
31
0
210
0
220
0
230
-1
40
0.065721
41
-1.76095796089184
42
-1.70296522735532
0
ELLIPSE
5
9B
100
AcDbEntity
8
1
62
256
6
ByLayer
370
-1
48
1
60
0
100
AcDbEllipse
10
4.411793
20
-0.097536
30
0
11
108.239162364455
21
-12.7216974574419
31
0
210
0
220
0
230
-1
40
0.133441
41
1.14105539737962
42
1.2318930328232
0
ELLIPSE
5
9C
100
AcDbEntity
8
1
62
256
6
ByLayer
370
-1
48
1
60
0
100
AcDbEllipse
10
33.184775
20
15.930343
30
0
11
0.0338796382379695
21
3.37263906070035
31
0
210
0
220
0
230
-1
40
0.295828
41
-2.61612938962447
42
-0.863536270803977
0
ELLIPSE
5
9D
100
AcDbEntity
8
1
62
256
6
ByLayer
370
-1
48
1
60
0
100
AcDbEllipse
10
-95.097748
20
-0.929371
30
0
11
290.374753782051
21
18.8590135933337
31
0
210
0
220
0
230
-1
40
0.006101
41
-1.10718422047712
42
-1.05205654480148
0
ELLIPSE
5
9E
100
AcDbEntity
8
1
62
256
6
ByLayer
370
-1
48
1
60
0
100
AcDbEllipse
10
33.737171
20
11.316289
30
0
11
1.58145030322429
21
1.71820078150384
31
0
210
0
220
0
230
-1
40
0.851356
41
3.11759700636332
42
-1.4472512807163
0
ELLIPSE
5
9F
100
AcDbEntity
8
1
62
256
6
ByLayer
370
-1
48
1
60
0
100
AcDbEllipse
10
42.897645
20
-13.965062
30
0
11
0.684922369080912
21
-1.33449666478886
31
0
210
0
220
0
230
1
40
0.982537
41
1.089416562408
42
-2.05217609118177
0
ELLIPSE
5
A0
100
AcDbEntity
8
1
62
256
6
ByLayer
370
-1
48
1
60
0
100
AcDbEllipse
10
43.116627
20
-13.85267
30
0
11
0.913229825441218
21
-1.77932888638515
31
0
210
0
220
0
230
1
40
0.982537
41
1.08941656240801
42
3.0136420163818
0
ELLIPSE
5
A1
100
AcDbEntity
8
1
62
256
6
ByLayer
370
-1
48
1
60
0
100
AcDbEllipse
10
282.937371
20
28.003571
30
0
11
267.108798610994
21
20.2013861520863
31
0
210
0
220
0
230
-1
40
0.001447
41
-2.69986283442585
42
-2.67831658685925
0
ELLIPSE
5
A2
100
AcDbEntity
8
1
62
256
6
ByLayer
370
-1
48
1
60
0
100
AcDbEllipse
10
43.261353
20
-0.677329
30
0
11
0.279986548802564
21
18.8212562945035
31
0
210
0
220
0
230
-1
40
0.167191
41
2.33645989064959
42
2.43592435674935
0
ELLIPSE
5
A3
100
AcDbEntity
8
1
62
256
6
ByLayer
370
-1
48
1
60
0
100
AcDbEllipse
10
380.489977
20
-0.006527
30
0
11
836.289224353776
21
-18.2768147176087
31
0
210
0
220
0
230
-1
40
0.001935
41
-2.00691049521424
42
-2.0014275149435
0
ELLIPSE
5
A4
100
AcDbEntity
8
1
62
256
6
ByLayer
370
-1
48
1
60
0
100
AcDbEllipse
10
41.261221
20
10.803614
30
0
11
0.0394887031456915
21
-1.25031568208946
31
0
210
0
220
0
230
-1
40
0.190871
41
-1.02442029857832
42
-0.764526097304264
0
ELLIPSE
5
A5
100
AcDbEntity
8
1
62
256
6
ByLayer
370
-1
48
1
60
0
100
AcDbEllipse
10
33.184775
20
-15.930343
30
0
11
0.033879638237975
21
-3.37263906070036
31
0
210
0
220
0
230
-1
40
0.295828
41
0.863536270803986
42
0.969102476107477
0
ELLIPSE
5
A6
100
AcDbEntity
8
1
62
256
6
ByLayer
370
-1
48
1
60
0
100
AcDbEllipse
10
68.152063
20
0
30
0
11
277.928713831441
21
-1.65119625350309
31
0
210
0
220
0
230
-1
40
0.065721
41
1.70296522597482
42
1.76095795993541
0
ELLIPSE
5
A7
100
AcDbEntity
8
1
62
256
6
ByLayer
370
-1
48
1
60
0
100
AcDbEllipse
10
34.95622
20
-14.324744
30
0
11
0.945203923555807
21
6.38943468509075
31
0
210
0
220
0
230
-1
40
0.051097
41
-2.0864521374574
42
-2.0715556973549
0
ELLIPSE
5
A8
100
AcDbEntity
8
1
62
256
6
ByLayer
370
-1
48
1
60
0
100
AcDbEllipse
10
34.95622
20
-17.376421
30
0
11
1.00000000000001
21
0
31
0
210
0
220
0
230
1
40
0.086149
41
3.14159108520681
42
-2.41902984831888
0
ELLIPSE
5
A9
100
AcDbEntity
8
1
62
256
6
ByLayer
370
-1
48
1
60
0
100
AcDbEllipse
10
43.116627
20
-13.85267
30
0
11
2
21
0
31
0
210
0
220
0
230
1
40
0.086149
41
-2.77129789536919
42
-2.58515945542079
0
ELLIPSE
5
AA
100
AcDbEntity
8
1
62
256
6
ByLayer
370
-1
48
1
60
0
100
AcDbEllipse
10
28.899495
20
24.384402
30
0
11
12.0799727044218
21
8.89237085711254
31
0
210
0
220
0
230
1
40
0.993813
41
2.97362032688843
42
-2.22438148581843
0
ELLIPSE
5
AB
100
AcDbEntity
8
1
62
256
6
ByLayer
370
-1
48
1
60
0
100
AcDbEllipse
10
39.205396
20
-0.677329
30
0
11
0.280039199445035
21
18.8247958045501
31
0
210
0
220
0
230
-1
40
0.167191
41
2.33624397454573
42
2.39224416040642
0
ELLIPSE
5
AC
100
AcDbEntity
8
1
62
256
6
ByLayer
370
-1
48
1
60
0
100
AcDbEllipse
10
28.767804
20
24.563299
30
0
11
13.6906357316781
21
10.0780203047276
31
0
210
0
220
0
230
1
40
0.993813
41
2.89906254826137
42
3.10413744393417
0
ELLIPSE
5
AD
100
AcDbEntity
8
1
62
256
6
ByLayer
370
-1
48
1
60
0
100
AcDbEllipse
10
43.116627
20
-13.85267
30
0
11
2
21
0
31
0
210
0
220
0
230
1
40
0.086149
41
-0.889035297457815
42
-0.166301049644393
0
ELLIPSE
5
AE
100
AcDbEntity
8
1
62
256
6
ByLayer
370
-1
48
1
60
0
100
AcDbEllipse
10
28.43879
20
9.625354
30
0
11
0.0320578449165097
21
1.99974305713992
31
0
210
0
220
0
230
1
40
0.067535
41
-1.80815115592872
42
-1.65929343447315
0
ELLIPSE
5
AF
100
AcDbEntity
8
1
62
256
6
ByLayer
370
-1
48
1
60
0
100
AcDbEllipse
10
35.14871
20
11.372249
30
0
11
1.25579618278321
21
-1.53738980088301
31
0
210
0
220
0
230
1
40
0.506067
41
-0.0187010527053666
42
0.343020107127869
0
ELLIPSE
5
B0
100
AcDbEntity
8
1
62
256
6
ByLayer
370
-1
48
1
60
0
100
AcDbEllipse
10
33.108858
20
13.462558
30
0
11
1.02720174537909
21
0.884711664044523
31
0
210
0
220
0
230
-1
40
0.034101
41
1.89386601749584
42
2.05759894081465
0
ELLIPSE
5
B1
100
AcDbEntity
8
1
62
256
6
ByLayer
370
-1
48
1
60
0
100
AcDbEllipse
10
37.838152
20
10.559996
30
0
11
2.2152112849722
21
1.4097988710474
31
0
210
0
220
0
230
-1
40
0.021811
41
-2.56777570689291
42
-1.90518344995434
0
ELLIPSE
5
B2
100
AcDbEntity
8
1
62
256
6
ByLayer
370
-1
48
1
60
0
100
AcDbEllipse
10
35.311521
20
11.505239
30
0
11
-1.20715726604312
21
1.59460695315156
31
0
210
0
220
0
230
1
40
0.862343
41
1.77965947333825
42
3.05127932562474
0
ELLIPSE
5
B3
100
AcDbEntity
8
SK1
62
256
6
ByLayer
370
-1
48
1
60
0
100
AcDbEllipse
10
-31.522052
20
0
30
0
11
16.2776478579835
21
1.64508266501559E-14
31
0
210
0
220
0
230
-1
40
0.982697
41
-0.52254660996275
42
0.522546609962752
0
ELLIPSE
5
B4
100
AcDbEntity
8
SK1
62
256
6
ByLayer
370
-1
48
1
60
0
100
AcDbEllipse
10
-17.452948
20
0
30
0
11
16.2776478579791
21
1.64508266501514E-14
31
0
210
0
220
0
230
-1
40
0.982697
41
2.61904604362694
42
-2.61904604362694
0
ELLIPSE
5
B5
100
AcDbEntity
8
SK1
62
256
6
ByLayer
370
-1
48
1
60
0
100
AcDbEllipse
10
-54.547052
20
0
30
0
11
16.2776478579792
21
1.64508266501515E-14
31
0
210
0
220
0
230
-1
40
0.982697
41
-0.522546609962855
42
0.522546609962856
0
ELLIPSE
5
B6
100
AcDbEntity
8
1
62
256
6
ByLayer
370
-1
48
1
60
0
100
AcDbEllipse
10
41.505453
20
14.920486
30
0
11
1.19861414589163
21
2.33536916338049
31
0
210
0
220
0
230
1
40
0.982537
41
0
42
-3.14152249392251
0
ELLIPSE
5
B7
100
AcDbEntity
8
1
62
256
6
ByLayer
370
-1
48
1
60
0
100
AcDbEllipse
10
40.326282
20
14.805162
30
0
11
-0.133331554514422
21
-0.259782017412229
31
0
210
0
220
0
230
1
40
0.982537
41
-2.39561070778644
42
-0.344313201139062
0
ELLIPSE
5
B8
100
AcDbEntity
8
1
62
256
6
ByLayer
370
-1
48
1
60
0
100
AcDbEllipse
10
41.691681
20
14.824906
30
0
11
0.55090589219743
21
1.07338015071183
31
0
210
0
220
0
230
1
40
0.982537
41
2.57437959293942
42
-2.97852804708915
0
ELLIPSE
5
B9
100
AcDbEntity
8
1
62
256
6
ByLayer
370
-1
48
1
60
0
100
AcDbEllipse
10
40.074039
20
15.741967
30
0
11
-0.313237830126348
21
-0.6103098080301
31
0
210
0
220
0
230
1
40
0.982537
41
0.745981945803365
42
1.52997258942416
0
ELLIPSE
5
BA
100
AcDbEntity
8
1
62
256
6
ByLayer
370
-1
48
1
60
0
100
AcDbEllipse
10
41.455793
20
14.945974
30
0
11
0.765514901176122
21
1.49152243901234
31
0
210
0
220
0
230
1
40
0.982537
41
-2.13382356592326
42
-1.089416562408
0
ELLIPSE
5
BB
100
AcDbEntity
8
1
62
256
6
ByLayer
370
-1
48
1
60
0
100
AcDbEllipse
10
40.074039
20
13.861061
30
0
11
-0.313237830126348
21
-0.6103098080301
31
0
210
0
220
0
230
1
40
0.982537
41
2.57437959293942
42
3.14158444915138
0
ELLIPSE
5
BC
100
AcDbEntity
8
1
62
256
6
ByLayer
370
-1
48
1
60
0
100
AcDbEllipse
10
40.074039
20
13.861061
30
0
11
-0.313237830126348
21
-0.6103098080301
31
0
210
0
220
0
230
1
40
0.982537
41
1.79038894931862
42
2.57437959293942
0
ELLIPSE
5
BD
100
AcDbEntity
8
1
62
256
6
ByLayer
370
-1
48
1
60
0
100
AcDbEllipse
10
41.691681
20
16.702459
30
0
11
-0.313237830126348
21
-0.6103098080301
31
0
210
0
220
0
230
1
40
0.982537
41
0.602993805603762
42
1.27264109930813
0
ELLIPSE
5
BE
100
AcDbEntity
8
1
62
256
6
ByLayer
370
-1
48
1
60
0
100
AcDbEllipse
10
41.691681
20
14.824906
30
0
11
-0.550905892197432
21
-1.07338015071183
31
0
210
0
220
0
230
1
40
0.982537
41
1.88622997337092
42
2.4254699903
0
ELLIPSE
5
BF
100
AcDbEntity
8
1
62
256
6
ByLayer
370
-1
48
1
60
0
100
AcDbEllipse
10
41.455793
20
14.945974
30
0
11
0.821906842897119
21
1.60139599774662
31
0
210
0
220
0
230
1
40
0.982537
41
0
42
6.28318530717959
0
ELLIPSE
5
C0
100
AcDbEntity
8
1
62
256
6
ByLayer
370
-1
48
1
60
0
100
AcDbEllipse
10
41.455793
20
14.945974
30
0
11
0.765514901176122
21
1.49152243901234
31
0
210
0
220
0
230
1
40
0.982537
41
-1.089416562408
42
-0.0450095588927396
0
ELLIPSE
5
C1
100
AcDbEntity
8
1
62
256
6
ByLayer
370
-1
48
1
60
0
100
AcDbEllipse
10
41.691681
20
14.824906
30
0
11
-0.550905892197432
21
-1.07338015071183
31
0
210
0
220
0
230
1
40
0.982537
41
-1.61162006416563
42
-0.567213060650372
0
ELLIPSE
5
C2
100
AcDbEntity
8
1
62
256
6
ByLayer
370
-1
48
1
60
0
100
AcDbEllipse
10
41.005684
20
16.007612
30
0
11
-0.133331554514422
21
-0.259782017412229
31
0
210
0
220
0
230
1
40
0.982537
41
-2.79477641114212
42
-0.827629420544844
0
ELLIPSE
5
C3
100
AcDbEntity
8
1
62
256
6
ByLayer
370
-1
48
1
60
0
100
AcDbEllipse
10
41.005684
20
13.622361
30
0
11
-0.133331554514422
21
-0.259782017412229
31
0
210
0
220
0
230
1
40
0.982537
41
-1.35120370427116
42
-0.477134766600696
0
ELLIPSE
5
C4
100
AcDbEntity
8
1
62
256
6
ByLayer
370
-1
48
1
60
0
100
AcDbEllipse
10
41.501388
20
14.922573
30
0
11
1.19861414589163
21
2.33536916338049
31
0
210
0
220
0
230
1
40
0.982537
41
-0.0229027276802235
42
0
0
ELLIPSE
5
C5
100
AcDbEntity
8
1
62
256
6
ByLayer
370
-1
48
1
60
0
100
AcDbEllipse
10
41.501388
20
14.922573
30
0
11
1.19861414589163
21
2.33536916338049
31
0
210
0
220
0
230
1
40
0.982537
41
0
42
-3.02871956103885
0
ELLIPSE
5
C6
100
AcDbEntity
8
1
62
256
6
ByLayer
370
-1
48
1
60
0
100
AcDbEllipse
10
41.455793
20
14.945974
30
0
11
0.765514901176122
21
1.49152243901234
31
0
210
0
220
0
230
1
40
0.982537
41
2.05217609118179
42
3.09658309469705
0
ELLIPSE
5
C7
100
AcDbEntity
8
1
62
256
6
ByLayer
370
-1
48
1
60
0
100
AcDbEllipse
10
41.500711
20
14.92292
30
0
11
0.55090589219743
21
1.07338015071183
31
0
210
0
220
0
230
1
40
0.982537
41
0.412347130975004
42
0.550412397798793
0
ELLIPSE
5
C8
100
AcDbEntity
8
1
62
256
6
ByLayer
370
-1
48
1
60
0
100
AcDbEllipse
10
40.074039
20
15.741967
30
0
11
-0.313237830126348
21
-0.6103098080301
31
0
210
0
220
0
230
1
40
0.982537
41
1.52997258942416
42
2.31396323304496
0
ELLIPSE
5
C9
100
AcDbEntity
8
1
62
256
6
ByLayer
370
-1
48
1
60
0
100
AcDbEllipse
10
41.691681
20
12.947352
30
0
11
-0.313237830126348
21
-0.6103098080301
31
0
210
0
220
0
230
1
40
0.982537
41
2.93617583419683
42
-3.14158493536976
0
ELLIPSE
5
CA
100
AcDbEntity
8
1
62
256
6
ByLayer
370
-1
48
1
60
0
100
AcDbEllipse
10
41.691681
20
16.702459
30
0
11
-0.313237830126348
21
-0.6103098080301
31
0
210
0
220
0
230
1
40
0.982537
41
7.71822008301245E-06
42
0.359765723170023
0
ELLIPSE
5
CB
100
AcDbEntity
8
1
62
256
6
ByLayer
370
-1
48
1
60
0
100
AcDbEllipse
10
41.455793
20
14.945974
30
0
11
0.765514901176122
21
1.49152243901234
31
0
210
0
220
0
230
1
40
0.982537
41
-0.0450095588927396
42
1.00776908766654
0
ELLIPSE
5
CC
100
AcDbEntity
8
1
62
256
6
ByLayer
370
-1
48
1
60
0
100
AcDbEllipse
10
41.455793
20
14.945974
30
0
11
0.765514901176122
21
1.49152243901234
31
0
210
0
220
0
230
1
40
0.982537
41
1.00776908766654
42
2.05217609118179
0
ELLIPSE
5
CD
100
AcDbEntity
8
1
62
256
6
ByLayer
370
-1
48
1
60
0
100
AcDbEllipse
10
41.500711
20
14.92292
30
0
11
0.55090589219743
21
1.07338015071183
31
0
210
0
220
0
230
1
40
0.982537
41
-2.7292455226148
42
-2.59118025579099
0
ELLIPSE
5
CE
100
AcDbEntity
8
1
62
256
6
ByLayer
370
-1
48
1
60
0
100
AcDbEllipse
10
41.455793
20
14.945974
30
0
11
0.765514901176122
21
1.49152243901234
31
0
210
0
220
0
230
1
40
0.982537
41
3.09658309469705
42
-2.13382356592326
0
ELLIPSE
5
CF
100
AcDbEntity
8
1
62
256
6
ByLayer
370
-1
48
1
60
0
100
AcDbEllipse
10
41.691681
20
14.824906
30
0
11
0.55090589219743
21
1.07338015071183
31
0
210
0
220
0
230
1
40
0.982537
41
0.412347130975011
42
0.550412397798782
0
ELLIPSE
5
D0
100
AcDbEntity
8
1
62
256
6
ByLayer
370
-1
48
1
60
0
100
AcDbEllipse
10
42.377678
20
16.027451
30
0
11
-0.133331554514422
21
-0.259782017412229
31
0
210
0
220
0
230
1
40
0.982537
41
-2.66323930542111
42
-1.86895155428165
0
ELLIPSE
5
D1
100
AcDbEntity
8
1
62
256
6
ByLayer
370
-1
48
1
60
0
100
AcDbEllipse
10
41.691681
20
14.824906
30
0
11
-0.550905892197432
21
-1.07338015071183
31
0
210
0
220
0
230
1
40
0.982537
41
0.616502095411822
42
1.12804715553207
0
ELLIPSE
5
D2
100
AcDbEntity
8
1
62
256
6
ByLayer
370
-1
48
1
60
0
100
AcDbEllipse
10
41.691681
20
14.824906
30
0
11
-0.550905892197432
21
-1.07338015071183
31
0
210
0
220
0
230
1
40
0.982537
41
2.91786859118692
42
-2.72924552261478
0
ELLIPSE
5
D3
100
AcDbEntity
8
1
62
256
6
ByLayer
370
-1
48
1
60
0
100
AcDbEllipse
10
41.691681
20
14.824906
30
0
11
-0.550905892197432
21
-1.07338015071183
31
0
210
0
220
0
230
1
40
0.982537
41
-2.59118025579101
42
-1.61162006416563
0
ELLIPSE
5
D4
100
AcDbEntity
8
1
62
256
6
ByLayer
370
-1
48
1
60
0
100
AcDbEllipse
10
42.548327
20
-14.385237
30
0
11
-0.616430132172837
21
1.20104699830996
31
0
210
0
220
0
230
1
40
0.982537
41
-2.8734289016154
42
0
0
ELLIPSE
5
D5
100
AcDbEntity
8
1
62
256
6
ByLayer
370
-1
48
1
60
0
100
AcDbEllipse
10
42.548327
20
-14.385237
30
0
11
-0.616430132172837
21
1.20104699830996
31
0
210
0
220
0
230
1
40
0.982537
41
0
42
0.476883479727756
0
POINT
5
42
100
AcDbEntity
8
80
62
256
6
ByLayer
370
-1
48
1
60
0
100
AcDbPoint
10
0
20
0
30
0
39
0
210
0
220
0
230
1
50
360
0
POINT
5
44
100
AcDbEntity
8
SK2
62
256
6
ByLayer
370
-1
48
1
60
0
100
AcDbPoint
10
31.5125
20
9.091231
30
0
39
0
210
0
220
0
230
1
50
360
0
POINT
5
46
100
AcDbEntity
8
81
62
256
6
ByLayer
370
-1
48
1
60
0
100
AcDbPoint
10
50.0125
20
19.88
30
0
39
0
210
0
220
0
230
1
50
360
0
POINT
5
48
100
AcDbEntity
8
2
62
256
6
ByLayer
370
-1
48
1
60
0
100
AcDbPoint
10
50.0125
20
19.88
30
0
39
0
210
0
220
0
230
1
50
360
0
SPLINE
5
D6
100
AcDbEntity
8
1
62
256
6
ByLayer
370
-1
48
1
60
0
100
AcDbSpline
70
4
71
3
72
8
73
4
40
0
40
0
40
0
40
0
40
1
40
1
40
1
40
1
41
1
10
31.6045700520219
20
8.90998771003936
30
-1.1E-15
41
1
10
31.5965151674467
20
8.97073292711372
30
-1.1E-15
41
1
10
31.5879748521285
20
9.03122247767109
30
6E-16
41
1
10
31.5786777248081
20
9.09142900404046
30
6E-16
0
SPLINE
5
D7
100
AcDbEntity
8
1
62
256
6
ByLayer
370
-1
48
1
60
0
100
AcDbSpline
70
4
71
3
72
12
73
8
40
0
40
0
40
0
40
0
40
0.462339848851104
40
0.462339848851104
40
0.784953421207974
40
0.784953421207974
40
1
40
1
40
1
40
1
41
1
10
45.0890351346362
20
-15.034019830036
30
-3E-16
41
1
10
45.0430642797733
20
-15.251147841425
30
-3E-16
41
1
10
44.9357150058432
20
-15.4604397053425
30
-3E-16
41
1
10
44.6465149744375
20
-15.7636805426831
30
-3E-16
41
1
10
44.4930755524616
20
-15.876701673888
30
-3E-16
41
1
10
44.1924918785692
20
-16.0292145245575
30
-4E-16
41
1
10
44.0580567547943
20
-16.0817301228677
30
-4E-16
41
1
10
43.9151747913711
20
-16.1228886307665
30
-4E-16
0
SPLINE
5
D8
100
AcDbEntity
8
1
62
256
6
ByLayer
370
-1
48
1
60
0
100
AcDbSpline
70
4
71
3
72
8
73
4
40
0
40
0
40
0
40
0
40
1
40
1
40
1
40
1
41
1
10
48.7659175492536
20
-17.8627632250191
30
-1E-16
41
1
10
48.7668689370738
20
-16.8145221626437
30
-1E-16
41
1
10
48.7678178277596
20
-15.7662810618378
30
-1E-16
41
1
10
48.7687623380779
20
-14.7180398936655
30
-1E-16
0
SPLINE
5
D9
100
AcDbEntity
8
1
62
256
6
ByLayer
370
-1
48
1
60
0
100
AcDbSpline
70
4
71
3
72
8
73
4
40
0
40
0
40
0
40
0
40
1
40
1
40
1
40
1
41
1
10
31.604570052022
20
17.9136656320673
30
-2E-16
41
1
10
31.8858238025202
20
17.985617271001
30
-2E-16
41
1
10
32.1670923866237
20
18.0575098869479
30
-2E-16
41
1
10
32.4483752678379
20
18.1293454640915
30
-2E-16
0
SPLINE
5
DA
100
AcDbEntity
8
1
62
256
6
ByLayer
370
-1
48
1
60
0
100
AcDbSpline
70
4
71
3
72
12
73
8
40
0
40
0
40
0
40
0
40
0.25
40
0.25
40
0.5
40
0.5
40
1
40
1
40
1
40
1
41
1
10
48.1238186272112
20
-16.121972165419
30
-1E-16
41
1
10
48.3768467488957
20
-15.030421264339
30
-1E-16
41
1
10
48.4058251393904
20
-13.6979903115961
30
-1E-16
41
1
10
48.5548558673314
20
-10.6928744007716
30
-1E-16
41
1
10
48.6095300018506
20
-8.99140445028243
30
-1E-16
41
1
10
48.7344095788771
20
-3.64874624099878
30
-1E-16
41
1
10
48.7658011472316
20
0.371235481434496
30
-1E-16
41
1
10
48.7659175492536
20
4.04969650522833
30
-1E-16
0
SPLINE
5
DB
100
AcDbEntity
8
1
62
256
6
ByLayer
370
-1
48
1
60
0
100
AcDbSpline
70
4
71
2
72
6
73
3
40
0
40
0
40
0
40
1
40
1
40
1
41
0.50000016518756
10
33.162587909758
20
9.05818184035205
30
7E-16
41
0.49999983481244
10
32.3702696273334
20
9.07481493187828
30
7E-16
41
0.50000016518756
10
31.5786777248234
20
9.09142900404365
30
6E-16
0
SPLINE
5
DC
100
AcDbEntity
8
1
62
256
6
ByLayer
370
-1
48
1
60
0
100
AcDbSpline
70
4
71
3
72
8
73
4
40
0
40
0
40
0
40
0
40
1
40
1
40
1
40
1
41
1
10
35.7686635466184
20
9.2788245317488
30
0
41
1
10
35.699180386803
20
9.23419478864199
30
0
41
1
10
35.6296983192101
20
9.18949827029854
30
0
41
1
10
35.5603016842838
20
9.14478027279441
30
0
0
SPLINE
5
DD
100
AcDbEntity
8
1
62
256
6
ByLayer
370
-1
48
1
60
0
100
AcDbSpline
70
4
71
3
72
8
73
4
40
0
40
0
40
0
40
0
40
1
40
1
40
1
40
1
41
1
10
42.3137135047992
20
-16.1232372071241
30
-5E-16
41
1
10
41.8728699296745
20
-16.1233331500522
30
-5E-16
41
1
10
41.4320263545384
20
-16.1234290833057
30
-5E-16
41
1
10
40.9911827793918
20
-16.1235250068862
30
-6E-16
0
SPLINE
5
DE
100
AcDbEntity
8
1
62
256
6
ByLayer
370
-1
48
1
60
0
100
AcDbSpline
70
4
71
3
72
8
73
4
40
0
40
0
40
0
40
0
40
1
40
1
40
1
40
1
41
1
10
34.1185221473612
20
-17.4660187354085
30
-1E-16
41
1
10
33.8330278488452
20
-17.4852662801658
30
-1E-16
41
1
10
33.5458124080265
20
-17.5387707734901
30
-1E-16
41
1
10
33.2820423568127
20
-17.6391233412069
30
-1E-16
0
SPLINE
5
DF
100
AcDbEntity
8
1
62
256
6
ByLayer
370
-1
48
1
60
0
100
AcDbSpline
70
4
71
3
72
8
73
4
40
0
40
0
40
0
40
0
40
1
40
1
40
1
40
1
41
1
10
31.4178137595801
20
-17.8887207875151
30
-3E-16
41
1
10
31.4805704776756
20
-17.8896419926126
30
-2E-16
41
1
10
31.5436901201568
20
-17.8980910455258
30
-2E-16
41
1
10
31.6045700520225
20
-17.9136656320625
30
-2E-16
0
SPLINE
5
E0
100
AcDbEntity
8
1
62
256
6
ByLayer
370
-1
48
1
60
0
100
AcDbSpline
70
4
71
3
72
20
73
16
40
0
40
0
40
0
40
0
40
0.0684484474497555
40
0.0684484474497555
40
0.238013842580437
40
0.238013842580437
40
0.408580944245514
40
0.408580944245514
40
0.583339570343231
40
0.583339570343231
40
0.76345349829656
40
0.76345349829656
40
0.948755539648339
40
0.948755539648339
40
1
40
1
40
1
40
1
41
1
10
32.4483752678379
20
-18.1293454640918
30
-2E-16
41
1
10
32.421910142177
20
-18.1157610700788
30
-2E-16
41
1
10
32.3976919512036
20
-18.1021908917791
30
-2E-16
41
1
10
32.322732470189
20
-18.0557760784938
30
-2E-16
41
1
10
32.2844748324417
20
-18.0231938599848
30
-2E-16
41
1
10
32.2437547695797
20
-17.9633894357718
30
-2E-16
41
1
10
32.2409255501656
20
-17.93538680531
30
-2E-16
41
1
10
32.270304579397
20
-17.8869305682467
30
-2E-16
41
1
10
32.3037309442747
20
-17.8660286893079
30
-2E-16
41
1
10
32.4028958595624
20
-17.8344509462091
30
-2E-16
41
1
10
32.4708946532881
20
-17.8236908325627
30
-2E-16
41
1
10
32.6329654859115
20
-17.8148475238852
30
-2E-16
41
1
10
32.7299133332347
20
-17.8170307139837
30
-2E-16
41
1
10
32.8625692384044
20
-17.8285933504981
30
-2E-16
41
1
10
32.8921167626033
20
-17.8316428097144
30
-2E-16
41
1
10
32.9221298710232
20
-17.8352112922398
30
-2E-16
0
SPLINE
5
E1
100
AcDbEntity
8
1
62
256
6
ByLayer
370
-1
48
1
60
0
100
AcDbSpline
70
4
71
3
72
8
73
4
40
0
40
0
40
0
40
0
40
1
40
1
40
1
40
1
41
1
10
40.9911827793441
20
-16.1235250068864
30
-6E-16
41
1
10
39.1712583089165
20
-16.0362713249021
30
-7E-16
41
1
10
37.3511818913065
20
-15.9484465985172
30
-8E-16
41
1
10
35.5309731721098
20
-15.8600882479381
30
-9E-16
0
SPLINE
5
E2
100
AcDbEntity
8
1
62
256
6
ByLayer
370
-1
48
1
60
0
100
AcDbSpline
70
4
71
3
72
8
73
4
40
0
40
0
40
0
40
0
40
1
40
1
40
1
40
1
41
1
10
32.2766649707727
20
9.38704287554427
30
-2E-16
41
1
10
32.3378088943032
20
9.27518223553326
30
-2E-16
41
1
10
32.406108104417
20
9.16770628903024
30
-2E-16
41
1
10
32.480964168107
20
9.0676894858999
30
-2E-16
0
SPLINE
5
E3
100
AcDbEntity
8
1
62
256
6
ByLayer
370
-1
48
1
60
0
100
AcDbSpline
70
4
71
3
72
8
73
4
40
0
40
0
40
0
40
0
40
1
40
1
40
1
40
1
41
1
10
13.0724898020129
20
-18.0478195149011
30
0
41
1
10
12.9653485290391
20
-18.234148688481
30
0
41
1
10
12.891043529668
20
-18.3301737143142
30
0
41
1
10
12.8565897736369
20
-18.337771503402
30
0
0
SPLINE
5
E4
100
AcDbEntity
8
1
62
256
6
ByLayer
370
-1
48
1
60
0
100
AcDbSpline
70
4
71
3
72
8
73
4
40
0
40
0
40
0
40
0
40
1
40
1
40
1
40
1
41
1
10
35.5309731721227
20
-17.4544563547243
30
-9E-16
41
1
10
35.4922348468206
20
-17.4526831855027
30
9E-16
41
1
10
35.4525830007732
20
-17.4484008144064
30
9E-16
41
1
10
35.414944527271
20
-17.4420687825807
30
9E-16
0
SPLINE
5
E5
100
AcDbEntity
8
1
62
256
6
ByLayer
370
-1
48
1
60
0
100
AcDbSpline
70
4
71
3
72
8
73
4
40
0
40
0
40
0
40
0
40
1
40
1
40
1
40
1
41
1
10
47.9648074262708
20
-16.1348179580515
30
-1E-16
41
1
10
46.6174116937536
20
-16.1326361515904
30
-2E-16
41
1
10
45.2700159613712
20
-16.1304542641373
30
-3E-16
41
1
10
43.9226202291236
20
-16.1282722956228
30
-4E-16
0
SPLINE
5
E6
100
AcDbEntity
8
1
62
256
6
ByLayer
370
-1
48
1
60
0
100
AcDbSpline
70
4
71
3
72
18
73
14
40
0
40
0
40
0
40
0
40
0.0235525202137748
40
0.0235525202137748
40
0.258715724797224
40
0.258715724797224
40
0.505098890727285
40
0.505098890727285
40
0.745293688679396
40
0.745293688679396
40
0.961257750682993
40
0.961257750682993
40
1
40
1
40
1
40
1
41
1
10
15.5120785061825
20
17.624261344783
30
-3E-16
41
1
10
15.4853977112775
20
17.6237652725729
30
-3E-16
41
1
10
15.4586836350701
20
17.623391033577
30
-3E-16
41
1
10
15.1679580533873
20
17.6206448195159
30
-4E-16
41
1
10
14.8991680511663
20
17.630365065273
30
-4E-16
41
1
10
14.3810945495831
20
17.6721240352682
30
-4E-16
41
1
10
14.1256199430118
20
17.7057963898023
30
-4E-16
41
1
10
13.6871071800278
20
17.787488559844
30
4E-16
41
1
10
13.495613693801
20
17.8363893120991
30
4E-16
41
1
10
13.2250022562606
20
17.9321326601269
30
0
41
1
10
13.1328100350396
20
17.9800820569134
30
0
41
1
10
13.0830495967391
20
18.0321263526062
30
0
41
1
10
13.0769641653565
20
18.040038158555
30
0
41
1
10
13.0724898020158
20
18.0478195148934
30
0
0
SPLINE
5
E7
100
AcDbEntity
8
1
62
256
6
ByLayer
370
-1
48
1
60
0
100
AcDbSpline
70
4
71
3
72
8
73
4
40
0
40
0
40
0
40
0
40
1
40
1
40
1
40
1
41
1
10
48.7660967141943
20
9.95919163385287
30
-1E-16
41
1
10
48.766044711336
20
8.14835642225879
30
-1E-16
41
1
10
48.765984756498
20
6.17353614799811
30
-1E-16
41
1
10
48.7659175492536
20
4.04969650522833
30
-1E-16
0
SPLINE
5
E8
100
AcDbEntity
8
1
62
256
6
ByLayer
370
-1
48
1
60
0
100
AcDbSpline
70
4
71
3
72
14
73
10
40
0
40
0
40
0
40
0
40
0.164295035817625
40
0.164295035817625
40
0.522268014471239
40
0.522268014471239
40
0.903366368849877
40
0.903366368849877
40
1
40
1
40
1
40
1
41
1
10
38.7951853792597
20
-17.9489061784348
30
2E-16
41
1
10
38.7233804418003
20
-17.9114135130768
30
2E-16
41
1
10
38.6434824567299
20
-17.8750898826378
30
2E-16
41
1
10
38.3693500325031
20
-17.7662208028611
30
2E-16
41
1
10
38.146914153446
20
-17.7000425029216
30
2E-16
41
1
10
37.6535230524915
20
-17.5932645946019
30
1E-16
41
1
10
37.3743884175996
20
-17.5532090082732
30
-8E-16
41
1
10
37.0184580553907
20
-17.5251566228168
30
-8E-16
41
1
10
36.9453602307409
20
-17.5205485499574
30
-8E-16
41
1
10
36.8720166551279
20
-17.5170630183793
30
-8E-16
0
SPLINE
5
E9
100
AcDbEntity
8
1
62
256
6
ByLayer
370
-1
48
1
60
0
100
AcDbSpline
70
4
71
3
72
8
73
4
40
0
40
0
40
0
40
0
40
1
40
1
40
1
40
1
41
1
10
42.3103563328955
20
-16.1256613617238
30
-5E-16
41
1
10
41.8706318150307
20
-16.1249492520819
30
-5E-16
41
1
10
41.4309072971802
20
-16.1242371338035
30
-5E-16
41
1
10
40.9911827793441
20
-16.1235250068863
30
-6E-16
0
SPLINE
5
EA
100
AcDbEntity
8
1
62
256
6
ByLayer
370
-1
48
1
60
0
100
AcDbSpline
70
4
71
3
72
16
73
12
40
0
40
0
40
0
40
0
40
0.143083874244922
40
0.143083874244922
40
0.385755231670276
40
0.385755231670276
40
0.628426596053501
40
0.628426596053501
40
0.87109907926116
40
0.87109907926116
40
1
40
1
40
1
40
1
41
1
10
48.7687623380779
20
-14.7180398936656
30
-1E-16
41
1
10
48.7687435003621
20
-14.6993093397853
30
-1E-16
41
1
10
48.7687349374213
20
-14.6675281506512
30
-1E-16
41
1
10
48.768740072297
20
-14.5493522012907
30
-1E-16
41
1
10
48.7687738383631
20
-14.4380986217845
30
-1E-16
41
1
10
48.768898059476
20
-14.1600623416882
30
-1E-16
41
1
10
48.7689902676942
20
-13.989445384347
30
-1E-16
41
1
10
48.7692226673369
20
-13.6132707585924
30
-1E-16
41
1
10
48.769366135242
20
-13.4025253079169
30
-1E-16
41
1
10
48.7696128620706
20
-13.071317181102
30
-1E-16
41
1
10
48.7697045516094
20
-12.9533154433076
30
-1E-16
41
1
10
48.7698001766904
20
-12.8353938480389
30
-1E-16
0
SPLINE
5
EB
100
AcDbEntity
8
1
62
256
6
ByLayer
370
-1
48
1
60
0
100
AcDbSpline
70
4
71
3
72
8
73
4
40
0
40
0
40
0
40
0
40
1
40
1
40
1
40
1
41
1
10
34.6496548654374
20
9.08862164321471
30
8E-16
41
1
10
34.1551303609449
20
9.05801816973482
30
8E-16
41
1
10
33.6582823918503
20
9.04777575497852
30
8E-16
41
1
10
33.1625879097574
20
9.05818184035175
30
7E-16
0
SPLINE
5
EC
100
AcDbEntity
8
1
62
256
6
ByLayer
370
-1
48
1
60
0
100
AcDbSpline
70
4
71
3
72
28
73
24
40
0
40
0
40
0
40
0
40
0.326998224562804
40
0.326998224562804
40
0.548196771272224
40
0.548196771272224
40
0.69653249322677
40
0.69653249322677
40
0.796248223286137
40
0.796248223286137
40
0.863548511537286
40
0.863548511537286
40
0.909266124569184
40
0.909266124569184
40
0.940651350159991
40
0.940651350159991
40
0.973634399026162
40
0.973634399026162
40
0.986567724896919
40
0.986567724896919
40
0.996803132734936
40
0.996803132734936
40
1
40
1
40
1
40
1
41
1
10
35.4149445272708
20
-15.5551125519405
30
9E-16
41
1
10
35.4215404960136
20
-15.59015764771
30
9E-16
41
1
10
35.4286604741206
20
-15.6249643617925
30
9E-16
41
1
10
35.4422265709137
20
-15.6828268363532
30
9E-16
41
1
10
35.4481382757898
20
-15.7060473093737
30
9E-16
41
1
10
35.4593815111732
20
-15.7445354702539
30
9E-16
41
1
10
35.4642574769055
20
-15.7599095993901
30
9E-16
41
1
10
35.4735463763177
20
-15.7853984297138
30
9E-16
41
1
10
35.4775834859252
20
-15.7955918576828
30
9E-16
41
1
10
35.4852943441245
20
-15.8124777701731
30
9E-16
41
1
10
35.488657350661
20
-15.8192380946277
30
9E-16
41
1
10
35.4951054119397
20
-15.8304112851244
30
9E-16
41
1
10
35.4979332884114
20
-15.834889337782
30
9E-16
41
1
10
35.5033851440062
20
-15.8422547276122
30
9E-16
41
1
10
35.5057971918269
20
-15.8452092728612
30
9E-16
41
1
10
35.5114415460683
20
-15.851005680473
30
-9E-16
41
1
10
35.5147122619879
20
-15.8539085433361
30
-9E-16
41
1
10
35.520478952873
20
-15.8572371077416
30
-9E-16
41
1
10
35.5222751569417
20
-15.8581025117313
30
-9E-16
41
1
10
35.525809933899
20
-15.8593097966808
30
-9E-16
41
1
10
35.5275170913567
20
-15.8597280766198
30
-9E-16
41
1
10
35.5298394585068
20
-15.8600119922958
30
-9E-16
41
1
10
35.5304053285599
20
-15.8600606831333
30
-9E-16
41
1
10
35.530973172107
20
-15.8600882479501
30
-9E-16
0
SPLINE
5
ED
100
AcDbEntity
8
1
62
256
6
ByLayer
370
-1
48
1
60
0
100
AcDbSpline
70
4
71
2
72
6
73
3
40
0
40
0
40
0
40
1
40
1
40
1
41
0.500000104702307
10
42.3103563328955
20
-16.1256613617238
30
-5E-16
41
0.499999895297693
10
42.3120342426658
20
-16.1244467484313
30
-5E-16
41
0.500000104702307
10
42.3137135048457
20
-16.1232372071241
30
-5E-16
0
SPLINE
5
EE
100
AcDbEntity
8
1
62
256
6
ByLayer
370
-1
48
1
60
0
100
AcDbSpline
70
4
71
3
72
10
73
6
40
0
40
0
40
0
40
0
40
0.558976355112558
40
0.558976355112558
40
1
40
1
40
1
40
1
41
1
10
48.7659175492536
20
-17.8627632250191
30
-1E-16
41
1
10
48.7658800000922
20
-17.9041349685598
30
-1E-16
41
1
10
48.7626920584905
20
-17.945582118969
30
-1E-16
41
1
10
48.7513658155835
20
-18.0186011924938
30
-1E-16
41
1
10
48.7443882344434
20
-18.0505583944062
30
-1E-16
41
1
10
48.7354922803502
20
-18.0818701937561
30
-1E-16
0
SPLINE
5
EF
100
AcDbEntity
8
1
62
256
6
ByLayer
370
-1
48
1
60
0
100
AcDbSpline
70
4
71
3
72
18
73
14
40
0
40
0
40
0
40
0
40
0.0235525202137184
40
0.0235525202137184
40
0.258715724797151
40
0.258715724797151
40
0.505098890727194
40
0.505098890727194
40
0.745293688679289
40
0.745293688679289
40
0.961257750682871
40
0.961257750682871
40
1
40
1
40
1
40
1
41
1
10
15.5120785061822
20
-17.6242613447832
30
-3E-16
41
1
10
15.4853977112773
20
-17.6237652725732
30
-3E-16
41
1
10
15.45868363507
20
-17.6233910335773
30
-3E-16
41
1
10
15.1679580533873
20
-17.6206448195162
30
-4E-16
41
1
10
14.8991680511663
20
-17.6303650652733
30
-4E-16
41
1
10
14.3810945495831
20
-17.6721240352685
30
-4E-16
41
1
10
14.1256199430118
20
-17.7057963898025
30
-4E-16
41
1
10
13.6871071800277
20
-17.7874885598443
30
4E-16
41
1
10
13.4956136938009
20
-17.8363893120994
30
4E-16
41
1
10
13.2250022562606
20
-17.9321326601271
30
0
41
1
10
13.1328100350395
20
-17.9800820569136
30
0
41
1
10
13.083049596739
20
-18.0321263526064
30
0
41
1
10
13.0769641653564
20
-18.0400381585552
30
0
41
1
10
13.0724898020157
20
-18.0478195148937
30
0
0
SPLINE
5
F0
100
AcDbEntity
8
1
62
256
6
ByLayer
370
-1
48
1
60
0
100
AcDbSpline
70
4
71
3
72
14
73
10
40
0
40
0
40
0
40
0
40
0.25
40
0.25
40
0.5
40
0.5
40
0.75
40
0.75
40
1
40
1
40
1
40
1
41
1
10
41.2808293621368
20
-13.7540347569232
30
-5E-16
41
1
10
41.3614474898695
20
-13.2958376471797
30
-5E-16
41
1
10
41.5661941199755
20
-12.8223096419311
30
-5E-16
41
1
10
42.2970830437827
20
-11.9990767331984
30
-5E-16
41
1
10
42.8623030417732
20
-11.6413609607806
30
-4E-16
41
1
10
44.1437512597512
20
-11.5511418242887
30
-4E-16
41
1
10
44.7734881380684
20
-11.8886008840864
30
-3E-16
41
1
10
45.3688024248483
20
-12.7829263823301
30
-3E-16
41
1
10
45.4168851217126
20
-13.2942936745853
30
-3E-16
41
1
10
45.3358815362621
20
-13.754499003696
30
-3E-16
0
SPLINE
5
F1
100
AcDbEntity
8
1
62
256
6
ByLayer
370
-1
48
1
60
0
100
AcDbSpline
70
4
71
3
72
10
73
6
40
0
40
0
40
0
40
0
40
0.787811642891043
40
0.787811642891043
40
1
40
1
40
1
40
1
41
1
10
33.2820423568128
20
17.6391233412066
30
-1E-16
41
1
10
33.1827930656609
20
17.6768832050167
30
-1E-16
41
1
10
33.0846399381128
20
17.7264517454535
30
-1E-16
41
1
10
32.9697024786869
20
17.8012159131626
30
-2E-16
41
1
10
32.9456371355239
20
17.8178892581307
30
-2E-16
41
1
10
32.9221298710232
20
17.8352112922396
30
-2E-16
0
SPLINE
5
F2
100
AcDbEntity
8
1
62
256
6
ByLayer
370
-1
48
1
60
0
100
AcDbSpline
70
4
71
3
72
16
73
12
40
0
40
0
40
0
40
0
40
0.224653411213143
40
0.224653411213143
40
0.448447283517754
40
0.448447283517754
40
0.697001609794501
40
0.697001609794501
40
0.987824208068236
40
0.987824208068236
40
1
40
1
40
1
40
1
41
1
10
42.3137135048457
20
-16.1232372071241
30
-5E-16
41
1
10
42.1114191293951
20
-16.0649831012923
30
-5E-16
41
1
10
41.9258664497223
20
-15.9834032451896
30
-5E-16
41
1
10
41.6154332542761
20
-15.7892432635551
30
-5E-16
41
1
10
41.4860528187502
20
-15.6743642047544
30
-5E-16
41
1
10
41.2766354864604
20
-15.4112789077238
30
-5E-16
41
1
10
41.2008056667166
20
-15.2577227518685
30
-5E-16
41
1
10
41.1092305831594
20
-14.9123775888218
30
-5E-16
41
1
10
41.1043218125756
20
-14.7142681542128
30
-5E-16
41
1
10
41.1410284719555
20
-14.5081924050989
30
-5E-16
41
1
10
41.1425884985394
20
-14.4998330917769
30
-5E-16
41
1
10
41.1442198542367
20
-14.4914714419997
30
-5E-16
0
SPLINE
5
F3
100
AcDbEntity
8
1
62
256
6
ByLayer
370
-1
48
1
60
0
100
AcDbSpline
70
4
71
3
72
8
73
4
40
0
40
0
40
0
40
0
40
1
40
1
40
1
40
1
41
1
10
48.12381862721
20
-16.1219721654192
30
-1E-16
41
1
10
46.7209373487129
20
-16.1222777519017
30
-2E-16
41
1
10
45.3180560701049
20
-16.1225832403317
30
-3E-16
41
1
10
43.9151747913859
20
-16.1228886307665
30
-4E-16
0
SPLINE
5
F4
100
AcDbEntity
8
1
62
256
6
ByLayer
370
-1
48
1
60
0
100
AcDbSpline
70
4
71
3
72
28
73
24
40
0
40
0
40
0
40
0
40
0.0853440474267328
40
0.0853440474267328
40
0.169263253564661
40
0.169263253564661
40
0.270954476619336
40
0.270954476619336
40
0.394041078119862
40
0.394041078119862
40
0.479309645626071
40
0.479309645626071
40
0.564820603135361
40
0.564820603135361
40
0.647258676214363
40
0.647258676214363
40
0.738672488077333
40
0.738672488077333
40
0.848339960217258
40
0.848339960217258
40
0.936201227234346
40
0.936201227234346
40
1
40
1
40
1
40
1
41
1
10
41.4183387874694
20
-13.9436707897512
30
-5E-16
41
1
10
41.4183387874694
20
-14.0825110590378
30
-5E-16
41
1
10
41.4345063810462
20
-14.2255093415072
30
-5E-16
41
1
10
41.4937637294448
20
-14.4886502700692
30
-5E-16
41
1
10
41.5369435124887
20
-14.6132421034474
30
-5E-16
41
1
10
41.6580146722507
20
-14.8654133233533
30
-5E-16
41
1
10
41.7428362553801
20
-14.991592309181
30
-5E-16
41
1
10
41.9671722108177
20
-15.2314510764481
30
-5E-16
41
1
10
42.1192937814997
20
-15.3413966601026
30
-5E-16
41
1
10
42.4119298605389
20
-15.4651717162102
30
-5E-16
41
1
10
42.5451362690594
20
-15.4990565020746
30
-5E-16
41
1
10
42.8179706006215
20
-15.5240107407996
30
-4E-16
41
1
10
42.9611923275972
20
-15.515179714348
30
-4E-16
41
1
10
43.2311110707315
20
-15.458699959255
30
-4E-16
41
1
10
43.361457639638
20
-15.4120099894603
30
-4E-16
41
1
10
43.6147495344526
20
-15.2841018896083
30
-4E-16
41
1
10
43.7384423107461
20
-15.1984592227527
30
-4E-16
41
1
10
43.9777180783737
20
-14.9833822290907
30
-4E-16
41
1
10
44.0903881054985
20
-14.8459588821236
30
-4E-16
41
1
10
44.2486088406234
20
-14.5729884019217
30
-4E-16
41
1
10
44.3045338880447
20
-14.4392510034587
30
-3E-16
41
1
10
44.3634987561884
20
-14.197979389477
30
-3E-16
41
1
10
44.376950247769
20
-14.0912436851964
30
-3E-16
41
1
10
44.376950247769
20
-13.9864527907421
30
-3E-16
0
SPLINE
5
F5
100
AcDbEntity
8
1
62
256
6
ByLayer
370
-1
48
1
60
0
100
AcDbSpline
70
4
71
3
72
12
73
8
40
0
40
0
40
0
40
0
40
0.167932928855683
40
0.167932928855683
40
0.630060309798471
40
0.630060309798471
40
1
40
1
40
1
40
1
41
1
10
32.3715026135902
20
17.844950884989
30
-2E-16
41
1
10
32.3916232951708
20
17.8394804790404
30
-2E-16
41
1
10
32.413927594488
20
17.8347620764233
30
-2E-16
41
1
10
32.5048961109812
20
17.8201756790069
30
-2E-16
41
1
10
32.588114081127
20
17.8154863742662
30
-2E-16
41
1
10
32.7552196725143
20
17.8191533174713
30
-2E-16
41
1
10
32.8370035295974
20
17.8250899859897
30
-2E-16
41
1
10
32.9221298710233
20
17.8352112922396
30
-2E-16
0
SPLINE
5
F6
100
AcDbEntity
8
1
62
256
6
ByLayer
370
-1
48
1
60
0
100
AcDbSpline
70
4
71
3
72
10
73
6
40
0
40
0
40
0
40
0
40
0.787811642891067
40
0.787811642891067
40
1
40
1
40
1
40
1
41
1
10
33.2820423568127
20
-17.6391233412069
30
-1E-16
41
1
10
33.1827930656608
20
-17.676883205017
30
-1E-16
41
1
10
33.0846399381128
20
-17.7264517454538
30
-1E-16
41
1
10
32.9697024786868
20
-17.8012159131629
30
-2E-16
41
1
10
32.9456371355239
20
-17.817889258131
30
-2E-16
41
1
10
32.9221298710232
20
-17.8352112922399
30
-2E-16
0
SPLINE
5
F7
100
AcDbEntity
8
1
62
256
6
ByLayer
370
-1
48
1
60
0
100
AcDbSpline
70
4
71
3
72
8
73
4
40
0
40
0
40
0
40
0
40
1
40
1
40
1
40
1
41
1
10
31.4178137595802
20
17.8887207875148
30
-3E-16
41
1
10
31.4805704776757
20
17.8896419926124
30
-2E-16
41
1
10
31.5436901201568
20
17.8980910455256
30
-2E-16
41
1
10
31.6045700520226
20
17.9136656320622
30
-2E-16
0
SPLINE
5
F8
100
AcDbEntity
8
1
62
256
6
ByLayer
370
-1
48
1
60
0
100
AcDbSpline
70
4
71
3
72
8
73
4
40
0
40
0
40
0
40
0
40
1
40
1
40
1
40
1
41
1
10
35.2664642549483
20
-17.4176084581599
30
9E-16
41
1
10
35.3159064956975
20
-17.4255758878302
30
9E-16
41
1
10
35.3654045562546
20
-17.4337345265933
30
9E-16
41
1
10
35.4149445272707
20
-17.4420687825801
30
9E-16
0
SPLINE
5
F9
100
AcDbEntity
8
1
62
256
6
ByLayer
370
-1
48
1
60
0
100
AcDbSpline
70
4
71
3
72
14
73
10
40
0
40
0
40
0
40
0
40
0.244798017006634
40
0.244798017006634
40
0.488583252092029
40
0.488583252092029
40
0.751531285978637
40
0.751531285978637
40
1
40
1
40
1
40
1
41
1
10
47.9648074262708
20
-18.5281013551865
30
-1E-16
41
1
10
48.0542554873108
20
-18.5331081040316
30
-1E-16
41
1
10
48.1435911626817
20
-18.5252139402459
30
-1E-16
41
1
10
48.3070485687569
20
-18.4872795072324
30
-1E-16
41
1
10
48.38343735627
20
-18.4569130143159
30
-1E-16
41
1
10
48.5214944290478
20
-18.3765088184279
30
-1E-16
41
1
10
48.5833690241387
20
-18.3241343416158
30
-1E-16
41
1
10
48.6778760806866
20
-18.2098294425585
30
-1E-16
41
1
10
48.7129828291147
20
-18.1474682136064
30
-1E-16
41
1
10
48.7354922803502
20
-18.0818701937561
30
-1E-16
0
SPLINE
5
FA
100
AcDbEntity
8
1
62
256
6
ByLayer
370
-1
48
1
60
0
100
AcDbSpline
70
4
71
3
72
18
73
14
40
0
40
0
40
0
40
0
40
0.0269442076600527
40
0.0269442076600527
40
0.215499317903978
40
0.215499317903978
40
0.403342799266734
40
0.403342799266734
40
0.655834643062671
40
0.655834643062671
40
0.912717365527587
40
0.912717365527587
40
1
40
1
40
1
40
1
41
1
10
32.9221298710226
20
-17.8352112922398
30
-2E-16
41
1
10
32.9201989526892
20
-17.8244000918754
30
-2E-16
41
1
10
32.9191162172334
20
-17.8136723263852
30
-2E-16
41
1
10
32.9172827691095
20
-17.7294916937425
30
-2E-16
41
1
10
32.957868657491
20
-17.6598002231925
30
-2E-16
41
1
10
33.1135696571441
20
-17.5404463189685
30
-1E-16
41
1
10
33.2301186609493
20
-17.4893357189525
30
-1E-16
41
1
10
33.5633288273181
20
-17.3972661960974
30
-1E-16
41
1
10
33.8044525416194
20
-17.3637360861282
30
-1E-16
41
1
10
34.3347641861718
20
-17.3360379626066
30
-1E-16
41
1
10
34.633227019373
20
-17.3421225370204
30
-1E-16
41
1
10
35.0492851329097
20
-17.3857501226365
30
9E-16
41
1
10
35.1575175514883
20
-17.4000521098928
30
9E-16
41
1
10
35.2664642549475
20
-17.4176084581584
30
9E-16
0
SPLINE
5
FB
100
AcDbEntity
8
1
62
256
6
ByLayer
370
-1
48
1
60
0
100
AcDbSpline
70
4
71
3
72
8
73
4
40
0
40
0
40
0
40
0
40
1
40
1
40
1
40
1
41
1
10
35.5309731721227
20
-17.4544563547243
30
-9E-16
41
1
10
35.9781279092008
20
-17.4749239668607
30
-9E-16
41
1
10
36.4251400736024
20
-17.4958259512828
30
-8E-16
41
1
10
36.8720166551276
20
-17.5170630183801
30
-8E-16
0
SPLINE
5
FC
100
AcDbEntity
8
1
62
256
6
ByLayer
370
-1
48
1
60
0
100
AcDbSpline
70
4
71
3
72
8
73
4
40
0
40
0
40
0
40
0
40
1
40
1
40
1
40
1
41
1
10
31.4178137595806
20
9.09321605656541
30
6E-16
41
1
10
31.471828582065
20
9.09208360790066
30
6E-16
41
1
10
31.5261022069317
20
9.09148420654779
30
6E-16
41
1
10
31.5786777248233
20
9.09142900404368
30
6E-16
0
SPLINE
5
FD
100
AcDbEntity
8
1
62
256
6
ByLayer
370
-1
48
1
60
0
100
AcDbSpline
70
4
71
3
72
12
73
8
40
0
40
0
40
0
40
0
40
0.334673148078205
40
0.334673148078205
40
0.702947991930208
40
0.702947991930208
40
1
40
1
40
1
40
1
41
1
10
43.9226202291236
20
-16.1282722956228
30
-4E-16
41
1
10
43.7566039354498
20
-16.1736628722004
30
-4E-16
41
1
10
43.5758570790366
20
-16.2051889473761
30
-4E-16
41
1
10
43.1905430177804
20
-16.237491108034
30
-4E-16
41
1
10
42.9799927035042
20
-16.2351467465655
30
-4E-16
41
1
10
42.6171480515485
20
-16.1964635034557
30
-5E-16
41
1
10
42.4580329320019
20
-16.1665245484438
30
-5E-16
41
1
10
42.3103563328954
20
-16.125661361724
30
-5E-16
0
SPLINE
5
FE
100
AcDbEntity
8
1
62
256
6
ByLayer
370
-1
48
1
60
0
100
AcDbSpline
70
4
71
3
72
8
73
4
40
0
40
0
40
0
40
0
40
1
40
1
40
1
40
1
41
1
10
31.6045700520219
20
-17.9136656320676
30
-2E-16
41
1
10
31.8858238025201
20
-17.9856172710012
30
-2E-16
41
1
10
32.1670923866236
20
-18.0575098869481
30
-2E-16
41
1
10
32.4483752678379
20
-18.1293454640918
30
-2E-16
0
SPLINE
5
FF
100
AcDbEntity
8
1
62
256
6
ByLayer
370
-1
48
1
60
0
100
AcDbSpline
70
4
71
3
72
14
73
10
40
0
40
0
40
0
40
0
40
0.25
40
0.25
40
0.5
40
0.5
40
0.75
40
0.75
40
1
40
1
40
1
40
1
41
1
10
13.0724898020165
20
18.0478195148924
30
0
41
1
10
12.8125337858741
20
18.499908502735
30
1E-16
41
1
10
12.7458813986032
20
18.420386636288
30
-1E-16
41
1
10
13.1995780181225
20
17.25173824134
30
4E-16
41
1
10
13.7523505089622
20
16.1277519290933
30
-4E-16
41
1
10
16.042320868783
20
13.46517546807
30
-3E-16
41
1
10
17.8322598894405
20
11.9663947508813
30
-2E-16
41
1
10
22.1685091061196
20
9.86176509990008
30
1E-16
41
1
10
24.6961280832726
20
9.23407990953524
30
2E-16
41
1
10
27.2562753803562
20
9.18043808402427
30
4E-16
0
SPLINE
5
100
100
AcDbEntity
8
1
62
256
6
ByLayer
370
-1
48
1
60
0
100
AcDbSpline
70
4
71
3
72
8
73
4
40
0
40
0
40
0
40
0
40
1
40
1
40
1
40
1
41
1
10
48.7698001766904
20
9.51447323665667
30
-1E-16
41
1
10
48.7686321036723
20
9.66271702042496
30
-1E-16
41
1
10
48.7673829996409
20
9.8109555360243
30
-1E-16
41
1
10
48.7660967141943
20
9.95919163385284
30
-1E-16
0
SPLINE
5
101
100
AcDbEntity
8
1
62
256
6
ByLayer
370
-1
48
1
60
0
100
AcDbSpline
70
4
71
3
72
10
73
6
40
0
40
0
40
0
40
0
40
0.5
40
0.5
40
1
40
1
40
1
40
1
41
1
10
35.414944527271
20
-15.5551125519405
30
9E-16
41
1
10
34.8853800907529
20
-12.7414793893814
30
9E-16
41
1
10
34.2033953721178
20
-8.66450706253258
30
-1E-15
41
1
10
32.814636067362
20
0.252008026352996
30
-1.1E-15
41
1
10
32.1287204055876
20
4.95715304062495
30
-1.1E-15
41
1
10
31.6045700520219
20
8.90998771003936
30
-1.1E-15
0
SPLINE
5
102
100
AcDbEntity
8
1
62
256
6
ByLayer
370
-1
48
1
60
0
100
AcDbSpline
70
4
71
3
72
8
73
4
40
0
40
0
40
0
40
0
40
1
40
1
40
1
40
1
41
1
10
47.9648074262711
20
-16.1348179580538
30
-1E-16
41
1
10
48.0180703528072
20
-16.1349042054675
30
-1E-16
41
1
10
48.0716043922362
20
-16.1305793572916
30
-1E-16
41
1
10
48.1238186272151
20
-16.1219721654186
30
-1E-16
0
SPLINE
5
103
100
AcDbEntity
8
1
62
256
6
ByLayer
370
-1
48
1
60
0
100
AcDbSpline
70
4
71
3
72
8
73
4
40
0
40
0
40
0
40
0
40
1
40
1
40
1
40
1
41
1
10
34.2061069866685
20
-17.433392338269
30
-1E-16
41
1
10
34.1774890965177
20
-17.4400882744926
30
-1E-16
41
1
10
34.1482383537466
20
-17.4507942388496
30
-1E-16
41
1
10
34.1185221473605
20
-17.46601873541
30
-1E-16
0
SPLINE
5
104
100
AcDbEntity
8
SK1
62
256
6
ByLayer
370
-1
48
1
60
0
100
AcDbSpline
70
4
71
3
72
14
73
10
40
0
40
0
40
0
40
0
40
0.540368058914044
40
0.540368058914044
40
0.759647381705853
40
0.759647381705853
40
0.950520324249591
40
0.950520324249591
40
1
40
1
40
1
40
1
41
1
10
-17.4166403074253
20
7.98341998568566
30
-6E-16
41
1
10
-17.4319539292022
20
8.00954846972328
30
-6E-16
41
1
10
-17.4515702397052
20
8.03478273149588
30
-6E-16
41
1
10
-17.4877373947292
20
8.06172405326319
30
-6E-16
41
1
10
-17.4995220153336
20
8.06859980722436
30
-6E-16
41
1
10
-17.5232467446994
20
8.07788441932152
30
-6E-16
41
1
10
-17.5352237859079
20
8.08080564490194
30
-6E-16
41
1
10
-17.550452463352
20
8.08204763916297
30
-6E-16
41
1
10
-17.5536390565981
20
8.0821779242973
30
-6E-16
41
1
10
-17.5568221602855
20
8.0821779242973
30
-6E-16
0
SPLINE
5
105
100
AcDbEntity
8
SK1
62
256
6
ByLayer
370
-1
48
1
60
0
100
AcDbSpline
70
4
71
3
72
14
73
10
40
0
40
0
40
0
40
0
40
0.540368058912792
40
0.540368058912792
40
0.759647381705224
40
0.759647381705224
40
0.950520324249518
40
0.950520324249518
40
1
40
1
40
1
40
1
41
1
10
-40.4416403074253
20
7.98341998568571
30
-2E-16
41
1
10
-40.4569539292021
20
8.00954846972334
30
-2E-16
41
1
10
-40.4765702397052
20
8.03478273149591
30
-2E-16
41
1
10
-40.5127373947292
20
8.06172405326322
30
-2E-16
41
1
10
-40.5245220153336
20
8.06859980722439
30
-2E-16
41
1
10
-40.5482467446994
20
8.07788441932155
30
-2E-16
41
1
10
-40.5602237859079
20
8.080805644902
30
-2E-16
41
1
10
-40.575452463352
20
8.08204763916299
30
-2E-16
41
1
10
-40.5786390565981
20
8.08217792429733
30
-2E-16
41
1
10
-40.5818221602855
20
8.08217792429733
30
-2E-16
0
SPLINE
5
106
100
AcDbEntity
8
SK1
62
256
6
ByLayer
370
-1
48
1
60
0
100
AcDbSpline
70
4
71
3
72
8
73
4
40
0
40
0
40
0
40
0
40
1
40
1
40
1
40
1
41
1
10
-58.5
20
8.08217792429733
30
5E-16
41
1
10
-59.0936657970147
20
6.90721268868938
30
4E-16
41
1
10
-59.6128475848405
20
5.69352487182306
30
4E-16
41
1
10
-60
20
4.42533614542441
30
4E-16
0
SPLINE
5
107
100
AcDbEntity
8
SK1
62
256
6
ByLayer
370
-1
48
1
60
0
100
AcDbSpline
70
4
71
3
72
8
73
4
40
0
40
0
40
0
40
0
40
1
40
1
40
1
40
1
41
1
10
-60
20
-4.42533614542447
30
4E-16
41
1
10
-59.6139748116444
20
-5.68983243373191
30
4E-16
41
1
10
-59.0904958863466
20
-6.91348647918539
30
4E-16
41
1
10
-58.5
20
-8.08217792429744
30
5E-16
0
SPLINE
5
108
100
AcDbEntity
8
SK1
62
256
6
ByLayer
370
-1
48
1
60
0
100
AcDbSpline
70
4
71
3
72
14
73
10
40
0
40
0
40
0
40
0
40
0.191285595886769
40
0.191285595886769
40
0.425546948498332
40
0.425546948498332
40
0.7857340095365
40
0.7857340095365
40
1
40
1
40
1
40
1
41
1
10
-31.4181778397144
20
8.0821779242973
30
3E-16
41
1
10
-31.4302614305356
20
8.0821779242973
30
3E-16
41
1
10
-31.4424948846821
20
8.08021852946189
30
3E-16
41
1
10
-31.4677835925968
20
8.07237820016564
30
3E-16
41
1
10
-31.4808265138675
20
8.0656681175895
30
3E-16
41
1
10
-31.5101724715335
20
8.04555235050532
30
3E-16
41
1
10
-31.5251830809029
20
8.03022724462846
30
3E-16
41
1
10
-31.5453948343751
20
8.00416303566121
30
3E-16
41
1
10
-31.5522037343778
20
7.99392343536096
30
3E-16
41
1
10
-31.5583596925801
20
7.98341998568887
30
3E-16
0
SPLINE
5
109
100
AcDbEntity
8
SK1
62
256
6
ByLayer
370
-1
48
1
60
0
100
AcDbSpline
70
4
71
3
72
14
73
10
40
0
40
0
40
0
40
0
40
0.191285595886636
40
0.191285595886636
40
0.425546948498038
40
0.425546948498038
40
0.785734009535957
40
0.785734009535957
40
1
40
1
40
1
40
1
41
1
10
-17.5568221602855
20
-8.08217792429747
30
-6E-16
41
1
10
-17.5447385694644
20
-8.08217792429747
30
-6E-16
41
1
10
-17.5325051153179
20
-8.08021852946206
30
-6E-16
41
1
10
-17.5072164074031
20
-8.07237820016582
30
-6E-16
41
1
10
-17.4941734861325
20
-8.06566811758967
30
-6E-16
41
1
10
-17.4648275284665
20
-8.04555235050549
30
-6E-16
41
1
10
-17.4498169190971
20
-8.03022724462863
30
-6E-16
41
1
10
-17.4296051656248
20
-8.00416303566138
30
-6E-16
41
1
10
-17.4227962656222
20
-7.99392343536112
30
-6E-16
41
1
10
-17.4166403074199
20
-7.98341998568904
30
-6E-16
0
SPLINE
5
10A
100
AcDbEntity
8
SK1
62
256
6
ByLayer
370
-1
48
1
60
0
100
AcDbSpline
70
4
71
3
72
14
73
10
40
0
40
0
40
0
40
0
40
0.191285595886779
40
0.191285595886779
40
0.425546948498355
40
0.425546948498355
40
0.785734009536542
40
0.785734009536542
40
1
40
1
40
1
40
1
41
1
10
-40.5818221602855
20
-8.08217792429744
30
-2E-16
41
1
10
-40.5697385694644
20
-8.08217792429744
30
-2E-16
41
1
10
-40.5575051153178
20
-8.08021852946203
30
-2E-16
41
1
10
-40.5322164074031
20
-8.07237820016579
30
-2E-16
41
1
10
-40.5191734861325
20
-8.06566811758964
30
-2E-16
41
1
10
-40.4898275284665
20
-8.04555235050546
30
-2E-16
41
1
10
-40.4748169190971
20
-8.03022724462863
30
-2E-16
41
1
10
-40.4546051656248
20
-8.00416303566135
30
-2E-16
41
1
10
-40.4477962656222
20
-7.99392343536112
30
-2E-16
41
1
10
-40.4416403074199
20
-7.98341998568904
30
-2E-16
0
SPLINE
5
10B
100
AcDbEntity
8
SK1
62
256
6
ByLayer
370
-1
48
1
60
0
100
AcDbSpline
70
4
71
3
72
14
73
10
40
0
40
0
40
0
40
0
40
0.540368058912735
40
0.540368058912735
40
0.759647381705168
40
0.759647381705168
40
0.95052032424945
40
0.95052032424945
40
1
40
1
40
1
40
1
41
1
10
-31.5583596925746
20
-7.98341998568583
30
3E-16
41
1
10
-31.5430460707978
20
-8.00954846972346
30
3E-16
41
1
10
-31.5234297602947
20
-8.03478273149605
30
3E-16
41
1
10
-31.4872626052708
20
-8.06172405326336
30
3E-16
41
1
10
-31.4754779846663
20
-8.06859980722453
30
3E-16
41
1
10
-31.4517532553006
20
-8.07788441932169
30
3E-16
41
1
10
-31.4397762140921
20
-8.08080564490211
30
3E-16
41
1
10
-31.424547536648
20
-8.08204763916314
30
3E-16
41
1
10
-31.4213609434019
20
-8.08217792429747
30
3E-16
41
1
10
-31.4181778397144
20
-8.08217792429747
30
3E-16
0
SPLINE
5
10C
100
AcDbEntity
8
1
62
256
6
ByLayer
370
-1
48
1
60
0
100
AcDbSpline
70
4
71
3
72
34
73
30
40
0
40
0
40
0
40
0
40
0.0625
40
0.09375
40
0.109375
40
0.1171875
40
0.125
40
0.15625
40
0.171875
40
0.1875
40
0.21875
40
0.25
40
0.28125
40
0.3125
40
0.34375
40
0.375
40
0.4375
40
0.5
40
0.5625
40
0.625
40
0.65625
40
0.6875
40
0.75
40
0.8125
40
0.859375
40
0.875
40
0.90625
40
0.9375
40
1
40
1
40
1
40
1
41
1
10
34.1155383814917
20
19.4053955734968
30
-1E-16
41
1
10
33.9002393778348
20
19.3964899905576
30
-1E-16
41
1
10
33.570737169655
20
19.1999279758505
30
-1E-16
41
1
10
33.4996414918185
20
18.8398218626564
30
-1E-16
41
1
10
33.4639992288205
20
18.6644289747488
30
-1E-16
41
1
10
33.4441277327724
20
18.5649103036444
30
-1E-16
41
1
10
33.4150772449236
20
18.4160253130105
30
-1E-16
41
1
10
33.3841541788792
20
18.2425600616125
30
-1E-16
41
1
10
33.3526050851747
20
18.0444549072197
30
-1E-16
41
1
10
33.3234902099172
20
17.8463836723326
30
-1E-16
41
1
10
33.2914854935178
20
17.5987457678649
30
-1E-16
41
1
10
33.2595411359838
20
17.3011422333448
30
-1E-16
41
1
10
33.2334971784643
20
17.002740777882
30
-1E-16
41
1
10
33.2123483735514
20
16.7030585210204
30
-1E-16
41
1
10
33.1950894738374
20
16.4016125823043
30
-1E-16
41
1
10
33.17592381794
20
15.9966892476021
30
-1E-16
41
1
10
33.156665274026
20
15.4837114723086
30
-1E-16
41
1
10
33.1427742050331
20
14.8503210421978
30
-1E-16
41
1
10
33.1398038619152
20
14.1922141836352
30
-1E-16
41
1
10
33.0620549989851
20
13.6516156791823
30
-1E-16
41
1
10
32.8822417652933
20
13.2476850215683
30
-2E-16
41
1
10
32.6270443164852
20
12.8837553166427
30
-2E-16
41
1
10
32.5893266107337
20
12.3235477103771
30
-2E-16
41
1
10
32.5959764128864
20
11.7255819602569
30
-2E-16
41
1
10
32.5950075355669
20
11.2890600072106
30
-2E-16
41
1
10
32.5946305232242
20
10.9615210562652
30
-2E-16
41
1
10
32.6354828861191
20
10.6843636112035
30
-2E-16
41
1
10
32.848171811946
20
10.3059299343697
30
-2E-16
41
1
10
33.1787488287282
20
10.1845812708737
30
1E-16
41
1
10
33.3941362593677
20
10.1684357048106
30
1E-16
0
SPLINE
5
10D
100
AcDbEntity
8
1
62
256
6
ByLayer
370
-1
48
1
60
0
100
AcDbSpline
70
4
71
3
72
15
73
11
40
0
40
0
40
0
40
0
40
0.125
40
0.25
40
0.375
40
0.5
40
0.625
40
0.75
40
0.875
40
1
40
1
40
1
40
1
41
1
10
33.3941362595138
20
10.1684357047996
30
1E-16
41
1
10
34.0360691018964
20
10.1703963446817
30
-1E-16
41
1
10
35.3357323442316
20
10.1633794596152
30
0
41
1
10
37.293492059617
20
10.1405870997074
30
1E-16
41
1
10
39.2494257976988
20
10.1436194107926
30
0
41
1
10
41.2055886482438
20
10.1626639119906
30
-1E-16
41
1
10
43.1609725021541
20
10.1995436482513
30
0
41
1
10
45.1168219776391
20
10.2555027999653
30
-1E-16
41
1
10
47.0536121880767
20
10.3176990907686
30
0
41
1
10
48.3447619015283
20
10.3630313367648
30
0
41
1
10
48.9904166263399
20
10.386773653573
30
0
0
SPLINE
5
10E
100
AcDbEntity
8
1
62
256
6
ByLayer
370
-1
48
1
60
0
100
AcDbSpline
70
4
71
3
72
44
73
40
40
-0.0482795240669519
40
-0.0482795240669519
40
0
40
0
40
0.0535858709848931
40
0.0535858709848931
40
0.107129547859876
40
0.107129547859876
40
0.161232036435214
40
0.161232036435214
40
0.215379076835184
40
0.215379076835184
40
0.267897031906463
40
0.267897031906463
40
0.317096834048404
40
0.317096834048404
40
0.370103171332341
40
0.370103171332341
40
0.424982119566783
40
0.424982119566783
40
0.476828059361377
40
0.476828059361377
40
0.528625424454025
40
0.528625424454025
40
0.580992529960377
40
0.580992529960377
40
0.634894567334601
40
0.634894567334601
40
0.689197544843965
40
0.689197544843965
40
0.742947245372962
40
0.742947245372962
40
0.792793188052499
40
0.792793188052499
40
0.843479228223404
40
0.843479228223404
40
0.898261296226699
40
0.898261296226699
40
0.951720475933048
40
0.951720475933048
40
1
40
1
40
1.05358587098489
40
1.05358587098489
41
1
10
41.6637034823524
20
12.3623648089231
30
-1E-16
41
1
10
41.1052609360717
20
12.3575246370513
30
-1E-16
41
1
10
40.8069494788177
20
12.4064202556922
30
1E-16
41
1
10
40.2507756747505
20
12.5972145502175
30
1E-16
41
1
10
39.9852161069163
20
12.7416410787674
30
1E-16
41
1
10
39.519405382549
20
13.1064015775502
30
0
41
1
10
39.3131778513335
20
13.3324939616164
30
0
41
1
10
38.9929027371459
20
13.8335949882032
30
0
41
1
10
38.8739289742113
20
14.1159970211877
30
0
41
1
10
38.7458437720149
20
14.6860187323025
30
0
41
1
10
38.732345096139
20
14.981287806392
30
0
41
1
10
38.8043118845957
20
15.5284904381524
30
0
41
1
10
38.883788941463
20
15.7889831094486
30
0
41
1
10
39.1237884510798
20
16.2882389855175
30
0
41
1
10
39.2934019437938
20
16.5311929248008
30
0
41
1
10
39.7034094548211
20
16.9564493284339
30
-2E-16
41
1
10
39.952026996219
20
17.1434568110089
30
-2E-16
41
1
10
40.4713697770209
20
17.4151895604754
30
1E-16
41
1
10
40.7475148769722
20
17.5083532643132
30
1E-16
41
1
10
41.3012477580544
20
17.6009695407615
30
-1E-16
41
1
10
41.5860494876846
20
17.6019066067545
30
-1E-16
41
1
10
42.1305913733366
20
17.5129448634197
30
0
41
1
10
42.3978543679269
20
17.4207687135148
30
0
41
1
10
42.8861526114642
20
17.1521517715595
30
0
41
1
10
43.1113672296925
20
16.9701807737526
30
0
41
1
10
43.4836377379668
20
16.5421742368081
30
0
41
1
10
43.6365800471683
20
16.2886125337479
30
1E-16
41
1
10
43.8461575795394
20
15.749364026172
30
0
41
1
10
43.9079721557437
20
15.454627404716
30
0
41
1
10
43.9368297944725
20
14.8861460945408
30
0
41
1
10
43.9108512300082
20
14.605532714365
30
0
41
1
10
43.7810921632763
20
14.0702614522464
30
0
41
1
10
43.6743125549598
20
13.8088339381392
30
-1E-16
41
1
10
43.3781592334791
20
13.3205062204252
30
0
41
1
10
43.1789963658923
20
13.0909996261445
30
0
41
1
10
42.7211240935072
20
12.7253732371429
30
0
41
1
10
42.4580310799002
20
12.5823697448454
30
0
41
1
10
41.931209966104
20
12.4066215025289
30
-1E-16
41
1
10
41.6637034823524
20
12.3623648089231
30
-1E-16
41
1
10
41.1052609360717
20
12.3575246370513
30
-1E-16
0
SPLINE
5
10F
100
AcDbEntity
8
1
62
256
6
ByLayer
370
-1
48
1
60
0
100
AcDbSpline
70
4
71
3
72
15
73
11
40
0
40
0
40
0
40
0
40
0.125
40
0.25
40
0.375
40
0.5
40
0.625
40
0.75
40
0.875
40
1
40
1
40
1
40
1
41
1
10
49.2112949281449
20
19.8806288642509
30
0
41
1
10
48.5668107704265
20
19.8799787505083
30
0
41
1
10
47.2956197478232
20
19.8722670574265
30
-1E-16
41
1
10
45.4399845563864
20
19.8428567326697
30
-1E-16
41
1
10
43.5738407406033
20
19.7954590093982
30
0
41
1
10
41.7036009004411
20
19.7305943124524
30
-1E-16
41
1
10
39.8356776358665
20
19.6487830666727
30
-2E-16
41
1
10
37.9606197308895
20
19.5516136115672
30
2E-16
41
1
10
36.0358634464093
20
19.4832102285679
30
0
41
1
10
34.7556514986155
20
19.4320699952273
30
0
41
1
10
34.1155383813959
20
19.4053955734929
30
-1E-16
0
SPLINE
5
110
100
AcDbEntity
8
1
62
256
6
ByLayer
370
-1
48
1
60
0
100
AcDbSpline
70
4
71
3
72
34
73
30
40
0
40
0
40
0
40
0
40
0.0625
40
0.09375
40
0.125
40
0.140625
40
0.1875
40
0.25
40
0.3125
40
0.34375
40
0.375
40
0.4375
40
0.5
40
0.5625
40
0.625
40
0.65625
40
0.6875
40
0.71875
40
0.75
40
0.78125
40
0.8125
40
0.828125
40
0.84375
40
0.875
40
0.8828125
40
0.890625
40
0.90625
40
0.9375
40
1
40
1
40
1
40
1
41
1
10
48.9904166264849
20
10.3867736535783
30
0
41
1
10
49.2040446756425
20
10.3946480141223
30
0
41
1
10
49.5120134372203
20
10.5934946714157
30
0
41
1
10
49.5539054466686
20
11.0204676362037
30
0
41
1
10
49.5751510792682
20
11.2796231517306
30
0
41
1
10
49.5939679115352
20
11.5907072317546
30
0
41
1
10
49.6077119028031
20
12.0057580598173
30
0
41
1
10
49.6030945359744
20
12.5776386720625
30
0
41
1
10
49.5797187783139
20
13.0995037165154
30
0
41
1
10
49.5555385182706
20
13.518859695925
30
0
41
1
10
49.5297909124475
20
13.9396853510113
30
0
41
1
10
49.4978826180687
20
14.4688881069771
30
0
41
1
10
49.4750267043288
20
15.1104172866066
30
0
41
1
10
49.4689220542942
20
15.7595924470734
30
0
41
1
10
49.518201627628
20
16.2971405435049
30
0
41
1
10
49.6716348205221
20
16.7046549341631
30
0
41
1
10
49.8527939732991
20
16.9754802981288
30
0
41
1
10
49.9803660702269
20
17.2702560961697
30
0
41
1
10
50.014196118924
20
17.6186215178946
30
0
41
1
10
50.0064177988354
20
17.8105093990443
30
0
41
1
10
50.0074504588853
20
17.8556416800007
30
0
41
1
10
50.0073906465146
20
17.9906279640729
30
0
41
1
10
50.0073773638335
20
18.2303698244593
30
0
41
1
10
50.0064651663175
20
18.6667591535716
30
0
41
1
10
50.0078332242481
20
19.1959910933414
30
0
41
1
10
49.9939898925024
20
19.2124553810014
30
0
41
1
10
49.9454184545999
20
19.4422552946134
30
0
41
1
10
49.7424997038917
20
19.7379358545351
30
0
41
1
10
49.4234414892978
20
19.8646590360243
30
0
41
1
10
49.2112949280505
20
19.880628864258
30
0
0
SPLINE
5
111
100
AcDbEntity
8
1
62
256
6
ByLayer
370
-1
48
1
60
0
100
AcDbSpline
70
4
71
3
72
14
73
10
40
0
40
0
40
0
40
0
40
0.283961457856586
40
0.283961457856586
40
0.570284934646618
40
0.570284934646618
40
0.829450869060462
40
0.829450869060462
40
1
40
1
40
1
40
1
41
1
10
42.9145377484412
20
14.6767613502031
30
0
41
1
10
42.9435728694894
20
14.6874352790341
30
0
41
1
10
42.9722254003725
20
14.7039988644705
30
0
41
1
10
43.0236914776065
20
14.7476232239112
30
0
41
1
10
43.0472173797564
20
14.7754952236069
30
0
41
1
10
43.0820481008668
20
14.8357999414932
30
0
41
1
10
43.0947789876023
20
14.868491001333
30
0
41
1
10
43.1067080988861
20
14.9242616340791
30
0
41
1
10
43.1091633439226
20
14.9472367904692
30
0
41
1
10
43.1091633439226
20
14.9698819490648
30
0
0
SPLINE
5
112
100
AcDbEntity
8
1
62
256
6
ByLayer
370
-1
48
1
60
0
100
AcDbSpline
70
4
71
3
72
14
73
10
40
0
40
0
40
0
40
0
40
0.282169922576109
40
0.282169922576109
40
0.566902245317967
40
0.566902245317967
40
0.824523972080263
40
0.824523972080263
40
1
40
1
40
1
40
1
41
1
10
40.9929349425478
20
16.326735674328
30
-1E-16
41
1
10
40.9667490414043
20
16.3516896049291
30
-1E-16
41
1
10
40.9358012457757
20
16.3730866912977
30
-1E-16
41
1
10
40.8683258128702
20
16.4043003716618
30
-1E-16
41
1
10
40.8306785594343
20
16.4144363438363
30
-1E-16
41
1
10
40.758538539259
20
16.4196845463076
30
-1E-16
41
1
10
40.7229938531173
20
16.4161522945553
30
-1E-16
41
1
10
40.6672156831336
20
16.3998197518827
30
-1E-16
41
1
10
40.6452395020328
20
16.3902244728309
30
-1E-16
41
1
10
40.6251148347917
20
16.3781199791323
30
-1E-16
0
SPLINE
5
113
100
AcDbEntity
8
1
62
256
6
ByLayer
370
-1
48
1
60
0
100
AcDbSpline
70
4
71
3
72
14
73
10
40
0
40
0
40
0
40
0
40
0.283961749036707
40
0.283961749036707
40
0.570285189259026
40
0.570285189259026
40
0.829451094335678
40
0.829451094335678
40
1
40
1
40
1
40
1
41
1
10
42.4379834267702
20
16.0679945402526
30
0
41
1
10
42.4436626511255
20
16.1018590344786
30
0
41
1
10
42.4441103975473
20
16.1381190595435
30
0
41
1
10
42.4330467614723
20
16.2099136445702
30
0
41
1
10
42.4212047161011
20
16.2465441834352
30
0
41
1
10
42.3873787172155
20
16.3100578139503
30
0
41
1
10
42.3659016056383
20
16.338465996203
30
0
41
1
10
42.324261769894
20
16.3774007532869
30
0
41
1
10
42.3058519599074
20
16.3910464638405
30
0
41
1
10
42.2864704442586
20
16.4021434503735
30
0
0
SPLINE
5
114
100
AcDbEntity
8
1
62
256
6
ByLayer
370
-1
48
1
60
0
100
AcDbSpline
70
4
71
3
72
16
73
12
40
0
40
0
40
0
40
0
40
0.0569446172825025
40
0.0569446172825025
40
0.279906644834074
40
0.279906644834074
40
0.505321967306684
40
0.505321967306684
40
0.744915047128813
40
0.744915047128813
40
1
40
1
40
1
40
1
41
1
10
40.6251148347917
20
16.3781199791323
30
-1E-16
41
1
10
40.6186145111385
20
16.3742101939043
30
-1E-16
41
1
10
40.6122799524977
20
16.3700290423648
30
-1E-16
41
1
10
40.5823055635209
20
16.3483871388773
30
-1E-16
41
1
10
40.5611944572967
20
16.3270415155776
30
-1E-16
41
1
10
40.5273572902765
20
16.2795333400777
30
-1E-16
41
1
10
40.5142758344954
20
16.2527298559277
30
-1E-16
41
1
10
40.4966791508929
20
16.195843671837
30
-1E-16
41
1
10
40.4925035477471
20
16.1649596553816
30
-1E-16
41
1
10
40.4935590185011
20
16.1025226186772
30
-1E-16
41
1
10
40.4993957275669
20
16.0703152970814
30
-1E-16
41
1
10
40.5096700092624
20
16.0401108158619
30
-1E-16
0
SPLINE
5
115
100
AcDbEntity
8
1
62
256
6
ByLayer
370
-1
48
1
60
0
100
AcDbSpline
70
4
71
3
72
16
73
12
40
0
40
0
40
0
40
0
40
0.0630415689509277
40
0.0630415689509277
40
0.285914332024974
40
0.285914332024974
40
0.511588305408905
40
0.511588305408905
40
0.75172306183937
40
0.75172306183937
40
1
40
1
40
1
40
1
41
1
10
39.8024219351277
20
14.922065932624
30
-2E-16
41
1
10
39.8024219351277
20
14.9136636326379
30
-2E-16
41
1
10
39.8028121603314
20
14.9052420954801
30
-2E-16
41
1
10
39.8063170946696
20
14.867419646869
30
-2E-16
41
1
10
39.8139956073741
20
14.8379719281623
30
-2E-16
41
1
10
39.8377777928753
20
14.7833319076209
30
-2E-16
41
1
10
39.8542661851041
20
14.7574935202773
30
-2E-16
41
1
10
39.8944613219535
20
14.7110537330324
30
-2E-16
41
1
10
39.9190407879859
20
14.6902923944119
30
-2E-16
41
1
10
39.972789459566
20
14.6566352206243
30
-2E-16
41
1
10
40.0026749059551
20
14.6436272696262
30
-2E-16
41
1
10
40.0331156875914
20
14.6350955204325
30
-2E-16
0
SPLINE
5
116
100
AcDbEntity
8
1
62
256
6
ByLayer
370
-1
48
1
60
0
100
AcDbSpline
70
4
71
3
72
12
73
8
40
0
40
0
40
0
40
0
40
0.495779676780363
40
0.495779676780363
40
0.900233025448793
40
0.900233025448793
40
1
40
1
40
1
40
1
41
1
10
41.9552942820378
20
13.5464049231984
30
0
41
1
10
41.9120027331538
20
13.5930712549284
30
-1E-16
41
1
10
41.8588087722676
20
13.633547439788
30
-1E-16
41
1
10
41.7470955522896
20
13.6891701738792
30
-1E-16
41
1
10
41.6900029591103
20
13.7081077245252
30
-1E-16
41
1
10
41.6139606386863
20
13.7212432805457
30
-1E-16
41
1
10
41.5984692956064
20
13.7233646229112
30
-1E-16
41
1
10
41.5827850770006
20
13.7249547911082
30
-1E-16
0
SPLINE
5
117
100
AcDbEntity
8
1
62
256
6
ByLayer
370
-1
48
1
60
0
100
AcDbSpline
70
4
71
3
72
18
73
14
40
0
40
0
40
0
40
0
40
0.212491592102414
40
0.212491592102414
40
0.386618191488472
40
0.386618191488472
40
0.56242629505081
40
0.56242629505081
40
0.715388354469455
40
0.715388354469455
40
0.918249128147156
40
0.918249128147156
40
1
40
1
40
1
40
1
41
1
10
42.9145377484412
20
14.6767613502031
30
0
41
1
10
42.8530721130618
20
14.6541652736618
30
0
41
1
10
42.7918721340931
20
14.6203723543288
30
0
41
1
10
42.6880654342855
20
14.5395036363887
30
0
41
1
10
42.6429802243322
20
14.4948994429396
30
0
41
1
10
42.5631957837934
20
14.3937661389136
30
0
41
1
10
42.5275100560337
20
14.3355322010405
30
0
41
1
10
42.4760973371718
20
14.2237283914979
30
0
41
1
10
42.4577133292218
20
14.1692239832565
30
0
41
1
10
42.429763641342
20
14.0459360652755
30
0
41
1
10
42.4243627131003
20
13.9761651734956
30
0
41
1
10
42.4300950845303
20
13.8845401657501
30
0
41
1
10
42.4333081088907
20
13.8585679414414
30
0
41
1
10
42.4379834267702
20
13.8333253016686
30
0
0
SPLINE
5
118
100
AcDbEntity
8
1
62
256
6
ByLayer
370
-1
48
1
60
0
100
AcDbSpline
70
4
71
3
72
16
73
12
40
0
40
0
40
0
40
0
40
0.0569446172824975
40
0.0569446172824975
40
0.27990664483407
40
0.27990664483407
40
0.505321967306678
40
0.505321967306678
40
0.744915047128811
40
0.744915047128811
40
1
40
1
40
1
40
1
41
1
10
42.2864704442586
20
13.5138279025566
30
0
41
1
10
42.2929707679118
20
13.5177376877846
30
0
41
1
10
42.2993525446559
20
13.5218946049171
30
0
41
1
10
42.3297869703132
20
13.5433003973514
30
0
41
1
10
42.3519979244483
20
13.5640815303405
30
0
41
1
10
42.3893251647056
20
13.609798446789
30
0
41
1
10
42.4048533193965
20
13.6353461774719
30
0
41
1
10
42.4285279404794
20
13.6891128967876
30
0
41
1
10
42.4364734098341
20
13.7180620521353
30
0
41
1
10
42.4439800354463
20
13.7761046444907
30
0
41
1
10
42.4430861405921
20
13.8057750964868
30
0
41
1
10
42.4379834267702
20
13.8333253016686
30
0
0
SPLINE
5
119
100
AcDbEntity
8
1
62
256
6
ByLayer
370
-1
48
1
60
0
100
AcDbSpline
70
4
71
3
72
18
73
14
40
0
40
0
40
0
40
0
40
0.212491695755302
40
0.212491695755302
40
0.386618276853805
40
0.386618276853805
40
0.562426360907933
40
0.562426360907933
40
0.715388416645938
40
0.715388416645938
40
0.918249208689864
40
0.918249208689864
40
1
40
1
40
1
40
1
41
1
10
42.4379834267702
20
16.0679945402526
30
0
41
1
10
42.4259608508475
20
15.9963054455013
30
0
41
1
10
42.4236426458304
20
15.9197459430069
30
0
41
1
10
42.4398036843648
20
15.779890408009
30
0
41
1
10
42.4549116197233
20
15.7151457481661
30
0
41
1
10
42.5005609872323
20
15.5918378339213
30
0
41
1
10
42.5320526413536
20
15.5316036488125
30
0
41
1
10
42.6011904051311
20
15.4340273394332
30
0
41
1
10
42.6382850308807
20
15.3934988376765
30
0
41
1
10
42.7291277517591
20
15.3158015147672
30
0
41
1
10
42.7858371111527
20
15.282474323429
30
0
41
1
10
42.8668579723559
20
15.2512367050128
30
0
41
1
10
42.890635113749
20
15.2439359693663
30
0
41
1
10
42.9145377484412
20
15.238340597098
30
0
0
SPLINE
5
11A
100
AcDbEntity
8
1
62
256
6
ByLayer
370
-1
48
1
60
0
100
AcDbSpline
70
4
71
3
72
16
73
12
40
0
40
0
40
0
40
0
40
0.0630415689509229
40
0.0630415689509229
40
0.285914332024971
40
0.285914332024971
40
0.511588305408903
40
0.511588305408903
40
0.751723061839368
40
0.751723061839368
40
1
40
1
40
1
40
1
41
1
10
43.1091633439226
20
14.9698819490648
30
0
41
1
10
43.1091633439226
20
14.9782842490509
30
0
41
1
10
43.1088309356709
20
14.9866761120066
30
0
41
1
10
43.1058456915974
20
15.024231832722
30
0
41
1
10
43.0993046185963
20
15.0530957673572
30
0
41
1
10
43.0790827807376
20
15.1059084609323
30
0
41
1
10
43.0650765224867
20
15.1304729079736
30
0
41
1
10
43.0310289909723
20
15.1737574738371
30
0
41
1
10
43.0102553002671
20
15.1925655212115
30
0
41
1
10
42.9650099929962
20
15.2218583945242
30
0
41
1
10
42.9399423781186
20
15.23239362254
30
0
41
1
10
42.9145377484412
20
15.238340597098
30
0
0
SPLINE
5
11B
100
AcDbEntity
8
1
62
256
6
ByLayer
370
-1
48
1
60
0
100
AcDbSpline
70
4
71
3
72
12
73
8
40
0
40
0
40
0
40
0
40
0.495779676780355
40
0.495779676780355
40
0.900233025448794
40
0.900233025448794
40
1
40
1
40
1
40
1
41
1
10
40.9929349425478
20
16.326735674328
30
-1E-16
41
1
10
41.048533551803
20
16.2737528180474
30
-1E-16
41
1
10
41.1133758571583
20
16.2272981906034
30
-1E-16
41
1
10
41.2421221449458
20
16.1629333371313
30
-1E-16
41
1
10
41.3054845224545
20
16.1407778574714
30
-1E-16
41
1
10
41.3861101806664
20
16.1252899309589
30
-1E-16
41
1
10
41.4023624053687
20
16.1227780706872
30
-1E-16
41
1
10
41.4186378880632
20
16.1208844397607
30
-1E-16
0
SPLINE
5
11C
100
AcDbEntity
8
1
62
256
6
ByLayer
370
-1
48
1
60
0
100
AcDbSpline
70
4
71
3
72
16
73
12
40
0
40
0
40
0
40
0
40
0.0624450082614035
40
0.0624450082614035
40
0.283207995985775
40
0.283207995985775
40
0.50674568883354
40
0.50674568883354
40
0.744607284736978
40
0.744607284736978
40
1
40
1
40
1
40
1
41
1
10
42.2864704442586
20
16.4021434503735
30
0
41
1
10
42.2792790589761
20
16.4062609150279
30
0
41
1
10
42.2719268125819
20
16.410050035253
30
0
41
1
10
42.2382587491042
20
16.4255507318319
30
0
41
1
10
42.2102135189275
20
16.433334898755
30
0
41
1
10
42.1546839358473
20
16.4395273298723
30
0
41
1
10
42.1265064270277
20
16.4379193177406
30
0
41
1
10
42.0720738618913
20
16.4258951397528
30
0
41
1
10
42.0453697301207
20
16.4148025424142
30
0
41
1
10
41.996279994832
20
16.3842274697206
30
0
41
1
10
41.9737497541364
20
16.363848091113
30
0
41
1
10
41.9552942820378
20
16.3406515462727
30
0
0
SPLINE
5
11D
100
AcDbEntity
8
1
62
256
6
ByLayer
370
-1
48
1
60
0
100
AcDbSpline
70
4
71
3
72
16
73
12
40
0
40
0
40
0
40
0
40
0.0624450082614026
40
0.0624450082614026
40
0.283207995985759
40
0.283207995985759
40
0.506745688833504
40
0.506745688833504
40
0.744607284736923
40
0.744607284736923
40
1
40
1
40
1
40
1
41
1
10
40.6251148347917
20
13.4898044313153
30
1E-16
41
1
10
40.6323062200742
20
13.4856869666609
30
1E-16
41
1
10
40.6397162838029
20
13.4818681720375
30
1E-16
41
1
10
40.6739040396287
20
13.4661007464935
30
1E-16
41
1
10
40.7030867107985
20
13.457732794837
30
1E-16
41
1
10
40.7621766439342
20
13.4497130355149
30
1E-16
41
1
10
40.7928362879491
20
13.4500471067195
30
1E-16
41
1
10
40.853416460815
20
13.4589160620969
30
1E-16
41
1
10
40.883926369147
20
13.468055367556
30
1E-16
41
1
10
40.9416822336883
20
13.4941826016486
30
1E-16
41
1
10
40.9692328896465
20
13.5119852823848
30
-1E-16
41
1
10
40.9929349425478
20
13.5324890512537
30
-1E-16
0
SPLINE
5
11E
100
AcDbEntity
8
1
62
256
6
ByLayer
370
-1
48
1
60
0
100
AcDbSpline
70
4
71
3
72
14
73
10
40
0
40
0
40
0
40
0
40
0.282169922576105
40
0.282169922576105
40
0.566902245317963
40
0.566902245317963
40
0.82452397208026
40
0.82452397208026
40
1
40
1
40
1
40
1
41
1
10
41.9552942820378
20
13.5464049231984
30
0
41
1
10
41.975683788801
20
13.5244259570733
30
0
41
1
10
42.0011037965292
20
13.5058659745241
30
0
41
1
10
42.0588643439049
20
13.4796384005984
30
0
41
1
10
42.0921894931434
20
13.4717207223503
30
0
41
1
10
42.1579928603195
20
13.4697247688345
30
0
41
1
10
42.1912515458748
20
13.4744302966081
30
0
41
1
10
42.2448298435429
20
13.4918919104863
30
0
41
1
10
42.2663457770175
20
13.501723408858
30
0
41
1
10
42.2864704442586
20
13.5138279025566
30
0
0
SPLINE
5
11F
100
AcDbEntity
8
1
62
256
6
ByLayer
370
-1
48
1
60
0
100
AcDbSpline
70
4
71
3
72
14
73
10
40
0
40
0
40
0
40
0
40
0.283961457856587
40
0.283961457856587
40
0.57028493464662
40
0.57028493464662
40
0.829450869060462
40
0.829450869060462
40
1
40
1
40
1
40
1
41
1
10
40.0331156875915
20
15.1966747673273
30
-2E-16
41
1
10
39.9983247148107
20
15.1889549947027
30
-2E-16
41
1
10
39.964191812543
20
15.1752041768447
30
-2E-16
41
1
10
39.903118311151
20
15.1365107699412
30
-2E-16
41
1
10
39.8753313000552
20
15.1108257587267
30
-2E-16
41
1
10
39.8342780818126
20
15.0537146999854
30
-2E-16
41
1
10
39.8193169604355
20
15.0221682946318
30
-2E-16
41
1
10
39.805303496519
20
14.9674674433104
30
-2E-16
41
1
10
39.8024219351277
20
14.9447110912197
30
-2E-16
41
1
10
39.8024219351277
20
14.922065932624
30
-2E-16
0
SPLINE
5
120
100
AcDbEntity
8
1
62
256
6
ByLayer
370
-1
48
1
60
0
100
AcDbSpline
70
4
71
3
72
14
73
10
40
0
40
0
40
0
40
0
40
0.283961749036714
40
0.283961749036714
40
0.570285189259031
40
0.570285189259031
40
0.829451094335681
40
0.829451094335681
40
1
40
1
40
1
40
1
41
1
10
40.5096700092624
20
13.8054415772778
30
-1E-16
41
1
10
40.4982349272895
20
13.7745312422788
30
-1E-16
41
1
10
40.4923068040815
20
13.7410839875646
30
-1E-16
41
1
10
40.4937630142984
20
13.6742203559476
30
-1E-16
41
1
10
40.50134395282
20
13.6397768044879
30
-1E-16
41
1
10
40.5289474584902
20
13.5794568311075
30
1E-16
41
1
10
40.5481943373371
20
13.5521933023601
30
1E-16
41
1
10
40.58774982437
20
13.5143283246883
30
1E-16
41
1
10
40.6057333191428
20
13.5009014178484
30
1E-16
41
1
10
40.6251148347917
20
13.4898044313153
30
1E-16
0
SPLINE
5
121
100
AcDbEntity
8
1
62
256
6
ByLayer
370
-1
48
1
60
0
100
AcDbSpline
70
4
71
3
72
18
73
14
40
0
40
0
40
0
40
0
40
0.212491592102415
40
0.212491592102415
40
0.386618191488474
40
0.386618191488474
40
0.562426295050813
40
0.562426295050813
40
0.715388354469456
40
0.715388354469456
40
0.918249128147158
40
0.918249128147158
40
1
40
1
40
1
40
1
41
1
10
40.0331156875915
20
15.1966747673273
30
-2E-16
41
1
10
40.1067661209369
20
15.2130170697605
30
-2E-16
41
1
10
40.1794737759528
20
15.2409037437287
30
-2E-16
41
1
10
40.3000799185736
20
15.313150248909
30
-2E-16
41
1
10
40.351327967177
20
15.3545914025695
30
-1E-16
41
1
10
40.43823902292
20
15.4520670143
30
-1E-16
41
1
10
40.4748421197655
20
15.5098301180196
30
-1E-16
41
1
10
40.5225060374413
20
15.6235579771739
30
-1E-16
41
1
10
40.5369410629268
20
15.6800891768613
30
-1E-16
41
1
10
40.5523195592453
20
15.8098291831341
30
-1E-16
41
1
10
40.5478881393961
20
15.884646468304
30
-1E-16
41
1
10
40.5269112875898
20
15.9840956137114
30
-1E-16
41
1
10
40.5190837319572
20
16.0124362183799
30
-1E-16
41
1
10
40.5096700092624
20
16.0401108158618
30
-1E-16
0
SPLINE
5
122
100
AcDbEntity
8
1
62
256
6
ByLayer
370
-1
48
1
60
0
100
AcDbSpline
70
4
71
3
72
12
73
8
40
0
40
0
40
0
40
0
40
0.422118633920713
40
0.422118633920713
40
0.843213619146838
40
0.843213619146838
40
1
40
1
40
1
40
1
41
1
10
41.4186378880632
20
13.7225811961654
30
-1E-16
41
1
10
41.350890356848
20
13.7140383478351
30
-1E-16
41
1
10
41.2830475687333
20
13.6959920239098
30
-1E-16
41
1
10
41.1587741986234
20
13.6461320536974
30
-1E-16
41
1
10
41.1005648196102
20
13.6137986886641
30
-1E-16
41
1
10
41.0293569110339
20
13.5625971257056
30
-1E-16
41
1
10
41.0107104882609
20
13.5478660180647
30
-1E-16
41
1
10
40.9929349425478
20
13.5324890512537
30
-1E-16
0
SPLINE
5
123
100
AcDbEntity
8
1
62
256
6
ByLayer
370
-1
48
1
60
0
100
AcDbSpline
70
4
71
3
72
18
73
14
40
0
40
0
40
0
40
0
40
0.212491695755301
40
0.212491695755301
40
0.386618276853805
40
0.386618276853805
40
0.562426360907932
40
0.562426360907932
40
0.715388416645937
40
0.715388416645937
40
0.918249208689863
40
0.918249208689863
40
1
40
1
40
1
40
1
41
1
10
40.5096700092624
20
13.8054415772778
30
-1E-16
41
1
10
40.5338773891093
20
13.8708768948631
30
-1E-16
41
1
10
40.5477032756107
20
13.941530149202
30
-1E-16
41
1
10
40.5483416796269
20
14.072763471575
30
-1E-16
41
1
10
40.5393965799726
20
14.1343450931412
30
-1E-16
41
1
10
40.5008738218951
20
14.2539953180533
30
-1E-16
41
1
10
40.4702995340382
20
14.3137586704567
30
-1E-16
41
1
10
40.397412965356
20
14.4132590313562
30
-1E-16
41
1
10
40.3563693556196
20
14.4558143253403
30
-1E-16
41
1
10
40.2529554398103
20
14.5399637382708
30
-2E-16
41
1
10
40.1864137301402
20
14.5783373241206
30
-2E-16
41
1
10
40.0901483906254
20
14.6173990791391
30
-2E-16
41
1
10
40.0617567224122
20
14.6270681928605
30
-2E-16
41
1
10
40.0331156875915
20
14.6350955204325
30
-2E-16
0
SPLINE
5
124
100
AcDbEntity
8
1
62
256
6
ByLayer
370
-1
48
1
60
0
100
AcDbSpline
70
4
71
3
72
12
73
8
40
0
40
0
40
0
40
0
40
0.422118633920765
40
0.422118633920765
40
0.843213619146894
40
0.843213619146894
40
1
40
1
40
1
40
1
41
1
10
41.5827850770006
20
16.1232580347035
30
-1E-16
41
1
10
41.6480714411304
20
16.1330640622049
30
-1E-16
41
1
10
41.7103861716215
20
16.1539476283833
30
-1E-16
41
1
10
41.8200687951808
20
16.2112962113122
30
-1E-16
41
1
10
41.8690984885808
20
16.2483409946529
30
-1E-16
41
1
10
41.9266584004652
20
16.3065473096457
30
-1E-16
41
1
10
41.9414534519076
20
16.3232551104066
30
-1E-16
41
1
10
41.9552942820378
20
16.3406515462727
30
0
0
SPLINE
5
125
100
AcDbEntity
8
1
62
256
6
ByLayer
370
-1
48
1
60
0
100
AcDbSpline
70
4
71
3
72
8
73
4
40
0
40
0
40
0
40
0
40
1
40
1
40
1
40
1
41
1
10
48.7696053414351
20
-10.3786955654336
30
0
41
1
10
48.8432081547924
20
-10.3813743830592
30
0
41
1
10
48.9168118715817
20
-10.3840670251868
30
0
41
1
10
48.9904166263399
20
-10.3867736535733
30
0
0
SPLINE
5
126
100
AcDbEntity
8
1
62
256
6
ByLayer
370
-1
48
1
60
0
100
AcDbSpline
70
4
71
3
72
16
73
12
40
0
40
0
40
0
40
0
40
0.290423245836085
40
0.435634868754127
40
0.508240680213149
40
0.544543585942659
40
0.58084649167217
40
0.726058114590213
40
0.798663926049234
40
0.871269737508255
40
1
40
1
40
1
40
1
41
1
10
34.1155383814917
20
-19.4053955734971
30
-1E-16
41
1
10
33.9002393778347
20
-19.3964899905579
30
-1E-16
41
1
10
33.5707371696549
20
-19.1999279758508
30
-1E-16
41
1
10
33.4996414918184
20
-18.8398218626567
30
-1E-16
41
1
10
33.4639992288205
20
-18.6644289747491
30
-1E-16
41
1
10
33.4441277327724
20
-18.5649103036446
30
-1E-16
41
1
10
33.4150772449236
20
-18.4160253130108
30
-1E-16
41
1
10
33.3841541788792
20
-18.2425600616128
30
-1E-16
41
1
10
33.3526050851746
20
-18.0444549072199
30
-1E-16
41
1
10
33.3251424631708
20
-17.8576241066269
30
-1E-16
41
1
10
33.307208457006
20
-17.7202860669166
30
-1E-16
41
1
10
33.2965964561598
20
-17.6324228426083
30
-1E-16
0
SPLINE
5
127
100
AcDbEntity
8
1
62
256
6
ByLayer
370
-1
48
1
60
0
100
AcDbSpline
70
4
71
3
72
8
73
4
40
0
40
0
40
0
40
0
40
1
40
1
40
1
40
1
41
1
10
35.313901037261
20
-17.7622978113413
30
0
41
1
10
36.5477434039096
20
-17.8295957683886
30
1E-16
41
1
10
37.7815857705583
20
-17.8968937254359
30
1E-16
41
1
10
39.0154281372072
20
-17.9641916824832
30
0
0
SPLINE
5
128
100
AcDbEntity
8
1
62
256
6
ByLayer
370
-1
48
1
60
0
100
AcDbSpline
70
4
71
3
72
8
73
4
40
0
40
0
40
0
40
0
40
1
40
1
40
1
40
1
41
1
10
48.3141536844785
20
-18.4713757842694
30
-1E-16
41
1
10
48.405836075673
20
-18.4763764535537
30
-1E-16
41
1
10
48.4975184668676
20
-18.481377122838
30
-1E-16
41
1
10
48.5892008580621
20
-18.4863777921223
30
-1E-16
0
SPLINE
5
129
100
AcDbEntity
8
1
62
256
6
ByLayer
370
-1
48
1
60
0
100
AcDbSpline
70
4
71
1
72
4
73
2
40
0
40
0
40
1
40
1
41
1
10
48.9904166264849
20
-10.3867736535786
30
0
41
1
10
48.8205052863787
20
-11.5020362519054
30
-1E-16
0
SPLINE
5
12A
100
AcDbEntity
8
1
62
256
6
ByLayer
370
-1
48
1
60
0
100
AcDbSpline
70
4
71
3
72
20
73
16
40
0
40
0
40
0
40
0
40
0.0625
40
0.09375
40
0.125
40
0.15625
40
0.1875
40
0.25
40
0.5
40
0.75
40
0.8125
40
0.875
40
0.90625
40
0.9375
40
1
40
1
40
1
40
1
41
1
10
48.5892008580621
20
-18.4863777921223
30
-1E-16
41
1
10
48.7450171314235
20
-18.4932383374759
30
-1E-16
41
1
10
48.9823277371128
20
-18.4066674091704
30
-1E-16
41
1
10
49.1616265033649
20
-18.1476573509668
30
-1E-16
41
1
10
49.2152652282426
20
-17.9146047508544
30
0
41
1
10
49.212483353598
20
-17.6781875341393
30
0
41
1
10
49.2011780920322
20
-17.3626409400773
30
0
41
1
10
49.2094965512207
20
-16.4970086540445
30
0
41
1
10
49.1999751618037
20
-15.079014488404
30
0
41
1
10
49.198291000312
20
-13.6626702622602
30
0
41
1
10
49.1990047272847
20
-12.7166159461797
30
0
41
1
10
49.1980083294449
20
-12.3231430475992
30
0
41
1
10
49.1954750201489
20
-12.0094068916768
30
-1E-16
41
1
10
49.1990688544187
20
-11.6852454730207
30
0
41
1
10
48.976097965001
20
-11.5134237429629
30
-1E-16
41
1
10
48.8205052863787
20
-11.5020362519054
30
-1E-16
0
SPLINE
5
12B
100
AcDbEntity
8
1
62
256
6
ByLayer
370
-1
48
1
60
0
100
AcDbSpline
70
4
71
3
72
34
73
30
40
0
40
0
40
0
40
0
40
0.0625
40
0.09375
40
0.125
40
0.140625
40
0.1875
40
0.25
40
0.3125
40
0.34375
40
0.375
40
0.4375
40
0.5
40
0.5625
40
0.625
40
0.65625
40
0.6875
40
0.71875
40
0.75
40
0.78125
40
0.8125
40
0.828125
40
0.84375
40
0.875
40
0.8828125
40
0.890625
40
0.90625
40
0.9375
40
1
40
1
40
1
40
1
41
1
10
48.9904166264849
20
-10.3867736535786
30
0
41
1
10
49.2040446756425
20
-10.3946480141226
30
0
41
1
10
49.5120134372203
20
-10.593494671416
30
0
41
1
10
49.5539054466686
20
-11.020467636204
30
0
41
1
10
49.5751510792682
20
-11.279623151731
30
0
41
1
10
49.5939679115352
20
-11.5907072317549
30
0
41
1
10
49.6077119028031
20
-12.0057580598176
30
0
41
1
10
49.6030945359743
20
-12.5776386720629
30
0
41
1
10
49.5797187783138
20
-13.0995037165158
30
0
41
1
10
49.5555385182705
20
-13.5188596959253
30
0
41
1
10
49.5297909124475
20
-13.9396853510117
30
0
41
1
10
49.4978826180686
20
-14.4688881069774
30
0
41
1
10
49.4750267043288
20
-15.1104172866069
30
0
41
1
10
49.4689220542942
20
-15.7595924470737
30
0
41
1
10
49.518201627628
20
-16.2971405435053
30
0
41
1
10
49.6716348205221
20
-16.7046549341634
30
0
41
1
10
49.852793973299
20
-16.9754802981291
30
0
41
1
10
49.9803660702268
20
-17.27025609617
30
0
41
1
10
50.0141961189239
20
-17.618621517895
30
0
41
1
10
50.0064177988353
20
-17.8105093990446
30
0
41
1
10
50.0074504588853
20
-17.855641680001
30
0
41
1
10
50.0073906465146
20
-17.9906279640732
30
0
41
1
10
50.0073773638334
20
-18.2303698244597
30
0
41
1
10
50.0064651663175
20
-18.666759153572
30
0
41
1
10
50.007833224248
20
-19.1959910933418
30
0
41
1
10
49.9939898925024
20
-19.2124553810017
30
0
41
1
10
49.9454184545998
20
-19.4422552946137
30
0
41
1
10
49.7424997038916
20
-19.7379358545355
30
0
41
1
10
49.4234414892977
20
-19.8646590360246
30
0
41
1
10
49.2112949280504
20
-19.8806288642584
30
0
0
SPLINE
5
12C
100
AcDbEntity
8
1
62
256
6
ByLayer
370
-1
48
1
60
0
100
AcDbSpline
70
4
71
3
72
15
73
11
40
0
40
0
40
0
40
0
40
0.125
40
0.25
40
0.375
40
0.5
40
0.625
40
0.75
40
0.875
40
1
40
1
40
1
40
1
41
1
10
49.2112949281449
20
-19.8806288642513
30
0
41
1
10
48.5668107704265
20
-19.8799787505087
30
0
41
1
10
47.2956197478231
20
-19.8722670574269
30
-1E-16
41
1
10
45.4399845563864
20
-19.84285673267
30
-1E-16
41
1
10
43.5738407406033
20
-19.7954590093985
30
0
41
1
10
41.703600900441
20
-19.7305943124528
30
-1E-16
41
1
10
39.8356776358664
20
-19.6487830666731
30
-2E-16
41
1
10
37.9606197308894
20
-19.5516136115676
30
2E-16
41
1
10
36.0358634464093
20
-19.4832102285682
30
0
41
1
10
34.7556514986154
20
-19.4320699952276
30
0
41
1
10
34.1155383813958
20
-19.4053955734931
30
-1E-16
0
SPLINE
5
12D
100
AcDbEntity
8
1
62
256
6
ByLayer
370
-1
48
1
60
0
100
AcDbSpline
70
4
71
1
72
4
73
2
40
0
40
0
40
1
40
1
41
1
10
34.1155383814916
20
-19.4053955734971
30
-1E-16
41
1
10
35.313901037261
20
-17.7622978113413
30
0
0
SPLINE
5
12E
100
AcDbEntity
8
1
62
256
6
ByLayer
370
-1
48
1
60
0
100
AcDbSpline
70
4
71
1
72
4
73
2
40
0
40
0
40
1
40
1
41
1
10
49.2112949281449
20
-19.8806288642513
30
0
41
1
10
48.5892008580621
20
-18.4863777921223
30
-1E-16
0
SPLINE
5
12F
100
AcDbEntity
8
1
62
256
6
ByLayer
370
-1
48
1
60
0
100
AcDbSpline
70
4
71
3
72
9
73
5
40
0
40
0
40
0
40
0
40
0.172870713544189
40
1
40
1
40
1
40
1
41
1
10
34.9456377658087
20
-17.3809432664097
30
0
41
1
10
34.9498076993465
20
-17.4133791311914
30
0
41
1
10
34.987928331069
20
-17.5969436744547
30
0
41
1
10
35.1601789383263
20
-17.7357327076772
30
0
41
1
10
35.313901037261
20
-17.7622978113413
30
0
0
LINE
5
4A
100
AcDbEntity
8
1
62
256
6
ByLayer
370
-1
48
1
60
0
100
AcDbLine
10
12.862405
20
18.34011
30
0
11
0.3125
21
18.34011
31
0
39
0
210
0
220
0
230
1
0
LINE
5
4C
100
AcDbEntity
8
1
62
256
6
ByLayer
370
-1
48
1
60
0
100
AcDbLine
10
0.3125
20
-18.34011
30
0
11
12.862405
21
-18.34011
31
0
39
0
210
0
220
0
230
1
0
LINE
5
4D
100
AcDbEntity
8
1
62
256
6
ByLayer
370
-1
48
1
60
0
100
AcDbLine
10
0.3125
20
18.34011
30
0
11
0.0125
21
18.04011
31
0
39
0
210
0
220
0
230
1
0
LINE
5
4E
100
AcDbEntity
8
1
62
256
6
ByLayer
370
-1
48
1
60
0
100
AcDbLine
10
0.0125
20
-18.04011
30
0
11
0.3125
21
-18.34011
31
0
39
0
210
0
220
0
230
1
0
LINE
5
4F
100
AcDbEntity
8
1
62
256
6
ByLayer
370
-1
48
1
60
0
100
AcDbLine
10
42.789344
20
15.284549
30
0
11
42.996085
21
15.17844
31
0
39
0
210
0
220
0
230
1
0
LINE
5
50
100
AcDbEntity
8
1
62
256
6
ByLayer
370
-1
48
1
60
0
100
AcDbLine
10
42.004919
20
13.557662
30
0
11
41.803444
21
13.661068
31
0
39
0
210
0
220
0
230
1
0
LINE
5
51
100
AcDbEntity
8
1
62
256
6
ByLayer
370
-1
48
1
60
0
100
AcDbLine
10
40.387276
20
14.471371
30
0
11
40.180535
21
14.57748
31
0
39
0
210
0
220
0
230
1
0
LINE
5
52
100
AcDbEntity
8
1
62
256
6
ByLayer
370
-1
48
1
60
0
100
AcDbLine
10
41.176968
20
16.195555
30
0
11
41.378443
21
16.092149
31
0
39
0
210
0
220
0
230
1
0
LINE
5
53
100
AcDbEntity
8
SK1
62
256
6
ByLayer
370
-1
48
1
60
0
100
AcDbLine
10
-0.7875
20
15.996
30
0
11
-58.5
21
15.996
31
0
39
0
210
0
220
0
230
1
0
LINE
5
55
100
AcDbEntity
8
SK1
62
256
6
ByLayer
370
-1
48
1
60
0
100
AcDbLine
10
-58.5
20
-15.996
30
0
11
-0.7875
21
-15.996
31
0
39
0
210
0
220
0
230
1
0
LINE
5
56
100
AcDbEntity
8
SK1
62
256
6
ByLayer
370
-1
48
1
60
0
100
AcDbLine
10
-58.5
20
15.996
30
0
11
-60
21
14.496
31
0
39
0
210
0
220
0
230
1
0
LINE
5
57
100
AcDbEntity
8
SK1
62
256
6
ByLayer
370
-1
48
1
60
0
100
AcDbLine
10
-60
20
-14.496
30
0
11
-58.5
21
-15.996
31
0
39
0
210
0
220
0
230
1
0
LINE
5
58
100
AcDbEntity
8
81
62
256
6
ByLayer
370
-1
48
1
60
0
100
AcDbLine
10
50.0125
20
19.88
30
0
11
61.01375
21
19.88
31
0
39
0
210
0
220
0
230
1
0
LINE
5
59
100
AcDbEntity
8
4
62
256
6
ByLayer
370
-1
48
0.05
60
0
100
AcDbLine
10
-24.4875
20
0
30
0
11
50.0125
21
0
31
0
39
0
210
0
220
0
230
1
0
LINE
5
5B
100
AcDbEntity
8
80
62
256
6
ByLayer
370
-1
48
1
60
0
100
AcDbLine
10
0
20
0
30
0
11
-10
21
0
31
0
39
0
210
0
220
0
230
1
0
LINE
5
5C
100
AcDbEntity
8
SK4
62
256
6
ByLayer
370
-1
48
0.05
60
0
100
AcDbLine
10
60.0125
20
0
30
0
11
-70
21
0
31
0
39
0
210
0
220
0
230
1
0
LINE
5
5E
100
AcDbEntity
8
1
62
256
6
ByLayer
370
-1
48
1
60
0
100
AcDbLine
10
31.417814
20
-17.888721
30
0
11
31.417814
21
9.093216
31
0
39
0
210
0
220
0
230
1
0
LINE
5
5F
100
AcDbEntity
8
1
62
256
6
ByLayer
370
-1
48
1
60
0
100
AcDbLine
10
47.964807
20
-18.528101
30
0
11
47.964807
21
-16.134818
31
0
39
0
210
0
220
0
230
1
0
LINE
5
60
100
AcDbEntity
8
1
62
256
6
ByLayer
370
-1
48
1
60
0
100
AcDbLine
10
48.765918
20
4.049697
30
0
11
48.765918
21
-17.862763
31
0
39
0
210
0
220
0
230
1
0
LINE
5
61
100
AcDbEntity
8
1
62
256
6
ByLayer
370
-1
48
1
60
0
100
AcDbLine
10
36.389738
20
9.823244
30
0
11
36.927357
21
10.147962
31
0
39
0
210
0
220
0
230
1
0
LINE
5
62
100
AcDbEntity
8
1
62
256
6
ByLayer
370
-1
48
1
60
0
100
AcDbLine
10
33.282042
20
17.639123
30
0
11
33.274708
21
17.400726
31
0
39
0
210
0
220
0
230
1
0
LINE
5
63
100
AcDbEntity
8
1
62
256
6
ByLayer
370
-1
48
1
60
0
100
AcDbLine
10
48.7698
20
10.393969
30
0
11
48.7698
21
9.528857
31
0
39
0
210
0
220
0
230
1
0
LINE
5
64
100
AcDbEntity
8
1
62
256
6
ByLayer
370
-1
48
1
60
0
100
AcDbLine
10
32.276665
20
9.387043
30
0
11
28.570481
21
9.446457
31
0
39
0
210
0
220
0
230
1
0
LINE
5
65
100
AcDbEntity
8
1
62
256
6
ByLayer
370
-1
48
1
60
0
100
AcDbLine
10
35.414945
20
-17.442069
30
0
11
35.414945
21
-15.555113
31
0
39
0
210
0
220
0
230
1
0
LINE
5
66
100
AcDbEntity
8
1
62
256
6
ByLayer
370
-1
48
1
60
0
100
AcDbLine
10
48.623354
20
9.950408
30
0
11
48.623354
21
10.382765
31
0
39
0
210
0
220
0
230
1
0
LINE
5
67
100
AcDbEntity
8
1
62
256
6
ByLayer
370
-1
48
1
60
0
100
AcDbLine
10
48.216437
20
10.36361
30
0
11
48.216437
21
9.925358
31
0
39
0
210
0
220
0
230
1
0
LINE
5
68
100
AcDbEntity
8
1
62
256
6
ByLayer
370
-1
48
1
60
0
100
AcDbLine
10
32.780325
20
13.091187
30
0
11
32.480404
21
12.864139
31
0
39
0
210
0
220
0
230
1
0
LINE
5
69
100
AcDbEntity
8
1
62
256
6
ByLayer
370
-1
48
1
60
0
100
AcDbLine
10
45.089035
20
-15.03402
30
0
11
45.089035
21
-13.881191
31
0
39
0
210
0
220
0
230
1
0
LINE
5
6A
100
AcDbEntity
8
1
62
256
6
ByLayer
370
-1
48
1
60
0
100
AcDbLine
10
0.0125
20
-18.04011
30
0
11
0.0125
21
18.04011
31
0
39
0
210
0
220
0
230
1
0
LINE
5
6B
100
AcDbEntity
8
1
62
256
6
ByLayer
370
-1
48
1
60
0
100
AcDbLine
10
32.480404
20
12.864139
30
0
11
32.654995
21
13.017729
31
0
39
0
210
0
220
0
230
1
0
LINE
5
6C
100
AcDbEntity
8
1
62
256
6
ByLayer
370
-1
48
1
60
0
100
AcDbLine
10
35.530973
20
-15.860088
30
0
11
35.530973
21
-17.454456
31
0
39
0
210
0
220
0
230
1
0
LINE
5
6D
100
AcDbEntity
8
1
62
256
6
ByLayer
370
-1
48
1
60
0
100
AcDbLine
10
32.191273
20
9.566279
30
0
11
33.082512
21
10.240969
31
0
39
0
210
0
220
0
230
1
0
LINE
5
6E
100
AcDbEntity
8
1
62
256
6
ByLayer
370
-1
48
1
60
0
100
AcDbLine
10
31.60457
20
8.909988
30
0
11
31.60457
21
-17.913666
31
0
39
0
210
0
220
0
230
1
0
LINE
5
6F
100
AcDbEntity
8
1
62
256
6
ByLayer
370
-1
48
1
60
0
100
AcDbLine
10
48.069991
20
10.264013
30
0
11
48.069991
21
9.916407
31
0
39
0
210
0
220
0
230
1
0
LINE
5
70
100
AcDbEntity
8
1
62
256
6
ByLayer
370
-1
48
1
60
0
100
AcDbLine
10
48.069991
20
10.345675
30
0
11
48.069991
21
10.264013
31
0
39
0
210
0
220
0
230
1
0
LINE
5
71
100
AcDbEntity
8
1
62
256
6
ByLayer
370
-1
48
1
60
0
100
AcDbLine
10
45.335882
20
-13.754499
30
0
11
45.089035
21
-13.881191
31
0
39
0
210
0
220
0
230
1
0
LINE
5
72
100
AcDbEntity
8
1
62
256
6
ByLayer
370
-1
48
1
60
0
100
AcDbLine
10
0.3125
20
18.34011
30
0
11
0.3125
21
-18.34011
31
0
39
0
210
0
220
0
230
1
0
LINE
5
73
100
AcDbEntity
8
1
62
256
6
ByLayer
370
-1
48
1
60
0
100
AcDbLine
10
35.487841
20
9.140486
30
0
11
36.389738
21
9.823244
31
0
39
0
210
0
220
0
230
1
0
LINE
5
74
100
AcDbEntity
8
1
62
256
6
ByLayer
370
-1
48
1
60
0
100
AcDbLine
10
0
20
16.655132
30
0
11
0
21
-16.655132
31
0
39
0
210
0
220
0
230
1
0
LINE
5
75
100
AcDbEntity
8
1
62
256
6
ByLayer
370
-1
48
1
60
0
100
AcDbLine
10
35.961047
20
9.402226
30
0
11
48.069991
21
10.264013
31
0
39
0
210
0
220
0
230
1
0
LINE
5
76
100
AcDbEntity
8
1
62
256
6
ByLayer
370
-1
48
1
60
0
100
AcDbLine
10
48.7698
20
-12.835394
30
0
11
48.7698
21
9.514473
31
0
39
0
210
0
220
0
230
1
0
LINE
5
77
100
AcDbEntity
8
1
62
256
6
ByLayer
370
-1
48
1
60
0
100
AcDbLine
10
41.595949
20
10.173662
30
0
11
41.454913
21
9.906466
31
0
39
0
210
0
220
0
230
1
0
LINE
5
78
100
AcDbEntity
8
SK1
62
256
6
ByLayer
370
-1
48
1
60
0
100
AcDbLine
10
-17.41664
20
-7.98342
30
0
11
-17.41664
21
7.98342
31
0
39
0
210
0
220
0
230
1
0
LINE
5
79
100
AcDbEntity
8
SK1
62
256
6
ByLayer
370
-1
48
1
60
0
100
AcDbLine
10
-60
20
4.425336
30
0
11
-60
21
-4.425336
31
0
39
0
210
0
220
0
230
1
0
LINE
5
7A
100
AcDbEntity
8
SK1
62
256
6
ByLayer
370
-1
48
1
60
0
100
AcDbLine
10
-17.556822
20
-8.082178
30
0
11
-17.556822
21
8.082178
31
0
39
0
210
0
220
0
230
1
0
LINE
5
7B
100
AcDbEntity
8
SK1
62
256
6
ByLayer
370
-1
48
1
60
0
100
AcDbLine
10
-31.55836
20
-7.98342
30
0
11
-31.55836
21
7.98342
31
0
39
0
210
0
220
0
230
1
0
LINE
5
7C
100
AcDbEntity
8
SK1
62
256
6
ByLayer
370
-1
48
1
60
0
100
AcDbLine
10
-40.44164
20
-7.98342
30
0
11
-40.44164
21
7.98342
31
0
39
0
210
0
220
0
230
1
0
LINE
5
7D
100
AcDbEntity
8
SK1
62
256
6
ByLayer
370
-1
48
1
60
0
100
AcDbLine
10
-31.418178
20
-8.082178
30
0
11
-17.556822
21
-8.082178
31
0
39
0
210
0
220
0
230
1
0
LINE
5
7E
100
AcDbEntity
8
SK1
62
256
6
ByLayer
370
-1
48
1
60
0
100
AcDbLine
10
-40.581822
20
8.082178
30
0
11
-58.5
21
8.082178
31
0
39
0
210
0
220
0
230
1
0
LINE
5
7F
100
AcDbEntity
8
SK1
62
256
6
ByLayer
370
-1
48
1
60
0
100
AcDbLine
10
-31.418178
20
-8.082178
30
0
11
-31.418178
21
8.082178
31
0
39
0
210
0
220
0
230
1
0
LINE
5
80
100
AcDbEntity
8
SK1
62
256
6
ByLayer
370
-1
48
1
60
0
100
AcDbLine
10
0
20
16.655132
30
0
11
0
21
-16.655132
31
0
39
0
210
0
220
0
230
1
0
LINE
5
81
100
AcDbEntity
8
SK1
62
256
6
ByLayer
370
-1
48
1
60
0
100
AcDbLine
10
-58.5
20
-8.082178
30
0
11
-58.5
21
-15.996
31
0
39
0
210
0
220
0
230
1
0
LINE
5
82
100
AcDbEntity
8
SK1
62
256
6
ByLayer
370
-1
48
1
60
0
100
AcDbLine
10
-58.5
20
15.996
30
0
11
-58.5
21
8.082178
31
0
39
0
210
0
220
0
230
1
0
LINE
5
83
100
AcDbEntity
8
SK1
62
256
6
ByLayer
370
-1
48
1
60
0
100
AcDbLine
10
-60
20
4.425336
30
0
11
-60
21
14.496
31
0
39
0
210
0
220
0
230
1
0
LINE
5
84
100
AcDbEntity
8
SK1
62
256
6
ByLayer
370
-1
48
1
60
0
100
AcDbLine
10
-60
20
-14.496
30
0
11
-60
21
-4.425336
31
0
39
0
210
0
220
0
230
1
0
LINE
5
85
100
AcDbEntity
8
SK1
62
256
6
ByLayer
370
-1
48
1
60
0
100
AcDbLine
10
-0.7875
20
-15.996
30
0
11
-0.7875
21
15.996
31
0
39
0
210
0
220
0
230
1
0
LINE
5
86
100
AcDbEntity
8
SK1
62
256
6
ByLayer
370
-1
48
1
60
0
100
AcDbLine
10
-58.5
20
-8.082178
30
0
11
-40.581822
21
-8.082178
31
0
39
0
210
0
220
0
230
1
0
LINE
5
87
100
AcDbEntity
8
SK1
62
256
6
ByLayer
370
-1
48
1
60
0
100
AcDbLine
10
-40.581822
20
-8.082178
30
0
11
-40.581822
21
8.082178
31
0
39
0
210
0
220
0
230
1
0
LINE
5
88
100
AcDbEntity
8
SK1
62
256
6
ByLayer
370
-1
48
1
60
0
100
AcDbLine
10
-17.556822
20
8.082178
30
0
11
-31.418178
21
8.082178
31
0
39
0
210
0
220
0
230
1
0
LINE
5
89
100
AcDbEntity
8
1
62
256
6
ByLayer
370
-1
48
1
60
0
100
AcDbLine
10
41.418638
20
16.120884
30
0
11
41.609607
21
16.022871
31
0
39
0
210
0
220
0
230
1
0
LINE
5
8A
100
AcDbEntity
8
1
62
256
6
ByLayer
370
-1
48
1
60
0
100
AcDbLine
10
40.727524
20
15.928299
30
0
11
40.50967
21
16.040111
31
0
39
0
210
0
220
0
230
1
0
LINE
5
8B
100
AcDbEntity
8
1
62
256
6
ByLayer
370
-1
48
1
60
0
100
AcDbLine
10
40.25097
20
15.084862
30
0
11
40.033116
21
15.196675
31
0
39
0
210
0
220
0
230
1
0
LINE
5
8C
100
AcDbEntity
8
1
62
256
6
ByLayer
370
-1
48
1
60
0
100
AcDbLine
10
40.727524
20
13.693629
30
0
11
40.50967
21
13.805442
31
0
39
0
210
0
220
0
230
1
0
LINE
5
8D
100
AcDbEntity
8
1
62
256
6
ByLayer
370
-1
48
1
60
0
100
AcDbLine
10
42.083699
20
13.480502
30
0
11
41.955294
21
13.546405
31
0
39
0
210
0
220
0
230
1
0
LINE
5
8E
100
AcDbEntity
8
1
62
256
6
ByLayer
370
-1
48
1
60
0
100
AcDbLine
10
42.17286
20
16.228987
30
0
11
41.955294
21
16.340652
31
0
39
0
210
0
220
0
230
1
0
LINE
5
8F
100
AcDbEntity
8
1
62
256
6
ByLayer
370
-1
48
1
60
0
100
AcDbLine
10
43.003722
20
15.192567
30
0
11
42.914538
21
15.238341
31
0
39
0
210
0
220
0
230
1
0
LINE
5
90
100
AcDbEntity
8
1
62
256
6
ByLayer
370
-1
48
1
60
0
100
AcDbLine
10
41.773754
20
16.025244
30
0
11
41.582785
21
16.123258
31
0
39
0
210
0
220
0
230
1
0
MTEXT
5
130
100
AcDbEntity
8
SK6
62
256
6
ByLayer
370
-1
48
1
60
0
100
AcDbMText
10
-59.126614
20
-30.938367
30
0
210
0
220
0
230
1
1
\W00.729;\fsimplex.shx,bigfont.shx;R390-040B32-17L\P
40
3.5
41
0
44
1.084337
50
0
71
7
72
5
7
DEFAULT
0
DIMENSION
5
141
100
AcDbEntity
8
2
62
256
6
ByLayer
370
-3
48
1
60
0
100
AcDbDimension
2
DimnDraft3D1
10
0.0125
20
39.75
30
0
11
21.678947
21
39.75
31
0
70
32
71
5
72
1
41
1
210
0
220
0
230
1
3
Standard
100
AcDbAlignedDimension
13
50.0125
23
22
33
0
14
0.0125
24
20.34011
34
0
50
0
100
AcDbRotatedDimension
1001
ACAD
1000
DSTYLE
1002
{
1070
   279
1070
     0
1070
   172
1070
     1
1070
   173
1070
     1
1070
   340
1005
131
1070
   271
1070
     2
1070
   272
1070
     2
1070
    77
1070
     1
1070
    73
1070
     0
1070
   171
1070
     4
1070
   274
1070
     4
1070
   177
1070
     2
1070
   176
1070
     2
1070
   178
1070
     7
1070
    78
1070
     8
1070
    41
1041
3.175
1070
   147
1041
2.25
1070
    42
1041
2.0
1070
    44
1041
2.0
1070
   140
1041
4.5
1070
   343
1005
142
1070
   344
1005
142
1002
}
0
DIMENSION
5
156
100
AcDbEntity
8
SK2
62
256
6
ByLayer
370
-3
48
1
60
0
100
AcDbDimension
2
DimnDraft3D2
10
-24.4875
20
49.75
30
0
11
6.139803
21
49.75
31
0
70
32
71
5
72
1
41
1
210
0
220
0
230
1
3
Standard
100
AcDbAlignedDimension
13
50.0125
23
22
33
0
14
-24.4875
24
17.996
34
0
50
0
100
AcDbRotatedDimension
1001
ACAD
1000
DSTYLE
1002
{
1070
   279
1070
     0
1070
   172
1070
     1
1070
   173
1070
     1
1070
   340
1005
131
1070
   271
1070
     2
1070
   272
1070
     2
1070
    77
1070
     1
1070
    73
1070
     0
1070
   171
1070
     4
1070
   274
1070
     4
1070
   177
1070
     2
1070
   176
1070
     2
1070
   178
1070
     7
1070
    78
1070
     8
1070
    41
1041
3.175
1070
   147
1041
2.25
1070
    42
1041
2.0
1070
    44
1041
2.0
1070
   140
1041
4.5
1070
   343
1005
142
1070
   344
1005
142
1002
}
0
DIMENSION
5
164
100
AcDbEntity
8
SK2
62
256
6
ByLayer
370
-3
48
1
60
0
100
AcDbDimension
2
DimnDraft3D3
10
-60
20
59.75
30
0
11
-11.782237
21
59.75
31
0
70
32
71
5
72
1
41
1
210
0
220
0
230
1
3
Standard
100
AcDbAlignedDimension
13
50.0125
23
22
33
0
14
-60
24
17.996
34
0
50
0
100
AcDbRotatedDimension
1001
ACAD
1000
DSTYLE
1002
{
1070
   279
1070
     0
1070
   172
1070
     1
1070
   173
1070
     1
1070
   340
1005
131
1070
   271
1070
     2
1070
   272
1070
     2
1070
    77
1070
     1
1070
    73
1070
     0
1070
   171
1070
     4
1070
   274
1070
     4
1070
   177
1070
     2
1070
   176
1070
     2
1070
   178
1070
     7
1070
    78
1070
     8
1070
    41
1041
3.175
1070
   147
1041
2.25
1070
    42
1041
2.0
1070
    44
1041
2.0
1070
   140
1041
4.5
1070
   343
1005
142
1070
   344
1005
142
1002
}
0
DIMENSION
5
172
100
AcDbEntity
8
2
62
256
6
ByLayer
370
-3
48
1
60
0
100
AcDbDimension
2
DimnDraft3D4
10
33.8125
20
29.75
30
0
11
55.0125
21
29.75
31
0
70
32
71
5
72
1
41
1
210
0
220
0
230
1
3
Standard
100
AcDbAlignedDimension
13
50.0125
23
22
33
0
14
33.8125
24
22
34
0
50
0
100
AcDbRotatedDimension
1001
ACAD
1000
DSTYLE
1002
{
1070
   279
1070
     0
1070
   172
1070
     1
1070
   173
1070
     1
1070
   340
1005
131
1070
   271
1070
     2
1070
   272
1070
     2
1070
    77
1070
     1
1070
    73
1070
     0
1070
   171
1070
     4
1070
   274
1070
     4
1070
   177
1070
     2
1070
   176
1070
     2
1070
   178
1070
     7
1070
    78
1070
     8
1070
    41
1041
3.175
1070
   147
1041
2.25
1070
    42
1041
2.0
1070
    44
1041
2.0
1070
   140
1041
4.5
1070
   343
1005
142
1070
   344
1005
142
1002
}
0
DIMENSION
5
180
100
AcDbEntity
8
SK2
62
256
6
ByLayer
370
-3
48
1
60
0
100
AcDbDimension
2
DimnDraft3D5
10
-69.75
20
-15.996
30
0
11
-69.75
21
-6.01727
31
0
70
32
71
5
72
1
41
1
210
0
220
0
230
1
3
Standard
100
AcDbAlignedDimension
13
-62
23
15.996
33
0
14
-62
24
-15.996
34
0
50
90
100
AcDbRotatedDimension
1001
ACAD
1000
DSTYLE
1002
{
1070
    74
1070
     0
1070
   279
1070
     0
1070
   172
1070
     1
1070
   173
1070
     1
1070
   340
1005
131
1070
   271
1070
     2
1070
   272
1070
     2
1070
    77
1070
     1
1070
    73
1070
     0
1070
   171
1070
     4
1070
   274
1070
     4
1070
   177
1070
     2
1070
   176
1070
     2
1070
   178
1070
     7
1070
    78
1070
     8
1070
    41
1041
3.175
1070
   147
1041
2.25
1070
    42
1041
2.0
1070
    44
1041
2.0
1070
   140
1041
4.5
1070
   343
1005
142
1070
   344
1005
142
1002
}
0
DIMENSION
5
18E
100
AcDbEntity
8
2
62
256
6
ByLayer
370
-3
48
1
60
0
100
AcDbDimension
2
DimnDraft3D6
10
64.2625
20
-20
30
0
11
64.2625
21
-6.337007
31
0
70
32
71
5
72
1
41
1
210
0
220
0
230
1
3
Standard
100
AcDbAlignedDimension
13
52.0125
23
20
33
0
14
52.0125
24
-20
34
0
50
90
100
AcDbRotatedDimension
1001
ACAD
1000
DSTYLE
1002
{
1070
    74
1070
     0
1070
   279
1070
     0
1070
   172
1070
     1
1070
   173
1070
     1
1070
   340
1005
131
1070
   271
1070
     2
1070
   272
1070
     2
1070
    77
1070
     1
1070
    73
1070
     0
1070
   171
1070
     4
1070
   274
1070
     4
1070
   177
1070
     2
1070
   176
1070
     2
1070
   178
1070
     7
1070
    78
1070
     8
1070
    41
1041
3.175
1070
   147
1041
2.25
1070
    42
1041
2.0
1070
    44
1041
2.0
1070
   140
1041
4.5
1070
   343
1005
142
1070
   344
1005
142
1002
}
0
ENDSEC
0
SECTION
2
OBJECTS
0
DICTIONARY
5
1dd
330
0
100
AcDbDictionary
280
0
281
1
3
ACAD_GROUP
350
1de
3
ACAD_MLINESTYLE
350
1df
0
DICTIONARY
5
1de
330
0
100
AcDbDictionary
280
0
281
1
0
DICTIONARY
5
1df
330
0
100
AcDbDictionary
280
0
281
1
3
Standard
350
18
0
MLINESTYLE
5
18
330
1df
100
AcDbMlineStyle
2
Standard
70
0
3

62
256
51
90
52
90
71
2
49
-0.5
62
256
6
ByLayer
49
0.5
62
256
6
ByLayer
0
RASTERVARIABLES
5
1cb
330

100
AcDbRasterVariables
90
0
70
1
71
1
72
1
0
ENDSEC
0
EOF
