0
SECTION
2
HEADER
9
$ACADVER
1
AC1015
9
$DWGCODEPAGE
3
ANSI_1252
9
$HANDSEED
5
1c9
9
$ANGBASE
50
0
9
$ANGDIR
70
0
9
$ATTMODE
70
1
9
$AUNITS
70
0
9
$AUPREC
70
0
9
$CECOLOR
62
256
9
$CELTSCALE
40
1
9
$CELTYPE
6
ByLayer
9
$CELWEIGHT
370
-1
9
$CLAYER
8
0
9
$CMLJUST
70
0
9
$CMLSCALE
40
1
9
$CMLSTYLE
2
Standard
9
$DIMSTYLE
2
Standard
9
$TEXTSIZE
40
0.2
9
$TEXTSTYLE
7
Standard
9
$LUNITS
70
2
9
$LUPREC
70
4
9
$EXTNAMES
290
1
9
$INSUNITS
70
4
9
$LTSCALE
40
1
9
$LWDISPLAY
290
0
9
$PDMODE
70
0
9
$PDSIZE
40
0
9
$PLINEGEN
70
0
0
ENDSEC
0
SECTION
2
CLASSES
0
CLASS
1
RASTERVARIABLES
2
AcDbRasterVariables
3
ISM
90
0
280
0
281
0
0
ENDSEC
0
SECTION
2
TABLES
0
TABLE
2
VPORT
5
1bf
100
AcDbSymbolTable
0
VPORT
5
1
100
AcDbSymbolTableRecord
100
AcDbViewportTableRecord
2
*Active
70
0
10
0
20
0
11
1
21
1
12
-1
22
1
13
0
23
0
14
0.5
24
0.5
15
10
25
10
16
0
26
0
36
1
17
0
27
0
37
0
0
ENDTAB
0
TABLE
2
LTYPE
5
1c0
100
AcDbSymbolTable
0
LTYPE
5
14
100
AcDbSymbolTableRecord
100
AcDbLinetypeTableRecord
70
0
2
ByBlock
3

72
65
73
0
40
0
0
LTYPE
5
15
100
AcDbSymbolTableRecord
100
AcDbLinetypeTableRecord
70
0
2
ByLayer
3

72
65
73
0
40
0
0
LTYPE
5
16
100
AcDbSymbolTableRecord
100
AcDbLinetypeTableRecord
70
0
2
CONTINUOUS
3
Solid line
72
65
73
0
40
0
0
LTYPE
5
3C
100
AcDbSymbolTableRecord
100
AcDbLinetypeTableRecord
70
0
2
DASHED
3
__ __ __ __ __ __ __ __ __
72
65
73
2
40
25.72
49
12.86
74
0
49
-12.86
74
0
0
LTYPE
5
3D
100
AcDbSymbolTableRecord
100
AcDbLinetypeTableRecord
70
0
2
HIDDEN
3
_ _ _ _ _ _ _ _ _ _ _ _ _ _ _
72
65
73
2
40
0.5
49
0.25
74
0
49
-0.25
74
0
0
LTYPE
5
3E
100
AcDbSymbolTableRecord
100
AcDbLinetypeTableRecord
70
0
2
PHANTOM
3
____ _ _ ____ _ _ _____ _ _ ____
72
65
73
6
40
50.5
49
18
74
0
49
-6.5
74
0
49
6.5
74
0
49
-6.5
74
0
49
6.5
74
0
49
-6.5
74
0
0
LTYPE
5
3F
100
AcDbSymbolTableRecord
100
AcDbLinetypeTableRecord
70
0
2
CENTER
3
____ _ ____ _ ____ _ ____
72
65
73
4
40
47.5
49
22
74
0
49
-8.5
74
0
49
8.5
74
0
49
-8.5
74
0
0
LTYPE
5
40
100
AcDbSymbolTableRecord
100
AcDbLinetypeTableRecord
70
0
2
DOT
3
.........................
72
65
73
2
40
10
49
0
74
0
49
-10
74
0
0
LTYPE
5
41
100
AcDbSymbolTableRecord
100
AcDbLinetypeTableRecord
70
0
2
DASHDOT
3
_._._._._._._._._._._._._._._._.
72
65
73
4
40
70
49
31
74
0
49
-13
74
0
49
13
74
0
49
-13
74
0
0
ENDTAB
0
TABLE
2
LAYER
5
1c1
100
AcDbSymbolTable
0
LAYER
5
10
100
AcDbSymbolTableRecord
100
AcDbLayerTableRecord
2
0
70
0
62
7
6
CONTINUOUS
290
1
370
-3
390
0
0
LAYER
5
43
100
AcDbSymbolTableRecord
100
AcDbLayerTableRecord
2
81
70
0
62
-3
6
CONTINUOUS
290
1
370
-3
390
0
0
LAYER
5
47
100
AcDbSymbolTableRecord
100
AcDbLayerTableRecord
2
80
70
0
62
-6
6
CONTINUOUS
290
1
370
-3
390
0
0
LAYER
5
49
100
AcDbSymbolTableRecord
100
AcDbLayerTableRecord
2
2
70
0
62
7
6
CONTINUOUS
290
1
370
-3
390
0
0
LAYER
5
4F
100
AcDbSymbolTableRecord
100
AcDbLayerTableRecord
2
4
70
0
62
-2
6
CENTER
290
1
370
-3
390
0
0
LAYER
5
51
100
AcDbSymbolTableRecord
100
AcDbLayerTableRecord
2
1
70
0
62
4
6
CONTINUOUS
290
1
370
-3
390
0
0
LAYER
5
1ab
100
AcDbSymbolTableRecord
100
AcDbLayerTableRecord
2
SK2
70
0
62
7
6
CONTINUOUS
290
1
370
-3
390
0
0
LAYER
5
1ac
100
AcDbSymbolTableRecord
100
AcDbLayerTableRecord
2
SK4
70
0
62
2
6
CENTER
290
1
370
-3
390
0
0
LAYER
5
1ad
100
AcDbSymbolTableRecord
100
AcDbLayerTableRecord
2
SK1
70
0
62
4
6
CONTINUOUS
290
1
370
-3
390
0
0
LAYER
5
1ae
100
AcDbSymbolTableRecord
100
AcDbLayerTableRecord
2
SK6
70
0
62
5
6
CONTINUOUS
290
1
370
-3
390
0
0
ENDTAB
0
TABLE
2
STYLE
5
1c2
100
AcDbSymbolTable
0
STYLE
5
11
100
AcDbSymbolTableRecord
100
AcDbTextStyleTableRecord
2
Standard
3
txt
70
0
71
0
40
0
41
1
42
0
50
0
0
STYLE
5
12C
100
AcDbSymbolTableRecord
100
AcDbTextStyleTableRecord
2
DEFAULT
3
simplex.shx
70
0
71
0
40
0
41
1
42
0
50
0
0
STYLE
5
12D
100
AcDbSymbolTableRecord
100
AcDbTextStyleTableRecord
2
DWGDirectTextStyle
3
SIMPLEX
70
0
71
0
40
0
41
1
42
0
50
0
0
ENDTAB
0
TABLE
2
DIMSTYLE
5
1c3
100
AcDbSymbolTable
100
AcDbDimStyleTable
0
DIMSTYLE
105
27
100
AcDbSymbolTableRecord
100
AcDbDimStyleTableRecord
2
Standard
70
0
3
<>
41
0.18
42
0.0625
44
0.18
140
0.18
147
0.09
73
0
74
0
77
1
271
2
275
0
278
52
280
0
340
11
0
ENDTAB
0
TABLE
2
VIEW
5
1c4
100
AcDbSymbolTable
0
ENDTAB
0
TABLE
2
UCS
5
1c5
100
AcDbSymbolTable
0
ENDTAB
0
TABLE
2
APPID
5
1c6
100
AcDbSymbolTable
0
APPID
5
12
100
AcDbSymbolTableRecord
100
AcDbRegAppTableRecord
2
ACAD
70
0
0
ENDTAB
0
TABLE
2
BLOCK_RECORD
5
1c7
100
AcDbSymbolTable
0
BLOCK_RECORD
5
1F
100
AcDbSymbolTableRecord
100
AcDbBlockTableRecord
2
*Model_Space
340
0
70
0
0
BLOCK_RECORD
5
1B
100
AcDbSymbolTableRecord
100
AcDbBlockTableRecord
2
*Paper_Space
340
0
70
0
0
BLOCK_RECORD
5
23
100
AcDbSymbolTableRecord
100
AcDbBlockTableRecord
2
*Paper_Space0
340
0
70
0
0
BLOCK_RECORD
5
12F
100
AcDbSymbolTableRecord
100
AcDbBlockTableRecord
2
DimnDraft3D1
340
0
70
0
0
BLOCK_RECORD
5
13D
100
AcDbSymbolTableRecord
100
AcDbBlockTableRecord
2
_CLOSED
340
0
70
0
0
BLOCK_RECORD
5
144
100
AcDbSymbolTableRecord
100
AcDbBlockTableRecord
2
DimnDraft3D2
340
0
70
0
0
BLOCK_RECORD
5
152
100
AcDbSymbolTableRecord
100
AcDbBlockTableRecord
2
DimnDraft3D3
340
0
70
0
0
BLOCK_RECORD
5
160
100
AcDbSymbolTableRecord
100
AcDbBlockTableRecord
2
DimnDraft3D4
340
0
70
0
0
ENDTAB
0
ENDSEC
0
SECTION
2
BLOCKS
0
BLOCK
5
20
100
AcDbEntity
8
0
100
AcDbBlockBegin
2
*Model_Space
70
0
10
0
20
0
30
0
3
*Model_Space
0
ENDBLK
5
21
100
AcDbEntity
8
0
100
AcDbBlockEnd
0
BLOCK
5
1C
100
AcDbEntity
8
0
100
AcDbBlockBegin
2
*Paper_Space
70
0
10
0
20
0
30
0
3
*Paper_Space
0
ENDBLK
5
1D
100
AcDbEntity
8
0
100
AcDbBlockEnd
0
BLOCK
5
24
100
AcDbEntity
8
0
100
AcDbBlockBegin
2
*Paper_Space0
70
0
10
0
20
0
30
0
3
*Paper_Space0
0
ENDBLK
5
25
100
AcDbEntity
8
0
100
AcDbBlockEnd
0
BLOCK
5
13A
100
AcDbEntity
8
0
100
AcDbBlockBegin
2
DimnDraft3D1
70
0
10
0
20
0
30
0
3
DimnDraft3D1
0
MTEXT
5
130
100
AcDbEntity
8
SK2
62
256
6
ByLayer
370
-1
48
1
60
0
100
AcDbMText
10
5.865461
20
46.875
30
0
210
0
220
0
230
1
1
\W01.000;\fsimplex.shx,bigfont.shx;64\P
40
4.5
41
0
44
1.084337
50
0
71
7
72
5
7
DEFAULT
0
LINE
5
131
100
AcDbEntity
8
SK2
62
256
6
ByLayer
370
-1
48
1
60
0
100
AcDbLine
10
40
20
18
30
0
11
40
21
47.75
31
0
39
0
210
0
220
0
230
1
0
LINE
5
132
100
AcDbEntity
8
SK2
62
256
6
ByLayer
370
-1
48
1
60
0
100
AcDbLine
10
-24
20
14.1
30
0
11
-24
21
47.75
31
0
39
0
210
0
220
0
230
1
0
LINE
5
133
100
AcDbEntity
8
SK2
62
256
6
ByLayer
370
-1
48
1
60
0
100
AcDbLine
10
40
20
45.75
30
0
11
-24
21
45.75
31
0
39
0
210
0
220
0
230
1
0
LINE
5
134
100
AcDbEntity
8
SK2
62
256
6
ByLayer
370
-1
48
1
60
0
100
AcDbLine
10
40
20
45.75
30
0
11
36.825002
21
45.332003
31
0
39
0
210
0
220
0
230
1
0
LINE
5
135
100
AcDbEntity
8
SK2
62
256
6
ByLayer
370
-1
48
1
60
0
100
AcDbLine
10
40
20
45.75
30
0
11
36.824998
21
46.167997
31
0
39
0
210
0
220
0
230
1
0
LINE
5
136
100
AcDbEntity
8
SK2
62
256
6
ByLayer
370
-1
48
1
60
0
100
AcDbLine
10
36.825002
20
45.332003
30
0
11
36.824998
21
46.167997
31
0
39
0
210
0
220
0
230
1
0
LINE
5
137
100
AcDbEntity
8
SK2
62
256
6
ByLayer
370
-1
48
1
60
0
100
AcDbLine
10
-24
20
45.75
30
0
11
-20.825002
21
46.167997
31
0
39
0
210
0
220
0
230
1
0
LINE
5
138
100
AcDbEntity
8
SK2
62
256
6
ByLayer
370
-1
48
1
60
0
100
AcDbLine
10
-24
20
45.75
30
0
11
-20.824998
21
45.332003
31
0
39
0
210
0
220
0
230
1
0
LINE
5
139
100
AcDbEntity
8
SK2
62
256
6
ByLayer
370
-1
48
1
60
0
100
AcDbLine
10
-20.825002
20
46.167997
30
0
11
-20.824998
21
45.332003
31
0
39
0
210
0
220
0
230
1
0
ENDBLK
5
13B
100
AcDbEntity
8
0
100
AcDbBlockEnd
0
BLOCK
5
13E
100
AcDbEntity
8
0
100
AcDbBlockBegin
2
_CLOSED
70
0
10
0
20
0
30
0
3
_CLOSED
0
LINE
5
140
100
AcDbEntity
8
0
62
256
6
ByLayer
370
-2
48
1
60
0
100
AcDbLine
10
-1
20
0.166667
30
0
11
0
21
0
31
0
39
0
210
0
220
0
230
1
0
LINE
5
141
100
AcDbEntity
8
0
62
256
6
ByLayer
370
-2
48
1
60
0
100
AcDbLine
10
0
20
0
30
0
11
-1
21
-0.166667
31
0
39
0
210
0
220
0
230
1
0
LINE
5
142
100
AcDbEntity
8
0
62
256
6
ByLayer
370
-2
48
1
60
0
100
AcDbLine
10
-1
20
0.166667
30
0
11
-1
21
-0.166667
31
0
39
0
210
0
220
0
230
1
0
LINE
5
143
100
AcDbEntity
8
0
62
256
6
ByLayer
370
-2
48
1
60
0
100
AcDbLine
10
0
20
0
30
0
11
-1
21
0
31
0
39
0
210
0
220
0
230
1
0
ENDBLK
5
13F
100
AcDbEntity
8
0
100
AcDbBlockEnd
0
BLOCK
5
14F
100
AcDbEntity
8
0
100
AcDbBlockBegin
2
DimnDraft3D2
70
0
10
0
20
0
30
0
3
DimnDraft3D2
0
MTEXT
5
145
100
AcDbEntity
8
2
62
256
6
ByLayer
370
-1
48
1
60
0
100
AcDbMText
10
46.51875
20
26.875
30
0
210
0
220
0
230
1
1
\W01.000;\fsimplex.shx,bigfont.shx;15.7\P
40
4.5
41
0
44
1.084337
50
0
71
7
72
5
7
DEFAULT
0
LINE
5
146
100
AcDbEntity
8
2
62
256
6
ByLayer
370
-1
48
1
60
0
100
AcDbLine
10
40
20
18
30
0
11
40
21
27.75
31
0
39
0
210
0
220
0
230
1
0
LINE
5
147
100
AcDbEntity
8
2
62
256
6
ByLayer
370
-1
48
1
60
0
100
AcDbLine
10
23.8
20
18
30
0
11
23.8
21
27.75
31
0
39
0
210
0
220
0
230
1
0
LINE
5
148
100
AcDbEntity
8
2
62
256
6
ByLayer
370
-1
48
1
60
0
100
AcDbLine
10
23.8
20
25.75
30
0
11
56.087171
21
25.75
31
0
39
0
210
0
220
0
230
1
0
LINE
5
149
100
AcDbEntity
8
2
62
256
6
ByLayer
370
-1
48
1
60
0
100
AcDbLine
10
40
20
25.75
30
0
11
36.825002
21
25.332003
31
0
39
0
210
0
220
0
230
1
0
LINE
5
14A
100
AcDbEntity
8
2
62
256
6
ByLayer
370
-1
48
1
60
0
100
AcDbLine
10
40
20
25.75
30
0
11
36.824998
21
26.167997
31
0
39
0
210
0
220
0
230
1
0
LINE
5
14B
100
AcDbEntity
8
2
62
256
6
ByLayer
370
-1
48
1
60
0
100
AcDbLine
10
36.825002
20
25.332003
30
0
11
36.824998
21
26.167997
31
0
39
0
210
0
220
0
230
1
0
LINE
5
14C
100
AcDbEntity
8
2
62
256
6
ByLayer
370
-1
48
1
60
0
100
AcDbLine
10
23.8
20
25.75
30
0
11
26.974998
21
26.167997
31
0
39
0
210
0
220
0
230
1
0
LINE
5
14D
100
AcDbEntity
8
2
62
256
6
ByLayer
370
-1
48
1
60
0
100
AcDbLine
10
23.8
20
25.75
30
0
11
26.975002
21
25.332003
31
0
39
0
210
0
220
0
230
1
0
LINE
5
14E
100
AcDbEntity
8
2
62
256
6
ByLayer
370
-1
48
1
60
0
100
AcDbLine
10
26.974998
20
26.167997
30
0
11
26.975002
21
25.332003
31
0
39
0
210
0
220
0
230
1
0
ENDBLK
5
150
100
AcDbEntity
8
0
100
AcDbBlockEnd
0
BLOCK
5
15D
100
AcDbEntity
8
0
100
AcDbBlockBegin
2
DimnDraft3D3
70
0
10
0
20
0
30
0
3
DimnDraft3D3
0
MTEXT
5
153
100
AcDbEntity
8
SK2
62
256
6
ByLayer
370
-1
48
1
60
0
100
AcDbMText
10
-34.875
20
-7.787664
30
0
210
0
220
0
230
1
1
\W01.000;\fsimplex.shx,bigfont.shx;%%c24.2\P
40
4.5
41
0
44
1.084337
50
90
71
7
72
5
7
DEFAULT
0
LINE
5
154
100
AcDbEntity
8
SK2
62
256
6
ByLayer
370
-1
48
1
60
0
100
AcDbLine
10
-26
20
12.1
30
0
11
-35.75
21
12.1
31
0
39
0
210
0
220
0
230
1
0
LINE
5
155
100
AcDbEntity
8
SK2
62
256
6
ByLayer
370
-1
48
1
60
0
100
AcDbLine
10
-26
20
-12.1
30
0
11
-35.75
21
-12.1
31
0
39
0
210
0
220
0
230
1
0
LINE
5
156
100
AcDbEntity
8
SK2
62
256
6
ByLayer
370
-1
48
1
60
0
100
AcDbLine
10
-33.75
20
23.35
30
0
11
-33.75
21
-23.35
31
0
39
0
210
0
220
0
230
1
0
LINE
5
157
100
AcDbEntity
8
SK2
62
256
6
ByLayer
370
-1
48
1
60
0
100
AcDbLine
10
-33.75
20
12.1
30
0
11
-34.167997
21
15.274998
31
0
39
0
210
0
220
0
230
1
0
LINE
5
158
100
AcDbEntity
8
SK2
62
256
6
ByLayer
370
-1
48
1
60
0
100
AcDbLine
10
-33.75
20
12.1
30
0
11
-33.332003
21
15.275002
31
0
39
0
210
0
220
0
230
1
0
LINE
5
159
100
AcDbEntity
8
SK2
62
256
6
ByLayer
370
-1
48
1
60
0
100
AcDbLine
10
-34.167997
20
15.274998
30
0
11
-33.332003
21
15.275002
31
0
39
0
210
0
220
0
230
1
0
LINE
5
15A
100
AcDbEntity
8
SK2
62
256
6
ByLayer
370
-1
48
1
60
0
100
AcDbLine
10
-33.75
20
-12.1
30
0
11
-33.332003
21
-15.274998
31
0
39
0
210
0
220
0
230
1
0
LINE
5
15B
100
AcDbEntity
8
SK2
62
256
6
ByLayer
370
-1
48
1
60
0
100
AcDbLine
10
-33.75
20
-12.1
30
0
11
-34.167997
21
-15.275002
31
0
39
0
210
0
220
0
230
1
0
LINE
5
15C
100
AcDbEntity
8
SK2
62
256
6
ByLayer
370
-1
48
1
60
0
100
AcDbLine
10
-33.332003
20
-15.274998
30
0
11
-34.167997
21
-15.275002
31
0
39
0
210
0
220
0
230
1
0
ENDBLK
5
15E
100
AcDbEntity
8
0
100
AcDbBlockEnd
0
BLOCK
5
16B
100
AcDbEntity
8
0
100
AcDbBlockBegin
2
DimnDraft3D4
70
0
10
0
20
0
30
0
3
DimnDraft3D4
0
MTEXT
5
161
100
AcDbEntity
8
2
62
256
6
ByLayer
370
-1
48
1
60
0
100
AcDbMText
10
53.125
20
-4.49852
30
0
210
0
220
0
230
1
1
\W01.000;\fsimplex.shx,bigfont.shx;%%c32\P
40
4.5
41
0
44
1.084337
50
90
71
7
72
5
7
DEFAULT
0
LINE
5
162
100
AcDbEntity
8
2
62
256
6
ByLayer
370
-1
48
1
60
0
100
AcDbLine
10
42
20
16
30
0
11
56.25
21
16
31
0
39
0
210
0
220
0
230
1
0
LINE
5
163
100
AcDbEntity
8
2
62
256
6
ByLayer
370
-1
48
1
60
0
100
AcDbLine
10
42
20
-16
30
0
11
56.25
21
-16
31
0
39
0
210
0
220
0
230
1
0
LINE
5
164
100
AcDbEntity
8
2
62
256
6
ByLayer
370
-1
48
1
60
0
100
AcDbLine
10
54.25
20
16
30
0
11
54.25
21
-16
31
0
39
0
210
0
220
0
230
1
0
LINE
5
165
100
AcDbEntity
8
2
62
256
6
ByLayer
370
-1
48
1
60
0
100
AcDbLine
10
54.25
20
16
30
0
11
54.667997
21
12.825002
31
0
39
0
210
0
220
0
230
1
0
LINE
5
166
100
AcDbEntity
8
2
62
256
6
ByLayer
370
-1
48
1
60
0
100
AcDbLine
10
54.25
20
16
30
0
11
53.832003
21
12.824998
31
0
39
0
210
0
220
0
230
1
0
LINE
5
167
100
AcDbEntity
8
2
62
256
6
ByLayer
370
-1
48
1
60
0
100
AcDbLine
10
54.667997
20
12.825002
30
0
11
53.832003
21
12.824998
31
0
39
0
210
0
220
0
230
1
0
LINE
5
168
100
AcDbEntity
8
2
62
256
6
ByLayer
370
-1
48
1
60
0
100
AcDbLine
10
54.25
20
-16
30
0
11
53.832003
21
-12.825002
31
0
39
0
210
0
220
0
230
1
0
LINE
5
169
100
AcDbEntity
8
2
62
256
6
ByLayer
370
-1
48
1
60
0
100
AcDbLine
10
54.25
20
-16
30
0
11
54.667997
21
-12.824998
31
0
39
0
210
0
220
0
230
1
0
LINE
5
16A
100
AcDbEntity
8
2
62
256
6
ByLayer
370
-1
48
1
60
0
100
AcDbLine
10
53.832003
20
-12.825002
30
0
11
54.667997
21
-12.824998
31
0
39
0
210
0
220
0
230
1
0
ENDBLK
5
16C
100
AcDbEntity
8
0
100
AcDbBlockEnd
0
ENDSEC
0
SECTION
2
ENTITIES
0
ARC
5
8F
100
AcDbEntity
8
SK1
62
256
6
ByLayer
370
-1
48
1
60
0
100
AcDbCircle
39
0
10
0.4
20
9.291761
30
0
40
0.4
210
0
220
0
230
-1
100
AcDbArc
50
180
51
267.8
0
ARC
5
90
100
AcDbEntity
8
SK1
62
256
6
ByLayer
370
-1
48
1
60
0
100
AcDbCircle
39
0
10
0.4
20
-9.291761
30
0
40
0.4
210
0
220
0
230
-1
100
AcDbArc
50
92.2
51
180
0
ARC
5
91
100
AcDbEntity
8
SK1
62
256
6
ByLayer
370
-1
48
1
60
0
100
AcDbCircle
39
0
10
20
20
5.7
30
0
40
0.5
210
0
220
0
230
-1
100
AcDbArc
50
180
51
270
0
ARC
5
92
100
AcDbEntity
8
SK1
62
256
6
ByLayer
370
-1
48
1
60
0
100
AcDbCircle
39
0
10
20
20
-5.7
30
0
40
0.5
210
0
220
0
230
-1
100
AcDbArc
50
90
51
180
0
ELLIPSE
5
93
100
AcDbEntity
8
1
62
256
6
ByLayer
370
-1
48
1
60
0
100
AcDbEllipse
10
32.637093
20
-9.823632
30
0
11
2
21
0
31
0
210
0
220
0
230
1
40
0.096441
41
-0.860947834553056
42
-0.138213586739635
0
ELLIPSE
5
94
100
AcDbEntity
8
1
62
256
6
ByLayer
370
-1
48
1
60
0
100
AcDbEllipse
10
23.010811
20
9.480481
30
0
11
1.01914379730245
21
0.879177217484467
31
0
210
0
220
0
230
-1
40
0.026053
41
1.85608488638322
42
2.07982558379104
0
ELLIPSE
5
95
100
AcDbEntity
8
1
62
256
6
ByLayer
370
-1
48
1
60
0
100
AcDbEllipse
10
33.692278
20
6.981449
30
0
11
0.038608721105496
21
-1.25028281675503
31
0
210
0
220
0
230
-1
40
0.16282
41
-0.916197284486786
42
-0.776360179181076
0
ELLIPSE
5
96
100
AcDbEntity
8
1
62
256
6
ByLayer
370
-1
48
1
60
0
100
AcDbEllipse
10
27.748007
20
6.571454
30
0
11
2.22371646040778
21
1.40502959886651
31
0
210
0
220
0
230
-1
40
0.024747
41
-2.5816750321373
42
-1.90569152572702
0
ELLIPSE
5
97
100
AcDbEntity
8
1
62
256
6
ByLayer
370
-1
48
1
60
0
100
AcDbEllipse
10
24.66642
20
20.285763
30
0
11
14.0286593038637
21
5.31005820458845
31
0
210
0
220
0
230
1
40
0.994284
41
-2.21443577583039
42
-2.10468748719248
0
ELLIPSE
5
98
100
AcDbEntity
8
1
62
256
6
ByLayer
370
-1
48
1
60
0
100
AcDbEllipse
10
29.167103
20
-0.771599
30
0
11
0.204851302460224
21
14.9777168312764
31
0
210
0
220
0
230
-1
40
0.138427
41
2.21282251509954
42
2.24687986929565
0
ELLIPSE
5
99
100
AcDbEntity
8
1
62
256
6
ByLayer
370
-1
48
1
60
0
100
AcDbEllipse
10
273.202988
20
23.501244
30
0
11
267.510416789852
21
19.645400371497
31
0
210
0
220
0
230
-1
40
0.001408
41
-2.69998949818538
42
-2.67844324171279
0
ELLIPSE
5
9A
100
AcDbEntity
8
1
62
256
6
ByLayer
370
-1
48
1
60
0
100
AcDbEllipse
10
24.766834
20
-10.303499
30
0
11
0.954331525862857
21
6.38252349161126
31
0
210
0
220
0
230
-1
40
0.046807
41
-2.08756015777571
42
-2.06380172100155
0
ELLIPSE
5
9B
100
AcDbEntity
8
1
62
256
6
ByLayer
370
-1
48
1
60
0
100
AcDbEllipse
10
24.766834
20
-13.352287
30
0
11
1.00000000000001
21
0
31
0
210
0
220
0
230
1
40
0.096441
41
2.61341245284477
42
-2.39094238541417
0
ELLIPSE
5
9C
100
AcDbEntity
8
1
62
256
6
ByLayer
370
-1
48
1
60
0
100
AcDbEllipse
10
31.176048
20
6.807896
30
0
11
0.0386087211016323
21
-1.2502828167294
31
0
210
0
220
0
230
-1
40
0.16282
41
-1.02861225593919
42
-0.754813904290689
0
ELLIPSE
5
9D
100
AcDbEntity
8
1
62
256
6
ByLayer
370
-1
48
1
60
0
100
AcDbEllipse
10
-44.173874
20
-0.970993
30
0
11
229.898954345159
21
14.963361452446
31
0
210
0
220
0
230
-1
40
0.00667
41
-1.2639585041063
42
-1.20198342964212
0
ELLIPSE
5
9E
100
AcDbEntity
8
1
62
256
6
ByLayer
370
-1
48
1
60
0
100
AcDbEllipse
10
24.961901
20
7.354256
30
0
11
1.24345040693786
21
-1.54739217331549
31
0
210
0
220
0
230
1
40
0.481513
41
-0.0076869123916045
42
0.396464644437509
0
ELLIPSE
5
9F
100
AcDbEntity
8
1
62
256
6
ByLayer
370
-1
48
1
60
0
100
AcDbEllipse
10
26.425938
20
5.655168
30
0
11
3.55794527801134
21
2.24804670149234
31
0
210
0
220
0
230
-1
40
0.024747
41
-1.77417491528896
42
-1.71904439068196
0
ELLIPSE
5
A0
100
AcDbEntity
8
1
62
256
6
ByLayer
370
-1
48
1
60
0
100
AcDbEllipse
10
23.618076
20
7.326888
30
0
11
1.5939432358133
21
1.70369917645851
31
0
210
0
220
0
230
-1
40
0.853317
41
3.11050181082874
42
-1.45434647625091
0
ELLIPSE
5
A1
100
AcDbEntity
8
1
62
256
6
ByLayer
370
-1
48
1
60
0
100
AcDbEllipse
10
23.064418
20
11.937523
30
0
11
0.0329220506064827
21
3.369260830439
31
0
210
0
220
0
230
-1
40
0.296564
41
-2.61545542345417
42
-0.794871177974494
0
ELLIPSE
5
A2
100
AcDbEntity
8
1
62
256
6
ByLayer
370
-1
48
1
60
0
100
AcDbEllipse
10
32.637093
20
-9.823632
30
0
11
1.13954060563122
21
-1.64360798492756
31
0
210
0
220
0
230
1
40
0.985847
41
0.957879099030968
42
3.11296234097299
0
ELLIPSE
5
A3
100
AcDbEntity
8
1
62
256
6
ByLayer
370
-1
48
1
60
0
100
AcDbEllipse
10
33.205615
20
-0.771598
30
0
11
0.204803041244019
21
14.9741932660791
31
0
210
0
220
0
230
-1
40
0.138427
41
2.21303767485785
42
2.29794953640626
0
ELLIPSE
5
A4
100
AcDbEntity
8
1
62
256
6
ByLayer
370
-1
48
1
60
0
100
AcDbEllipse
10
25.570147
20
5.596142
30
0
11
-0.137619223664298
21
1.99525961951773
31
0
210
0
220
0
230
1
40
0.030998
41
-1.85450442188755
42
-1.72832502421078
0
ELLIPSE
5
A5
100
AcDbEntity
8
1
62
256
6
ByLayer
370
-1
48
1
60
0
100
AcDbEllipse
10
20.395404
20
6.141234
30
0
11
0.550867840391571
21
1.92264001373693
31
0
210
0
220
0
230
1
40
0.064073
41
-1.97601034346249
42
-1.65648348460957
0
ELLIPSE
5
A6
100
AcDbEntity
8
1
62
256
6
ByLayer
370
-1
48
1
60
0
100
AcDbEllipse
10
23.064418
20
-11.937523
30
0
11
0.032922050606499
21
-3.36926083043905
31
0
210
0
220
0
230
-1
40
0.296564
41
0.794871177974529
42
0.934345010243319
0
ELLIPSE
5
A7
100
AcDbEntity
8
1
62
256
6
ByLayer
370
-1
48
1
60
0
100
AcDbEllipse
10
20.299469
20
6.16872
30
0
11
0.550867840391571
21
1.92264001373693
31
0
210
0
220
0
230
1
40
0.064073
41
-1.9785493428992
42
-1.65648348460957
0
ELLIPSE
5
A8
100
AcDbEntity
8
1
62
256
6
ByLayer
370
-1
48
1
60
0
100
AcDbEllipse
10
25.12842
20
7.488067
30
0
11
-1.22774334838063
21
1.57881166403948
31
0
210
0
220
0
230
1
40
0.876413
41
1.72778514645622
42
3.03341010814061
0
ELLIPSE
5
A9
100
AcDbEntity
8
1
62
256
6
ByLayer
370
-1
48
1
60
0
100
AcDbEllipse
10
2.317239
20
0.028047
30
0
11
99.9969071456815
21
-10.2418189277865
31
0
210
0
220
0
230
-1
40
0.115408
41
1.19611466506071
42
1.29346854521296
0
ELLIPSE
5
AA
100
AcDbEntity
8
1
62
256
6
ByLayer
370
-1
48
1
60
0
100
AcDbEllipse
10
32.637093
20
-9.823632
30
0
11
2
21
0
31
0
210
0
220
0
230
1
40
0.096441
41
-2.90578082917971
42
-2.55707199251602
0
ELLIPSE
5
AB
100
AcDbEntity
8
1
62
256
6
ByLayer
370
-1
48
1
60
0
100
AcDbEllipse
10
32.454835
20
-9.949995
30
0
11
0.854655454223414
21
-1.23270598869567
31
0
210
0
220
0
230
1
40
0.985847
41
0.95787909903095
42
-2.18371355455882
0
ELLIPSE
5
AC
100
AcDbEntity
8
1
62
256
6
ByLayer
370
-1
48
1
60
0
100
AcDbEllipse
10
24.011095
20
18.400685
30
0
11
12.1581713966819
21
4.60205044397666
31
0
210
0
220
0
230
1
40
0.994284
41
-2.98275359410073
42
-2.21443577583039
0
ELLIPSE
5
AD
100
AcDbEntity
8
1
62
256
6
ByLayer
370
-1
48
1
60
0
100
AcDbEllipse
10
23.607836
20
6.305603
30
0
11
-1.22774334838063
21
1.57881166403948
31
0
210
0
220
0
230
1
40
0.876413
41
1.6462406718163
42
1.68738220026842
0
ELLIPSE
5
AE
100
AcDbEntity
8
1
62
256
6
ByLayer
370
-1
48
1
60
0
100
AcDbEllipse
10
31.422252
20
10.920969
30
0
11
1.495647044891
21
2.1572354802174
31
0
210
0
220
0
230
1
40
0.985847
41
0.0310419314565591
42
-3.14157387822694
0
ELLIPSE
5
AF
100
AcDbEntity
8
1
62
256
6
ByLayer
370
-1
48
1
60
0
100
AcDbEllipse
10
31.418305
20
10.923705
30
0
11
0.687427870347046
21
0.991506516907541
31
0
210
0
220
0
230
1
40
0.985847
41
0.54388459435205
42
0.681949861175842
0
ELLIPSE
5
B0
100
AcDbEntity
8
1
62
256
6
ByLayer
370
-1
48
1
60
0
100
AcDbEllipse
10
31.577248
20
10.813508
30
0
11
-0.687427870347046
21
-0.991506516907541
31
0
210
0
220
0
230
1
40
0.985847
41
2.01039058585061
42
2.59339803626751
0
ELLIPSE
5
B1
100
AcDbEntity
8
1
62
256
6
ByLayer
370
-1
48
1
60
0
100
AcDbEllipse
10
31.577248
20
12.689283
30
0
11
-0.390862427731516
21
-0.563757538830148
31
0
210
0
220
0
230
1
40
0.985847
41
0.734531268980817
42
1.40417856268519
0
ELLIPSE
5
B2
100
AcDbEntity
8
1
62
256
6
ByLayer
370
-1
48
1
60
0
100
AcDbEllipse
10
31.38092
20
10.949625
30
0
11
0.955219912670388
21
1.37775439336551
31
0
210
0
220
0
230
1
40
0.985847
41
-2.00228610254621
42
-0.95787909903095
0
ELLIPSE
5
B3
100
AcDbEntity
8
1
62
256
6
ByLayer
370
-1
48
1
60
0
100
AcDbEllipse
10
29.952618
20
11.731276
30
0
11
-0.390862427731516
21
-0.563757538830148
31
0
210
0
220
0
230
1
40
0.985847
41
1.66151005280121
42
2.44550069642201
0
ELLIPSE
5
B4
100
AcDbEntity
8
1
62
256
6
ByLayer
370
-1
48
1
60
0
100
AcDbEllipse
10
31.577248
20
10.813508
30
0
11
0.687427870347046
21
0.991506516907541
31
0
210
0
220
0
230
1
40
0.985847
41
0.54388459435206
42
0.681949861175831
0
ELLIPSE
5
B5
100
AcDbEntity
8
1
62
256
6
ByLayer
370
-1
48
1
60
0
100
AcDbEllipse
10
31.38092
20
10.949625
30
0
11
0.955219912670388
21
1.37775439336551
31
0
210
0
220
0
230
1
40
0.985847
41
-3.05506474910549
42
-2.00228610254621
0
ELLIPSE
5
B6
100
AcDbEntity
8
1
62
256
6
ByLayer
370
-1
48
1
60
0
100
AcDbEllipse
10
31.418305
20
10.923705
30
0
11
0.687427870347046
21
0.991506516907541
31
0
210
0
220
0
230
1
40
0.985847
41
-2.59770805923775
42
-2.45964279241395
0
ELLIPSE
5
B7
100
AcDbEntity
8
1
62
256
6
ByLayer
370
-1
48
1
60
0
100
AcDbEllipse
10
31.38092
20
10.949625
30
0
11
1.02558654506812
21
1.47924718643479
31
0
210
0
220
0
230
1
40
0.985847
41
0
42
6.28318530717959
0
ELLIPSE
5
B8
100
AcDbEntity
8
1
62
256
6
ByLayer
370
-1
48
1
60
0
100
AcDbEllipse
10
31.38092
20
10.949625
30
0
11
0.955219912670388
21
1.37775439336551
31
0
210
0
220
0
230
1
40
0.985847
41
2.18371355455884
42
-3.05506474910549
0
ELLIPSE
5
B9
100
AcDbEntity
8
1
62
256
6
ByLayer
370
-1
48
1
60
0
100
AcDbEllipse
10
29.952618
20
11.731276
30
0
11
-0.390862427731516
21
-0.563757538830148
31
0
210
0
220
0
230
1
40
0.985847
41
0.877519409180412
42
1.66151005280121
0
ELLIPSE
5
BA
100
AcDbEntity
8
1
62
256
6
ByLayer
370
-1
48
1
60
0
100
AcDbEllipse
10
31.38092
20
10.949625
30
0
11
0.955219912670388
21
1.37775439336551
31
0
210
0
220
0
230
1
40
0.985847
41
-0.95787909903095
42
0.0865279044843068
0
ELLIPSE
5
BB
100
AcDbEntity
8
1
62
256
6
ByLayer
370
-1
48
1
60
0
100
AcDbEllipse
10
31.577248
20
10.813508
30
0
11
-0.687427870347046
21
-0.991506516907541
31
0
210
0
220
0
230
1
40
0.985847
41
-1.48008260078859
42
-0.43567559727333
0
ELLIPSE
5
BC
100
AcDbEntity
8
1
62
256
6
ByLayer
370
-1
48
1
60
0
100
AcDbEllipse
10
31.577248
20
10.813508
30
0
11
-0.687427870347046
21
-0.991506516907541
31
0
210
0
220
0
230
1
40
0.985847
41
2.98550493084857
42
-2.59770805923773
0
ELLIPSE
5
BD
100
AcDbEntity
8
1
62
256
6
ByLayer
370
-1
48
1
60
0
100
AcDbEllipse
10
31.38092
20
10.949625
30
0
11
0.955219912670388
21
1.37775439336551
31
0
210
0
220
0
230
1
40
0.985847
41
0.0865279044843079
42
1.13930655104358
0
ELLIPSE
5
BE
100
AcDbEntity
8
1
62
256
6
ByLayer
370
-1
48
1
60
0
100
AcDbEllipse
10
30.205951
20
10.795112
30
0
11
-0.166372928422161
21
-0.239966765799422
31
0
210
0
220
0
230
1
40
0.985847
41
-2.26407324440939
42
-0.476588749717074
0
ELLIPSE
5
BF
100
AcDbEntity
8
1
62
256
6
ByLayer
370
-1
48
1
60
0
100
AcDbEllipse
10
31.38092
20
10.949625
30
0
11
0.955219912670388
21
1.37775439336551
31
0
210
0
220
0
230
1
40
0.985847
41
1.13930655104358
42
2.18371355455884
0
ELLIPSE
5
C0
100
AcDbEntity
8
1
62
256
6
ByLayer
370
-1
48
1
60
0
100
AcDbEllipse
10
29.952618
20
9.852151
30
0
11
-0.390862427731516
21
-0.563757538830148
31
0
210
0
220
0
230
1
40
0.985847
41
1.92192641269567
42
2.70591705631647
0
ELLIPSE
5
C1
100
AcDbEntity
8
1
62
256
6
ByLayer
370
-1
48
1
60
0
100
AcDbEllipse
10
31.577248
20
12.689283
30
0
11
-0.390862427731516
21
-0.563757538830148
31
0
210
0
220
0
230
1
40
0.985847
41
1.27369485946998E-06
42
0.491303186547076
0
ELLIPSE
5
C2
100
AcDbEntity
8
1
62
256
6
ByLayer
370
-1
48
1
60
0
100
AcDbEllipse
10
30.888288
20
11.995761
30
0
11
-0.166372928422161
21
-0.239966765799422
31
0
210
0
220
0
230
1
40
0.985847
41
-2.9890463623578
42
-0.696091957167785
0
ELLIPSE
5
C3
100
AcDbEntity
8
1
62
256
6
ByLayer
370
-1
48
1
60
0
100
AcDbEllipse
10
29.952618
20
9.852151
30
0
11
-0.390862427731516
21
-0.563757538830148
31
0
210
0
220
0
230
1
40
0.985847
41
2.70591705631647
42
3.14158263688008
0
ELLIPSE
5
C4
100
AcDbEntity
8
1
62
256
6
ByLayer
370
-1
48
1
60
0
100
AcDbEllipse
10
33.201877
20
11.774864
30
0
11
-0.390862427731516
21
-0.563757538830148
31
0
210
0
220
0
230
1
40
0.985847
41
-9.3278993040509E-06
42
0.348315046347475
0
ELLIPSE
5
C5
100
AcDbEntity
8
1
62
256
6
ByLayer
370
-1
48
1
60
0
100
AcDbEllipse
10
31.418868
20
10.923315
30
0
11
1.495647044891
21
2.1572354802174
31
0
210
0
220
0
230
1
40
0.985847
41
-0.0727288470784312
42
0
0
ELLIPSE
5
C6
100
AcDbEntity
8
1
62
256
6
ByLayer
370
-1
48
1
60
0
100
AcDbEllipse
10
31.418868
20
10.923315
30
0
11
1.495647044891
21
2.1572354802174
31
0
210
0
220
0
230
1
40
0.985847
41
0
42
-3.0989659447155
0
ELLIPSE
5
C7
100
AcDbEntity
8
1
62
256
6
ByLayer
370
-1
48
1
60
0
100
AcDbEllipse
10
31.577248
20
10.813508
30
0
11
-0.687427870347046
21
-0.991506516907541
31
0
210
0
220
0
230
1
40
0.985847
41
-2.45964279241396
42
-1.48008260078859
0
ELLIPSE
5
C8
100
AcDbEntity
8
1
62
256
6
ByLayer
370
-1
48
1
60
0
100
AcDbEllipse
10
31.577248
20
10.813508
30
0
11
0.687427870347046
21
0.991506516907541
31
0
210
0
220
0
230
1
40
0.985847
41
2.70591705631646
42
-2.85325087932052
0
ELLIPSE
5
C9
100
AcDbEntity
8
1
62
256
6
ByLayer
370
-1
48
1
60
0
100
AcDbEllipse
10
30.888288
20
9.61277
30
0
11
-0.166372928422161
21
-0.239966765799422
31
0
210
0
220
0
230
1
40
0.985847
41
-1.21966624089413
42
-0.432062232895863
0
ELLIPSE
5
CA
100
AcDbEntity
8
1
62
256
6
ByLayer
370
-1
48
1
60
0
100
AcDbEllipse
10
32.266208
20
12.014246
30
0
11
-0.166372928422161
21
-0.239966765799422
31
0
210
0
220
0
230
1
40
0.985847
41
-2.71270415051911
42
-1.73741409090462
0
ELLIPSE
5
CB
100
AcDbEntity
8
1
62
256
6
ByLayer
370
-1
48
1
60
0
100
AcDbEllipse
10
31.577248
20
10.813508
30
0
11
-0.687427870347046
21
-0.991506516907541
31
0
210
0
220
0
230
1
40
0.985847
41
0.761554233343011
42
1.33586753018199
0
ELLIPSE
5
CC
100
AcDbEntity
8
1
62
256
6
ByLayer
370
-1
48
1
60
0
100
AcDbEllipse
10
32.290228
20
-10.319187
30
0
11
-0.769189908801087
21
1.10943538982609
31
0
210
0
220
0
230
1
40
0.985847
41
-2.97510343770486
42
0
0
ELLIPSE
5
CD
100
AcDbEntity
8
1
62
256
6
ByLayer
370
-1
48
1
60
0
100
AcDbEllipse
10
32.290228
20
-10.319187
30
0
11
-0.769189908801087
21
1.10943538982609
31
0
210
0
220
0
230
1
40
0.985847
41
0
42
0.807963254255755
0
POINT
5
42
100
AcDbEntity
8
81
62
256
6
ByLayer
370
-1
48
1
60
0
100
AcDbPoint
10
40
20
15.88
30
0
39
0
210
0
220
0
230
1
50
360
0
POINT
5
44
100
AcDbEntity
8
SK2
62
256
6
ByLayer
370
-1
48
1
60
0
100
AcDbPoint
10
21.5
20
5.160969
30
0
39
0
210
0
220
0
230
1
50
360
0
POINT
5
46
100
AcDbEntity
8
80
62
256
6
ByLayer
370
-1
48
1
60
0
100
AcDbPoint
10
0
20
0
30
0
39
0
210
0
220
0
230
1
50
360
0
POINT
5
48
100
AcDbEntity
8
2
62
256
6
ByLayer
370
-1
48
1
60
0
100
AcDbPoint
10
40
20
15.88
30
0
39
0
210
0
220
0
230
1
50
360
0
SPLINE
5
CE
100
AcDbEntity
8
1
62
256
6
ByLayer
370
-1
48
1
60
0
100
AcDbSpline
70
4
71
3
72
10
73
6
40
0
40
0
40
0
40
0
40
0.435935262355651
40
0.435935262355651
40
1
40
1
40
1
40
1
41
1
10
30.8982871099683
20
-11.4338309194669
30
-6E-16
41
1
10
30.7960709698318
20
-11.2712647500112
30
-6E-16
41
1
10
30.7259877986484
20
-11.0935227061055
30
-6E-16
41
1
10
30.631244848371
20
-10.672071674317
30
-6E-16
41
1
10
30.6244713296855
20
-10.4196471366535
30
-6E-16
41
1
10
30.6561655324692
20
-10.1659174401379
30
-6E-16
0
SPLINE
5
CF
100
AcDbEntity
8
1
62
256
6
ByLayer
370
-1
48
1
60
0
100
AcDbSpline
70
4
71
2
72
6
73
3
40
0
40
0
40
0
40
1
40
1
40
1
41
0.500000049349218
10
19.2306438186619
20
5.60203535793951
30
5E-16
41
0.499999950650782
10
19.278015357977
20
5.58973026632645
30
5E-16
41
0.500000049349218
10
19.3255024977334
20
5.57739069240702
30
5E-16
0
SPLINE
5
D0
100
AcDbEntity
8
1
62
256
6
ByLayer
370
-1
48
1
60
0
100
AcDbSpline
70
4
71
3
72
10
73
6
40
0
40
0
40
0
40
0
40
0.5
40
0.5
40
1
40
1
40
1
40
1
41
1
10
11.6288056790746
20
10.4100706041734
30
0
41
1
10
12.2914166815998
20
9.60309000094009
30
1E-16
41
1
10
13.2912306364298
20
8.59462198690707
30
1E-16
41
1
10
15.8983132262858
20
6.81497746903167
30
3E-16
41
1
10
17.4965961836491
20
6.05246646739442
30
4E-16
41
1
10
19.2306438186619
20
5.60203535793951
30
5E-16
0
SPLINE
5
D1
100
AcDbEntity
8
1
62
256
6
ByLayer
370
-1
48
1
60
0
100
AcDbSpline
70
4
71
3
72
8
73
4
40
0
40
0
40
0
40
0
40
1
40
1
40
1
40
1
41
1
10
21.4807715354039
20
14.0806017411699
30
2E-16
41
1
10
21.4935908618371
20
14.0837073760106
30
2E-16
41
1
10
21.5063981116291
20
14.0868636137655
30
2E-16
41
1
10
21.5191926840939
20
14.0900702912871
30
2E-16
0
SPLINE
5
D2
100
AcDbEntity
8
1
62
256
6
ByLayer
370
-1
48
1
60
0
100
AcDbSpline
70
4
71
3
72
8
73
4
40
0
40
0
40
0
40
0
40
1
40
1
40
1
40
1
41
1
10
24.035588056068
20
-13.418070319451
30
-1E-16
41
1
10
24.0091642750079
20
-13.4256407574109
30
-1E-16
41
1
10
23.9821052822807
20
-13.4372181796692
30
-1E-16
41
1
10
23.9545584180527
20
-13.453302801156
30
-1E-16
0
SPLINE
5
D3
100
AcDbEntity
8
1
62
256
6
ByLayer
370
-1
48
1
60
0
100
AcDbSpline
70
4
71
3
72
8
73
4
40
0
40
0
40
0
40
0
40
1
40
1
40
1
40
1
41
1
10
21.4807715354035
20
5.16338222547893
30
6E-16
41
1
10
21.4935894230713
20
5.16176601678058
30
6E-16
41
1
10
21.5063966669487
20
5.16017112131772
30
6E-16
41
1
10
21.5191926840936
20
5.15859753645441
30
6E-16
0
SPLINE
5
D4
100
AcDbEntity
8
1
62
256
6
ByLayer
370
-1
48
1
60
0
100
AcDbSpline
70
4
71
3
72
8
73
4
40
0
40
0
40
0
40
0
40
1
40
1
40
1
40
1
41
1
10
23.9545584180532
20
-13.4533028011544
30
-1E-16
41
1
10
23.6687170230351
20
-13.4731361721064
30
-1E-16
41
1
10
23.3808430975966
20
-13.5270838605572
30
-1E-16
41
1
10
23.1160043317046
20
-13.6276241828785
30
-1E-16
0
SPLINE
5
D5
100
AcDbEntity
8
1
62
256
6
ByLayer
370
-1
48
1
60
0
100
AcDbSpline
70
4
71
3
72
8
73
4
40
0
40
0
40
0
40
0
40
1
40
1
40
1
40
1
41
1
10
22.3206188134678
20
5.11365428776708
30
-2E-16
41
1
10
22.3336888320845
20
5.09453686507925
30
-2E-16
41
1
10
22.3470837860077
20
5.0756558085443
30
-2E-16
41
1
10
22.36080024326
20
5.05703240862454
30
-2E-16
0
SPLINE
5
D6
100
AcDbEntity
8
1
62
256
6
ByLayer
370
-1
48
1
60
0
100
AcDbSpline
70
4
71
3
72
8
73
4
40
0
40
0
40
0
40
0
40
1
40
1
40
1
40
1
41
1
10
25.3214940013368
20
-13.3719045617692
30
0
41
1
10
25.2823518943458
20
-13.3703931039663
30
0
41
1
10
25.2424161960897
20
-13.3667304811289
30
0
41
1
10
25.2045571906731
20
-13.3613653783487
30
0
0
SPLINE
5
D7
100
AcDbEntity
8
1
62
256
6
ByLayer
370
-1
48
1
60
0
100
AcDbSpline
70
4
71
3
72
8
73
4
40
0
40
0
40
0
40
0
40
1
40
1
40
1
40
1
41
1
10
25.2045571906728
20
-13.3613653783481
30
0
41
1
10
25.1395724179527
20
-13.3521562091965
30
0
41
1
10
25.074666770424
20
-13.3432773288799
30
0
41
1
10
25.0098705514238
20
-13.3347647733407
30
0
0
SPLINE
5
D8
100
AcDbEntity
8
1
62
256
6
ByLayer
370
-1
48
1
60
0
100
AcDbSpline
70
4
71
3
72
10
73
6
40
0
40
0
40
0
40
0
40
0.5
40
0.5
40
1
40
1
40
1
40
1
41
1
10
21.5699013986771
20
5.15243860782567
30
6E-16
41
1
10
22.1112729806301
20
2.43011531353452
30
7E-16
41
1
10
22.7481644910591
20
-0.572045148003326
30
7E-16
41
1
10
24.02455458926
20
-6.30554789654875
30
8E-16
41
1
10
24.6627995476098
20
-9.02916901346518
30
8E-16
41
1
10
25.2045571906731
20
-11.1696363899025
30
9E-16
0
SPLINE
5
D9
100
AcDbEntity
8
1
62
256
6
ByLayer
370
-1
48
1
60
0
100
AcDbSpline
70
4
71
3
72
10
73
6
40
0
40
0
40
0
40
0
40
0.339541619301665
40
0.339541619301665
40
1
40
1
40
1
40
1
41
1
10
12.7297308267443
20
11.9444773170992
30
1E-16
41
1
10
12.6018453831256
20
11.9129849992189
30
1E-16
41
1
10
12.4724500023243
20
11.8847177022117
30
1E-16
41
1
10
12.09773351426
20
11.8130809432325
30
1E-16
41
1
10
11.8515430628037
20
11.7796234365897
30
1E-16
41
1
10
11.6288056790751
20
11.7608911796021
30
0
0
SPLINE
5
DA
100
AcDbEntity
8
1
62
256
6
ByLayer
370
-1
48
1
60
0
100
AcDbSpline
70
4
71
3
72
8
73
4
40
0
40
0
40
0
40
0
40
1
40
1
40
1
40
1
41
1
10
25.1709622198304
20
5.01047361614627
30
9E-16
41
1
10
23.966828766778
20
4.93465582009031
30
8E-16
41
1
10
22.7664456051267
20
4.98151401484179
30
7E-16
41
1
10
21.5699013986773
20
5.1524386078257
30
6E-16
0
SPLINE
5
DB
100
AcDbEntity
8
1
62
256
6
ByLayer
370
-1
48
1
60
0
100
AcDbSpline
70
4
71
3
72
8
73
4
40
0
40
0
40
0
40
0
40
1
40
1
40
1
40
1
41
1
10
25.3214940013364
20
-11.3970276891587
30
9E-16
41
1
10
27.1804252611419
20
-11.4093081096134
30
-8E-16
41
1
10
29.0393562988761
20
-11.4215758748915
30
-7E-16
41
1
10
30.8982871099683
20
-11.4338309194669
30
-6E-16
0
SPLINE
5
DC
100
AcDbEntity
8
1
62
256
6
ByLayer
370
-1
48
1
60
0
100
AcDbSpline
70
4
71
3
72
16
73
12
40
0
40
0
40
0
40
0
40
0.46500804613092
40
0.46500804613092
40
0.634792413878634
40
0.634792413878634
40
0.806761590045019
40
0.806761590045019
40
0.905981289856226
40
0.905981289856226
40
1
40
1
40
1
40
1
41
1
10
2.00000000000001
20
6.50922422412987
30
-6E-16
41
1
10
2.00000000000001
20
6.56769293511746
30
-6E-16
41
1
10
2.00999931975333
20
6.62711209695067
30
-5E-16
41
1
10
2.04318951167896
20
6.70137247231995
30
-5E-16
41
1
10
2.05427678235326
20
6.72091641868451
30
-5E-16
41
1
10
2.08189836625807
20
6.75708541915131
30
-5E-16
41
1
10
2.09883891645263
20
6.77411803750374
30
-5E-16
41
1
10
2.13097269013369
20
6.79507336650741
30
-5E-16
41
1
10
2.14417580877181
20
6.80159773535198
30
-5E-16
41
1
10
2.17147176575459
20
6.81016708864598
30
-5E-16
41
1
10
2.18583266858089
20
6.81248853210036
30
-5E-16
41
1
10
2.2
20
6.81248853210036
30
-5E-16
0
SPLINE
5
DD
100
AcDbEntity
8
1
62
256
6
ByLayer
370
-1
48
1
60
0
100
AcDbSpline
70
4
71
3
72
24
73
20
40
0
40
0
40
0
40
0
40
0.319960185920019
40
0.319960185920019
40
0.538377064546652
40
0.538377064546652
40
0.686739196190219
40
0.686739196190219
40
0.788296599728435
40
0.788296599728435
40
0.858658520436872
40
0.858658520436872
40
0.933803491185855
40
0.933803491185855
40
0.963751522193737
40
0.963751522193737
40
0.988593885504994
40
0.988593885504994
40
1
40
1
40
1
40
1
41
1
10
25.2045571906729
20
-11.1696363899025
30
9E-16
41
1
10
25.2112494917312
20
-11.196077460503
30
9E-16
41
1
10
25.2184824297959
20
-11.2223628267804
30
9E-16
41
1
10
25.2323190856403
20
-11.2661608093909
30
9E-16
41
1
10
25.2383889327048
20
-11.2838221802895
30
9E-16
41
1
10
25.2499914544901
20
-11.3131213195391
30
9E-16
41
1
10
25.2550694834775
20
-11.324886744368
30
9E-16
41
1
10
25.2648097536847
20
-11.3443706165677
30
9E-16
41
1
10
25.2690979293495
20
-11.3522084017837
30
9E-16
41
1
10
25.2773667434314
20
-11.3651330265957
30
9E-16
41
1
10
25.2810411537457
20
-11.3703405241282
30
9E-16
41
1
10
25.2896731885489
20
-11.3806295716194
30
9E-16
41
1
10
25.2947122343569
20
-11.3858080776187
30
9E-16
41
1
10
25.3035490318834
20
-11.3917666234474
30
9E-16
41
1
10
25.3063264957239
20
-11.3933302364206
30
9E-16
41
1
10
25.31188383928
20
-11.3955629728047
30
9E-16
41
1
10
25.3146401671622
20
-11.3963489153592
30
9E-16
41
1
10
25.318802134941
20
-11.3969202225005
30
9E-16
41
1
10
25.320150042298
20
-11.3970188107849
30
9E-16
41
1
10
25.3214940013292
20
-11.3970276892105
30
9E-16
0
SPLINE
5
DE
100
AcDbEntity
8
1
62
256
6
ByLayer
370
-1
48
1
60
0
100
AcDbSpline
70
4
71
3
72
8
73
4
40
0
40
0
40
0
40
0
40
1
40
1
40
1
40
1
41
1
10
22.3742722913436
20
-14.3042439043032
30
-2E-16
41
1
10
22.0892354976212
20
-14.2328938997271
30
-2E-16
41
1
10
21.8042088051434
20
-14.1615032986195
30
2E-16
41
1
10
21.5191926840938
20
-14.0900702912874
30
2E-16
0
SPLINE
5
DF
100
AcDbEntity
8
1
62
256
6
ByLayer
370
-1
48
1
60
0
100
AcDbSpline
70
4
71
3
72
20
73
16
40
0
40
0
40
0
40
0
40
0.15835037771086
40
0.15835037771086
40
0.331988251845479
40
0.331988251845479
40
0.480306788576714
40
0.480306788576714
40
0.611772657048506
40
0.611772657048506
40
0.74035805029261
40
0.74035805029261
40
0.876275040420174
40
0.876275040420174
40
1
40
1
40
1
40
1
41
1
10
30.8982871099683
20
-11.4338309194669
30
-6E-16
41
1
10
30.9954560241842
20
-11.5766374001469
30
-6E-16
41
1
10
31.123438567909
20
-11.7088716287132
30
-5E-16
41
1
10
31.4494148043831
20
-11.9432269396116
30
-5E-16
41
1
10
31.6591303202844
20
-12.0448613746595
30
-5E-16
41
1
10
32.0870621598528
20
-12.1713812642267
30
-5E-16
41
1
10
32.3061171302887
20
-12.2070463185816
30
-5E-16
41
1
10
32.7188453946338
20
-12.2235835701729
30
-4E-16
41
1
10
32.9181544547154
20
-12.2104285437871
30
-4E-16
41
1
10
33.2888811706286
20
-12.1454687344088
30
-4E-16
41
1
10
33.4655321679358
20
-12.0937329889991
30
-4E-16
41
1
10
33.7904832400989
20
-11.9558409010143
30
-4E-16
41
1
10
33.94063979453
20
-11.8662988936934
30
-4E-16
41
1
10
34.1821885392953
20
-11.6719574252807
30
-4E-16
41
1
10
34.2798403777001
20
-11.567761657833
30
-4E-16
41
1
10
34.3587717832453
20
-11.4566295369515
30
-3E-16
0
SPLINE
5
E0
100
AcDbEntity
8
1
62
256
6
ByLayer
370
-1
48
1
60
0
100
AcDbSpline
70
4
71
3
72
10
73
6
40
0
40
0
40
0
40
0
40
0.339541619301662
40
0.339541619301662
40
1
40
1
40
1
40
1
41
1
10
12.7297308267443
20
-11.9444773170994
30
1E-16
41
1
10
12.6018453831256
20
-11.9129849992191
30
1E-16
41
1
10
12.4724500023243
20
-11.8847177022119
30
1E-16
41
1
10
12.09773351426
20
-11.8130809432327
30
1E-16
41
1
10
11.8515430628037
20
-11.7796234365898
30
1E-16
41
1
10
11.6288056790751
20
-11.7608911796024
30
0
0
SPLINE
5
E1
100
AcDbEntity
8
1
62
256
6
ByLayer
370
-1
48
1
60
0
100
AcDbSpline
70
4
71
3
72
28
73
24
40
0
40
0
40
0
40
0
40
0.0853440474267324
40
0.0853440474267324
40
0.16926325356466
40
0.16926325356466
40
0.270954476619335
40
0.270954476619335
40
0.394041078119861
40
0.394041078119861
40
0.47930964562607
40
0.47930964562607
40
0.56482060313536
40
0.56482060313536
40
0.647258676214362
40
0.647258676214362
40
0.738672488077333
40
0.738672488077333
40
0.848339960217257
40
0.848339960217257
40
0.936201227234345
40
0.936201227234345
40
1
40
1
40
1
40
1
41
1
10
30.9691395664087
20
-9.93006432817924
30
-6E-16
41
1
10
30.9691395664087
20
-10.0687731048864
30
-6E-16
41
1
10
30.9860548442197
20
-10.2118696820276
30
-6E-16
41
1
10
31.047729086792
20
-10.4754989825988
30
-5E-16
41
1
10
31.0925621032228
20
-10.6004705690409
30
-5E-16
41
1
10
31.2175920998315
20
-10.8535495797383
30
-5E-16
41
1
10
31.3048318475427
20
-10.9802815910488
30
-5E-16
41
1
10
31.534270735991
20
-11.2212161723167
30
-5E-16
41
1
10
31.6891272458581
20
-11.3316742296872
30
-5E-16
41
1
10
31.9853693950582
20
-11.4559090854824
30
-5E-16
41
1
10
32.1197954265433
20
-11.4898691898821
30
-5E-16
41
1
10
32.3942304073423
20
-11.5146895301078
30
-5E-16
41
1
10
32.5378492023853
20
-11.5056458843121
30
-5E-16
41
1
10
32.8077304804529
20
-11.4485139605055
30
-4E-16
41
1
10
32.9376770280386
20
-11.4013868798068
30
-4E-16
41
1
10
33.1895489803445
20
-11.272428091296
30
-4E-16
41
1
10
33.3121473946314
20
-11.1861467250336
30
-4E-16
41
1
10
33.5486912951733
20
-10.9696547036047
30
-4E-16
41
1
10
33.6596162428606
20
-10.8314304710661
30
-4E-16
41
1
10
33.8149917240766
20
-10.5572658284516
30
-4E-16
41
1
10
33.8697337502637
20
-10.4230763573515
30
-4E-16
41
1
10
33.927397213067
20
-10.1814031538097
30
-4E-16
41
1
10
33.9405306595879
20
-10.0746170082173
30
-4E-16
41
1
10
33.9405306595879
20
-9.96992535892494
30
-4E-16
0
SPLINE
5
E2
100
AcDbEntity
8
1
62
256
6
ByLayer
370
-1
48
1
60
0
100
AcDbSpline
70
4
71
3
72
20
73
16
40
0
40
0
40
0
40
0
40
0.015625
40
0.015625
40
0.0312499999999999
40
0.0312499999999999
40
0.0625000000000001
40
0.0625000000000001
40
0.125
40
0.125
40
0.25
40
0.25
40
0.5
40
0.5
40
1
40
1
40
1
40
1
41
1
10
37.8137553067938
20
-11.4793625016016
30
-1E-16
41
1
10
37.900111959759
20
-11.4799303396663
30
-1E-16
41
1
10
37.9115225769108
20
-11.3881476049273
30
-1E-16
41
1
10
37.9576042633972
20
-11.2736581739379
30
-1E-16
41
1
10
37.9751755169288
20
-11.2150798836992
30
-1E-16
41
1
10
38.0230063628903
20
-11.0371206750252
30
-1E-16
41
1
10
38.0475077454322
20
-10.9153894150506
30
-1E-16
41
1
10
38.1138172683593
20
-10.5451429404698
30
-1E-16
41
1
10
38.1475888535147
20
-10.2904808361361
30
-1E-16
41
1
10
38.2387466267251
20
-9.50447721159904
30
-1E-16
41
1
10
38.2844632908693
20
-8.95035432812168
30
-1E-16
41
1
10
38.4033946029354
20
-7.2337209889298
30
-1E-16
41
1
10
38.4581742588101
20
-5.98991128098689
30
-1E-16
41
1
10
38.5835755078334
20
-2.1451514968999
30
-1E-16
41
1
10
38.6132928276839
20
0.597547399567077
30
-1E-16
41
1
10
38.6134123487265
20
3.16447644985772
30
-1E-16
0
SPLINE
5
E3
100
AcDbEntity
8
1
62
256
6
ByLayer
370
-1
48
1
60
0
100
AcDbSpline
70
4
71
3
72
18
73
14
40
0
40
0
40
0
40
0
40
0.0065319449435078
40
0.0065319449435078
40
0.0936201256165005
40
0.0936201256165005
40
0.2017650634019
40
0.2017650634019
40
0.362911419870888
40
0.362911419870888
40
0.637701307764584
40
0.637701307764584
40
1
40
1
40
1
40
1
41
1
10
8.29999999999998
20
6.81248853210033
30
-2E-16
41
1
10
8.30099907960624
20
6.81248853210033
30
-2E-16
41
1
10
8.3019982475773
20
6.81247753992946
30
-2E-16
41
1
10
8.31615125808551
20
6.81216619070878
30
-2E-16
41
1
10
8.32939654277834
20
6.80988752610881
30
-2E-16
41
1
10
8.35695924018574
20
6.8012499854629
30
-2E-16
41
1
10
8.37121704778116
20
6.79397164137356
30
-2E-16
41
1
10
8.40253892566679
20
6.77262624634946
30
-2E-16
41
1
10
8.41829355973763
20
6.7566902516277
30
-2E-16
41
1
10
8.45355219486649
20
6.71090038028854
30
-2E-16
41
1
10
8.46896116813858
20
6.67819690240538
30
-2E-16
41
1
10
8.49374702446011
20
6.60110420426906
30
-2E-16
41
1
10
8.5
20
6.55501908119479
30
-2E-16
41
1
10
8.5
20
6.50922422412984
30
-2E-16
0
SPLINE
5
E4
100
AcDbEntity
8
1
62
256
6
ByLayer
370
-1
48
1
60
0
100
AcDbSpline
70
4
71
3
72
8
73
4
40
0
40
0
40
0
40
0
40
1
40
1
40
1
40
1
41
1
10
21.4807715354038
20
-14.0806017411701
30
2E-16
41
1
10
21.493590861837
20
-14.0837073760108
30
2E-16
41
1
10
21.5063981116291
20
-14.0868636137657
30
2E-16
41
1
10
21.5191926840938
20
-14.0900702912874
30
2E-16
0
SPLINE
5
E5
100
AcDbEntity
8
1
62
256
6
ByLayer
370
-1
48
1
60
0
100
AcDbSpline
70
4
71
3
72
18
73
14
40
0
40
0
40
0
40
0
40
0.0060034334439164
40
0.0060034334439164
40
0.0930064964635819
40
0.0930064964635819
40
0.200810141566532
40
0.200810141566532
40
0.361312462678729
40
0.361312462678729
40
0.634888368407364
40
0.634888368407364
40
1
40
1
40
1
40
1
41
1
10
2.19999999999999
20
-6.81248853210053
30
-5E-16
41
1
10
2.19908008962801
20
-6.81248853210053
30
-5E-16
41
1
10
2.19816011026339
20
-6.81247921341026
30
-5E-16
41
1
10
2.18407758572781
20
-6.81219396524844
30
-5E-16
41
1
10
2.17081800739741
20
-6.80993525663973
30
-5E-16
41
1
10
2.14325414561178
20
-6.80134063962183
30
-5E-16
41
1
10
2.1290032637914
20
-6.79409354661536
30
-5E-16
41
1
10
2.09770427938305
20
-6.77283329570798
30
-5E-16
41
1
10
2.08195615734633
20
-6.75695628455716
30
-5E-16
41
1
10
2.04670606740905
20
-6.71133324008426
30
-5E-16
41
1
10
2.03128070715981
20
-6.6787416709038
30
-5E-16
41
1
10
2.00631288148652
20
-6.60156164177778
30
-6E-16
41
1
10
1.99999999999999
20
-6.55524427017849
30
-6E-16
41
1
10
1.99999999999999
20
-6.50922422413001
30
-6E-16
0
SPLINE
5
E6
100
AcDbEntity
8
1
62
256
6
ByLayer
370
-1
48
1
60
0
100
AcDbSpline
70
4
71
3
72
10
73
6
40
0
40
0
40
0
40
0
40
0.996420104443835
40
0.996420104443835
40
1
40
1
40
1
40
1
41
1
10
34.6180203233748
20
-10.7468063007375
30
-3E-16
41
1
10
34.5837490791866
20
-10.996814304512
30
-3E-16
41
1
10
34.500623907569
20
-11.2395287294952
30
-3E-16
41
1
10
34.3597978771097
20
-11.4550636394453
30
-3E-16
41
1
10
34.3592852152647
20
-11.4558467566545
30
-3E-16
41
1
10
34.3587717832452
20
-11.4566295369514
30
-3E-16
0
SPLINE
5
E7
100
AcDbEntity
8
1
62
256
6
ByLayer
370
-1
48
1
60
0
100
AcDbSpline
70
4
71
3
72
16
73
12
40
0
40
0
40
0
40
0
40
0.203348602850725
40
0.203348602850725
40
0.468279785744814
40
0.468279785744814
40
0.679319771281125
40
0.679319771281125
40
0.892360700641726
40
0.892360700641726
40
1
40
1
40
1
40
1
41
1
10
25.0098705514238
20
-13.3347647733407
30
0
41
1
10
24.7584369695968
20
-13.3017328717462
30
0
41
1
10
24.5109193184169
20
-13.2877024368548
30
-1E-16
41
1
10
23.9723822973562
20
-13.2890281482666
30
-1E-16
41
1
10
23.6819627485088
20
-13.3132565373639
30
-1E-16
41
1
10
23.232103827244
20
-13.3983281262539
30
-1E-16
41
1
10
23.0552126809827
20
-13.4527496036647
30
-1E-16
41
1
10
22.7898868525872
20
-13.5901852440427
30
-2E-16
41
1
10
22.6989998012031
20
-13.6753278330391
30
-2E-16
41
1
10
22.6456269833233
20
-13.8130451004774
30
-2E-16
41
1
10
22.6412886002431
20
-13.8616148296435
30
-2E-16
41
1
10
22.650639334687
20
-13.9108543636275
30
-2E-16
0
SPLINE
5
E8
100
AcDbEntity
8
1
62
256
6
ByLayer
370
-1
48
1
60
0
100
AcDbSpline
70
4
71
3
72
8
73
4
40
0
40
0
40
0
40
0
40
1
40
1
40
1
40
1
41
1
10
26.6193309750705
20
-13.4233078773839
30
1E-16
41
1
10
26.186802535651
20
-13.4057733011485
30
0
41
1
10
25.7541908608922
20
-13.3886129889445
30
0
41
1
10
25.3214940013401
20
-13.3719045617588
30
0
0
SPLINE
5
E9
100
AcDbEntity
8
1
62
256
6
ByLayer
370
-1
48
1
60
0
100
AcDbSpline
70
4
71
3
72
8
73
4
40
0
40
0
40
0
40
0
40
1
40
1
40
1
40
1
41
1
10
10.4770404590757
20
-11.978742692805
30
0
41
1
10
10.4151986448316
20
-12.1288065388069
30
0
41
1
10
10.4192651612533
20
-12.1400145200748
30
0
41
1
10
10.4999999999998
20
-12.0127750781734
30
0
0
SPLINE
5
EA
100
AcDbEntity
8
1
62
256
6
ByLayer
370
-1
48
1
60
0
100
AcDbSpline
70
4
71
3
72
14
73
10
40
0
40
0
40
0
40
0
40
0.250315130324017
40
0.250315130324017
40
0.49991363321655
40
0.49991363321655
40
0.763647918887393
40
0.763647918887393
40
1
40
1
40
1
40
1
41
1
10
37.8137553067938
20
-14.4599848153983
30
-1E-16
41
1
10
37.903169435577
20
-14.465061072112
30
-1E-16
41
1
10
37.9928266660896
20
-14.4576698609204
30
-1E-16
41
1
10
38.1575965120125
20
-14.4208341327986
30
-1E-16
41
1
10
38.2349774960388
20
-14.391023563929
30
-1E-16
41
1
10
38.3732385274978
20
-14.3122572055914
30
-1E-16
41
1
10
38.4347896768781
20
-14.2613267128604
30
-1E-16
41
1
10
38.5261512429733
20
-14.1527829552267
30
-1E-16
41
1
10
38.5595579136313
20
-14.0954154727308
30
-1E-16
41
1
10
38.5815124504932
20
-14.0351566700623
30
-1E-16
0
SPLINE
5
EB
100
AcDbEntity
8
1
62
256
6
ByLayer
370
-1
48
1
60
0
100
AcDbSpline
70
4
71
3
72
10
73
6
40
0
40
0
40
0
40
0
40
0.590614107964039
40
0.590614107964039
40
1
40
1
40
1
40
1
41
1
10
23.1160043317047
20
13.6276241828782
30
-1E-16
41
1
10
23.0163529131172
20
13.6654546934934
30
-2E-16
41
1
10
22.9181602110512
20
13.7152133159951
30
-2E-16
41
1
10
22.7653545672455
20
13.8153378267802
30
-2E-16
41
1
10
22.7057824190773
20
13.8612639024176
30
-2E-16
41
1
10
22.650639334687
20
13.9108543636273
30
-2E-16
0
SPLINE
5
EC
100
AcDbEntity
8
1
62
256
6
ByLayer
370
-1
48
1
60
0
100
AcDbSpline
70
4
71
3
72
8
73
4
40
0
40
0
40
0
40
0
40
1
40
1
40
1
40
1
41
1
10
38.6162670282045
20
-10.6745929688225
30
-1E-16
41
1
10
38.6153248204804
20
-11.7192210181772
30
-1E-16
41
1
10
38.6143713173505
20
-12.7638489057254
30
-1E-16
41
1
10
38.6134123487265
20
-13.8084767148313
30
-1E-16
0
SPLINE
5
ED
100
AcDbEntity
8
1
62
256
6
ByLayer
370
-1
48
1
60
0
100
AcDbSpline
70
4
71
3
72
26
73
22
40
0
40
0
40
0
40
0
40
0.125736488914932
40
0.125736488914932
40
0.2568650892278
40
0.2568650892278
40
0.364069455963507
40
0.364069455963507
40
0.455031187231934
40
0.455031187231934
40
0.546651165296799
40
0.546651165296799
40
0.62815586202007
40
0.62815586202007
40
0.70542150719725
40
0.70542150719725
40
0.78617116778127
40
0.78617116778127
40
0.899149403985814
40
0.899149403985814
40
1
40
1
40
1
40
1
41
1
10
30.7049191976242
20
-9.76325674236739
30
-6E-16
41
1
10
30.7330008400849
20
-9.52394740443665
30
-6E-16
41
1
10
30.7973530040542
20
-9.27944057999818
30
-6E-16
41
1
10
31.0077078097059
20
-8.79889289012291
30
-6E-16
41
1
10
31.1601428593017
20
-8.55802243618353
30
-5E-16
41
1
10
31.5155379089323
20
-8.17419324641017
30
-5E-16
41
1
10
31.7085237370408
20
-8.01753542379186
30
-5E-16
41
1
10
32.1082289042069
20
-7.79310777150809
30
-5E-16
41
1
10
32.3131643648852
20
-7.71327895442269
30
-5E-16
41
1
10
32.73765347454
20
-7.62287869533432
30
-4E-16
41
1
10
32.9638905267238
20
-7.61186465605485
30
-4E-16
41
1
10
33.3734243243019
20
-7.66461289611956
30
-4E-16
41
1
10
33.5643377261082
20
-7.72112334395933
30
-4E-16
41
1
10
33.8984486237866
20
-7.88183611162091
30
-4E-16
41
1
10
34.047880672456
20
-7.98529361288305
30
-4E-16
41
1
10
34.3066670548247
20
-8.22712116503382
30
-3E-16
41
1
10
34.417175815297
20
-8.36948919212057
30
-3E-16
41
1
10
34.6220393198146
20
-8.72583683172002
30
-3E-16
41
1
10
34.6965596825677
20
-8.95126645493519
30
-3E-16
41
1
10
34.7637349415231
20
-9.3715041700986
30
-3E-16
41
1
10
34.7653821129421
20
-9.57107402554155
30
-3E-16
41
1
10
34.7427675148558
20
-9.76371721442328
30
-3E-16
0
SPLINE
5
EE
100
AcDbEntity
8
1
62
256
6
ByLayer
370
-1
48
1
60
0
100
AcDbSpline
70
4
71
3
72
8
73
4
40
0
40
0
40
0
40
0
40
1
40
1
40
1
40
1
41
1
10
10.5379494581464
20
-11.952190584594
30
0
41
1
10
10.5237985438096
20
-11.9749529013814
30
0
41
1
10
10.5111549184059
20
-11.9951947421686
30
0
41
1
10
10.4999999999993
20
-12.0127750781742
30
0
0
SPLINE
5
EF
100
AcDbEntity
8
1
62
256
6
ByLayer
370
-1
48
1
60
0
100
AcDbSpline
70
4
71
3
72
8
73
4
40
0
40
0
40
0
40
0
40
1
40
1
40
1
40
1
41
1
10
22.3742722913437
20
14.304243904303
30
-2E-16
41
1
10
22.0892354976212
20
14.2328938997269
30
-2E-16
41
1
10
21.8042088051434
20
14.1615032986193
30
2E-16
41
1
10
21.5191926840939
20
14.0900702912871
30
2E-16
0
SPLINE
5
F0
100
AcDbEntity
8
1
62
256
6
ByLayer
370
-1
48
1
60
0
100
AcDbSpline
70
4
71
3
72
8
73
4
40
0
40
0
40
0
40
0
40
1
40
1
40
1
40
1
41
1
10
10.4370655128426
20
12.1002779777515
30
0
41
1
10
10.4438434279167
20
12.097875897418
30
0
41
1
10
10.4645171060525
20
12.0686967062213
30
0
41
1
10
10.5000000000001
20
12.0127750781726
30
0
0
SPLINE
5
F1
100
AcDbEntity
8
1
62
256
6
ByLayer
370
-1
48
1
60
0
100
AcDbSpline
70
4
71
3
72
8
73
4
40
0
40
0
40
0
40
0
40
1
40
1
40
1
40
1
41
1
10
22.0723662435308
20
5.57623597644246
30
-2E-16
41
1
10
22.1403148410194
20
5.4125608938065
30
-2E-16
41
1
10
22.2234571749042
20
5.25577192110251
30
-2E-16
41
1
10
22.3206188134678
20
5.11365428776702
30
-2E-16
0
SPLINE
5
F2
100
AcDbEntity
8
1
62
256
6
ByLayer
370
-1
48
1
60
0
100
AcDbSpline
70
4
71
3
72
20
73
16
40
0
40
0
40
0
40
0
40
0.0648908958353317
40
0.0648908958353317
40
0.258896072232277
40
0.258896072232277
40
0.449845033989725
40
0.449845033989725
40
0.636616333231688
40
0.636616333231688
40
0.818972252815277
40
0.818972252815277
40
0.997396926040912
40
0.997396926040912
40
1
40
1
40
1
40
1
41
1
10
22.650639334687
20
-13.9108543636275
30
-2E-16
41
1
10
22.615979754651
20
-13.9093310783461
30
-2E-16
41
1
10
22.5822954083242
20
-13.9086943403233
30
-2E-16
41
1
10
22.453773395232
20
-13.9096411016557
30
-2E-16
41
1
10
22.3676266754784
20
-13.9182822037212
30
-2E-16
41
1
10
22.2319800514223
20
-13.9487004305217
30
-2E-16
41
1
10
22.1800368800345
20
-13.9706764926442
30
-2E-16
41
1
10
22.1175144051961
20
-14.023294479758
30
-2E-16
41
1
10
22.1052032356982
20
-14.0544694887096
30
-2E-16
41
1
10
22.1206582769716
20
-14.1208895166142
30
-2E-16
41
1
10
22.1477331965713
20
-14.1569641798932
30
-2E-16
41
1
10
22.235666910085
20
-14.2292861554977
30
-2E-16
41
1
10
22.2970222904324
20
-14.2665392949863
30
-2E-16
41
1
10
22.3720739521064
20
-14.3031754396648
30
-2E-16
41
1
10
22.3731716810618
20
-14.3037097421711
30
-2E-16
41
1
10
22.3742722913436
20
-14.3042439043032
30
-2E-16
0
SPLINE
5
F3
100
AcDbEntity
8
1
62
256
6
ByLayer
370
-1
48
1
60
0
100
AcDbSpline
70
4
71
3
72
16
73
12
40
0
40
0
40
0
40
0
40
0.499999251362859
40
0.499999251362859
40
0.84782634733725
40
0.84782634733725
40
0.934782860722524
40
0.934782860722524
40
0.978260828757096
40
0.978260828757096
40
1
40
1
40
1
40
1
41
1
10
22.0707987568412
20
5.58002396543529
30
0
41
1
10
22.0709414564743
20
5.57967659132069
30
0
41
1
10
22.0710852108636
20
5.57932965138781
30
0
41
1
10
22.0713284078103
20
5.57874113041322
30
0
41
1
10
22.071428223504
20
5.57849970275808
30
0
41
1
10
22.0715530739422
20
5.57819795184435
30
0
41
1
10
22.0715780481413
20
5.57813760352983
30
0
41
1
10
22.0716155267695
20
5.57804708846817
30
0
41
1
10
22.0716280218542
20
5.57801691785045
30
0
41
1
10
22.071646779164
20
5.57797166785804
30
0
41
1
10
22.0716530320606
20
5.57795658461143
30
0
41
1
10
22.0716592991655
20
5.57794150726818
30
0
0
SPLINE
5
F4
100
AcDbEntity
8
1
62
256
6
ByLayer
370
-1
48
1
60
0
100
AcDbSpline
70
4
71
3
72
8
73
4
40
0
40
0
40
0
40
0
40
1
40
1
40
1
40
1
41
1
10
19.3255024977335
20
5.57739069240699
30
5E-16
41
1
10
20.0268819097339
20
5.39513665174837
30
6E-16
41
1
10
20.7490596043564
20
5.25564385378286
30
6E-16
41
1
10
21.4807715354035
20
5.16338222547893
30
6E-16
0
SPLINE
5
F5
100
AcDbEntity
8
1
62
256
6
ByLayer
370
-1
48
1
60
0
100
AcDbSpline
70
4
71
3
72
16
73
12
40
0
40
0
40
0
40
0
40
0.452242961005326
40
0.452242961005326
40
0.628124602148745
40
0.628124602148745
40
0.806409430778863
40
0.806409430778863
40
0.905550411952373
40
0.905550411952373
40
1
40
1
40
1
40
1
41
1
10
8.5
20
-6.50922422413007
30
-2E-16
41
1
10
8.5
20
-6.56615274326214
30
-2E-16
41
1
10
8.49049431724865
20
-6.62391562626578
30
-2E-16
41
1
10
8.45872298606596
20
-6.697800924463
30
-2E-16
41
1
10
8.44752548994211
20
-6.71814288405446
30
-2E-16
41
1
10
8.41936456363186
20
-6.75580543726457
30
-2E-16
41
1
10
8.40196265739274
20
-6.77357529015651
30
-2E-16
41
1
10
8.36914569432622
20
-6.79500731116809
30
-2E-16
41
1
10
8.35596776935202
20
-6.80153396819605
30
-2E-16
41
1
10
8.3286482205026
20
-6.81014691691681
30
-2E-16
41
1
10
8.31422632776395
20
-6.81248853210056
30
-2E-16
41
1
10
8.30000000000001
20
-6.81248853210056
30
-2E-16
0
SPLINE
5
F6
100
AcDbEntity
8
1
62
256
6
ByLayer
370
-1
48
1
60
0
100
AcDbSpline
70
4
71
3
72
12
73
8
40
0
40
0
40
0
40
0
40
0.231979665883281
40
0.231979665883281
40
0.925532365699084
40
0.925532365699084
40
1
40
1
40
1
40
1
41
1
10
22.650639334687
20
13.9108543636273
30
-2E-16
41
1
10
22.615979754651
20
13.9093310783459
30
-2E-16
41
1
10
22.582295408324
20
13.9086943403231
30
-2E-16
41
1
10
22.4537733952318
20
13.9096411016555
30
-2E-16
41
1
10
22.3676266754782
20
13.9182822037211
30
-2E-16
41
1
10
22.2919257570648
20
13.9352578396525
30
-2E-16
41
1
10
22.2847681386143
20
13.9369858170095
30
-2E-16
41
1
10
22.2777995940969
20
13.9387928173756
30
-2E-16
0
SPLINE
5
F7
100
AcDbEntity
8
1
62
256
6
ByLayer
370
-1
48
1
60
0
100
AcDbSpline
70
4
71
3
72
8
73
4
40
0
40
0
40
0
40
0
40
1
40
1
40
1
40
1
41
1
10
12.7297308267443
20
11.9444773170992
30
1E-16
41
1
10
15.6452993795214
20
12.6624480967878
30
-2E-16
41
1
10
18.5625341333999
20
13.3736238982847
30
0
41
1
10
21.4807715354039
20
14.0806017411699
30
2E-16
0
SPLINE
5
F8
100
AcDbEntity
8
1
62
256
6
ByLayer
370
-1
48
1
60
0
100
AcDbSpline
70
4
71
3
72
8
73
4
40
0
40
0
40
0
40
0
40
1
40
1
40
1
40
1
41
1
10
38.6134123487265
20
3.16447644985772
30
-1E-16
41
1
10
38.6134553866688
20
4.08879355448207
30
-1E-16
41
1
10
38.6134962841844
20
4.98552523421586
30
-1E-16
41
1
10
38.6135349057904
20
5.85377907577271
30
-1E-16
0
SPLINE
5
F9
100
AcDbEntity
8
1
62
256
6
ByLayer
370
-1
48
1
60
0
100
AcDbSpline
70
4
71
3
72
8
73
4
40
0
40
0
40
0
40
0
40
1
40
1
40
1
40
1
41
1
10
23.1923820302321
20
13.6001198317305
30
-1E-16
41
1
10
23.1667277892387
20
13.6088714072354
30
-1E-16
41
1
10
23.1412613088248
20
13.6180359165534
30
-1E-16
41
1
10
23.1160043317047
20
13.6276241828782
30
-1E-16
0
SPLINE
5
FA
100
AcDbEntity
8
1
62
256
6
ByLayer
370
-1
48
1
60
0
100
AcDbSpline
70
4
71
3
72
8
73
4
40
0
40
0
40
0
40
0
40
1
40
1
40
1
40
1
41
1
10
21.5699013986773
20
5.1524386078257
30
6E-16
41
1
10
21.5529954248668
20
5.15446631118218
30
6E-16
41
1
10
21.5360925141283
20
5.1565192869152
30
6E-16
41
1
10
21.5191926840936
20
5.15859753645441
30
6E-16
0
SPLINE
5
FB
100
AcDbEntity
8
1
62
256
6
ByLayer
370
-1
48
1
60
0
100
AcDbSpline
70
4
71
3
72
12
73
8
40
0
40
0
40
0
40
0
40
0.341373133635961
40
0.341373133635961
40
0.680604562075672
40
0.680604562075672
40
1
40
1
40
1
40
1
41
1
10
10.5000000000043
20
-11.9495066147253
30
0
41
1
10
10.5376065477063
20
-11.9160417216404
30
0
41
1
10
10.6173356807786
20
-11.877690681046
30
0
41
1
10
10.8350070870809
20
-11.8103748869599
30
0
41
1
10
10.9750142473538
20
-11.7807500212162
30
0
41
1
10
11.2826035168612
20
-11.7494096805201
30
0
41
1
10
11.451338524178
20
-11.7459661575995
30
0
41
1
10
11.6288056790727
20
-11.7608911795992
30
0
0
SPLINE
5
FC
100
AcDbEntity
8
1
62
256
6
ByLayer
370
-1
48
1
60
0
100
AcDbSpline
70
4
71
3
72
8
73
4
40
0
40
0
40
0
40
0
40
1
40
1
40
1
40
1
41
1
10
12.7297308267443
20
-11.9444773170994
30
1E-16
41
1
10
15.6452993795213
20
-12.662448096788
30
-2E-16
41
1
10
18.5625341333999
20
-13.3736238982849
30
0
41
1
10
21.4807715354038
20
-14.0806017411701
30
2E-16
0
SPLINE
5
FD
100
AcDbEntity
8
1
62
256
6
ByLayer
370
-1
48
1
60
0
100
AcDbSpline
70
4
71
3
72
12
73
8
40
0
40
0
40
0
40
0
40
0.411522300763838
40
0.411522300763838
40
0.879173330949444
40
0.879173330949444
40
1
40
1
40
1
40
1
41
1
10
26.6193309750708
20
-13.4233078773835
30
1E-16
41
1
10
26.9230424638176
20
-13.4356202521724
30
1E-16
41
1
10
27.2269408644302
20
-13.4696882188549
30
1E-16
41
1
10
27.8293071248482
20
-13.5865035209208
30
1E-16
41
1
10
28.1313193185144
20
-13.6779599399061
30
2E-16
41
1
10
28.4406390159937
20
-13.8150698111832
30
2E-16
41
1
10
28.5014539373326
20
-13.8448108000507
30
2E-16
41
1
10
28.5582244434835
20
-13.8754653190507
30
2E-16
0
SPLINE
5
FE
100
AcDbEntity
8
1
62
256
6
ByLayer
370
-1
48
1
60
0
100
AcDbSpline
70
4
71
3
72
8
73
4
40
0
40
0
40
0
40
0
40
1
40
1
40
1
40
1
41
1
10
25.652820445092
20
5.28734239401641
30
0
41
1
10
25.5102587437531
20
5.19624509923551
30
0
41
1
10
25.367847171787
20
5.10492080093414
30
0
41
1
10
25.2263527196358
20
5.01377248807773
30
0
0
SPLINE
5
FF
100
AcDbEntity
8
1
62
256
6
ByLayer
370
-1
48
1
60
0
100
AcDbSpline
70
4
71
3
72
10
73
6
40
0
40
0
40
0
40
0
40
0.590614107964054
40
0.590614107964054
40
1
40
1
40
1
40
1
41
1
10
23.1160043317046
20
-13.6276241828785
30
-1E-16
41
1
10
23.0163529131171
20
-13.6654546934937
30
-2E-16
41
1
10
22.9181602110511
20
-13.7152133159954
30
-2E-16
41
1
10
22.7653545672455
20
-13.8153378267804
30
-2E-16
41
1
10
22.7057824190773
20
-13.8612639024179
30
-2E-16
41
1
10
22.650639334687
20
-13.9108543636275
30
-2E-16
0
SPLINE
5
100
100
AcDbEntity
8
1
62
256
6
ByLayer
370
-1
48
1
60
0
100
AcDbSpline
70
4
71
3
72
8
73
4
40
0
40
0
40
0
40
0
40
1
40
1
40
1
40
1
41
1
10
11.6288056790746
20
10.4100706041734
30
0
41
1
10
11.002327882156
20
11.1730453035717
30
0
41
1
10
10.6377141628878
20
11.7957352785048
30
0
41
1
10
10.4999999999992
20
12.0127750781741
30
0
0
SPLINE
5
101
100
AcDbEntity
8
1
62
256
6
ByLayer
370
-1
48
1
60
0
100
AcDbSpline
70
4
71
3
72
16
73
12
40
0
40
0
40
0
40
0
40
0.141377129842199
40
0.141377129842199
40
0.360549694794612
40
0.360549694794612
40
0.57972039803008
40
0.57972039803008
40
0.798888811024928
40
0.798888811024928
40
1
40
1
40
1
40
1
41
1
10
38.6172957789661
20
-8.48968585091004
30
-1E-16
41
1
10
38.6171785451203
20
-8.63153549592545
30
-1E-16
41
1
10
38.6170671564925
20
-8.77605519295838
30
-1E-16
41
1
10
38.6168063648917
20
-9.13813211680846
30
-1E-16
41
1
10
38.6166661857789
20
-9.35731565234718
30
-1E-16
41
1
10
38.6164402739595
20
-9.75785478565791
30
-1E-16
41
1
10
38.6163513424932
20
-9.94473442290368
30
-1E-16
41
1
10
38.6162324552998
20
-10.2607617614461
30
-1E-16
41
1
10
38.6162008150652
20
-10.3942682801859
30
-1E-16
41
1
10
38.6161971093379
20
-10.582095952285
30
-1E-16
41
1
10
38.6162202153444
20
-10.6443411691392
30
-1E-16
41
1
10
38.6162670282045
20
-10.6745929688225
30
-1E-16
0
SPLINE
5
102
100
AcDbEntity
8
1
62
256
6
ByLayer
370
-1
48
1
60
0
100
AcDbSpline
70
4
71
3
72
8
73
4
40
0
40
0
40
0
40
0
40
1
40
1
40
1
40
1
41
1
10
34.3587717832452
20
-11.4566295369514
30
-3E-16
41
1
10
35.5104330457291
20
-11.4642120954545
30
-3E-16
41
1
10
36.6620942206178
20
-11.4717897556759
30
-2E-16
41
1
10
37.8137553067938
20
-11.4793625016016
30
-1E-16
0
SPLINE
5
103
100
AcDbEntity
8
1
62
256
6
ByLayer
370
-1
48
1
60
0
100
AcDbSpline
70
4
71
3
72
8
73
4
40
0
40
0
40
0
40
0
40
1
40
1
40
1
40
1
41
1
10
38.6135349057904
20
5.85377907577279
30
-1E-16
41
1
10
38.6148148446308
20
5.70730347965116
30
-1E-16
41
1
10
38.6160785108348
20
5.56082682288218
30
-1E-16
41
1
10
38.6172957789661
20
5.41434714229263
30
-1E-16
0
SPLINE
5
104
100
AcDbEntity
8
1
62
256
6
ByLayer
370
-1
48
1
60
0
100
AcDbSpline
70
4
71
3
72
8
73
4
40
0
40
0
40
0
40
0
40
1
40
1
40
1
40
1
41
1
10
10.5000000000043
20
-11.9495066147253
30
0
41
1
10
10.4885596580666
20
-11.9596870179581
30
0
41
1
10
10.4808605279989
20
-11.9694730062405
30
0
41
1
10
10.4770404590756
20
-11.9787426928051
30
0
0
SPLINE
5
105
100
AcDbEntity
8
1
62
256
6
ByLayer
370
-1
48
1
60
0
100
AcDbSpline
70
4
71
3
72
10
73
6
40
0
40
0
40
0
40
0
40
0.524829695124832
40
0.524829695124832
40
1
40
1
40
1
40
1
41
1
10
38.6134123487265
20
-13.8084767148313
30
-1E-16
41
1
10
38.6133754356083
20
-13.8486870709081
30
-1E-16
41
1
10
38.610431881715
20
-13.8889638209513
30
-1E-16
41
1
10
38.5992787318956
20
-13.9646307735698
30
-1E-16
41
1
10
38.5915672523497
20
-14.0002912050732
30
-1E-16
41
1
10
38.5815124504932
20
-14.0351566700623
30
-1E-16
0
SPLINE
5
106
100
AcDbEntity
8
1
62
256
6
ByLayer
370
-1
48
1
60
0
100
AcDbSpline
70
4
71
3
72
12
73
8
40
0
40
0
40
0
40
0
40
0.244849091820663
40
0.244849091820663
40
0.633796057624366
40
0.633796057624366
40
1
40
1
40
1
40
1
41
1
10
10.5592857180173
20
11.9103606229098
30
0
41
1
10
10.6014178500243
20
11.8879724756659
30
0
41
1
10
10.6581523349986
20
11.8650679597733
30
0
41
1
10
10.8350070870806
20
11.8103748869597
30
0
41
1
10
10.9750142473534
20
11.7807500212161
30
0
41
1
10
11.282603516861
20
11.7494096805199
30
0
41
1
10
11.4513385241778
20
11.7459661575993
30
0
41
1
10
11.6288056790727
20
11.760891179599
30
0
0
SPLINE
5
107
100
AcDbEntity
8
1
62
256
6
ByLayer
370
-1
48
1
60
0
100
AcDbSpline
70
4
71
3
72
34
73
30
40
0
40
0
40
0
40
0
40
0.0625
40
0.09375
40
0.109375
40
0.1171875
40
0.125
40
0.15625
40
0.171875
40
0.1875
40
0.21875
40
0.25
40
0.28125
40
0.3125
40
0.34375
40
0.375
40
0.4375
40
0.5
40
0.5625
40
0.625
40
0.65625
40
0.6875
40
0.75
40
0.8125
40
0.859375
40
0.875
40
0.90625
40
0.9375
40
1
40
1
40
1
40
1
41
1
10
23.9922405232926
20
15.4058166269942
30
-1E-16
41
1
10
23.7758598654491
20
15.3970732687963
30
-1E-16
41
1
10
23.4465034470842
20
15.2015956671893
30
-1E-16
41
1
10
23.3785372398579
20
14.8431645644157
30
-1E-16
41
1
10
23.3444782251355
20
14.6686118234546
30
-1E-16
41
1
10
23.3255248960774
20
14.5695762490161
30
-1E-16
41
1
10
23.2978691945383
20
14.4214200450349
30
-1E-16
41
1
10
23.2686364315703
20
14.2488204173478
30
-1E-16
41
1
10
23.2390844331396
20
14.0517187346262
30
-1E-16
41
1
10
23.2120031495394
20
13.8546581313592
30
-1E-16
41
1
10
23.1825956337378
20
13.6082926319362
30
-1E-16
41
1
10
23.153813951546
20
13.3122167782727
30
-1E-16
41
1
10
23.1309364009768
20
13.0153300084401
30
-1E-16
41
1
10
23.1128955277986
20
12.7171295823138
30
-1E-16
41
1
10
23.09862387778
20
12.4171127597693
30
-1E-16
41
1
10
23.0831973696592
20
12.0139981476528
30
-1E-16
41
1
10
23.0680000212496
20
11.5030501908389
30
-1E-16
41
1
10
23.0573905177164
20
10.8715029373724
30
1E-16
41
1
10
23.0554983845138
20
10.2144237799962
30
1E-16
41
1
10
22.9772327608672
20
9.67434637377443
30
1E-16
41
1
10
22.7966644568526
20
9.27098129253852
30
1E-16
41
1
10
22.5403647761225
20
8.90764474479926
30
0
41
1
10
22.5024834655301
20
8.3480041683332
30
0
41
1
10
22.5091613404828
20
7.75059802483435
30
0
41
1
10
22.5081888334075
20
7.31449063981256
30
0
41
1
10
22.5078107686757
20
6.98726247291057
30
0
41
1
10
22.5488414490351
20
6.71032842784442
30
0
41
1
10
22.7624490202237
20
6.33204606568694
30
1E-16
41
1
10
23.0944418152093
20
6.21048601730334
30
1E-16
41
1
10
23.3107741528364
20
6.19415139876492
30
1E-16
0
SPLINE
5
108
100
AcDbEntity
8
1
62
256
6
ByLayer
370
-1
48
1
60
0
100
AcDbSpline
70
4
71
3
72
34
73
30
40
0
40
0
40
0
40
0
40
0.0625
40
0.09375
40
0.125
40
0.140625
40
0.1875
40
0.25
40
0.3125
40
0.34375
40
0.375
40
0.4375
40
0.5
40
0.5625
40
0.625
40
0.65625
40
0.6875
40
0.71875
40
0.75
40
0.78125
40
0.8125
40
0.828125
40
0.84375
40
0.875
40
0.8828125
40
0.890625
40
0.90625
40
0.9375
40
1
40
1
40
1
40
1
41
1
10
38.9313704836821
20
6.38125417234187
30
0
41
1
10
39.1457719852617
20
6.38885814174586
30
-1E-16
41
1
10
39.4565792403478
20
6.58777171059194
30
0
41
1
10
39.5024979609177
20
7.01571485131785
30
0
41
1
10
39.5262817360714
20
7.27550456968808
30
0
41
1
10
39.5482157772991
20
7.58739300904244
30
0
41
1
10
39.5662208012828
20
8.003583691209
30
0
41
1
10
39.5675520061651
20
8.57712374992221
30
0
41
1
10
39.5494524369329
20
9.10049623783593
30
0
41
1
10
39.5292115031382
20
9.52096680746129
30
0
41
1
10
39.5071491569506
20
9.94281617536367
30
0
41
1
10
39.4792354218581
20
10.473069624184
30
0
41
1
10
39.4598361978524
20
11.1153219614294
30
0
41
1
10
39.4552714256976
20
11.7644646645614
30
0
41
1
10
39.5044467808577
20
12.3013389897495
30
0
41
1
10
39.6585777237572
20
12.7083309334592
30
0
41
1
10
39.8405201760893
20
12.9787237212983
30
0
41
1
10
39.9686431345342
20
13.2730960745804
30
0
41
1
10
40.002619294378
20
13.6210986245417
30
0
41
1
10
39.994807360901
20
13.8128123401336
30
0
41
1
10
39.9958444685711
20
13.8579008671588
30
0
41
1
10
39.9957843875377
20
13.9927593631163
30
0
41
1
10
39.9957710371768
20
14.2322741783745
30
0
41
1
10
39.9948548904694
20
14.668251097501
30
0
41
1
10
39.9962288499077
20
15.1969804785076
30
0
41
1
10
39.9823257176709
20
15.21344264912
30
0
41
1
10
39.933544230807
20
15.4430721219951
30
0
41
1
10
39.7297520740444
20
15.7386713466497
30
0
41
1
10
39.4093025880996
20
15.8655803164261
30
0
41
1
10
39.1962540028076
20
15.8817468384087
30
0
0
SPLINE
5
109
100
AcDbEntity
8
1
62
256
6
ByLayer
370
-1
48
1
60
0
100
AcDbSpline
70
4
71
3
72
15
73
11
40
0
40
0
40
0
40
0
40
0.125
40
0.25
40
0.375
40
0.5
40
0.625
40
0.75
40
0.875
40
1
40
1
40
1
40
1
41
1
10
39.1962540029024
20
15.8817468384015
30
0
41
1
10
38.5492055069054
20
15.8818055773842
30
0
41
1
10
37.270085342225
20
15.874441451169
30
0
41
1
10
35.3976530734019
20
15.8436336976449
30
1E-16
41
1
10
33.5156924502111
20
15.7952432818225
30
0
41
1
10
31.6300322955711
20
15.7295588536228
30
-1E-16
41
1
10
29.7465014324
20
15.6468690629669
30
-2E-16
41
1
10
27.8563880876615
20
15.5490571049096
30
1E-16
41
1
10
25.922283882222
20
15.4822118779415
30
0
41
1
10
24.6355969845395
20
15.4320186445734
30
-1E-16
41
1
10
23.9922405231963
20
15.4058166269903
30
-1E-16
0
SPLINE
5
10A
100
AcDbEntity
8
1
62
256
6
ByLayer
370
-1
48
1
60
0
100
AcDbSpline
70
4
71
3
72
15
73
11
40
0
40
0
40
0
40
0
40
0.125
40
0.25
40
0.375
40
0.5
40
0.625
40
0.75
40
0.875
40
1
40
1
40
1
40
1
41
1
10
23.3107741529832
20
6.19415139875383
30
1E-16
41
1
10
23.9556992210784
20
6.1955659579416
30
-1E-16
41
1
10
25.2585061732408
20
6.18638131198529
30
0
41
1
10
27.2159482690801
20
6.15847540305052
30
1E-16
41
1
10
29.1727551760479
20
6.15681262818629
30
0
41
1
10
31.1296456008179
20
6.17109270880582
30
-1E-16
41
1
10
33.0860847517534
20
6.20331374027134
30
0
41
1
10
35.0435012928923
20
6.25478326793348
30
-1E-16
41
1
10
36.9876082162033
20
6.31464889871026
30
0
41
1
10
38.2834006659825
20
6.35833730757295
30
0
41
1
10
38.9313704835366
20
6.3812541723367
30
0
0
SPLINE
5
10B
100
AcDbEntity
8
1
62
256
6
ByLayer
370
-1
48
1
60
0
100
AcDbSpline
70
4
71
3
72
44
73
40
40
-0.0482795240669519
40
-0.0482795240669519
40
0
40
0
40
0.0535858709848932
40
0.0535858709848932
40
0.107129547859876
40
0.107129547859876
40
0.161232036435214
40
0.161232036435214
40
0.215379076835184
40
0.215379076835184
40
0.267897031906463
40
0.267897031906463
40
0.317096834048404
40
0.317096834048404
40
0.370103171332341
40
0.370103171332341
40
0.424982119566783
40
0.424982119566783
40
0.476828059361377
40
0.476828059361377
40
0.528625424454025
40
0.528625424454025
40
0.580992529960377
40
0.580992529960377
40
0.6348945673346
40
0.6348945673346
40
0.689197544843965
40
0.689197544843965
40
0.742947245372962
40
0.742947245372962
40
0.792793188052499
40
0.792793188052499
40
0.843479228223404
40
0.843479228223404
40
0.898261296226699
40
0.898261296226699
40
0.951720475933048
40
0.951720475933048
40
1
40
1
40
1.05358587098489
40
1.05358587098489
41
1
10
31.5990604704697
20
8.37169475288187
30
-1E-16
41
1
10
31.0392603317728
20
8.36779096855742
30
-1E-16
41
1
10
30.7404910421884
20
8.41723643441688
30
1E-16
41
1
10
30.1837920827728
20
8.6090823781355
30
1E-16
41
1
10
29.9181483217493
20
8.75402183589429
30
0
41
1
10
29.4525461474253
20
9.11970762276397
30
0
41
1
10
29.24665302135
20
9.34623756367805
30
0
41
1
10
28.9268477068257
20
9.84785785446431
30
0
41
1
10
28.8081526463913
20
10.1303999607536
30
0
41
1
10
28.6800542005379
20
10.7002052581869
30
0
41
1
10
28.6662231992896
20
10.9951069857491
30
0
41
1
10
28.736813550906
20
11.5411003404669
30
0
41
1
10
28.8153174900164
20
11.8007844524332
30
0
41
1
10
29.0535548469552
20
12.2983037962863
30
0
41
1
10
29.2224148184908
20
12.5403155610166
30
0
41
1
10
29.6316562434234
20
12.963836319347
30
0
41
1
10
29.8804304183647
20
13.150087065504
30
0
41
1
10
30.4011557901996
20
13.4207400822191
30
1E-16
41
1
10
30.6784081841588
20
13.5135152341672
30
1E-16
41
1
10
31.2350186892492
20
13.6056834748409
30
-1E-16
41
1
10
31.5216559363361
20
13.6065651504589
30
-1E-16
41
1
10
32.0701679629676
20
13.517752973004
30
0
41
1
10
32.3395757005536
20
13.4257683774229
30
0
41
1
10
32.8320255788654
20
13.1576821101726
30
0
41
1
10
33.0593963718099
20
12.9760996974225
30
0
41
1
10
33.4355537124831
20
12.548974744539
30
0
41
1
10
33.5901392539417
20
12.2958659051444
30
1E-16
41
1
10
33.80210621728
20
11.7574702784847
30
0
41
1
10
33.8645444908599
20
11.46308388552
30
0
41
1
10
33.8928314217742
20
10.8948569669012
30
0
41
1
10
33.8657957718693
20
10.614186904789
30
0
41
1
10
33.7330820535183
20
10.0786678049313
30
-1E-16
41
1
10
33.6243831672377
20
9.81705524338142
30
1E-16
41
1
10
33.3241981691337
20
9.3284653673575
30
0
41
1
10
33.1227861183187
20
9.09885888257156
30
0
41
1
10
32.6612435530568
20
8.73340165336003
30
0
41
1
10
32.3965969820267
20
8.59063622290762
30
0
41
1
10
31.8674395876857
20
8.41554499527447
30
-1E-16
41
1
10
31.5990604704697
20
8.37169475288187
30
-1E-16
41
1
10
31.0392603317728
20
8.36779096855742
30
-1E-16
0
SPLINE
5
10C
100
AcDbEntity
8
1
62
256
6
ByLayer
370
-1
48
1
60
0
100
AcDbSpline
70
4
71
3
72
14
73
10
40
0
40
0
40
0
40
0
40
0.283961457856587
40
0.283961457856587
40
0.570284934646618
40
0.570284934646618
40
0.82945086906046
40
0.82945086906046
40
1
40
1
40
1
40
1
41
1
10
32.8428636517634
20
10.6781055499716
30
0
41
1
10
32.8725192709831
20
10.6889233044565
30
0
41
1
10
32.9017669523795
20
10.7056167896724
30
0
41
1
10
32.9542817054432
20
10.7494538521423
30
0
41
1
10
32.9782757405701
20
10.7774114368347
30
0
41
1
10
33.0137921316477
20
10.8378221054115
30
0
41
1
10
33.0267698396962
20
10.870540408276
30
0
41
1
10
33.0389297612034
20
10.9263125885551
30
0
41
1
10
33.0414322806243
20
10.9492770904343
30
0
41
1
10
33.0414322806243
20
10.971900802296
30
0
0
SPLINE
5
10D
100
AcDbEntity
8
1
62
256
6
ByLayer
370
-1
48
1
60
0
100
AcDbSpline
70
4
71
3
72
14
73
10
40
0
40
0
40
0
40
0
40
0.282169922576106
40
0.282169922576106
40
0.566902245317965
40
0.566902245317965
40
0.824523972080262
40
0.824523972080262
40
1
40
1
40
1
40
1
41
1
10
30.9129110148873
20
12.3283698316885
30
1E-16
41
1
10
30.8871105735983
20
12.3535091092739
30
1E-16
41
1
10
30.8565045651398
20
12.3750910445347
30
1E-16
41
1
10
30.7895732869473
20
12.4066483828975
30
1E-16
41
1
10
30.7521351773142
20
12.4169482254043
30
1E-16
41
1
10
30.680228589182
20
12.4224622798583
30
1E-16
41
1
10
30.6447269961064
20
12.4190403429726
30
1E-16
41
1
10
30.5888971130589
20
12.4028472105979
30
1E-16
41
1
10
30.5668655940877
20
12.3932969838925
30
1E-16
41
1
10
30.546653998954
20
12.3812235471188
30
1E-16
0
SPLINE
5
10E
100
AcDbEntity
8
1
62
256
6
ByLayer
370
-1
48
1
60
0
100
AcDbSpline
70
4
71
3
72
16
73
12
40
0
40
0
40
0
40
0
40
0.0569446172824962
40
0.0569446172824962
40
0.27990664483407
40
0.27990664483407
40
0.50532196730668
40
0.50532196730668
40
0.744915047128809
40
0.744915047128809
40
1
40
1
40
1
40
1
41
1
10
32.2151857838181
20
9.51802671210982
30
0
41
1
10
32.2217141854231
20
9.52192646586451
30
0
41
1
10
32.2281194666576
20
9.52607173818592
30
0
41
1
10
32.2586457834615
20
9.54741306467375
30
0
41
1
10
32.2808580752042
20
9.56811807617694
30
0
41
1
10
32.318046355395
20
9.61364487493179
30
0
41
1
10
32.3334311339663
20
9.63907584117311
30
0
41
1
10
32.3566852312453
20
9.6925761915283
30
0
41
1
10
32.3643407608451
20
9.72137085823033
30
0
41
1
10
32.3711433539007
20
9.77908013630756
30
0
41
1
10
32.3698204483805
20
9.80856689245059
30
0
41
1
10
32.3642508680876
20
9.83593226620238
30
0
0
SPLINE
5
10F
100
AcDbEntity
8
1
62
256
6
ByLayer
370
-1
48
1
60
0
100
AcDbSpline
70
4
71
3
72
18
73
14
40
0
40
0
40
0
40
0
40
0.212491695755302
40
0.212491695755302
40
0.386618276853805
40
0.386618276853805
40
0.562426360907933
40
0.562426360907933
40
0.715388416645937
40
0.715388416645937
40
0.918249208689864
40
0.918249208689864
40
1
40
1
40
1
40
1
41
1
10
32.3642508680876
20
12.0684850984739
30
0
41
1
10
32.3511283014954
20
11.9964898911497
30
0
41
1
10
32.3478102653216
20
11.9196408751967
30
0
41
1
10
32.3625961295254
20
11.7793702700694
30
0
41
1
10
32.3772392351332
20
11.7144771337015
30
0
41
1
10
32.422472797985
20
11.5910159638295
30
0
41
1
10
32.4540215733305
20
11.5307791260394
30
0
41
1
10
32.5237804240014
20
11.4333465869936
30
0
41
1
10
32.5613749454117
20
11.3929453601932
30
0
41
1
10
32.6536913530986
20
11.315631123843
30
0
41
1
10
32.7114913832383
20
11.2825915299823
30
0
41
1
10
32.794173444897
20
11.2517871829347
30
0
41
1
10
32.8184502032505
20
11.2446162865328
30
0
41
1
10
32.8428636517634
20
11.2391529374564
30
0
0
SPLINE
5
110
100
AcDbEntity
8
1
62
256
6
ByLayer
370
-1
48
1
60
0
100
AcDbSpline
70
4
71
3
72
16
73
12
40
0
40
0
40
0
40
0
40
0.0630415689509242
40
0.0630415689509242
40
0.285914332024973
40
0.285914332024973
40
0.511588305408902
40
0.511588305408902
40
0.751723061839369
40
0.751723061839369
40
1
40
1
40
1
40
1
41
1
10
33.0414322806243
20
10.971900802296
30
0
41
1
10
33.0414322806243
20
10.9802951446478
30
0
41
1
10
33.041093463498
20
10.988677553272
30
0
41
1
10
33.0380506242938
20
11.0261841612555
30
0
41
1
10
33.0313834619797
20
11.0549911218541
30
0
41
1
10
33.0107680379905
20
11.1076607817037
30
0
41
1
10
32.9964877827154
20
11.1321370280325
30
0
41
1
10
32.9617644059149
20
11.1752191442796
30
0
41
1
10
32.9405736352355
20
11.1939091311901
30
0
41
1
10
32.8944014867854
20
11.2229491359894
30
0
41
1
10
32.8688111938067
20
11.2333462821703
30
0
41
1
10
32.8428636517635
20
11.2391529374564
30
0
0
SPLINE
5
111
100
AcDbEntity
8
1
62
256
6
ByLayer
370
-1
48
1
60
0
100
AcDbSpline
70
4
71
3
72
12
73
8
40
0
40
0
40
0
40
0
40
0.495779676780351
40
0.495779676780351
40
0.900233025448792
40
0.900233025448792
40
1
40
1
40
1
40
1
41
1
10
30.9129110148873
20
12.3283698316885
30
1E-16
41
1
10
30.9676912054169
20
12.274993441708
30
-1E-16
41
1
10
31.031811678475
20
12.228150950121
30
-1E-16
41
1
10
31.1596490055549
20
12.1631825244589
30
-1E-16
41
1
10
31.2227457878767
20
12.1407878678306
30
-1E-16
41
1
10
31.3033254765517
20
12.1250910272734
30
-1E-16
41
1
10
31.319582456039
20
12.1225416371686
30
-1E-16
41
1
10
31.3358773834045
20
12.1206152375354
30
-1E-16
0
SPLINE
5
112
100
AcDbEntity
8
1
62
256
6
ByLayer
370
-1
48
1
60
0
100
AcDbSpline
70
4
71
3
72
12
73
8
40
0
40
0
40
0
40
0
40
0.422118633920709
40
0.422118633920709
40
0.843213619146834
40
0.843213619146834
40
1
40
1
40
1
40
1
41
1
10
31.3358773834045
20
9.72458337443635
30
-1E-16
41
1
10
31.2680489127491
20
9.71619248346042
30
-1E-16
41
1
10
31.2003885681982
20
9.6984042932749
30
-1E-16
41
1
10
31.0768334064518
20
9.64917440809813
30
-1E-16
41
1
10
31.0191621720908
20
9.617218921937
30
-1E-16
41
1
10
30.9488205971763
20
9.56656720804307
30
-1E-16
41
1
10
30.9304249022663
20
9.55199012177025
30
1E-16
41
1
10
30.9129110148873
20
9.53676957841674
30
1E-16
0
SPLINE
5
113
100
AcDbEntity
8
1
62
256
6
ByLayer
370
-1
48
1
60
0
100
AcDbSpline
70
4
71
3
72
16
73
12
40
0
40
0
40
0
40
0
40
0.0624450082614026
40
0.0624450082614026
40
0.283207995985775
40
0.283207995985775
40
0.506745688833536
40
0.506745688833536
40
0.744607284736975
40
0.744607284736975
40
1
40
1
40
1
40
1
41
1
10
32.2151857838182
20
12.403606799505
30
0
41
1
10
32.207963335564
20
12.4077273660057
30
0
41
1
10
32.2005743582832
20
12.4115182254356
30
0
41
1
10
32.1667161659837
20
12.4270205693031
30
0
41
1
10
32.1384519598253
20
12.4347886624066
30
0
41
1
10
32.0823762796677
20
12.4409165877549
30
0
41
1
10
32.0538635614301
20
12.4392589591168
30
0
41
1
10
31.9986670982643
20
12.4271045596493
30
0
41
1
10
31.9715202700522
20
12.4159279938273
30
0
41
1
10
31.921473087686
20
12.3851553427483
30
-1E-16
41
1
10
31.8984137040317
20
12.3646582776754
30
-1E-16
41
1
10
31.8794272364897
20
12.3413355880017
30
-1E-16
0
SPLINE
5
114
100
AcDbEntity
8
1
62
256
6
ByLayer
370
-1
48
1
60
0
100
AcDbSpline
70
4
71
3
72
14
73
10
40
0
40
0
40
0
40
0
40
0.282169922576107
40
0.282169922576107
40
0.566902245317961
40
0.566902245317961
40
0.824523972080258
40
0.824523972080258
40
1
40
1
40
1
40
1
41
1
10
31.8794272364897
20
9.54973533472997
30
-1E-16
41
1
10
31.9004033841757
20
9.52794081970617
30
-1E-16
41
1
10
31.9264086580989
20
9.50954864980721
30
-1E-16
41
1
10
31.9852543132233
20
9.4835972076755
30
0
41
1
10
32.0190951694153
20
9.47579140048754
30
0
41
1
10
32.0857278109314
20
9.4739338604677
30
0
41
1
10
32.1193267836398
20
9.47867491552844
30
0
41
1
10
32.1733257302044
20
9.49613746645528
30
0
41
1
10
32.1949741886844
20
9.50595327533611
30
0
41
1
10
32.2151857838181
20
9.51802671210982
30
0
0
SPLINE
5
115
100
AcDbEntity
8
1
62
256
6
ByLayer
370
-1
48
1
60
0
100
AcDbSpline
70
4
71
3
72
14
73
10
40
0
40
0
40
0
40
0
40
0.283961749036713
40
0.283961749036713
40
0.570285189259028
40
0.570285189259028
40
0.829451094335683
40
0.829451094335683
40
1
40
1
40
1
40
1
41
1
10
30.4276081589904
20
9.80995232207857
30
1E-16
41
1
10
30.416618765875
20
9.7792645975471
30
1E-16
41
1
10
30.4111364235536
20
9.74602827407506
30
1E-16
41
1
10
30.4134252936357
20
9.67953067502995
30
1E-16
41
1
10
30.4214054911651
20
9.64524724993237
30
1E-16
41
1
10
30.4496634487266
20
9.58515450441334
30
1E-16
41
1
10
30.4691852943533
20
9.5579686564524
30
1E-16
41
1
10
30.5090909225683
20
9.52016700987022
30
1E-16
41
1
10
30.5271887654334
20
9.50674880604814
30
1E-16
41
1
10
30.546653998954
20
9.49564345972365
30
1E-16
0
SPLINE
5
116
100
AcDbEntity
8
1
62
256
6
ByLayer
370
-1
48
1
60
0
100
AcDbSpline
70
4
71
3
72
16
73
12
40
0
40
0
40
0
40
0
40
0.0630415689509294
40
0.0630415689509294
40
0.285914332024976
40
0.285914332024976
40
0.511588305408908
40
0.511588305408908
40
0.751723061839377
40
0.751723061839377
40
1
40
1
40
1
40
1
41
1
10
29.7204075021477
20
10.9273494569326
30
0
41
1
10
29.7204075021477
20
10.9189551145809
30
0
41
1
10
29.7207944398701
20
10.9105393431514
30
0
41
1
10
29.7242698132074
20
10.8727328520981
30
0
41
1
10
29.7318836576699
20
10.8432695411053
30
0
41
1
10
29.7554623310912
20
10.7885454114044
30
0
41
1
10
29.7718084470178
20
10.7626368697111
30
0
41
1
10
29.8116484275455
20
10.7160073274575
30
0
41
1
10
29.836006715195
20
10.6951212486325
30
0
41
1
10
29.8892561470989
20
10.6611744461373
30
0
41
1
10
29.918856283476
20
10.6479972091948
30
0
41
1
10
29.9489953753146
20
10.6392844830962
30
1E-16
0
SPLINE
5
117
100
AcDbEntity
8
1
62
256
6
ByLayer
370
-1
48
1
60
0
100
AcDbSpline
70
4
71
3
72
14
73
10
40
0
40
0
40
0
40
0
40
0.283961457856586
40
0.283961457856586
40
0.570284934646619
40
0.570284934646619
40
0.829450869060463
40
0.829450869060463
40
1
40
1
40
1
40
1
41
1
10
29.9489953753146
20
11.2003318705809
30
1E-16
41
1
10
29.91454920582
20
11.1928354838502
30
0
41
1
10
29.8807402542827
20
11.1793044026786
30
0
41
1
10
29.8202293174081
20
11.1410112267231
30
0
41
1
10
29.7926887947098
20
11.1155124805324
30
0
41
1
10
29.7519934680494
20
11.0586924536686
30
0
41
1
10
29.7371595531922
20
11.0272610896911
30
0
41
1
10
29.7232648413288
20
10.9726916682641
30
0
41
1
10
29.7204075021477
20
10.9499731687943
30
0
41
1
10
29.7204075021477
20
10.9273494569326
30
0
0
SPLINE
5
118
100
AcDbEntity
8
1
62
256
6
ByLayer
370
-1
48
1
60
0
100
AcDbSpline
70
4
71
3
72
14
73
10
40
0
40
0
40
0
40
0
40
0.283961749036714
40
0.283961749036714
40
0.570285189259027
40
0.570285189259027
40
0.829451094335677
40
0.829451094335677
40
1
40
1
40
1
40
1
41
1
10
32.3642508680876
20
12.0684850984739
30
0
41
1
10
32.3704497060299
20
12.1024941941556
30
0
41
1
10
32.3713707737147
20
12.1388929247889
30
0
41
1
10
32.3610857184069
20
12.2109344113293
30
0
41
1
10
32.3495590350509
20
12.2476766737189
30
0
41
1
10
32.3161221451663
20
12.3113600586909
30
0
41
1
10
32.2947440943217
20
12.339832844436
30
0
41
1
10
32.2531036790141
20
12.3788372476076
30
0
41
1
10
32.2346510173387
20
12.3925014531805
30
0
41
1
10
32.2151857838182
20
12.403606799505
30
0
0
SPLINE
5
119
100
AcDbEntity
8
1
62
256
6
ByLayer
370
-1
48
1
60
0
100
AcDbSpline
70
4
71
3
72
12
73
8
40
0
40
0
40
0
40
0
40
0.495779676780363
40
0.495779676780363
40
0.900233025448793
40
0.900233025448793
40
1
40
1
40
1
40
1
41
1
10
31.8794272364897
20
9.54973533472997
30
-1E-16
41
1
10
31.8348901158277
20
9.59601003492338
30
-1E-16
41
1
10
31.7804644685559
20
9.63613094341432
30
-1E-16
41
1
10
31.6668036302861
20
9.69127057486736
30
-1E-16
41
1
10
31.6089251403106
20
9.71004730308741
30
-1E-16
41
1
10
31.5321601277461
20
9.72309936559219
30
-1E-16
41
1
10
31.5165364240683
20
9.72520969510214
30
-1E-16
41
1
10
31.5007336011687
20
9.72679491056837
30
-1E-16
0
SPLINE
5
11A
100
AcDbEntity
8
1
62
256
6
ByLayer
370
-1
48
1
60
0
100
AcDbSpline
70
4
71
3
72
16
73
12
40
0
40
0
40
0
40
0
40
0.0569446172824963
40
0.0569446172824963
40
0.279906644834071
40
0.279906644834071
40
0.505321967306686
40
0.505321967306686
40
0.744915047128812
40
0.744915047128812
40
1
40
1
40
1
40
1
41
1
10
30.546653998954
20
12.3812235471188
30
1E-16
41
1
10
30.540125597349
20
12.3773237933641
30
1E-16
41
1
10
30.5337596153718
20
12.3731512742176
30
1E-16
41
1
10
30.5036161834906
20
12.3515444872789
30
1E-16
41
1
10
30.4823192865422
20
12.3302048174217
30
1E-16
41
1
10
30.4480357669468
20
12.2826641000935
30
1E-16
41
1
10
30.4346873566975
20
12.2558212860075
30
1E-16
41
1
10
30.4164918791365
20
12.1988137109188
30
1E-16
41
1
10
30.4119739796291
20
12.1678436733689
30
1E-16
41
1
10
30.4122975522578
20
12.1051937067367
30
1E-16
41
1
10
30.417734323298
20
12.0728547395743
30
1E-16
41
1
10
30.4276081589904
20
12.0425051543502
30
1E-16
0
SPLINE
5
11B
100
AcDbEntity
8
1
62
256
6
ByLayer
370
-1
48
1
60
0
100
AcDbSpline
70
4
71
3
72
18
73
14
40
0
40
0
40
0
40
0
40
0.212491592102414
40
0.212491592102414
40
0.386618191488473
40
0.386618191488473
40
0.562426295050811
40
0.562426295050811
40
0.715388354469454
40
0.715388354469454
40
0.918249128147156
40
0.918249128147156
40
1
40
1
40
1
40
1
41
1
10
32.8428636517634
20
10.6781055499716
30
0
41
1
10
32.7800844584245
20
10.6552050030208
30
0
41
1
10
32.7176303107218
20
10.6211393933715
30
0
41
1
10
32.6119302395372
20
10.5399165386615
30
0
41
1
10
32.5661201971059
20
10.4952033969925
30
0
41
1
10
32.4853781438665
20
10.3940179562293
30
0
41
1
10
32.4494593664154
20
10.3358448739188
30
0
41
1
10
32.3981470199569
20
10.2243156749864
30
0
41
1
10
32.3800232692533
20
10.1700057909553
30
0
41
1
10
32.353034147669
20
10.0472597914918
30
0
41
1
10
32.3484556064731
20
9.97787148164011
30
0
41
1
10
32.3555239721777
20
9.88681023645938
30
0
41
1
10
32.3591477877987
20
9.86100555575894
30
0
41
1
10
32.3642508680876
20
9.83593226620241
30
0
0
SPLINE
5
11C
100
AcDbEntity
8
1
62
256
6
ByLayer
370
-1
48
1
60
0
100
AcDbSpline
70
4
71
3
72
18
73
14
40
0
40
0
40
0
40
0
40
0.212491695755301
40
0.212491695755301
40
0.386618276853804
40
0.386618276853804
40
0.562426360907932
40
0.562426360907932
40
0.715388416645936
40
0.715388416645936
40
0.918249208689862
40
0.918249208689862
40
1
40
1
40
1
40
1
41
1
10
30.4276081589904
20
9.80995232207857
30
1E-16
41
1
10
30.450872042368
20
9.87491638671111
30
1E-16
41
1
10
30.4637678316285
20
9.94512498800725
30
1E-16
41
1
10
30.4629640117631
20
10.0757016104944
30
1E-16
41
1
10
30.4534501859994
20
10.1370385322942
30
1E-16
41
1
10
30.4141480443095
20
10.2563873497531
30
1E-16
41
1
10
30.3833627857143
20
10.3160948287496
30
1E-16
41
1
10
30.3104838341093
20
10.4156905853878
30
1E-16
41
1
10
30.2696026042844
20
10.458370541503
30
1E-16
41
1
10
30.1668232896063
20
10.5429388843548
30
1E-16
41
1
10
30.1008398714105
20
10.58165215653
30
1E-16
41
1
10
30.0054699499596
20
10.6212532066626
30
1E-16
41
1
10
29.9773525571086
20
10.631086878496
30
1E-16
41
1
10
29.9489953753146
20
10.6392844830962
30
1E-16
0
SPLINE
5
11D
100
AcDbEntity
8
1
62
256
6
ByLayer
370
-1
48
1
60
0
100
AcDbSpline
70
4
71
3
72
12
73
8
40
0
40
0
40
0
40
0
40
0.422118633920766
40
0.422118633920766
40
0.843213619146894
40
0.843213619146894
40
1
40
1
40
1
40
1
41
1
10
31.5007336011687
20
12.1228267736675
30
-1E-16
41
1
10
31.5665136617529
20
12.132637861232
30
-1E-16
41
1
10
31.6295730472799
20
12.1536159724209
30
-1E-16
41
1
10
31.740984445054
20
12.2112653300501
30
-1E-16
41
1
10
31.7910154990418
20
12.2485178796531
30
-1E-16
41
1
10
31.8499979533009
20
12.3070450598077
30
-1E-16
41
1
10
31.8651881820447
20
12.3238445488006
30
-1E-16
41
1
10
31.8794272364897
20
12.3413355880017
30
-1E-16
0
SPLINE
5
11E
100
AcDbEntity
8
1
62
256
6
ByLayer
370
-1
48
1
60
0
100
AcDbSpline
70
4
71
3
72
18
73
14
40
0
40
0
40
0
40
0
40
0.212491592102415
40
0.212491592102415
40
0.386618191488474
40
0.386618191488474
40
0.562426295050811
40
0.562426295050811
40
0.715388354469456
40
0.715388354469456
40
0.918249128147156
40
0.918249128147156
40
1
40
1
40
1
40
1
41
1
10
29.9489953753146
20
11.2003318705809
30
1E-16
41
1
10
30.02191588048
20
11.216201278278
30
1E-16
41
1
10
30.0939477767442
20
11.243626476408
30
-2E-16
41
1
10
30.2136298924857
20
11.3151553483262
30
-2E-16
41
1
10
30.264569217213
20
11.3563122737273
30
-2E-16
41
1
10
30.3512426964189
20
11.4533853587463
30
-1E-16
41
1
10
30.3879249929684
20
11.5110290806352
30
-1E-16
41
1
10
30.4361172415879
20
11.6247214950141
30
-1E-16
41
1
10
30.4509542851438
20
11.6813101074816
30
-1E-16
41
1
10
30.4674805025414
20
11.8113102115024
30
-1E-16
41
1
10
30.4638756575003
20
11.8863721984072
30
-1E-16
41
1
10
30.4441194302851
20
11.9862301478644
30
-1E-16
41
1
10
30.4366549764612
20
12.0146976065655
30
1E-16
41
1
10
30.4276081589904
20
12.0425051543501
30
1E-16
0
SPLINE
5
11F
100
AcDbEntity
8
1
62
256
6
ByLayer
370
-1
48
1
60
0
100
AcDbSpline
70
4
71
3
72
16
73
12
40
0
40
0
40
0
40
0
40
0.0624450082614029
40
0.0624450082614029
40
0.283207995985758
40
0.283207995985758
40
0.506745688833502
40
0.506745688833502
40
0.74460728473692
40
0.74460728473692
40
1
40
1
40
1
40
1
41
1
10
30.546653998954
20
9.49564345972365
30
1E-16
41
1
10
30.5538764472081
20
9.49152289322294
30
1E-16
41
1
10
30.5613135454031
20
9.48769867076717
30
1E-16
41
1
10
30.5956042735699
20
9.47189644262747
30
1E-16
41
1
10
30.6248151629501
20
9.4634719983857
30
1E-16
41
1
10
30.6838540945482
20
9.45528960179362
30
1E-16
41
1
10
30.7144326744505
20
9.45551493436469
30
1E-16
41
1
10
30.7747457433364
20
9.46412190644401
30
1E-16
41
1
10
30.8050600895458
20
9.47310237963924
30
1E-16
41
1
10
30.8623200233522
20
9.49887431082652
30
1E-16
41
1
10
30.8895578592729
20
9.51647438582035
30
1E-16
41
1
10
30.9129110148873
20
9.53676957841674
30
1E-16
0
SPLINE
5
120
100
AcDbEntity
8
1
62
256
6
ByLayer
370
-1
48
1
60
0
100
AcDbSpline
70
4
71
3
72
17
73
13
40
0
40
0
40
0
40
0
40
0.285388147202991
40
0.428082220804487
40
0.499429257605235
40
0.535102776005609
40
0.570776294405982
40
0.713470368007478
40
0.784817404808226
40
0.856164441608974
40
0.998858515210469
40
1
40
1
40
1
40
1
41
1
10
23.9922405232925
20
-15.4058166269945
30
-1E-16
41
1
10
23.7758598654491
20
-15.3970732687965
30
-1E-16
41
1
10
23.4465034470842
20
-15.2015956671896
30
-1E-16
41
1
10
23.3785372398579
20
-14.8431645644159
30
-1E-16
41
1
10
23.3444782251354
20
-14.6686118234548
30
-1E-16
41
1
10
23.3255248960774
20
-14.5695762490163
30
-1E-16
41
1
10
23.2978691945382
20
-14.4214200450352
30
-1E-16
41
1
10
23.2686364315702
20
-14.248820417348
30
-1E-16
41
1
10
23.2390844331395
20
-14.0517187346264
30
-1E-16
41
1
10
23.2120031495393
20
-13.8546581313595
30
-1E-16
41
1
10
23.1942645415968
20
-13.7060505089305
30
-1E-16
41
1
10
23.1835094142138
20
-13.6066419400543
30
-1E-16
41
1
10
23.1834241304412
20
-13.6058530249491
30
-1E-16
0
SPLINE
5
121
100
AcDbEntity
8
1
62
256
6
ByLayer
370
-1
48
1
60
0
100
AcDbSpline
70
4
71
1
72
4
73
2
40
0
40
0
40
1
40
1
41
1
10
39.1962540029024
20
-15.8817468384017
30
0
41
1
10
38.4399682463557
20
-14.4410248447942
30
-1E-16
0
SPLINE
5
122
100
AcDbEntity
8
1
62
256
6
ByLayer
370
-1
48
1
60
0
100
AcDbSpline
70
4
71
3
72
20
73
16
40
0
40
0
40
0
40
0
40
0.0625
40
0.09375
40
0.125
40
0.15625
40
0.1875
40
0.25
40
0.5
40
0.75
40
0.8125
40
0.875
40
0.90625
40
0.9375
40
1
40
1
40
1
40
1
41
1
10
38.4399682463557
20
-14.4410248447941
30
-1E-16
41
1
10
38.5964577856822
20
-14.4477272744815
30
-1E-16
41
1
10
38.8347936794054
20
-14.3610073795493
30
-1E-16
41
1
10
39.0148667453937
20
-14.1020679972347
30
-1E-16
41
1
10
39.0687369191418
20
-13.869183805358
30
-1E-16
41
1
10
39.0659429648846
20
-13.6329931792687
30
-1E-16
41
1
10
39.0545889574539
20
-13.3177564710534
30
-1E-16
41
1
10
39.0629432354726
20
-12.4529358662971
30
-1E-16
41
1
10
39.0533808413422
20
-11.0362939668799
30
-1E-16
41
1
10
39.051689024039
20
-9.62129262875058
30
-1E-16
41
1
10
39.0524062378358
20
-8.67613375377519
30
-1E-16
41
1
10
39.0514054404953
20
-8.28303443965842
30
-1E-16
41
1
10
39.0488607297158
20
-7.96959771386818
30
-1E-16
41
1
10
39.0524723105175
20
-7.64574062064858
30
-1E-16
41
1
10
38.8285329708241
20
-7.47429673660542
30
-1E-16
41
1
10
38.6722632124269
20
-7.46306967187465
30
-1E-16
0
SPLINE
5
123
100
AcDbEntity
8
1
62
256
6
ByLayer
370
-1
48
1
60
0
100
AcDbSpline
70
4
71
1
72
4
73
2
40
0
40
0
40
1
40
1
41
1
10
23.9922405232925
20
-15.4058166269945
30
-1E-16
41
1
10
25.1073181243422
20
-13.7305522633722
30
0
0
SPLINE
5
124
100
AcDbEntity
8
1
62
256
6
ByLayer
370
-1
48
1
60
0
100
AcDbSpline
70
4
71
3
72
8
73
4
40
0
40
0
40
0
40
0
40
1
40
1
40
1
40
1
41
1
10
38.6171909849008
20
-6.3702258682822
30
0
41
1
10
38.7219159653597
20
-6.37387430960467
30
0
41
1
10
38.826642263229
20
-6.37755023058429
30
0
41
1
10
38.9313704835366
20
-6.38125417233698
30
0
0
SPLINE
5
125
100
AcDbEntity
8
1
62
256
6
ByLayer
370
-1
48
1
60
0
100
AcDbSpline
70
4
71
3
72
15
73
11
40
0
40
0
40
0
40
0
40
0.125
40
0.25
40
0.375
40
0.5
40
0.625
40
0.75
40
0.875
40
1
40
1
40
1
40
1
41
1
10
39.1962540029024
20
-15.8817468384018
30
0
41
1
10
38.5492055069053
20
-15.8818055773844
30
0
41
1
10
37.2700853422249
20
-15.8744414511693
30
0
41
1
10
35.3976530734018
20
-15.8436336976452
30
1E-16
41
1
10
33.515692450211
20
-15.7952432818227
30
0
41
1
10
31.630032295571
20
-15.7295588536231
30
-1E-16
41
1
10
29.7465014324
20
-15.6468690629671
30
-2E-16
41
1
10
27.8563880876615
20
-15.5490571049098
30
1E-16
41
1
10
25.9222838822219
20
-15.4822118779418
30
0
41
1
10
24.6355969845395
20
-15.4320186445736
30
-1E-16
41
1
10
23.9922405231962
20
-15.4058166269906
30
-1E-16
0
SPLINE
5
126
100
AcDbEntity
8
1
62
256
6
ByLayer
370
-1
48
1
60
0
100
AcDbSpline
70
4
71
1
72
4
73
2
40
0
40
0
40
1
40
1
41
1
10
38.9313704836821
20
-6.38125417234215
30
0
41
1
10
38.6722632124269
20
-7.46306967187465
30
-1E-16
0
SPLINE
5
127
100
AcDbEntity
8
1
62
256
6
ByLayer
370
-1
48
1
60
0
100
AcDbSpline
70
4
71
3
72
9
73
5
40
0
40
0
40
0
40
0
40
0.222546252131703
40
1
40
1
40
1
40
1
41
1
10
24.7337441938686
20
-13.3137362616452
30
0
41
1
10
24.7373176411852
20
-13.3587075059979
30
0
41
1
10
24.7688907676229
20
-13.5568257957564
30
0
41
1
10
24.9529348210258
20
-13.7041630081922
30
0
41
1
10
25.1073181243422
20
-13.7305522633722
30
0
0
SPLINE
5
128
100
AcDbEntity
8
1
62
256
6
ByLayer
370
-1
48
1
60
0
100
AcDbSpline
70
4
71
3
72
8
73
4
40
0
40
0
40
0
40
0
40
1
40
1
40
1
40
1
41
1
10
25.1073181243422
20
-13.7305522633722
30
0
41
1
10
27.2297095245947
20
-13.8436506258977
30
1E-16
41
1
10
29.3521009248478
20
-13.9567489884233
30
0
41
1
10
31.4744923251011
20
-14.0698473509488
30
0
0
SPLINE
5
129
100
AcDbEntity
8
1
62
256
6
ByLayer
370
-1
48
1
60
0
100
AcDbSpline
70
4
71
3
72
8
73
4
40
0
40
0
40
0
40
0
40
1
40
1
40
1
40
1
41
1
10
38.1158181531799
20
-14.4237514781821
30
-1E-16
41
1
10
38.2238681842385
20
-14.4295092670528
30
-1E-16
41
1
10
38.3319182152971
20
-14.4352670559235
30
-1E-16
41
1
10
38.4399682463557
20
-14.4410248447941
30
-1E-16
0
SPLINE
5
12A
100
AcDbEntity
8
1
62
256
6
ByLayer
370
-1
48
1
60
0
100
AcDbSpline
70
4
71
3
72
34
73
30
40
0
40
0
40
0
40
0
40
0.0625
40
0.09375
40
0.125
40
0.140625
40
0.1875
40
0.25
40
0.3125
40
0.34375
40
0.375
40
0.4375
40
0.5
40
0.5625
40
0.625
40
0.65625
40
0.6875
40
0.71875
40
0.75
40
0.78125
40
0.8125
40
0.828125
40
0.84375
40
0.875
40
0.8828125
40
0.890625
40
0.90625
40
0.9375
40
1
40
1
40
1
40
1
41
1
10
38.9313704836821
20
-6.38125417234215
30
0
41
1
10
39.1457719852617
20
-6.38885814174614
30
-1E-16
41
1
10
39.4565792403478
20
-6.58777171059222
30
0
41
1
10
39.5024979609177
20
-7.01571485131814
30
0
41
1
10
39.5262817360714
20
-7.27550456968837
30
0
41
1
10
39.5482157772991
20
-7.58739300904273
30
0
41
1
10
39.5662208012828
20
-8.00358369120929
30
0
41
1
10
39.5675520061651
20
-8.57712374992249
30
0
41
1
10
39.5494524369329
20
-9.10049623783621
30
0
41
1
10
39.5292115031382
20
-9.52096680746158
30
0
41
1
10
39.5071491569506
20
-9.94281617536396
30
0
41
1
10
39.4792354218581
20
-10.4730696241843
30
0
41
1
10
39.4598361978524
20
-11.1153219614297
30
0
41
1
10
39.4552714256976
20
-11.7644646645616
30
0
41
1
10
39.5044467808576
20
-12.3013389897498
30
0
41
1
10
39.6585777237571
20
-12.7083309334595
30
0
41
1
10
39.8405201760892
20
-12.9787237212985
30
0
41
1
10
39.9686431345342
20
-13.2730960745807
30
0
41
1
10
40.0026192943779
20
-13.621098624542
30
0
41
1
10
39.994807360901
20
-13.8128123401339
30
0
41
1
10
39.995844468571
20
-13.8579008671591
30
0
41
1
10
39.9957843875377
20
-13.9927593631166
30
0
41
1
10
39.9957710371767
20
-14.2322741783748
30
0
41
1
10
39.9948548904693
20
-14.6682510975013
30
0
41
1
10
39.9962288499076
20
-15.1969804785079
30
0
41
1
10
39.9823257176709
20
-15.2134426491202
30
0
41
1
10
39.9335442308069
20
-15.4430721219954
30
0
41
1
10
39.7297520740443
20
-15.73867134665
30
0
41
1
10
39.4093025880995
20
-15.8655803164264
30
0
41
1
10
39.1962540028075
20
-15.881746838409
30
0
0
LINE
5
4A
100
AcDbEntity
8
SK4
62
256
6
ByLayer
370
-1
48
0.05
60
0
100
AcDbLine
10
50
20
0
30
0
11
-34
21
0
31
0
39
0
210
0
220
0
230
1
0
LINE
5
4C
100
AcDbEntity
8
81
62
256
6
ByLayer
370
-1
48
1
60
0
100
AcDbLine
10
40
20
15.88
30
0
11
46.4
21
15.88
31
0
39
0
210
0
220
0
230
1
0
LINE
5
4D
100
AcDbEntity
8
80
62
256
6
ByLayer
370
-1
48
1
60
0
100
AcDbLine
10
0
20
0
30
0
11
-10
21
0
31
0
39
0
210
0
220
0
230
1
0
LINE
5
4E
100
AcDbEntity
8
4
62
256
6
ByLayer
370
-1
48
0.05
60
0
100
AcDbLine
10
0
20
0
30
0
11
40
21
0
31
0
39
0
210
0
220
0
230
1
0
LINE
5
50
100
AcDbEntity
8
1
62
256
6
ByLayer
370
-1
48
1
60
0
100
AcDbLine
10
31.96811
20
9.50149
30
0
11
31.794741
21
9.62169
31
0
39
0
210
0
220
0
230
1
0
LINE
5
52
100
AcDbEntity
8
1
62
256
6
ByLayer
370
-1
48
1
60
0
100
AcDbLine
10
32.643848
20
11.327007
30
0
11
32.811015
21
11.211107
31
0
39
0
210
0
220
0
230
1
0
LINE
5
53
100
AcDbEntity
8
1
62
256
6
ByLayer
370
-1
48
1
60
0
100
AcDbLine
10
30.343481
20
10.415909
30
0
11
30.176313
21
10.531809
31
0
39
0
210
0
220
0
230
1
0
LINE
5
54
100
AcDbEntity
8
1
62
256
6
ByLayer
370
-1
48
1
60
0
100
AcDbLine
10
31.013016
20
12.245725
30
0
11
31.186385
21
12.125525
31
0
39
0
210
0
220
0
230
1
0
LINE
5
55
100
AcDbEntity
8
SK1
62
256
6
ByLayer
370
-1
48
1
60
0
100
AcDbLine
10
-0.384645
20
8.892056
30
0
11
-4.5
21
8.73396
31
0
39
0
210
0
220
0
230
1
0
LINE
5
57
100
AcDbEntity
8
SK1
62
256
6
ByLayer
370
-1
48
1
60
0
100
AcDbLine
10
-4.5
20
-8.73396
30
0
11
-0.384645
21
-8.892056
31
0
39
0
210
0
220
0
230
1
0
LINE
5
58
100
AcDbEntity
8
SK1
62
256
6
ByLayer
370
-1
48
1
60
0
100
AcDbLine
10
-4.5
20
8.73396
30
0
11
-19.5
21
7.157396
31
0
39
0
210
0
220
0
230
1
0
LINE
5
59
100
AcDbEntity
8
SK1
62
256
6
ByLayer
370
-1
48
1
60
0
100
AcDbLine
10
-19.5
20
-7.157396
30
0
11
-4.5
21
-8.73396
31
0
39
0
210
0
220
0
230
1
0
LINE
5
5A
100
AcDbEntity
8
SK1
62
256
6
ByLayer
370
-1
48
1
60
0
100
AcDbLine
10
-20
20
5.2
30
0
11
-23.8
21
5.2
31
0
39
0
210
0
220
0
230
1
0
LINE
5
5B
100
AcDbEntity
8
SK1
62
256
6
ByLayer
370
-1
48
1
60
0
100
AcDbLine
10
-23.8
20
-5.2
30
0
11
-20
21
-5.2
31
0
39
0
210
0
220
0
230
1
0
LINE
5
5C
100
AcDbEntity
8
SK1
62
256
6
ByLayer
370
-1
48
1
60
0
100
AcDbLine
10
-23.8
20
5.2
30
0
11
-24
21
5
31
0
39
0
210
0
220
0
230
1
0
LINE
5
5D
100
AcDbEntity
8
SK1
62
256
6
ByLayer
370
-1
48
1
60
0
100
AcDbLine
10
-24
20
-5
30
0
11
-23.8
21
-5.2
31
0
39
0
210
0
220
0
230
1
0
LINE
5
5E
100
AcDbEntity
8
1
62
256
6
ByLayer
370
-1
48
1
60
0
100
AcDbLine
10
10.439009
20
12.1
30
0
11
0
21
12.1
31
0
39
0
210
0
220
0
230
1
0
LINE
5
5F
100
AcDbEntity
8
1
62
256
6
ByLayer
370
-1
48
1
60
0
100
AcDbLine
10
0
20
-12.1
30
0
11
10.439009
21
-12.1
31
0
39
0
210
0
220
0
230
1
0
LINE
5
60
100
AcDbEntity
8
1
62
256
6
ByLayer
370
-1
48
1
60
0
100
AcDbLine
10
38.613413
20
3.164239
30
0
11
38.613413
21
3.220815
31
0
39
0
210
0
220
0
230
1
0
LINE
5
61
100
AcDbEntity
8
1
62
256
6
ByLayer
370
-1
48
1
60
0
100
AcDbLine
10
23.116004
20
13.627624
30
0
11
23.046045
21
10.421075
31
0
39
0
210
0
220
0
230
1
0
LINE
5
62
100
AcDbEntity
8
1
62
256
6
ByLayer
370
-1
48
1
60
0
100
AcDbLine
10
31.472833
20
6.180312
30
0
11
31.343648
21
5.901499
31
0
39
0
210
0
220
0
230
1
0
LINE
5
63
100
AcDbEntity
8
1
62
256
6
ByLayer
370
-1
48
1
60
0
100
AcDbLine
10
34.742768
20
-9.763717
30
0
11
34.61802
21
-9.850207
31
0
39
0
210
0
220
0
230
1
0
LINE
5
64
100
AcDbEntity
8
1
62
256
6
ByLayer
370
-1
48
1
60
0
100
AcDbLine
10
37.917491
20
5.810265
30
0
11
37.917491
21
6.242852
31
0
39
0
210
0
220
0
230
1
0
LINE
5
65
100
AcDbEntity
8
1
62
256
6
ByLayer
370
-1
48
1
60
0
100
AcDbLine
10
0
20
12.1
30
0
11
0
21
-12.1
31
0
39
0
210
0
220
0
230
1
0
LINE
5
66
100
AcDbEntity
8
1
62
256
6
ByLayer
370
-1
48
1
60
0
100
AcDbLine
10
10.5
20
12.012775
30
0
11
10.5
21
-11.949507
31
0
39
0
210
0
220
0
230
1
0
LINE
5
67
100
AcDbEntity
8
1
62
256
6
ByLayer
370
-1
48
1
60
0
100
AcDbLine
10
25.321494
20
-11.397028
30
0
11
25.321494
21
-13.371905
31
0
39
0
210
0
220
0
230
1
0
LINE
5
68
100
AcDbEntity
8
1
62
256
6
ByLayer
370
-1
48
1
60
0
100
AcDbLine
10
25.182254
20
5.011191
30
0
11
26.199587
21
5.802307
31
0
39
0
210
0
220
0
230
1
0
LINE
5
69
100
AcDbEntity
8
1
62
256
6
ByLayer
370
-1
48
1
60
0
100
AcDbLine
10
25.204557
20
-13.361365
30
0
11
25.204557
21
-11.169636
31
0
39
0
210
0
220
0
230
1
0
LINE
5
6A
100
AcDbEntity
8
1
62
256
6
ByLayer
370
-1
48
1
60
0
100
AcDbLine
10
26.199587
20
5.802307
30
0
11
26.811593
21
6.16722
31
0
39
0
210
0
220
0
230
1
0
LINE
5
6B
100
AcDbEntity
8
1
62
256
6
ByLayer
370
-1
48
1
60
0
100
AcDbLine
10
11.628806
20
10.410071
30
0
11
11.628806
21
-11.760891
31
0
39
0
210
0
220
0
230
1
0
LINE
5
6C
100
AcDbEntity
8
1
62
256
6
ByLayer
370
-1
48
1
60
0
100
AcDbLine
10
2.2
20
-6.812489
30
0
11
2.2
21
6.812489
31
0
39
0
210
0
220
0
230
1
0
LINE
5
6D
100
AcDbEntity
8
1
62
256
6
ByLayer
370
-1
48
1
60
0
100
AcDbLine
10
2
20
6.509224
30
0
11
2
21
-6.509224
31
0
39
0
210
0
220
0
230
1
0
LINE
5
6E
100
AcDbEntity
8
1
62
256
6
ByLayer
370
-1
48
1
60
0
100
AcDbLine
10
38.151805
20
6.368787
30
0
11
38.151805
21
5.824867
31
0
39
0
210
0
220
0
230
1
0
LINE
5
6F
100
AcDbEntity
8
1
62
256
6
ByLayer
370
-1
48
1
60
0
100
AcDbLine
10
37.813755
20
-14.459985
30
0
11
37.813755
21
-11.479363
31
0
39
0
210
0
220
0
230
1
0
LINE
5
70
100
AcDbEntity
8
1
62
256
6
ByLayer
370
-1
48
1
60
0
100
AcDbLine
10
22.716763
20
9.153722
30
0
11
22.359322
21
8.875762
31
0
39
0
210
0
220
0
230
1
0
LINE
5
71
100
AcDbEntity
8
1
62
256
6
ByLayer
370
-1
48
1
60
0
100
AcDbLine
10
22.070096
20
5.581731
30
0
11
22.968843
21
6.280631
31
0
39
0
210
0
220
0
230
1
0
LINE
5
72
100
AcDbEntity
8
1
62
256
6
ByLayer
370
-1
48
1
60
0
100
AcDbLine
10
22.359322
20
8.875762
30
0
11
22.534153
21
9.028847
31
0
39
0
210
0
220
0
230
1
0
LINE
5
73
100
AcDbEntity
8
1
62
256
6
ByLayer
370
-1
48
1
60
0
100
AcDbLine
10
34.61802
20
-10.746806
30
0
11
34.61802
21
-9.850207
31
0
39
0
210
0
220
0
230
1
0
LINE
5
74
100
AcDbEntity
8
1
62
256
6
ByLayer
370
-1
48
1
60
0
100
AcDbLine
10
38.470849
20
5.844722
30
0
11
38.470849
21
6.375565
31
0
39
0
210
0
220
0
230
1
0
LINE
5
75
100
AcDbEntity
8
1
62
256
6
ByLayer
370
-1
48
1
60
0
100
AcDbLine
10
8.3
20
6.812489
30
0
11
8.3
21
-6.812489
31
0
39
0
210
0
220
0
230
1
0
LINE
5
76
100
AcDbEntity
8
1
62
256
6
ByLayer
370
-1
48
1
60
0
100
AcDbLine
10
25.845387
20
5.410201
30
0
11
37.917491
21
6.242852
31
0
39
0
210
0
220
0
230
1
0
LINE
5
77
100
AcDbEntity
8
1
62
256
6
ByLayer
370
-1
48
1
60
0
100
AcDbLine
10
2.2
20
-6.812489
30
0
11
8.3
21
-6.812489
31
0
39
0
210
0
220
0
230
1
0
LINE
5
78
100
AcDbEntity
8
1
62
256
6
ByLayer
370
-1
48
1
60
0
100
AcDbLine
10
21.480772
20
-14.080602
30
0
11
21.480772
21
5.163382
31
0
39
0
210
0
220
0
230
1
0
LINE
5
79
100
AcDbEntity
8
1
62
256
6
ByLayer
370
-1
48
1
60
0
100
AcDbLine
10
38.617296
20
-8.489686
30
0
11
38.617296
21
5.414347
31
0
39
0
210
0
220
0
230
1
0
LINE
5
7A
100
AcDbEntity
8
1
62
256
6
ByLayer
370
-1
48
1
60
0
100
AcDbLine
10
8.3
20
6.812489
30
0
11
2.2
21
6.812489
31
0
39
0
210
0
220
0
230
1
0
LINE
5
7B
100
AcDbEntity
8
1
62
256
6
ByLayer
370
-1
48
1
60
0
100
AcDbLine
10
38.613412
20
3.164476
30
0
11
38.613412
21
-13.808477
31
0
39
0
210
0
220
0
230
1
0
LINE
5
7C
100
AcDbEntity
8
1
62
256
6
ByLayer
370
-1
48
1
60
0
100
AcDbLine
10
37.917491
20
6.242852
30
0
11
37.917491
21
6.333578
31
0
39
0
210
0
220
0
230
1
0
LINE
5
7D
100
AcDbEntity
8
1
62
256
6
ByLayer
370
-1
48
1
60
0
100
AcDbLine
10
20.470997
20
5.941523
30
0
11
20.375063
21
5.96901
31
0
39
0
210
0
220
0
230
1
0
LINE
5
7E
100
AcDbEntity
8
1
62
256
6
ByLayer
370
-1
48
1
60
0
100
AcDbLine
10
8.5
20
-6.509224
30
0
11
8.5
21
6.509224
31
0
39
0
210
0
220
0
230
1
0
LINE
5
7F
100
AcDbEntity
8
1
62
256
6
ByLayer
370
-1
48
1
60
0
100
AcDbLine
10
21.519193
20
5.158598
30
0
11
21.519193
21
-14.09007
31
0
39
0
210
0
220
0
230
1
0
LINE
5
80
100
AcDbEntity
8
1
62
256
6
ByLayer
370
-1
48
1
60
0
100
AcDbLine
10
38.617296
20
6.378905
30
0
11
38.617296
21
5.415544
31
0
39
0
210
0
220
0
230
1
0
LINE
5
81
100
AcDbEntity
8
SK1
62
256
6
ByLayer
370
-1
48
1
60
0
100
AcDbLine
10
-4.5
20
8.73396
30
0
11
-4.5
21
-8.73396
31
0
39
0
210
0
220
0
230
1
0
LINE
5
82
100
AcDbEntity
8
SK1
62
256
6
ByLayer
370
-1
48
1
60
0
100
AcDbLine
10
-0.384645
20
8.892056
30
0
11
-0.384645
21
-8.892056
31
0
39
0
210
0
220
0
230
1
0
LINE
5
83
100
AcDbEntity
8
SK1
62
256
6
ByLayer
370
-1
48
1
60
0
100
AcDbLine
10
-23.8
20
5.2
30
0
11
-23.8
21
-5.2
31
0
39
0
210
0
220
0
230
1
0
LINE
5
84
100
AcDbEntity
8
SK1
62
256
6
ByLayer
370
-1
48
1
60
0
100
AcDbLine
10
-19.5
20
7.157396
30
0
11
-19.5
21
-7.157396
31
0
39
0
210
0
220
0
230
1
0
LINE
5
85
100
AcDbEntity
8
SK1
62
256
6
ByLayer
370
-1
48
1
60
0
100
AcDbLine
10
-24
20
5
30
0
11
-24
21
-5
31
0
39
0
210
0
220
0
230
1
0
LINE
5
86
100
AcDbEntity
8
SK1
62
256
6
ByLayer
370
-1
48
1
60
0
100
AcDbLine
10
-20
20
5.2
30
0
11
-20
21
-5.2
31
0
39
0
210
0
220
0
230
1
0
LINE
5
87
100
AcDbEntity
8
1
62
256
6
ByLayer
370
-1
48
1
60
0
100
AcDbLine
10
32.98804
20
11.1385
30
0
11
32.842864
21
11.239153
31
0
39
0
210
0
220
0
230
1
0
LINE
5
88
100
AcDbEntity
8
1
62
256
6
ByLayer
370
-1
48
1
60
0
100
AcDbLine
10
31.335877
20
12.120615
30
0
11
31.49482
21
12.010418
31
0
39
0
210
0
220
0
230
1
0
LINE
5
89
100
AcDbEntity
8
1
62
256
6
ByLayer
370
-1
48
1
60
0
100
AcDbLine
10
31.659676
20
12.012629
30
0
11
31.500734
21
12.122827
31
0
39
0
210
0
220
0
230
1
0
LINE
5
8A
100
AcDbEntity
8
1
62
256
6
ByLayer
370
-1
48
1
60
0
100
AcDbLine
10
30.130314
20
11.074621
30
0
11
29.948995
21
11.200332
31
0
39
0
210
0
220
0
230
1
0
LINE
5
8B
100
AcDbEntity
8
1
62
256
6
ByLayer
370
-1
48
1
60
0
100
AcDbLine
10
30.608926
20
11.916794
30
0
11
30.427608
21
12.042505
31
0
39
0
210
0
220
0
230
1
0
LINE
5
8C
100
AcDbEntity
8
1
62
256
6
ByLayer
370
-1
48
1
60
0
100
AcDbLine
10
30.608926
20
9.684241
30
0
11
30.427608
21
9.809952
31
0
39
0
210
0
220
0
230
1
0
LINE
5
8D
100
AcDbEntity
8
1
62
256
6
ByLayer
370
-1
48
1
60
0
100
AcDbLine
10
32.060506
20
12.215791
30
0
11
31.879427
21
12.341336
31
0
39
0
210
0
220
0
230
1
0
LINE
5
8E
100
AcDbEntity
8
1
62
256
6
ByLayer
370
-1
48
1
60
0
100
AcDbLine
10
31.956193
20
9.496512
30
0
11
31.879427
21
9.549735
31
0
39
0
210
0
220
0
230
1
0
MTEXT
5
12B
100
AcDbEntity
8
SK6
62
256
6
ByLayer
370
-1
48
1
60
0
100
AcDbMText
10
-23.126614
20
-26.938367
30
0
210
0
220
0
230
1
1
\W00.726;\fsimplex.shx,bigfont.shx;R390-032EH25-17L\P
40
3.5
41
0
44
1.084337
50
0
71
7
72
5
7
DEFAULT
0
DIMENSION
5
13C
100
AcDbEntity
8
SK2
62
256
6
ByLayer
370
-3
48
1
60
0
100
AcDbDimension
2
DimnDraft3D1
10
-24
20
45.75
30
0
11
4.346711
21
45.75
31
0
70
32
71
5
72
1
41
1
210
0
220
0
230
1
3
Standard
100
AcDbAlignedDimension
13
40
23
18
33
0
14
-24
24
14.1
34
0
50
0
100
AcDbRotatedDimension
1001
ACAD
1000
DSTYLE
1002
{
1070
   279
1070
     0
1070
   172
1070
     1
1070
   173
1070
     1
1070
   340
1005
12C
1070
   271
1070
     2
1070
   272
1070
     2
1070
    77
1070
     1
1070
    73
1070
     0
1070
   171
1070
     4
1070
   274
1070
     4
1070
   177
1070
     2
1070
   176
1070
     2
1070
   178
1070
     7
1070
    78
1070
     8
1070
    41
1041
3.175
1070
   147
1041
2.25
1070
    42
1041
2.0
1070
    44
1041
2.0
1070
   140
1041
4.5
1070
   343
1005
13D
1070
   344
1005
13D
1002
}
0
DIMENSION
5
151
100
AcDbEntity
8
2
62
256
6
ByLayer
370
-3
48
1
60
0
100
AcDbDimension
2
DimnDraft3D2
10
23.8
20
25.75
30
0
11
45
21
25.75
31
0
70
32
71
5
72
1
41
1
210
0
220
0
230
1
3
Standard
100
AcDbAlignedDimension
13
40
23
18
33
0
14
23.8
24
18
34
0
50
0
100
AcDbRotatedDimension
1001
ACAD
1000
DSTYLE
1002
{
1070
   279
1070
     0
1070
   172
1070
     1
1070
   173
1070
     1
1070
   340
1005
12C
1070
   271
1070
     2
1070
   272
1070
     2
1070
    77
1070
     1
1070
    73
1070
     0
1070
   171
1070
     4
1070
   274
1070
     4
1070
   177
1070
     2
1070
   176
1070
     2
1070
   178
1070
     7
1070
    78
1070
     8
1070
    41
1041
3.175
1070
   147
1041
2.25
1070
    42
1041
2.0
1070
    44
1041
2.0
1070
   140
1041
4.5
1070
   343
1005
13D
1070
   344
1005
13D
1002
}
0
DIMENSION
5
15F
100
AcDbEntity
8
SK2
62
256
6
ByLayer
370
-3
48
1
60
0
100
AcDbDimension
2
DimnDraft3D3
10
-33.75
20
-12.1
30
0
11
-33.75
21
-9.306414
31
0
70
32
71
5
72
1
41
1
210
0
220
0
230
1
3
Standard
100
AcDbAlignedDimension
13
-26
23
12.1
33
0
14
-26
24
-12.1
34
0
50
90
100
AcDbRotatedDimension
1001
ACAD
1000
DSTYLE
1002
{
1070
    74
1070
     0
1070
   279
1070
     0
1070
   172
1070
     1
1070
   173
1070
     1
1070
   340
1005
12C
1070
   271
1070
     2
1070
   272
1070
     2
1070
    77
1070
     1
1070
    73
1070
     0
1070
   171
1070
     4
1070
   274
1070
     4
1070
   177
1070
     2
1070
   176
1070
     2
1070
   178
1070
     7
1070
    78
1070
     8
1070
    41
1041
3.175
1070
   147
1041
2.25
1070
    42
1041
2.0
1070
    44
1041
2.0
1070
   140
1041
4.5
1070
   343
1005
13D
1070
   344
1005
13D
1002
}
0
DIMENSION
5
16D
100
AcDbEntity
8
2
62
256
6
ByLayer
370
-3
48
1
60
0
100
AcDbDimension
2
DimnDraft3D4
10
54.25
20
-16
30
0
11
54.25
21
-6.01727
31
0
70
32
71
5
72
1
41
1
210
0
220
0
230
1
3
Standard
100
AcDbAlignedDimension
13
42
23
16
33
0
14
42
24
-16
34
0
50
90
100
AcDbRotatedDimension
1001
ACAD
1000
DSTYLE
1002
{
1070
    74
1070
     0
1070
   279
1070
     0
1070
   172
1070
     1
1070
   173
1070
     1
1070
   340
1005
12C
1070
   271
1070
     2
1070
   272
1070
     2
1070
    77
1070
     1
1070
    73
1070
     0
1070
   171
1070
     4
1070
   274
1070
     4
1070
   177
1070
     2
1070
   176
1070
     2
1070
   178
1070
     7
1070
    78
1070
     8
1070
    41
1041
3.175
1070
   147
1041
2.25
1070
    42
1041
2.0
1070
    44
1041
2.0
1070
   140
1041
4.5
1070
   343
1005
13D
1070
   344
1005
13D
1002
}
0
ENDSEC
0
SECTION
2
OBJECTS
0
DICTIONARY
5
1bc
330
0
100
AcDbDictionary
280
0
281
1
3
ACAD_GROUP
350
1bd
3
ACAD_MLINESTYLE
350
1be
0
DICTIONARY
5
1bd
330
0
100
AcDbDictionary
280
0
281
1
0
DICTIONARY
5
1be
330
0
100
AcDbDictionary
280
0
281
1
3
Standard
350
18
0
MLINESTYLE
5
18
330
1be
100
AcDbMlineStyle
2
Standard
70
0
3

62
256
51
90
52
90
71
2
49
-0.5
62
256
6
ByLayer
49
0.5
62
256
6
ByLayer
0
RASTERVARIABLES
5
1aa
330

100
AcDbRasterVariables
90
0
70
1
71
1
72
1
0
ENDSEC
0
EOF
