0
SECTION
2
HEADER
9
$ACADVER
1
AC1015
9
$DWGCODEPAGE
3
ANSI_1252
9
$HANDSEED
5
203
9
$ANGBASE
50
0
9
$ANGDIR
70
0
9
$ATTMODE
70
1
9
$AUNITS
70
0
9
$AUPREC
70
0
9
$CECOLOR
62
256
9
$CELTSCALE
40
1
9
$CELTYPE
6
ByLayer
9
$CELWEIGHT
370
-1
9
$CLAYER
8
0
9
$CMLJUST
70
0
9
$CMLSCALE
40
1
9
$CMLSTYLE
2
Standard
9
$DIMSTYLE
2
Standard
9
$TEXTSIZE
40
0.2
9
$TEXTSTYLE
7
Standard
9
$LUNITS
70
2
9
$LUPREC
70
4
9
$EXTNAMES
290
1
9
$INSUNITS
70
4
9
$LTSCALE
40
1
9
$LWDISPLAY
290
0
9
$PDMODE
70
0
9
$PDSIZE
40
0
9
$PLINEGEN
70
0
0
ENDSEC
0
SECTION
2
CLASSES
0
CLASS
1
RASTERVARIABLES
2
AcDbRasterVariables
3
ISM
90
0
280
0
281
0
0
ENDSEC
0
SECTION
2
TABLES
0
TABLE
2
VPORT
5
1f9
100
AcDbSymbolTable
0
VPORT
5
1
100
AcDbSymbolTableRecord
100
AcDbViewportTableRecord
2
*Active
70
0
10
0
20
0
11
1
21
1
12
-1
22
1
13
0
23
0
14
0.5
24
0.5
15
10
25
10
16
0
26
0
36
1
17
0
27
0
37
0
0
ENDTAB
0
TABLE
2
LTYPE
5
1fa
100
AcDbSymbolTable
0
LTYPE
5
14
100
AcDbSymbolTableRecord
100
AcDbLinetypeTableRecord
70
0
2
ByBlock
3

72
65
73
0
40
0
0
LTYPE
5
15
100
AcDbSymbolTableRecord
100
AcDbLinetypeTableRecord
70
0
2
ByLayer
3

72
65
73
0
40
0
0
LTYPE
5
16
100
AcDbSymbolTableRecord
100
AcDbLinetypeTableRecord
70
0
2
CONTINUOUS
3
Solid line
72
65
73
0
40
0
0
LTYPE
5
3C
100
AcDbSymbolTableRecord
100
AcDbLinetypeTableRecord
70
0
2
DASHED
3
__ __ __ __ __ __ __ __ __
72
65
73
2
40
25.72
49
12.86
74
0
49
-12.86
74
0
0
LTYPE
5
3D
100
AcDbSymbolTableRecord
100
AcDbLinetypeTableRecord
70
0
2
HIDDEN
3
_ _ _ _ _ _ _ _ _ _ _ _ _ _ _
72
65
73
2
40
0.5
49
0.25
74
0
49
-0.25
74
0
0
LTYPE
5
3E
100
AcDbSymbolTableRecord
100
AcDbLinetypeTableRecord
70
0
2
PHANTOM
3
____ _ _ ____ _ _ _____ _ _ ____
72
65
73
6
40
50.5
49
18
74
0
49
-6.5
74
0
49
6.5
74
0
49
-6.5
74
0
49
6.5
74
0
49
-6.5
74
0
0
LTYPE
5
3F
100
AcDbSymbolTableRecord
100
AcDbLinetypeTableRecord
70
0
2
CENTER
3
____ _ ____ _ ____ _ ____
72
65
73
4
40
47.5
49
22
74
0
49
-8.5
74
0
49
8.5
74
0
49
-8.5
74
0
0
LTYPE
5
40
100
AcDbSymbolTableRecord
100
AcDbLinetypeTableRecord
70
0
2
DOT
3
.........................
72
65
73
2
40
10
49
0
74
0
49
-10
74
0
0
LTYPE
5
41
100
AcDbSymbolTableRecord
100
AcDbLinetypeTableRecord
70
0
2
DASHDOT
3
_._._._._._._._._._._._._._._._.
72
65
73
4
40
70
49
31
74
0
49
-13
74
0
49
13
74
0
49
-13
74
0
0
ENDTAB
0
TABLE
2
LAYER
5
1fb
100
AcDbSymbolTable
0
LAYER
5
10
100
AcDbSymbolTableRecord
100
AcDbLayerTableRecord
2
0
70
0
62
7
6
CONTINUOUS
290
1
370
-3
390
0
0
LAYER
5
43
100
AcDbSymbolTableRecord
100
AcDbLayerTableRecord
2
80
70
0
62
-6
6
CONTINUOUS
290
1
370
-3
390
0
0
LAYER
5
45
100
AcDbSymbolTableRecord
100
AcDbLayerTableRecord
2
2
70
0
62
7
6
CONTINUOUS
290
1
370
-3
390
0
0
LAYER
5
47
100
AcDbSymbolTableRecord
100
AcDbLayerTableRecord
2
81
70
0
62
-3
6
CONTINUOUS
290
1
370
-3
390
0
0
LAYER
5
4D
100
AcDbSymbolTableRecord
100
AcDbLayerTableRecord
2
4
70
0
62
-2
6
CENTER
290
1
370
-3
390
0
0
LAYER
5
4F
100
AcDbSymbolTableRecord
100
AcDbLayerTableRecord
2
1
70
0
62
4
6
CONTINUOUS
290
1
370
-3
390
0
0
LAYER
5
1e5
100
AcDbSymbolTableRecord
100
AcDbLayerTableRecord
2
SK2
70
0
62
7
6
CONTINUOUS
290
1
370
-3
390
0
0
LAYER
5
1e6
100
AcDbSymbolTableRecord
100
AcDbLayerTableRecord
2
SK4
70
0
62
2
6
CENTER
290
1
370
-3
390
0
0
LAYER
5
1e7
100
AcDbSymbolTableRecord
100
AcDbLayerTableRecord
2
SK1
70
0
62
4
6
CONTINUOUS
290
1
370
-3
390
0
0
LAYER
5
1e8
100
AcDbSymbolTableRecord
100
AcDbLayerTableRecord
2
SK6
70
0
62
5
6
CONTINUOUS
290
1
370
-3
390
0
0
ENDTAB
0
TABLE
2
STYLE
5
1fc
100
AcDbSymbolTable
0
STYLE
5
11
100
AcDbSymbolTableRecord
100
AcDbTextStyleTableRecord
2
Standard
3
txt
70
0
71
0
40
0
41
1
42
0
50
0
0
STYLE
5
158
100
AcDbSymbolTableRecord
100
AcDbTextStyleTableRecord
2
DEFAULT
3
simplex.shx
70
0
71
0
40
0
41
1
42
0
50
0
0
STYLE
5
159
100
AcDbSymbolTableRecord
100
AcDbTextStyleTableRecord
2
DWGDirectTextStyle
3
SIMPLEX
70
0
71
0
40
0
41
1
42
0
50
0
0
ENDTAB
0
TABLE
2
DIMSTYLE
5
1fd
100
AcDbSymbolTable
100
AcDbDimStyleTable
0
DIMSTYLE
105
27
100
AcDbSymbolTableRecord
100
AcDbDimStyleTableRecord
2
Standard
70
0
3
<>
41
0.18
42
0.0625
44
0.18
140
0.18
147
0.09
73
0
74
0
77
1
271
2
275
0
278
52
280
0
340
11
0
ENDTAB
0
TABLE
2
VIEW
5
1fe
100
AcDbSymbolTable
0
ENDTAB
0
TABLE
2
UCS
5
1ff
100
AcDbSymbolTable
0
ENDTAB
0
TABLE
2
APPID
5
200
100
AcDbSymbolTable
0
APPID
5
12
100
AcDbSymbolTableRecord
100
AcDbRegAppTableRecord
2
ACAD
70
0
0
ENDTAB
0
TABLE
2
BLOCK_RECORD
5
201
100
AcDbSymbolTable
0
BLOCK_RECORD
5
1F
100
AcDbSymbolTableRecord
100
AcDbBlockTableRecord
2
*Model_Space
340
0
70
0
0
BLOCK_RECORD
5
1B
100
AcDbSymbolTableRecord
100
AcDbBlockTableRecord
2
*Paper_Space
340
0
70
0
0
BLOCK_RECORD
5
23
100
AcDbSymbolTableRecord
100
AcDbBlockTableRecord
2
*Paper_Space0
340
0
70
0
0
BLOCK_RECORD
5
15B
100
AcDbSymbolTableRecord
100
AcDbBlockTableRecord
2
DimnDraft3D1
340
0
70
0
0
BLOCK_RECORD
5
169
100
AcDbSymbolTableRecord
100
AcDbBlockTableRecord
2
_CLOSED
340
0
70
0
0
BLOCK_RECORD
5
170
100
AcDbSymbolTableRecord
100
AcDbBlockTableRecord
2
DimnDraft3D2
340
0
70
0
0
BLOCK_RECORD
5
17E
100
AcDbSymbolTableRecord
100
AcDbBlockTableRecord
2
DimnDraft3D3
340
0
70
0
0
BLOCK_RECORD
5
18C
100
AcDbSymbolTableRecord
100
AcDbBlockTableRecord
2
DimnDraft3D4
340
0
70
0
0
BLOCK_RECORD
5
19A
100
AcDbSymbolTableRecord
100
AcDbBlockTableRecord
2
DimnDraft3D5
340
0
70
0
0
ENDTAB
0
ENDSEC
0
SECTION
2
BLOCKS
0
BLOCK
5
20
100
AcDbEntity
8
0
100
AcDbBlockBegin
2
*Model_Space
70
0
10
0
20
0
30
0
3
*Model_Space
0
ENDBLK
5
21
100
AcDbEntity
8
0
100
AcDbBlockEnd
0
BLOCK
5
1C
100
AcDbEntity
8
0
100
AcDbBlockBegin
2
*Paper_Space
70
0
10
0
20
0
30
0
3
*Paper_Space
0
ENDBLK
5
1D
100
AcDbEntity
8
0
100
AcDbBlockEnd
0
BLOCK
5
24
100
AcDbEntity
8
0
100
AcDbBlockBegin
2
*Paper_Space0
70
0
10
0
20
0
30
0
3
*Paper_Space0
0
ENDBLK
5
25
100
AcDbEntity
8
0
100
AcDbBlockEnd
0
BLOCK
5
166
100
AcDbEntity
8
0
100
AcDbBlockBegin
2
DimnDraft3D1
70
0
10
0
20
0
30
0
3
DimnDraft3D1
0
MTEXT
5
15C
100
AcDbEntity
8
2
62
256
6
ByLayer
370
-1
48
1
60
0
100
AcDbMText
10
30.685197
20
36.875
30
0
210
0
220
0
230
1
1
\W01.000;\fsimplex.shx,bigfont.shx;35\P
40
4.5
41
0
44
1.084337
50
0
71
7
72
5
7
DEFAULT
0
LINE
5
15D
100
AcDbEntity
8
2
62
256
6
ByLayer
370
-1
48
1
60
0
100
AcDbLine
10
50
20
18
30
0
11
50
21
37.75
31
0
39
0
210
0
220
0
230
1
0
LINE
5
15E
100
AcDbEntity
8
2
62
256
6
ByLayer
370
-1
48
1
60
0
100
AcDbLine
10
15
20
16.756343
30
0
11
15
21
37.75
31
0
39
0
210
0
220
0
230
1
0
LINE
5
15F
100
AcDbEntity
8
2
62
256
6
ByLayer
370
-1
48
1
60
0
100
AcDbLine
10
50
20
35.75
30
0
11
15
21
35.75
31
0
39
0
210
0
220
0
230
1
0
LINE
5
160
100
AcDbEntity
8
2
62
256
6
ByLayer
370
-1
48
1
60
0
100
AcDbLine
10
50
20
35.75
30
0
11
46.825002
21
35.332003
31
0
39
0
210
0
220
0
230
1
0
LINE
5
161
100
AcDbEntity
8
2
62
256
6
ByLayer
370
-1
48
1
60
0
100
AcDbLine
10
50
20
35.75
30
0
11
46.824998
21
36.167997
31
0
39
0
210
0
220
0
230
1
0
LINE
5
162
100
AcDbEntity
8
2
62
256
6
ByLayer
370
-1
48
1
60
0
100
AcDbLine
10
46.825002
20
35.332003
30
0
11
46.824998
21
36.167997
31
0
39
0
210
0
220
0
230
1
0
LINE
5
163
100
AcDbEntity
8
2
62
256
6
ByLayer
370
-1
48
1
60
0
100
AcDbLine
10
15
20
35.75
30
0
11
18.174998
21
36.167997
31
0
39
0
210
0
220
0
230
1
0
LINE
5
164
100
AcDbEntity
8
2
62
256
6
ByLayer
370
-1
48
1
60
0
100
AcDbLine
10
15
20
35.75
30
0
11
18.175002
21
35.332003
31
0
39
0
210
0
220
0
230
1
0
LINE
5
165
100
AcDbEntity
8
2
62
256
6
ByLayer
370
-1
48
1
60
0
100
AcDbLine
10
18.174998
20
36.167997
30
0
11
18.175002
21
35.332003
31
0
39
0
210
0
220
0
230
1
0
ENDBLK
5
167
100
AcDbEntity
8
0
100
AcDbBlockEnd
0
BLOCK
5
16A
100
AcDbEntity
8
0
100
AcDbBlockBegin
2
_CLOSED
70
0
10
0
20
0
30
0
3
_CLOSED
0
LINE
5
16C
100
AcDbEntity
8
0
62
256
6
ByLayer
370
-2
48
1
60
0
100
AcDbLine
10
-1
20
0.166667
30
0
11
0
21
0
31
0
39
0
210
0
220
0
230
1
0
LINE
5
16D
100
AcDbEntity
8
0
62
256
6
ByLayer
370
-2
48
1
60
0
100
AcDbLine
10
0
20
0
30
0
11
-1
21
-0.166667
31
0
39
0
210
0
220
0
230
1
0
LINE
5
16E
100
AcDbEntity
8
0
62
256
6
ByLayer
370
-2
48
1
60
0
100
AcDbLine
10
-1
20
0.166667
30
0
11
-1
21
-0.166667
31
0
39
0
210
0
220
0
230
1
0
LINE
5
16F
100
AcDbEntity
8
0
62
256
6
ByLayer
370
-2
48
1
60
0
100
AcDbLine
10
0
20
0
30
0
11
-1
21
0
31
0
39
0
210
0
220
0
230
1
0
ENDBLK
5
16B
100
AcDbEntity
8
0
100
AcDbBlockEnd
0
BLOCK
5
17B
100
AcDbEntity
8
0
100
AcDbBlockBegin
2
DimnDraft3D2
70
0
10
0
20
0
30
0
3
DimnDraft3D2
0
MTEXT
5
171
100
AcDbEntity
8
2
62
256
6
ByLayer
370
-1
48
1
60
0
100
AcDbMText
10
23.185197
20
46.875
30
0
210
0
220
0
230
1
1
\W01.000;\fsimplex.shx,bigfont.shx;50\P
40
4.5
41
0
44
1.084337
50
0
71
7
72
5
7
DEFAULT
0
LINE
5
172
100
AcDbEntity
8
2
62
256
6
ByLayer
370
-1
48
1
60
0
100
AcDbLine
10
50
20
18
30
0
11
50
21
47.75
31
0
39
0
210
0
220
0
230
1
0
LINE
5
173
100
AcDbEntity
8
2
62
256
6
ByLayer
370
-1
48
1
60
0
100
AcDbLine
10
0
20
18
30
0
11
0
21
47.75
31
0
39
0
210
0
220
0
230
1
0
LINE
5
174
100
AcDbEntity
8
2
62
256
6
ByLayer
370
-1
48
1
60
0
100
AcDbLine
10
50
20
45.75
30
0
11
0
21
45.75
31
0
39
0
210
0
220
0
230
1
0
LINE
5
175
100
AcDbEntity
8
2
62
256
6
ByLayer
370
-1
48
1
60
0
100
AcDbLine
10
50
20
45.75
30
0
11
46.825002
21
45.332003
31
0
39
0
210
0
220
0
230
1
0
LINE
5
176
100
AcDbEntity
8
2
62
256
6
ByLayer
370
-1
48
1
60
0
100
AcDbLine
10
50
20
45.75
30
0
11
46.824998
21
46.167997
31
0
39
0
210
0
220
0
230
1
0
LINE
5
177
100
AcDbEntity
8
2
62
256
6
ByLayer
370
-1
48
1
60
0
100
AcDbLine
10
46.825002
20
45.332003
30
0
11
46.824998
21
46.167997
31
0
39
0
210
0
220
0
230
1
0
LINE
5
178
100
AcDbEntity
8
2
62
256
6
ByLayer
370
-1
48
1
60
0
100
AcDbLine
10
0
20
45.75
30
0
11
3.174998
21
46.167997
31
0
39
0
210
0
220
0
230
1
0
LINE
5
179
100
AcDbEntity
8
2
62
256
6
ByLayer
370
-1
48
1
60
0
100
AcDbLine
10
0
20
45.75
30
0
11
3.175002
21
45.332003
31
0
39
0
210
0
220
0
230
1
0
LINE
5
17A
100
AcDbEntity
8
2
62
256
6
ByLayer
370
-1
48
1
60
0
100
AcDbLine
10
3.174998
20
46.167997
30
0
11
3.175002
21
45.332003
31
0
39
0
210
0
220
0
230
1
0
ENDBLK
5
17C
100
AcDbEntity
8
0
100
AcDbBlockEnd
0
BLOCK
5
189
100
AcDbEntity
8
0
100
AcDbBlockBegin
2
DimnDraft3D3
70
0
10
0
20
0
30
0
3
DimnDraft3D3
0
MTEXT
5
17F
100
AcDbEntity
8
2
62
256
6
ByLayer
370
-1
48
1
60
0
100
AcDbMText
10
56.51875
20
26.875
30
0
210
0
220
0
230
1
1
\W01.000;\fsimplex.shx,bigfont.shx;10\P
40
4.5
41
0
44
1.084337
50
0
71
7
72
5
7
DEFAULT
0
LINE
5
180
100
AcDbEntity
8
2
62
256
6
ByLayer
370
-1
48
1
60
0
100
AcDbLine
10
50
20
18
30
0
11
50
21
27.75
31
0
39
0
210
0
220
0
230
1
0
LINE
5
181
100
AcDbEntity
8
2
62
256
6
ByLayer
370
-1
48
1
60
0
100
AcDbLine
10
39.8
20
18
30
0
11
39.8
21
27.75
31
0
39
0
210
0
220
0
230
1
0
LINE
5
182
100
AcDbEntity
8
2
62
256
6
ByLayer
370
-1
48
1
60
0
100
AcDbLine
10
39.8
20
25.75
30
0
11
60.148355
21
25.75
31
0
39
0
210
0
220
0
230
1
0
LINE
5
183
100
AcDbEntity
8
2
62
256
6
ByLayer
370
-1
48
1
60
0
100
AcDbLine
10
50
20
25.75
30
0
11
46.825002
21
25.332003
31
0
39
0
210
0
220
0
230
1
0
LINE
5
184
100
AcDbEntity
8
2
62
256
6
ByLayer
370
-1
48
1
60
0
100
AcDbLine
10
50
20
25.75
30
0
11
46.824998
21
26.167997
31
0
39
0
210
0
220
0
230
1
0
LINE
5
185
100
AcDbEntity
8
2
62
256
6
ByLayer
370
-1
48
1
60
0
100
AcDbLine
10
46.825002
20
25.332003
30
0
11
46.824998
21
26.167997
31
0
39
0
210
0
220
0
230
1
0
LINE
5
186
100
AcDbEntity
8
2
62
256
6
ByLayer
370
-1
48
1
60
0
100
AcDbLine
10
39.8
20
25.75
30
0
11
42.974998
21
26.167997
31
0
39
0
210
0
220
0
230
1
0
LINE
5
187
100
AcDbEntity
8
2
62
256
6
ByLayer
370
-1
48
1
60
0
100
AcDbLine
10
39.8
20
25.75
30
0
11
42.975002
21
25.332003
31
0
39
0
210
0
220
0
230
1
0
LINE
5
188
100
AcDbEntity
8
2
62
256
6
ByLayer
370
-1
48
1
60
0
100
AcDbLine
10
42.974998
20
26.167997
30
0
11
42.975002
21
25.332003
31
0
39
0
210
0
220
0
230
1
0
ENDBLK
5
18A
100
AcDbEntity
8
0
100
AcDbBlockEnd
0
BLOCK
5
197
100
AcDbEntity
8
0
100
AcDbBlockBegin
2
DimnDraft3D4
70
0
10
0
20
0
30
0
3
DimnDraft3D4
0
MTEXT
5
18D
100
AcDbEntity
8
SK2
62
256
6
ByLayer
370
-1
48
1
60
0
100
AcDbMText
10
-29.875
20
-4.49852
30
0
210
0
220
0
230
1
1
\W01.000;\fsimplex.shx,bigfont.shx;%%c32\P
40
4.5
41
0
44
1.084337
50
90
71
7
72
5
7
DEFAULT
0
LINE
5
18E
100
AcDbEntity
8
SK2
62
256
6
ByLayer
370
-1
48
1
60
0
100
AcDbLine
10
-2
20
16
30
0
11
-30.75
21
16
31
0
39
0
210
0
220
0
230
1
0
LINE
5
18F
100
AcDbEntity
8
SK2
62
256
6
ByLayer
370
-1
48
1
60
0
100
AcDbLine
10
-2
20
-16
30
0
11
-30.75
21
-16
31
0
39
0
210
0
220
0
230
1
0
LINE
5
190
100
AcDbEntity
8
SK2
62
256
6
ByLayer
370
-1
48
1
60
0
100
AcDbLine
10
-28.75
20
16
30
0
11
-28.75
21
-16
31
0
39
0
210
0
220
0
230
1
0
LINE
5
191
100
AcDbEntity
8
SK2
62
256
6
ByLayer
370
-1
48
1
60
0
100
AcDbLine
10
-28.75
20
16
30
0
11
-28.332003
21
12.825002
31
0
39
0
210
0
220
0
230
1
0
LINE
5
192
100
AcDbEntity
8
SK2
62
256
6
ByLayer
370
-1
48
1
60
0
100
AcDbLine
10
-28.75
20
16
30
0
11
-29.167997
21
12.824998
31
0
39
0
210
0
220
0
230
1
0
LINE
5
193
100
AcDbEntity
8
SK2
62
256
6
ByLayer
370
-1
48
1
60
0
100
AcDbLine
10
-28.332003
20
12.825002
30
0
11
-29.167997
21
12.824998
31
0
39
0
210
0
220
0
230
1
0
LINE
5
194
100
AcDbEntity
8
SK2
62
256
6
ByLayer
370
-1
48
1
60
0
100
AcDbLine
10
-28.75
20
-16
30
0
11
-29.167997
21
-12.825002
31
0
39
0
210
0
220
0
230
1
0
LINE
5
195
100
AcDbEntity
8
SK2
62
256
6
ByLayer
370
-1
48
1
60
0
100
AcDbLine
10
-28.75
20
-16
30
0
11
-28.332003
21
-12.824998
31
0
39
0
210
0
220
0
230
1
0
LINE
5
196
100
AcDbEntity
8
SK2
62
256
6
ByLayer
370
-1
48
1
60
0
100
AcDbLine
10
-29.167997
20
-12.825002
30
0
11
-28.332003
21
-12.824998
31
0
39
0
210
0
220
0
230
1
0
ENDBLK
5
198
100
AcDbEntity
8
0
100
AcDbBlockEnd
0
BLOCK
5
1A5
100
AcDbEntity
8
0
100
AcDbBlockBegin
2
DimnDraft3D5
70
0
10
0
20
0
30
0
3
DimnDraft3D5
0
MTEXT
5
19B
100
AcDbEntity
8
2
62
256
6
ByLayer
370
-1
48
1
60
0
100
AcDbMText
10
63.125
20
-4.49852
30
0
210
0
220
0
230
1
1
\W01.000;\fsimplex.shx,bigfont.shx;%%c32\P
40
4.5
41
0
44
1.084337
50
90
71
7
72
5
7
DEFAULT
0
LINE
5
19C
100
AcDbEntity
8
2
62
256
6
ByLayer
370
-1
48
1
60
0
100
AcDbLine
10
52
20
16
30
0
11
66.25
21
16
31
0
39
0
210
0
220
0
230
1
0
LINE
5
19D
100
AcDbEntity
8
2
62
256
6
ByLayer
370
-1
48
1
60
0
100
AcDbLine
10
52
20
-16
30
0
11
66.25
21
-16
31
0
39
0
210
0
220
0
230
1
0
LINE
5
19E
100
AcDbEntity
8
2
62
256
6
ByLayer
370
-1
48
1
60
0
100
AcDbLine
10
64.25
20
16
30
0
11
64.25
21
-16
31
0
39
0
210
0
220
0
230
1
0
LINE
5
19F
100
AcDbEntity
8
2
62
256
6
ByLayer
370
-1
48
1
60
0
100
AcDbLine
10
64.25
20
16
30
0
11
64.667997
21
12.825002
31
0
39
0
210
0
220
0
230
1
0
LINE
5
1A0
100
AcDbEntity
8
2
62
256
6
ByLayer
370
-1
48
1
60
0
100
AcDbLine
10
64.25
20
16
30
0
11
63.832003
21
12.824998
31
0
39
0
210
0
220
0
230
1
0
LINE
5
1A1
100
AcDbEntity
8
2
62
256
6
ByLayer
370
-1
48
1
60
0
100
AcDbLine
10
64.667997
20
12.825002
30
0
11
63.832003
21
12.824998
31
0
39
0
210
0
220
0
230
1
0
LINE
5
1A2
100
AcDbEntity
8
2
62
256
6
ByLayer
370
-1
48
1
60
0
100
AcDbLine
10
64.25
20
-16
30
0
11
63.832003
21
-12.825002
31
0
39
0
210
0
220
0
230
1
0
LINE
5
1A3
100
AcDbEntity
8
2
62
256
6
ByLayer
370
-1
48
1
60
0
100
AcDbLine
10
64.25
20
-16
30
0
11
64.667997
21
-12.824998
31
0
39
0
210
0
220
0
230
1
0
LINE
5
1A4
100
AcDbEntity
8
2
62
256
6
ByLayer
370
-1
48
1
60
0
100
AcDbLine
10
63.832003
20
-12.825002
30
0
11
64.667997
21
-12.824998
31
0
39
0
210
0
220
0
230
1
0
ENDBLK
5
1A6
100
AcDbEntity
8
0
100
AcDbBlockEnd
0
ENDSEC
0
SECTION
2
ENTITIES
0
ARC
5
92
100
AcDbEntity
8
SK1
62
256
6
ByLayer
370
-1
48
1
60
0
100
AcDbCircle
39
0
10
0.6
20
11.8
30
0
40
1
210
0
220
0
230
-1
100
AcDbArc
50
233.130102
51
246.421822
0
ARC
5
93
100
AcDbEntity
8
SK1
62
256
6
ByLayer
370
-1
48
1
60
0
100
AcDbCircle
39
0
10
0.6
20
-11.8
30
0
40
1
210
0
220
0
230
-1
100
AcDbArc
50
113.578178
51
126.869898
0
ARC
5
94
100
AcDbEntity
8
1
62
256
6
ByLayer
370
-1
48
1
60
0
100
AcDbCircle
39
0
10
-15.8
20
15.556343
30
0
40
0.800000000000002
210
0
220
0
230
-1
100
AcDbArc
50
270
51
0
0
ARC
5
95
100
AcDbEntity
8
1
62
256
6
ByLayer
370
-1
48
1
60
0
100
AcDbCircle
39
0
10
-15.8
20
-15.556343
30
0
40
0.800000000000002
210
0
220
0
230
-1
100
AcDbArc
50
0
51
90
0
ELLIPSE
5
96
100
AcDbEntity
8
1
62
256
6
ByLayer
370
-1
48
1
60
0
100
AcDbEllipse
10
31.915917
20
24.804724
30
0
11
11.1342226217874
21
12.8463647234725
31
0
210
0
220
0
230
1
40
0.981196
41
2.96587715895868
42
3.07596116144898
0
ELLIPSE
5
97
100
AcDbEntity
8
1
62
256
6
ByLayer
370
-1
48
1
60
0
100
AcDbEllipse
10
45.092271
20
10.038856
30
0
11
0.338597604793513
21
-1.17700962699045
31
0
210
0
220
0
230
1
40
0.968343
41
-0.913818084226166
42
-0.0372948775290278
0
ELLIPSE
5
98
100
AcDbEntity
8
1
62
256
6
ByLayer
370
-1
48
1
60
0
100
AcDbEllipse
10
12.928203
20
0
30
0
11
7.49393430383049
21
15.7933993222062
31
0
210
0
220
0
230
-1
40
0.341999
41
-2.98012608239212
42
-2.05401345238956
0
ELLIPSE
5
99
100
AcDbEntity
8
1
62
256
6
ByLayer
370
-1
48
1
60
0
100
AcDbEllipse
10
12.928203
20
0
30
0
11
7.4939343038251
21
-15.7933993221995
31
0
210
0
220
0
230
-1
40
0.341999
41
2.05401345238923
42
2.98012608239207
0
ELLIPSE
5
9A
100
AcDbEntity
8
1
62
256
6
ByLayer
370
-1
48
1
60
0
100
AcDbEllipse
10
42.786528
20
-0.350665
30
0
11
0.202082964330784
21
-15.0522108713396
31
0
210
0
220
0
230
-1
40
0.251562
41
-0.601863431754125
42
-0.575904432175868
0
ELLIPSE
5
9B
100
AcDbEntity
8
1
62
256
6
ByLayer
370
-1
48
1
60
0
100
AcDbEllipse
10
39.9369
20
10.071879
30
0
11
1.5906967031733
21
0.689371788789787
31
0
210
0
220
0
230
-1
40
0.8523
41
1.92890968734253
42
3.13373402222827
0
ELLIPSE
5
9C
100
AcDbEntity
8
1
62
256
6
ByLayer
370
-1
48
1
60
0
100
AcDbEllipse
10
46.146519
20
-12.6306
30
0
11
-0.291567047238326
21
-1.47139004243087
31
0
210
0
220
0
230
1
40
0.968494
41
1.7726146456574
42
2.8102240893492
0
ELLIPSE
5
9D
100
AcDbEntity
8
1
62
256
6
ByLayer
370
-1
48
1
60
0
100
AcDbEllipse
10
45.032298
20
10.021603
30
0
11
0.345579733280264
21
-1.20128042019586
31
0
210
0
220
0
230
1
40
0.968343
41
-0.88022722269531
42
-0.447801194646446
0
ELLIPSE
5
9E
100
AcDbEntity
8
1
62
256
6
ByLayer
370
-1
48
1
60
0
100
AcDbEllipse
10
42.526181
20
0.448304
30
0
11
3.8819699596118
21
15.2088104062186
31
0
210
0
220
0
230
-1
40
0.494313
41
2.94586391250981
42
2.97964539660122
0
ELLIPSE
5
9F
100
AcDbEntity
8
1
62
256
6
ByLayer
370
-1
48
1
60
0
100
AcDbEllipse
10
40.218529
20
9.462854
30
0
11
0.622402891487558
21
0.71811161143368
31
0
210
0
220
0
230
1
40
0.981196
41
-2.7304178254877
42
-2.61799707619251
0
ELLIPSE
5
A0
100
AcDbEntity
8
1
62
256
6
ByLayer
370
-1
48
1
60
0
100
AcDbEllipse
10
32.207623
20
24.551896
30
0
11
9.8243140780477
21
11.3350276971816
31
0
210
0
220
0
230
1
40
0.981196
41
3.11172703771946
42
-2.57995854605777
0
ELLIPSE
5
A1
100
AcDbEntity
8
1
62
256
6
ByLayer
370
-1
48
1
60
0
100
AcDbEllipse
10
44.810708
20
9.936729
30
0
11
-0.814557099587891
21
-0.939813936262061
31
0
210
0
220
0
230
1
40
0.981196
41
0.205964710760101
42
0.207132370474174
0
ELLIPSE
5
A2
100
AcDbEntity
8
1
62
256
6
ByLayer
370
-1
48
1
60
0
100
AcDbEllipse
10
40.065934
20
23.413242
30
0
11
9.82431407804769
21
11.3350276971816
31
0
210
0
220
0
230
1
40
0.981196
41
-2.3633823949083
42
-2.35306574329852
0
ELLIPSE
5
A3
100
AcDbEntity
8
1
62
256
6
ByLayer
370
-1
48
1
60
0
100
AcDbEllipse
10
45.918384
20
-0.00272
30
0
11
0.205388632565405
21
-15.2982770173524
31
0
210
0
220
0
230
-1
40
0.251564
41
-0.416045110564095
42
-0.398511302646188
0
ELLIPSE
5
A4
100
AcDbEntity
8
1
62
256
6
ByLayer
370
-1
48
1
60
0
100
AcDbEllipse
10
80.53952
20
0
30
0
11
91.3520061544554
21
-14.6801280326159
31
0
210
0
220
0
230
-1
40
0.016396
41
-2.19628987985615
42
-2.09327458281253
0
ELLIPSE
5
A5
100
AcDbEntity
8
1
62
256
6
ByLayer
370
-1
48
1
60
0
100
AcDbEllipse
10
100.421014
20
-1.924184
30
0
11
97.8422555725432
21
-3.13047325194598
31
0
210
0
220
0
230
-1
40
0.192446
41
2.23143545779029
42
2.2329563200685
0
ELLIPSE
5
A6
100
AcDbEntity
8
1
62
256
6
ByLayer
370
-1
48
1
60
0
100
AcDbEllipse
10
40.100089
20
9.565509
30
0
11
-0.104745534267478
21
1.24560361795036
31
0
210
0
220
0
230
1
40
0.136052
41
-2.57320369734165
42
-2.44530172941876
0
ELLIPSE
5
A7
100
AcDbEntity
8
1
62
256
6
ByLayer
370
-1
48
1
60
0
100
AcDbEllipse
10
44.792405
20
9.952592
30
0
11
0.345579733280264
21
-1.20128042019586
31
0
210
0
220
0
230
1
40
0.968343
41
-0.923901520975818
42
-0.593651124692199
0
ELLIPSE
5
A8
100
AcDbEntity
8
1
62
256
6
ByLayer
370
-1
48
1
60
0
100
AcDbEllipse
10
36.773476
20
9.690166
30
0
11
5.45543457084299
21
-0.824888111071545
31
0
210
0
220
0
230
-1
40
0.053784
41
0.741582810161457
42
0.834556614649493
0
ELLIPSE
5
A9
100
AcDbEntity
8
1
62
256
6
ByLayer
370
-1
48
1
60
0
100
AcDbEllipse
10
41.234702
20
10.228478
30
0
11
-0.179693523164939
21
1.48919785043243
31
0
210
0
220
0
230
1
40
0.798861
41
2.59184074981609
42
2.69725887795836
0
ELLIPSE
5
AA
100
AcDbEntity
8
1
62
256
6
ByLayer
370
-1
48
1
60
0
100
AcDbEllipse
10
42.824614
20
-0.002709
30
0
11
0.204802392090499
21
-15.2545901194303
31
0
210
0
220
0
230
-1
40
0.251564
41
-0.5541547420064
42
-0.454090548320455
0
ELLIPSE
5
AB
100
AcDbEntity
8
1
62
256
6
ByLayer
370
-1
48
1
60
0
100
AcDbEllipse
10
37.38225
20
8.93851
30
0
11
0.286800979432292
21
1.97932948197026
31
0
210
0
220
0
230
1
40
0.163363
41
-1.8027721389288
42
-1.67517788393766
0
ELLIPSE
5
AC
100
AcDbEntity
8
1
62
256
6
ByLayer
370
-1
48
1
60
0
100
AcDbEllipse
10
29.523939
20
10.077164
30
0
11
0.286800979432292
21
1.97932948197026
31
0
210
0
220
0
230
1
40
0.163363
41
-1.87623990529852
42
-1.67517788393766
0
ELLIPSE
5
AD
100
AcDbEntity
8
1
62
256
6
ByLayer
370
-1
48
1
60
0
100
AcDbEllipse
10
39.614
20
10.511538
30
0
11
1.59069670317333
21
0.689371788789395
31
0
210
0
220
0
230
-1
40
0.8523
41
2.76498164015616
42
-2.16829374869558
0
ELLIPSE
5
AE
100
AcDbEntity
8
1
62
256
6
ByLayer
370
-1
48
1
60
0
100
AcDbEllipse
10
45.880259
20
-0.350667
30
0
11
0.202082568239844
21
-15.0522083998793
31
0
210
0
220
0
230
-1
40
0.251562
41
-0.601863484030715
42
-0.435712233182848
0
ELLIPSE
5
AF
100
AcDbEntity
8
1
62
256
6
ByLayer
370
-1
48
1
60
0
100
AcDbEllipse
10
-0.928203
20
0
30
0
11
7.49393430382536
21
15.7933993221997
31
0
210
0
220
0
230
-1
40
0.341999
41
0.161466571197726
42
1.08757920120055
0
ELLIPSE
5
B0
100
AcDbEntity
8
1
62
256
6
ByLayer
370
-1
48
1
60
0
100
AcDbEllipse
10
-70.36064
20
-0.350667
30
0
11
233.766199277369
21
14.9111277499544
31
0
210
0
220
0
230
-1
40
0.008798
41
-1.08325618103593
42
-1.03228361059129
0
ELLIPSE
5
B1
100
AcDbEntity
8
1
62
256
6
ByLayer
370
-1
48
1
60
0
100
AcDbEllipse
10
41.234702
20
10.228478
30
0
11
-0.179693523164939
21
1.48919785043243
31
0
210
0
220
0
230
1
40
0.798861
41
2.4338383740576
42
2.5398216845232
0
ELLIPSE
5
B2
100
AcDbEntity
8
1
62
256
6
ByLayer
370
-1
48
1
60
0
100
AcDbEllipse
10
41.632367
20
9.694362
30
0
11
2.25949976078806
21
1.39781198135923
31
0
210
0
220
0
230
-1
40
0.142511
41
1.80461219139888
42
1.93402850022236
0
ELLIPSE
5
B3
100
AcDbEntity
8
1
62
256
6
ByLayer
370
-1
48
1
60
0
100
AcDbEllipse
10
50.279338
20
0
30
0
11
100.090327066254
21
1.92674529090286
31
0
210
0
220
0
230
-1
40
0.146168
41
-1.85384167563919
42
-1.68656080395134
0
ELLIPSE
5
B4
100
AcDbEntity
8
1
62
256
6
ByLayer
370
-1
48
1
60
0
100
AcDbEllipse
10
40.065934
20
23.413242
30
0
11
9.82431407804769
21
11.3350276971816
31
0
210
0
220
0
230
1
40
0.981196
41
-2.57995854605778
42
-2.42036265717562
0
ELLIPSE
5
B5
100
AcDbEntity
8
1
62
256
6
ByLayer
370
-1
48
1
60
0
100
AcDbEllipse
10
46.146519
20
-12.6306
30
0
11
-1.5
21
1.83690953073357E-16
31
0
210
0
220
0
230
1
40
0.04992
41
-2.89480886944323
42
-2.07633102380373
0
ELLIPSE
5
B6
100
AcDbEntity
8
1
62
256
6
ByLayer
370
-1
48
1
60
0
100
AcDbEllipse
10
41.234702
20
8.962602
30
0
11
0.788938456368066
21
0
31
0
210
0
220
0
230
1
40
0.12427
41
-2.20638260127386
42
-1.93138699055715
0
ELLIPSE
5
B7
100
AcDbEntity
8
1
62
256
6
ByLayer
370
-1
48
1
60
0
100
AcDbEllipse
10
40.445907
20
10.61192
30
0
11
2.58227601950341
21
-1.12960057963331
31
0
210
0
220
0
230
-1
40
0.185437
41
2.49001913415102
42
2.51351253360314
0
ELLIPSE
5
B8
100
AcDbEntity
8
1
62
256
6
ByLayer
370
-1
48
1
60
0
100
AcDbEllipse
10
50.279338
20
0
30
0
11
100.090670246576
21
0.699653456764808
31
0
210
0
220
0
230
-1
40
0.147264
41
1.69040394557955
42
1.85768481727225
0
ELLIPSE
5
B9
100
AcDbEntity
8
1
62
256
6
ByLayer
370
-1
48
1
60
0
100
AcDbEllipse
10
-0.928203
20
0
30
0
11
7.49393430382355
21
-15.7933993221975
31
0
210
0
220
0
230
-1
40
0.341999
41
-1.08757920120065
42
-0.161466571197732
0
ELLIPSE
5
BA
100
AcDbEntity
8
1
62
256
6
ByLayer
370
-1
48
1
60
0
100
AcDbEllipse
10
45.878986
20
-12.577586
30
0
11
0.199237482279525
21
1.00544986232776
31
0
210
0
220
0
230
1
40
0.968494
41
-1.36897800793238
42
2.00556801490986E-05
0
ELLIPSE
5
BB
100
AcDbEntity
8
1
62
256
6
ByLayer
370
-1
48
1
60
0
100
AcDbEllipse
10
39.639835
20
15.070216
30
0
11
1.12304024739351
21
6.73857270908108
31
0
210
0
220
0
230
-1
40
0.144383
41
-2.19731552285307
42
-1.70681062169193
0
ELLIPSE
5
BC
100
AcDbEntity
8
1
62
256
6
ByLayer
370
-1
48
1
60
0
100
AcDbEllipse
10
44.302994
20
12.462385
30
0
11
0.763134941969021
21
1.54701327090169
31
0
210
0
220
0
230
1
40
0.962186
41
1.58521549581686
42
2.73773258898328
0
ELLIPSE
5
BD
100
AcDbEntity
8
1
62
256
6
ByLayer
370
-1
48
1
60
0
100
AcDbEllipse
10
44.260506
20
12.483344
30
0
11
0.457880965181412
21
0.928207962541012
31
0
210
0
220
0
230
1
40
0.962186
41
-2.14339420146439
42
-1.09705462992769
0
ELLIPSE
5
BE
100
AcDbEntity
8
1
62
256
6
ByLayer
370
-1
48
1
60
0
100
AcDbEllipse
10
43.680545
20
12.337034
30
0
11
-0.0818434575445037
21
-0.165911568183659
31
0
210
0
220
0
230
1
40
0.962186
41
-2.3951241435485
42
-0.564924886745911
0
ELLIPSE
5
BF
100
AcDbEntity
8
1
62
256
6
ByLayer
370
-1
48
1
60
0
100
AcDbEllipse
10
44.260506
20
12.483344
30
0
11
0.457880965181412
21
0.928207962541012
31
0
210
0
220
0
230
1
40
0.962186
41
2.0445380236621
42
3.0908775951988
0
ELLIPSE
5
C0
100
AcDbEntity
8
1
62
256
6
ByLayer
370
-1
48
1
60
0
100
AcDbEllipse
10
44.302994
20
12.462385
30
0
11
0.763134941969021
21
1.54701327090169
31
0
210
0
220
0
230
1
40
0.962186
41
2.73764422251987
42
-1.12763994580735
0
ELLIPSE
5
C1
100
AcDbEntity
8
1
62
256
6
ByLayer
370
-1
48
1
60
0
100
AcDbEllipse
10
44.302994
20
12.462385
30
0
11
0.763134941969021
21
1.54701327090169
31
0
210
0
220
0
230
1
40
0.962186
41
-1.12763994580734
42
0
0
ELLIPSE
5
C2
100
AcDbEntity
8
1
62
256
6
ByLayer
370
-1
48
1
60
0
100
AcDbEllipse
10
44.302994
20
12.462385
30
0
11
0.763134941969021
21
1.54701327090169
31
0
210
0
220
0
230
1
40
0.962186
41
0
42
1.59616632473616
0
ELLIPSE
5
C3
100
AcDbEntity
8
1
62
256
6
ByLayer
370
-1
48
1
60
0
100
AcDbEllipse
10
44.504793
20
12.362838
30
0
11
-0.33091300672048
21
-0.670820827034471
31
0
210
0
220
0
230
1
40
0.962186
41
-2.63011960480555
42
-1.62022441569604
0
ELLIPSE
5
C4
100
AcDbEntity
8
1
62
256
6
ByLayer
370
-1
48
1
60
0
100
AcDbEllipse
10
44.260506
20
12.483344
30
0
11
0.457880965181412
21
0.928207962541012
31
0
210
0
220
0
230
1
40
0.962186
41
-0.0507150583910019
42
0.998198452125408
0
ELLIPSE
5
C5
100
AcDbEntity
8
1
62
256
6
ByLayer
370
-1
48
1
60
0
100
AcDbEllipse
10
44.092057
20
11.619864
30
0
11
-0.0818434575445037
21
-0.165911568183659
31
0
210
0
220
0
230
1
40
0.962186
41
-1.34878457201182
42
-0.842427129692453
0
ELLIPSE
5
C6
100
AcDbEntity
8
1
62
256
6
ByLayer
370
-1
48
1
60
0
100
AcDbEllipse
10
44.480364
20
12.374889
30
0
11
0.763134941969021
21
1.54701327090169
31
0
210
0
220
0
230
1
40
0.962186
41
3.14153553950536
42
-3.12653086423398
0
ELLIPSE
5
C7
100
AcDbEntity
8
1
62
256
6
ByLayer
370
-1
48
1
60
0
100
AcDbEllipse
10
44.504793
20
13.522303
30
0
11
-0.18669156261503
21
-0.378457739316239
31
0
210
0
220
0
230
1
40
0.962186
41
0.540655019183349
42
1.25082789675916
0
ELLIPSE
5
C8
100
AcDbEntity
8
1
62
256
6
ByLayer
370
-1
48
1
60
0
100
AcDbEllipse
10
44.260506
20
12.483344
30
0
11
0.457880965181412
21
0.928207962541012
31
0
210
0
220
0
230
1
40
0.962186
41
3.0908775951988
42
-2.14339420146439
0
ELLIPSE
5
C9
100
AcDbEntity
8
1
62
256
6
ByLayer
370
-1
48
1
60
0
100
AcDbEllipse
10
44.504793
20
12.362838
30
0
11
0.330913006720479
21
0.670820827034471
31
0
210
0
220
0
230
1
40
0.962186
41
-2.54271616041227
42
-2.15158737360973
0
ELLIPSE
5
CA
100
AcDbEntity
8
1
62
256
6
ByLayer
370
-1
48
1
60
0
100
AcDbEllipse
10
44.504793
20
12.362838
30
0
11
-0.33091300672048
21
-0.670820827034471
31
0
210
0
220
0
230
1
40
0.962186
41
3.06883678592627
42
-2.70558230863963
0
ELLIPSE
5
CB
100
AcDbEntity
8
1
62
256
6
ByLayer
370
-1
48
1
60
0
100
AcDbEllipse
10
44.504793
20
12.362838
30
0
11
0.330913006720479
21
0.670820827034471
31
0
210
0
220
0
230
1
40
0.962186
41
0.436010344950171
42
0.511473048784246
0
ELLIPSE
5
CC
100
AcDbEntity
8
1
62
256
6
ByLayer
370
-1
48
1
60
0
100
AcDbEllipse
10
44.504793
20
13.522303
30
0
11
-0.18669156261503
21
-0.378457739316239
31
0
210
0
220
0
230
1
40
0.962186
41
1.05727823207927E-05
42
0.406828374551048
0
ELLIPSE
5
CD
100
AcDbEntity
8
1
62
256
6
ByLayer
370
-1
48
1
60
0
100
AcDbEllipse
10
43.521998
20
11.752037
30
0
11
-0.18669156261503
21
-0.378457739316239
31
0
210
0
220
0
230
1
40
0.962186
41
1.79280808157799
42
2.56770780943044
0
ELLIPSE
5
CE
100
AcDbEntity
8
1
62
256
6
ByLayer
370
-1
48
1
60
0
100
AcDbEllipse
10
44.260506
20
12.483344
30
0
11
0.575116188150566
21
1.16586507372301
31
0
210
0
220
0
230
1
40
0.962186
41
0
42
6.28318530717959
0
ELLIPSE
5
CF
100
AcDbEntity
8
1
62
256
6
ByLayer
370
-1
48
1
60
0
100
AcDbEllipse
10
43.521998
20
11.752037
30
0
11
-0.18669156261503
21
-0.378457739316239
31
0
210
0
220
0
230
1
40
0.962186
41
2.56770780943044
42
3.14158050733998
0
ELLIPSE
5
D0
100
AcDbEntity
8
1
62
256
6
ByLayer
370
-1
48
1
60
0
100
AcDbEllipse
10
44.917529
20
13.105813
30
0
11
-0.0818434575445037
21
-0.165911568183659
31
0
210
0
220
0
230
1
40
0.962186
41
-2.28537993976303
42
-1.89076475683064
0
ELLIPSE
5
D1
100
AcDbEntity
8
1
62
256
6
ByLayer
370
-1
48
1
60
0
100
AcDbEllipse
10
44.504793
20
12.362838
30
0
11
-0.33091300672048
21
-0.670820827034471
31
0
210
0
220
0
230
1
40
0.962186
41
-1.62022441569604
42
-0.573884844159345
0
ELLIPSE
5
D2
100
AcDbEntity
8
1
62
256
6
ByLayer
370
-1
48
1
60
0
100
AcDbEllipse
10
44.092057
20
13.07997
30
0
11
-0.0818434575445037
21
-0.165911568183659
31
0
210
0
220
0
230
1
40
0.962186
41
-2.77947877024599
42
-0.845324687843571
0
ELLIPSE
5
D3
100
AcDbEntity
8
1
62
256
6
ByLayer
370
-1
48
1
60
0
100
AcDbEllipse
10
44.504793
20
12.362838
30
0
11
-0.33091300672048
21
-0.670820827034471
31
0
210
0
220
0
230
1
40
0.962186
41
-0.573884844159345
42
0.00985019134465951
0
ELLIPSE
5
D4
100
AcDbEntity
8
1
62
256
6
ByLayer
370
-1
48
1
60
0
100
AcDbEllipse
10
44.300985
20
12.463376
30
0
11
0.330913006720479
21
0.670820827034471
31
0
210
0
220
0
230
1
40
0.962186
41
0.43601034495016
42
0.511473048784246
0
ELLIPSE
5
D5
100
AcDbEntity
8
1
62
256
6
ByLayer
370
-1
48
1
60
0
100
AcDbEllipse
10
43.521998
20
12.912105
30
0
11
-0.18669156261503
21
-0.378457739316239
31
0
210
0
220
0
230
1
40
0.962186
41
0.746468510041299
42
1.52136823789375
0
ELLIPSE
5
D6
100
AcDbEntity
8
1
62
256
6
ByLayer
370
-1
48
1
60
0
100
AcDbEllipse
10
44.260506
20
12.483344
30
0
11
0.457880965181412
21
0.928207962541012
31
0
210
0
220
0
230
1
40
0.962186
41
-1.09705462992769
42
-0.0507150583910019
0
ELLIPSE
5
D7
100
AcDbEntity
8
1
62
256
6
ByLayer
370
-1
48
1
60
0
100
AcDbEllipse
10
44.300985
20
12.463376
30
0
11
0.330913006720479
21
0.670820827034471
31
0
210
0
220
0
230
1
40
0.962186
41
-2.70558230863963
42
-2.63011960480554
0
ELLIPSE
5
D8
100
AcDbEntity
8
1
62
256
6
ByLayer
370
-1
48
1
60
0
100
AcDbEllipse
10
43.521998
20
12.912105
30
0
11
-0.18669156261503
21
-0.378457739316239
31
0
210
0
220
0
230
1
40
0.962186
41
1.52136823789375
42
2.29626796574622
0
ELLIPSE
5
D9
100
AcDbEntity
8
1
62
256
6
ByLayer
370
-1
48
1
60
0
100
AcDbEllipse
10
44.260506
20
12.483344
30
0
11
0.457880965181412
21
0.928207962541012
31
0
210
0
220
0
230
1
40
0.962186
41
0.998198452125414
42
2.0445380236621
0
ELLIPSE
5
DA
100
AcDbEntity
8
1
62
256
6
ByLayer
370
-1
48
1
60
0
100
AcDbEllipse
10
44.504793
20
12.362838
30
0
11
-0.33091300672048
21
-0.670820827034471
31
0
210
0
220
0
230
1
40
0.962186
41
2.0442928563402
42
2.41796687337846
0
ELLIPSE
5
DB
100
AcDbEntity
8
1
62
256
6
ByLayer
370
-1
48
1
60
0
100
AcDbEllipse
10
45.408653
20
-12.667789
30
0
11
0.184659129917608
21
0.931880360206218
31
0
210
0
220
0
230
1
40
0.968494
41
-1.42398148945293
42
-1.36890545421688
0
ELLIPSE
5
DC
100
AcDbEntity
8
1
62
256
6
ByLayer
370
-1
48
1
60
0
100
AcDbEllipse
10
45.408653
20
-12.667789
30
0
11
0.184659129917608
21
0.931880360206218
31
0
210
0
220
0
230
1
40
0.968494
41
-1.36890545421688
42
-0.210149109632013
0
POINT
5
42
100
AcDbEntity
8
80
62
256
6
ByLayer
370
-1
48
1
60
0
100
AcDbPoint
10
0
20
0
30
0
39
0
210
0
220
0
230
1
50
360
0
POINT
5
44
100
AcDbEntity
8
2
62
256
6
ByLayer
370
-1
48
1
60
0
100
AcDbPoint
10
50
20
15.935
30
0
39
0
210
0
220
0
230
1
50
360
0
POINT
5
46
100
AcDbEntity
8
81
62
256
6
ByLayer
370
-1
48
1
60
0
100
AcDbPoint
10
50
20
15.935
30
0
39
0
210
0
220
0
230
1
50
360
0
POINT
5
48
100
AcDbEntity
8
SK2
62
256
6
ByLayer
370
-1
48
1
60
0
100
AcDbPoint
10
38.5
20
8.427542
30
0
39
0
210
0
220
0
230
1
50
360
0
SPLINE
5
DD
100
AcDbEntity
8
1
62
256
6
ByLayer
370
-1
48
1
60
0
100
AcDbSpline
70
4
71
2
72
6
73
3
40
0
40
0
40
0
40
1
40
1
40
1
41
1
10
40.1401707122215
20
15.5317269206146
30
-2E-16
41
1
10
40.0588927352922
20
15.5282643791497
30
-2E-16
41
1
10
39.9778696807858
20
15.5158435800993
30
-2E-16
0
SPLINE
5
DE
100
AcDbEntity
8
SK1
62
256
6
ByLayer
370
-1
48
1
60
0
100
AcDbSpline
70
4
71
3
72
25
73
21
40
0
40
0
40
0
40
0
40
0.0929635332431216
40
0.209045484599363
40
0.299809262848666
40
0.3413680323964
40
0.351316767840954
40
0.352616006882529
40
0.353107539420382
40
0.353515112619375
40
0.353872955474498
40
0.354231682625965
40
0.354643131072534
40
0.355144265858948
40
0.358358675558483
40
0.382193001773202
40
0.45110129822285
40
0.586265588752269
40
0.783167802992036
40
1
40
1
40
1
40
1
41
1
10
-1.50340710257943
20
10.8244563415021
30
0
41
1
10
-1.50646966178762
20
10.8243241975587
30
0
41
1
10
-1.51378053824958
20
10.8229035686751
30
0
41
1
10
-1.5251357429464
20
10.816721524386
30
0
41
1
10
-1.53640041462806
20
10.8093987483249
30
0
41
1
10
-1.54715365231151
20
10.8055668006917
30
0
41
1
10
-1.55386988741635
20
10.8048303211213
30
0
41
1
10
-1.5577431237338
20
10.8054865060922
30
0
41
1
10
-1.55876039225266
20
10.8057198787521
30
0
41
1
10
-1.55947066369178
20
10.8059061537453
30
0
41
1
10
-1.56021445121702
20
10.8061269784721
30
0
41
1
10
-1.56096003557636
20
10.8063751850398
30
0
41
1
10
-1.56167564674961
20
10.8066384924719
30
0
41
1
10
-1.56354771579919
20
10.8073934635857
30
0
41
1
10
-1.56996328120324
20
10.81085796538
30
0
41
1
10
-1.57703908522394
20
10.818120275064
30
0
41
1
10
-1.58926749109696
20
10.8327489679563
30
-1E-16
41
1
10
-1.60058081935023
20
10.8503970155458
30
-1E-16
41
1
10
-1.6129965832606
20
10.8622151485949
30
-1E-16
41
1
10
-1.62035969316078
20
10.8595127491368
30
-1E-16
41
1
10
-1.62404883325381
20
10.8546699627863
30
-1E-16
0
SPLINE
5
DF
100
AcDbEntity
8
SK1
62
256
6
ByLayer
370
-1
48
1
60
0
100
AcDbSpline
70
4
71
3
72
20
73
16
40
0
40
0
40
0
40
0
40
0.398167691854425
40
0.631727985204563
40
0.74695037164493
40
0.759396562116416
40
0.763824602711461
40
0.765770393475894
40
0.767642153591774
40
0.769535424545195
40
0.771541602467426
40
0.776167166380464
40
0.789025772788887
40
0.899935075428755
40
1
40
1
40
1
40
1
41
1
10
-1.69769301734905
20
-10.881846909269
30
-1E-16
41
1
10
-1.69766314933143
20
-10.8794278801963
30
-1E-16
41
1
10
-1.69747659044076
20
-10.8747981226998
30
-1E-16
41
1
10
-1.69690517065933
20
-10.8674674913604
30
-1E-16
41
1
10
-1.69662393900721
20
-10.8637938054569
30
-1E-16
41
1
10
-1.6961549115032
20
-10.8607941290856
30
-1E-16
41
1
10
-1.69604784513486
20
-10.8602062226268
30
-1E-16
41
1
10
-1.69599340786847
20
-10.8599275441762
30
-1E-16
41
1
10
-1.69595383981509
20
-10.859733664894
30
-1E-16
41
1
10
-1.69591408876816
20
-10.8595475007859
30
-1E-16
41
1
10
-1.69585854868278
20
-10.8592991635971
30
-1E-16
41
1
10
-1.69574851949278
20
-10.8588450379837
30
-1E-16
41
1
10
-1.69526043247133
20
-10.857198890774
30
-1E-16
41
1
10
-1.69495867023147
20
-10.857187287996
30
-1E-16
41
1
10
-1.69470320379764
20
-10.8573053715767
30
-1E-16
41
1
10
-1.69458755801752
20
-10.8573858831565
30
-1E-16
0
SPLINE
5
E0
100
AcDbEntity
8
SK1
62
256
6
ByLayer
370
-1
48
1
60
0
100
AcDbSpline
70
4
71
3
72
30
73
26
40
0
40
0
40
0
40
0
40
0.133147078190003
40
0.260257004254407
40
0.358199246657476
40
0.438132008435438
40
0.499635592061592
40
0.542922208636943
40
0.568739875830242
40
0.575499122834334
40
0.577471646384349
40
0.578150299914751
40
0.578668716232075
40
0.578892492389686
40
0.579110235762116
40
0.579337361002428
40
0.579587292387662
40
0.580190785387382
40
0.580969034015547
40
0.586064644277157
40
0.605868851256137
40
0.678619381319756
40
0.78340862087102
40
0.905574026548121
40
1
40
1
40
1
40
1
41
1
10
-1.67499228450811
20
-10.9200250884264
30
-1E-16
41
1
10
-1.67246755124162
20
-10.9214795702219
30
-1E-16
41
1
10
-1.6672557899371
20
-10.9180325021621
30
-1E-16
41
1
10
-1.65847155572455
20
-10.8966321770334
30
-1E-16
41
1
10
-1.64907499130089
20
-10.8662836925886
30
-1E-16
41
1
10
-1.63965396526096
20
-10.8347760089978
30
-1E-16
41
1
10
-1.63016460950872
20
-10.8053424205581
30
-1E-16
41
1
10
-1.6204614504564
20
-10.7809325286766
30
-1E-16
41
1
10
-1.61215365384466
20
-10.7645678750848
30
-1E-16
41
1
10
-1.6047069071071
20
-10.7550502905543
30
-1E-16
41
1
10
-1.6009619345252
20
-10.7515890342848
30
-1E-16
41
1
10
-1.59901805524389
20
-10.7501186562466
30
-1E-16
41
1
10
-1.59783805443152
20
-10.7493360673933
30
-1E-16
41
1
10
-1.59690363941319
20
-10.7487876617538
30
-1E-16
41
1
10
-1.59623293419931
20
-10.7484249143549
30
-1E-16
41
1
10
-1.59556820771013
20
-10.7480955962639
30
-1E-16
41
1
10
-1.59463678884427
20
-10.7476759827161
30
-1E-16
41
1
10
-1.59349364181999
20
-10.7472448559455
30
-1E-16
41
1
10
-1.5900337766878
20
-10.7462450753142
30
-1E-16
41
1
10
-1.58310270141472
20
-10.746520802796
30
0
41
1
10
-1.5690031970589
20
-10.754046387162
30
0
41
1
10
-1.55377140735168
20
-10.7743451000597
30
0
41
1
10
-1.53555149941694
20
-10.7997897465743
30
0
41
1
10
-1.51951978424084
20
-10.8188246463531
30
0
41
1
10
-1.50898507961399
20
-10.8229153968125
30
0
41
1
10
-1.50457966283605
20
-10.8232733085469
30
0
0
SPLINE
5
E1
100
AcDbEntity
8
SK1
62
256
6
ByLayer
370
-1
48
1
60
0
100
AcDbSpline
70
4
71
2
72
6
73
3
40
0
40
0
40
0
40
1
40
1
40
1
41
1
10
-0.898270762190151
20
10.7847407283834
30
0
41
1
10
-1.19913538109505
20
10.7847407283834
30
0
41
1
10
-1.49999999999999
20
10.7847407283834
30
0
0
SPLINE
5
E2
100
AcDbEntity
8
SK1
62
256
6
ByLayer
370
-1
48
1
60
0
100
AcDbSpline
70
4
71
2
72
6
73
3
40
0
40
0
40
0
40
1
40
1
40
1
41
1
10
-1.50000000000001
20
-10.7847407263989
30
0
41
1
10
-1.20213505918336
20
-10.7847407263989
30
0
41
1
10
-0.904270118366668
20
-10.7847407263989
30
0
0
SPLINE
5
E3
100
AcDbEntity
8
1
62
256
6
ByLayer
370
-1
48
1
60
0
100
AcDbSpline
70
4
71
2
72
6
73
3
40
0
40
0
40
0
40
1
40
1
40
1
41
1
10
48.9099625509378
20
9.17836794310045
30
0
41
1
10
48.9910017010949
20
9.18147646260118
30
0
41
1
10
49.0707638591245
20
9.19415081771638
30
0
0
SPLINE
5
E4
100
AcDbEntity
8
1
62
256
6
ByLayer
370
-1
48
1
60
0
100
AcDbSpline
70
4
71
2
72
6
73
3
40
0
40
0
40
0
40
1
40
1
40
1
41
1
10
39.976413475425
20
-15.873919173047
30
1E-16
41
1
10
40.0555516008781
20
-15.8827380816269
30
-1E-16
41
1
10
40.1349476678382
20
-15.8823758717986
30
0
0
SPLINE
5
E5
100
AcDbEntity
8
SK1
62
256
6
ByLayer
370
-1
48
1
60
0
100
AcDbSpline
70
4
71
2
72
6
73
3
40
0
40
0
40
0
40
1
40
1
40
1
41
1
10
-2.49999999999999
20
11.0000000216177
30
-1E-16
41
1
10
-10.2501577226355
20
10.8052890832069
30
-1E-16
41
1
10
-18.0003154452711
20
10.6105781447962
30
-2E-16
0
SPLINE
5
E6
100
AcDbEntity
8
SK1
62
256
6
ByLayer
370
-1
48
1
60
0
100
AcDbSpline
70
4
71
2
72
6
73
3
40
0
40
0
40
0
40
1
40
1
40
1
41
1
10
-18.0003154452711
20
-10.6105781038671
30
-2E-16
41
1
10
-10.2501577226356
20
-10.8052890415269
30
-1E-16
41
1
10
-2.50000000000001
20
-10.9999999791866
30
-1E-16
0
SPLINE
5
E7
100
AcDbEntity
8
SK1
62
256
6
ByLayer
370
-1
48
1
60
0
100
AcDbSpline
70
4
71
2
72
6
73
3
40
0
40
0
40
0
40
1
40
1
40
1
41
1
10
-2.50000000000001
20
-10.9999999791866
30
-1E-16
41
1
10
-2.0975125121336
20
-11.0101118658041
30
-1E-16
41
1
10
-1.69502502426722
20
-11.0202237524215
30
-1E-16
0
SPLINE
5
E8
100
AcDbEntity
8
SK1
62
256
6
ByLayer
370
-1
48
1
60
0
100
AcDbSpline
70
4
71
2
72
6
73
3
40
0
40
0
40
0
40
1
40
1
40
1
41
1
10
-1.6950250242672
20
11.0202237949306
30
-1E-16
41
1
10
-2.09751251213358
20
11.0101119082741
30
-1E-16
41
1
10
-2.49999999999999
20
11.0000000216177
30
-1E-16
0
SPLINE
5
E9
100
AcDbEntity
8
SK1
62
256
6
ByLayer
370
-1
48
1
60
0
100
AcDbSpline
70
4
71
2
72
6
73
3
40
0
40
0
40
0
40
1
40
1
40
1
41
1
10
-18.0002077056275
20
10.6083539004405
30
1E-16
41
1
10
-18.5001033313043
20
10.3025663640319
30
0
41
1
10
-19
20
9.99678531058692
30
0
0
SPLINE
5
EA
100
AcDbEntity
8
SK1
62
256
6
ByLayer
370
-1
48
1
60
0
100
AcDbSpline
70
4
71
2
72
6
73
3
40
0
40
0
40
0
40
1
40
1
40
1
41
1
10
-19
20
-9.9957080696918
30
0
41
1
10
-18.5001026802154
20
-10.3013830512381
30
0
41
1
10
-18.0002062662752
20
-10.6070648849159
30
1E-16
0
SPLINE
5
EB
100
AcDbEntity
8
1
62
256
6
ByLayer
370
-1
48
1
60
0
100
AcDbSpline
70
4
71
3
72
18
73
14
40
0
40
0
40
0
40
0
40
0.0872973106982662
40
0.0872973106982662
40
0.542504713769248
40
0.542504713769248
40
0.700049237734308
40
0.700049237734308
40
0.859641035571714
40
0.859641035571714
40
0.970800525640277
40
0.970800525640277
40
1
40
1
40
1
40
1
41
1
10
7.33660254037846
20
15.1759383782002
30
1E-16
41
1
10
7.33335951275454
20
15.1799220163034
30
1E-16
41
1
10
7.3298812452356
20
15.1838732610657
30
1E-16
41
1
10
7.30679603866888
20
15.2080620258525
30
1E-16
41
1
10
7.28070949120797
20
15.2277749876851
30
0
41
1
10
7.22892472751984
20
15.2504441152007
30
0
41
1
10
7.21379801264526
20
15.2559954463096
30
0
41
1
10
7.17940149560856
20
15.2657445103484
30
0
41
1
10
7.15964797354847
20
15.2700240892112
30
0
41
1
10
7.12286471883336
20
15.2749451765723
30
0
41
1
10
7.10646334965823
20
15.2763144731654
30
0
41
1
10
7.08557733679537
20
15.276900414162
30
0
41
1
10
7.08118372978328
20
15.2769622091384
30
0
41
1
10
7.07679491924314
20
15.2769622091384
30
0
0
SPLINE
5
EC
100
AcDbEntity
8
1
62
256
6
ByLayer
370
-1
48
1
60
0
100
AcDbSpline
70
4
71
3
72
18
73
14
40
0
40
0
40
0
40
0
40
0.0533675348305139
40
0.0533675348305139
40
0.183483340542259
40
0.183483340542259
40
0.380582243459021
40
0.380582243459021
40
0.644695044152725
40
0.644695044152725
40
0.914084281575227
40
0.914084281575227
40
1
40
1
40
1
40
1
41
1
10
18.7496621683234
20
14.0659754463615
30
-1E-16
41
1
10
18.7692887830492
20
14.0453809352913
30
-1E-16
41
1
10
18.7936181847331
20
14.0246977590039
30
-1E-16
41
1
10
18.8911451017884
20
13.954438725966
30
-1E-16
41
1
10
18.9856410178948
20
13.9052509123266
30
-1E-16
41
1
10
19.2618517143631
20
13.7911660460714
30
-1E-16
41
1
10
19.4675150557061
20
13.7291288405764
30
-1E-16
41
1
10
19.9845796082377
20
13.6099185341293
30
-1E-16
41
1
10
20.3173683855745
20
13.5591103044367
30
0
41
1
10
21.0019369102374
20
13.4971945795741
30
0
41
1
10
21.3629052344633
20
13.4860260073046
30
0
41
1
10
21.8302737011068
20
13.4979105402559
30
1E-16
41
1
10
21.9433709374847
20
13.5028368022252
30
1E-16
41
1
10
22.0555771769043
20
13.5097727510314
30
1E-16
0
SPLINE
5
ED
100
AcDbEntity
8
1
62
256
6
ByLayer
370
-1
48
1
60
0
100
AcDbSpline
70
4
71
3
72
18
73
14
40
0
40
0
40
0
40
0
40
0.0872973106983343
40
0.0872973106983343
40
0.542504713769336
40
0.542504713769336
40
0.70004923773436
40
0.70004923773436
40
0.859641035571757
40
0.859641035571757
40
0.970800525640324
40
0.970800525640324
40
1
40
1
40
1
40
1
41
1
10
7.33660254037845
20
-5.06861858311186
30
-8E-16
41
1
10
7.33335951275453
20
-5.05669118210832
30
-8E-16
41
1
10
7.32988124523558
20
-5.04481392106419
30
-8E-16
41
1
10
7.30679603866885
20
-4.97182102384338
30
-8E-16
41
1
10
7.28070949120794
20
-4.91100060572415
30
-8E-16
41
1
10
7.22892472751981
20
-4.83986869632059
30
-8E-16
41
1
10
7.21379801264521
20
-4.82232975779178
30
-8E-16
41
1
10
7.17940149560852
20
-4.79137868546468
30
-8E-16
41
1
10
7.15964797354843
20
-4.77770433946478
30
-8E-16
41
1
10
7.12286471883333
20
-4.76194246224063
30
-8E-16
41
1
10
7.1064633496582
20
-4.75754333105189
30
-9E-16
41
1
10
7.08557733679535
20
-4.75566124801028
30
-9E-16
41
1
10
7.08118372978325
20
-4.75546271781775
30
-9E-16
41
1
10
7.07679491924313
20
-4.75546271781775
30
-9E-16
0
SPLINE
5
EE
100
AcDbEntity
8
1
62
256
6
ByLayer
370
-1
48
1
60
0
100
AcDbSpline
70
4
71
3
72
8
73
4
40
0
40
0
40
0
40
0
40
1
40
1
40
1
40
1
41
1
10
38.523605808435
20
14.3171476597894
30
2E-16
41
1
10
38.5337656258472
20
14.3091438733333
30
2E-16
41
1
10
38.5461780985603
20
14.3015515172593
30
2E-16
41
1
10
38.5607269604974
20
14.2947889550622
30
2E-16
0
SPLINE
5
EF
100
AcDbEntity
8
1
62
256
6
ByLayer
370
-1
48
1
60
0
100
AcDbSpline
70
4
71
3
72
8
73
4
40
0
40
0
40
0
40
0
40
1
40
1
40
1
40
1
41
1
10
38.4385522416778
20
8.42572756069038
30
-7E-16
41
1
10
38.4590408303788
20
8.42629923145225
30
-7E-16
41
1
10
38.4795601704996
20
8.42702249469781
30
-7E-16
41
1
10
38.5
20
8.42789470582875
30
-7E-16
0
SPLINE
5
F0
100
AcDbEntity
8
1
62
256
6
ByLayer
370
-1
48
1
60
0
100
AcDbSpline
70
4
71
3
72
8
73
4
40
0
40
0
40
0
40
0
40
1
40
1
40
1
40
1
41
1
10
41.0043475216834
20
8.89160960955815
30
3E-16
41
1
10
40.9001535129885
20
8.89660043151466
30
3E-16
41
1
10
40.7992104948701
20
8.90617010815438
30
3E-16
41
1
10
40.7093579109585
20
8.91961665873239
30
3E-16
0
SPLINE
5
F1
100
AcDbEntity
8
1
62
256
6
ByLayer
370
-1
48
1
60
0
100
AcDbSpline
70
4
71
3
72
14
73
10
40
0
40
0
40
0
40
0
40
0.0141055836414412
40
0.0141055836414412
40
0.459659468574944
40
0.459659468574944
40
0.842794646627963
40
0.842794646627963
40
1
40
1
40
1
40
1
41
1
10
38.5607269605135
20
7.91816081872392
30
-7E-16
41
1
10
38.5605083344956
20
7.91997249609622
30
-7E-16
41
1
10
38.5602891715413
20
7.92178387099324
30
-7E-16
41
1
10
38.553129943918
20
7.98079785005487
30
-7E-16
41
1
10
38.5456784472329
20
8.0377069573982
30
-7E-16
41
1
10
38.5300357740462
20
8.14287769604468
30
-7E-16
41
1
10
38.5221491662679
20
8.19125741844707
30
-7E-16
41
1
10
38.5087977184772
20
8.25891664893939
30
-7E-16
41
1
10
38.504637477212
20
8.27853718160171
30
-7E-16
41
1
10
38.5
20
8.29804800463779
30
-7E-16
0
SPLINE
5
F2
100
AcDbEntity
8
1
62
256
6
ByLayer
370
-1
48
1
60
0
100
AcDbSpline
70
4
71
3
72
16
73
12
40
0
40
0
40
0
40
0
40
0.0328621331167322
40
0.0328621331167322
40
0.282581544822781
40
0.282581544822781
40
0.534517101223174
40
0.534517101223174
40
0.779398286607081
40
0.779398286607081
40
1
40
1
40
1
40
1
41
1
10
39.7903331151576
20
-14.8495604424941
30
0
41
1
10
39.7744331622966
20
-14.8466523665481
30
0
41
1
10
39.7584433361432
20
-14.8437712461596
30
0
41
1
10
39.621652592115
20
-14.819497153272
30
0
41
1
10
39.4951768620069
20
-14.799624754387
30
0
41
1
10
39.2503863175708
20
-14.7662390784529
30
0
41
1
10
39.1286220731161
20
-14.7523042572463
30
0
41
1
10
38.9124807675057
20
-14.7321868219486
30
0
41
1
10
38.8143392265104
20
-14.7254901287606
30
0
41
1
10
38.6618720153382
20
-14.718960384559
30
0
41
1
10
38.6022542123045
20
-14.7184064203515
30
0
41
1
10
38.560726960493
20
-14.7200162048608
30
0
0
SPLINE
5
F3
100
AcDbEntity
8
1
62
256
6
ByLayer
370
-1
48
1
60
0
100
AcDbSpline
70
4
71
3
72
18
73
14
40
0
40
0
40
0
40
0
40
0.0872973106983432
40
0.0872973106983432
40
0.542504713769246
40
0.542504713769246
40
0.700049237734311
40
0.700049237734311
40
0.859641035571735
40
0.859641035571735
40
0.97080052564028
40
0.97080052564028
40
1
40
1
40
1
40
1
41
1
10
4.66339745962152
20
-15.1759383782005
30
-1E-16
41
1
10
4.66664048724545
20
-15.1799220163037
30
-1E-16
41
1
10
4.6701187547644
20
-15.1838732610659
30
-1E-16
41
1
10
4.69320396133112
20
-15.2080620258528
30
-1E-16
41
1
10
4.71929050879201
20
-15.2277749876853
30
-1E-16
41
1
10
4.77107527248015
20
-15.2504441152009
30
-1E-16
41
1
10
4.78620198735474
20
-15.2559954463098
30
-1E-16
41
1
10
4.82059850439144
20
-15.2657445103486
30
-1E-16
41
1
10
4.84035202645153
20
-15.2700240892115
30
-1E-16
41
1
10
4.87713528116664
20
-15.2749451765725
30
-1E-16
41
1
10
4.89353665034177
20
-15.2763144731657
30
-1E-16
41
1
10
4.91442266320462
20
-15.2769004141623
30
-1E-16
41
1
10
4.91881627021672
20
-15.2769622091387
30
-1E-16
41
1
10
4.92320508075686
20
-15.2769622091387
30
-1E-16
0
SPLINE
5
F4
100
AcDbEntity
8
1
62
256
6
ByLayer
370
-1
48
1
60
0
100
AcDbSpline
70
4
71
3
72
16
73
12
40
0
40
0
40
0
40
0
40
0.0824510846571626
40
0.0824510846571626
40
0.188383068428399
40
0.188383068428399
40
0.365472907848057
40
0.365472907848057
40
0.680803291610423
40
0.680803291610423
40
1
40
1
40
1
40
1
41
1
10
7.07679491924308
20
-15.2769622091387
30
0
41
1
10
7.08910350916453
20
-15.2769622091387
30
0
41
1
10
7.10150513750615
20
-15.2764645420424
30
0
41
1
10
7.12874362447572
20
-15.2743206039306
30
0
41
1
10
7.14353521549829
20
-15.2723664954753
30
0
41
1
10
7.17976687435105
20
-15.2658799044774
30
0
41
1
10
7.19977756726534
20
-15.2604302192605
30
0
41
1
10
7.24784029496975
20
-15.2437803206196
30
0
41
1
10
7.27150999874223
20
-15.2311047294621
30
0
41
1
10
7.30990356794044
20
-15.2045789137683
30
1E-16
41
1
10
7.32479596954558
20
-15.1904412165638
30
1E-16
41
1
10
7.33660254037839
20
-15.1759383782005
30
1E-16
0
SPLINE
5
F5
100
AcDbEntity
8
1
62
256
6
ByLayer
370
-1
48
1
60
0
100
AcDbSpline
70
4
71
3
72
8
73
4
40
0
40
0
40
0
40
0
40
1
40
1
40
1
40
1
41
1
10
45.5518040541898
20
8.9660432850817
30
-1E-16
41
1
10
45.5443292931436
20
8.96025833048924
30
-1E-16
41
1
10
45.5367905180097
20
8.95455512937059
30
-1E-16
41
1
10
45.5291906852087
20
8.94893554460612
30
-1E-16
0
SPLINE
5
F6
100
AcDbEntity
8
1
62
256
6
ByLayer
370
-1
48
1
60
0
100
AcDbSpline
70
4
71
3
72
14
73
10
40
0
40
0
40
0
40
0
40
0.0664052418023137
40
0.0664052418023137
40
0.394255345412193
40
0.394255345412193
40
0.712925417820038
40
0.712925417820038
40
1
40
1
40
1
40
1
41
1
10
39.4484883795248
20
14.255939756969
30
2E-16
41
1
10
39.423283927877
20
14.2527278877715
30
2E-16
41
1
10
39.398182337087
20
14.2497855089908
30
2E-16
41
1
10
39.2503863175709
20
14.2340148166219
30
2E-16
41
1
10
39.1286220731162
20
14.2274676184569
30
2E-16
41
1
10
38.9124807675057
20
14.2283283674151
30
2E-16
41
1
10
38.8143392265104
20
14.2353615377158
30
2E-16
41
1
10
38.6618720153407
20
14.2593193740076
30
2E-16
41
1
10
38.6022542123086
20
14.2754863715027
30
2E-16
41
1
10
38.5607269604974
20
14.2947889550623
30
2E-16
0
SPLINE
5
F7
100
AcDbEntity
8
1
62
256
6
ByLayer
370
-1
48
1
60
0
100
AcDbSpline
70
4
71
3
72
8
73
4
40
0
40
0
40
0
40
0
40
1
40
1
40
1
40
1
41
1
10
41.6497413873233
20
-11.491696724011
30
-5E-16
41
1
10
42.7965590625193
20
-12.0093281873411
30
-4E-16
41
1
10
43.9209497759353
20
-12.4968128585515
30
-4E-16
41
1
10
45.018155679597
20
-12.9472702564781
30
-3E-16
0
SPLINE
5
F8
100
AcDbEntity
8
1
62
256
6
ByLayer
370
-1
48
1
60
0
100
AcDbSpline
70
4
71
3
72
16
73
12
40
0
40
0
40
0
40
0
40
0.0824510846571592
40
0.0824510846571592
40
0.188383068428385
40
0.188383068428385
40
0.365472907848037
40
0.365472907848037
40
0.680803291610384
40
0.680803291610384
40
1
40
1
40
1
40
1
41
1
10
4.9232050807569
20
-4.75546271781775
30
8E-16
41
1
10
4.91089649083546
20
-4.75546271781775
30
8E-16
41
1
10
4.89849486249383
20
-4.75706222436509
30
8E-16
41
1
10
4.87125637552427
20
-4.76394233360975
30
8E-16
41
1
10
4.8564647845017
20
-4.77020840137916
30
8E-16
41
1
10
4.82023312564893
20
-4.79093881117964
30
8E-16
41
1
10
4.80022243273464
20
-4.80829129424865
30
8E-16
41
1
10
4.75215970503024
20
-4.86090601671935
30
8E-16
41
1
10
4.72849000125774
20
-4.90053819345565
30
8E-16
41
1
10
4.69009643205953
20
-4.9822327416876
30
8E-16
41
1
10
4.6752040304544
20
-5.02519567059616
30
8E-16
41
1
10
4.66339745962156
20
-5.06861858311188
30
8E-16
0
SPLINE
5
F9
100
AcDbEntity
8
1
62
256
6
ByLayer
370
-1
48
1
60
0
100
AcDbSpline
70
4
71
3
72
10
73
6
40
0
40
0
40
0
40
0
40
0.363940738598379
40
0.363940738598379
40
1
40
1
40
1
40
1
41
1
10
40.4039601774324
20
8.91882969833387
30
3E-16
41
1
10
40.4312102039733
20
8.92628277511295
30
3E-16
41
1
10
40.4625462085445
20
8.93122704359752
30
3E-16
41
1
10
40.5579506716058
20
8.93687722475823
30
3E-16
41
1
10
40.6306302228526
20
8.93139835486082
30
3E-16
41
1
10
40.7093579109585
20
8.91961665873237
30
3E-16
0
SPLINE
5
FA
100
AcDbEntity
8
1
62
256
6
ByLayer
370
-1
48
1
60
0
100
AcDbSpline
70
4
71
3
72
8
73
4
40
0
40
0
40
0
40
0
40
1
40
1
40
1
40
1
41
1
10
38.4385522416778
20
-14.7179234447496
30
0
41
1
10
38.466969350561
20
-14.7182277023677
30
0
41
1
10
38.495399602705
20
-14.7200576387865
30
0
41
1
10
38.5236058084349
20
-14.7233895091483
30
0
0
SPLINE
5
FB
100
AcDbEntity
8
1
62
256
6
ByLayer
370
-1
48
1
60
0
100
AcDbSpline
70
4
71
3
72
8
73
4
40
0
40
0
40
0
40
0
40
1
40
1
40
1
40
1
41
1
10
49.4160181051408
20
9.06223275714308
30
0
41
1
10
49.415037812151
20
8.85499165471364
30
0
41
1
10
49.41399031138
20
8.64327985210423
30
0
41
1
10
49.4128707301772
20
8.42754205626912
30
0
0
SPLINE
5
FC
100
AcDbEntity
8
1
62
256
6
ByLayer
370
-1
48
1
60
0
100
AcDbSpline
70
4
71
3
72
16
73
12
40
0
40
0
40
0
40
0
40
0.249999976020839
40
0.249999976020839
40
0.499999989301947
40
0.499999989301947
40
0.863638004283862
40
0.863638004283862
40
0.954547284923746
40
0.954547284923746
40
1
40
1
40
1
40
1
41
1
10
45.5521661169749
20
8.96632360297244
30
0
41
1
10
45.5522015204919
20
8.96635100861039
30
0
41
1
10
45.5522369120013
20
8.96637842975704
30
0
41
1
10
45.5523076995831
20
8.96643326616379
30
0
41
1
10
45.5523430920426
20
8.96646068609158
30
0
41
1
10
45.5524299614644
20
8.96652799387178
30
0
41
1
10
45.552481437357
20
8.96656788310554
30
0
41
1
10
45.552545777428
20
8.96661775076859
30
0
41
1
10
45.5525589203518
20
8.96662793788906
30
0
41
1
10
45.5525747283917
20
8.9666401929239
30
0
41
1
10
45.5525826327665
20
8.96664631998371
30
0
41
1
10
45.5525905356479
20
8.96665244896937
30
0
0
SPLINE
5
FD
100
AcDbEntity
8
1
62
256
6
ByLayer
370
-1
48
1
60
0
100
AcDbSpline
70
4
71
3
72
18
73
14
40
0
40
0
40
0
40
0
40
0.105342254155225
40
0.105342254155225
40
0.313801476634374
40
0.313801476634374
40
0.517272834846174
40
0.517272834846174
40
0.720990459710948
40
0.720990459710948
40
0.929425328482663
40
0.929425328482663
40
1
40
1
40
1
40
1
41
1
10
49.44356506
20
-14.4920886714063
30
0
41
1
10
49.44356506
20
-14.5368813211183
30
0
41
1
10
49.4398263927406
20
-14.581887835021
30
0
41
1
10
49.4176903524589
20
-14.7133373438979
30
0
41
1
10
49.3879037522132
20
-14.7993577597777
30
0
41
1
10
49.3040094651023
20
-14.9521795702139
30
0
41
1
10
49.2493657810551
20
-15.0214692422799
30
0
41
1
10
49.1229085783149
20
-15.1365141769078
30
-1E-16
41
1
10
49.0494040033719
20
-15.1837986958601
30
-1E-16
41
1
10
48.8921920795194
20
-15.2518173479457
30
-1E-16
41
1
10
48.8062112440765
20
-15.272851631081
30
-1E-16
41
1
10
48.691151001047
20
-15.2816083681106
30
-1E-16
41
1
10
48.6616505681895
20
-15.2821923980642
30
-1E-16
41
1
10
48.6322686200961
20
-15.2811383892683
30
-1E-16
0
SPLINE
5
FE
100
AcDbEntity
8
1
62
256
6
ByLayer
370
-1
48
1
60
0
100
AcDbSpline
70
4
71
3
72
14
73
10
40
0
40
0
40
0
40
0
40
0.25
40
0.25
40
0.5
40
0.5
40
0.75
40
0.75
40
1
40
1
40
1
40
1
41
1
10
27.2482814641453
20
9.80942746193244
30
4E-16
41
1
10
25.4634566853249
20
10.0746056945853
30
3E-16
41
1
10
23.7576683336313
20
10.6123206004236
30
2E-16
41
1
10
20.8843419388583
20
11.9932850163078
30
0
41
1
10
19.7261482394613
20
12.8389340132131
30
-1E-16
41
1
10
18.2772289973994
20
14.1769833943978
30
-2E-16
41
1
10
17.9786223679172
20
14.6338004794885
30
-2E-16
41
1
10
17.9716254405102
20
14.8336061432472
30
0
41
1
10
18.2452448027362
20
14.5952684072022
30
-2E-16
41
1
10
18.7496621683247
20
14.0659754463599
30
-1E-16
0
SPLINE
5
FF
100
AcDbEntity
8
1
62
256
6
ByLayer
370
-1
48
1
60
0
100
AcDbSpline
70
4
71
3
72
8
73
4
40
0
40
0
40
0
40
0
40
1
40
1
40
1
40
1
41
1
10
44.2032046674133
20
8.85263661120484
30
1E-16
41
1
10
44.2671488451788
20
8.81744292651425
30
1E-16
41
1
10
44.3344386922238
20
8.78800619775294
30
1E-16
41
1
10
44.4036424314596
20
8.7649638219317
30
1E-16
0
SPLINE
5
100
100
AcDbEntity
8
1
62
256
6
ByLayer
370
-1
48
1
60
0
100
AcDbSpline
70
4
71
3
72
8
73
4
40
0
40
0
40
0
40
0
40
1
40
1
40
1
40
1
41
1
10
45.2977493620318
20
8.81355447826064
30
-1E-16
41
1
10
45.3792876482947
20
8.85022701938792
30
-1E-16
41
1
10
45.457377263493
20
8.89583416446558
30
-1E-16
41
1
10
45.5291906852092
20
8.94893554460515
30
-1E-16
0
SPLINE
5
101
100
AcDbEntity
8
1
62
256
6
ByLayer
370
-1
48
1
60
0
100
AcDbSpline
70
4
71
3
72
27
73
23
40
0
40
0
40
0
40
0
40
0.218708752379618
40
0.218708752379618
40
0.218708752379618
40
0.343951818057465
40
0.343951818057465
40
0.439667253727269
40
0.439667253727269
40
0.51149610869426
40
0.51149610869426
40
0.572012630711205
40
0.572012630711205
40
0.632792702950988
40
0.632792702950988
40
0.689848838078856
40
0.689848838078856
40
0.768079598402066
40
0.768079598402066
40
0.881472414940374
40
0.881472414940374
40
1
40
1
40
1
40
1
41
1
10
45.0969784618664
20
-12.729148810107
30
-3E-16
41
1
10
45.1831235487523
20
-12.4837837252121
30
-3E-16
41
1
10
45.3366975943749
20
-12.2244286099356
30
-3E-16
41
1
10
45.5674212998804
20
-11.9869409752333
30
-3E-16
41
1
10
45.7006944516176
20
-11.8497607686912
30
-3E-16
41
1
10
45.8627585414921
20
-11.7173732433202
30
-3E-16
41
1
10
46.1983763306991
20
-11.519981048507
30
-2E-16
41
1
10
46.3636799566979
20
-11.444839470037
30
-2E-16
41
1
10
46.6762485319833
20
-11.3531378976035
30
-2E-16
41
1
10
46.8209118633463
20
-11.3260793489282
30
-2E-16
41
1
10
47.0893128772822
20
-11.3104694209655
30
-2E-16
41
1
10
47.2156560952531
20
-11.3166171137857
30
-2E-16
41
1
10
47.454861536225
20
-11.3581841495355
30
-2E-16
41
1
10
47.5708179329793
20
-11.3944097500766
30
-1E-16
41
1
10
47.7680138769521
20
-11.4868997916168
30
-1E-16
41
1
10
47.8534022780156
20
-11.5427429510616
30
-1E-16
41
1
10
48.0219128000054
20
-11.6874549427509
30
-1E-16
41
1
10
48.0957042519634
20
-11.7829281320791
30
-1E-16
41
1
10
48.2226627565716
20
-12.0192823434206
30
-1E-16
41
1
10
48.2555489703758
20
-12.1655161431784
30
-1E-16
41
1
10
48.2643974739387
20
-12.4517607427819
30
-1E-16
41
1
10
48.2379660146539
20
-12.59454733552
30
-1E-16
41
1
10
48.1907088601642
20
-12.729148810107
30
-1E-16
0
SPLINE
5
102
100
AcDbEntity
8
1
62
256
6
ByLayer
370
-1
48
1
60
0
100
AcDbSpline
70
4
71
3
72
8
73
4
40
0
40
0
40
0
40
0
40
1
40
1
40
1
40
1
41
1
10
38.4385522416777
20
8.42572756068984
30
-7E-16
41
1
10
37.3372011186412
20
8.3949977605659
30
-8E-16
41
1
10
36.2444276915304
20
8.4601479341155
30
-8E-16
41
1
10
35.1607796632109
20
8.62380852458236
30
9E-16
0
SPLINE
5
103
100
AcDbEntity
8
1
62
256
6
ByLayer
370
-1
48
1
60
0
100
AcDbSpline
70
4
71
3
72
16
73
12
40
0
40
0
40
0
40
0
40
0.0824510846571644
40
0.0824510846571644
40
0.188383068428397
40
0.188383068428397
40
0.36547290784806
40
0.36547290784806
40
0.680803291610441
40
0.680803291610441
40
1
40
1
40
1
40
1
41
1
10
7.0767949192431
20
4.75546271781741
30
-9E-16
41
1
10
7.08910350916454
20
4.75546271781741
30
-9E-16
41
1
10
7.10150513750617
20
4.75706222436474
30
-9E-16
41
1
10
7.12874362447573
20
4.76394233360941
30
-8E-16
41
1
10
7.1435352154983
20
4.77020840137882
30
-8E-16
41
1
10
7.17976687435106
20
4.7909388111793
30
-8E-16
41
1
10
7.19977756726536
20
4.80829129424828
30
-8E-16
41
1
10
7.24784029496976
20
4.86090601671901
30
-8E-16
41
1
10
7.27150999874226
20
4.9005381934553
30
-8E-16
41
1
10
7.30990356794047
20
4.98223274168723
30
-8E-16
41
1
10
7.32479596954559
20
5.02519567059582
30
-8E-16
41
1
10
7.33660254037841
20
5.06861858311152
30
-8E-16
0
SPLINE
5
104
100
AcDbEntity
8
1
62
256
6
ByLayer
370
-1
48
1
60
0
100
AcDbSpline
70
4
71
3
72
10
73
6
40
0
40
0
40
0
40
0
40
0.790095940872827
40
0.790095940872827
40
1
40
1
40
1
40
1
41
1
10
39.9296248859113
20
8.56050726674647
30
-2E-16
41
1
10
40.020410988671
20
8.57027895849953
30
-2E-16
41
1
10
40.1170853815761
20
8.58333246723657
30
-2E-16
41
1
10
40.2380810010001
20
8.60745566748705
30
-2E-16
41
1
10
40.2636604739465
20
8.61298798838195
30
-2E-16
41
1
10
40.2891446009417
20
8.61898913284767
30
-2E-16
0
SPLINE
5
105
100
AcDbEntity
8
1
62
256
6
ByLayer
370
-1
48
1
60
0
100
AcDbSpline
70
4
71
3
72
8
73
4
40
0
40
0
40
0
40
0
40
1
40
1
40
1
40
1
41
1
10
47.6616051883798
20
-13.9750869639623
30
-1E-16
41
1
10
47.9887402928756
20
-14.0941447577102
30
-1E-16
41
1
10
48.3124462874674
20
-14.2084770344354
30
-1E-16
41
1
10
48.6322686200961
20
-14.3174343973162
30
-1E-16
0
SPLINE
5
106
100
AcDbEntity
8
1
62
256
6
ByLayer
370
-1
48
1
60
0
100
AcDbSpline
70
4
71
3
72
16
73
12
40
0
40
0
40
0
40
0
40
0.229688373407706
40
0.229688373407706
40
0.459746177219806
40
0.459746177219806
40
0.687754285159752
40
0.687754285159752
40
0.905832133738877
40
0.905832133738877
40
1
40
1
40
1
40
1
41
1
10
41.5804424629958
20
-14.7995056810078
30
-1E-16
41
1
10
41.4194583024433
20
-14.7752714093974
30
-1E-16
41
1
10
41.256239624338
20
-14.7572638647055
30
-1E-16
41
1
10
40.951569021273
20
-14.7359854170356
30
-1E-16
41
1
10
40.8059345774072
20
-14.7324267140461
30
-1E-16
41
1
10
40.5553494025977
20
-14.7384803980674
30
-1E-16
41
1
10
40.4464796226913
20
-14.7480291761257
30
-1E-16
41
1
10
40.2858484813218
20
-14.775927939703
30
-2E-16
41
1
10
40.2296098883865
20
-14.7942370850162
30
-2E-16
41
1
10
40.1894054984908
20
-14.8239302880646
30
-2E-16
41
1
10
40.1823056181825
20
-14.8334470564479
30
-2E-16
41
1
10
40.180427683734
20
-14.8433042314752
30
-2E-16
0
SPLINE
5
107
100
AcDbEntity
8
1
62
256
6
ByLayer
370
-1
48
1
60
0
100
AcDbSpline
70
4
71
3
72
8
73
4
40
0
40
0
40
0
40
0
40
1
40
1
40
1
40
1
41
1
10
41.6497413873234
20
-14.8065998483253
30
-1E-16
41
1
10
41.6268177627274
20
-14.8053431606475
30
-1E-16
41
1
10
41.6034394528205
20
-14.8029676073017
30
-1E-16
41
1
10
41.580442462996
20
-14.7995056810121
30
-1E-16
0
SPLINE
5
108
100
AcDbEntity
8
1
62
256
6
ByLayer
370
-1
48
1
60
0
100
AcDbSpline
70
4
71
3
72
26
73
22
40
0
40
0
40
0
40
0
40
0.0352920909086592
40
0.0352920909086592
40
0.156132584529893
40
0.156132584529893
40
0.296335405524224
40
0.296335405524224
40
0.399590489463008
40
0.399590489463008
40
0.503031278098592
40
0.503031278098592
40
0.604336490883898
40
0.604336490883898
40
0.717162922900397
40
0.717162922900397
40
0.849659547548151
40
0.849659547548151
40
0.94924233327435
40
0.94924233327435
40
1
40
1
40
1
40
1
41
1
10
44.9695743486979
20
-13.0472502600534
30
-3E-16
41
1
10
44.9807910500336
20
-13.0748046119858
30
-3E-16
41
1
10
44.9930557286511
20
-13.1014670051918
30
-3E-16
41
1
10
45.051676215288
20
-13.2148691862855
30
-3E-16
41
1
10
45.1098207947526
20
-13.2931662446308
30
-3E-16
41
1
10
45.2602133741097
20
-13.434449013566
30
-3E-16
41
1
10
45.3594696889843
20
-13.4954122017349
30
-3E-16
41
1
10
45.5540243754027
20
-13.5621582682025
30
-3E-16
41
1
10
45.6458314973828
20
-13.5787483401417
30
-3E-16
41
1
10
45.8337742600401
20
-13.5840529946799
30
-3E-16
41
1
10
45.9323524494949
20
-13.5727522465592
30
-2E-16
41
1
10
46.1198616580143
20
-13.525543311195
30
-2E-16
41
1
10
46.2112080050841
20
-13.489723787856
30
-2E-16
41
1
10
46.3890156551569
20
-13.3945816132749
30
-2E-16
41
1
10
46.4759841753001
20
-13.3320698820761
30
-2E-16
41
1
10
46.6404093280791
20
-13.177429758068
30
-2E-16
41
1
10
46.7162816260841
20
-13.0797741529553
30
-2E-16
41
1
10
46.8137239765487
20
-12.8907245549711
30
-2E-16
41
1
10
46.8448199524519
20
-12.8015585091436
30
-2E-16
41
1
10
46.8687397268397
20
-12.6621301494079
30
-2E-16
41
1
10
46.872931631111
20
-12.613562664825
30
-2E-16
41
1
10
46.872931631111
20
-12.5650869245808
30
-2E-16
0
SPLINE
5
109
100
AcDbEntity
8
1
62
256
6
ByLayer
370
-1
48
1
60
0
100
AcDbSpline
70
4
71
3
72
26
73
22
40
0
40
0
40
0
40
0
40
0.00390625
40
0.00390625
40
0.0078125
40
0.0078125
40
0.015625
40
0.015625
40
0.0312500000000001
40
0.0312500000000001
40
0.0625000000000002
40
0.0625000000000002
40
0.125
40
0.125
40
0.25
40
0.25
40
0.5
40
0.5
40
0.75
40
0.75
40
1
40
1
40
1
40
1
41
1
10
48.632268619917
20
-14.3174343974063
30
-1E-16
41
1
10
48.6593705031219
20
-14.3266674917483
30
-1E-16
41
1
10
48.678555966702
20
-14.3022860577144
30
-1E-16
41
1
10
48.6978165587835
20
-14.2761642394315
30
-1E-16
41
1
10
48.7049880409176
20
-14.2627182559701
30
-1E-16
41
1
10
48.724474338907
20
-14.2220578185068
30
-1E-16
41
1
10
48.7343770112562
20
-14.1943040220354
30
-1E-16
41
1
10
48.7614546621641
20
-14.109475893818
30
-1E-16
41
1
10
48.7754525354996
20
-14.0508905830482
30
-1E-16
41
1
10
48.8137992648023
20
-13.8696447892095
30
-1E-16
41
1
10
48.83391508563
20
-13.7413332897296
30
-1E-16
41
1
10
48.889338167068
20
-13.3342121133368
30
-1E-16
41
1
10
48.9186372408196
20
-13.035350871359
30
-1E-16
41
1
10
48.9989799496675
20
-12.0652958157947
30
-1E-16
41
1
10
49.0416345882049
20
-11.3192605004186
30
-1E-16
41
1
10
49.1583701131753
20
-8.77344736161851
30
-1E-16
41
1
10
49.2157553541046
20
-6.74170193516997
30
0
41
1
10
49.3071568181789
20
-2.38805696409381
30
0
41
1
10
49.3404159948361
20
-0.0528372005749986
30
0
41
1
10
49.3883053062699
20
4.41799163695842
30
0
41
1
10
49.4031884307619
20
6.56181054036256
30
0
41
1
10
49.4128707301772
20
8.42754205626912
30
0
0
SPLINE
5
10A
100
AcDbEntity
8
1
62
256
6
ByLayer
370
-1
48
1
60
0
100
AcDbSpline
70
4
71
3
72
10
73
6
40
0
40
0
40
0
40
0
40
0.53126596477128
40
0.53126596477128
40
1
40
1
40
1
40
1
41
1
10
44.2019557463992
20
8.85332496105249
30
1E-16
41
1
10
44.1767848687248
20
8.86894575285046
30
1E-16
41
1
10
44.152862656729
20
8.88643778769128
30
1E-16
41
1
10
44.1100233489529
20
8.9228954849072
30
1E-16
41
1
10
44.0908015698521
20
8.94150181898362
30
1E-16
41
1
10
44.0724626328392
20
8.96153765429696
30
1E-16
0
SPLINE
5
10B
100
AcDbEntity
8
1
62
256
6
ByLayer
370
-1
48
1
60
0
100
AcDbSpline
70
4
71
3
72
14
73
10
40
0
40
0
40
0
40
0
40
0.131355324240144
40
0.131355324240144
40
0.456768767534472
40
0.456768767534472
40
0.794858257353595
40
0.794858257353595
40
1
40
1
40
1
40
1
41
1
10
42.71582439423
20
-14.9917711969641
30
0
41
1
10
42.6906911166326
20
-14.9811845207815
30
0
41
1
10
42.661730506165
20
-14.970536870189
30
0
41
1
10
42.5496173777699
20
-14.9341123220443
30
0
41
1
10
42.4473983846211
20
-14.9085994951598
30
0
41
1
10
42.2106394083181
20
-14.8632243352699
30
0
41
1
10
42.0718990370614
20
-14.8430533497109
30
0
41
1
10
41.8368125846998
20
-14.8190460072427
30
-1E-16
41
1
10
41.7438471604968
20
-14.8117587866496
30
-1E-16
41
1
10
41.6497413873232
20
-14.8065998483213
30
-1E-16
0
SPLINE
5
10C
100
AcDbEntity
8
1
62
256
6
ByLayer
370
-1
48
1
60
0
100
AcDbSpline
70
4
71
3
72
18
73
14
40
0
40
0
40
0
40
0
40
0.0872973106983423
40
0.0872973106983423
40
0.542504713769244
40
0.542504713769244
40
0.7000492377343
40
0.7000492377343
40
0.859641035571737
40
0.859641035571737
40
0.970800525640296
40
0.970800525640296
40
1
40
1
40
1
40
1
41
1
10
4.66339745962154
20
5.06861858311157
30
8E-16
41
1
10
4.66664048724546
20
5.05669118210801
30
8E-16
41
1
10
4.67011875476442
20
5.04481392106391
30
8E-16
41
1
10
4.69320396133114
20
4.97182102384306
30
8E-16
41
1
10
4.71929050879203
20
4.91100060572387
30
8E-16
41
1
10
4.77107527248015
20
4.83986869632031
30
8E-16
41
1
10
4.78620198735476
20
4.82232975779147
30
8E-16
41
1
10
4.82059850439146
20
4.79137868546437
30
8E-16
41
1
10
4.84035202645154
20
4.77770433946446
30
8E-16
41
1
10
4.87713528116666
20
4.76194246224031
30
8E-16
41
1
10
4.89353665034179
20
4.75754333105158
30
8E-16
41
1
10
4.91442266320465
20
4.75566124800994
30
8E-16
41
1
10
4.91881627021674
20
4.75546271781741
30
8E-16
41
1
10
4.92320508075687
20
4.75546271781741
30
8E-16
0
SPLINE
5
10D
100
AcDbEntity
8
1
62
256
6
ByLayer
370
-1
48
1
60
0
100
AcDbSpline
70
4
71
3
72
8
73
4
40
0
40
0
40
0
40
0
40
1
40
1
40
1
40
1
41
1
10
38.5000001694502
20
8.42754205626912
30
-7E-16
41
1
10
38.6775378590559
20
8.43305840865926
30
-7E-16
41
1
10
38.8549843284116
20
8.44106863439262
30
-7E-16
41
1
10
39.0321821233509
20
8.45154172753305
30
-7E-16
0
SPLINE
5
10E
100
AcDbEntity
8
1
62
256
6
ByLayer
370
-1
48
1
60
0
100
AcDbSpline
70
4
71
3
72
10
73
6
40
0
40
0
40
0
40
0
40
0.4368194829984
40
0.4368194829984
40
1
40
1
40
1
40
1
41
1
10
40.2891446009414
20
8.61898913284887
30
-2E-16
41
1
10
40.4007632827694
20
8.64527372305105
30
-1E-16
41
1
10
40.5106200664179
20
8.67853558417971
30
-1E-16
41
1
10
40.754829513664
20
8.7674395584589
30
-1E-16
41
1
10
40.8883130662034
20
8.82711162293944
30
-1E-16
41
1
10
41.0157786889543
20
8.89672921063249
30
-1E-16
0
SPLINE
5
10F
100
AcDbEntity
8
1
62
256
6
ByLayer
370
-1
48
1
60
0
100
AcDbSpline
70
4
71
3
72
8
73
4
40
0
40
0
40
0
40
0
40
1
40
1
40
1
40
1
41
1
10
49.4160181051408
20
9.06223275714308
30
0
41
1
10
49.4343106831367
20
9.05254692902727
30
0
41
1
10
49.44356506
20
9.04192478311685
30
0
41
1
10
49.44356506
20
9.03078467600594
30
0
0
SPLINE
5
110
100
AcDbEntity
8
1
62
256
6
ByLayer
370
-1
48
1
60
0
100
AcDbSpline
70
4
71
3
72
26
73
22
40
0
40
0
40
0
40
0
40
0.117692198175669
40
0.117692198175669
40
0.24781803045945
40
0.24781803045945
40
0.36979755071612
40
0.36979755071612
40
0.479499746056984
40
0.479499746056984
40
0.580009169873642
40
0.580009169873642
40
0.675771644171099
40
0.675771644171099
40
0.77058774991495
40
0.77058774991495
40
0.867841000988648
40
0.867841000988648
40
0.970936592679561
40
0.970936592679561
40
1
40
1
40
1
40
1
41
1
10
44.6919639741748
20
-13.6888046984897
30
-3E-16
41
1
10
44.6503353038288
20
-13.7723111583899
30
-3E-16
41
1
10
44.6368794942022
20
-13.8566673239468
30
-3E-16
41
1
10
44.671880924737
20
-14.0235582427976
30
-3E-16
41
1
10
44.7279527590034
20
-14.1074881305175
30
-3E-16
41
1
10
44.9064959605234
20
-14.2490943025536
30
-3E-16
41
1
10
45.0276864584476
20
-14.3102821247645
30
-3E-16
41
1
10
45.3064168658431
20
-14.4029735744029
30
-3E-16
41
1
10
45.4633633104313
20
-14.4382563718337
30
-3E-16
41
1
10
45.7845991272969
20
-14.4843597016782
30
-3E-16
41
1
10
45.9517598488353
20
-14.497659992088
30
-2E-16
41
1
10
46.2752037072227
20
-14.504723828791
30
-2E-16
41
1
10
46.4360422033084
20
-14.4994712993198
30
-2E-16
41
1
10
46.7351909564609
20
-14.4720846672682
30
-2E-16
41
1
10
46.8776677240357
20
-14.4497324023353
30
-2E-16
41
1
10
47.1317290179209
20
-14.3891983278247
30
-2E-16
41
1
10
47.2457410584552
20
-14.349825611732
30
-2E-16
41
1
10
47.4359566148193
20
-14.2554402002409
30
-2E-16
41
1
10
47.5120040740752
20
-14.1984341101016
30
-2E-16
41
1
10
47.5776955553515
20
-14.1188054769703
30
-1E-16
41
1
10
47.5903487819111
20
-14.1006786721433
30
-1E-16
41
1
10
47.6010733151025
20
-14.0821692496525
30
-1E-16
0
SPLINE
5
111
100
AcDbEntity
8
1
62
256
6
ByLayer
370
-1
48
1
60
0
100
AcDbSpline
70
4
71
3
72
10
73
6
40
0
40
0
40
0
40
0
40
0.797741802544816
40
0.797741802544816
40
1
40
1
40
1
40
1
41
1
10
38.7210849081739
20
11.5185760895037
30
2E-16
41
1
10
38.5921229616647
20
11.4310630893622
30
2E-16
41
1
10
38.4695318263683
20
11.3444560913984
30
2E-16
41
1
10
38.3240400978188
20
11.2532521382914
30
2E-16
41
1
10
38.2945970519313
20
11.2356120820891
30
2E-16
41
1
10
38.2656300516715
20
11.219707383608
30
2E-16
0
SPLINE
5
112
100
AcDbEntity
8
1
62
256
6
ByLayer
370
-1
48
1
60
0
100
AcDbSpline
70
4
71
3
72
10
73
6
40
0
40
0
40
0
40
0
40
0.5
40
0.5
40
1
40
1
40
1
40
1
41
1
10
38.560726960506
20
7.91816081872304
30
-7E-16
41
1
10
38.9195655571017
20
4.94459082940523
30
-7E-16
41
1
10
39.4252159995303
20
1.36807912513032
30
-6E-16
41
1
10
40.5249693907957
20
-5.62242872243556
30
-6E-16
41
1
10
41.0929691923916
20
-8.87508786579784
30
-5E-16
41
1
10
41.5804424629963
20
-11.3049681655664
30
-5E-16
0
SPLINE
5
113
100
AcDbEntity
8
1
62
256
6
ByLayer
370
-1
48
1
60
0
100
AcDbSpline
70
4
71
3
72
8
73
4
40
0
40
0
40
0
40
0
40
1
40
1
40
1
40
1
41
1
10
38.4385522416779
20
14.3095407683136
30
2E-16
41
1
10
38.4669693505611
20
14.3105711442429
30
2E-16
41
1
10
38.4953996027051
20
14.3131166595335
30
2E-16
41
1
10
38.523605808435
20
14.3171476597894
30
2E-16
0
SPLINE
5
114
100
AcDbEntity
8
1
62
256
6
ByLayer
370
-1
48
1
60
0
100
AcDbSpline
70
4
71
3
72
10
73
6
40
0
40
0
40
0
40
0
40
0.986501005425215
40
0.986501005425215
40
1
40
1
40
1
40
1
41
1
10
45.5529526679213
20
8.96693324887315
30
-1E-16
41
1
10
45.5890409614932
20
8.99132366222022
30
0
41
1
10
45.624664118182
20
9.01738550344882
30
0
41
1
10
45.6599856484939
20
9.04552098853443
30
0
41
1
10
45.6604605295782
20
9.04589968685735
30
0
41
1
10
45.6609352822289
20
9.04627871378446
30
0
0
SPLINE
5
115
100
AcDbEntity
8
1
62
256
6
ByLayer
370
-1
48
1
60
0
100
AcDbSpline
70
4
71
3
72
8
73
4
40
0
40
0
40
0
40
0
40
1
40
1
40
1
40
1
41
1
10
38.5236058084349
20
-14.7233895091483
30
0
41
1
10
38.5337656258461
20
-14.721822121191
30
0
41
1
10
38.5461780985545
20
-14.720580184694
30
0
41
1
10
38.5607269604896
20
-14.72001620486
30
0
0
SPLINE
5
116
100
AcDbEntity
8
1
62
256
6
ByLayer
370
-1
48
1
60
0
100
AcDbSpline
70
4
71
3
72
16
73
12
40
0
40
0
40
0
40
0
40
0.082451084657159
40
0.082451084657159
40
0.188383068428376
40
0.188383068428376
40
0.365472907848032
40
0.365472907848032
40
0.680803291610382
40
0.680803291610382
40
1
40
1
40
1
40
1
41
1
10
4.92320508075692
20
15.2769622091384
30
-1E-16
41
1
10
4.91089649083547
20
15.2769622091384
30
-1E-16
41
1
10
4.89849486249385
20
15.2764645420422
30
-1E-16
41
1
10
4.87125637552428
20
15.2743206039303
30
-1E-16
41
1
10
4.85646478450171
20
15.2723664954751
30
-1E-16
41
1
10
4.82023312564895
20
15.2658799044771
30
-1E-16
41
1
10
4.80022243273466
20
15.2604302192602
30
-1E-16
41
1
10
4.75215970503025
20
15.2437803206193
30
-1E-16
41
1
10
4.72849000125775
20
15.2311047294618
30
-1E-16
41
1
10
4.69009643205955
20
15.204578913768
30
-1E-16
41
1
10
4.67520403045442
20
15.1904412165635
30
-1E-16
41
1
10
4.66339745962158
20
15.1759383782002
30
-1E-16
0
SPLINE
5
117
100
AcDbEntity
8
1
62
256
6
ByLayer
370
-1
48
1
60
0
100
AcDbSpline
70
4
71
3
72
8
73
4
40
0
40
0
40
0
40
0
40
1
40
1
40
1
40
1
41
1
10
18.2897827692447
20
-14.755132398699
30
0
41
1
10
18.4104518441994
20
-14.7549330035163
30
0
41
1
10
18.5645085877212
20
-14.7118262432481
30
1E-16
41
1
10
18.7496621683242
20
-14.626876723536
30
1E-16
0
SPLINE
5
118
100
AcDbEntity
8
1
62
256
6
ByLayer
370
-1
48
1
60
0
100
AcDbSpline
70
4
71
3
72
18
73
14
40
0
40
0
40
0
40
0
40
0.0544792332583103
40
0.0544792332583103
40
0.184751251456362
40
0.184751251456362
40
0.38229186184587
40
0.38229186184587
40
0.646932815181366
40
0.646932815181366
40
0.916834760697937
40
0.916834760697937
40
1
40
1
40
1
40
1
41
1
10
18.7496621683239
20
-14.6268767235363
30
1E-16
41
1
10
18.7696956169645
20
-14.617685262941
30
-1E-16
41
1
10
18.7946305456043
20
-14.6081686712511
30
-1E-16
41
1
10
18.8934217080087
20
-14.5754663543378
30
-1E-16
41
1
10
18.9884094572221
20
-14.5512920233771
30
-1E-16
41
1
10
19.2659343062537
20
-14.4930734584951
30
-1E-16
41
1
10
19.4724706766103
20
-14.4594096691744
30
-1E-16
41
1
10
19.9913875979179
20
-14.3931978866075
30
-1E-16
41
1
10
20.325143246538
20
-14.3636438697121
30
0
41
1
10
21.0114138506691
20
-14.3276596765992
30
0
41
1
10
21.3731441791406
20
-14.3211704758515
30
0
41
1
10
21.8374812377258
20
-14.3284795733091
30
1E-16
41
1
10
21.9469451392026
20
-14.3313393523192
30
1E-16
41
1
10
22.0555771769035
20
-14.3352985145155
30
1E-16
0
SPLINE
5
119
100
AcDbEntity
8
1
62
256
6
ByLayer
370
-1
48
1
60
0
100
AcDbSpline
70
4
71
3
72
16
73
12
40
0
40
0
40
0
40
0
40
0.42855411061635
40
0.42855411061635
40
0.684443978559633
40
0.684443978559633
40
0.942295396879851
40
0.942295396879851
40
0.985448023359554
40
0.985448023359554
40
1
40
1
40
1
40
1
41
1
10
41.5804424629956
20
-11.3049681655664
30
-5E-16
41
1
10
41.5860165269865
20
-11.3327528854638
30
-5E-16
41
1
10
41.592121531037
20
-11.3603809072187
30
-5E-16
41
1
10
41.6039067794901
20
-11.404060379946
30
-5E-16
41
1
10
41.6087437102345
20
-11.4203094209835
30
-5E-16
41
1
10
41.6205885413967
20
-11.452424700879
30
-5E-16
41
1
10
41.6265315739421
20
-11.4689550694828
30
-5E-16
41
1
10
41.641118349901
20
-11.4855690460628
30
-5E-16
41
1
10
41.643507289153
20
-11.4879214224332
30
-5E-16
41
1
10
41.6474825525159
20
-11.4905465093626
30
-5E-16
41
1
10
41.6485683331009
20
-11.4911672503816
30
-5E-16
41
1
10
41.6497413872821
20
-11.4916967240451
30
-5E-16
0
SPLINE
5
11A
100
AcDbEntity
8
SK1
62
256
6
ByLayer
370
-1
48
1
60
0
100
AcDbSpline
70
4
71
3
72
10
73
6
40
0
40
0
40
0
40
0
40
0.5
40
0.5
40
1
40
1
40
1
40
1
41
1
10
-1.69996579751435
20
2.34399454350779
30
4E-16
41
1
10
-1.82597576019364
20
1.61001532399766
30
4E-16
41
1
10
-1.92804003196062
20
0.809037898581664
30
4E-16
41
1
10
-1.92909522738219
20
-0.795359530273402
30
4E-16
41
1
10
-1.82836818305549
20
-1.59607539008061
30
4E-16
41
1
10
-1.69996579738208
20
-2.34399541728115
30
4E-16
0
SPLINE
5
11B
100
AcDbEntity
8
SK1
62
256
6
ByLayer
370
-1
48
1
60
0
100
AcDbSpline
70
4
71
3
72
24
73
20
40
0
40
0
40
0
40
0
40
0.394887530671275
40
0.394887530671275
40
0.583923275334675
40
0.583923275334675
40
0.775640263639323
40
0.775640263639323
40
0.824781731617119
40
0.824781731617119
40
0.862517656538363
40
0.862517656538363
40
0.89426261244368
40
0.89426261244368
40
0.925906833096297
40
0.925906833096297
40
0.974831011730868
40
0.974831011730868
40
1
40
1
40
1
40
1
41
1
10
-1.30710678118655
20
3.27410008506496
30
4E-16
41
1
10
-1.25832942599462
20
3.50149952651373
30
4E-16
41
1
10
-1.19991064580014
20
3.7234666411141
30
4E-16
41
1
10
-1.08384884657397
20
4.03707714370552
30
4E-16
41
1
10
-1.04153791965378
20
4.13675427692147
30
4E-16
41
1
10
-0.938254289261693
20
4.32801751486141
30
4E-16
41
1
10
-0.878155607060577
20
4.42371753851685
30
4E-16
41
1
10
-0.767111712667401
20
4.51729029260741
30
4E-16
41
1
10
-0.741708507810927
20
4.53512787407621
30
4E-16
41
1
10
-0.691958906630077
20
4.55987158851008
30
4E-16
41
1
10
-0.668248724766485
20
4.56845950218971
30
5E-16
41
1
10
-0.622857383271423
20
4.57708046005277
30
5E-16
41
1
10
-0.600993180994863
20
4.57825352233763
30
5E-16
41
1
10
-0.558658423255935
20
4.57453349365289
30
5E-16
41
1
10
-0.537724143555621
20
4.56966479399486
30
5E-16
41
1
10
-0.488248270422417
20
4.55200346897212
30
5E-16
41
1
10
-0.460806462020528
20
4.53627234602408
30
5E-16
41
1
10
-0.42357003405435
20
4.50937867037388
30
5E-16
41
1
10
-0.411500153524855
20
4.49956715918458
30
5E-16
41
1
10
-0.400000000000034
20
4.48934914533064
30
5E-16
0
SPLINE
5
11C
100
AcDbEntity
8
SK1
62
256
6
ByLayer
370
-1
48
1
60
0
100
AcDbSpline
70
4
71
3
72
24
73
20
40
0
40
0
40
0
40
0
40
0.0288407257317729
40
0.0288407257317729
40
0.0509955919663402
40
0.0509955919663402
40
0.068389814586215
40
0.068389814586215
40
0.0857973114187237
40
0.0857973114187237
40
0.109377904005686
40
0.109377904005686
40
0.151277300634713
40
0.151277300634713
40
0.282099488990446
40
0.282099488990446
40
0.823874497013245
40
0.823874497013245
40
1
40
1
40
1
40
1
41
1
10
-0.400000000000034
20
4.48934914533064
30
5E-16
41
1
10
-0.394116473092879
20
4.48412156647115
30
5E-16
41
1
10
-0.387649558798643
20
4.47936666342224
30
5E-16
41
1
10
-0.375020695476763
20
4.47300024936555
30
5E-16
41
1
10
-0.369015733581691
20
4.47088976573122
30
5E-16
41
1
10
-0.357819037006692
20
4.46928378990077
30
5E-16
41
1
10
-0.352620795543132
20
4.46933783003249
30
5E-16
41
1
10
-0.342504208041206
20
4.47118331490225
30
5E-16
41
1
10
-0.337472714781057
20
4.47299443494006
30
5E-16
41
1
10
-0.326559027546438
20
4.47870654294005
30
5E-16
41
1
10
-0.320811012640007
20
4.48316238354079
30
5E-16
41
1
10
-0.3067126689985
20
4.4967705884205
30
5E-16
41
1
10
-0.299366502504768
20
4.50708193062843
30
5E-16
41
1
10
-0.273512837585713
20
4.55030240434641
30
5E-16
41
1
10
-0.261969797101401
20
4.58649632348275
30
5E-16
41
1
10
-0.213168679495283
20
4.7680249714864
30
5E-16
41
1
10
-0.206388298823157
20
4.91574806320784
30
5E-16
41
1
10
-0.200616563362615
20
5.10487240084439
30
5E-16
41
1
10
-0.200000000000358
20
5.15111693550293
30
5E-16
41
1
10
-0.200000000000031
20
5.19704283599538
30
5E-16
0
SPLINE
5
11D
100
AcDbEntity
8
SK1
62
256
6
ByLayer
370
-1
48
1
60
0
100
AcDbSpline
70
4
71
3
72
28
73
24
40
0
40
0
40
0
40
0
40
0.0450974676081555
40
0.0450974676081555
40
0.158837194003149
40
0.158837194003149
40
0.272576920398143
40
0.272576920398143
40
0.386316646793136
40
0.386316646793136
40
0.50005637318813
40
0.50005637318813
40
0.556926236385627
40
0.556926236385627
40
0.613796099583123
40
0.613796099583123
40
0.727535825978117
40
0.727535825978117
40
0.841275552373111
40
0.841275552373111
40
0.955015278768104
40
0.955015278768104
40
1
40
1
40
1
40
1
41
1
10
-19
20
9.99703617794481
30
1E-16
41
1
10
-19
20
9.98525272635939
30
0
41
1
10
-19
20
9.93362507793421
30
0
41
1
10
-19
20
9.64867768984547
30
0
41
1
10
-19
20
9.23780993670161
30
2E-16
41
1
10
-19
20
8.14603193018385
30
2E-16
41
1
10
-19
20
7.43345411730712
30
2E-16
41
1
10
-19
20
5.77837410503312
30
2E-16
41
1
10
-19
20
4.80540193943577
30
-7E-16
41
1
10
-19
20
2.62104554533019
30
-7E-16
41
1
10
-19
20
1.38389479530082
30
-7E-16
41
1
10
-19
20
-0.605684496272318
30
-7E-16
41
1
10
-19
20
-1.25707690377649
30
-7E-16
41
1
10
-19
20
-2.49720593938537
30
-7E-16
41
1
10
-19
20
-3.08077873820483
30
-7E-16
41
1
10
-19
20
-4.74586814612979
30
-7E-16
41
1
10
-19
20
-5.70718288821732
30
2E-16
41
1
10
-19
20
-7.40302719902544
30
2E-16
41
1
10
-19
20
-8.10117106535415
30
2E-16
41
1
10
-19
20
-9.22362511721832
30
2E-16
41
1
10
-19
20
-9.63194777304716
30
0
41
1
10
-19
20
-9.92636361798796
30
0
41
1
10
-19
20
-9.98021772809852
30
0
41
1
10
-19
20
-9.99460582233613
30
1E-16
0
SPLINE
5
11E
100
AcDbEntity
8
SK1
62
256
6
ByLayer
370
-1
48
1
60
0
100
AcDbSpline
70
4
71
3
72
33
73
29
40
0
40
0
40
0
40
0
40
0.0262485968465471
40
0.0662428365041506
40
0.106237076161754
40
0.146231315819357
40
0.186225555476961
40
0.226219795134564
40
0.266214034792168
40
0.306208274449771
40
0.346202514107375
40
0.386196753764978
40
0.426190993422582
40
0.466185233080185
40
0.506179472737789
40
0.546173712395392
40
0.586167952052996
40
0.626162191710599
40
0.666156431368203
40
0.706150671025806
40
0.74614491068341
40
0.786139150341013
40
0.826133389998617
40
0.86612762965622
40
0.906121869313824
40
0.946116108971427
40
0.98611034862903
40
1
40
1
40
1
40
1
41
1
10
-1.5
20
10.8197267430864
30
0
41
1
10
-1.49999999999999
20
10.823280799693
30
0
41
1
10
-1.49999999999999
20
10.8280006134786
30
0
41
1
10
-1.49999999999999
20
10.8164403957514
30
0
41
1
10
-1.49999999999999
20
10.7733485034927
30
0
41
1
10
-1.49999999999999
20
10.6965241329295
30
0
41
1
10
-1.49999999999999
20
10.5827105539547
30
0
41
1
10
-1.49999999999999
20
10.4292548370653
30
0
41
1
10
-1.49999999999999
20
10.2342567210011
30
0
41
1
10
-1.49999999999999
20
9.99668422428957
30
0
41
1
10
-1.49999999999999
20
9.71646045325267
30
0
41
1
10
-1.49999999999999
20
9.39451028305956
30
0
41
1
10
-1.49999999999999
20
9.03277100198551
30
4E-16
41
1
10
-1.49999999999999
20
8.6341616840821
30
4E-16
41
1
10
-1.49999999999999
20
8.20251470490498
30
4E-16
41
1
10
-1.5
20
7.74247141428026
30
4E-16
41
1
10
-1.5
20
7.25934377839374
30
4E-16
41
1
10
-1.5
20
6.75895136864696
30
4E-16
41
1
10
-1.5
20
6.24743323087401
30
4E-16
41
1
10
-1.50000000000001
20
5.73105035715898
30
4E-16
41
1
10
-1.50000000000001
20
5.21597569580987
30
4E-16
41
1
10
-1.50000000000001
20
4.70809176356323
30
4E-16
41
1
10
-1.50000000000001
20
4.21279029060327
30
4E-16
41
1
10
-1.50000000000001
20
3.73479561610887
30
4E-16
41
1
10
-1.50000000000001
20
3.27800425826305
30
4E-16
41
1
10
-1.50000000000001
20
2.84536147075801
30
4E-16
41
1
10
-1.50000000000001
20
2.52722557449186
30
4E-16
41
1
10
-1.5
20
2.35274458205811
30
4E-16
41
1
10
-1.5
20
2.30830602436791
30
4E-16
0
SPLINE
5
11F
100
AcDbEntity
8
SK1
62
256
6
ByLayer
370
-1
48
1
60
0
100
AcDbSpline
70
4
71
3
72
24
73
20
40
0
40
0
40
0
40
0
40
0.0308960911794205
40
0.0308960911794205
40
0.0546410294727542
40
0.0546410294727542
40
0.073299414057047
40
0.073299414057047
40
0.0919711338148939
40
0.0919711338148939
40
0.117297427635645
40
0.117297427635645
40
0.162325270810842
40
0.162325270810842
40
0.302989586156155
40
0.302989586156155
40
0.885547822858458
40
0.885547822858458
40
1
40
1
40
1
40
1
41
1
10
-0.40000000000002
20
-10.7720903270619
30
0
41
1
10
-0.394111355098616
20
-10.7726946640026
30
0
41
1
10
-0.387638990857894
20
-10.7735074107737
30
0
41
1
10
-0.374999497999269
20
-10.7755463299799
30
0
41
1
10
-0.368988434639931
20
-10.7766582562046
30
0
41
1
10
-0.357779191188456
20
-10.7790947211555
30
0
41
1
10
-0.352573525529351
20
-10.7803510360364
30
0
41
1
10
-0.342444927003171
20
-10.7830631767084
30
0
41
1
10
-0.337408731680895
20
-10.7845489216128
30
0
41
1
10
-0.326477488214366
20
-10.7880399886085
30
0
41
1
10
-0.320718590221404
20
-10.7900949336211
30
0
41
1
10
-0.306589885788867
20
-10.7955138573259
30
0
41
1
10
-0.299229318200901
20
-10.7987886768128
30
0
41
1
10
-0.273318263088029
20
-10.811174413295
30
0
41
1
10
-0.261761505197924
20
-10.8187552826325
30
0
41
1
10
-0.212916331686202
20
-10.8527221106267
30
0
41
1
10
-0.206214896622512
20
-10.866521936173
30
0
41
1
10
-0.201106046280515
20
-10.8761458978221
30
0
41
1
10
-0.200558967396716
20
-10.877467021251
30
0
41
1
10
-0.200264970021649
20
-10.8785397588657
30
0
0
SPLINE
5
120
100
AcDbEntity
8
SK1
62
256
6
ByLayer
370
-1
48
1
60
0
100
AcDbSpline
70
4
71
3
72
26
73
22
40
0
40
0
40
0
40
0
40
0.0252822053743131
40
0.0823689313925979
40
0.139455657410883
40
0.196542383429167
40
0.253629109447452
40
0.310715835465737
40
0.367802561484022
40
0.424889287502306
40
0.481976013520591
40
0.539062739538876
40
0.596149465557161
40
0.653236191575446
40
0.71032291759373
40
0.767409643612015
40
0.8244963696303
40
0.881583095648585
40
0.938669821666869
40
0.995756547685154
40
1
40
1
40
1
40
1
41
1
10
-0.400000000000034
20
-4.48934893107781
30
5E-16
41
1
10
-0.400000000000034
20
-4.56250527649354
30
5E-16
41
1
10
-0.400000000000034
20
-4.80241012018325
30
5E-16
41
1
10
-0.400000000000034
20
-5.21597581842107
30
5E-16
41
1
10
-0.400000000000034
20
-5.73105048063857
30
5E-16
41
1
10
-0.400000000000048
20
-6.24743659384504
30
5E-16
41
1
10
-0.400000000000048
20
-6.75893656128315
30
-4E-16
41
1
10
-0.400000000000048
20
-7.25934857263897
30
-4E-16
41
1
10
-0.400000000000048
20
-7.74247092873696
30
-4E-16
41
1
10
-0.400000000000034
20
-8.2025148138909
30
-4E-16
41
1
10
-0.400000000000034
20
-8.63416150202514
30
-4E-16
41
1
10
-0.400000000000034
20
-9.03277107731498
30
-4E-16
41
1
10
-0.400000000000034
20
-9.39451017773425
30
0
41
1
10
-0.400000000000034
20
-9.7164604876865
30
0
41
1
10
-0.400000000000034
20
-9.99668420392314
30
0
41
1
10
-0.400000000000034
20
-10.2342567136416
30
0
41
1
10
-0.400000000000034
20
-10.4292548968258
30
0
41
1
10
-0.400000000000034
20
-10.5827105102704
30
0
41
1
10
-0.40000000000002
20
-10.6965242483832
30
0
41
1
10
-0.40000000000002
20
-10.7496437528318
30
0
41
1
10
-0.400000000000034
20
-10.7706665633894
30
0
41
1
10
-0.400000000000034
20
-10.7720903270619
30
0
0
SPLINE
5
121
100
AcDbEntity
8
SK1
62
256
6
ByLayer
370
-1
48
1
60
0
100
AcDbSpline
70
4
71
3
72
12
73
8
40
0
40
0
40
0
40
0
40
0.747881346576461
40
0.747881346576461
40
0.955113270571313
40
0.955113270571313
40
1
40
1
40
1
40
1
41
1
10
-1.69989009590067
20
10.9123173604779
30
-1E-16
41
1
10
-1.6992045182167
20
10.874026395111
30
-1E-16
41
1
10
-1.69726521816679
20
10.8323287812114
30
-1E-16
41
1
10
-1.67853907532425
20
10.7628347797172
30
-1E-16
41
1
10
-1.67397095661657
20
10.7468498525866
30
-1E-16
41
1
10
-1.66111790140839
20
10.72202504739
30
4E-16
41
1
10
-1.65843371976898
20
10.71723480854
30
4E-16
41
1
10
-1.65496080960298
20
10.7120751018022
30
4E-16
0
SPLINE
5
122
100
AcDbEntity
8
SK1
62
256
6
ByLayer
370
-1
48
1
60
0
100
AcDbSpline
70
4
71
3
72
79
73
75
40
0
40
0
40
0
40
0
40
0.0064305960905124
40
0.0205325821426049
40
0.0346345681946975
40
0.04873655424679
40
0.0628385402988826
40
0.0769405263509751
40
0.0910425124030677
40
0.10514449845516
40
0.119246484507253
40
0.133348470559345
40
0.147450456611438
40
0.16155244266353
40
0.175654428715623
40
0.189756414767715
40
0.203858400819808
40
0.217960386871901
40
0.232062372923993
40
0.246164358976086
40
0.260266345028178
40
0.274368331080271
40
0.288470317132363
40
0.302572303184456
40
0.316674289236548
40
0.330776275288641
40
0.344878261340734
40
0.358980247392826
40
0.373082233444919
40
0.387184219497011
40
0.401286205549104
40
0.415388191601196
40
0.429490177653289
40
0.443592163705381
40
0.457694149757474
40
0.471796135809566
40
0.485898121861659
40
0.500000107913752
40
0.514102093965844
40
0.528204080017937
40
0.542306066070029
40
0.556408052122122
40
0.570510038174214
40
0.584612024226307
40
0.598714010278399
40
0.612815996330492
40
0.626917982382584
40
0.641019968434677
40
0.65512195448677
40
0.669223940538862
40
0.683325926590955
40
0.697427912643047
40
0.71152989869514
40
0.725631884747232
40
0.739733870799325
40
0.753835856851417
40
0.76793784290351
40
0.782039828955602
40
0.796141815007695
40
0.810243801059788
40
0.82434578711188
40
0.838447773163973
40
0.852549759216065
40
0.866651745268158
40
0.88075373132025
40
0.894855717372343
40
0.908957703424435
40
0.923059689476528
40
0.93716167552862
40
0.951263661580713
40
0.965365647632806
40
0.979467633684898
40
0.993569619736991
40
1
40
1
40
1
40
1
41
1
10
-2.5
20
-10.8686550016091
30
-1E-16
41
1
10
-2.50000000000001
20
-10.8790746706609
30
-1E-16
41
1
10
-2.50000000000003
20
-10.9108282719798
30
-1E-16
41
1
10
-2.50000000000001
20
-10.9553895973622
30
-1E-16
41
1
10
-2.50000000000001
20
-10.9911639635894
30
-1E-16
41
1
10
-2.50000000000001
20
-11.0044183782411
30
-1E-16
41
1
10
-2.50000000000001
20
-10.9911623984964
30
-1E-16
41
1
10
-2.50000000000001
20
-10.9474686304739
30
0
41
1
10
-2.50000000000001
20
-10.8696664218332
30
0
41
1
10
-2.50000000000001
20
-10.7545189459149
30
0
41
1
10
-2.50000000000001
20
-10.5993939502379
30
-1E-16
41
1
10
-2.50000000000001
20
-10.4024076559293
30
-1E-16
41
1
10
-2.50000000000001
20
-10.162541663554
30
-1E-16
41
1
10
-2.50000000000001
20
-9.87972833820913
30
-1E-16
41
1
10
-2.50000000000001
20
-9.55489716738799
30
-1E-16
41
1
10
-2.50000000000001
20
-9.1899863354858
30
3E-16
41
1
10
-2.50000000000001
20
-8.78791023086691
30
3E-16
41
1
10
-2.50000000000001
20
-8.35249429791347
30
3E-16
41
1
10
-2.50000000000001
20
-7.88836739733665
30
3E-16
41
1
10
-2.50000000000001
20
-7.4008324972236
30
3E-16
41
1
10
-2.50000000000001
20
-6.89566660501015
30
3E-16
41
1
10
-2.50000000000001
20
-6.37905265294074
30
3E-16
41
1
10
-2.5
20
-5.85717357325996
30
3E-16
41
1
10
-2.5
20
-5.33621711079681
30
3E-16
41
1
10
-2.5
20
-4.8220479670336
30
3E-16
41
1
10
-2.5
20
-4.32005112408766
30
3E-16
41
1
10
-2.50000000000001
20
-3.83494636183192
30
3E-16
41
1
10
-2.50000000000001
20
-3.37063352515304
30
3E-16
41
1
10
-2.50000000000001
20
-2.93006538818378
30
3E-16
41
1
10
-2.50000000000001
20
-2.51515524052812
30
3E-16
41
1
10
-2.50000000000001
20
-2.12672322383341
30
3E-16
41
1
10
-2.50000000000001
20
-1.76448070218837
30
3E-16
41
1
10
-2.50000000000001
20
-1.42705867229631
30
3E-16
41
1
10
-2.50000000000001
20
-1.11207189529099
30
3E-16
41
1
10
-2.50000000000001
20
-0.816225686754706
30
3E-16
41
1
10
-2.50000000000001
20
-0.535450813753755
30
3E-16
41
1
10
-2.50000000000001
20
-0.265073199113118
30
3E-16
41
1
10
-2.50000000000001
20
5.52640813E-08
30
3E-16
41
1
10
-2.50000000000001
20
0.265072978056054
30
3E-16
41
1
10
-2.50000000000001
20
0.535450915490429
30
3E-16
41
1
10
-2.50000000000001
20
0.816225500863681
30
3E-16
41
1
10
-2.50000000000001
20
1.11207197195014
30
3E-16
41
1
10
-2.50000000000001
20
1.42705855154921
30
3E-16
41
1
10
-2.50000000000001
20
1.764480741174
30
3E-16
41
1
10
-2.50000000000001
20
2.12672318863648
30
3E-16
41
1
10
-2.50000000000001
20
2.51515523478008
30
3E-16
41
1
10
-2.50000000000001
20
2.93006544637134
30
3E-16
41
1
10
-2.50000000000001
20
3.37063347415653
30
3E-16
41
1
10
-2.50000000000001
20
3.83494650762881
30
3E-16
41
1
10
-2.50000000000001
20
4.32005103389784
30
3E-16
41
1
10
-2.5
20
4.82204818199452
30
3E-16
41
1
10
-2.5
20
5.33621699307881
30
3E-16
41
1
10
-2.5
20
5.85717382916957
30
3E-16
41
1
10
-2.49999999999999
20
6.37904809202507
30
3E-16
41
1
10
-2.49999999999999
20
6.89568136104151
30
3E-16
41
1
10
-2.49999999999999
20
7.40082874697157
30
3E-16
41
1
10
-2.49999999999999
20
7.88836763355832
30
3E-16
41
1
10
-2.49999999999999
20
8.35249419387404
30
3E-16
41
1
10
-2.49999999999999
20
8.78791041080146
30
3E-16
41
1
10
-2.49999999999999
20
9.18998626466606
30
3E-16
41
1
10
-2.49999999999999
20
9.55489727073103
30
-1E-16
41
1
10
-2.49999999999999
20
9.87972830774891
30
-1E-16
41
1
10
-2.49999999999999
20
10.1625416820506
30
-1E-16
41
1
10
-2.49999999999999
20
10.4024076666936
30
-1E-16
41
1
10
-2.49999999999999
20
10.5993938886827
30
-1E-16
41
1
10
-2.49999999999999
20
10.7545189924613
30
0
41
1
10
-2.49999999999999
20
10.8696662972012
30
0
41
1
10
-2.49999999999999
20
10.9474689380926
30
0
41
1
10
-2.49999999999999
20
10.9911617717029
30
-1E-16
41
1
10
-2.49999999999999
20
11.0044184915465
30
-1E-16
41
1
10
-2.49999999999999
20
10.9911643916232
30
-1E-16
41
1
10
-2.49999999999999
20
10.9553894530376
30
-1E-16
41
1
10
-2.49999999999999
20
10.9108284081235
30
-1E-16
41
1
10
-2.49999999999999
20
10.8790752671778
30
-1E-16
41
1
10
-2.49999999999999
20
10.8686560000219
30
-1E-16
0
SPLINE
5
123
100
AcDbEntity
8
SK1
62
256
6
ByLayer
370
-1
48
1
60
0
100
AcDbSpline
70
4
71
3
72
20
73
16
40
0
40
0
40
0
40
0
40
0.300880112020816
40
0.300880112020816
40
0.454450699018996
40
0.454450699018996
40
0.572060697982697
40
0.572060697982697
40
0.670982681017986
40
0.670982681017986
40
0.769594442241488
40
0.769594442241488
40
0.921871043315779
40
0.921871043315779
40
1
40
1
40
1
40
1
41
1
10
-0.905125564784683
20
-10.7848133315852
30
0
41
1
10
-0.872408449266587
20
-10.7802205119833
30
0
41
1
10
-0.835112880257753
20
-10.7755315244719
30
0
41
1
10
-0.767668067718617
20
-10.7688851018167
30
0
41
1
10
-0.742170086684823
20
-10.766713932417
30
0
41
1
10
-0.692274786497379
20
-10.7636476309375
30
0
41
1
10
-0.668530490600389
20
-10.7625613907744
30
0
41
1
10
-0.623069166077144
20
-10.7614648455065
30
0
41
1
10
-0.60117031511497
20
-10.7613125350675
30
0
41
1
10
-0.558760887240553
20
-10.7617815137993
30
0
41
1
10
-0.5377858275683
20
-10.7623989525677
30
0
41
1
10
-0.488247839736019
20
-10.7646079926069
30
0
41
1
10
-0.460778861773306
20
-10.7665508551729
30
0
41
1
10
-0.423537546807509
20
-10.7697595930048
30
0
41
1
10
-0.411485089493141
20
-10.7709116409694
30
0
41
1
10
-0.40000000000002
20
-10.7720903270619
30
0
0
SPLINE
5
124
100
AcDbEntity
8
SK1
62
256
6
ByLayer
370
-1
48
1
60
0
100
AcDbSpline
70
4
71
3
72
34
73
30
40
0
40
0
40
0
40
0
40
0.013869946113592
40
0.013869946113592
40
0.0615376971139769
40
0.0615376971139769
40
0.109189261114097
40
0.109189261114097
40
0.156830572311328
40
0.156830572311328
40
0.252358343228667
40
0.252358343228667
40
0.347829116957304
40
0.347829116957304
40
0.443270849232314
40
0.443270849232314
40
0.53869934584964
40
0.53869934584964
40
0.634126101529561
40
0.634126101529561
40
0.729562062531703
40
0.729562062531703
40
0.825021175250962
40
0.825021175250962
40
0.872655105311407
40
0.872655105311407
40
0.920293090025773
40
0.920293090025773
40
1
40
1
40
1
40
1
41
1
10
-1.69996579738208
20
-2.34399541728109
30
4E-16
41
1
10
-1.69996686313756
20
-2.41640598367133
30
4E-16
41
1
10
-1.69996789580708
20
-2.48843835386185
30
4E-16
41
1
10
-1.69997232375252
20
-2.80617464221743
30
4E-16
41
1
10
-1.6999753518283
20
-3.04785091887874
30
4E-16
41
1
10
-1.69998060299412
20
-3.52111771354703
30
4E-16
41
1
10
-1.69998283780743
20
-3.75308301404439
30
4E-16
41
1
10
-1.69998665823965
20
-4.20691759809472
30
4E-16
41
1
10
-1.69998824944769
20
-4.42906881485834
30
4E-16
41
1
10
-1.69999228100289
20
-5.08095958549058
30
4E-16
41
1
10
-1.69999399832388
20
-5.49674568755367
30
4E-16
41
1
10
-1.69999640677303
20
-6.28665686269235
30
4E-16
41
1
10
-1.69999709786963
20
-6.66206466504698
30
4E-16
41
1
10
-1.69999798189279
20
-7.37082826402681
30
4E-16
41
1
10
-1.69999817407844
20
-7.70515361426874
30
4E-16
41
1
10
-1.69999824533257
20
-8.33060082556551
30
4E-16
41
1
10
-1.69999812372994
20
-8.62251721821102
30
4E-16
41
1
10
-1.69999745591973
20
-9.1612893856327
30
4E-16
41
1
10
-1.69999690935444
20
-9.40881093991058
30
4E-16
41
1
10
-1.69999497540992
20
-9.85604515063568
30
-1E-16
41
1
10
-1.69999358833154
20
-10.0563309819065
30
-1E-16
41
1
10
-1.69998919708898
20
-10.405149635537
30
-1E-16
41
1
10
-1.69998618942941
20
-10.5541774341774
30
-1E-16
41
1
10
-1.69997952914251
20
-10.7345238916284
30
1E-16
41
1
10
-1.69997694129073
20
-10.7874883912929
30
0
41
1
10
-1.69997082738266
20
-10.8781161933102
30
0
41
1
10
-1.6999672899446
20
-10.9158197893437
30
1E-16
41
1
10
-1.69995622914709
20
-10.9944425651828
30
0
41
1
10
-1.69994759490554
20
-11.0208189246448
30
-1E-16
41
1
10
-1.6999364966059
20
-11.0201007972387
30
-1E-16
0
SPLINE
5
125
100
AcDbEntity
8
SK1
62
256
6
ByLayer
370
-1
48
1
60
0
100
AcDbSpline
70
4
71
3
72
33
73
29
40
0
40
0
40
0
40
0
40
0.0138895886201531
40
0.0538839363872242
40
0.0938782841542953
40
0.133872631921366
40
0.173866979688438
40
0.213861327455509
40
0.25385567522258
40
0.293850022989651
40
0.333844370756722
40
0.373838718523793
40
0.413833066290864
40
0.453827414057935
40
0.493821761825006
40
0.533816109592077
40
0.573810457359148
40
0.613804805126219
40
0.653799152893291
40
0.693793500660362
40
0.733787848427433
40
0.773782196194504
40
0.813776543961575
40
0.853770891728646
40
0.893765239495717
40
0.933759587262788
40
0.973753935029859
40
1
40
1
40
1
40
1
41
1
10
-1.50000000000003
20
-2.30830715862393
30
4E-16
41
1
10
-1.50000000000003
20
-2.35274536835033
30
4E-16
41
1
10
-1.50000000000003
20
-2.52722590203598
30
4E-16
41
1
10
-1.50000000000001
20
-2.84536131291179
30
4E-16
41
1
10
-1.50000000000001
20
-3.27800431136163
30
4E-16
41
1
10
-1.50000000000001
20
-3.73479546756551
30
4E-16
41
1
10
-1.50000000000001
20
-4.21279038475672
30
4E-16
41
1
10
-1.50000000000001
20
-4.70809154586763
30
4E-16
41
1
10
-1.50000000000001
20
-5.21597581842107
30
4E-16
41
1
10
-1.50000000000001
20
-5.73105048063857
30
4E-16
41
1
10
-1.50000000000003
20
-6.24743659384504
30
4E-16
41
1
10
-1.50000000000003
20
-6.75893656128315
30
4E-16
41
1
10
-1.50000000000003
20
-7.25934857263897
30
4E-16
41
1
10
-1.50000000000003
20
-7.74247092873696
30
4E-16
41
1
10
-1.50000000000001
20
-8.2025148138909
30
4E-16
41
1
10
-1.50000000000001
20
-8.63416150202514
30
4E-16
41
1
10
-1.50000000000001
20
-9.03277107731498
30
4E-16
41
1
10
-1.50000000000001
20
-9.39451017773422
30
0
41
1
10
-1.50000000000001
20
-9.7164604876865
30
0
41
1
10
-1.50000000000001
20
-9.99668420392314
30
0
41
1
10
-1.50000000000001
20
-10.2342567136416
30
0
41
1
10
-1.50000000000001
20
-10.4292548968258
30
0
41
1
10
-1.50000000000001
20
-10.5827105102704
30
0
41
1
10
-1.50000000000001
20
-10.6965242483832
30
0
41
1
10
-1.50000000000001
20
-10.7733482106366
30
0
41
1
10
-1.50000000000001
20
-10.816441019079
30
0
41
1
10
-1.5
20
-10.8280003028285
30
0
41
1
10
-1.50000000000001
20
-10.8232809284575
30
0
41
1
10
-1.50000000000001
20
-10.8197275245584
30
0
0
SPLINE
5
126
100
AcDbEntity
8
SK1
62
256
6
ByLayer
370
-1
48
1
60
0
100
AcDbSpline
70
4
71
3
72
22
73
18
40
0
40
0
40
0
40
0
40
0.0449734260287732
40
0.0449734260287732
40
0.0906738274120163
40
0.0906738274120163
40
0.122638717708354
40
0.122638717708354
40
0.154549770731827
40
0.154549770731827
40
0.201552050367308
40
0.201552050367308
40
0.290895290031139
40
0.290895290031139
40
0.598982552652836
40
0.598982552652836
40
1
40
1
40
1
40
1
41
1
10
-0.400000000000034
20
-4.48934893107548
30
5E-16
41
1
10
-0.420456941468217
20
-4.50752512906303
30
5E-16
41
1
10
-0.442793659570242
20
-4.52452287299639
30
5E-16
41
1
10
-0.492193632877786
20
-4.55328755706802
30
5E-16
41
1
10
-0.520039992485408
20
-4.56524258715405
30
5E-16
41
1
10
-0.570193326457115
20
-4.57628050315324
30
5E-16
41
1
10
-0.592133279247633
20
-4.57814021899085
30
5E-16
41
1
10
-0.634912844043129
20
-4.57562166953778
30
5E-16
41
1
10
-0.656221684239441
20
-4.5712589505051
30
5E-16
41
1
10
-0.705207801022823
20
-4.55499593975389
30
4E-16
41
1
10
-0.732067427106074
20
-4.54046143085245
30
4E-16
41
1
10
-0.801682679231504
20
-4.49257590710457
30
4E-16
41
1
10
-0.839313324772718
20
-4.45345948567513
30
4E-16
41
1
10
-0.98537712135321
20
-4.2733686971049
30
4E-16
41
1
10
-1.05621368439083
20
-4.11001095439897
30
4E-16
41
1
10
-1.19814354028304
20
-3.73039497896588
30
4E-16
41
1
10
-1.25757188978818
20
-3.5050311647318
30
4E-16
41
1
10
-1.30710678118656
20
-3.27410007766463
30
4E-16
0
SPLINE
5
127
100
AcDbEntity
8
SK1
62
256
6
ByLayer
370
-1
48
1
60
0
100
AcDbSpline
70
4
71
3
72
26
73
22
40
0
40
0
40
0
40
0
40
0.449738132477955
40
0.449738132477955
40
0.664402002683402
40
0.664402002683402
40
0.773761220759601
40
0.773761220759601
40
0.856245095717807
40
0.856245095717807
40
0.897662328372348
40
0.897662328372348
40
0.917064952376814
40
0.917064952376814
40
0.936734615560887
40
0.936734615560887
40
0.954124174419599
40
0.954124174419599
40
0.979939143819097
40
0.979939143819097
40
1
40
1
40
1
40
1
41
1
10
-0.200000000000031
20
-5.19704273475753
30
5E-16
41
1
10
-0.200000000000031
20
-5.07975410009715
30
5E-16
41
1
10
-0.203466682130625
20
-4.96017714586699
30
5E-16
41
1
10
-0.221693360550049
20
-4.78102610938959
30
5E-16
41
1
10
-0.229560955902429
20
-4.7225345621093
30
5E-16
41
1
10
-0.248699491321432
20
-4.63442555966759
30
5E-16
41
1
10
-0.256413494564128
20
-4.60458658946627
30
5E-16
41
1
10
-0.274681296242633
20
-4.55329063876366
30
5E-16
41
1
10
-0.284007523646267
20
-4.5311950823008
30
5E-16
41
1
10
-0.303744106160408
20
-4.5009859453867
30
5E-16
41
1
10
-0.311509525681416
20
-4.49116741345242
30
5E-16
41
1
10
-0.325471651806765
20
-4.47968016512078
30
5E-16
41
1
10
-0.330427279763057
20
-4.47641864212318
30
5E-16
41
1
10
-0.34100664207098
20
-4.47160789536801
30
5E-16
41
1
10
-0.346789289837659
20
-4.47005622337593
30
5E-16
41
1
10
-0.357501713211306
20
-4.46925266598632
30
5E-16
41
1
10
-0.362570628376432
20
-4.46973139878205
30
5E-16
41
1
10
-0.374383227259841
20
-4.47254618031192
30
5E-16
41
1
10
-0.380971575520647
20
-4.47565191427915
30
5E-16
41
1
10
-0.391577664442764
20
-4.4823482837036
30
5E-16
41
1
10
-0.395922839313982
20
-4.48572633284795
30
5E-16
41
1
10
-0.400000000000148
20
-4.48934893107329
30
5E-16
0
SPLINE
5
128
100
AcDbEntity
8
SK1
62
256
6
ByLayer
370
-1
48
1
60
0
100
AcDbSpline
70
4
71
3
72
28
73
24
40
0
40
0
40
0
40
0
40
0.349178244038133
40
0.349178244038133
40
0.441485413895468
40
0.441485413895468
40
0.464418174627266
40
0.464418174627266
40
0.473297759398051
40
0.473297759398051
40
0.482336266147387
40
0.482336266147387
40
0.488860737631378
40
0.488860737631378
40
0.495351351029914
40
0.495351351029914
40
0.506128456733843
40
0.506128456733843
40
0.534013657527068
40
0.534013657527068
40
0.644941898339777
40
0.644941898339777
40
1
40
1
40
1
40
1
41
1
10
-1.69996579738208
20
-2.34399541728109
30
4E-16
41
1
10
-1.69957351800005
20
-2.22028726606041
30
4E-16
41
1
10
-1.6978568428512
20
-2.09468422296285
30
4E-16
41
1
10
-1.67915903600471
20
-1.93625518968202
30
4E-16
41
1
10
-1.67466133865747
20
-1.90240437328669
30
4E-16
41
1
10
-1.66257453306422
20
-1.86273523592706
30
4E-16
41
1
10
-1.65975033602419
20
-1.85482927921274
30
4E-16
41
1
10
-1.65455231119013
20
-1.84507122970746
30
4E-16
41
1
10
-1.65293210062902
20
-1.84245438467258
30
4E-16
41
1
10
-1.64928001329513
20
-1.83786290531634
30
4E-16
41
1
10
-1.64718169695362
20
-1.8358529003844
30
4E-16
41
1
10
-1.64332341703023
20
-1.83361873011975
30
4E-16
41
1
10
-1.64159303361367
20
-1.83304396936848
30
4E-16
41
1
10
-1.6382124463716
20
-1.832733248751
30
4E-16
41
1
10
-1.63652572409745
20
-1.83298094253615
30
4E-16
41
1
10
-1.63230470511539
20
-1.83441412291418
30
4E-16
41
1
10
-1.62985912301397
20
-1.83609472866016
30
4E-16
41
1
10
-1.62193294237828
20
-1.84325136454737
30
4E-16
41
1
10
-1.61733263266497
20
-1.85052711231816
30
4E-16
41
1
10
-1.59692149956968
20
-1.88783133301976
30
4E-16
41
1
10
-1.58631748354395
20
-1.92357606741413
30
4E-16
41
1
10
-1.54387296204187
20
-2.07163462791991
30
4E-16
41
1
10
-1.52142094847257
20
-2.19032359396874
30
4E-16
41
1
10
-1.50000000000001
20
-2.30830715862393
30
4E-16
0
SPLINE
5
129
100
AcDbEntity
8
SK1
62
256
6
ByLayer
370
-1
48
1
60
0
100
AcDbSpline
70
4
71
3
72
8
73
4
40
0
40
0
40
0
40
0
40
1
40
1
40
1
40
1
41
1
10
-1.30710678118655
20
3.27410008506499
30
4E-16
41
1
10
-1.37418676031891
20
2.96137403161106
30
4E-16
41
1
10
-1.43992527842408
20
2.63918719547098
30
4E-16
41
1
10
-1.5
20
2.30830602436768
30
4E-16
0
SPLINE
5
12A
100
AcDbEntity
8
SK1
62
256
6
ByLayer
370
-1
48
1
60
0
100
AcDbSpline
70
4
71
3
72
32
73
28
40
0
40
0
40
0
40
0
40
0.365927089807645
40
0.365927089807645
40
0.434988381544097
40
0.434988381544097
40
0.459470391973521
40
0.459470391973521
40
0.484523297819608
40
0.484523297819608
40
0.495000485667548
40
0.495000485667548
40
0.505685328487505
40
0.505685328487505
40
0.512277836854412
40
0.512277836854412
40
0.51886144114029
40
0.51886144114029
40
0.528508909357719
40
0.528508909357719
40
0.546991571884289
40
0.546991571884289
40
0.628302439414129
40
0.628302439414129
40
0.950686415613842
40
0.950686415613842
40
1
40
1
40
1
40
1
41
1
10
-1.50000000000001
20
2.30830602436791
30
4E-16
41
1
10
-1.52221751736219
20
2.1859357832588
30
4E-16
41
1
10
-1.54522999334368
20
2.06251508992034
30
4E-16
41
1
10
-1.58645530727237
20
1.92421817182051
30
4E-16
41
1
10
-1.59351669828698
20
1.90246957270804
30
4E-16
41
1
10
-1.60499906250121
20
1.87469947052611
30
4E-16
41
1
10
-1.60820035401613
20
1.86757882120199
30
4E-16
41
1
10
-1.61534084307135
20
1.8539319743719
30
4E-16
41
1
10
-1.61929930659136
20
1.84729792851792
30
4E-16
41
1
10
-1.62596752666457
20
1.8395789292255
30
4E-16
41
1
10
-1.62809255235376
20
1.83750162516694
30
4E-16
41
1
10
-1.63273883786329
20
1.83425727265214
30
4E-16
41
1
10
-1.63534521763037
20
1.83307693987018
30
4E-16
41
1
10
-1.63973359946961
20
1.83275236286201
30
4E-16
41
1
10
-1.64148920088589
20
1.83301807905247
30
4E-16
41
1
10
-1.64485340276019
20
1.83436876713776
30
4E-16
41
1
10
-1.64649922195929
20
1.83546324657834
30
4E-16
41
1
10
-1.65020824529177
20
1.83881160526306
30
4E-16
41
1
10
-1.6521827913231
20
1.84139532031708
30
4E-16
41
1
10
-1.65723177402214
20
1.84948404569289
30
4E-16
41
1
10
-1.65984043101899
20
1.85563378259258
30
4E-16
41
1
10
-1.67182065388494
20
1.88894113408489
30
4E-16
41
1
10
-1.67632598434432
20
1.91870567173234
30
4E-16
41
1
10
-1.69605916878518
20
2.06239070530862
30
4E-16
41
1
10
-1.69829182976605
20
2.17797320288872
30
4E-16
41
1
10
-1.69978781832061
20
2.30916587313149
30
4E-16
41
1
10
-1.69991061150085
20
2.32659131405598
30
4E-16
41
1
10
-1.69996579751822
20
2.3439945435091
30
4E-16
0
SPLINE
5
12B
100
AcDbEntity
8
SK1
62
256
6
ByLayer
370
-1
48
1
60
0
100
AcDbSpline
70
4
71
3
72
20
73
16
40
0
40
0
40
0
40
0
40
0.140420538696895
40
0.140420538696895
40
0.283113565135699
40
0.283113565135699
40
0.383003749297735
40
0.383003749297735
40
0.482719595028369
40
0.482719595028369
40
0.629860782987087
40
0.629860782987087
40
0.909835980316224
40
0.909835980316224
40
1
40
1
40
1
40
1
41
1
10
-0.399999999999991
20
10.772090355164
30
0
41
1
10
-0.420485425404337
20
10.769987992759
30
0
41
1
10
-0.442853612204175
20
10.7679559042767
30
0
41
1
10
-0.492317942748428
20
10.7644479456744
30
0
41
1
10
-0.520199073627055
20
10.7629489681195
30
0
41
1
10
-0.570414744597741
20
10.7615601980509
30
0
41
1
10
-0.592388657551894
20
10.7613257206403
30
0
41
1
10
-0.635222276121866
20
10.7616521249957
30
0
41
1
10
-0.656551809000533
20
10.7622104061049
30
0
41
1
10
-0.705635225108949
20
10.7642598717252
30
0
41
1
10
-0.732559682028793
20
10.7660705901043
30
0
41
1
10
-0.80238316763986
20
10.7718500865203
30
0
41
1
10
-0.840123259759565
20
10.7763551487407
30
0
41
1
10
-0.883850457362314
20
10.7820664301105
30
0
41
1
10
-0.894066349533801
20
10.7834347977839
30
0
41
1
10
-0.903940088695038
20
10.7847858831466
30
0
0
SPLINE
5
12C
100
AcDbEntity
8
SK1
62
256
6
ByLayer
370
-1
48
1
60
0
100
AcDbSpline
70
4
71
3
72
8
73
4
40
0
40
0
40
0
40
0
40
1
40
1
40
1
40
1
41
1
10
-1.50000000000001
20
-2.30830715862393
30
4E-16
41
1
10
-1.4399256613476
20
-2.63918814774516
30
4E-16
41
1
10
-1.37418668570739
20
-2.96137434366074
30
4E-16
41
1
10
-1.30710678118675
20
-3.27410007766372
30
4E-16
0
SPLINE
5
12D
100
AcDbEntity
8
SK1
62
256
6
ByLayer
370
-1
48
1
60
0
100
AcDbSpline
70
4
71
3
72
34
73
30
40
0
40
0
40
0
40
0
40
0.011266968542987
40
0.011266968542987
40
0.058939457107234
40
0.058939457107234
40
0.15453598693254
40
0.15453598693254
40
0.250071361960799
40
0.250071361960799
40
0.345575677081921
40
0.345575677081921
40
0.441065554334213
40
0.441065554334213
40
0.536552664115184
40
0.536552664115184
40
0.632047854665239
40
0.632047854665239
40
0.727564602396906
40
0.727564602396906
40
0.823124579527687
40
0.823124579527687
40
0.870792997061212
40
0.870792997061212
40
0.918469321595648
40
0.918469321595648
40
0.96615777529002
40
0.96615777529002
40
1
40
1
40
1
40
1
41
1
10
-1.69993676286353
20
11.0201001927738
30
-1E-16
41
1
10
-1.69993832691927
20
11.0201347387082
30
-1E-16
41
1
10
-1.69993984120723
20
11.0196274515764
30
-1E-16
41
1
10
-1.69994751366467
20
11.0142188011047
30
-1E-16
41
1
10
-1.69995287995742
20
11.0004050241389
30
-1E-16
41
1
10
-1.69996695296892
20
10.9332843475553
30
1E-16
41
1
10
-1.69997367173839
20
10.8542029227333
30
0
41
1
10
-1.69998386152666
20
10.6377999041157
30
1E-16
41
1
10
-1.69998734498478
20
10.5001171728845
30
-1E-16
41
1
10
-1.69999246905711
20
10.1728975826323
30
-1E-16
41
1
10
-1.69999411792993
20
9.98292332235593
30
-1E-16
41
1
10
-1.69999643908518
20
9.55552993499305
30
-1E-16
41
1
10
-1.69999711688571
20
9.31759782738104
30
4E-16
41
1
10
-1.69999798411863
20
8.79743010432017
30
4E-16
41
1
10
-1.69999817542508
20
8.51459573987506
30
4E-16
41
1
10
-1.69999824461597
20
7.90689005466751
30
4E-16
41
1
10
-1.69999812267855
20
7.58130243438185
30
4E-16
41
1
10
-1.69999744438481
20
6.88971881869278
30
4E-16
41
1
10
-1.69999688682343
20
6.52282614529045
30
4E-16
41
1
10
-1.69999489291331
20
5.74978712553664
30
4E-16
41
1
10
-1.69999345206901
20
5.34244656677151
30
4E-16
41
1
10
-1.69999000494025
20
4.70303852615044
30
4E-16
41
1
10
-1.69998863813788
20
4.48501546085984
30
4E-16
41
1
10
-1.6999853268313
20
4.03938656106368
30
4E-16
41
1
10
-1.69998338085909
20
3.81152710629326
30
4E-16
41
1
10
-1.69997876258688
20
3.34638056322442
30
4E-16
41
1
10
-1.69997608351477
20
3.10876440414396
30
4E-16
41
1
10
-1.69997079701294
20
2.69478121630689
30
4E-16
41
1
10
-1.69996839509746
20
2.52048785703775
30
4E-16
41
1
10
-1.69996579751815
20
2.34399454350827
30
4E-16
0
SPLINE
5
12E
100
AcDbEntity
8
SK1
62
256
6
ByLayer
370
-1
48
1
60
0
100
AcDbSpline
70
4
71
3
72
77
73
73
40
0
40
0
40
0
40
0
40
0.0137025964332042
40
0.02800588219803
40
0.0423091679628558
40
0.0566124537276816
40
0.0709157394925074
40
0.0852190252573332
40
0.099522311022159
40
0.113825596786985
40
0.128128882551811
40
0.142432168316636
40
0.156735454081462
40
0.171038739846288
40
0.185342025611114
40
0.19964531137594
40
0.213948597140765
40
0.228251882905591
40
0.242555168670417
40
0.256858454435243
40
0.271161740200069
40
0.285465025964894
40
0.29976831172972
40
0.314071597494546
40
0.328374883259372
40
0.342678169024198
40
0.356981454789023
40
0.371284740553849
40
0.385588026318675
40
0.399891312083501
40
0.414194597848327
40
0.428497883613152
40
0.442801169377978
40
0.457104455142804
40
0.47140774090763
40
0.485711026672456
40
0.500014312437281
40
0.514317598202107
40
0.528620883966933
40
0.542924169731759
40
0.557227455496585
40
0.57153074126141
40
0.585834027026236
40
0.600137312791062
40
0.614440598555888
40
0.628743884320714
40
0.643047170085539
40
0.657350455850365
40
0.671653741615191
40
0.685957027380017
40
0.700260313144843
40
0.714563598909669
40
0.728866884674494
40
0.74317017043932
40
0.757473456204146
40
0.771776741968972
40
0.786080027733798
40
0.800383313498623
40
0.814686599263449
40
0.828989885028275
40
0.843293170793101
40
0.857596456557927
40
0.871899742322752
40
0.886203028087578
40
0.900506313852404
40
0.91480959961723
40
0.929112885382056
40
0.943416171146881
40
0.957719456911707
40
0.972022742676533
40
0.986326028441359
40
1
40
1
40
1
40
1
41
1
10
-18.0003154452711
20
10.5151124976746
30
-2E-16
41
1
10
-18.0003154452711
20
10.5340086218003
30
-2E-16
41
1
10
-18.0003154452711
20
10.5680299580057
30
-2E-16
41
1
10
-18.0003154452711
20
10.6020553136751
30
-2E-16
41
1
10
-18.0003154452711
20
10.6148401921023
30
-2E-16
41
1
10
-18.0003154452711
20
10.6020527865053
30
1E-16
41
1
10
-18.0003154452711
20
10.5599067660981
30
1E-16
41
1
10
-18.0003154452711
20
10.4848584934229
30
0
41
1
10
-18.0003154452711
20
10.373787632268
30
0
41
1
10
-18.0003154452711
20
10.2241542656655
30
1E-16
41
1
10
-18.0003154452711
20
10.0341417476877
30
1E-16
41
1
10
-18.0003154452711
20
9.80276749593025
30
-2E-16
41
1
10
-18.0003154452711
20
9.52996627751898
30
-2E-16
41
1
10
-18.0003154452711
20
9.21663490521354
30
-2E-16
41
1
10
-18.0003154452711
20
8.86464247447361
30
3E-16
41
1
10
-18.0003154452711
20
8.47680090545708
30
3E-16
41
1
10
-18.0003154452711
20
8.05679928853522
30
3E-16
41
1
10
-18.0003154452711
20
7.6091037314782
30
3E-16
41
1
10
-18.0003154452711
20
7.13882469106099
30
3E-16
41
1
10
-18.0003154452711
20
6.65156052719584
30
3E-16
41
1
10
-18.0003154452711
20
6.15321710334788
30
-6E-16
41
1
10
-18.0003154452711
20
5.64981822726571
30
-6E-16
41
1
10
-18.0003154452711
20
5.1473042992163
30
-6E-16
41
1
10
-18.0003154452711
20
4.65133808658854
30
-6E-16
41
1
10
-18.0003154452711
20
4.16711263587248
30
-6E-16
41
1
10
-18.0003154452711
20
3.69918177457646
30
-6E-16
41
1
10
-18.0003154452711
20
3.25130634588348
30
-6E-16
41
1
10
-18.0003154452711
20
2.82633530245377
30
-6E-16
41
1
10
-18.0003154452711
20
2.42611373749821
30
-6E-16
41
1
10
-18.0003154452711
20
2.05143295827548
30
-6E-16
41
1
10
-18.0003154452711
20
1.70201461385648
30
-6E-16
41
1
10
-18.0003154452711
20
1.37653784078682
30
-6E-16
41
1
10
-18.0003154452711
20
1.07270241252959
30
-6E-16
41
1
10
-18.0003154452711
20
0.787329494879032
30
-6E-16
41
1
10
-18.0003154452711
20
0.516494888213515
30
-6E-16
41
1
10
-18.0003154452711
20
0.25568886747368
30
-6E-16
41
1
10
-18.0003154452711
20
5.33076445E-08
30
-6E-16
41
1
10
-18.0003154452711
20
-0.255689080704855
30
-6E-16
41
1
10
-18.0003154452711
20
-0.516494790078497
30
-6E-16
41
1
10
-18.0003154452711
20
-0.787329674189124
30
-6E-16
41
1
10
-18.0003154452711
20
-1.07270233858426
30
-6E-16
41
1
10
-18.0003154452711
20
-1.37653795725922
30
-6E-16
41
1
10
-18.0003154452711
20
-1.70201457625095
30
-6E-16
41
1
10
-18.0003154452711
20
-2.05143299222632
30
-6E-16
41
1
10
-18.0003154452711
20
-2.42611374304272
30
-6E-16
41
1
10
-18.0003154452711
20
-2.82633524632612
30
-6E-16
41
1
10
-18.0003154452711
20
-3.25130639507452
30
-6E-16
41
1
10
-18.0003154452711
20
-3.69918163394104
30
-6E-16
41
1
10
-18.0003154452711
20
-4.16711272286935
30
-6E-16
41
1
10
-18.0003154452711
20
-4.65133787923764
30
-6E-16
41
1
10
-18.0003154452711
20
-5.1473044127668
30
-6E-16
41
1
10
-18.0003154452711
20
-5.64981798041575
30
-6E-16
41
1
10
-18.0003154452711
20
-6.15322150279803
30
-6E-16
41
1
10
-18.0003154452711
20
-6.65154629355726
30
3E-16
41
1
10
-18.0003154452711
20
-7.13882830854658
30
3E-16
41
1
10
-18.0003154452711
20
-7.6091035036192
30
3E-16
41
1
10
-18.0003154452711
20
-8.05679938889139
30
3E-16
41
1
10
-18.0003154452711
20
-8.47680073189252
30
3E-16
41
1
10
-18.0003154452711
20
-8.86464254278616
30
3E-16
41
1
10
-18.0003154452711
20
-9.216634805529
30
-2E-16
41
1
10
-18.0003154452711
20
-9.5299663069008
30
-2E-16
41
1
10
-18.0003154452711
20
-9.8027674780885
30
-2E-16
41
1
10
-18.0003154452711
20
-10.0341417373044
30
1E-16
41
1
10
-18.0003154452711
20
-10.2241543250414
30
1E-16
41
1
10
-18.0003154452711
20
-10.3737875873693
30
0
41
1
10
-18.0003154452711
20
-10.4848586136427
30
0
41
1
10
-18.0003154452711
20
-10.5599064693697
30
1E-16
41
1
10
-18.0003154452711
20
-10.6020533911089
30
1E-16
41
1
10
-18.0003154452711
20
-10.6148400828081
30
-2E-16
41
1
10
-18.0003154452711
20
-10.6020549007946
30
-2E-16
41
1
10
-18.0003154452711
20
-10.5680531094664
30
-2E-16
41
1
10
-18.0003154452711
20
-10.5340782933018
30
-2E-16
41
1
10
-18.0003154452711
20
-10.5152309995409
30
-2E-16
0
SPLINE
5
12F
100
AcDbEntity
8
SK1
62
256
6
ByLayer
370
-1
48
1
60
0
100
AcDbSpline
70
4
71
3
72
26
73
22
40
0
40
0
40
0
40
0
40
0.0042434309448905
40
0.0613301591488156
40
0.118416887352741
40
0.175503615556666
40
0.232590343760591
40
0.289677071964516
40
0.346763800168441
40
0.403850528372367
40
0.460937256576292
40
0.518023984780217
40
0.575110712984142
40
0.632197441188068
40
0.689284169391993
40
0.746370897595918
40
0.803457625799843
40
0.860544354003768
40
0.917631082207694
40
0.974717810411619
40
1
40
1
40
1
40
1
41
1
10
-0.399999999999991
20
10.772090355164
30
0
41
1
10
-0.399999999999991
20
10.7706666069311
30
0
41
1
10
-0.399999999999991
20
10.7496439100426
30
0
41
1
10
-0.399999999999991
20
10.6965241329295
30
0
41
1
10
-0.400000000000006
20
10.5827105539547
30
0
41
1
10
-0.400000000000006
20
10.4292548370653
30
0
41
1
10
-0.400000000000006
20
10.2342567210011
30
0
41
1
10
-0.400000000000006
20
9.9966842242896
30
0
41
1
10
-0.400000000000006
20
9.71646045325267
30
0
41
1
10
-0.400000000000006
20
9.39451028305956
30
0
41
1
10
-0.400000000000006
20
9.03277100198551
30
-4E-16
41
1
10
-0.400000000000006
20
8.6341616840821
30
-4E-16
41
1
10
-0.400000000000006
20
8.20251470490498
30
-4E-16
41
1
10
-0.40000000000002
20
7.74247141428026
30
-4E-16
41
1
10
-0.40000000000002
20
7.25934377839374
30
-4E-16
41
1
10
-0.40000000000002
20
6.75895136864696
30
-4E-16
41
1
10
-0.40000000000002
20
6.24743323087401
30
5E-16
41
1
10
-0.400000000000034
20
5.73105035715898
30
5E-16
41
1
10
-0.400000000000034
20
5.21597569580987
30
5E-16
41
1
10
-0.40000000000002
20
4.80241032436572
30
5E-16
41
1
10
-0.400000000000034
20
4.56250546597252
30
5E-16
41
1
10
-0.400000000000034
20
4.48934914533299
30
5E-16
0
SPLINE
5
130
100
AcDbEntity
8
SK1
62
256
6
ByLayer
370
-1
48
1
60
0
100
AcDbSpline
70
4
71
3
72
26
73
22
40
0
40
0
40
0
40
0
40
0.202966460792129
40
0.202966460792129
40
0.513383875797934
40
0.513383875797934
40
0.671686635111119
40
0.671686635111119
40
0.791706561271069
40
0.791706561271069
40
0.851981404877758
40
0.851981404877758
40
0.880085582969507
40
0.880085582969507
40
0.90857033346663
40
0.90857033346663
40
0.933805661904087
40
0.933805661904087
40
0.971516393844984
40
0.971516393844984
40
1
40
1
40
1
40
1
41
1
10
-0.206723740373946
20
10.8670656750591
30
0
41
1
10
-0.209013254008866
20
10.8640299646833
30
0
41
1
10
-0.212000091369205
20
10.8604774879565
30
0
41
1
10
-0.221736537161107
20
10.8500406644011
30
0
41
1
10
-0.229595996987698
20
10.8423759975269
30
0
41
1
10
-0.248697987408249
20
10.8277247348158
30
0
41
1
10
-0.256401529113859
20
10.8222273926602
30
0
41
1
10
-0.274672330728535
20
10.8111348764242
30
0
41
1
10
-0.284031111048876
20
10.8058441112872
30
0
41
1
10
-0.303862792072024
20
10.7967411489854
30
0
41
1
10
-0.311673384937635
20
10.7934195745428
30
0
41
1
10
-0.325697750675346
20
10.7883419491899
30
0
41
1
10
-0.330659077403325
20
10.7866628614952
30
0
41
1
10
-0.341238014585613
20
10.7834040520234
30
0
41
1
10
-0.347013203094093
20
10.7817865260972
30
0
41
1
10
-0.357712157030264
20
10.7791077838599
30
0
41
1
10
-0.362775636738405
20
10.7779724373212
30
0
41
1
10
-0.374620388322228
20
10.7755812023391
30
0
41
1
10
-0.381238297735322
20
10.7744865169401
30
0
41
1
10
-0.391758607838895
20
10.7730054855679
30
0
41
1
10
-0.396007428966897
20
10.7725001016587
30
0
41
1
10
-0.400000000000091
20
10.7720903551646
30
0
0
SPLINE
5
131
100
AcDbEntity
8
1
62
256
6
ByLayer
370
-1
48
1
60
0
100
AcDbSpline
70
4
71
3
72
10
73
6
40
0
40
0
40
0
40
0
40
0.885087566501779
40
0.885087566501779
40
1
40
1
40
1
40
1
41
1
10
45.5868353092121
20
13.599796050522
30
0
41
1
10
45.4761068225493
20
13.735072402882
30
-1E-16
41
1
10
45.3428438506007
20
13.8508843906725
30
0
41
1
10
45.1770316926275
20
13.95088028084
30
-1E-16
41
1
10
45.1577048070176
20
13.9619381404787
30
-1E-16
41
1
10
45.1381083936227
20
13.9725661165596
30
-1E-16
0
SPLINE
5
132
100
AcDbEntity
8
1
62
256
6
ByLayer
370
-1
48
1
60
0
100
AcDbSpline
70
4
71
3
72
8
73
4
40
0
40
0
40
0
40
0
40
1
40
1
40
1
40
1
41
1
10
43.0125535173394
20
13.4895557754716
30
0
41
1
10
42.9314310543531
20
13.3923318281965
30
0
41
1
10
42.8606009657518
20
13.2863661885262
30
0
41
1
10
42.8036305075169
20
13.1742803495017
30
0
0
SPLINE
5
133
100
AcDbEntity
8
1
62
256
6
ByLayer
370
-1
48
1
60
0
100
AcDbSpline
70
4
71
3
72
25
73
21
40
0
40
0
40
0
40
0
40
0.0625
40
0.09375
40
0.125
40
0.1875
40
0.25
40
0.3125
40
0.375
40
0.4375
40
0.5
40
0.5625
40
0.625
40
0.6875
40
0.75
40
0.8125
40
0.875
40
0.90625
40
0.9375
40
1
40
1
40
1
40
1
41
1
10
49.104896326507
20
9.19593032186248
30
0
41
1
10
49.2588751780397
20
9.20433540091247
30
0
41
1
10
49.461046955072
20
9.40337463361493
30
0
41
1
10
49.4442584641867
20
9.72271064149317
30
0
41
1
10
49.4221142354152
20
10.0313987477288
30
0
41
1
10
49.3853579604841
20
10.4063340560671
30
0
41
1
10
49.3404156364584
20
10.8506805082264
30
0
41
1
10
49.3145919505883
20
11.3024300965661
30
0
41
1
10
49.3289544266011
20
11.7616891097422
30
0
41
1
10
49.4049752487154
20
12.2285922310793
30
0
41
1
10
49.5315574172641
20
12.6906208727715
30
0
41
1
10
49.6976399784145
20
13.1352893728402
30
0
41
1
10
49.9525175287098
20
13.546257348856
30
0
41
1
10
49.9760404229559
20
14.0258573531589
30
0
41
1
10
49.9702024988163
20
14.4955426106909
30
0
41
1
10
49.9738057021752
20
14.9651959605326
30
0
41
1
10
49.9628562998327
20
15.3643552478365
30
0
41
1
10
49.7939595795758
20
15.6308969010537
30
0
41
1
10
49.5685256969941
20
15.8425615599315
30
0
41
1
10
49.3464649624614
20
15.9218291144121
30
0
41
1
10
49.19298652392
20
15.9227416731097
30
0
0
SPLINE
5
134
100
AcDbEntity
8
1
62
256
6
ByLayer
370
-1
48
1
60
0
100
AcDbSpline
70
4
71
3
72
15
73
11
40
0
40
0
40
0
40
0
40
0.0625
40
0.125
40
0.25
40
0.5
40
0.75
40
0.875
40
0.9375
40
1
40
1
40
1
40
1
41
1
10
49.19298652392
20
15.9227416731097
30
0
41
1
10
48.9938966499292
20
15.9211830701866
30
0
41
1
10
48.5946835468277
20
15.9184277764466
30
0
41
1
10
47.8217932917775
20
15.909852556873
30
0
41
1
10
46.4980441657532
20
15.8815805518244
30
0
41
1
10
44.5849689048046
20
15.8115007394414
30
-1E-16
41
1
10
42.6934831569977
20
15.6794226813173
30
0
41
1
10
41.3290958195235
20
15.5933837765099
30
-1E-16
41
1
10
40.5329522115343
20
15.5424128092407
30
-1E-16
41
1
10
40.1373014952458
20
15.5378676446368
30
-2E-16
41
1
10
39.9391643210601
20
15.513585960713
30
-2E-16
0
SPLINE
5
135
100
AcDbEntity
8
1
62
256
6
ByLayer
370
-1
48
1
60
0
100
AcDbSpline
70
4
71
3
72
14
73
10
40
0
40
0
40
0
40
0
40
0.301632841810063
40
0.301632841810063
40
0.602402032079644
40
0.602402032079644
40
0.899200904780735
40
0.899200904780735
40
1
40
1
40
1
40
1
41
1
10
42.8036305075169
20
13.1742803495017
30
0
41
1
10
42.7167549346597
20
12.9961522935373
30
0
41
1
10
42.6585841855889
20
12.8001086435447
30
0
41
1
10
42.613491652407
20
12.4068159135298
30
0
41
1
10
42.6231490517421
20
12.2054266571049
30
0
41
1
10
42.7072741912415
20
11.8279366342504
30
0
41
1
10
42.7847548192986
20
11.6448697092532
30
0
41
1
10
42.9306720858732
20
11.4306111310592
30
0
41
1
10
42.9718970203571
20
11.3779883411382
30
0
41
1
10
43.0163098121414
20
11.3283768124047
30
0
0
SPLINE
5
136
100
AcDbEntity
8
1
62
256
6
ByLayer
370
-1
48
1
60
0
100
AcDbSpline
70
4
71
3
72
10
73
6
40
0
40
0
40
0
40
0
40
0.796865384407366
40
0.796865384407366
40
1
40
1
40
1
40
1
41
1
10
43.0163098121414
20
11.3283768124047
30
0
41
1
10
43.1353178151936
20
11.1886080991608
30
0
41
1
10
43.2794644023241
20
11.0669056689563
30
0
41
1
10
43.4772199464633
20
10.9483810618474
30
0
41
1
10
43.5184920379718
20
10.9259385499816
30
0
41
1
10
43.5606811120619
20
10.9051988132394
30
0
0
SPLINE
5
137
100
AcDbEntity
8
1
62
256
6
ByLayer
370
-1
48
1
60
0
100
AcDbSpline
70
4
71
3
72
16
73
12
40
0
40
0
40
0
40
0
40
0.123757132086019
40
0.123757132086019
40
0.347702803990661
40
0.347702803990661
40
0.564812259158913
40
0.564812259158913
40
0.775790526067809
40
0.775790526067809
40
1
40
1
40
1
40
1
41
1
10
43.6682198489765
20
10.8568338786556
30
1E-16
41
1
10
43.7675411506646
20
10.8161854749105
30
1E-16
41
1
10
43.8706527459487
20
10.7847924352523
30
1E-16
41
1
10
44.163388382672
20
10.725723865255
30
0
41
1
10
44.3610168056
20
10.7206199550255
30
0
41
1
10
44.7326612749302
20
10.7780771339788
30
0
41
1
10
44.9122703642302
20
10.8395064790362
30
0
41
1
10
45.2287894665029
20
11.0151930912871
30
0
41
1
10
45.3708479477518
20
11.130019369214
30
0
41
1
10
45.6171767268961
20
11.404971009098
30
0
41
1
10
45.7226236370578
20
11.5715951211487
30
0
41
1
10
45.8018596055134
20
11.7494430883935
30
0
0
SPLINE
5
138
100
AcDbEntity
8
1
62
256
6
ByLayer
370
-1
48
1
60
0
100
AcDbSpline
70
4
71
3
72
15
73
11
40
0
40
0
40
0
40
0
40
0.0625
40
0.125
40
0.25
40
0.5
40
0.75
40
0.875
40
0.9375
40
1
40
1
40
1
40
1
41
1
10
39.3641203497608
20
9.02612955717805
30
0
41
1
10
39.5629895907397
20
9.02773591323907
30
0
41
1
10
39.9634872270944
20
9.02825115291535
30
1E-16
41
1
10
40.77306012676
20
9.02119299668448
30
1E-16
41
1
10
42.2058741215294
20
8.99469934714784
30
0
41
1
10
44.2440246983034
20
9.0037330282683
30
1E-16
41
1
10
46.2900703261625
20
9.05987682774003
30
0
41
1
10
47.7077602829281
20
9.11932746499554
30
0
41
1
10
48.503817418506
20
9.17112304338761
30
0
41
1
10
48.9064154947484
20
9.17090384867578
30
0
41
1
10
49.104896326507
20
9.19593032186248
30
0
0
SPLINE
5
139
100
AcDbEntity
8
1
62
256
6
ByLayer
370
-1
48
1
60
0
100
AcDbSpline
70
4
71
3
72
25
73
21
40
0
40
0
40
0
40
0
40
0.0625
40
0.09375
40
0.125
40
0.1875
40
0.25
40
0.3125
40
0.375
40
0.4375
40
0.5
40
0.5625
40
0.625
40
0.6875
40
0.75
40
0.8125
40
0.875
40
0.90625
40
0.9375
40
1
40
1
40
1
40
1
41
1
10
39.9391643210601
20
15.513585960713
30
-2E-16
41
1
10
39.7865564064687
20
15.5044865455211
30
-2E-16
41
1
10
39.5656460808766
20
15.3146629562832
30
-2E-16
41
1
10
39.5500217364617
20
15.0112815622554
30
-2E-16
41
1
10
39.5225831011835
20
14.7269055189059
30
-2E-16
41
1
10
39.4794493914778
20
14.3919057727537
30
-2E-16
41
1
10
39.4128934182773
20
14.00194348741
30
-2E-16
41
1
10
39.3308830669419
20
13.6033035292884
30
-2E-16
41
1
10
39.2403726411811
20
13.1816488196146
30
-2E-16
41
1
10
39.1483164447044
20
12.7226422796141
30
-2E-16
41
1
10
39.0293033465877
20
12.2568170949515
30
2E-16
41
1
10
38.8579222159071
20
11.814706451291
30
2E-16
41
1
10
38.6057511539299
20
11.4023605477439
30
2E-16
41
1
10
38.5813916223598
20
10.9231078999013
30
2E-16
41
1
10
38.587291223124
20
10.4533430629006
30
2E-16
41
1
10
38.5835532100707
20
9.9836990330617
30
2E-16
41
1
10
38.6014961435676
20
9.5838555872933
30
0
41
1
10
38.7569929111599
20
9.3185879816088
30
0
41
1
10
38.9843434485406
20
9.10672784816833
30
0
41
1
10
39.2106705180036
20
9.02704419743944
30
0
41
1
10
39.3641203497608
20
9.02612955717805
30
0
0
SPLINE
5
13A
100
AcDbEntity
8
1
62
256
6
ByLayer
370
-1
48
1
60
0
100
AcDbSpline
70
4
71
3
72
14
73
10
40
0
40
0
40
0
40
0
40
0.258374536041622
40
0.258374536041622
40
0.520163709547353
40
0.520163709547353
40
0.808397479016398
40
0.808397479016398
40
1
40
1
40
1
40
1
41
1
10
45.8018596055134
20
11.7494430883935
30
0
41
1
10
45.8736756542618
20
11.9036476862488
30
0
41
1
10
45.9239021021399
20
12.0718072319749
30
0
41
1
10
45.9756475311781
20
12.4109505753535
30
0
41
1
10
45.9764903095322
20
12.587088356806
30
0
41
1
10
45.9219216726901
20
12.9434223801558
30
0
41
1
10
45.8617855841169
20
13.1261449733765
30
0
41
1
10
45.7253383340985
20
13.4009761175558
30
0
41
1
10
45.6602294210596
20
13.5049236258189
30
0
41
1
10
45.5868353092121
20
13.599796050522
30
0
0
SPLINE
5
13B
100
AcDbEntity
8
1
62
256
6
ByLayer
370
-1
48
1
60
0
100
AcDbSpline
70
4
71
3
72
18
73
14
40
0
40
0
40
0
40
0
40
0.213394464779719
40
0.213394464779719
40
0.389004322610663
40
0.389004322610663
40
0.566252444177967
40
0.566252444177967
40
0.721175490823055
40
0.721175490823055
40
0.92741643549918
40
0.92741643549918
40
1
40
1
40
1
40
1
41
1
10
44.8635839458105
20
13.1778458095434
30
0
41
1
10
44.8585684750512
20
13.1331587526271
30
0
41
1
10
44.8592524197185
20
13.0857167052931
30
0
41
1
10
44.8720514502558
20
12.9995120331864
30
0
41
1
10
44.8823315153269
20
12.9597512078762
30
0
41
1
10
44.9113394941894
20
12.8846607489994
30
0
41
1
10
44.9306294868277
20
12.8483352716781
30
0
41
1
10
44.9720515564792
20
12.7899835613054
30
0
41
1
10
44.9939937370998
20
12.7659919162634
30
0
41
1
10
45.0473496753152
20
12.7205269626892
30
0
41
1
10
45.0803778009432
20
12.7015860371759
30
0
41
1
10
45.1256280196323
20
12.6853137252656
30
0
41
1
10
45.1376277823284
20
12.6818763439915
30
0
41
1
10
45.1496759832563
20
12.6792527608792
30
0
0
SPLINE
5
13C
100
AcDbEntity
8
1
62
256
6
ByLayer
370
-1
48
1
60
0
100
AcDbSpline
70
4
71
3
72
12
73
8
40
0
40
0
40
0
40
0
40
0.377026290639701
40
0.377026290639701
40
0.761056371823051
40
0.761056371823051
40
1
40
1
40
1
40
1
41
1
10
44.3283460380438
20
13.2059060010967
30
1E-16
41
1
10
44.3659969571171
20
13.2100117965587
30
1E-16
41
1
10
44.4021649377438
20
13.2204537458837
30
1E-16
41
1
10
44.4668854192534
20
13.251134925178
30
1E-16
41
1
10
44.4962250555579
20
13.2718595344833
30
1E-16
41
1
10
44.5371076114249
20
13.3109567026484
30
0
41
1
10
44.551389013308
20
13.3274538360311
30
0
41
1
10
44.5641310893104
20
13.3450263495697
30
0
0
SPLINE
5
13D
100
AcDbEntity
8
1
62
256
6
ByLayer
370
-1
48
1
60
0
100
AcDbSpline
70
4
71
3
72
16
73
12
40
0
40
0
40
0
40
0
40
0.0650212293342906
40
0.0650212293342906
40
0.289691523269469
40
0.289691523269469
40
0.517236422326113
40
0.517236422326113
40
0.759263521180986
40
0.759263521180986
40
1
40
1
40
1
40
1
41
1
10
44.763073316171
20
11.6101296284288
30
0
41
1
10
44.7676654536234
20
11.6129916812343
30
0
41
1
10
44.772173099219
20
11.6160485928843
30
0
41
1
10
44.7916379708537
20
11.6303635137876
30
0
41
1
10
44.8055542887857
20
11.6437275925491
30
0
41
1
10
44.8291600465093
20
11.6728887864009
30
0
41
1
10
44.8391042819308
20
11.6890780277734
30
0
41
1
10
44.8545521383426
20
11.7229502978055
30
0
41
1
10
44.8599436759567
20
11.7410814001134
30
0
41
1
10
44.8654462390327
20
11.7760207954828
30
0
41
1
10
44.8656578650577
20
11.7932033575891
30
0
41
1
10
44.8635839458105
20
11.8091841781042
30
0
0
SPLINE
5
13E
100
AcDbEntity
8
1
62
256
6
ByLayer
370
-1
48
1
60
0
100
AcDbSpline
70
4
71
3
72
14
73
10
40
0
40
0
40
0
40
0
40
0.284519249123233
40
0.284519249123233
40
0.571733062184447
40
0.571733062184447
40
0.831996244286523
40
0.831996244286523
40
1
40
1
40
1
40
1
41
1
10
45.1496759832563
20
12.3256900588758
30
0
41
1
10
45.1667748638676
20
12.3332785727138
30
0
41
1
10
45.1836601852641
20
12.3445281666891
30
0
41
1
10
45.2140031901127
20
12.3734278112634
30
0
41
1
10
45.227874856801
20
12.391614275758
30
0
41
1
10
45.248384108443
20
12.4305063591895
30
0
41
1
10
45.255859124673
20
12.4514193125956
30
0
41
1
10
45.2627491823218
20
12.4865560391798
30
0
41
1
10
45.2641491234336
20
12.5007852505838
30
0
41
1
10
45.2641491234336
20
12.5147636877132
30
0
0
SPLINE
5
13F
100
AcDbEntity
8
1
62
256
6
ByLayer
370
-1
48
1
60
0
100
AcDbSpline
70
4
71
3
72
18
73
14
40
0
40
0
40
0
40
0
40
0.213393079737799
40
0.213393079737799
40
0.389003177496044
40
0.389003177496044
40
0.566251555260786
40
0.566251555260786
40
0.721174645896042
40
0.721174645896042
40
0.92741534208992
40
0.92741534208992
40
1
40
1
40
1
40
1
41
1
10
45.1496759832563
20
12.3256900588758
30
0
41
1
10
45.1146418654126
20
12.3101418546336
30
0
41
1
10
45.0796811207279
20
12.2878811999872
30
0
41
1
10
45.019887930312
20
12.2359761066753
30
0
41
1
10
44.9937068479395
20
12.2076857105366
30
0
41
1
10
44.9468786888998
20
12.1444130092746
30
0
41
1
10
44.925636542123
20
12.1083940351479
30
0
41
1
10
44.8942465381041
20
12.0397474476825
30
0
41
1
10
44.8826390837848
20
12.0064550161976
30
0
41
1
10
44.8640422512052
20
11.9314123593901
30
0
41
1
10
44.8594383896943
20
11.8892041888639
30
0
41
1
10
44.8608029212873
20
11.8361224267803
30
0
41
1
10
44.861859115181
20
11.8224750565928
30
0
41
1
10
44.8635839458105
20
11.8091841781043
30
0
0
SPLINE
5
140
100
AcDbEntity
8
1
62
256
6
ByLayer
370
-1
48
1
60
0
100
AcDbSpline
70
4
71
3
72
16
73
12
40
0
40
0
40
0
40
0
40
0.0670553612811609
40
0.0670553612811609
40
0.291697905104273
40
0.291697905104273
40
0.519329228663784
40
0.519329228663784
40
0.761535715028728
40
0.761535715028728
40
1
40
1
40
1
40
1
41
1
10
43.2568636781935
20
12.4519234781551
30
0
41
1
10
43.2568636781935
20
12.4463263264038
30
0
41
1
10
43.2571445791216
20
12.4407151220101
30
0
41
1
10
43.2595641673296
20
12.4165490202398
30
0
41
1
10
43.264624316856
20
12.3979754189045
30
0
41
1
10
43.2801864583535
20
12.3635219489947
30
0
41
1
10
43.2909437563002
20
12.3472368759723
30
0
41
1
10
43.3171305507584
20
12.3179898801696
30
0
41
1
10
43.333127144134
20
12.3049282961843
30
0
41
1
10
43.3672649231055
20
12.2842809641109
30
0
41
1
10
43.385713684161
20
12.276387690398
30
0
41
1
10
43.4045375254628
20
12.2710566400684
30
0
0
SPLINE
5
141
100
AcDbEntity
8
1
62
256
6
ByLayer
370
-1
48
1
60
0
100
AcDbSpline
70
4
71
3
72
16
73
12
40
0
40
0
40
0
40
0
40
0.0668638488454794
40
0.0668638488454794
40
0.290854271538576
40
0.290854271538576
40
0.517824973971272
40
0.517824973971272
40
0.75932867428116
40
0.75932867428116
40
1
40
1
40
1
40
1
41
1
10
44.763073316171
20
13.3880243229462
30
0
41
1
10
44.7583383055011
20
13.390678952474
30
0
41
1
10
44.7535015662758
20
13.3930959653714
30
0
41
1
10
44.7322851530878
20
13.4024530471347
30
0
41
1
10
44.714954966601
20
13.4068615939459
30
0
41
1
10
44.6808671054313
20
13.409671968738
30
0
41
1
10
44.6636870511115
20
13.4080441265096
30
0
41
1
10
44.6307471627987
20
13.3991581218039
30
0
41
1
10
44.6147316313942
20
13.3914549132695
30
0
41
1
10
44.5866612356805
20
13.3714837736802
30
0
41
1
10
44.5742889107525
20
13.3590349345741
30
0
41
1
10
44.5641310893104
20
13.3450263495697
30
0
0
SPLINE
5
142
100
AcDbEntity
8
1
62
256
6
ByLayer
370
-1
48
1
60
0
100
AcDbSpline
70
4
71
3
72
16
73
12
40
0
40
0
40
0
40
0
40
0.0650212293342944
40
0.0650212293342944
40
0.28969152326947
40
0.28969152326947
40
0.51723642232612
40
0.51723642232612
40
0.759263521180989
40
0.759263521180989
40
1
40
1
40
1
40
1
41
1
10
43.7579394854561
20
13.3565575374395
30
1E-16
41
1
10
43.7533473480038
20
13.353695484634
30
1E-16
41
1
10
43.7488960659421
20
13.350610769097
30
1E-16
41
1
10
43.7299288766521
20
13.3360503436499
30
1E-16
41
1
10
43.7170805317894
20
13.3221594384018
30
1E-16
41
1
10
43.6968082388767
20
13.2913538608056
30
1E-16
41
1
10
43.6891852269704
20
13.274019569933
30
1E-16
41
1
10
43.6794831359167
20
13.2373129387511
30
1E-16
41
1
10
43.6776468641649
20
13.2174280392015
30
1E-16
41
1
10
43.6799382146736
20
13.1786439400386
30
1E-16
41
1
10
43.6840424640893
20
13.1593323752819
30
1E-16
41
1
10
43.6906295629086
20
13.1411252228434
30
1E-16
0
SPLINE
5
143
100
AcDbEntity
8
1
62
256
6
ByLayer
370
-1
48
1
60
0
100
AcDbSpline
70
4
71
3
72
16
73
12
40
0
40
0
40
0
40
0
40
0.0668638488455277
40
0.0668638488455277
40
0.290854271538802
40
0.290854271538802
40
0.517824973971677
40
0.517824973971677
40
0.759328674281759
40
0.759328674281759
40
1
40
1
40
1
40
1
41
1
10
43.7579394854561
20
11.5786628429221
30
0
41
1
10
43.762674496126
20
11.5760082133943
30
0
41
1
10
43.7675711703181
20
11.5735616348376
30
0
41
1
10
43.7893042486119
20
11.5639496844168
30
0
41
1
10
43.8077139977748
20
11.5590085940162
30
0
41
1
10
43.8451570345511
20
11.5545431256382
30
0
41
1
10
43.8646692693722
20
11.5550205133327
30
0
41
1
10
43.9033764773657
20
11.5610615242347
30
0
41
1
10
43.9229583828175
20
11.5670054559078
30
0
41
1
10
43.9588499250913
20
11.583118457795
30
0
41
1
10
43.9755560970167
20
11.5934294289595
30
0
41
1
10
43.9902443013892
20
11.6052031956984
30
0
0
SPLINE
5
144
100
AcDbEntity
8
1
62
256
6
ByLayer
370
-1
48
1
60
0
100
AcDbSpline
70
4
71
3
72
14
73
10
40
0
40
0
40
0
40
0
40
0.284523597312291
40
0.284523597312291
40
0.571736866218035
40
0.571736866218035
40
0.831999616286239
40
0.831999616286239
40
1
40
1
40
1
40
1
41
1
10
43.6906295629086
20
11.7724635914042
30
-1E-16
41
1
10
43.6828546716266
20
11.7532810577517
30
-1E-16
41
1
10
43.678546193933
20
11.7325725280028
30
-1E-16
41
1
10
43.6783753534711
20
11.6912594745876
30
-1E-16
41
1
10
43.6826299434344
20
11.6700238289396
30
-1E-16
41
1
10
43.6991553435614
20
11.6329408876659
30
-1E-16
41
1
10
43.7109197689708
20
11.6162331533775
30
-1E-16
41
1
10
43.7351848656107
20
11.5933115920548
30
-1E-16
41
1
10
43.7461149629162
20
11.5852921261225
30
0
41
1
10
43.7579394854561
20
11.5786628429221
30
0
0
SPLINE
5
145
100
AcDbEntity
8
1
62
256
6
ByLayer
370
-1
48
1
60
0
100
AcDbSpline
70
4
71
3
72
18
73
14
40
0
40
0
40
0
40
0
40
0.2133930797378
40
0.2133930797378
40
0.389003177496045
40
0.389003177496045
40
0.56625155526079
40
0.56625155526079
40
0.721174645896043
40
0.721174645896043
40
0.927415342089922
40
0.927415342089922
40
1
40
1
40
1
40
1
41
1
10
43.4045375254629
20
12.6246193420719
30
0
41
1
10
43.4504860378554
20
12.6347835227848
30
0
41
1
10
43.4957268245515
20
12.6519730772594
30
0
41
1
10
43.5704921382788
20
12.696492487029
30
1E-16
41
1
10
43.6021415100273
20
12.7220853997175
30
1E-16
41
1
10
43.6551960489778
20
12.7822866547539
30
1E-16
41
1
10
43.6771555110626
20
12.8179517803479
30
1E-16
41
1
10
43.7049966743748
20
12.8883489955537
30
1E-16
41
1
10
43.712959532762
20
12.9234392904167
30
1E-16
41
1
10
43.7200165138375
20
13.0041745059588
30
1E-16
41
1
10
43.7156173966374
20
13.0508238068653
30
1E-16
41
1
10
43.7008268895049
20
13.1105285444961
30
1E-16
41
1
10
43.6961079005144
20
13.1259827556307
30
1E-16
41
1
10
43.6906295629086
20
13.1411252228434
30
1E-16
0
SPLINE
5
146
100
AcDbEntity
8
1
62
256
6
ByLayer
370
-1
48
1
60
0
100
AcDbSpline
70
4
71
3
72
12
73
8
40
0
40
0
40
0
40
0
40
0.377026290846266
40
0.377026290846266
40
0.76105637206325
40
0.76105637206325
40
1
40
1
40
1
40
1
41
1
10
44.2736230633233
20
11.7208457729647
30
0
41
1
10
44.2348078403539
20
11.7173143235562
30
0
41
1
10
44.1949254233024
20
11.7087046896029
30
0
41
1
10
44.1192833779981
20
11.6834110703693
30
0
41
1
10
44.0825961801045
20
11.6663109813466
30
0
41
1
10
44.0284359592005
20
11.6337636278168
30
0
41
1
10
44.0086693364556
20
11.6199723301362
30
0
41
1
10
43.9902443013894
20
11.6052031956985
30
0
0
SPLINE
5
147
100
AcDbEntity
8
1
62
256
6
ByLayer
370
-1
48
1
60
0
100
AcDbSpline
70
4
71
3
72
14
73
10
40
0
40
0
40
0
40
0
40
0.283738489034223
40
0.283738489034223
40
0.570489531030765
40
0.570489531030765
40
0.830294403552167
40
0.830294403552167
40
1
40
1
40
1
40
1
41
1
10
44.5641310893104
20
11.6231693330514
30
0
41
1
10
44.5760913171843
20
11.6102222760315
30
0
41
1
10
44.5911749117454
20
11.5994715288435
30
0
41
1
10
44.6257637001301
20
11.5847693991129
30
0
41
1
10
44.6458663118967
20
11.5806995981256
30
0
41
1
10
44.6858062635751
20
11.5810180662707
30
0
41
1
10
44.7060971021622
20
11.5846883790687
30
0
41
1
10
44.7384005617094
20
11.5964639429254
30
0
41
1
10
44.7510954145373
20
11.60266439305
30
0
41
1
10
44.763073316171
20
11.6101296284288
30
0
0
SPLINE
5
148
100
AcDbEntity
8
1
62
256
6
ByLayer
370
-1
48
1
60
0
100
AcDbSpline
70
4
71
3
72
14
73
10
40
0
40
0
40
0
40
0
40
0.283738489034225
40
0.283738489034225
40
0.570489531030766
40
0.570489531030766
40
0.830294403552173
40
0.830294403552173
40
1
40
1
40
1
40
1
41
1
10
43.9902443013894
20
13.3270602122168
30
1E-16
41
1
10
43.9729498182803
20
13.3426386342262
30
1E-16
41
1
10
43.9527937342997
20
13.3558916184613
30
1E-16
41
1
10
43.9093091773662
20
13.3749819922638
30
1E-16
41
1
10
43.8852624056125
20
13.3809974302792
30
1E-16
41
1
10
43.8395670412931
20
13.3835180822466
30
1E-16
41
1
10
43.817216993862
20
13.3808635682471
30
1E-16
41
1
10
43.783001313099
20
13.3700312948287
30
1E-16
41
1
10
43.7699173870899
20
13.3640227728183
30
1E-16
41
1
10
43.7579394854561
20
13.3565575374395
30
1E-16
0
SPLINE
5
149
100
AcDbEntity
8
1
62
256
6
ByLayer
370
-1
48
1
60
0
100
AcDbSpline
70
4
71
3
72
18
73
14
40
0
40
0
40
0
40
0
40
0.21339446477972
40
0.21339446477972
40
0.389004322610664
40
0.389004322610664
40
0.566252444177967
40
0.566252444177967
40
0.721175490823054
40
0.721175490823054
40
0.92741643549918
40
0.92741643549918
40
1
40
1
40
1
40
1
41
1
10
43.6906295629086
20
11.7724635914042
30
-1E-16
41
1
10
43.7065594992174
20
11.811766589767
30
-1E-16
41
1
10
43.7161556609626
20
11.8541375051603
30
1E-16
41
1
10
43.7183287496951
20
11.9329564957186
30
1E-16
41
1
10
43.7135169387081
20
11.9700198549879
30
1E-16
41
1
10
43.6907352707788
20
12.0420389016654
30
1E-16
41
1
10
43.6721625598596
20
12.0780105470233
30
1E-16
41
1
10
43.6271916049489
20
12.138112907114
30
1E-16
41
1
10
43.6016048100003
20
12.1639024246087
30
1E-16
41
1
10
43.5367089793432
20
12.2150599571118
30
0
41
1
10
43.4946778485469
20
12.2384420260567
30
0
41
1
10
43.4360016803642
20
12.2613373006658
30
0
41
1
10
43.4203391766451
20
12.2665814962127
30
0
41
1
10
43.4045375254629
20
12.2710566400684
30
0
0
SPLINE
5
14A
100
AcDbEntity
8
1
62
256
6
ByLayer
370
-1
48
1
60
0
100
AcDbSpline
70
4
71
3
72
16
73
12
40
0
40
0
40
0
40
0
40
0.0670553612811543
40
0.0670553612811543
40
0.291697905104273
40
0.291697905104273
40
0.519329228663781
40
0.519329228663781
40
0.76153571502873
40
0.76153571502873
40
1
40
1
40
1
40
1
41
1
10
45.2641491234336
20
12.5147636877132
30
0
41
1
10
45.2641491234336
20
12.5203608394645
30
0
41
1
10
45.2639281518817
20
12.5259424809567
30
0
41
1
10
45.2620251993545
20
12.5498537285846
30
0
41
1
10
45.2580445946428
20
12.5678947951415
30
0
41
1
10
45.2458375952826
20
12.6006931879758
30
0
41
1
10
45.2374124609432
20
12.615827814798
30
0
41
1
10
45.2169929529275
20
12.6422298331933
30
0
41
1
10
45.2045627164696
20
12.6535321487673
30
0
41
1
10
45.1781999830206
20
12.6703440845805
30
0
41
1
10
45.1640284974097
20
12.6761273968538
30
0
41
1
10
45.1496759832563
20
12.6792527608792
30
0
0
SPLINE
5
14B
100
AcDbEntity
8
1
62
256
6
ByLayer
370
-1
48
1
60
0
100
AcDbSpline
70
4
71
3
72
14
73
10
40
0
40
0
40
0
40
0
40
0.284523597312293
40
0.284523597312293
40
0.57173686621804
40
0.57173686621804
40
0.831999616286243
40
0.831999616286243
40
1
40
1
40
1
40
1
41
1
10
44.8635839458105
20
13.1778458095434
30
0
41
1
10
44.8660318363185
20
13.1996561295913
30
0
41
1
10
44.8652773453554
20
13.2228621998362
30
0
41
1
10
44.8565816771417
20
13.2685490635547
30
0
41
1
10
44.8484017380513
20
13.2917210669151
30
0
41
1
10
44.8261559869643
20
13.331625832526
30
0
41
1
10
44.8123494380341
20
13.3493409374969
30
0
41
1
10
44.7862069475402
20
13.3731886090715
30
0
41
1
10
44.774897838711
20
13.3813950397458
30
0
41
1
10
44.763073316171
20
13.3880243229462
30
0
0
SPLINE
5
14C
100
AcDbEntity
8
1
62
256
6
ByLayer
370
-1
48
1
60
0
100
AcDbSpline
70
4
71
3
72
12
73
8
40
0
40
0
40
0
40
0
40
0.464390992171651
40
0.464390992171651
40
0.846401077318506
40
0.846401077318506
40
1
40
1
40
1
40
1
41
1
10
44.5641310893104
20
11.6231693330514
30
0
41
1
10
44.5395923508617
20
11.6497327438193
30
0
41
1
10
44.5090930571681
20
11.6724898877233
30
0
41
1
10
44.4439701214458
20
11.7032743979122
30
0
41
1
10
44.4102301884124
20
11.7134713067165
30
0
41
1
10
44.359179652355
20
11.7207751565792
30
0
41
1
10
44.3439018634421
20
11.7220889259513
30
0
41
1
10
44.3283460380437
20
11.7225589339938
30
0
0
SPLINE
5
14D
100
AcDbEntity
8
1
62
256
6
ByLayer
370
-1
48
1
60
0
100
AcDbSpline
70
4
71
3
72
14
73
10
40
0
40
0
40
0
40
0
40
0.284519249123232
40
0.284519249123232
40
0.571733062184447
40
0.571733062184447
40
0.83199624428652
40
0.83199624428652
40
1
40
1
40
1
40
1
41
1
10
43.4045375254629
20
12.6246193420719
30
0
41
1
10
43.3821117252422
20
12.6196585745909
30
0
41
1
10
43.3601635093969
20
12.6109064845052
30
0
41
1
10
43.3209540187454
20
12.5863806389512
30
0
41
1
10
43.303156973925
20
12.5701305464771
30
0
41
1
10
43.2769273172886
20
12.5340603140378
30
0
41
1
10
43.2674101512158
20
12.5141547442988
30
0
41
1
10
43.2586426462316
20
12.4799441543485
30
0
41
1
10
43.2568636781935
20
12.4659019152845
30
0
41
1
10
43.2568636781935
20
12.4519234781551
30
0
0
SPLINE
5
14E
100
AcDbEntity
8
1
62
256
6
ByLayer
370
-1
48
1
60
0
100
AcDbSpline
70
4
71
3
72
12
73
8
40
0
40
0
40
0
40
0
40
0.464390992172109
40
0.464390992172109
40
0.846401077319347
40
0.846401077319347
40
1
40
1
40
1
40
1
41
1
10
43.9902443013894
20
13.3270602122168
30
1E-16
41
1
10
44.0257273040624
20
13.2950980433382
30
1E-16
41
1
10
44.0665417797113
20
13.2672524648804
30
1E-16
41
1
10
44.1467044337521
20
13.2290489268252
30
1E-16
41
1
10
44.1859460277558
20
13.2161380725078
30
1E-16
41
1
10
44.2414083679014
20
13.2066578988086
30
1E-16
41
1
10
44.2575861950119
20
13.2049001444942
30
1E-16
41
1
10
44.2736230633233
20
13.2041928400676
30
1E-16
0
SPLINE
5
14F
100
AcDbEntity
8
1
62
256
6
ByLayer
370
-1
48
1
60
0
100
AcDbSpline
70
4
71
3
72
8
73
4
40
0
40
0
40
0
40
0
40
1
40
1
40
1
40
1
41
1
10
41.4495936720924
20
-14.9764225965187
30
-1E-16
41
1
10
41.8553953949119
20
-15.0019981081065
30
-1E-16
41
1
10
42.2612253599486
20
-15.0272433741131
30
0
41
1
10
42.6670914237375
20
-15.0519759736813
30
0
0
SPLINE
5
150
100
AcDbEntity
8
1
62
256
6
ByLayer
370
-1
48
1
60
0
100
AcDbSpline
70
4
71
3
72
17
73
13
40
0
40
0
40
0
40
0
40
0.0857142077615194
40
0.199999931791329
40
0.314285655821139
40
0.42857137985095
40
0.54285710388076
40
0.65714282791057
40
0.77142855194038
40
0.828571413955285
40
0.88571427597019
40
1
40
1
40
1
40
1
41
1
10
49.4402788358759
20
-12.0842905845921
30
0
41
1
10
49.4686778608246
20
-12.1995679533303
30
0
41
1
10
49.5453976719942
20
-12.4675013136833
30
0
41
1
10
49.6976399784145
20
-12.8693143899007
30
0
41
1
10
49.9525175287097
20
-13.2727745133153
30
0
41
1
10
49.9760404229558
20
-13.7542094786928
30
0
41
1
10
49.9702024988163
20
-14.2272902449833
30
0
41
1
10
49.9738057021752
20
-14.6998507922577
30
0
41
1
10
49.9628562998327
20
-15.1021120916098
30
0
41
1
10
49.7939595795757
20
-15.3778507721519
30
0
41
1
10
49.568525696994
20
-15.6008447105167
30
0
41
1
10
49.3464649624614
20
-15.6904240952194
30
0
41
1
10
49.19298652392
20
-15.6981105526056
30
0
0
SPLINE
5
151
100
AcDbEntity
8
1
62
256
6
ByLayer
370
-1
48
1
60
0
100
AcDbSpline
70
4
71
1
72
4
73
2
40
0
40
0
40
1
40
1
41
1
10
39.93916432106
20
-15.8735333763388
30
1E-16
41
1
10
41.4495936720924
20
-14.9764225965187
30
-1E-16
0
SPLINE
5
152
100
AcDbEntity
8
1
62
256
6
ByLayer
370
-1
48
1
60
0
100
AcDbSpline
70
4
71
3
72
9
73
5
40
0
40
0
40
0
40
0
40
0.111702540734968
40
1
40
1
40
1
40
1
41
1
10
41.143016114876
20
-14.7530208151974
30
-1E-16
41
1
10
41.1493749876164
20
-14.7661841603403
30
-1E-16
41
1
10
41.2124229274172
20
-14.8813614401632
30
-1E-16
41
1
10
41.3335589741986
20
-14.9690908179504
30
-1E-16
41
1
10
41.4495936720924
20
-14.9764225965187
30
-1E-16
0
SPLINE
5
153
100
AcDbEntity
8
1
62
256
6
ByLayer
370
-1
48
1
60
0
100
AcDbSpline
70
4
71
3
72
14
73
10
40
0
40
0
40
0
40
0
40
0.194165308264188
40
0.291247962396282
40
0.388330616528376
40
0.582495924792564
40
0.776661233056752
40
0.97082654132094
40
1
40
1
40
1
40
1
41
1
10
48.6926196021664
20
-15.3592509052306
30
-1E-16
41
1
10
48.808831206708
20
-15.3635407109619
30
-1E-16
41
1
10
48.9807197703578
20
-15.3025957730603
30
-1E-16
41
1
10
49.1707656843094
20
-15.1608984396058
30
-1E-16
41
1
10
49.3343755487916
20
-14.987252076063
30
0
41
1
10
49.4943730362009
20
-14.7252469255394
30
0
41
1
10
49.5093142648493
20
-14.3615717427877
30
0
41
1
10
49.5082258025726
20
-14.1025542882243
30
0
41
1
10
49.4820306359564
20
-13.9685168063215
30
0
41
1
10
49.4782644718785
20
-13.951067736478
30
0
0
SPLINE
5
154
100
AcDbEntity
8
1
62
256
6
ByLayer
370
-1
48
1
60
0
100
AcDbSpline
70
4
71
3
72
15
73
11
40
0
40
0
40
0
40
0
40
0.0625
40
0.125
40
0.25
40
0.5
40
0.75
40
0.875
40
0.9375
40
1
40
1
40
1
40
1
41
1
10
49.19298652392
20
-15.6981105526056
30
0
41
1
10
48.9938966499291
20
-15.7053190244053
30
-1E-16
41
1
10
48.5946835468276
20
-15.7196066734903
30
-1E-16
41
1
10
47.8217932917775
20
-15.7598989484505
30
-1E-16
41
1
10
46.4980441657531
20
-15.829268548546
30
0
41
1
10
44.5849689048046
20
-15.8894737973878
30
0
41
1
10
42.6934831569976
20
-15.8968073313374
30
0
41
1
10
41.3290958195235
20
-15.8899758519001
30
0
41
1
10
40.5329522115343
20
-15.8737418024243
30
0
41
1
10
40.1373014952458
20
-15.8890730527895
30
0
41
1
10
39.93916432106
20
-15.8735333763388
30
1E-16
0
SPLINE
5
155
100
AcDbEntity
8
1
62
256
6
ByLayer
370
-1
48
1
60
0
100
AcDbSpline
70
4
71
1
72
4
73
2
40
0
40
0
40
1
40
1
41
1
10
49.19298652392
20
-15.6981105526056
30
0
41
1
10
48.6926196021664
20
-15.3592509052306
30
-1E-16
0
SPLINE
5
156
100
AcDbEntity
8
1
62
256
6
ByLayer
370
-1
48
1
60
0
100
AcDbSpline
70
4
71
3
72
11
73
7
40
0
40
0
40
0
40
0
40
0.35909863145458
40
0.538647947181871
40
0.718197262909161
40
1
40
1
40
1
40
1
41
1
10
39.93916432106
20
-15.8735333763388
30
1E-16
41
1
10
39.7865564064686
20
-15.8716208159663
30
0
41
1
10
39.5656460808766
20
-15.6833883632192
30
0
41
1
10
39.5500217364616
20
-15.3667579406503
30
0
41
1
10
39.5255361810175
20
-15.0961353082007
30
0
41
1
10
39.5040213274927
20
-14.9074837481938
30
0
41
1
10
39.4893756009506
20
-14.7933653174469
30
0
0
LINE
5
4A
100
AcDbEntity
8
80
62
256
6
ByLayer
370
-1
48
1
60
0
100
AcDbLine
10
0
20
0
30
0
11
-10
21
0
31
0
39
0
210
0
220
0
230
1
0
LINE
5
4B
100
AcDbEntity
8
81
62
256
6
ByLayer
370
-1
48
1
60
0
100
AcDbLine
10
50
20
15.935
30
0
11
56.9
21
15.935
31
0
39
0
210
0
220
0
230
1
0
LINE
5
4C
100
AcDbEntity
8
4
62
256
6
ByLayer
370
-1
48
0.05
60
0
100
AcDbLine
10
0
20
0
30
0
11
50
21
0
31
0
39
0
210
0
220
0
230
1
0
LINE
5
4E
100
AcDbEntity
8
1
62
256
6
ByLayer
370
-1
48
1
60
0
100
AcDbLine
10
45.082509
20
12.702911
30
0
11
45.221072
21
12.634558
31
0
39
0
210
0
220
0
230
1
0
LINE
5
50
100
AcDbEntity
8
1
62
256
6
ByLayer
370
-1
48
1
60
0
100
AcDbLine
10
44.691484
20
11.581831
30
0
11
44.47797
21
11.687156
31
0
39
0
210
0
220
0
230
1
0
LINE
5
51
100
AcDbEntity
8
1
62
256
6
ByLayer
370
-1
48
1
60
0
100
AcDbLine
10
43.70869
20
12.130494
30
0
11
43.490303
21
12.238224
31
0
39
0
210
0
220
0
230
1
0
LINE
5
52
100
AcDbEntity
8
1
62
256
6
ByLayer
370
-1
48
1
60
0
100
AcDbLine
10
44.104587
20
13.249171
30
0
11
44.318101
21
13.143846
31
0
39
0
210
0
220
0
230
1
0
LINE
5
53
100
AcDbEntity
8
1
62
256
6
ByLayer
370
-1
48
1
60
0
100
AcDbLine
10
14.7
20
-16
30
0
11
15
21
-15.7
31
0
39
0
210
0
220
0
230
1
0
LINE
5
54
100
AcDbEntity
8
1
62
256
6
ByLayer
370
-1
48
1
60
0
100
AcDbLine
10
15
20
15.7
30
0
11
14.7
21
16
31
0
39
0
210
0
220
0
230
1
0
LINE
5
55
100
AcDbEntity
8
1
62
256
6
ByLayer
370
-1
48
1
60
0
100
AcDbLine
10
14.7
20
16
30
0
11
0.3
21
16
31
0
39
0
210
0
220
0
230
1
0
LINE
5
56
100
AcDbEntity
8
1
62
256
6
ByLayer
370
-1
48
1
60
0
100
AcDbLine
10
0.3
20
-16
30
0
11
14.7
21
-16
31
0
39
0
210
0
220
0
230
1
0
LINE
5
57
100
AcDbEntity
8
1
62
256
6
ByLayer
370
-1
48
1
60
0
100
AcDbLine
10
0.3
20
16
30
0
11
0
21
15.7
31
0
39
0
210
0
220
0
230
1
0
LINE
5
58
100
AcDbEntity
8
1
62
256
6
ByLayer
370
-1
48
1
60
0
100
AcDbLine
10
0
20
-15.7
30
0
11
0.3
21
-16
31
0
39
0
210
0
220
0
230
1
0
LINE
5
59
100
AcDbEntity
8
1
62
256
6
ByLayer
370
-1
48
1
60
0
100
AcDbLine
10
15.8
20
-14.756343
30
0
11
18.290233
21
-14.756343
31
0
39
0
210
0
220
0
230
1
0
LINE
5
5A
100
AcDbEntity
8
1
62
256
6
ByLayer
370
-1
48
1
60
0
100
AcDbLine
10
17.996997
20
14.756343
30
0
11
15.8
21
14.756343
31
0
39
0
210
0
220
0
230
1
0
LINE
5
5B
100
AcDbEntity
8
1
62
256
6
ByLayer
370
-1
48
1
60
0
100
AcDbLine
10
45.243499
20
13.921902
30
0
11
45.066129
21
14.009398
31
0
39
0
210
0
220
0
230
1
0
LINE
5
5C
100
AcDbEntity
8
1
62
256
6
ByLayer
370
-1
48
1
60
0
100
AcDbLine
10
43.539859
20
10.915371
30
0
11
43.717229
21
10.827875
31
0
39
0
210
0
220
0
230
1
0
LINE
5
5D
100
AcDbEntity
8
SK4
62
256
6
ByLayer
370
-1
48
0.05
60
0
100
AcDbLine
10
60
20
0
30
0
11
-29
21
0
31
0
39
0
210
0
220
0
230
1
0
LINE
5
5F
100
AcDbEntity
8
1
62
256
6
ByLayer
370
-1
48
1
60
0
100
AcDbLine
10
49.086973
20
9.042864
30
0
11
49.086973
21
9.220679
31
0
39
0
210
0
220
0
230
1
0
LINE
5
60
100
AcDbEntity
8
1
62
256
6
ByLayer
370
-1
48
1
60
0
100
AcDbLine
10
37.673957
20
8.685682
30
0
11
29.815645
21
9.824336
31
0
39
0
210
0
220
0
230
1
0
LINE
5
61
100
AcDbEntity
8
1
62
256
6
ByLayer
370
-1
48
1
60
0
100
AcDbLine
10
15
20
15.7
30
0
11
15
21
-15.7
31
0
39
0
210
0
220
0
230
1
0
LINE
5
62
100
AcDbEntity
8
1
62
256
6
ByLayer
370
-1
48
1
60
0
100
AcDbLine
10
38.350869
20
9.371874
30
0
11
38.713694
21
9.415654
31
0
39
0
210
0
220
0
230
1
0
LINE
5
63
100
AcDbEntity
8
1
62
256
6
ByLayer
370
-1
48
1
60
0
100
AcDbLine
10
4.663397
20
5.068619
30
0
11
4.663397
21
15.175938
31
0
39
0
210
0
220
0
230
1
0
LINE
5
64
100
AcDbEntity
8
1
62
256
6
ByLayer
370
-1
48
1
60
0
100
AcDbLine
10
49.233419
20
9.24405
30
0
11
49.233419
21
9.051531
31
0
39
0
210
0
220
0
230
1
0
LINE
5
65
100
AcDbEntity
8
1
62
256
6
ByLayer
370
-1
48
1
60
0
100
AcDbLine
10
48.190709
20
-12.729149
30
0
11
47.601073
21
-12.612308
31
0
39
0
210
0
220
0
230
1
0
LINE
5
66
100
AcDbEntity
8
1
62
256
6
ByLayer
370
-1
48
1
60
0
100
AcDbLine
10
7.336603
20
-15.175938
30
0
11
7.336603
21
-5.068619
31
0
39
0
210
0
220
0
230
1
0
LINE
5
67
100
AcDbEntity
8
1
62
256
6
ByLayer
370
-1
48
1
60
0
100
AcDbLine
10
49.443565
20
9.044549
30
0
11
49.443565
21
12.350069
31
0
39
0
210
0
220
0
230
1
0
LINE
5
68
100
AcDbEntity
8
1
62
256
6
ByLayer
370
-1
48
1
60
0
100
AcDbLine
10
7.336603
20
5.068619
30
0
11
7.336603
21
15.175938
31
0
39
0
210
0
220
0
230
1
0
LINE
5
69
100
AcDbEntity
8
1
62
256
6
ByLayer
370
-1
48
1
60
0
100
AcDbLine
10
38.5
20
8.298048
30
0
11
38.5
21
8.427895
31
0
39
0
210
0
220
0
230
1
0
LINE
5
6A
100
AcDbEntity
8
1
62
256
6
ByLayer
370
-1
48
1
60
0
100
AcDbLine
10
38.438552
20
-14.717923
30
0
11
38.438552
21
8.425728
31
0
39
0
210
0
220
0
230
1
0
LINE
5
6B
100
AcDbEntity
8
1
62
256
6
ByLayer
370
-1
48
1
60
0
100
AcDbLine
10
7.076795
20
4.755463
30
0
11
4.923205
21
4.755463
31
0
39
0
210
0
220
0
230
1
0
LINE
5
6C
100
AcDbEntity
8
1
62
256
6
ByLayer
370
-1
48
1
60
0
100
AcDbLine
10
45.551804
20
8.966043
30
0
11
48.533419
21
9.216774
31
0
39
0
210
0
220
0
230
1
0
LINE
5
6D
100
AcDbEntity
8
1
62
256
6
ByLayer
370
-1
48
1
60
0
100
AcDbLine
10
4.663397
20
-15.175938
30
0
11
4.663397
21
-5.068619
31
0
39
0
210
0
220
0
230
1
0
LINE
5
6E
100
AcDbEntity
8
1
62
256
6
ByLayer
370
-1
48
1
60
0
100
AcDbLine
10
48.533419
20
9.010557
30
0
11
48.533419
21
9.216774
31
0
39
0
210
0
220
0
230
1
0
LINE
5
6F
100
AcDbEntity
8
1
62
256
6
ByLayer
370
-1
48
1
60
0
100
AcDbLine
10
49.244202
20
9.258602
30
0
11
49.244202
21
9.051939
31
0
39
0
210
0
220
0
230
1
0
LINE
5
70
100
AcDbEntity
8
1
62
256
6
ByLayer
370
-1
48
1
60
0
100
AcDbLine
10
49.412871
20
8.427542
30
0
11
38.5
21
8.427542
31
0
39
0
210
0
220
0
230
1
0
LINE
5
71
100
AcDbEntity
8
1
62
256
6
ByLayer
370
-1
48
1
60
0
100
AcDbLine
10
4.923205
20
-4.755463
30
0
11
7.076795
21
-4.755463
31
0
39
0
210
0
220
0
230
1
0
LINE
5
72
100
AcDbEntity
8
1
62
256
6
ByLayer
370
-1
48
1
60
0
100
AcDbLine
10
0
20
-15.7
30
0
11
0
21
15.7
31
0
39
0
210
0
220
0
230
1
0
LINE
5
73
100
AcDbEntity
8
1
62
256
6
ByLayer
370
-1
48
1
60
0
100
AcDbLine
10
47.601073
20
-12.612308
30
0
11
47.601073
21
-14.082169
31
0
39
0
210
0
220
0
230
1
0
LINE
5
74
100
AcDbEntity
8
1
62
256
6
ByLayer
370
-1
48
1
60
0
100
AcDbLine
10
44.201956
20
8.853325
30
0
11
40.876973
21
8.57372
31
0
39
0
210
0
220
0
230
1
0
LINE
5
75
100
AcDbEntity
8
1
62
256
6
ByLayer
370
-1
48
1
60
0
100
AcDbLine
10
38.560727
20
7.918161
30
0
11
38.560727
21
-14.720016
31
0
39
0
210
0
220
0
230
1
0
LINE
5
76
100
AcDbEntity
8
1
62
256
6
ByLayer
370
-1
48
1
60
0
100
AcDbLine
10
41.580442
20
-14.799506
30
0
11
41.580442
21
-11.304968
31
0
39
0
210
0
220
0
230
1
0
LINE
5
77
100
AcDbEntity
8
1
62
256
6
ByLayer
370
-1
48
1
60
0
100
AcDbLine
10
0.3
20
-16
30
0
11
0.3
21
16
31
0
39
0
210
0
220
0
230
1
0
LINE
5
78
100
AcDbEntity
8
1
62
256
6
ByLayer
370
-1
48
1
60
0
100
AcDbLine
10
38.233357
20
11.244576
30
0
11
38.193215
21
11.25055
31
0
39
0
210
0
220
0
230
1
0
LINE
5
79
100
AcDbEntity
8
1
62
256
6
ByLayer
370
-1
48
1
60
0
100
AcDbLine
10
4.923205
20
4.755463
30
0
11
4.923205
21
15.276962
31
0
39
0
210
0
220
0
230
1
0
LINE
5
7A
100
AcDbEntity
8
1
62
256
6
ByLayer
370
-1
48
1
60
0
100
AcDbLine
10
48.632269
20
-15.281138
30
0
11
48.632269
21
-14.317434
31
0
39
0
210
0
220
0
230
1
0
LINE
5
7B
100
AcDbEntity
8
1
62
256
6
ByLayer
370
-1
48
1
60
0
100
AcDbLine
10
48.533419
20
9.217567
30
0
11
45.552953
21
8.966933
31
0
39
0
210
0
220
0
230
1
0
LINE
5
7C
100
AcDbEntity
8
1
62
256
6
ByLayer
370
-1
48
1
60
0
100
AcDbLine
10
4.923205
20
-15.276962
30
0
11
4.923205
21
-4.755463
31
0
39
0
210
0
220
0
230
1
0
LINE
5
7D
100
AcDbEntity
8
1
62
256
6
ByLayer
370
-1
48
1
60
0
100
AcDbLine
10
7.076795
20
-15.276962
30
0
11
4.923205
21
-15.276962
31
0
39
0
210
0
220
0
230
1
0
LINE
5
7E
100
AcDbEntity
8
1
62
256
6
ByLayer
370
-1
48
1
60
0
100
AcDbLine
10
4.923205
20
15.276962
30
0
11
7.076795
21
15.276962
31
0
39
0
210
0
220
0
230
1
0
LINE
5
7F
100
AcDbEntity
8
1
62
256
6
ByLayer
370
-1
48
1
60
0
100
AcDbLine
10
15.8
20
14.756343
30
0
11
15.8
21
-14.756343
31
0
39
0
210
0
220
0
230
1
0
LINE
5
80
100
AcDbEntity
8
1
62
256
6
ByLayer
370
-1
48
1
60
0
100
AcDbLine
10
14.7
20
16
30
0
11
14.7
21
-16
31
0
39
0
210
0
220
0
230
1
0
LINE
5
81
100
AcDbEntity
8
1
62
256
6
ByLayer
370
-1
48
1
60
0
100
AcDbLine
10
7.076795
20
4.755463
30
0
11
7.076795
21
15.276962
31
0
39
0
210
0
220
0
230
1
0
LINE
5
82
100
AcDbEntity
8
1
62
256
6
ByLayer
370
-1
48
1
60
0
100
AcDbLine
10
48.679866
20
9.193695
30
0
11
48.679866
21
9.019125
31
0
39
0
210
0
220
0
230
1
0
LINE
5
83
100
AcDbEntity
8
1
62
256
6
ByLayer
370
-1
48
1
60
0
100
AcDbLine
10
7.076795
20
-15.276962
30
0
11
7.076795
21
-4.755463
31
0
39
0
210
0
220
0
230
1
0
LINE
5
84
100
AcDbEntity
8
1
62
256
6
ByLayer
370
-1
48
1
60
0
100
AcDbLine
10
41.649741
20
-11.491697
30
0
11
41.649741
21
-14.8066
31
0
39
0
210
0
220
0
230
1
0
LINE
5
85
100
AcDbEntity
8
1
62
256
6
ByLayer
370
-1
48
1
60
0
100
AcDbLine
10
49.443565
20
9.030785
30
0
11
49.443565
21
-14.492089
31
0
39
0
210
0
220
0
230
1
0
LINE
5
86
100
AcDbEntity
8
SK1
62
256
6
ByLayer
370
-1
48
1
60
0
100
AcDbLine
10
-0.2
20
-5.197043
30
0
11
-0.2
21
-10.883485
31
0
39
0
210
0
220
0
230
1
0
LINE
5
88
100
AcDbEntity
8
SK1
62
256
6
ByLayer
370
-1
48
1
60
0
100
AcDbLine
10
-0.2
20
10.883485
30
0
11
-0.2
21
5.197043
31
0
39
0
210
0
220
0
230
1
0
LINE
5
89
100
AcDbEntity
8
SK1
62
256
6
ByLayer
370
-1
48
1
60
0
100
AcDbLine
10
-1.307107
20
3.2741
30
0
11
-1.307107
21
-3.2741
31
0
39
0
210
0
220
0
230
1
0
LINE
5
8A
100
AcDbEntity
8
1
62
256
6
ByLayer
370
-1
48
1
60
0
100
AcDbLine
10
44.273623
20
13.204193
30
0
11
44.477431
21
13.103655
31
0
39
0
210
0
220
0
230
1
0
LINE
5
8B
100
AcDbEntity
8
1
62
256
6
ByLayer
370
-1
48
1
60
0
100
AcDbLine
10
44.638995
20
11.586239
30
0
11
44.564131
21
11.623169
31
0
39
0
210
0
220
0
230
1
0
LINE
5
8C
100
AcDbEntity
8
1
62
256
6
ByLayer
370
-1
48
1
60
0
100
AcDbLine
10
43.918316
20
11.660147
30
0
11
43.69063
21
11.772464
31
0
39
0
210
0
220
0
230
1
0
LINE
5
8D
100
AcDbEntity
8
1
62
256
6
ByLayer
370
-1
48
1
60
0
100
AcDbLine
10
43.632224
20
12.512303
30
0
11
43.404538
21
12.624619
31
0
39
0
210
0
220
0
230
1
0
LINE
5
8E
100
AcDbEntity
8
1
62
256
6
ByLayer
370
-1
48
1
60
0
100
AcDbLine
10
43.918316
20
13.028809
30
0
11
43.69063
21
13.141125
31
0
39
0
210
0
220
0
230
1
0
LINE
5
8F
100
AcDbEntity
8
1
62
256
6
ByLayer
370
-1
48
1
60
0
100
AcDbLine
10
44.532154
20
13.105368
30
0
11
44.328346
21
13.205906
31
0
39
0
210
0
220
0
230
1
0
LINE
5
90
100
AcDbEntity
8
1
62
256
6
ByLayer
370
-1
48
1
60
0
100
AcDbLine
10
45.198934
20
12.654954
30
0
11
45.149676
21
12.679253
31
0
39
0
210
0
220
0
230
1
0
LINE
5
91
100
AcDbEntity
8
1
62
256
6
ByLayer
370
-1
48
1
60
0
100
AcDbLine
10
44.791736
20
13.23275
30
0
11
44.564131
21
13.345026
31
0
39
0
210
0
220
0
230
1
0
MTEXT
5
157
100
AcDbEntity
8
SK6
62
256
6
ByLayer
370
-1
48
1
60
0
100
AcDbMText
10
0.873386
20
-26.938367
30
0
210
0
220
0
230
1
1
\W00.711;\fsimplex.shx,bigfont.shx;R390-032C3-11L050\P
40
3.5
41
0
44
1.084337
50
0
71
7
72
5
7
DEFAULT
0
DIMENSION
5
168
100
AcDbEntity
8
2
62
256
6
ByLayer
370
-3
48
1
60
0
100
AcDbDimension
2
DimnDraft3D1
10
15
20
35.75
30
0
11
29.166447
21
35.75
31
0
70
32
71
5
72
1
41
1
210
0
220
0
230
1
3
Standard
100
AcDbAlignedDimension
13
50
23
18
33
0
14
15
24
16.756343
34
0
50
0
100
AcDbRotatedDimension
1001
ACAD
1000
DSTYLE
1002
{
1070
   279
1070
     0
1070
   172
1070
     1
1070
   173
1070
     1
1070
   340
1005
158
1070
   271
1070
     2
1070
   272
1070
     2
1070
    77
1070
     1
1070
    73
1070
     0
1070
   171
1070
     4
1070
   274
1070
     4
1070
   177
1070
     2
1070
   176
1070
     2
1070
   178
1070
     7
1070
    78
1070
     8
1070
    41
1041
3.175
1070
   147
1041
2.25
1070
    42
1041
2.0
1070
    44
1041
2.0
1070
   140
1041
4.5
1070
   343
1005
169
1070
   344
1005
169
1002
}
0
DIMENSION
5
17D
100
AcDbEntity
8
2
62
256
6
ByLayer
370
-3
48
1
60
0
100
AcDbDimension
2
DimnDraft3D2
10
0
20
45.75
30
0
11
21.666447
21
45.75
31
0
70
32
71
5
72
1
41
1
210
0
220
0
230
1
3
Standard
100
AcDbAlignedDimension
13
50
23
18
33
0
14
0
24
18
34
0
50
0
100
AcDbRotatedDimension
1001
ACAD
1000
DSTYLE
1002
{
1070
   279
1070
     0
1070
   172
1070
     1
1070
   173
1070
     1
1070
   340
1005
158
1070
   271
1070
     2
1070
   272
1070
     2
1070
    77
1070
     1
1070
    73
1070
     0
1070
   171
1070
     4
1070
   274
1070
     4
1070
   177
1070
     2
1070
   176
1070
     2
1070
   178
1070
     7
1070
    78
1070
     8
1070
    41
1041
3.175
1070
   147
1041
2.25
1070
    42
1041
2.0
1070
    44
1041
2.0
1070
   140
1041
4.5
1070
   343
1005
169
1070
   344
1005
169
1002
}
0
DIMENSION
5
18B
100
AcDbEntity
8
2
62
256
6
ByLayer
370
-3
48
1
60
0
100
AcDbDimension
2
DimnDraft3D3
10
39.8
20
25.75
30
0
11
55
21
25.75
31
0
70
32
71
5
72
1
41
1
210
0
220
0
230
1
3
Standard
100
AcDbAlignedDimension
13
50
23
18
33
0
14
39.8
24
18
34
0
50
0
100
AcDbRotatedDimension
1001
ACAD
1000
DSTYLE
1002
{
1070
   279
1070
     0
1070
   172
1070
     1
1070
   173
1070
     1
1070
   340
1005
158
1070
   271
1070
     2
1070
   272
1070
     2
1070
    77
1070
     1
1070
    73
1070
     0
1070
   171
1070
     4
1070
   274
1070
     4
1070
   177
1070
     2
1070
   176
1070
     2
1070
   178
1070
     7
1070
    78
1070
     8
1070
    41
1041
3.175
1070
   147
1041
2.25
1070
    42
1041
2.0
1070
    44
1041
2.0
1070
   140
1041
4.5
1070
   343
1005
169
1070
   344
1005
169
1002
}
0
DIMENSION
5
199
100
AcDbEntity
8
SK2
62
256
6
ByLayer
370
-3
48
1
60
0
100
AcDbDimension
2
DimnDraft3D4
10
-28.75
20
-16
30
0
11
-28.75
21
-6.01727
31
0
70
32
71
5
72
1
41
1
210
0
220
0
230
1
3
Standard
100
AcDbAlignedDimension
13
-2
23
16
33
0
14
-2
24
-16
34
0
50
90
100
AcDbRotatedDimension
1001
ACAD
1000
DSTYLE
1002
{
1070
    74
1070
     0
1070
   279
1070
     0
1070
   172
1070
     1
1070
   173
1070
     1
1070
   340
1005
158
1070
   271
1070
     2
1070
   272
1070
     2
1070
    77
1070
     1
1070
    73
1070
     0
1070
   171
1070
     4
1070
   274
1070
     4
1070
   177
1070
     2
1070
   176
1070
     2
1070
   178
1070
     7
1070
    78
1070
     8
1070
    41
1041
3.175
1070
   147
1041
2.25
1070
    42
1041
2.0
1070
    44
1041
2.0
1070
   140
1041
4.5
1070
   343
1005
169
1070
   344
1005
169
1002
}
0
DIMENSION
5
1A7
100
AcDbEntity
8
2
62
256
6
ByLayer
370
-3
48
1
60
0
100
AcDbDimension
2
DimnDraft3D5
10
64.25
20
-16
30
0
11
64.25
21
-6.01727
31
0
70
32
71
5
72
1
41
1
210
0
220
0
230
1
3
Standard
100
AcDbAlignedDimension
13
52
23
16
33
0
14
52
24
-16
34
0
50
90
100
AcDbRotatedDimension
1001
ACAD
1000
DSTYLE
1002
{
1070
    74
1070
     0
1070
   279
1070
     0
1070
   172
1070
     1
1070
   173
1070
     1
1070
   340
1005
158
1070
   271
1070
     2
1070
   272
1070
     2
1070
    77
1070
     1
1070
    73
1070
     0
1070
   171
1070
     4
1070
   274
1070
     4
1070
   177
1070
     2
1070
   176
1070
     2
1070
   178
1070
     7
1070
    78
1070
     8
1070
    41
1041
3.175
1070
   147
1041
2.25
1070
    42
1041
2.0
1070
    44
1041
2.0
1070
   140
1041
4.5
1070
   343
1005
169
1070
   344
1005
169
1002
}
0
ENDSEC
0
SECTION
2
OBJECTS
0
DICTIONARY
5
1f6
330
0
100
AcDbDictionary
280
0
281
1
3
ACAD_GROUP
350
1f7
3
ACAD_MLINESTYLE
350
1f8
0
DICTIONARY
5
1f7
330
0
100
AcDbDictionary
280
0
281
1
0
DICTIONARY
5
1f8
330
0
100
AcDbDictionary
280
0
281
1
3
Standard
350
18
0
MLINESTYLE
5
18
330
1f8
100
AcDbMlineStyle
2
Standard
70
0
3

62
256
51
90
52
90
71
2
49
-0.5
62
256
6
ByLayer
49
0.5
62
256
6
ByLayer
0
RASTERVARIABLES
5
1e4
330

100
AcDbRasterVariables
90
0
70
1
71
1
72
1
0
ENDSEC
0
EOF
