0
SECTION
2
HEADER
9
$ACADVER
1
AC1015
9
$DWGCODEPAGE
3
ANSI_1252
9
$HANDSEED
5
1e9
9
$ANGBASE
50
0
9
$ANGDIR
70
0
9
$ATTMODE
70
1
9
$AUNITS
70
0
9
$AUPREC
70
0
9
$CECOLOR
62
256
9
$CELTSCALE
40
1
9
$CELTYPE
6
ByLayer
9
$CELWEIGHT
370
-1
9
$CLAYER
8
0
9
$CMLJUST
70
0
9
$CMLSCALE
40
1
9
$CMLSTYLE
2
Standard
9
$DIMSTYLE
2
Standard
9
$TEXTSIZE
40
0.2
9
$TEXTSTYLE
7
Standard
9
$LUNITS
70
2
9
$LUPREC
70
4
9
$EXTNAMES
290
1
9
$INSUNITS
70
4
9
$LTSCALE
40
1
9
$LWDISPLAY
290
0
9
$PDMODE
70
0
9
$PDSIZE
40
0
9
$PLINEGEN
70
0
0
ENDSEC
0
SECTION
2
CLASSES
0
CLASS
1
RASTERVARIABLES
2
AcDbRasterVariables
3
ISM
90
0
280
0
281
0
0
ENDSEC
0
SECTION
2
TABLES
0
TABLE
2
VPORT
5
1df
100
AcDbSymbolTable
0
VPORT
5
1
100
AcDbSymbolTableRecord
100
AcDbViewportTableRecord
2
*Active
70
0
10
0
20
0
11
1
21
1
12
-1
22
1
13
0
23
0
14
0.5
24
0.5
15
10
25
10
16
0
26
0
36
1
17
0
27
0
37
0
0
ENDTAB
0
TABLE
2
LTYPE
5
1e0
100
AcDbSymbolTable
0
LTYPE
5
14
100
AcDbSymbolTableRecord
100
AcDbLinetypeTableRecord
70
0
2
ByBlock
3

72
65
73
0
40
0
0
LTYPE
5
15
100
AcDbSymbolTableRecord
100
AcDbLinetypeTableRecord
70
0
2
ByLayer
3

72
65
73
0
40
0
0
LTYPE
5
16
100
AcDbSymbolTableRecord
100
AcDbLinetypeTableRecord
70
0
2
CONTINUOUS
3
Solid line
72
65
73
0
40
0
0
LTYPE
5
3C
100
AcDbSymbolTableRecord
100
AcDbLinetypeTableRecord
70
0
2
DASHED
3
__ __ __ __ __ __ __ __ __
72
65
73
2
40
25.72
49
12.86
74
0
49
-12.86
74
0
0
LTYPE
5
3D
100
AcDbSymbolTableRecord
100
AcDbLinetypeTableRecord
70
0
2
HIDDEN
3
_ _ _ _ _ _ _ _ _ _ _ _ _ _ _
72
65
73
2
40
0.5
49
0.25
74
0
49
-0.25
74
0
0
LTYPE
5
3E
100
AcDbSymbolTableRecord
100
AcDbLinetypeTableRecord
70
0
2
PHANTOM
3
____ _ _ ____ _ _ _____ _ _ ____
72
65
73
6
40
50.5
49
18
74
0
49
-6.5
74
0
49
6.5
74
0
49
-6.5
74
0
49
6.5
74
0
49
-6.5
74
0
0
LTYPE
5
3F
100
AcDbSymbolTableRecord
100
AcDbLinetypeTableRecord
70
0
2
CENTER
3
____ _ ____ _ ____ _ ____
72
65
73
4
40
47.5
49
22
74
0
49
-8.5
74
0
49
8.5
74
0
49
-8.5
74
0
0
LTYPE
5
40
100
AcDbSymbolTableRecord
100
AcDbLinetypeTableRecord
70
0
2
DOT
3
.........................
72
65
73
2
40
10
49
0
74
0
49
-10
74
0
0
LTYPE
5
41
100
AcDbSymbolTableRecord
100
AcDbLinetypeTableRecord
70
0
2
DASHDOT
3
_._._._._._._._._._._._._._._._.
72
65
73
4
40
70
49
31
74
0
49
-13
74
0
49
13
74
0
49
-13
74
0
0
ENDTAB
0
TABLE
2
LAYER
5
1e1
100
AcDbSymbolTable
0
LAYER
5
10
100
AcDbSymbolTableRecord
100
AcDbLayerTableRecord
2
0
70
0
62
7
6
CONTINUOUS
290
1
370
-3
390
0
0
LAYER
5
45
100
AcDbSymbolTableRecord
100
AcDbLayerTableRecord
2
2
70
0
62
7
6
CONTINUOUS
290
1
370
-3
390
0
0
LAYER
5
47
100
AcDbSymbolTableRecord
100
AcDbLayerTableRecord
2
80
70
0
62
-6
6
CONTINUOUS
290
1
370
-3
390
0
0
LAYER
5
49
100
AcDbSymbolTableRecord
100
AcDbLayerTableRecord
2
81
70
0
62
-3
6
CONTINUOUS
290
1
370
-3
390
0
0
LAYER
5
52
100
AcDbSymbolTableRecord
100
AcDbLayerTableRecord
2
1
70
0
62
4
6
CONTINUOUS
290
1
370
-3
390
0
0
LAYER
5
5E
100
AcDbSymbolTableRecord
100
AcDbLayerTableRecord
2
4
70
0
62
-2
6
CENTER
290
1
370
-3
390
0
0
LAYER
5
1cb
100
AcDbSymbolTableRecord
100
AcDbLayerTableRecord
2
SK2
70
0
62
7
6
CONTINUOUS
290
1
370
-3
390
0
0
LAYER
5
1cc
100
AcDbSymbolTableRecord
100
AcDbLayerTableRecord
2
SK1
70
0
62
4
6
CONTINUOUS
290
1
370
-3
390
0
0
LAYER
5
1cd
100
AcDbSymbolTableRecord
100
AcDbLayerTableRecord
2
SK4
70
0
62
2
6
CENTER
290
1
370
-3
390
0
0
LAYER
5
1ce
100
AcDbSymbolTableRecord
100
AcDbLayerTableRecord
2
SK6
70
0
62
5
6
CONTINUOUS
290
1
370
-3
390
0
0
ENDTAB
0
TABLE
2
STYLE
5
1e2
100
AcDbSymbolTable
0
STYLE
5
11
100
AcDbSymbolTableRecord
100
AcDbTextStyleTableRecord
2
Standard
3
txt
70
0
71
0
40
0
41
1
42
0
50
0
0
STYLE
5
130
100
AcDbSymbolTableRecord
100
AcDbTextStyleTableRecord
2
DEFAULT
3
simplex.shx
70
0
71
0
40
0
41
1
42
0
50
0
0
STYLE
5
131
100
AcDbSymbolTableRecord
100
AcDbTextStyleTableRecord
2
DWGDirectTextStyle
3
SIMPLEX
70
0
71
0
40
0
41
1
42
0
50
0
0
ENDTAB
0
TABLE
2
DIMSTYLE
5
1e3
100
AcDbSymbolTable
100
AcDbDimStyleTable
0
DIMSTYLE
105
27
100
AcDbSymbolTableRecord
100
AcDbDimStyleTableRecord
2
Standard
70
0
3
<>
41
0.18
42
0.0625
44
0.18
140
0.18
147
0.09
73
0
74
0
77
1
271
2
275
0
278
52
280
0
340
11
0
ENDTAB
0
TABLE
2
VIEW
5
1e4
100
AcDbSymbolTable
0
ENDTAB
0
TABLE
2
UCS
5
1e5
100
AcDbSymbolTable
0
ENDTAB
0
TABLE
2
APPID
5
1e6
100
AcDbSymbolTable
0
APPID
5
12
100
AcDbSymbolTableRecord
100
AcDbRegAppTableRecord
2
ACAD
70
0
0
ENDTAB
0
TABLE
2
BLOCK_RECORD
5
1e7
100
AcDbSymbolTable
0
BLOCK_RECORD
5
1F
100
AcDbSymbolTableRecord
100
AcDbBlockTableRecord
2
*Model_Space
340
0
70
0
0
BLOCK_RECORD
5
1B
100
AcDbSymbolTableRecord
100
AcDbBlockTableRecord
2
*Paper_Space
340
0
70
0
0
BLOCK_RECORD
5
23
100
AcDbSymbolTableRecord
100
AcDbBlockTableRecord
2
*Paper_Space0
340
0
70
0
0
BLOCK_RECORD
5
133
100
AcDbSymbolTableRecord
100
AcDbBlockTableRecord
2
DimnDraft3D1
340
0
70
0
0
BLOCK_RECORD
5
141
100
AcDbSymbolTableRecord
100
AcDbBlockTableRecord
2
_CLOSED
340
0
70
0
0
BLOCK_RECORD
5
148
100
AcDbSymbolTableRecord
100
AcDbBlockTableRecord
2
DimnDraft3D2
340
0
70
0
0
BLOCK_RECORD
5
156
100
AcDbSymbolTableRecord
100
AcDbBlockTableRecord
2
DimnDraft3D3
340
0
70
0
0
BLOCK_RECORD
5
164
100
AcDbSymbolTableRecord
100
AcDbBlockTableRecord
2
DimnDraft3D4
340
0
70
0
0
BLOCK_RECORD
5
172
100
AcDbSymbolTableRecord
100
AcDbBlockTableRecord
2
DimnDraft3D5
340
0
70
0
0
BLOCK_RECORD
5
180
100
AcDbSymbolTableRecord
100
AcDbBlockTableRecord
2
DimnDraft3D6
340
0
70
0
0
ENDTAB
0
ENDSEC
0
SECTION
2
BLOCKS
0
BLOCK
5
20
100
AcDbEntity
8
0
100
AcDbBlockBegin
2
*Model_Space
70
0
10
0
20
0
30
0
3
*Model_Space
0
ENDBLK
5
21
100
AcDbEntity
8
0
100
AcDbBlockEnd
0
BLOCK
5
1C
100
AcDbEntity
8
0
100
AcDbBlockBegin
2
*Paper_Space
70
0
10
0
20
0
30
0
3
*Paper_Space
0
ENDBLK
5
1D
100
AcDbEntity
8
0
100
AcDbBlockEnd
0
BLOCK
5
24
100
AcDbEntity
8
0
100
AcDbBlockBegin
2
*Paper_Space0
70
0
10
0
20
0
30
0
3
*Paper_Space0
0
ENDBLK
5
25
100
AcDbEntity
8
0
100
AcDbBlockEnd
0
BLOCK
5
13E
100
AcDbEntity
8
0
100
AcDbBlockBegin
2
DimnDraft3D1
70
0
10
0
20
0
30
0
3
DimnDraft3D1
0
MTEXT
5
134
100
AcDbEntity
8
2
62
256
6
ByLayer
370
-1
48
1
60
0
100
AcDbMText
10
17.877961
20
36.875
30
0
210
0
220
0
230
1
1
\W01.000;\fsimplex.shx,bigfont.shx;40\P
40
4.5
41
0
44
1.084337
50
0
71
7
72
5
7
DEFAULT
0
LINE
5
135
100
AcDbEntity
8
2
62
256
6
ByLayer
370
-1
48
1
60
0
100
AcDbLine
10
40.0125
20
18
30
0
11
40.0125
21
37.75
31
0
39
0
210
0
220
0
230
1
0
LINE
5
136
100
AcDbEntity
8
2
62
256
6
ByLayer
370
-1
48
1
60
0
100
AcDbLine
10
0.0125
20
16.516678
30
0
11
0.0125
21
37.75
31
0
39
0
210
0
220
0
230
1
0
LINE
5
137
100
AcDbEntity
8
2
62
256
6
ByLayer
370
-1
48
1
60
0
100
AcDbLine
10
40.0125
20
35.75
30
0
11
0.0125
21
35.75
31
0
39
0
210
0
220
0
230
1
0
LINE
5
138
100
AcDbEntity
8
2
62
256
6
ByLayer
370
-1
48
1
60
0
100
AcDbLine
10
40.0125
20
35.75
30
0
11
36.837502
21
35.332003
31
0
39
0
210
0
220
0
230
1
0
LINE
5
139
100
AcDbEntity
8
2
62
256
6
ByLayer
370
-1
48
1
60
0
100
AcDbLine
10
40.0125
20
35.75
30
0
11
36.837498
21
36.167997
31
0
39
0
210
0
220
0
230
1
0
LINE
5
13A
100
AcDbEntity
8
2
62
256
6
ByLayer
370
-1
48
1
60
0
100
AcDbLine
10
36.837502
20
35.332003
30
0
11
36.837498
21
36.167997
31
0
39
0
210
0
220
0
230
1
0
LINE
5
13B
100
AcDbEntity
8
2
62
256
6
ByLayer
370
-1
48
1
60
0
100
AcDbLine
10
0.0125
20
35.75
30
0
11
3.187498
21
36.167997
31
0
39
0
210
0
220
0
230
1
0
LINE
5
13C
100
AcDbEntity
8
2
62
256
6
ByLayer
370
-1
48
1
60
0
100
AcDbLine
10
0.0125
20
35.75
30
0
11
3.187502
21
35.332003
31
0
39
0
210
0
220
0
230
1
0
LINE
5
13D
100
AcDbEntity
8
2
62
256
6
ByLayer
370
-1
48
1
60
0
100
AcDbLine
10
3.187498
20
36.167997
30
0
11
3.187502
21
35.332003
31
0
39
0
210
0
220
0
230
1
0
ENDBLK
5
13F
100
AcDbEntity
8
0
100
AcDbBlockEnd
0
BLOCK
5
142
100
AcDbEntity
8
0
100
AcDbBlockBegin
2
_CLOSED
70
0
10
0
20
0
30
0
3
_CLOSED
0
LINE
5
144
100
AcDbEntity
8
0
62
256
6
ByLayer
370
-2
48
1
60
0
100
AcDbLine
10
-1
20
0.166667
30
0
11
0
21
0
31
0
39
0
210
0
220
0
230
1
0
LINE
5
145
100
AcDbEntity
8
0
62
256
6
ByLayer
370
-2
48
1
60
0
100
AcDbLine
10
0
20
0
30
0
11
-1
21
-0.166667
31
0
39
0
210
0
220
0
230
1
0
LINE
5
146
100
AcDbEntity
8
0
62
256
6
ByLayer
370
-2
48
1
60
0
100
AcDbLine
10
-1
20
0.166667
30
0
11
-1
21
-0.166667
31
0
39
0
210
0
220
0
230
1
0
LINE
5
147
100
AcDbEntity
8
0
62
256
6
ByLayer
370
-2
48
1
60
0
100
AcDbLine
10
0
20
0
30
0
11
-1
21
0
31
0
39
0
210
0
220
0
230
1
0
ENDBLK
5
143
100
AcDbEntity
8
0
100
AcDbBlockEnd
0
BLOCK
5
153
100
AcDbEntity
8
0
100
AcDbBlockBegin
2
DimnDraft3D2
70
0
10
0
20
0
30
0
3
DimnDraft3D2
0
MTEXT
5
149
100
AcDbEntity
8
SK2
62
256
6
ByLayer
370
-1
48
1
60
0
100
AcDbMText
10
2.658553
20
46.875
30
0
210
0
220
0
230
1
1
\W01.000;\fsimplex.shx,bigfont.shx;64.5\P
40
4.5
41
0
44
1.084337
50
0
71
7
72
5
7
DEFAULT
0
LINE
5
14A
100
AcDbEntity
8
SK2
62
256
6
ByLayer
370
-1
48
1
60
0
100
AcDbLine
10
40.0125
20
18
30
0
11
40.0125
21
47.75
31
0
39
0
210
0
220
0
230
1
0
LINE
5
14B
100
AcDbEntity
8
SK2
62
256
6
ByLayer
370
-1
48
1
60
0
100
AcDbLine
10
-24.4875
20
17.996
30
0
11
-24.4875
21
47.75
31
0
39
0
210
0
220
0
230
1
0
LINE
5
14C
100
AcDbEntity
8
SK2
62
256
6
ByLayer
370
-1
48
1
60
0
100
AcDbLine
10
40.0125
20
45.75
30
0
11
-24.4875
21
45.75
31
0
39
0
210
0
220
0
230
1
0
LINE
5
14D
100
AcDbEntity
8
SK2
62
256
6
ByLayer
370
-1
48
1
60
0
100
AcDbLine
10
40.0125
20
45.75
30
0
11
36.837502
21
45.332003
31
0
39
0
210
0
220
0
230
1
0
LINE
5
14E
100
AcDbEntity
8
SK2
62
256
6
ByLayer
370
-1
48
1
60
0
100
AcDbLine
10
40.0125
20
45.75
30
0
11
36.837498
21
46.167997
31
0
39
0
210
0
220
0
230
1
0
LINE
5
14F
100
AcDbEntity
8
SK2
62
256
6
ByLayer
370
-1
48
1
60
0
100
AcDbLine
10
36.837502
20
45.332003
30
0
11
36.837498
21
46.167997
31
0
39
0
210
0
220
0
230
1
0
LINE
5
150
100
AcDbEntity
8
SK2
62
256
6
ByLayer
370
-1
48
1
60
0
100
AcDbLine
10
-24.4875
20
45.75
30
0
11
-21.312502
21
46.167997
31
0
39
0
210
0
220
0
230
1
0
LINE
5
151
100
AcDbEntity
8
SK2
62
256
6
ByLayer
370
-1
48
1
60
0
100
AcDbLine
10
-24.4875
20
45.75
30
0
11
-21.312498
21
45.332003
31
0
39
0
210
0
220
0
230
1
0
LINE
5
152
100
AcDbEntity
8
SK2
62
256
6
ByLayer
370
-1
48
1
60
0
100
AcDbLine
10
-21.312502
20
46.167997
30
0
11
-21.312498
21
45.332003
31
0
39
0
210
0
220
0
230
1
0
ENDBLK
5
154
100
AcDbEntity
8
0
100
AcDbBlockEnd
0
BLOCK
5
161
100
AcDbEntity
8
0
100
AcDbBlockBegin
2
DimnDraft3D3
70
0
10
0
20
0
30
0
3
DimnDraft3D3
0
MTEXT
5
157
100
AcDbEntity
8
SK2
62
256
6
ByLayer
370
-1
48
1
60
0
100
AcDbMText
10
-16.022862
20
56.875
30
0
210
0
220
0
230
1
1
\W01.000;\fsimplex.shx,bigfont.shx;100.0\P
40
4.5
41
0
44
1.084337
50
0
71
7
72
5
7
DEFAULT
0
LINE
5
158
100
AcDbEntity
8
SK2
62
256
6
ByLayer
370
-1
48
1
60
0
100
AcDbLine
10
40.0125
20
18
30
0
11
40.0125
21
57.75
31
0
39
0
210
0
220
0
230
1
0
LINE
5
159
100
AcDbEntity
8
SK2
62
256
6
ByLayer
370
-1
48
1
60
0
100
AcDbLine
10
-60
20
17.996
30
0
11
-60
21
57.75
31
0
39
0
210
0
220
0
230
1
0
LINE
5
15A
100
AcDbEntity
8
SK2
62
256
6
ByLayer
370
-1
48
1
60
0
100
AcDbLine
10
40.0125
20
55.75
30
0
11
-60
21
55.75
31
0
39
0
210
0
220
0
230
1
0
LINE
5
15B
100
AcDbEntity
8
SK2
62
256
6
ByLayer
370
-1
48
1
60
0
100
AcDbLine
10
40.0125
20
55.75
30
0
11
36.837502
21
55.332003
31
0
39
0
210
0
220
0
230
1
0
LINE
5
15C
100
AcDbEntity
8
SK2
62
256
6
ByLayer
370
-1
48
1
60
0
100
AcDbLine
10
40.0125
20
55.75
30
0
11
36.837498
21
56.167997
31
0
39
0
210
0
220
0
230
1
0
LINE
5
15D
100
AcDbEntity
8
SK2
62
256
6
ByLayer
370
-1
48
1
60
0
100
AcDbLine
10
36.837502
20
55.332003
30
0
11
36.837498
21
56.167997
31
0
39
0
210
0
220
0
230
1
0
LINE
5
15E
100
AcDbEntity
8
SK2
62
256
6
ByLayer
370
-1
48
1
60
0
100
AcDbLine
10
-60
20
55.75
30
0
11
-56.825002
21
56.167997
31
0
39
0
210
0
220
0
230
1
0
LINE
5
15F
100
AcDbEntity
8
SK2
62
256
6
ByLayer
370
-1
48
1
60
0
100
AcDbLine
10
-60
20
55.75
30
0
11
-56.824998
21
55.332003
31
0
39
0
210
0
220
0
230
1
0
LINE
5
160
100
AcDbEntity
8
SK2
62
256
6
ByLayer
370
-1
48
1
60
0
100
AcDbLine
10
-56.825002
20
56.167997
30
0
11
-56.824998
21
55.332003
31
0
39
0
210
0
220
0
230
1
0
ENDBLK
5
162
100
AcDbEntity
8
0
100
AcDbBlockEnd
0
BLOCK
5
16F
100
AcDbEntity
8
0
100
AcDbBlockBegin
2
DimnDraft3D4
70
0
10
0
20
0
30
0
3
DimnDraft3D4
0
MTEXT
5
165
100
AcDbEntity
8
2
62
256
6
ByLayer
370
-1
48
1
60
0
100
AcDbMText
10
46.53125
20
26.875
30
0
210
0
220
0
230
1
1
\W01.000;\fsimplex.shx,bigfont.shx;15.7\P
40
4.5
41
0
44
1.084337
50
0
71
7
72
5
7
DEFAULT
0
LINE
5
166
100
AcDbEntity
8
2
62
256
6
ByLayer
370
-1
48
1
60
0
100
AcDbLine
10
40.0125
20
18
30
0
11
40.0125
21
27.75
31
0
39
0
210
0
220
0
230
1
0
LINE
5
167
100
AcDbEntity
8
2
62
256
6
ByLayer
370
-1
48
1
60
0
100
AcDbLine
10
23.8125
20
18
30
0
11
23.8125
21
27.75
31
0
39
0
210
0
220
0
230
1
0
LINE
5
168
100
AcDbEntity
8
2
62
256
6
ByLayer
370
-1
48
1
60
0
100
AcDbLine
10
23.8125
20
25.75
30
0
11
56.099671
21
25.75
31
0
39
0
210
0
220
0
230
1
0
LINE
5
169
100
AcDbEntity
8
2
62
256
6
ByLayer
370
-1
48
1
60
0
100
AcDbLine
10
40.0125
20
25.75
30
0
11
36.837502
21
25.332003
31
0
39
0
210
0
220
0
230
1
0
LINE
5
16A
100
AcDbEntity
8
2
62
256
6
ByLayer
370
-1
48
1
60
0
100
AcDbLine
10
40.0125
20
25.75
30
0
11
36.837498
21
26.167997
31
0
39
0
210
0
220
0
230
1
0
LINE
5
16B
100
AcDbEntity
8
2
62
256
6
ByLayer
370
-1
48
1
60
0
100
AcDbLine
10
36.837502
20
25.332003
30
0
11
36.837498
21
26.167997
31
0
39
0
210
0
220
0
230
1
0
LINE
5
16C
100
AcDbEntity
8
2
62
256
6
ByLayer
370
-1
48
1
60
0
100
AcDbLine
10
23.8125
20
25.75
30
0
11
26.987498
21
26.167997
31
0
39
0
210
0
220
0
230
1
0
LINE
5
16D
100
AcDbEntity
8
2
62
256
6
ByLayer
370
-1
48
1
60
0
100
AcDbLine
10
23.8125
20
25.75
30
0
11
26.987502
21
25.332003
31
0
39
0
210
0
220
0
230
1
0
LINE
5
16E
100
AcDbEntity
8
2
62
256
6
ByLayer
370
-1
48
1
60
0
100
AcDbLine
10
26.987498
20
26.167997
30
0
11
26.987502
21
25.332003
31
0
39
0
210
0
220
0
230
1
0
ENDBLK
5
170
100
AcDbEntity
8
0
100
AcDbBlockEnd
0
BLOCK
5
17D
100
AcDbEntity
8
0
100
AcDbBlockBegin
2
DimnDraft3D5
70
0
10
0
20
0
30
0
3
DimnDraft3D5
0
MTEXT
5
173
100
AcDbEntity
8
SK2
62
256
6
ByLayer
370
-1
48
1
60
0
100
AcDbMText
10
-70.875
20
-4.49852
30
0
210
0
220
0
230
1
1
\W01.000;\fsimplex.shx,bigfont.shx;%%c32\P
40
4.5
41
0
44
1.084337
50
90
71
7
72
5
7
DEFAULT
0
LINE
5
174
100
AcDbEntity
8
SK2
62
256
6
ByLayer
370
-1
48
1
60
0
100
AcDbLine
10
-62
20
15.996
30
0
11
-71.75
21
15.996
31
0
39
0
210
0
220
0
230
1
0
LINE
5
175
100
AcDbEntity
8
SK2
62
256
6
ByLayer
370
-1
48
1
60
0
100
AcDbLine
10
-62
20
-15.996
30
0
11
-71.75
21
-15.996
31
0
39
0
210
0
220
0
230
1
0
LINE
5
176
100
AcDbEntity
8
SK2
62
256
6
ByLayer
370
-1
48
1
60
0
100
AcDbLine
10
-69.75
20
15.996
30
0
11
-69.75
21
-15.996
31
0
39
0
210
0
220
0
230
1
0
LINE
5
177
100
AcDbEntity
8
SK2
62
256
6
ByLayer
370
-1
48
1
60
0
100
AcDbLine
10
-69.75
20
15.996
30
0
11
-69.332003
21
12.821002
31
0
39
0
210
0
220
0
230
1
0
LINE
5
178
100
AcDbEntity
8
SK2
62
256
6
ByLayer
370
-1
48
1
60
0
100
AcDbLine
10
-69.75
20
15.996
30
0
11
-70.167997
21
12.820998
31
0
39
0
210
0
220
0
230
1
0
LINE
5
179
100
AcDbEntity
8
SK2
62
256
6
ByLayer
370
-1
48
1
60
0
100
AcDbLine
10
-69.332003
20
12.821002
30
0
11
-70.167997
21
12.820998
31
0
39
0
210
0
220
0
230
1
0
LINE
5
17A
100
AcDbEntity
8
SK2
62
256
6
ByLayer
370
-1
48
1
60
0
100
AcDbLine
10
-69.75
20
-15.996
30
0
11
-70.167997
21
-12.821002
31
0
39
0
210
0
220
0
230
1
0
LINE
5
17B
100
AcDbEntity
8
SK2
62
256
6
ByLayer
370
-1
48
1
60
0
100
AcDbLine
10
-69.75
20
-15.996
30
0
11
-69.332003
21
-12.820998
31
0
39
0
210
0
220
0
230
1
0
LINE
5
17C
100
AcDbEntity
8
SK2
62
256
6
ByLayer
370
-1
48
1
60
0
100
AcDbLine
10
-70.167997
20
-12.821002
30
0
11
-69.332003
21
-12.820998
31
0
39
0
210
0
220
0
230
1
0
ENDBLK
5
17E
100
AcDbEntity
8
0
100
AcDbBlockEnd
0
BLOCK
5
18B
100
AcDbEntity
8
0
100
AcDbBlockBegin
2
DimnDraft3D6
70
0
10
0
20
0
30
0
3
DimnDraft3D6
0
MTEXT
5
181
100
AcDbEntity
8
2
62
256
6
ByLayer
370
-1
48
1
60
0
100
AcDbMText
10
53.1375
20
-4.49852
30
0
210
0
220
0
230
1
1
\W01.000;\fsimplex.shx,bigfont.shx;%%c32\P
40
4.5
41
0
44
1.084337
50
90
71
7
72
5
7
DEFAULT
0
LINE
5
182
100
AcDbEntity
8
2
62
256
6
ByLayer
370
-1
48
1
60
0
100
AcDbLine
10
42.0125
20
16
30
0
11
56.2625
21
16
31
0
39
0
210
0
220
0
230
1
0
LINE
5
183
100
AcDbEntity
8
2
62
256
6
ByLayer
370
-1
48
1
60
0
100
AcDbLine
10
42.0125
20
-16
30
0
11
56.2625
21
-16
31
0
39
0
210
0
220
0
230
1
0
LINE
5
184
100
AcDbEntity
8
2
62
256
6
ByLayer
370
-1
48
1
60
0
100
AcDbLine
10
54.2625
20
16
30
0
11
54.2625
21
-16
31
0
39
0
210
0
220
0
230
1
0
LINE
5
185
100
AcDbEntity
8
2
62
256
6
ByLayer
370
-1
48
1
60
0
100
AcDbLine
10
54.2625
20
16
30
0
11
54.680497
21
12.825002
31
0
39
0
210
0
220
0
230
1
0
LINE
5
186
100
AcDbEntity
8
2
62
256
6
ByLayer
370
-1
48
1
60
0
100
AcDbLine
10
54.2625
20
16
30
0
11
53.844503
21
12.824998
31
0
39
0
210
0
220
0
230
1
0
LINE
5
187
100
AcDbEntity
8
2
62
256
6
ByLayer
370
-1
48
1
60
0
100
AcDbLine
10
54.680497
20
12.825002
30
0
11
53.844503
21
12.824998
31
0
39
0
210
0
220
0
230
1
0
LINE
5
188
100
AcDbEntity
8
2
62
256
6
ByLayer
370
-1
48
1
60
0
100
AcDbLine
10
54.2625
20
-16
30
0
11
53.844503
21
-12.825002
31
0
39
0
210
0
220
0
230
1
0
LINE
5
189
100
AcDbEntity
8
2
62
256
6
ByLayer
370
-1
48
1
60
0
100
AcDbLine
10
54.2625
20
-16
30
0
11
54.680497
21
-12.824998
31
0
39
0
210
0
220
0
230
1
0
LINE
5
18A
100
AcDbEntity
8
2
62
256
6
ByLayer
370
-1
48
1
60
0
100
AcDbLine
10
53.844503
20
-12.825002
30
0
11
54.680497
21
-12.824998
31
0
39
0
210
0
220
0
230
1
0
ENDBLK
5
18C
100
AcDbEntity
8
0
100
AcDbBlockEnd
0
ENDSEC
0
SECTION
2
ENTITIES
0
ARC
5
94
100
AcDbEntity
8
1
62
256
6
ByLayer
370
-1
48
1
60
0
100
AcDbCircle
39
0
10
-0.8125
20
15.316678
30
0
40
0.799999999999999
210
0
220
0
230
-1
100
AcDbArc
50
270
51
0
0
ARC
5
95
100
AcDbEntity
8
1
62
256
6
ByLayer
370
-1
48
1
60
0
100
AcDbCircle
39
0
10
-0.8125
20
-15.316678
30
0
40
0.799999999999999
210
0
220
0
230
-1
100
AcDbArc
50
0
51
90
0
ELLIPSE
5
96
100
AcDbEntity
8
1
62
256
6
ByLayer
370
-1
48
1
60
0
100
AcDbEllipse
10
23.076918
20
11.937523
30
0
11
0.0329220506064842
21
3.369260830439
31
0
210
0
220
0
230
-1
40
0.296564
41
-2.61545542345417
42
-0.794871177974498
0
ELLIPSE
5
97
100
AcDbEntity
8
1
62
256
6
ByLayer
370
-1
48
1
60
0
100
AcDbEllipse
10
24.67892
20
20.285763
30
0
11
14.0286593038637
21
5.31005820458845
31
0
210
0
220
0
230
1
40
0.994284
41
-2.21443577583039
42
-2.10468748719248
0
ELLIPSE
5
98
100
AcDbEntity
8
1
62
256
6
ByLayer
370
-1
48
1
60
0
100
AcDbEllipse
10
273.214723
20
23.501189
30
0
11
267.50964750574
21
19.6453443504799
31
0
210
0
220
0
230
-1
40
0.001408
41
-2.69998889046592
42
-2.67844259973595
0
ELLIPSE
5
99
100
AcDbEntity
8
1
62
256
6
ByLayer
370
-1
48
1
60
0
100
AcDbEllipse
10
23.076918
20
-11.937523
30
0
11
0.0329220506064991
21
-3.36926083043906
31
0
210
0
220
0
230
-1
40
0.296564
41
0.794871177974532
42
0.933662102122166
0
ELLIPSE
5
9A
100
AcDbEntity
8
1
62
256
6
ByLayer
370
-1
48
1
60
0
100
AcDbEllipse
10
32.649593
20
-9.823632
30
0
11
2
21
0
31
0
210
0
220
0
230
1
40
0.096441
41
-0.860947834553056
42
-0.138213586739635
0
ELLIPSE
5
9B
100
AcDbEntity
8
1
62
256
6
ByLayer
370
-1
48
1
60
0
100
AcDbEllipse
10
27.760507
20
6.571454
30
0
11
2.223716460401
21
1.40502959886239
31
0
210
0
220
0
230
-1
40
0.024747
41
-2.58167503213703
42
-1.90569152572519
0
ELLIPSE
5
9C
100
AcDbEntity
8
1
62
256
6
ByLayer
370
-1
48
1
60
0
100
AcDbEllipse
10
32.649593
20
-9.823632
30
0
11
1.13954060563122
21
-1.64360798492756
31
0
210
0
220
0
230
1
40
0.985847
41
0.957879099030968
42
3.11296234097299
0
ELLIPSE
5
9D
100
AcDbEntity
8
1
62
256
6
ByLayer
370
-1
48
1
60
0
100
AcDbEllipse
10
29.179603
20
-0.771599
30
0
11
0.204851302460224
21
14.9777168312764
31
0
210
0
220
0
230
-1
40
0.138427
41
2.21282251509954
42
2.24687986929565
0
ELLIPSE
5
9E
100
AcDbEntity
8
1
62
256
6
ByLayer
370
-1
48
1
60
0
100
AcDbEllipse
10
76.707279
20
0
30
0
11
383.798132381675
21
-1.45266024738781
31
0
210
0
220
0
230
-1
40
0.037634
41
1.71521558008104
42
1.7550993445678
0
ELLIPSE
5
9F
100
AcDbEntity
8
1
62
256
6
ByLayer
370
-1
48
1
60
0
100
AcDbEllipse
10
23.023311
20
9.480481
30
0
11
1.01914379730245
21
0.879177217484467
31
0
210
0
220
0
230
-1
40
0.026053
41
1.85608488638322
42
2.07982558379104
0
ELLIPSE
5
A0
100
AcDbEntity
8
1
62
256
6
ByLayer
370
-1
48
1
60
0
100
AcDbEllipse
10
-44.161374
20
-0.970993
30
0
11
229.898953240158
21
14.9633613764279
31
0
210
0
220
0
230
-1
40
0.00667
41
-1.26395850553915
42
-1.20198343080517
0
ELLIPSE
5
A1
100
AcDbEntity
8
1
62
256
6
ByLayer
370
-1
48
1
60
0
100
AcDbEllipse
10
31.188548
20
6.807896
30
0
11
0.0386087211016323
21
-1.2502828167294
31
0
210
0
220
0
230
-1
40
0.16282
41
-1.02861225593919
42
-0.754813904290687
0
ELLIPSE
5
A2
100
AcDbEntity
8
1
62
256
6
ByLayer
370
-1
48
1
60
0
100
AcDbEllipse
10
76.707279
20
0
30
0
11
383.798132002399
21
1.45266024990545
31
0
210
0
220
0
230
-1
40
0.037634
41
-1.75509934447105
42
-1.71521557994563
0
ELLIPSE
5
A3
100
AcDbEntity
8
1
62
256
6
ByLayer
370
-1
48
1
60
0
100
AcDbEllipse
10
20.407904
20
6.141234
30
0
11
0.550867840391571
21
1.92264001373693
31
0
210
0
220
0
230
1
40
0.064073
41
-1.96062893393285
42
-1.65648348460957
0
ELLIPSE
5
A4
100
AcDbEntity
8
1
62
256
6
ByLayer
370
-1
48
1
60
0
100
AcDbEllipse
10
26.438438
20
5.655168
30
0
11
3.55794527801134
21
2.24804670149234
31
0
210
0
220
0
230
-1
40
0.024747
41
-1.77417491528896
42
-1.71904439068196
0
ELLIPSE
5
A5
100
AcDbEntity
8
1
62
256
6
ByLayer
370
-1
48
1
60
0
100
AcDbEllipse
10
14.74777
20
7.762955
30
0
11
0.550867840391571
21
1.92264001373693
31
0
210
0
220
0
230
1
40
0.064073
41
-1.99265833942908
42
-1.65648348460957
0
ELLIPSE
5
A6
100
AcDbEntity
8
1
62
256
6
ByLayer
370
-1
48
1
60
0
100
AcDbEllipse
10
33.218115
20
-0.771598
30
0
11
0.204803041244019
21
14.9741932660791
31
0
210
0
220
0
230
-1
40
0.138427
41
2.21303767485785
42
2.29794953640626
0
ELLIPSE
5
A7
100
AcDbEntity
8
1
62
256
6
ByLayer
370
-1
48
1
60
0
100
AcDbEllipse
10
32.649593
20
-9.823632
30
0
11
2
21
0
31
0
210
0
220
0
230
1
40
0.096441
41
-2.90578082917971
42
-2.55707199251602
0
ELLIPSE
5
A8
100
AcDbEntity
8
1
62
256
6
ByLayer
370
-1
48
1
60
0
100
AcDbEllipse
10
32.467335
20
-9.949995
30
0
11
0.854655454223414
21
-1.23270598869567
31
0
210
0
220
0
230
1
40
0.985847
41
0.95787909903095
42
-2.18371355455882
0
ELLIPSE
5
A9
100
AcDbEntity
8
1
62
256
6
ByLayer
370
-1
48
1
60
0
100
AcDbEllipse
10
25.582647
20
5.596142
30
0
11
-0.137619223664298
21
1.99525961951773
31
0
210
0
220
0
230
1
40
0.030998
41
-1.85450442188755
42
-1.72832502421078
0
ELLIPSE
5
AA
100
AcDbEntity
8
1
62
256
6
ByLayer
370
-1
48
1
60
0
100
AcDbEllipse
10
25.14092
20
7.488067
30
0
11
-1.22774334838063
21
1.57881166403948
31
0
210
0
220
0
230
1
40
0.876413
41
1.72778514645622
42
3.03341010814061
0
ELLIPSE
5
AB
100
AcDbEntity
8
1
62
256
6
ByLayer
370
-1
48
1
60
0
100
AcDbEllipse
10
19.018786
20
21.907484
30
0
11
14.0286593038637
21
5.31005820458846
31
0
210
0
220
0
230
1
40
0.994284
41
-2.9416590925893
42
-2.21443577583039
0
ELLIPSE
5
AC
100
AcDbEntity
8
1
62
256
6
ByLayer
370
-1
48
1
60
0
100
AcDbEllipse
10
24.779334
20
-10.303499
30
0
11
0.954331525862857
21
6.38252349161126
31
0
210
0
220
0
230
-1
40
0.046807
41
-2.08756015777571
42
-2.06642315938143
0
ELLIPSE
5
AD
100
AcDbEntity
8
1
62
256
6
ByLayer
370
-1
48
1
60
0
100
AcDbEllipse
10
23.620336
20
6.305603
30
0
11
-1.22774334838063
21
1.57881166403948
31
0
210
0
220
0
230
1
40
0.876413
41
1.6462406718163
42
1.6874077403784
0
ELLIPSE
5
AE
100
AcDbEntity
8
1
62
256
6
ByLayer
370
-1
48
1
60
0
100
AcDbEllipse
10
2.329739
20
0.028047
30
0
11
99.9969072523835
21
-10.2418189457271
31
0
210
0
220
0
230
-1
40
0.115408
41
1.19611466480233
42
1.29346854485973
0
ELLIPSE
5
AF
100
AcDbEntity
8
1
62
256
6
ByLayer
370
-1
48
1
60
0
100
AcDbEllipse
10
33.704778
20
6.981449
30
0
11
0.038608721105496
21
-1.25028281675503
31
0
210
0
220
0
230
-1
40
0.16282
41
-0.916197284486786
42
-0.776360179181076
0
ELLIPSE
5
B0
100
AcDbEntity
8
1
62
256
6
ByLayer
370
-1
48
1
60
0
100
AcDbEllipse
10
34.481885
20
0
30
0
11
49.8291909606991
21
-14.4677396899271
31
0
210
0
220
0
230
-1
40
0.023901
41
-2.00852676129159
42
-1.88694927188489
0
ELLIPSE
5
B1
100
AcDbEntity
8
1
62
256
6
ByLayer
370
-1
48
1
60
0
100
AcDbEllipse
10
24.974401
20
7.354256
30
0
11
1.24345040693786
21
-1.54739217331549
31
0
210
0
220
0
230
1
40
0.481513
41
-0.0076869123916045
42
0.396464644437509
0
ELLIPSE
5
B2
100
AcDbEntity
8
1
62
256
6
ByLayer
370
-1
48
1
60
0
100
AcDbEllipse
10
24.779334
20
-13.352287
30
0
11
1.00000000000001
21
0
31
0
210
0
220
0
230
1
40
0.096441
41
2.62159828910616
42
-2.39094238541417
0
ELLIPSE
5
B3
100
AcDbEntity
8
1
62
256
6
ByLayer
370
-1
48
1
60
0
100
AcDbEllipse
10
23.630576
20
7.326888
30
0
11
1.5939432358133
21
1.70369917645851
31
0
210
0
220
0
230
-1
40
0.853317
41
3.11050181082874
42
-1.45434647625091
0
ELLIPSE
5
B4
100
AcDbEntity
8
SK1
62
256
6
ByLayer
370
-1
48
1
60
0
100
AcDbEllipse
10
-54.547052
20
0
30
0
11
16.2776478579782
21
1.64508266501505E-14
31
0
210
0
220
0
230
-1
40
0.982697
41
-0.522546609962871
42
0.522546609962874
0
ELLIPSE
5
B5
100
AcDbEntity
8
SK1
62
256
6
ByLayer
370
-1
48
1
60
0
100
AcDbEllipse
10
-31.522052
20
0
30
0
11
16.2776478579806
21
1.6450826650153E-14
31
0
210
0
220
0
230
-1
40
0.982697
41
-0.522546609962799
42
0.5225466099628
0
ELLIPSE
5
B6
100
AcDbEntity
8
SK1
62
256
6
ByLayer
370
-1
48
1
60
0
100
AcDbEllipse
10
-17.452948
20
0
30
0
11
16.277647857979
21
1.64508266501513E-14
31
0
210
0
220
0
230
-1
40
0.982697
41
2.61904604362694
42
-2.61904604362693
0
ELLIPSE
5
B7
100
AcDbEntity
8
1
62
256
6
ByLayer
370
-1
48
1
60
0
100
AcDbEllipse
10
31.434752
20
10.920969
30
0
11
1.495647044891
21
2.1572354802174
31
0
210
0
220
0
230
1
40
0.985847
41
0.0310419314565592
42
-3.14157387822694
0
ELLIPSE
5
B8
100
AcDbEntity
8
1
62
256
6
ByLayer
370
-1
48
1
60
0
100
AcDbEllipse
10
31.39342
20
10.949625
30
0
11
0.955219912670388
21
1.37775439336551
31
0
210
0
220
0
230
1
40
0.985847
41
2.18371355455884
42
-3.05506474910549
0
ELLIPSE
5
B9
100
AcDbEntity
8
1
62
256
6
ByLayer
370
-1
48
1
60
0
100
AcDbEllipse
10
31.39342
20
10.949625
30
0
11
0.955219912670388
21
1.37775439336551
31
0
210
0
220
0
230
1
40
0.985847
41
-2.00228610254621
42
-0.957879099030952
0
ELLIPSE
5
BA
100
AcDbEntity
8
1
62
256
6
ByLayer
370
-1
48
1
60
0
100
AcDbEllipse
10
31.589748
20
10.813508
30
0
11
0.687427870347046
21
0.991506516907541
31
0
210
0
220
0
230
1
40
0.985847
41
2.70591705631646
42
-2.85325087932052
0
ELLIPSE
5
BB
100
AcDbEntity
8
1
62
256
6
ByLayer
370
-1
48
1
60
0
100
AcDbEllipse
10
30.900788
20
9.61277
30
0
11
-0.166372928422161
21
-0.239966765799422
31
0
210
0
220
0
230
1
40
0.985847
41
-1.21966624089413
42
-0.432062232895863
0
ELLIPSE
5
BC
100
AcDbEntity
8
1
62
256
6
ByLayer
370
-1
48
1
60
0
100
AcDbEllipse
10
31.589748
20
10.813508
30
0
11
0.687427870347046
21
0.991506516907541
31
0
210
0
220
0
230
1
40
0.985847
41
0.543884594352059
42
0.681949861175829
0
ELLIPSE
5
BD
100
AcDbEntity
8
1
62
256
6
ByLayer
370
-1
48
1
60
0
100
AcDbEllipse
10
31.431368
20
10.923315
30
0
11
1.495647044891
21
2.1572354802174
31
0
210
0
220
0
230
1
40
0.985847
41
-0.0727288470784313
42
0
0
ELLIPSE
5
BE
100
AcDbEntity
8
1
62
256
6
ByLayer
370
-1
48
1
60
0
100
AcDbEllipse
10
31.431368
20
10.923315
30
0
11
1.495647044891
21
2.1572354802174
31
0
210
0
220
0
230
1
40
0.985847
41
0
42
-3.0989659447155
0
ELLIPSE
5
BF
100
AcDbEntity
8
1
62
256
6
ByLayer
370
-1
48
1
60
0
100
AcDbEllipse
10
31.589748
20
10.813508
30
0
11
-0.687427870347045
21
-0.991506516907543
31
0
210
0
220
0
230
1
40
0.985847
41
-1.48008260078859
42
-0.435675597273331
0
ELLIPSE
5
C0
100
AcDbEntity
8
1
62
256
6
ByLayer
370
-1
48
1
60
0
100
AcDbEllipse
10
32.278708
20
12.014246
30
0
11
-0.166372928422161
21
-0.239966765799422
31
0
210
0
220
0
230
1
40
0.985847
41
-2.71270415051911
42
-1.73741409090462
0
ELLIPSE
5
C1
100
AcDbEntity
8
1
62
256
6
ByLayer
370
-1
48
1
60
0
100
AcDbEllipse
10
31.39342
20
10.949625
30
0
11
0.955219912670388
21
1.37775439336551
31
0
210
0
220
0
230
1
40
0.985847
41
0.0865279044843077
42
1.13930655104358
0
ELLIPSE
5
C2
100
AcDbEntity
8
1
62
256
6
ByLayer
370
-1
48
1
60
0
100
AcDbEllipse
10
31.430805
20
10.923705
30
0
11
0.687427870347046
21
0.991506516907541
31
0
210
0
220
0
230
1
40
0.985847
41
0.543884594352047
42
0.681949861175845
0
ELLIPSE
5
C3
100
AcDbEntity
8
1
62
256
6
ByLayer
370
-1
48
1
60
0
100
AcDbEllipse
10
31.39342
20
10.949625
30
0
11
0.955219912670388
21
1.37775439336551
31
0
210
0
220
0
230
1
40
0.985847
41
1.13930655104358
42
2.18371355455884
0
ELLIPSE
5
C4
100
AcDbEntity
8
1
62
256
6
ByLayer
370
-1
48
1
60
0
100
AcDbEllipse
10
33.214377
20
11.774864
30
0
11
-0.390862427731515
21
-0.563757538830149
31
0
210
0
220
0
230
1
40
0.985847
41
-9.32789930667751E-06
42
0.348315046347475
0
ELLIPSE
5
C5
100
AcDbEntity
8
1
62
256
6
ByLayer
370
-1
48
1
60
0
100
AcDbEllipse
10
31.589748
20
10.813508
30
0
11
-0.687427870347045
21
-0.991506516907543
31
0
210
0
220
0
230
1
40
0.985847
41
2.01039058585061
42
2.59339803626751
0
ELLIPSE
5
C6
100
AcDbEntity
8
1
62
256
6
ByLayer
370
-1
48
1
60
0
100
AcDbEllipse
10
29.965118
20
9.852151
30
0
11
-0.390862427731515
21
-0.563757538830149
31
0
210
0
220
0
230
1
40
0.985847
41
1.92192641269567
42
2.70591705631647
0
ELLIPSE
5
C7
100
AcDbEntity
8
1
62
256
6
ByLayer
370
-1
48
1
60
0
100
AcDbEllipse
10
31.589748
20
10.813508
30
0
11
-0.687427870347045
21
-0.991506516907543
31
0
210
0
220
0
230
1
40
0.985847
41
0.761554233343014
42
1.33586753018199
0
ELLIPSE
5
C8
100
AcDbEntity
8
1
62
256
6
ByLayer
370
-1
48
1
60
0
100
AcDbEllipse
10
31.589748
20
12.689283
30
0
11
-0.390862427731515
21
-0.563757538830149
31
0
210
0
220
0
230
1
40
0.985847
41
0.734531268980811
42
1.40417856268519
0
ELLIPSE
5
C9
100
AcDbEntity
8
1
62
256
6
ByLayer
370
-1
48
1
60
0
100
AcDbEllipse
10
30.900788
20
11.995761
30
0
11
-0.166372928422161
21
-0.239966765799422
31
0
210
0
220
0
230
1
40
0.985847
41
-2.9890463623578
42
-0.696091957167785
0
ELLIPSE
5
CA
100
AcDbEntity
8
1
62
256
6
ByLayer
370
-1
48
1
60
0
100
AcDbEllipse
10
31.589748
20
12.689283
30
0
11
-0.390862427731515
21
-0.563757538830149
31
0
210
0
220
0
230
1
40
0.985847
41
1.27369485946997E-06
42
0.491303186547074
0
ELLIPSE
5
CB
100
AcDbEntity
8
1
62
256
6
ByLayer
370
-1
48
1
60
0
100
AcDbEllipse
10
31.589748
20
10.813508
30
0
11
-0.687427870347045
21
-0.991506516907543
31
0
210
0
220
0
230
1
40
0.985847
41
2.98550493084857
42
-2.59770805923773
0
ELLIPSE
5
CC
100
AcDbEntity
8
1
62
256
6
ByLayer
370
-1
48
1
60
0
100
AcDbEllipse
10
31.39342
20
10.949625
30
0
11
0.955219912670388
21
1.37775439336551
31
0
210
0
220
0
230
1
40
0.985847
41
-0.957879099030952
42
0.0865279044843067
0
ELLIPSE
5
CD
100
AcDbEntity
8
1
62
256
6
ByLayer
370
-1
48
1
60
0
100
AcDbEllipse
10
31.39342
20
10.949625
30
0
11
0.955219912670388
21
1.37775439336551
31
0
210
0
220
0
230
1
40
0.985847
41
-3.05506474910549
42
-2.00228610254621
0
ELLIPSE
5
CE
100
AcDbEntity
8
1
62
256
6
ByLayer
370
-1
48
1
60
0
100
AcDbEllipse
10
31.430805
20
10.923705
30
0
11
0.687427870347046
21
0.991506516907541
31
0
210
0
220
0
230
1
40
0.985847
41
-2.59770805923775
42
-2.45964279241395
0
ELLIPSE
5
CF
100
AcDbEntity
8
1
62
256
6
ByLayer
370
-1
48
1
60
0
100
AcDbEllipse
10
29.965118
20
11.731276
30
0
11
-0.390862427731515
21
-0.563757538830149
31
0
210
0
220
0
230
1
40
0.985847
41
0.877519409180412
42
1.66151005280121
0
ELLIPSE
5
D0
100
AcDbEntity
8
1
62
256
6
ByLayer
370
-1
48
1
60
0
100
AcDbEllipse
10
29.965118
20
9.852151
30
0
11
-0.390862427731515
21
-0.563757538830149
31
0
210
0
220
0
230
1
40
0.985847
41
2.70591705631647
42
3.14158263688008
0
ELLIPSE
5
D1
100
AcDbEntity
8
1
62
256
6
ByLayer
370
-1
48
1
60
0
100
AcDbEllipse
10
30.218451
20
10.795112
30
0
11
-0.166372928422161
21
-0.239966765799422
31
0
210
0
220
0
230
1
40
0.985847
41
-2.26407324440939
42
-0.476588749717074
0
ELLIPSE
5
D2
100
AcDbEntity
8
1
62
256
6
ByLayer
370
-1
48
1
60
0
100
AcDbEllipse
10
31.39342
20
10.949625
30
0
11
1.02558654506812
21
1.47924718643479
31
0
210
0
220
0
230
1
40
0.985847
41
0
42
6.28318530717959
0
ELLIPSE
5
D3
100
AcDbEntity
8
1
62
256
6
ByLayer
370
-1
48
1
60
0
100
AcDbEllipse
10
31.589748
20
10.813508
30
0
11
-0.687427870347045
21
-0.991506516907543
31
0
210
0
220
0
230
1
40
0.985847
41
-2.45964279241396
42
-1.48008260078859
0
ELLIPSE
5
D4
100
AcDbEntity
8
1
62
256
6
ByLayer
370
-1
48
1
60
0
100
AcDbEllipse
10
29.965118
20
11.731276
30
0
11
-0.390862427731515
21
-0.563757538830149
31
0
210
0
220
0
230
1
40
0.985847
41
1.66151005280121
42
2.44550069642201
0
ELLIPSE
5
D5
100
AcDbEntity
8
1
62
256
6
ByLayer
370
-1
48
1
60
0
100
AcDbEllipse
10
32.302728
20
-10.319187
30
0
11
-0.769189908801087
21
1.10943538982609
31
0
210
0
220
0
230
1
40
0.985847
41
-2.97510343770486
42
0
0
ELLIPSE
5
D6
100
AcDbEntity
8
1
62
256
6
ByLayer
370
-1
48
1
60
0
100
AcDbEllipse
10
32.302728
20
-10.319187
30
0
11
-0.769189908801087
21
1.10943538982609
31
0
210
0
220
0
230
1
40
0.985847
41
0
42
0.807963254255755
0
POINT
5
42
100
AcDbEntity
8
SK2
62
256
6
ByLayer
370
-1
48
1
60
0
100
AcDbPoint
10
21.5125
20
5.160969
30
0
39
0
210
0
220
0
230
1
50
360
0
POINT
5
44
100
AcDbEntity
8
2
62
256
6
ByLayer
370
-1
48
1
60
0
100
AcDbPoint
10
40.0125
20
15.88
30
0
39
0
210
0
220
0
230
1
50
360
0
POINT
5
46
100
AcDbEntity
8
80
62
256
6
ByLayer
370
-1
48
1
60
0
100
AcDbPoint
10
0
20
0
30
0
39
0
210
0
220
0
230
1
50
360
0
POINT
5
48
100
AcDbEntity
8
81
62
256
6
ByLayer
370
-1
48
1
60
0
100
AcDbPoint
10
40.0125
20
15.88
30
0
39
0
210
0
220
0
230
1
50
360
0
SPLINE
5
D7
100
AcDbEntity
8
1
62
256
6
ByLayer
370
-1
48
1
60
0
100
AcDbSpline
70
4
71
3
72
16
73
12
40
0
40
0
40
0
40
0
40
0.0042051774509362
40
0.0042051774509362
40
0.306882885446028
40
0.306882885446028
40
0.624535133192007
40
0.624535133192007
40
0.869076327623093
40
0.869076327623093
40
1
40
1
40
1
40
1
41
1
10
6.31815236250409
20
13.9329787338075
30
-3E-16
41
1
10
6.31403499155508
20
13.9329342625003
30
-3E-16
41
1
10
6.30991724927873
20
13.932892419983
30
-3E-16
41
1
10
6.01313558389984
20
13.93006631687
30
-3E-16
41
1
10
5.71511292856516
20
13.9409482621186
30
-3E-16
41
1
10
5.14062054658461
20
13.9876093674124
30
1E-16
41
1
10
4.85671217139623
20
14.025336817966
30
1E-16
41
1
10
4.42470769359036
20
14.1064111094902
30
0
41
1
10
4.25562841297872
20
14.1473823984148
30
0
41
1
10
4.05379006487297
20
14.2112128395085
30
0
41
1
10
3.99329810867846
20
14.2339496150437
30
0
41
1
10
3.94502693535097
20
14.2562205383317
30
0
0
SPLINE
5
D8
100
AcDbEntity
8
1
62
256
6
ByLayer
370
-1
48
1
60
0
100
AcDbSpline
70
4
71
3
72
8
73
4
40
0
40
0
40
0
40
0
40
1
40
1
40
1
40
1
41
1
10
38.6297957789662
20
5.41434714229263
30
-1E-16
41
1
10
38.6285785108348
20
5.56082682288218
30
-1E-16
41
1
10
38.6273148446309
20
5.70730347965116
30
-1E-16
41
1
10
38.6260349057904
20
5.85377907577279
30
-1E-16
0
SPLINE
5
D9
100
AcDbEntity
8
1
62
256
6
ByLayer
370
-1
48
1
60
0
100
AcDbSpline
70
4
71
3
72
10
73
6
40
0
40
0
40
0
40
0
40
0.435935262355642
40
0.435935262355642
40
1
40
1
40
1
40
1
41
1
10
30.9107871099683
20
-11.4338309194669
30
-6E-16
41
1
10
30.8085709698317
20
-11.2712647500112
30
-6E-16
41
1
10
30.7384877986484
20
-11.0935227061055
30
-6E-16
41
1
10
30.6437448483711
20
-10.672071674317
30
-6E-16
41
1
10
30.6369713296855
20
-10.4196471366535
30
-6E-16
41
1
10
30.6686655324692
20
-10.1659174401379
30
-6E-16
0
SPLINE
5
DA
100
AcDbEntity
8
1
62
256
6
ByLayer
370
-1
48
1
60
0
100
AcDbSpline
70
4
71
3
72
18
73
14
40
0
40
0
40
0
40
0
40
0.0035263028569552
40
0.0035263028569552
40
0.257340387743273
40
0.257340387743273
40
0.523711555635938
40
0.523711555635938
40
0.728774557773314
40
0.728774557773314
40
0.935856234740292
40
0.935856234740292
40
1
40
1
40
1
40
1
41
1
10
6.31815236250341
20
-13.9329787338077
30
-3E-16
41
1
10
6.31403499155462
20
-13.9329342625005
30
-3E-16
41
1
10
6.30991724927847
20
-13.9328924199831
30
-3E-16
41
1
10
6.01313558389981
20
-13.9300663168702
30
-3E-16
41
1
10
5.71511292856513
20
-13.9409482621189
30
-3E-16
41
1
10
5.14062054658459
20
-13.9876093674126
30
1E-16
41
1
10
4.8567121713962
20
-14.0253368179662
30
1E-16
41
1
10
4.42470769359031
20
-14.1064111094904
30
0
41
1
10
4.25562841297867
20
-14.147382398415
30
0
41
1
10
3.99158484845697
20
-14.2308849505789
30
0
41
1
10
3.89370070357492
20
-14.2746713233596
30
0
41
1
10
3.83269510047339
20
-14.3258303966801
30
0
41
1
10
3.82291177754681
20
-14.3376629657981
30
0
41
1
10
3.81811636716381
20
-14.3489488692783
30
0
0
SPLINE
5
DB
100
AcDbEntity
8
1
62
256
6
ByLayer
370
-1
48
1
60
0
100
AcDbSpline
70
4
71
3
72
8
73
4
40
0
40
0
40
0
40
0
40
1
40
1
40
1
40
1
41
1
10
22.0848662435308
20
5.57623597644246
30
-2E-16
41
1
10
22.1528148410193
20
5.41256089380678
30
-2E-16
41
1
10
22.2359571749039
20
5.25577192110308
30
-2E-16
41
1
10
22.3331188134673
20
5.11365428776779
30
-2E-16
0
SPLINE
5
DC
100
AcDbEntity
8
1
62
256
6
ByLayer
370
-1
48
1
60
0
100
AcDbSpline
70
4
71
3
72
10
73
6
40
0
40
0
40
0
40
0
40
0.5
40
0.5
40
1
40
1
40
1
40
1
41
1
10
25.2170571906807
20
-11.1696363899324
30
9E-16
41
1
10
24.6796887381327
20
-9.04651056691574
30
8E-16
41
1
10
24.0527142489282
20
-6.37286839129379
30
8E-16
41
1
10
22.7849613245536
20
-0.684114149526067
30
7E-16
41
1
10
22.1461765212726
20
2.32306275585657
30
7E-16
41
1
10
21.6045700520219
20
5.04107481538756
30
6E-16
0
SPLINE
5
DD
100
AcDbEntity
8
1
62
256
6
ByLayer
370
-1
48
1
60
0
100
AcDbSpline
70
4
71
3
72
8
73
4
40
0
40
0
40
0
40
0
40
1
40
1
40
1
40
1
41
1
10
38.6260349057904
20
5.85377907577268
30
-1E-16
41
1
10
38.6259962841844
20
4.98552523421586
30
-1E-16
41
1
10
38.6259553866688
20
4.08879355448209
30
-1E-16
41
1
10
38.6259123487266
20
3.16447644985774
30
-1E-16
0
SPLINE
5
DE
100
AcDbEntity
8
1
62
256
6
ByLayer
370
-1
48
1
60
0
100
AcDbSpline
70
4
71
3
72
8
73
4
40
0
40
0
40
0
40
0
40
1
40
1
40
1
40
1
41
1
10
25.0223705514239
20
-13.3347647733407
30
0
41
1
10
25.0871667704241
20
-13.3432773288799
30
0
41
1
10
25.1520724179527
20
-13.3521562091965
30
0
41
1
10
25.2170571906728
20
-13.3613653783481
30
0
0
SPLINE
5
DF
100
AcDbEntity
8
1
62
256
6
ByLayer
370
-1
48
1
60
0
100
AcDbSpline
70
4
71
3
72
10
73
6
40
0
40
0
40
0
40
0
40
0.590614107964057
40
0.590614107964057
40
1
40
1
40
1
40
1
41
1
10
23.1285043317046
20
-13.6276241828785
30
-1E-16
41
1
10
23.0288529131171
20
-13.6654546934937
30
-2E-16
41
1
10
22.9306602110511
20
-13.7152133159954
30
-2E-16
41
1
10
22.7778545672455
20
-13.8153378267804
30
-2E-16
41
1
10
22.7182824190773
20
-13.8612639024179
30
-2E-16
41
1
10
22.663139334687
20
-13.9108543636275
30
-2E-16
0
SPLINE
5
E0
100
AcDbEntity
8
1
62
256
6
ByLayer
370
-1
48
1
60
0
100
AcDbSpline
70
4
71
3
72
8
73
4
40
0
40
0
40
0
40
0
40
1
40
1
40
1
40
1
41
1
10
25.1834622198305
20
5.01047361614627
30
9E-16
41
1
10
23.9787808293169
20
4.9346213194205
30
8E-16
41
1
10
22.7778530906323
20
4.98155555528356
30
7E-16
41
1
10
21.5807679491095
20
5.15267202189952
30
6E-16
0
SPLINE
5
E1
100
AcDbEntity
8
1
62
256
6
ByLayer
370
-1
48
1
60
0
100
AcDbSpline
70
4
71
3
72
26
73
22
40
0
40
0
40
0
40
0
40
0.125736488914932
40
0.125736488914932
40
0.2568650892278
40
0.2568650892278
40
0.364069455963507
40
0.364069455963507
40
0.455031187231934
40
0.455031187231934
40
0.546651165296799
40
0.546651165296799
40
0.62815586202007
40
0.62815586202007
40
0.70542150719725
40
0.70542150719725
40
0.78617116778127
40
0.78617116778127
40
0.899149403985815
40
0.899149403985815
40
1
40
1
40
1
40
1
41
1
10
30.7174191976242
20
-9.76325674236739
30
-6E-16
41
1
10
30.7455008400849
20
-9.52394740443665
30
-6E-16
41
1
10
30.8098530040542
20
-9.27944057999818
30
-6E-16
41
1
10
31.020207809706
20
-8.79889289012291
30
-6E-16
41
1
10
31.1726428593017
20
-8.55802243618353
30
-5E-16
41
1
10
31.5280379089324
20
-8.17419324641017
30
-5E-16
41
1
10
31.7210237370408
20
-8.01753542379186
30
-5E-16
41
1
10
32.1207289042069
20
-7.79310777150809
30
-5E-16
41
1
10
32.3256643648852
20
-7.71327895442269
30
-5E-16
41
1
10
32.75015347454
20
-7.62287869533432
30
-4E-16
41
1
10
32.9763905267239
20
-7.61186465605485
30
-4E-16
41
1
10
33.3859243243019
20
-7.66461289611956
30
-4E-16
41
1
10
33.5768377261082
20
-7.72112334395933
30
-4E-16
41
1
10
33.9109486237866
20
-7.88183611162091
30
-4E-16
41
1
10
34.060380672456
20
-7.98529361288305
30
-4E-16
41
1
10
34.3191670548247
20
-8.22712116503382
30
-3E-16
41
1
10
34.4296758152971
20
-8.36948919212057
30
-3E-16
41
1
10
34.6345393198146
20
-8.72583683172002
30
-3E-16
41
1
10
34.7090596825677
20
-8.95126645493519
30
-3E-16
41
1
10
34.7762349415232
20
-9.3715041700986
30
-3E-16
41
1
10
34.7778821129421
20
-9.57107402554155
30
-3E-16
41
1
10
34.7552675148558
20
-9.76371721442328
30
-3E-16
0
SPLINE
5
E2
100
AcDbEntity
8
1
62
256
6
ByLayer
370
-1
48
1
60
0
100
AcDbSpline
70
4
71
3
72
8
73
4
40
0
40
0
40
0
40
0
40
1
40
1
40
1
40
1
41
1
10
25.665320445092
20
5.28734239401641
30
0
41
1
10
25.5227587437532
20
5.19624509923551
30
0
41
1
10
25.3803471717871
20
5.10492080093417
30
0
41
1
10
25.2388527196358
20
5.01377248807773
30
0
0
SPLINE
5
E3
100
AcDbEntity
8
1
62
256
6
ByLayer
370
-1
48
1
60
0
100
AcDbSpline
70
4
71
3
72
10
73
6
40
0
40
0
40
0
40
0
40
0.99642010444384
40
0.99642010444384
40
1
40
1
40
1
40
1
41
1
10
34.6305203233748
20
-10.7468063007375
30
-3E-16
41
1
10
34.5962490791866
20
-10.996814304512
30
-3E-16
41
1
10
34.513123907569
20
-11.2395287294952
30
-3E-16
41
1
10
34.3722978771097
20
-11.4550636394453
30
-3E-16
41
1
10
34.3717852152647
20
-11.4558467566545
30
-3E-16
41
1
10
34.3712717832452
20
-11.4566295369514
30
-3E-16
0
SPLINE
5
E4
100
AcDbEntity
8
1
62
256
6
ByLayer
370
-1
48
1
60
0
100
AcDbSpline
70
4
71
3
72
8
73
4
40
0
40
0
40
0
40
0
40
1
40
1
40
1
40
1
41
1
10
3.81811636716381
20
-14.3489488692785
30
0
41
1
10
3.7116647576357
20
-14.5994806266247
30
0
41
1
10
3.74118518891211
20
-14.5648787841404
30
0
41
1
10
3.94145751687367
20
-14.2640413633049
30
-2E-16
0
SPLINE
5
E5
100
AcDbEntity
8
1
62
256
6
ByLayer
370
-1
48
1
60
0
100
AcDbSpline
70
4
71
3
72
18
73
14
40
0
40
0
40
0
40
0
40
0.145618867450386
40
0.145618867450386
40
0.322122002389717
40
0.322122002389717
40
0.499659513960823
40
0.499659513960823
40
0.680610774430297
40
0.680610774430297
40
0.865700507017851
40
0.865700507017851
40
1
40
1
40
1
40
1
41
1
10
22.3867722913436
20
-14.3042439043032
30
-2E-16
41
1
10
22.3260624644193
20
-14.2747794416091
30
-2E-16
41
1
10
22.2737363245814
20
-14.2445999368599
30
-2E-16
41
1
10
22.1832515594265
20
-14.1794161302827
30
-2E-16
41
1
10
22.1493386406426
20
-14.1438355003585
30
-2E-16
41
1
10
22.1179095490347
20
-14.0778334406279
30
-2E-16
41
1
10
22.120157668105
20
-14.0465423112887
30
-2E-16
41
1
10
22.1599508744017
20
-13.99191734717
30
-2E-16
41
1
10
22.1986836591596
20
-13.9680161158259
30
-2E-16
41
1
10
22.3076627014649
20
-13.9314103608525
30
-2E-16
41
1
10
22.3800561215972
20
-13.9184963289255
30
-2E-16
41
1
10
22.524274099387
20
-13.9083706625893
30
-2E-16
41
1
10
22.5917421185117
20
-13.9077164626944
30
-2E-16
41
1
10
22.6631393346868
20
-13.9108543636273
30
-2E-16
0
SPLINE
5
E6
100
AcDbEntity
8
1
62
256
6
ByLayer
370
-1
48
1
60
0
100
AcDbSpline
70
4
71
3
72
8
73
4
40
0
40
0
40
0
40
0
40
1
40
1
40
1
40
1
41
1
10
38.6259123487266
20
-13.8084767148313
30
-1E-16
41
1
10
38.6268713173505
20
-12.7638489057254
30
-1E-16
41
1
10
38.6278248204804
20
-11.7192210181772
30
-1E-16
41
1
10
38.6287670282046
20
-10.6745929688225
30
-1E-16
0
SPLINE
5
E7
100
AcDbEntity
8
1
62
256
6
ByLayer
370
-1
48
1
60
0
100
AcDbSpline
70
4
71
3
72
8
73
4
40
0
40
0
40
0
40
0
40
1
40
1
40
1
40
1
41
1
10
30.9107871099683
20
-11.4338309194669
30
-6E-16
41
1
10
29.0518562988774
20
-11.4215758748915
30
-7E-16
41
1
10
27.1929252611443
20
-11.4093081096134
30
-8E-16
41
1
10
25.3339940013402
20
-11.3970276891587
30
9E-16
0
SPLINE
5
E8
100
AcDbEntity
8
1
62
256
6
ByLayer
370
-1
48
1
60
0
100
AcDbSpline
70
4
71
3
72
20
73
16
40
0
40
0
40
0
40
0
40
0.0156249999999999
40
0.0156249999999999
40
0.0312499999999997
40
0.0312499999999997
40
0.0624999999999997
40
0.0624999999999997
40
0.125
40
0.125
40
0.25
40
0.25
40
0.5
40
0.5
40
1
40
1
40
1
40
1
41
1
10
37.8262553067938
20
-11.4793625016017
30
-1E-16
41
1
10
37.912611959759
20
-11.4799303396663
30
-1E-16
41
1
10
37.9240225769108
20
-11.3881476049273
30
-1E-16
41
1
10
37.9701042633973
20
-11.2736581739379
30
-1E-16
41
1
10
37.9876755169288
20
-11.2150798836991
30
-1E-16
41
1
10
38.0355063628903
20
-11.0371206750252
30
-1E-16
41
1
10
38.0600077454322
20
-10.9153894150506
30
-1E-16
41
1
10
38.1263172683593
20
-10.5451429404698
30
-1E-16
41
1
10
38.1600888535147
20
-10.2904808361361
30
-1E-16
41
1
10
38.2512466267251
20
-9.50447721159901
30
-1E-16
41
1
10
38.2969632908693
20
-8.95035432812168
30
-1E-16
41
1
10
38.4158946029355
20
-7.23372098892978
30
-1E-16
41
1
10
38.4706742588101
20
-5.9899112809868
30
-1E-16
41
1
10
38.5960755078334
20
-2.14515149689996
30
-1E-16
41
1
10
38.6257928276839
20
0.59754739956702
30
-1E-16
41
1
10
38.6259123487266
20
3.16447644985774
30
-1E-16
0
SPLINE
5
E9
100
AcDbEntity
8
1
62
256
6
ByLayer
370
-1
48
1
60
0
100
AcDbSpline
70
4
71
3
72
24
73
20
40
0
40
0
40
0
40
0
40
0.319960185834507
40
0.319960185834507
40
0.538377064485959
40
0.538377064485959
40
0.686739196145673
40
0.686739196145673
40
0.788296599694889
40
0.788296599694889
40
0.858658520410881
40
0.858658520410881
40
0.933803491168175
40
0.933803491168175
40
0.963751522179324
40
0.963751522179324
40
0.988593885493312
40
0.988593885493312
40
1
40
1
40
1
40
1
41
1
10
25.2170571906805
20
-11.1696363899324
30
9E-16
41
1
10
25.2237494917367
20
-11.1960774605228
30
9E-16
41
1
10
25.230982429799
20
-11.2223628267902
30
9E-16
41
1
10
25.2448190856403
20
-11.2661608093909
30
9E-16
41
1
10
25.2508889327049
20
-11.2838221802897
30
9E-16
41
1
10
25.2624914544902
20
-11.3131213195392
30
9E-16
41
1
10
25.2675694834776
20
-11.3248867443681
30
9E-16
41
1
10
25.2773097536848
20
-11.3443706165678
30
9E-16
41
1
10
25.2815979293496
20
-11.3522084017838
30
9E-16
41
1
10
25.2898667434315
20
-11.3651330265957
30
9E-16
41
1
10
25.2935411537457
20
-11.3703405241282
30
9E-16
41
1
10
25.3021731885489
20
-11.3806295716195
30
9E-16
41
1
10
25.3072122343569
20
-11.3858080776188
30
9E-16
41
1
10
25.3160490318835
20
-11.3917666234474
30
9E-16
41
1
10
25.3188264957239
20
-11.3933302364207
30
9E-16
41
1
10
25.3243838392801
20
-11.3955629728047
30
9E-16
41
1
10
25.3271401671622
20
-11.3963489153593
30
9E-16
41
1
10
25.3313021349423
20
-11.3969202225007
30
9E-16
41
1
10
25.3326500423005
20
-11.3970188107851
30
9E-16
41
1
10
25.3339940013329
20
-11.3970276892106
30
9E-16
0
SPLINE
5
EA
100
AcDbEntity
8
1
62
256
6
ByLayer
370
-1
48
1
60
0
100
AcDbSpline
70
4
71
3
72
8
73
4
40
0
40
0
40
0
40
0
40
1
40
1
40
1
40
1
41
1
10
21.604570052022
20
14.108334416025
30
2E-16
41
1
10
21.8652954391998
20
14.1736724723605
30
2E-16
41
1
10
22.1260296386287
20
14.2389751745315
30
-2E-16
41
1
10
22.3867722913437
20
14.304243904303
30
-2E-16
0
SPLINE
5
EB
100
AcDbEntity
8
1
62
256
6
ByLayer
370
-1
48
1
60
0
100
AcDbSpline
70
4
71
3
72
8
73
4
40
0
40
0
40
0
40
0
40
1
40
1
40
1
40
1
41
1
10
25.3339940013402
20
-13.3719045617588
30
0
41
1
10
25.7666908608922
20
-13.3886129889445
30
0
41
1
10
26.199302535651
20
-13.4057733011485
30
0
41
1
10
26.6318309750706
20
-13.4233078773839
30
1E-16
0
SPLINE
5
EC
100
AcDbEntity
8
1
62
256
6
ByLayer
370
-1
48
1
60
0
100
AcDbSpline
70
4
71
3
72
8
73
4
40
0
40
0
40
0
40
0
40
1
40
1
40
1
40
1
41
1
10
21.4178137595805
20
5.17520739652866
30
6E-16
41
1
10
21.4726248370363
20
5.16681182779524
30
6E-16
41
1
10
21.52751004538
20
5.15923181998548
30
6E-16
41
1
10
21.5807679491095
20
5.15267202189952
30
6E-16
0
SPLINE
5
ED
100
AcDbEntity
8
1
62
256
6
ByLayer
370
-1
48
1
60
0
100
AcDbSpline
70
4
71
3
72
8
73
4
40
0
40
0
40
0
40
0
40
1
40
1
40
1
40
1
41
1
10
21.6045700520219
20
-14.1083344160252
30
2E-16
41
1
10
21.8652954391997
20
-14.1736724723607
30
2E-16
41
1
10
22.1260296386287
20
-14.2389751745318
30
-2E-16
41
1
10
22.3867722913436
20
-14.3042439043032
30
-2E-16
0
SPLINE
5
EE
100
AcDbEntity
8
1
62
256
6
ByLayer
370
-1
48
1
60
0
100
AcDbSpline
70
4
71
3
72
14
73
10
40
0
40
0
40
0
40
0
40
0.16170620857774
40
0.16170620857774
40
0.44113747238516
40
0.44113747238516
40
0.72056873619258
40
0.72056873619258
40
1
40
1
40
1
40
1
41
1
10
3.76136080694377
20
14.5153639436623
30
0
41
1
10
3.77906873480109
20
14.5084177811824
30
0
41
1
10
3.85900189691446
20
14.3884681927092
30
-1E-16
41
1
10
4.27162432657835
20
13.7664498774851
30
-4E-16
41
1
10
4.76412444560779
20
13.0350013612185
30
-4E-16
41
1
10
6.37460708880963
20
11.2688725856553
30
-3E-16
41
1
10
7.50725324005433
20
10.2408107058369
30
-2E-16
41
1
10
10.3135458813232
20
8.44019045319959
30
0
41
1
10
11.9312563446492
20
7.69607125415411
30
1E-16
41
1
10
13.6732350414888
20
7.21135380341374
30
2E-16
0
SPLINE
5
EF
100
AcDbEntity
8
1
62
256
6
ByLayer
370
-1
48
1
60
0
100
AcDbSpline
70
4
71
3
72
20
73
16
40
0
40
0
40
0
40
0
40
0.149976154485478
40
0.149976154485478
40
0.323641383322836
40
0.323641383322836
40
0.471990109842681
40
0.471990109842681
40
0.603473312653478
40
0.603473312653478
40
0.732056389073474
40
0.732056389073474
40
0.86795782409349
40
0.86795782409349
40
1
40
1
40
1
40
1
41
1
10
34.3712717832454
20
-11.4566295369515
30
-3E-16
41
1
10
34.2760954992364
20
-11.5906337679226
30
-4E-16
41
1
10
34.1532622438645
20
-11.7147933825141
30
-4E-16
41
1
10
33.8351028745877
20
-11.9432144695309
30
-4E-16
41
1
10
33.6251802286986
20
-12.0448489968407
30
-4E-16
41
1
10
33.1969567586882
20
-12.1713782256462
30
-4E-16
41
1
10
32.9777961054717
20
-12.2070493859088
30
-4E-16
41
1
10
32.5649766498029
20
-12.223583129967
30
-5E-16
41
1
10
32.365669300139
20
-12.2104224732979
30
-5E-16
41
1
10
31.9950548259099
20
-12.1454390060625
30
-5E-16
41
1
10
31.8185102191242
20
-12.0936906262361
30
-5E-16
41
1
10
31.4938518804502
20
-11.9557708981833
30
-5E-16
41
1
10
31.3438842756028
20
-11.8662165174257
30
-5E-16
41
1
10
31.0949912373096
20
-11.665622880954
30
-5E-16
41
1
10
30.992237633369
20
-11.5535365134859
30
-6E-16
41
1
10
30.9107871099683
20
-11.4338309194669
30
-6E-16
0
SPLINE
5
F0
100
AcDbEntity
8
1
62
256
6
ByLayer
370
-1
48
1
60
0
100
AcDbSpline
70
4
71
3
72
8
73
4
40
0
40
0
40
0
40
0
40
1
40
1
40
1
40
1
41
1
10
23.9670584180532
20
-13.4533028011544
30
-1E-16
41
1
10
23.6812170230351
20
-13.4731361721064
30
-1E-16
41
1
10
23.3933430975966
20
-13.5270838605572
30
-1E-16
41
1
10
23.1285043317046
20
-13.6276241828785
30
-1E-16
0
SPLINE
5
F1
100
AcDbEntity
8
1
62
256
6
ByLayer
370
-1
48
1
60
0
100
AcDbSpline
70
4
71
3
72
10
73
6
40
0
40
0
40
0
40
0
40
0.590614107964039
40
0.590614107964039
40
1
40
1
40
1
40
1
41
1
10
23.1285043317047
20
13.6276241828782
30
-1E-16
41
1
10
23.0288529131172
20
13.6654546934934
30
-2E-16
41
1
10
22.9306602110512
20
13.7152133159951
30
-2E-16
41
1
10
22.7778545672456
20
13.8153378267802
30
-2E-16
41
1
10
22.7182824190774
20
13.8612639024176
30
-2E-16
41
1
10
22.663139334687
20
13.9108543636273
30
-2E-16
0
SPLINE
5
F2
100
AcDbEntity
8
1
62
256
6
ByLayer
370
-1
48
1
60
0
100
AcDbSpline
70
4
71
3
72
8
73
4
40
0
40
0
40
0
40
0
40
1
40
1
40
1
40
1
41
1
10
21.4178137595802
20
14.0843838188581
30
2E-16
41
1
10
21.4805493847285
20
14.0849646448345
30
2E-16
41
1
10
21.5436764630788
20
14.0930744185644
30
2E-16
41
1
10
21.6045700520226
20
14.1083344160197
30
2E-16
0
SPLINE
5
F3
100
AcDbEntity
8
1
62
256
6
ByLayer
370
-1
48
1
60
0
100
AcDbSpline
70
4
71
3
72
8
73
4
40
0
40
0
40
0
40
0
40
1
40
1
40
1
40
1
41
1
10
23.2048820302321
20
13.6001198317305
30
-1E-16
41
1
10
23.1792277892387
20
13.6088714072354
30
-1E-16
41
1
10
23.1537613088248
20
13.6180359165534
30
-1E-16
41
1
10
23.1285043317047
20
13.6276241828782
30
-1E-16
0
SPLINE
5
F4
100
AcDbEntity
8
1
62
256
6
ByLayer
370
-1
48
1
60
0
100
AcDbSpline
70
4
71
3
72
8
73
4
40
0
40
0
40
0
40
0
40
1
40
1
40
1
40
1
41
1
10
25.3339940013368
20
-13.3719045617692
30
0
41
1
10
25.2948518943458
20
-13.3703931039663
30
0
41
1
10
25.2549161960897
20
-13.3667304811289
30
0
41
1
10
25.2170571906731
20
-13.3613653783487
30
0
0
SPLINE
5
F5
100
AcDbEntity
8
1
62
256
6
ByLayer
370
-1
48
1
60
0
100
AcDbSpline
70
4
71
3
72
12
73
8
40
0
40
0
40
0
40
0
40
0.161644380695186
40
0.161644380695186
40
0.822986995194347
40
0.822986995194347
40
1
40
1
40
1
40
1
41
1
10
22.2871603011342
20
13.939631277054
30
-2E-16
41
1
10
22.302367231272
20
13.9356023976673
30
-2E-16
41
1
10
22.3184963163754
20
13.9319456678962
30
-2E-16
41
1
10
22.4049166427765
20
13.9153760853761
30
-2E-16
41
1
10
22.49039022906
20
13.9084469402444
30
-2E-16
41
1
10
22.610185347787
20
13.9090297044097
30
-2E-16
41
1
10
22.6363679855899
20
13.9096777653533
30
-2E-16
41
1
10
22.6631393346869
20
13.9108543636272
30
-2E-16
0
SPLINE
5
F6
100
AcDbEntity
8
1
62
256
6
ByLayer
370
-1
48
1
60
0
100
AcDbSpline
70
4
71
3
72
14
73
10
40
0
40
0
40
0
40
0
40
0.152127230258393
40
0.152127230258393
40
0.514634505484665
40
0.514634505484665
40
0.907276958225277
40
0.907276958225277
40
1
40
1
40
1
40
1
41
1
10
28.5707244434835
20
-13.8754653190507
30
2E-16
41
1
10
28.4997448408512
20
-13.837138276982
30
2E-16
41
1
10
28.4223996884451
20
-13.8002258822191
30
2E-16
41
1
10
28.1442058244937
20
-13.6827920779683
30
2E-16
41
1
10
27.9159287722922
20
-13.6110566246789
30
1E-16
41
1
10
27.4109291360552
20
-13.4969136989745
30
1E-16
41
1
10
27.1258962960661
20
-13.4559271454868
30
1E-16
41
1
10
26.769800212001
20
-13.4300021872688
30
1E-16
41
1
10
26.700889558621
20
-13.4261074921319
30
1E-16
41
1
10
26.6318309750706
20
-13.4233078773838
30
1E-16
0
SPLINE
5
F7
100
AcDbEntity
8
1
62
256
6
ByLayer
370
-1
48
1
60
0
100
AcDbSpline
70
4
71
3
72
8
73
4
40
0
40
0
40
0
40
0
40
1
40
1
40
1
40
1
41
1
10
19.3180281079805
20
5.63016109488692
30
5E-16
41
1
10
20.0053507433503
20
5.43641309787594
30
6E-16
41
1
10
20.7085357170652
20
5.28384953299965
30
6E-16
41
1
10
21.4178137595804
20
5.17520739652937
30
6E-16
0
SPLINE
5
F8
100
AcDbEntity
8
1
62
256
6
ByLayer
370
-1
48
1
60
0
100
AcDbSpline
70
4
71
3
72
18
73
14
40
0
40
0
40
0
40
0
40
0.0424326388580341
40
0.0424326388580341
40
0.229475184388002
40
0.229475184388002
40
0.413116629396791
40
0.413116629396791
40
0.660166198999891
40
0.660166198999891
40
0.913589121297993
40
0.913589121297993
40
1
40
1
40
1
40
1
41
1
10
22.663139334687
20
-13.9108543636275
30
-2E-16
41
1
10
22.6594372901033
20
-13.8913599644245
30
-2E-16
41
1
10
22.65786381196
20
-13.8719939213939
30
-2E-16
41
1
10
22.6609474447047
20
-13.7691719793405
30
-2E-16
41
1
10
22.7059315704579
20
-13.6882464912139
30
-2E-16
41
1
10
22.8697733074538
20
-13.5482785470847
30
-2E-16
41
1
10
22.9891640022552
20
-13.4872713722034
30
-2E-16
41
1
10
23.3277179712427
20
-13.3745772121534
30
-1E-16
41
1
10
23.5711864155114
20
-13.3313085322532
30
-1E-16
41
1
10
24.1021244525607
20
-13.2847142113891
30
-1E-16
41
1
10
24.3973632793087
20
-13.2805958472219
30
-1E-16
41
1
10
24.8080374450866
20
-13.3099557128983
30
0
41
1
10
24.9147928144774
20
-13.3206318273963
30
0
41
1
10
25.0223705514239
20
-13.3347647733407
30
0
0
SPLINE
5
F9
100
AcDbEntity
8
1
62
256
6
ByLayer
370
-1
48
1
60
0
100
AcDbSpline
70
4
71
3
72
16
73
12
40
0
40
0
40
0
40
0
40
0.499999251362859
40
0.499999251362859
40
0.84782634733725
40
0.84782634733725
40
0.934782860722524
40
0.934782860722524
40
0.978260828757096
40
0.978260828757096
40
1
40
1
40
1
40
1
41
1
10
22.0832987568412
20
5.58002396543529
30
0
41
1
10
22.0834414564743
20
5.57967659132069
30
0
41
1
10
22.0835852108636
20
5.57932965138781
30
0
41
1
10
22.0838284078103
20
5.57874113041322
30
0
41
1
10
22.083928223504
20
5.57849970275808
30
0
41
1
10
22.0840530739422
20
5.57819795184435
30
0
41
1
10
22.0840780481413
20
5.57813760352983
30
0
41
1
10
22.0841155267695
20
5.57804708846817
30
0
41
1
10
22.0841280218542
20
5.57801691785045
30
0
41
1
10
22.084146779164
20
5.57797166785804
30
0
41
1
10
22.0841530320607
20
5.57795658461143
30
0
41
1
10
22.0841592991655
20
5.57794150726818
30
0
0
SPLINE
5
FA
100
AcDbEntity
8
1
62
256
6
ByLayer
370
-1
48
1
60
0
100
AcDbSpline
70
4
71
3
72
8
73
4
40
0
40
0
40
0
40
0
40
1
40
1
40
1
40
1
41
1
10
21.6045700520219
20
5.04107481538759
30
6E-16
41
1
10
21.5971277320195
20
5.078423548584
30
6E-16
41
1
10
21.5892606071189
20
5.11564150421268
30
6E-16
41
1
10
21.58076794911
20
5.1526720218996
30
6E-16
0
SPLINE
5
FB
100
AcDbEntity
8
1
62
256
6
ByLayer
370
-1
48
1
60
0
100
AcDbSpline
70
4
71
3
72
14
73
10
40
0
40
0
40
0
40
0
40
0.250314781434931
40
0.250314781434931
40
0.499913260552385
40
0.499913260552385
40
0.763647517400741
40
0.763647517400741
40
1
40
1
40
1
40
1
41
1
10
37.8262553067938
20
-14.4599848153983
30
-1E-16
41
1
10
37.915669311186
20
-14.46506106505
30
-1E-16
41
1
10
38.0053264153976
20
-14.4576698823436
30
-1E-16
41
1
10
38.1700961715302
20
-14.4208342434885
30
-1E-16
41
1
10
38.2474771711817
20
-14.3910237070364
30
-1E-16
41
1
10
38.3857382448036
20
-14.3122574109659
30
-1E-16
41
1
10
38.447289422123
20
-14.2613269489559
30
-1E-16
41
1
10
38.5386511287126
20
-14.1527831505897
30
-1E-16
41
1
10
38.5720578763981
20
-14.095415574925
30
-1E-16
41
1
10
38.5940124504932
20
-14.0351566700623
30
-1E-16
0
SPLINE
5
FC
100
AcDbEntity
8
1
62
256
6
ByLayer
370
-1
48
1
60
0
100
AcDbSpline
70
4
71
3
72
16
73
12
40
0
40
0
40
0
40
0
40
0.186557112415354
40
0.186557112415354
40
0.405656515221308
40
0.405656515221308
40
0.624755811249658
40
0.624755811249658
40
0.843856273673185
40
0.843856273673185
40
1
40
1
40
1
40
1
41
1
10
38.6287670282046
20
-10.6745929688226
30
-1E-16
41
1
10
38.6287235801736
20
-10.6465156173145
30
-1E-16
41
1
10
38.6287005285658
20
-10.5909884864352
30
-1E-16
41
1
10
38.6286969503153
20
-10.4178849404811
30
-1E-16
41
1
10
38.628724670688
20
-10.2885330775218
30
-1E-16
41
1
10
38.6288360814385
20
-9.979512070656
30
-1E-16
41
1
10
38.6289213497945
20
-9.79558140704071
30
-1E-16
41
1
10
38.6291405571265
20
-9.39934140221612
30
-1E-16
41
1
10
38.6292775998242
20
-9.18156759252014
30
-1E-16
41
1
10
38.6295442949619
20
-8.80584884259366
30
-1E-16
41
1
10
38.6296665155582
20
-8.64609092666845
30
-1E-16
41
1
10
38.6297957789662
20
-8.48968585091004
30
-1E-16
0
SPLINE
5
FD
100
AcDbEntity
8
1
62
256
6
ByLayer
370
-1
48
1
60
0
100
AcDbSpline
70
4
71
3
72
8
73
4
40
0
40
0
40
0
40
0
40
1
40
1
40
1
40
1
41
1
10
37.8262553067938
20
-11.4793625016016
30
-1E-16
41
1
10
36.6745942206178
20
-11.4717897556759
30
-2E-16
41
1
10
35.5229330457291
20
-11.4642120954544
30
-3E-16
41
1
10
34.3712717832452
20
-11.4566295369514
30
-3E-16
0
SPLINE
5
FE
100
AcDbEntity
8
1
62
256
6
ByLayer
370
-1
48
1
60
0
100
AcDbSpline
70
4
71
3
72
8
73
4
40
0
40
0
40
0
40
0
40
1
40
1
40
1
40
1
41
1
10
21.4178137595801
20
-14.0843838188583
30
2E-16
41
1
10
21.4805493847285
20
-14.0849646448347
30
2E-16
41
1
10
21.5436764630787
20
-14.0930744185646
30
2E-16
41
1
10
21.6045700520225
20
-14.1083344160199
30
2E-16
0
SPLINE
5
FF
100
AcDbEntity
8
1
62
256
6
ByLayer
370
-1
48
1
60
0
100
AcDbSpline
70
4
71
3
72
8
73
4
40
0
40
0
40
0
40
0
40
1
40
1
40
1
40
1
41
1
10
22.3331188134673
20
5.11365428776779
30
-2E-16
41
1
10
22.3461982501031
20
5.09452308941084
30
-2E-16
41
1
10
22.3596030904991
20
5.07562859797184
30
-2E-16
41
1
10
22.3733298952535
20
5.05699214997091
30
-2E-16
0
SPLINE
5
100
100
AcDbEntity
8
1
62
256
6
ByLayer
370
-1
48
1
60
0
100
AcDbSpline
70
4
71
3
72
28
73
24
40
0
40
0
40
0
40
0
40
0.0853440474267324
40
0.0853440474267324
40
0.16926325356466
40
0.16926325356466
40
0.270954476619335
40
0.270954476619335
40
0.394041078119861
40
0.394041078119861
40
0.47930964562607
40
0.47930964562607
40
0.56482060313536
40
0.56482060313536
40
0.647258676214362
40
0.647258676214362
40
0.738672488077333
40
0.738672488077333
40
0.848339960217257
40
0.848339960217257
40
0.936201227234345
40
0.936201227234345
40
1
40
1
40
1
40
1
41
1
10
30.9816395664087
20
-9.93006432817924
30
-6E-16
41
1
10
30.9816395664087
20
-10.0687731048864
30
-6E-16
41
1
10
30.9985548442197
20
-10.2118696820276
30
-6E-16
41
1
10
31.060229086792
20
-10.4754989825988
30
-5E-16
41
1
10
31.1050621032228
20
-10.6004705690409
30
-5E-16
41
1
10
31.2300920998315
20
-10.8535495797383
30
-5E-16
41
1
10
31.3173318475428
20
-10.9802815910488
30
-5E-16
41
1
10
31.5467707359911
20
-11.2212161723167
30
-5E-16
41
1
10
31.7016272458582
20
-11.3316742296872
30
-5E-16
41
1
10
31.9978693950582
20
-11.4559090854824
30
-5E-16
41
1
10
32.1322954265433
20
-11.4898691898821
30
-5E-16
41
1
10
32.4067304073423
20
-11.5146895301078
30
-5E-16
41
1
10
32.5503492023853
20
-11.5056458843121
30
-5E-16
41
1
10
32.8202304804529
20
-11.4485139605055
30
-4E-16
41
1
10
32.9501770280386
20
-11.4013868798068
30
-4E-16
41
1
10
33.2020489803446
20
-11.272428091296
30
-4E-16
41
1
10
33.3246473946315
20
-11.1861467250336
30
-4E-16
41
1
10
33.5611912951734
20
-10.9696547036047
30
-4E-16
41
1
10
33.6721162428606
20
-10.8314304710661
30
-4E-16
41
1
10
33.8274917240767
20
-10.5572658284516
30
-4E-16
41
1
10
33.8822337502637
20
-10.4230763573515
30
-4E-16
41
1
10
33.939897213067
20
-10.1814031538097
30
-4E-16
41
1
10
33.953030659588
20
-10.0746170082173
30
-4E-16
41
1
10
33.953030659588
20
-9.96992535892494
30
-4E-16
0
SPLINE
5
101
100
AcDbEntity
8
1
62
256
6
ByLayer
370
-1
48
1
60
0
100
AcDbSpline
70
4
71
3
72
8
73
4
40
0
40
0
40
0
40
0
40
1
40
1
40
1
40
1
41
1
10
24.0480880560681
20
-13.418070319451
30
-1E-16
41
1
10
24.0216642750079
20
-13.4256407574109
30
-1E-16
41
1
10
23.9946052822807
20
-13.4372181796692
30
-1E-16
41
1
10
23.9670584180527
20
-13.453302801156
30
-1E-16
0
SPLINE
5
102
100
AcDbEntity
8
1
62
256
6
ByLayer
370
-1
48
1
60
0
100
AcDbSpline
70
4
71
3
72
10
73
6
40
0
40
0
40
0
40
0
40
0.524827944580716
40
0.524827944580716
40
1
40
1
40
1
40
1
41
1
10
38.6259123487266
20
-13.8084767148313
30
-1E-16
41
1
10
38.6258754357305
20
-13.8486869377584
30
-1E-16
41
1
10
38.6229319013115
20
-13.8889635538464
30
-1E-16
41
1
10
38.6117787882938
20
-13.964630512484
30
-1E-16
41
1
10
38.6040672891162
20
-14.0002910775839
30
-1E-16
41
1
10
38.5940124504932
20
-14.0351566700623
30
-1E-16
0
SPLINE
5
103
100
AcDbEntity
8
SK1
62
256
6
ByLayer
370
-1
48
1
60
0
100
AcDbSpline
70
4
71
3
72
8
73
4
40
0
40
0
40
0
40
0
40
1
40
1
40
1
40
1
41
1
10
-58.5
20
8.08217792429735
30
-7E-16
41
1
10
-59.0936657970147
20
6.90721268868941
30
-7E-16
41
1
10
-59.6128475848405
20
5.69352487182306
30
-8E-16
41
1
10
-60
20
4.42533614542441
30
-8E-16
0
SPLINE
5
104
100
AcDbEntity
8
SK1
62
256
6
ByLayer
370
-1
48
1
60
0
100
AcDbSpline
70
4
71
3
72
14
73
10
40
0
40
0
40
0
40
0
40
0.540368058912792
40
0.540368058912792
40
0.759647381705224
40
0.759647381705224
40
0.950520324249518
40
0.950520324249518
40
1
40
1
40
1
40
1
41
1
10
-40.4416403074253
20
7.98341998568571
30
4E-16
41
1
10
-40.4569539292021
20
8.00954846972334
30
4E-16
41
1
10
-40.4765702397052
20
8.03478273149591
30
4E-16
41
1
10
-40.5127373947292
20
8.06172405326322
30
4E-16
41
1
10
-40.5245220153336
20
8.06859980722439
30
4E-16
41
1
10
-40.5482467446994
20
8.07788441932155
30
4E-16
41
1
10
-40.5602237859079
20
8.080805644902
30
4E-16
41
1
10
-40.575452463352
20
8.08204763916299
30
4E-16
41
1
10
-40.5786390565981
20
8.08217792429733
30
4E-16
41
1
10
-40.5818221602855
20
8.08217792429733
30
4E-16
0
SPLINE
5
105
100
AcDbEntity
8
SK1
62
256
6
ByLayer
370
-1
48
1
60
0
100
AcDbSpline
70
4
71
3
72
8
73
4
40
0
40
0
40
0
40
0
40
1
40
1
40
1
40
1
41
1
10
-60
20
-4.42533614542447
30
-8E-16
41
1
10
-59.6139748116444
20
-5.68983243373191
30
-8E-16
41
1
10
-59.0904958863466
20
-6.91348647918537
30
-7E-16
41
1
10
-58.5
20
-8.08217792429741
30
-7E-16
0
SPLINE
5
106
100
AcDbEntity
8
SK1
62
256
6
ByLayer
370
-1
48
1
60
0
100
AcDbSpline
70
4
71
3
72
14
73
10
40
0
40
0
40
0
40
0
40
0.191285595886779
40
0.191285595886779
40
0.425546948498355
40
0.425546948498355
40
0.785734009536542
40
0.785734009536542
40
1
40
1
40
1
40
1
41
1
10
-40.5818221602855
20
-8.08217792429744
30
4E-16
41
1
10
-40.5697385694644
20
-8.08217792429744
30
4E-16
41
1
10
-40.5575051153179
20
-8.08021852946203
30
4E-16
41
1
10
-40.5322164074031
20
-8.07237820016579
30
4E-16
41
1
10
-40.5191734861325
20
-8.06566811758964
30
4E-16
41
1
10
-40.4898275284665
20
-8.04555235050546
30
4E-16
41
1
10
-40.4748169190971
20
-8.03022724462863
30
4E-16
41
1
10
-40.4546051656248
20
-8.00416303566135
30
4E-16
41
1
10
-40.4477962656222
20
-7.99392343536112
30
4E-16
41
1
10
-40.4416403074199
20
-7.98341998568904
30
4E-16
0
SPLINE
5
107
100
AcDbEntity
8
SK1
62
256
6
ByLayer
370
-1
48
1
60
0
100
AcDbSpline
70
4
71
3
72
14
73
10
40
0
40
0
40
0
40
0
40
0.540368058914023
40
0.540368058914023
40
0.75964738170587
40
0.75964738170587
40
0.950520324249589
40
0.950520324249589
40
1
40
1
40
1
40
1
41
1
10
-17.4166403074253
20
7.98341998568566
30
0
41
1
10
-17.4319539292022
20
8.00954846972331
30
0
41
1
10
-17.4515702397052
20
8.03478273149588
30
0
41
1
10
-17.4877373947292
20
8.06172405326319
30
0
41
1
10
-17.4995220153336
20
8.06859980722436
30
0
41
1
10
-17.5232467446994
20
8.07788441932152
30
0
41
1
10
-17.5352237859079
20
8.08080564490197
30
0
41
1
10
-17.550452463352
20
8.08204763916297
30
0
41
1
10
-17.5536390565981
20
8.0821779242973
30
0
41
1
10
-17.5568221602855
20
8.0821779242973
30
0
0
SPLINE
5
108
100
AcDbEntity
8
SK1
62
256
6
ByLayer
370
-1
48
1
60
0
100
AcDbSpline
70
4
71
3
72
14
73
10
40
0
40
0
40
0
40
0
40
0.191285595886617
40
0.191285595886617
40
0.425546948497992
40
0.425546948497992
40
0.785734009535812
40
0.785734009535812
40
1
40
1
40
1
40
1
41
1
10
-17.5568221602855
20
-8.08217792429747
30
0
41
1
10
-17.5447385694644
20
-8.08217792429747
30
0
41
1
10
-17.5325051153179
20
-8.08021852946206
30
0
41
1
10
-17.5072164074031
20
-8.07237820016582
30
0
41
1
10
-17.4941734861325
20
-8.06566811758967
30
0
41
1
10
-17.4648275284666
20
-8.04555235050549
30
0
41
1
10
-17.4498169190971
20
-8.03022724462866
30
0
41
1
10
-17.4296051656248
20
-8.00416303566138
30
0
41
1
10
-17.4227962656222
20
-7.99392343536115
30
0
41
1
10
-17.4166403074199
20
-7.98341998568907
30
0
0
SPLINE
5
109
100
AcDbEntity
8
SK1
62
256
6
ByLayer
370
-1
48
1
60
0
100
AcDbSpline
70
4
71
3
72
14
73
10
40
0
40
0
40
0
40
0
40
0.540368058912784
40
0.540368058912784
40
0.75964738170522
40
0.75964738170522
40
0.950520324249517
40
0.950520324249517
40
1
40
1
40
1
40
1
41
1
10
-31.5583596925746
20
-7.98341998568583
30
-8E-16
41
1
10
-31.5430460707978
20
-8.00954846972346
30
-8E-16
41
1
10
-31.5234297602947
20
-8.03478273149602
30
-8E-16
41
1
10
-31.4872626052708
20
-8.06172405326333
30
-8E-16
41
1
10
-31.4754779846663
20
-8.0685998072245
30
-8E-16
41
1
10
-31.4517532553006
20
-8.07788441932166
30
-8E-16
41
1
10
-31.4397762140921
20
-8.08080564490211
30
-8E-16
41
1
10
-31.424547536648
20
-8.08204763916311
30
-8E-16
41
1
10
-31.4213609434019
20
-8.08217792429744
30
-8E-16
41
1
10
-31.4181778397144
20
-8.08217792429744
30
-8E-16
0
SPLINE
5
10A
100
AcDbEntity
8
SK1
62
256
6
ByLayer
370
-1
48
1
60
0
100
AcDbSpline
70
4
71
3
72
14
73
10
40
0
40
0
40
0
40
0
40
0.191285595886775
40
0.191285595886775
40
0.425546948498347
40
0.425546948498347
40
0.785734009536528
40
0.785734009536528
40
1
40
1
40
1
40
1
41
1
10
-31.4181778397144
20
8.08217792429733
30
-8E-16
41
1
10
-31.4302614305356
20
8.08217792429733
30
-8E-16
41
1
10
-31.4424948846821
20
8.08021852946192
30
-8E-16
41
1
10
-31.4677835925968
20
8.07237820016567
30
-8E-16
41
1
10
-31.4808265138675
20
8.06566811758952
30
-8E-16
41
1
10
-31.5101724715335
20
8.04555235050535
30
-8E-16
41
1
10
-31.5251830809029
20
8.03022724462852
30
-8E-16
41
1
10
-31.5453948343751
20
8.00416303566124
30
-8E-16
41
1
10
-31.5522037343778
20
7.99392343536101
30
-8E-16
41
1
10
-31.5583596925801
20
7.98341998568893
30
-8E-16
0
SPLINE
5
10B
100
AcDbEntity
8
1
62
256
6
ByLayer
370
-1
48
1
60
0
100
AcDbSpline
70
4
71
3
72
15
73
11
40
0
40
0
40
0
40
0
40
0.125
40
0.25
40
0.375
40
0.5
40
0.625
40
0.75
40
0.875
40
1
40
1
40
1
40
1
41
1
10
23.3232741529833
20
6.19415139875383
30
1E-16
41
1
10
23.9681992210784
20
6.1955659579416
30
-1E-16
41
1
10
25.2710061732408
20
6.18638131198529
30
0
41
1
10
27.2284482690801
20
6.15847540305052
30
1E-16
41
1
10
29.1852551760479
20
6.15681262818629
30
0
41
1
10
31.1421456008179
20
6.17109270880582
30
-1E-16
41
1
10
33.0985847517535
20
6.20331374027134
30
0
41
1
10
35.0560012928923
20
6.25478326793348
30
-1E-16
41
1
10
37.0001082162033
20
6.31464889871026
30
0
41
1
10
38.2959006659825
20
6.35833730757295
30
0
41
1
10
38.9438704835367
20
6.3812541723367
30
0
0
SPLINE
5
10C
100
AcDbEntity
8
1
62
256
6
ByLayer
370
-1
48
1
60
0
100
AcDbSpline
70
4
71
3
72
34
73
30
40
0
40
0
40
0
40
0
40
0.0625
40
0.09375
40
0.109375
40
0.1171875
40
0.125
40
0.15625
40
0.171875
40
0.1875
40
0.21875
40
0.25
40
0.28125
40
0.3125
40
0.34375
40
0.375
40
0.4375
40
0.5
40
0.5625
40
0.625
40
0.65625
40
0.6875
40
0.75
40
0.8125
40
0.859375
40
0.875
40
0.90625
40
0.9375
40
1
40
1
40
1
40
1
41
1
10
24.0047405232926
20
15.4058166269942
30
-1E-16
41
1
10
23.7883598654491
20
15.3970732687963
30
-1E-16
41
1
10
23.4590034470843
20
15.2015956671893
30
-1E-16
41
1
10
23.391037239858
20
14.8431645644157
30
-1E-16
41
1
10
23.3569782251355
20
14.6686118234546
30
-1E-16
41
1
10
23.3380248960775
20
14.5695762490161
30
-1E-16
41
1
10
23.3103691945383
20
14.4214200450349
30
-1E-16
41
1
10
23.2811364315703
20
14.2488204173478
30
-1E-16
41
1
10
23.2515844331396
20
14.0517187346262
30
-1E-16
41
1
10
23.2245031495394
20
13.8546581313592
30
-1E-16
41
1
10
23.1950956337378
20
13.6082926319362
30
-1E-16
41
1
10
23.166313951546
20
13.3122167782727
30
-1E-16
41
1
10
23.1434364009768
20
13.0153300084401
30
-1E-16
41
1
10
23.1253955277986
20
12.7171295823138
30
-1E-16
41
1
10
23.11112387778
20
12.4171127597693
30
-1E-16
41
1
10
23.0956973696593
20
12.0139981476528
30
-1E-16
41
1
10
23.0805000212496
20
11.5030501908389
30
-1E-16
41
1
10
23.0698905177164
20
10.8715029373724
30
1E-16
41
1
10
23.0679983845138
20
10.2144237799962
30
1E-16
41
1
10
22.9897327608672
20
9.67434637377443
30
1E-16
41
1
10
22.8091644568526
20
9.27098129253852
30
1E-16
41
1
10
22.5528647761226
20
8.90764474479926
30
0
41
1
10
22.5149834655302
20
8.3480041683332
30
0
41
1
10
22.5216613404828
20
7.75059802483435
30
0
41
1
10
22.5206888334075
20
7.31449063981256
30
0
41
1
10
22.5203107686757
20
6.98726247291057
30
0
41
1
10
22.5613414490351
20
6.71032842784442
30
0
41
1
10
22.7749490202237
20
6.33204606568694
30
1E-16
41
1
10
23.1069418152093
20
6.21048601730334
30
1E-16
41
1
10
23.3232741528365
20
6.19415139876492
30
1E-16
0
SPLINE
5
10D
100
AcDbEntity
8
1
62
256
6
ByLayer
370
-1
48
1
60
0
100
AcDbSpline
70
4
71
3
72
44
73
40
40
-0.0482795240669519
40
-0.0482795240669519
40
0
40
0
40
0.0535858709848932
40
0.0535858709848932
40
0.107129547859876
40
0.107129547859876
40
0.161232036435214
40
0.161232036435214
40
0.215379076835184
40
0.215379076835184
40
0.267897031906463
40
0.267897031906463
40
0.317096834048404
40
0.317096834048404
40
0.370103171332341
40
0.370103171332341
40
0.424982119566783
40
0.424982119566783
40
0.476828059361377
40
0.476828059361377
40
0.528625424454025
40
0.528625424454025
40
0.580992529960377
40
0.580992529960377
40
0.6348945673346
40
0.6348945673346
40
0.689197544843965
40
0.689197544843965
40
0.742947245372962
40
0.742947245372962
40
0.792793188052499
40
0.792793188052499
40
0.843479228223404
40
0.843479228223404
40
0.898261296226699
40
0.898261296226699
40
0.951720475933048
40
0.951720475933048
40
1
40
1
40
1.05358587098489
40
1.05358587098489
41
1
10
31.6115604704698
20
8.37169475288187
30
-1E-16
41
1
10
31.0517603317728
20
8.36779096855742
30
-1E-16
41
1
10
30.7529910421885
20
8.41723643441688
30
1E-16
41
1
10
30.1962920827728
20
8.6090823781355
30
1E-16
41
1
10
29.9306483217493
20
8.75402183589429
30
0
41
1
10
29.4650461474253
20
9.11970762276397
30
0
41
1
10
29.25915302135
20
9.34623756367805
30
0
41
1
10
28.9393477068257
20
9.84785785446431
30
0
41
1
10
28.8206526463913
20
10.1303999607536
30
0
41
1
10
28.6925542005379
20
10.7002052581869
30
0
41
1
10
28.6787231992896
20
10.9951069857491
30
0
41
1
10
28.749313550906
20
11.5411003404669
30
0
41
1
10
28.8278174900164
20
11.8007844524332
30
0
41
1
10
29.0660548469552
20
12.2983037962863
30
0
41
1
10
29.2349148184908
20
12.5403155610166
30
0
41
1
10
29.6441562434234
20
12.963836319347
30
0
41
1
10
29.8929304183647
20
13.150087065504
30
0
41
1
10
30.4136557901996
20
13.4207400822191
30
1E-16
41
1
10
30.6909081841588
20
13.5135152341672
30
1E-16
41
1
10
31.2475186892492
20
13.6056834748409
30
-1E-16
41
1
10
31.5341559363361
20
13.6065651504589
30
-1E-16
41
1
10
32.0826679629676
20
13.517752973004
30
0
41
1
10
32.3520757005536
20
13.4257683774229
30
0
41
1
10
32.8445255788654
20
13.1576821101726
30
0
41
1
10
33.0718963718099
20
12.9760996974225
30
0
41
1
10
33.4480537124831
20
12.548974744539
30
0
41
1
10
33.6026392539417
20
12.2958659051444
30
1E-16
41
1
10
33.81460621728
20
11.7574702784847
30
0
41
1
10
33.8770444908599
20
11.46308388552
30
0
41
1
10
33.9053314217743
20
10.8948569669012
30
0
41
1
10
33.8782957718693
20
10.614186904789
30
0
41
1
10
33.7455820535183
20
10.0786678049313
30
-1E-16
41
1
10
33.6368831672378
20
9.81705524338142
30
1E-16
41
1
10
33.3366981691337
20
9.3284653673575
30
0
41
1
10
33.1352861183188
20
9.09885888257156
30
0
41
1
10
32.6737435530568
20
8.73340165336003
30
0
41
1
10
32.4090969820267
20
8.59063622290762
30
0
41
1
10
31.8799395876858
20
8.41554499527447
30
-1E-16
41
1
10
31.6115604704698
20
8.37169475288187
30
-1E-16
41
1
10
31.0517603317728
20
8.36779096855742
30
-1E-16
0
SPLINE
5
10E
100
AcDbEntity
8
1
62
256
6
ByLayer
370
-1
48
1
60
0
100
AcDbSpline
70
4
71
3
72
15
73
11
40
0
40
0
40
0
40
0
40
0.125
40
0.25
40
0.375
40
0.5
40
0.625
40
0.75
40
0.875
40
1
40
1
40
1
40
1
41
1
10
39.2087540029024
20
15.8817468384015
30
0
41
1
10
38.5617055069054
20
15.8818055773842
30
0
41
1
10
37.282585342225
20
15.874441451169
30
0
41
1
10
35.4101530734019
20
15.8436336976449
30
1E-16
41
1
10
33.5281924502111
20
15.7952432818225
30
0
41
1
10
31.6425322955711
20
15.7295588536228
30
-1E-16
41
1
10
29.7590014324001
20
15.6468690629669
30
-2E-16
41
1
10
27.8688880876615
20
15.5490571049096
30
1E-16
41
1
10
25.934783882222
20
15.4822118779415
30
0
41
1
10
24.6480969845395
20
15.4320186445734
30
-1E-16
41
1
10
24.0047405231963
20
15.4058166269903
30
-1E-16
0
SPLINE
5
10F
100
AcDbEntity
8
1
62
256
6
ByLayer
370
-1
48
1
60
0
100
AcDbSpline
70
4
71
3
72
34
73
30
40
0
40
0
40
0
40
0
40
0.0625
40
0.09375
40
0.125
40
0.140625
40
0.1875
40
0.25
40
0.3125
40
0.34375
40
0.375
40
0.4375
40
0.5
40
0.5625
40
0.625
40
0.65625
40
0.6875
40
0.71875
40
0.75
40
0.78125
40
0.8125
40
0.828125
40
0.84375
40
0.875
40
0.8828125
40
0.890625
40
0.90625
40
0.9375
40
1
40
1
40
1
40
1
41
1
10
38.9438704836822
20
6.38125417234187
30
0
41
1
10
39.1582719852617
20
6.38885814174586
30
-1E-16
41
1
10
39.4690792403478
20
6.58777171059194
30
0
41
1
10
39.5149979609177
20
7.01571485131785
30
0
41
1
10
39.5387817360715
20
7.27550456968808
30
0
41
1
10
39.5607157772991
20
7.58739300904244
30
0
41
1
10
39.5787208012828
20
8.003583691209
30
0
41
1
10
39.5800520061651
20
8.57712374992221
30
0
41
1
10
39.5619524369329
20
9.10049623783593
30
0
41
1
10
39.5417115031383
20
9.52096680746129
30
0
41
1
10
39.5196491569506
20
9.94281617536367
30
0
41
1
10
39.4917354218582
20
10.473069624184
30
0
41
1
10
39.4723361978524
20
11.1153219614294
30
0
41
1
10
39.4677714256976
20
11.7644646645614
30
0
41
1
10
39.5169467808577
20
12.3013389897495
30
0
41
1
10
39.6710777237572
20
12.7083309334592
30
0
41
1
10
39.8530201760893
20
12.9787237212983
30
0
41
1
10
39.9811431345343
20
13.2730960745804
30
0
41
1
10
40.015119294378
20
13.6210986245417
30
0
41
1
10
40.0073073609011
20
13.8128123401336
30
0
41
1
10
40.0083444685711
20
13.8579008671588
30
0
41
1
10
40.0082843875377
20
13.9927593631163
30
0
41
1
10
40.0082710371768
20
14.2322741783745
30
0
41
1
10
40.0073548904694
20
14.668251097501
30
0
41
1
10
40.0087288499077
20
15.1969804785076
30
0
41
1
10
39.9948257176709
20
15.21344264912
30
0
41
1
10
39.946044230807
20
15.4430721219951
30
0
41
1
10
39.7422520740444
20
15.7386713466497
30
0
41
1
10
39.4218025880996
20
15.8655803164261
30
0
41
1
10
39.2087540028076
20
15.8817468384087
30
0
0
SPLINE
5
110
100
AcDbEntity
8
1
62
256
6
ByLayer
370
-1
48
1
60
0
100
AcDbSpline
70
4
71
3
72
14
73
10
40
0
40
0
40
0
40
0
40
0.283961457856587
40
0.283961457856587
40
0.570284934646618
40
0.570284934646618
40
0.82945086906046
40
0.82945086906046
40
1
40
1
40
1
40
1
41
1
10
32.8553636517634
20
10.6781055499716
30
0
41
1
10
32.8850192709831
20
10.6889233044565
30
0
41
1
10
32.9142669523795
20
10.7056167896724
30
0
41
1
10
32.9667817054432
20
10.7494538521423
30
0
41
1
10
32.9907757405701
20
10.7774114368347
30
0
41
1
10
33.0262921316477
20
10.8378221054115
30
0
41
1
10
33.0392698396962
20
10.870540408276
30
0
41
1
10
33.0514297612034
20
10.9263125885551
30
0
41
1
10
33.0539322806244
20
10.9492770904343
30
0
41
1
10
33.0539322806244
20
10.971900802296
30
0
0
SPLINE
5
111
100
AcDbEntity
8
1
62
256
6
ByLayer
370
-1
48
1
60
0
100
AcDbSpline
70
4
71
3
72
14
73
10
40
0
40
0
40
0
40
0
40
0.282169922576106
40
0.282169922576106
40
0.566902245317965
40
0.566902245317965
40
0.824523972080262
40
0.824523972080262
40
1
40
1
40
1
40
1
41
1
10
30.9254110148873
20
12.3283698316885
30
1E-16
41
1
10
30.8996105735983
20
12.3535091092739
30
1E-16
41
1
10
30.8690045651399
20
12.3750910445347
30
1E-16
41
1
10
30.8020732869473
20
12.4066483828975
30
1E-16
41
1
10
30.7646351773143
20
12.4169482254043
30
1E-16
41
1
10
30.692728589182
20
12.4224622798583
30
1E-16
41
1
10
30.6572269961064
20
12.4190403429726
30
1E-16
41
1
10
30.6013971130589
20
12.4028472105979
30
1E-16
41
1
10
30.5793655940877
20
12.3932969838925
30
1E-16
41
1
10
30.559153998954
20
12.3812235471188
30
1E-16
0
SPLINE
5
112
100
AcDbEntity
8
1
62
256
6
ByLayer
370
-1
48
1
60
0
100
AcDbSpline
70
4
71
3
72
18
73
14
40
0
40
0
40
0
40
0
40
0.212491695755302
40
0.212491695755302
40
0.386618276853805
40
0.386618276853805
40
0.562426360907933
40
0.562426360907933
40
0.715388416645937
40
0.715388416645937
40
0.918249208689864
40
0.918249208689864
40
1
40
1
40
1
40
1
41
1
10
32.3767508680876
20
12.0684850984739
30
0
41
1
10
32.3636283014954
20
11.9964898911497
30
0
41
1
10
32.3603102653216
20
11.9196408751967
30
0
41
1
10
32.3750961295254
20
11.7793702700694
30
0
41
1
10
32.3897392351332
20
11.7144771337015
30
0
41
1
10
32.434972797985
20
11.5910159638295
30
0
41
1
10
32.4665215733305
20
11.5307791260394
30
0
41
1
10
32.5362804240015
20
11.4333465869936
30
0
41
1
10
32.5738749454117
20
11.3929453601932
30
0
41
1
10
32.6661913530986
20
11.315631123843
30
0
41
1
10
32.7239913832383
20
11.2825915299823
30
0
41
1
10
32.8066734448971
20
11.2517871829347
30
0
41
1
10
32.8309502032505
20
11.2446162865328
30
0
41
1
10
32.8553636517634
20
11.2391529374564
30
0
0
SPLINE
5
113
100
AcDbEntity
8
1
62
256
6
ByLayer
370
-1
48
1
60
0
100
AcDbSpline
70
4
71
3
72
16
73
12
40
0
40
0
40
0
40
0
40
0.0569446172824962
40
0.0569446172824962
40
0.27990664483407
40
0.27990664483407
40
0.50532196730668
40
0.50532196730668
40
0.744915047128809
40
0.744915047128809
40
1
40
1
40
1
40
1
41
1
10
32.2276857838182
20
9.51802671210982
30
0
41
1
10
32.2342141854231
20
9.52192646586451
30
0
41
1
10
32.2406194666576
20
9.52607173818592
30
0
41
1
10
32.2711457834615
20
9.54741306467375
30
0
41
1
10
32.2933580752042
20
9.56811807617694
30
0
41
1
10
32.330546355395
20
9.61364487493179
30
0
41
1
10
32.3459311339664
20
9.63907584117311
30
0
41
1
10
32.3691852312453
20
9.6925761915283
30
0
41
1
10
32.3768407608451
20
9.72137085823033
30
0
41
1
10
32.3836433539008
20
9.77908013630756
30
0
41
1
10
32.3823204483805
20
9.80856689245059
30
0
41
1
10
32.3767508680876
20
9.83593226620238
30
0
0
SPLINE
5
114
100
AcDbEntity
8
1
62
256
6
ByLayer
370
-1
48
1
60
0
100
AcDbSpline
70
4
71
3
72
18
73
14
40
0
40
0
40
0
40
0
40
0.212491592102415
40
0.212491592102415
40
0.386618191488474
40
0.386618191488474
40
0.562426295050811
40
0.562426295050811
40
0.715388354469456
40
0.715388354469456
40
0.918249128147156
40
0.918249128147156
40
1
40
1
40
1
40
1
41
1
10
29.9614953753147
20
11.2003318705809
30
1E-16
41
1
10
30.03441588048
20
11.216201278278
30
1E-16
41
1
10
30.1064477767442
20
11.243626476408
30
-2E-16
41
1
10
30.2261298924857
20
11.3151553483262
30
-2E-16
41
1
10
30.277069217213
20
11.3563122737273
30
-2E-16
41
1
10
30.3637426964189
20
11.4533853587463
30
-1E-16
41
1
10
30.4004249929685
20
11.5110290806352
30
-1E-16
41
1
10
30.4486172415879
20
11.6247214950141
30
-1E-16
41
1
10
30.4634542851438
20
11.6813101074816
30
-1E-16
41
1
10
30.4799805025414
20
11.8113102115024
30
-1E-16
41
1
10
30.4763756575003
20
11.8863721984072
30
-1E-16
41
1
10
30.4566194302851
20
11.9862301478644
30
-1E-16
41
1
10
30.4491549764612
20
12.0146976065655
30
1E-16
41
1
10
30.4401081589905
20
12.0425051543501
30
1E-16
0
SPLINE
5
115
100
AcDbEntity
8
1
62
256
6
ByLayer
370
-1
48
1
60
0
100
AcDbSpline
70
4
71
3
72
14
73
10
40
0
40
0
40
0
40
0
40
0.283961749036713
40
0.283961749036713
40
0.570285189259028
40
0.570285189259028
40
0.829451094335683
40
0.829451094335683
40
1
40
1
40
1
40
1
41
1
10
30.4401081589905
20
9.80995232207857
30
1E-16
41
1
10
30.429118765875
20
9.7792645975471
30
1E-16
41
1
10
30.4236364235537
20
9.74602827407506
30
1E-16
41
1
10
30.4259252936357
20
9.67953067502995
30
1E-16
41
1
10
30.4339054911651
20
9.64524724993237
30
1E-16
41
1
10
30.4621634487266
20
9.58515450441334
30
1E-16
41
1
10
30.4816852943534
20
9.5579686564524
30
1E-16
41
1
10
30.5215909225683
20
9.52016700987022
30
1E-16
41
1
10
30.5396887654334
20
9.50674880604814
30
1E-16
41
1
10
30.559153998954
20
9.49564345972365
30
1E-16
0
SPLINE
5
116
100
AcDbEntity
8
1
62
256
6
ByLayer
370
-1
48
1
60
0
100
AcDbSpline
70
4
71
3
72
16
73
12
40
0
40
0
40
0
40
0
40
0.0624450082614029
40
0.0624450082614029
40
0.283207995985758
40
0.283207995985758
40
0.506745688833502
40
0.506745688833502
40
0.74460728473692
40
0.74460728473692
40
1
40
1
40
1
40
1
41
1
10
30.559153998954
20
9.49564345972365
30
1E-16
41
1
10
30.5663764472081
20
9.49152289322294
30
1E-16
41
1
10
30.5738135454031
20
9.48769867076717
30
1E-16
41
1
10
30.60810427357
20
9.47189644262747
30
1E-16
41
1
10
30.6373151629501
20
9.4634719983857
30
1E-16
41
1
10
30.6963540945482
20
9.45528960179362
30
1E-16
41
1
10
30.7269326744505
20
9.45551493436469
30
1E-16
41
1
10
30.7872457433364
20
9.46412190644401
30
1E-16
41
1
10
30.8175600895458
20
9.47310237963924
30
1E-16
41
1
10
30.8748200233522
20
9.49887431082652
30
1E-16
41
1
10
30.9020578592729
20
9.51647438582035
30
1E-16
41
1
10
30.9254110148873
20
9.53676957841674
30
1E-16
0
SPLINE
5
117
100
AcDbEntity
8
1
62
256
6
ByLayer
370
-1
48
1
60
0
100
AcDbSpline
70
4
71
3
72
16
73
12
40
0
40
0
40
0
40
0
40
0.0624450082614026
40
0.0624450082614026
40
0.283207995985775
40
0.283207995985775
40
0.506745688833536
40
0.506745688833536
40
0.744607284736975
40
0.744607284736975
40
1
40
1
40
1
40
1
41
1
10
32.2276857838182
20
12.403606799505
30
0
41
1
10
32.220463335564
20
12.4077273660057
30
0
41
1
10
32.2130743582832
20
12.4115182254356
30
0
41
1
10
32.1792161659837
20
12.4270205693031
30
0
41
1
10
32.1509519598253
20
12.4347886624066
30
0
41
1
10
32.0948762796677
20
12.4409165877549
30
0
41
1
10
32.0663635614301
20
12.4392589591168
30
0
41
1
10
32.0111670982643
20
12.4271045596493
30
0
41
1
10
31.9840202700522
20
12.4159279938273
30
0
41
1
10
31.933973087686
20
12.3851553427483
30
-1E-16
41
1
10
31.9109137040317
20
12.3646582776754
30
-1E-16
41
1
10
31.8919272364897
20
12.3413355880017
30
-1E-16
0
SPLINE
5
118
100
AcDbEntity
8
1
62
256
6
ByLayer
370
-1
48
1
60
0
100
AcDbSpline
70
4
71
3
72
12
73
8
40
0
40
0
40
0
40
0
40
0.495779676780363
40
0.495779676780363
40
0.900233025448793
40
0.900233025448793
40
1
40
1
40
1
40
1
41
1
10
31.8919272364897
20
9.54973533472997
30
-1E-16
41
1
10
31.8473901158277
20
9.59601003492338
30
-1E-16
41
1
10
31.7929644685559
20
9.63613094341432
30
-1E-16
41
1
10
31.6793036302861
20
9.69127057486736
30
-1E-16
41
1
10
31.6214251403106
20
9.71004730308741
30
-1E-16
41
1
10
31.5446601277461
20
9.72309936559219
30
-1E-16
41
1
10
31.5290364240684
20
9.72520969510214
30
-1E-16
41
1
10
31.5132336011687
20
9.72679491056837
30
-1E-16
0
SPLINE
5
119
100
AcDbEntity
8
1
62
256
6
ByLayer
370
-1
48
1
60
0
100
AcDbSpline
70
4
71
3
72
12
73
8
40
0
40
0
40
0
40
0
40
0.422118633920766
40
0.422118633920766
40
0.843213619146894
40
0.843213619146894
40
1
40
1
40
1
40
1
41
1
10
31.5132336011687
20
12.1228267736675
30
-1E-16
41
1
10
31.5790136617529
20
12.132637861232
30
-1E-16
41
1
10
31.6420730472799
20
12.1536159724209
30
-1E-16
41
1
10
31.7534844450541
20
12.2112653300501
30
-1E-16
41
1
10
31.8035154990419
20
12.2485178796531
30
-1E-16
41
1
10
31.862497953301
20
12.3070450598077
30
-1E-16
41
1
10
31.8776881820447
20
12.3238445488006
30
-1E-16
41
1
10
31.8919272364897
20
12.3413355880017
30
-1E-16
0
SPLINE
5
11A
100
AcDbEntity
8
1
62
256
6
ByLayer
370
-1
48
1
60
0
100
AcDbSpline
70
4
71
3
72
14
73
10
40
0
40
0
40
0
40
0
40
0.283961457856586
40
0.283961457856586
40
0.570284934646619
40
0.570284934646619
40
0.829450869060463
40
0.829450869060463
40
1
40
1
40
1
40
1
41
1
10
29.9614953753147
20
11.2003318705809
30
1E-16
41
1
10
29.92704920582
20
11.1928354838502
30
0
41
1
10
29.8932402542827
20
11.1793044026786
30
0
41
1
10
29.8327293174081
20
11.1410112267231
30
0
41
1
10
29.8051887947098
20
11.1155124805324
30
0
41
1
10
29.7644934680494
20
11.0586924536686
30
0
41
1
10
29.7496595531923
20
11.0272610896911
30
0
41
1
10
29.7357648413288
20
10.9726916682641
30
0
41
1
10
29.7329075021477
20
10.9499731687943
30
0
41
1
10
29.7329075021477
20
10.9273494569326
30
0
0
SPLINE
5
11B
100
AcDbEntity
8
1
62
256
6
ByLayer
370
-1
48
1
60
0
100
AcDbSpline
70
4
71
3
72
14
73
10
40
0
40
0
40
0
40
0
40
0.283961749036714
40
0.283961749036714
40
0.570285189259027
40
0.570285189259027
40
0.829451094335677
40
0.829451094335677
40
1
40
1
40
1
40
1
41
1
10
32.3767508680876
20
12.0684850984739
30
0
41
1
10
32.38294970603
20
12.1024941941556
30
0
41
1
10
32.3838707737147
20
12.1388929247889
30
0
41
1
10
32.3735857184069
20
12.2109344113293
30
0
41
1
10
32.3620590350509
20
12.2476766737189
30
0
41
1
10
32.3286221451663
20
12.3113600586909
30
0
41
1
10
32.3072440943218
20
12.339832844436
30
0
41
1
10
32.2656036790141
20
12.3788372476076
30
0
41
1
10
32.2471510173387
20
12.3925014531805
30
0
41
1
10
32.2276857838182
20
12.403606799505
30
0
0
SPLINE
5
11C
100
AcDbEntity
8
1
62
256
6
ByLayer
370
-1
48
1
60
0
100
AcDbSpline
70
4
71
3
72
16
73
12
40
0
40
0
40
0
40
0
40
0.0630415689509242
40
0.0630415689509242
40
0.285914332024973
40
0.285914332024973
40
0.511588305408902
40
0.511588305408902
40
0.751723061839369
40
0.751723061839369
40
1
40
1
40
1
40
1
41
1
10
33.0539322806244
20
10.971900802296
30
0
41
1
10
33.0539322806244
20
10.9802951446478
30
0
41
1
10
33.053593463498
20
10.988677553272
30
0
41
1
10
33.0505506242938
20
11.0261841612555
30
0
41
1
10
33.0438834619797
20
11.0549911218541
30
0
41
1
10
33.0232680379906
20
11.1076607817037
30
0
41
1
10
33.0089877827155
20
11.1321370280325
30
0
41
1
10
32.9742644059149
20
11.1752191442796
30
0
41
1
10
32.9530736352355
20
11.1939091311901
30
0
41
1
10
32.9069014867854
20
11.2229491359894
30
0
41
1
10
32.8813111938067
20
11.2333462821703
30
0
41
1
10
32.8553636517635
20
11.2391529374564
30
0
0
SPLINE
5
11D
100
AcDbEntity
8
1
62
256
6
ByLayer
370
-1
48
1
60
0
100
AcDbSpline
70
4
71
3
72
18
73
14
40
0
40
0
40
0
40
0
40
0.212491695755301
40
0.212491695755301
40
0.386618276853804
40
0.386618276853804
40
0.562426360907932
40
0.562426360907932
40
0.715388416645936
40
0.715388416645936
40
0.918249208689862
40
0.918249208689862
40
1
40
1
40
1
40
1
41
1
10
30.4401081589905
20
9.80995232207857
30
1E-16
41
1
10
30.463372042368
20
9.87491638671111
30
1E-16
41
1
10
30.4762678316285
20
9.94512498800725
30
1E-16
41
1
10
30.4754640117631
20
10.0757016104944
30
1E-16
41
1
10
30.4659501859995
20
10.1370385322942
30
1E-16
41
1
10
30.4266480443096
20
10.2563873497531
30
1E-16
41
1
10
30.3958627857143
20
10.3160948287496
30
1E-16
41
1
10
30.3229838341093
20
10.4156905853878
30
1E-16
41
1
10
30.2821026042844
20
10.458370541503
30
1E-16
41
1
10
30.1793232896063
20
10.5429388843548
30
1E-16
41
1
10
30.1133398714105
20
10.58165215653
30
1E-16
41
1
10
30.0179699499597
20
10.6212532066626
30
1E-16
41
1
10
29.9898525571086
20
10.631086878496
30
1E-16
41
1
10
29.9614953753147
20
10.6392844830962
30
1E-16
0
SPLINE
5
11E
100
AcDbEntity
8
1
62
256
6
ByLayer
370
-1
48
1
60
0
100
AcDbSpline
70
4
71
3
72
16
73
12
40
0
40
0
40
0
40
0
40
0.0569446172824963
40
0.0569446172824963
40
0.279906644834071
40
0.279906644834071
40
0.505321967306686
40
0.505321967306686
40
0.744915047128812
40
0.744915047128812
40
1
40
1
40
1
40
1
41
1
10
30.559153998954
20
12.3812235471188
30
1E-16
41
1
10
30.552625597349
20
12.3773237933641
30
1E-16
41
1
10
30.5462596153718
20
12.3731512742176
30
1E-16
41
1
10
30.5161161834906
20
12.3515444872789
30
1E-16
41
1
10
30.4948192865422
20
12.3302048174217
30
1E-16
41
1
10
30.4605357669468
20
12.2826641000935
30
1E-16
41
1
10
30.4471873566975
20
12.2558212860075
30
1E-16
41
1
10
30.4289918791365
20
12.1988137109188
30
1E-16
41
1
10
30.4244739796291
20
12.1678436733689
30
1E-16
41
1
10
30.4247975522578
20
12.1051937067367
30
1E-16
41
1
10
30.430234323298
20
12.0728547395743
30
1E-16
41
1
10
30.4401081589904
20
12.0425051543502
30
1E-16
0
SPLINE
5
11F
100
AcDbEntity
8
1
62
256
6
ByLayer
370
-1
48
1
60
0
100
AcDbSpline
70
4
71
3
72
18
73
14
40
0
40
0
40
0
40
0
40
0.212491592102414
40
0.212491592102414
40
0.386618191488473
40
0.386618191488473
40
0.562426295050811
40
0.562426295050811
40
0.715388354469454
40
0.715388354469454
40
0.918249128147156
40
0.918249128147156
40
1
40
1
40
1
40
1
41
1
10
32.8553636517634
20
10.6781055499716
30
0
41
1
10
32.7925844584245
20
10.6552050030208
30
0
41
1
10
32.7301303107218
20
10.6211393933715
30
0
41
1
10
32.6244302395372
20
10.5399165386615
30
0
41
1
10
32.5786201971059
20
10.4952033969925
30
0
41
1
10
32.4978781438665
20
10.3940179562293
30
0
41
1
10
32.4619593664154
20
10.3358448739188
30
0
41
1
10
32.4106470199569
20
10.2243156749864
30
0
41
1
10
32.3925232692533
20
10.1700057909553
30
0
41
1
10
32.365534147669
20
10.0472597914918
30
0
41
1
10
32.3609556064731
20
9.97787148164011
30
0
41
1
10
32.3680239721778
20
9.88681023645938
30
0
41
1
10
32.3716477877987
20
9.86100555575894
30
0
41
1
10
32.3767508680876
20
9.83593226620241
30
0
0
SPLINE
5
120
100
AcDbEntity
8
1
62
256
6
ByLayer
370
-1
48
1
60
0
100
AcDbSpline
70
4
71
3
72
12
73
8
40
0
40
0
40
0
40
0
40
0.422118633920709
40
0.422118633920709
40
0.843213619146834
40
0.843213619146834
40
1
40
1
40
1
40
1
41
1
10
31.3483773834045
20
9.72458337443635
30
-1E-16
41
1
10
31.2805489127491
20
9.71619248346042
30
-1E-16
41
1
10
31.2128885681982
20
9.6984042932749
30
-1E-16
41
1
10
31.0893334064519
20
9.64917440809813
30
-1E-16
41
1
10
31.0316621720908
20
9.617218921937
30
-1E-16
41
1
10
30.9613205971763
20
9.56656720804307
30
-1E-16
41
1
10
30.9429249022664
20
9.55199012177025
30
1E-16
41
1
10
30.9254110148873
20
9.53676957841674
30
1E-16
0
SPLINE
5
121
100
AcDbEntity
8
1
62
256
6
ByLayer
370
-1
48
1
60
0
100
AcDbSpline
70
4
71
3
72
12
73
8
40
0
40
0
40
0
40
0
40
0.495779676780351
40
0.495779676780351
40
0.900233025448792
40
0.900233025448792
40
1
40
1
40
1
40
1
41
1
10
30.9254110148873
20
12.3283698316885
30
1E-16
41
1
10
30.980191205417
20
12.274993441708
30
-1E-16
41
1
10
31.0443116784751
20
12.228150950121
30
-1E-16
41
1
10
31.1721490055549
20
12.1631825244589
30
-1E-16
41
1
10
31.2352457878767
20
12.1407878678306
30
-1E-16
41
1
10
31.3158254765517
20
12.1250910272734
30
-1E-16
41
1
10
31.332082456039
20
12.1225416371686
30
-1E-16
41
1
10
31.3483773834045
20
12.1206152375354
30
-1E-16
0
SPLINE
5
122
100
AcDbEntity
8
1
62
256
6
ByLayer
370
-1
48
1
60
0
100
AcDbSpline
70
4
71
3
72
14
73
10
40
0
40
0
40
0
40
0
40
0.282169922576107
40
0.282169922576107
40
0.566902245317961
40
0.566902245317961
40
0.824523972080258
40
0.824523972080258
40
1
40
1
40
1
40
1
41
1
10
31.8919272364897
20
9.54973533472997
30
-1E-16
41
1
10
31.9129033841757
20
9.52794081970617
30
-1E-16
41
1
10
31.9389086580989
20
9.50954864980721
30
-1E-16
41
1
10
31.9977543132233
20
9.4835972076755
30
0
41
1
10
32.0315951694153
20
9.47579140048754
30
0
41
1
10
32.0982278109314
20
9.4739338604677
30
0
41
1
10
32.1318267836398
20
9.47867491552844
30
0
41
1
10
32.1858257302044
20
9.49613746645528
30
0
41
1
10
32.2074741886844
20
9.50595327533611
30
0
41
1
10
32.2276857838182
20
9.51802671210982
30
0
0
SPLINE
5
123
100
AcDbEntity
8
1
62
256
6
ByLayer
370
-1
48
1
60
0
100
AcDbSpline
70
4
71
3
72
16
73
12
40
0
40
0
40
0
40
0
40
0.0630415689509294
40
0.0630415689509294
40
0.285914332024976
40
0.285914332024976
40
0.511588305408908
40
0.511588305408908
40
0.751723061839377
40
0.751723061839377
40
1
40
1
40
1
40
1
41
1
10
29.7329075021477
20
10.9273494569326
30
0
41
1
10
29.7329075021477
20
10.9189551145809
30
0
41
1
10
29.7332944398701
20
10.9105393431514
30
0
41
1
10
29.7367698132074
20
10.8727328520981
30
0
41
1
10
29.7443836576699
20
10.8432695411053
30
0
41
1
10
29.7679623310912
20
10.7885454114044
30
0
41
1
10
29.7843084470178
20
10.7626368697111
30
0
41
1
10
29.8241484275456
20
10.7160073274575
30
0
41
1
10
29.848506715195
20
10.6951212486325
30
0
41
1
10
29.9017561470989
20
10.6611744461373
30
0
41
1
10
29.931356283476
20
10.6479972091948
30
0
41
1
10
29.9614953753146
20
10.6392844830962
30
1E-16
0
SPLINE
5
124
100
AcDbEntity
8
1
62
256
6
ByLayer
370
-1
48
1
60
0
100
AcDbSpline
70
4
71
3
72
15
73
11
40
0
40
0
40
0
40
0
40
0.125
40
0.25
40
0.375
40
0.5
40
0.625
40
0.75
40
0.875
40
1
40
1
40
1
40
1
41
1
10
39.2087540029024
20
-15.8817468384018
30
0
41
1
10
38.5617055069053
20
-15.8818055773844
30
0
41
1
10
37.2825853422249
20
-15.8744414511693
30
0
41
1
10
35.4101530734018
20
-15.8436336976452
30
1E-16
41
1
10
33.528192450211
20
-15.7952432818227
30
0
41
1
10
31.642532295571
20
-15.7295588536231
30
-1E-16
41
1
10
29.7590014324
20
-15.6468690629671
30
-2E-16
41
1
10
27.8688880876615
20
-15.5490571049098
30
1E-16
41
1
10
25.9347838822219
20
-15.4822118779418
30
0
41
1
10
24.6480969845395
20
-15.4320186445736
30
-1E-16
41
1
10
24.0047405231963
20
-15.4058166269906
30
-1E-16
0
SPLINE
5
125
100
AcDbEntity
8
1
62
256
6
ByLayer
370
-1
48
1
60
0
100
AcDbSpline
70
4
71
3
72
17
73
13
40
0
40
0
40
0
40
0
40
0.285388147203209
40
0.428082220804813
40
0.499429257605615
40
0.535102776006017
40
0.570776294406418
40
0.713470368008022
40
0.784817404808824
40
0.856164441609626
40
0.998858515211231
40
1
40
1
40
1
40
1
41
1
10
24.0047405232926
20
-15.4058166269945
30
-1E-16
41
1
10
23.7883598654491
20
-15.3970732687965
30
-1E-16
41
1
10
23.4590034470842
20
-15.2015956671896
30
-1E-16
41
1
10
23.3910372398579
20
-14.8431645644159
30
-1E-16
41
1
10
23.3569782251354
20
-14.6686118234548
30
-1E-16
41
1
10
23.3380248960774
20
-14.5695762490163
30
-1E-16
41
1
10
23.3103691945383
20
-14.4214200450352
30
-1E-16
41
1
10
23.2811364315703
20
-14.248820417348
30
-1E-16
41
1
10
23.2515844331395
20
-14.0517187346264
30
-1E-16
41
1
10
23.2245031495393
20
-13.8546581313595
30
-1E-16
41
1
10
23.2067645415969
20
-13.706050508931
30
-1E-16
41
1
10
23.1960094142139
20
-13.6066419400553
30
-1E-16
41
1
10
23.1959241304414
20
-13.6058530249506
30
-1E-16
0
SPLINE
5
126
100
AcDbEntity
8
1
62
256
6
ByLayer
370
-1
48
1
60
0
100
AcDbSpline
70
4
71
3
72
9
73
5
40
0
40
0
40
0
40
0
40
0.224355847735077
40
1
40
1
40
1
40
1
41
1
10
24.7461329428666
20
-13.3123216296884
30
0
41
1
10
24.7496711494271
20
-13.3577828005655
30
0
41
1
10
24.7809613886237
20
-13.5564820546594
30
0
41
1
10
24.9654348210258
20
-13.7041630081922
30
0
41
1
10
25.1198181243422
20
-13.7305522633722
30
0
0
SPLINE
5
127
100
AcDbEntity
8
1
62
256
6
ByLayer
370
-1
48
1
60
0
100
AcDbSpline
70
4
71
3
72
8
73
4
40
0
40
0
40
0
40
0
40
1
40
1
40
1
40
1
41
1
10
38.6296909848594
20
-6.37022586828073
30
0
41
1
10
38.7344159653321
20
-6.37387430960368
30
0
41
1
10
38.8391422632152
20
-6.37755023058378
30
0
41
1
10
38.9438704835367
20
-6.38125417233698
30
0
0
SPLINE
5
128
100
AcDbEntity
8
1
62
256
6
ByLayer
370
-1
48
1
60
0
100
AcDbSpline
70
4
71
1
72
4
73
2
40
0
40
0
40
1
40
1
41
1
10
24.0047405232926
20
-15.4058166269945
30
-1E-16
41
1
10
25.1198181243422
20
-13.7305522633722
30
0
0
SPLINE
5
129
100
AcDbEntity
8
1
62
256
6
ByLayer
370
-1
48
1
60
0
100
AcDbSpline
70
4
71
1
72
4
73
2
40
0
40
0
40
1
40
1
41
1
10
39.2087540029024
20
-15.8817468384017
30
0
41
1
10
38.4524682463557
20
-14.4410248447942
30
-1E-16
0
SPLINE
5
12A
100
AcDbEntity
8
1
62
256
6
ByLayer
370
-1
48
1
60
0
100
AcDbSpline
70
4
71
3
72
34
73
30
40
0
40
0
40
0
40
0
40
0.0625
40
0.09375
40
0.125
40
0.140625
40
0.1875
40
0.25
40
0.3125
40
0.34375
40
0.375
40
0.4375
40
0.5
40
0.5625
40
0.625
40
0.65625
40
0.6875
40
0.71875
40
0.75
40
0.78125
40
0.8125
40
0.828125
40
0.84375
40
0.875
40
0.8828125
40
0.890625
40
0.90625
40
0.9375
40
1
40
1
40
1
40
1
41
1
10
38.9438704836822
20
-6.38125417234215
30
0
41
1
10
39.1582719852617
20
-6.38885814174614
30
-1E-16
41
1
10
39.4690792403478
20
-6.58777171059222
30
0
41
1
10
39.5149979609177
20
-7.01571485131814
30
0
41
1
10
39.5387817360715
20
-7.27550456968837
30
0
41
1
10
39.5607157772991
20
-7.58739300904273
30
0
41
1
10
39.5787208012828
20
-8.00358369120929
30
0
41
1
10
39.5800520061651
20
-8.57712374992249
30
0
41
1
10
39.5619524369329
20
-9.10049623783621
30
0
41
1
10
39.5417115031383
20
-9.52096680746158
30
0
41
1
10
39.5196491569506
20
-9.94281617536396
30
0
41
1
10
39.4917354218582
20
-10.4730696241843
30
0
41
1
10
39.4723361978524
20
-11.1153219614297
30
0
41
1
10
39.4677714256976
20
-11.7644646645616
30
0
41
1
10
39.5169467808577
20
-12.3013389897498
30
0
41
1
10
39.6710777237572
20
-12.7083309334595
30
0
41
1
10
39.8530201760892
20
-12.9787237212985
30
0
41
1
10
39.9811431345342
20
-13.2730960745807
30
0
41
1
10
40.0151192943779
20
-13.621098624542
30
0
41
1
10
40.007307360901
20
-13.8128123401339
30
0
41
1
10
40.008344468571
20
-13.8579008671591
30
0
41
1
10
40.0082843875377
20
-13.9927593631166
30
0
41
1
10
40.0082710371767
20
-14.2322741783748
30
0
41
1
10
40.0073548904693
20
-14.6682510975013
30
0
41
1
10
40.0087288499076
20
-15.1969804785079
30
0
41
1
10
39.9948257176709
20
-15.2134426491202
30
0
41
1
10
39.9460442308069
20
-15.4430721219954
30
0
41
1
10
39.7422520740444
20
-15.73867134665
30
0
41
1
10
39.4218025880996
20
-15.8655803164264
30
0
41
1
10
39.2087540028076
20
-15.881746838409
30
0
0
SPLINE
5
12B
100
AcDbEntity
8
1
62
256
6
ByLayer
370
-1
48
1
60
0
100
AcDbSpline
70
4
71
1
72
4
73
2
40
0
40
0
40
1
40
1
41
1
10
38.9438704836822
20
-6.38125417234215
30
0
41
1
10
38.6847632124269
20
-7.46306967187465
30
-1E-16
0
SPLINE
5
12C
100
AcDbEntity
8
1
62
256
6
ByLayer
370
-1
48
1
60
0
100
AcDbSpline
70
4
71
3
72
20
73
16
40
0
40
0
40
0
40
0
40
0.0625
40
0.09375
40
0.125
40
0.15625
40
0.1875
40
0.25
40
0.5
40
0.75
40
0.8125
40
0.875
40
0.90625
40
0.9375
40
1
40
1
40
1
40
1
41
1
10
38.4524682463557
20
-14.4410248447941
30
-1E-16
41
1
10
38.6089577856822
20
-14.4477272744815
30
-1E-16
41
1
10
38.8472936794054
20
-14.3610073795493
30
-1E-16
41
1
10
39.0273667453937
20
-14.1020679972347
30
-1E-16
41
1
10
39.0812369191418
20
-13.869183805358
30
-1E-16
41
1
10
39.0784429648847
20
-13.6329931792687
30
-1E-16
41
1
10
39.067088957454
20
-13.3177564710534
30
-1E-16
41
1
10
39.0754432354726
20
-12.4529358662971
30
-1E-16
41
1
10
39.0658808413422
20
-11.0362939668799
30
-1E-16
41
1
10
39.064189024039
20
-9.62129262875058
30
-1E-16
41
1
10
39.0649062378359
20
-8.67613375377519
30
-1E-16
41
1
10
39.0639054404953
20
-8.28303443965842
30
-1E-16
41
1
10
39.0613607297158
20
-7.96959771386818
30
-1E-16
41
1
10
39.0649723105176
20
-7.64574062064858
30
-1E-16
41
1
10
38.8410329708241
20
-7.47429673660542
30
-1E-16
41
1
10
38.6847632124269
20
-7.46306967187465
30
-1E-16
0
SPLINE
5
12D
100
AcDbEntity
8
1
62
256
6
ByLayer
370
-1
48
1
60
0
100
AcDbSpline
70
4
71
3
72
8
73
4
40
0
40
0
40
0
40
0
40
1
40
1
40
1
40
1
41
1
10
25.1198181243422
20
-13.7305522633722
30
0
41
1
10
27.2549171615613
20
-13.8443277926693
30
1E-16
41
1
10
29.390016198781
20
-13.9581033219664
30
0
41
1
10
31.5251152360009
20
-14.0718788512635
30
0
0
SPLINE
5
12E
100
AcDbEntity
8
1
62
256
6
ByLayer
370
-1
48
1
60
0
100
AcDbSpline
70
4
71
3
72
8
73
4
40
0
40
0
40
0
40
0
40
1
40
1
40
1
40
1
41
1
10
38.1283181531799
20
-14.4237514781822
30
-1E-16
41
1
10
38.2363681842385
20
-14.4295092670528
30
-1E-16
41
1
10
38.3444182152971
20
-14.4352670559235
30
-1E-16
41
1
10
38.4524682463557
20
-14.4410248447941
30
-1E-16
0
LINE
5
4A
100
AcDbEntity
8
SK1
62
256
6
ByLayer
370
-1
48
1
60
0
100
AcDbLine
10
-0.2875
20
15.996
30
0
11
-58.5
21
15.996
31
0
39
0
210
0
220
0
230
1
0
LINE
5
4C
100
AcDbEntity
8
SK1
62
256
6
ByLayer
370
-1
48
1
60
0
100
AcDbLine
10
-58.5
20
-15.996
30
0
11
-0.2875
21
-15.996
31
0
39
0
210
0
220
0
230
1
0
LINE
5
4D
100
AcDbEntity
8
SK1
62
256
6
ByLayer
370
-1
48
1
60
0
100
AcDbLine
10
-0.2875
20
-15.996
30
0
11
0
21
-15.7085
31
0
39
0
210
0
220
0
230
1
0
LINE
5
4E
100
AcDbEntity
8
SK1
62
256
6
ByLayer
370
-1
48
1
60
0
100
AcDbLine
10
0
20
15.7085
30
0
11
-0.2875
21
15.996
31
0
39
0
210
0
220
0
230
1
0
LINE
5
4F
100
AcDbEntity
8
SK1
62
256
6
ByLayer
370
-1
48
1
60
0
100
AcDbLine
10
-58.5
20
15.996
30
0
11
-60
21
14.496
31
0
39
0
210
0
220
0
230
1
0
LINE
5
50
100
AcDbEntity
8
SK1
62
256
6
ByLayer
370
-1
48
1
60
0
100
AcDbLine
10
-60
20
-14.496
30
0
11
-58.5
21
-15.996
31
0
39
0
210
0
220
0
230
1
0
LINE
5
51
100
AcDbEntity
8
1
62
256
6
ByLayer
370
-1
48
1
60
0
100
AcDbLine
10
31.98061
20
9.50149
30
0
11
31.807241
21
9.62169
31
0
39
0
210
0
220
0
230
1
0
LINE
5
53
100
AcDbEntity
8
1
62
256
6
ByLayer
370
-1
48
1
60
0
100
AcDbLine
10
32.656348
20
11.327007
30
0
11
32.823515
21
11.211107
31
0
39
0
210
0
220
0
230
1
0
LINE
5
54
100
AcDbEntity
8
1
62
256
6
ByLayer
370
-1
48
1
60
0
100
AcDbLine
10
30.355981
20
10.415909
30
0
11
30.188813
21
10.531809
31
0
39
0
210
0
220
0
230
1
0
LINE
5
55
100
AcDbEntity
8
1
62
256
6
ByLayer
370
-1
48
1
60
0
100
AcDbLine
10
31.025516
20
12.245725
30
0
11
31.198885
21
12.125525
31
0
39
0
210
0
220
0
230
1
0
LINE
5
56
100
AcDbEntity
8
1
62
256
6
ByLayer
370
-1
48
1
60
0
100
AcDbLine
10
0
20
-15.7085
30
0
11
0.0125
21
-15.696
31
0
39
0
210
0
220
0
230
1
0
LINE
5
57
100
AcDbEntity
8
1
62
256
6
ByLayer
370
-1
48
1
60
0
100
AcDbLine
10
0.0125
20
15.696
30
0
11
0
21
15.7085
31
0
39
0
210
0
220
0
230
1
0
LINE
5
58
100
AcDbEntity
8
1
62
256
6
ByLayer
370
-1
48
1
60
0
100
AcDbLine
10
3.764093
20
14.516678
30
0
11
0.8125
21
14.516678
31
0
39
0
210
0
220
0
230
1
0
LINE
5
59
100
AcDbEntity
8
1
62
256
6
ByLayer
370
-1
48
1
60
0
100
AcDbLine
10
0.8125
20
-14.516678
30
0
11
3.764093
21
-14.516678
31
0
39
0
210
0
220
0
230
1
0
LINE
5
5A
100
AcDbEntity
8
81
62
256
6
ByLayer
370
-1
48
1
60
0
100
AcDbLine
10
40.0125
20
15.88
30
0
11
50.01375
21
15.88
31
0
39
0
210
0
220
0
230
1
0
LINE
5
5B
100
AcDbEntity
8
SK4
62
256
6
ByLayer
370
-1
48
0.05
60
0
100
AcDbLine
10
50.0125
20
0
30
0
11
-70
21
0
31
0
39
0
210
0
220
0
230
1
0
LINE
5
5D
100
AcDbEntity
8
4
62
256
6
ByLayer
370
-1
48
0.05
60
0
100
AcDbLine
10
-24.4875
20
0
30
0
11
40.0125
21
0
31
0
39
0
210
0
220
0
230
1
0
LINE
5
5F
100
AcDbEntity
8
80
62
256
6
ByLayer
370
-1
48
1
60
0
100
AcDbLine
10
0
20
0
30
0
11
-10
21
0
31
0
39
0
210
0
220
0
230
1
0
LINE
5
60
100
AcDbEntity
8
1
62
256
6
ByLayer
370
-1
48
1
60
0
100
AcDbLine
10
38.625913
20
3.164239
30
0
11
38.625913
21
3.220815
31
0
39
0
210
0
220
0
230
1
0
LINE
5
61
100
AcDbEntity
8
1
62
256
6
ByLayer
370
-1
48
1
60
0
100
AcDbLine
10
22.082596
20
5.581731
30
0
11
22.981343
21
6.280631
31
0
39
0
210
0
220
0
230
1
0
LINE
5
62
100
AcDbEntity
8
1
62
256
6
ByLayer
370
-1
48
1
60
0
100
AcDbLine
10
37.826255
20
-14.459985
30
0
11
37.826255
21
-11.479363
31
0
39
0
210
0
220
0
230
1
0
LINE
5
63
100
AcDbEntity
8
1
62
256
6
ByLayer
370
-1
48
1
60
0
100
AcDbLine
10
25.217057
20
-13.361365
30
0
11
25.217057
21
-11.169636
31
0
39
0
210
0
220
0
230
1
0
LINE
5
64
100
AcDbEntity
8
1
62
256
6
ByLayer
370
-1
48
1
60
0
100
AcDbLine
10
34.63052
20
-10.746806
30
0
11
34.63052
21
-9.850207
31
0
39
0
210
0
220
0
230
1
0
LINE
5
65
100
AcDbEntity
8
1
62
256
6
ByLayer
370
-1
48
1
60
0
100
AcDbLine
10
25.857887
20
5.410201
30
0
11
37.929991
21
6.242852
31
0
39
0
210
0
220
0
230
1
0
LINE
5
66
100
AcDbEntity
8
1
62
256
6
ByLayer
370
-1
48
1
60
0
100
AcDbLine
10
21.60457
20
5.041075
30
0
11
21.60457
21
-14.108334
31
0
39
0
210
0
220
0
230
1
0
LINE
5
67
100
AcDbEntity
8
1
62
256
6
ByLayer
370
-1
48
1
60
0
100
AcDbLine
10
25.333994
20
-11.397028
30
0
11
25.333994
21
-13.371905
31
0
39
0
210
0
220
0
230
1
0
LINE
5
68
100
AcDbEntity
8
1
62
256
6
ByLayer
370
-1
48
1
60
0
100
AcDbLine
10
23.128504
20
13.627624
30
0
11
23.058545
21
10.421075
31
0
39
0
210
0
220
0
230
1
0
LINE
5
69
100
AcDbEntity
8
1
62
256
6
ByLayer
370
-1
48
1
60
0
100
AcDbLine
10
37.929991
20
6.337769
30
0
11
37.929991
21
6.242852
31
0
39
0
210
0
220
0
230
1
0
LINE
5
6A
100
AcDbEntity
8
1
62
256
6
ByLayer
370
-1
48
1
60
0
100
AcDbLine
10
20.483497
20
5.941523
30
0
11
14.823364
21
7.563244
31
0
39
0
210
0
220
0
230
1
0
LINE
5
6B
100
AcDbEntity
8
1
62
256
6
ByLayer
370
-1
48
1
60
0
100
AcDbLine
10
37.929991
20
6.242852
30
0
11
37.929991
21
5.810268
31
0
39
0
210
0
220
0
230
1
0
LINE
5
6C
100
AcDbEntity
8
1
62
256
6
ByLayer
370
-1
48
1
60
0
100
AcDbLine
10
26.212087
20
5.802307
30
0
11
26.824093
21
6.16722
31
0
39
0
210
0
220
0
230
1
0
LINE
5
6D
100
AcDbEntity
8
1
62
256
6
ByLayer
370
-1
48
1
60
0
100
AcDbLine
10
31.485333
20
6.180312
30
0
11
31.356148
21
5.901499
31
0
39
0
210
0
220
0
230
1
0
LINE
5
6E
100
AcDbEntity
8
1
62
256
6
ByLayer
370
-1
48
1
60
0
100
AcDbLine
10
38.629796
20
6.378905
30
0
11
38.629796
21
5.415544
31
0
39
0
210
0
220
0
230
1
0
LINE
5
6F
100
AcDbEntity
8
1
62
256
6
ByLayer
370
-1
48
1
60
0
100
AcDbLine
10
38.483349
20
5.844722
30
0
11
38.483349
21
6.375565
31
0
39
0
210
0
220
0
230
1
0
LINE
5
70
100
AcDbEntity
8
1
62
256
6
ByLayer
370
-1
48
1
60
0
100
AcDbLine
10
25.194754
20
5.011191
30
0
11
26.212087
21
5.802307
31
0
39
0
210
0
220
0
230
1
0
LINE
5
71
100
AcDbEntity
8
1
62
256
6
ByLayer
370
-1
48
1
60
0
100
AcDbLine
10
0.8125
20
14.516678
30
0
11
0.8125
21
-14.516678
31
0
39
0
210
0
220
0
230
1
0
LINE
5
72
100
AcDbEntity
8
1
62
256
6
ByLayer
370
-1
48
1
60
0
100
AcDbLine
10
0.0125
20
15.696
30
0
11
0.0125
21
-15.696
31
0
39
0
210
0
220
0
230
1
0
LINE
5
73
100
AcDbEntity
8
1
62
256
6
ByLayer
370
-1
48
1
60
0
100
AcDbLine
10
22.729263
20
9.153722
30
0
11
22.371822
21
8.875762
31
0
39
0
210
0
220
0
230
1
0
LINE
5
74
100
AcDbEntity
8
1
62
256
6
ByLayer
370
-1
48
1
60
0
100
AcDbLine
10
38.625912
20
3.164476
30
0
11
38.625912
21
-13.808477
31
0
39
0
210
0
220
0
230
1
0
LINE
5
75
100
AcDbEntity
8
1
62
256
6
ByLayer
370
-1
48
1
60
0
100
AcDbLine
10
38.076437
20
6.366534
30
0
11
38.076437
21
5.819378
31
0
39
0
210
0
220
0
230
1
0
LINE
5
76
100
AcDbEntity
8
1
62
256
6
ByLayer
370
-1
48
1
60
0
100
AcDbLine
10
34.755268
20
-9.763717
30
0
11
34.63052
21
-9.850207
31
0
39
0
210
0
220
0
230
1
0
LINE
5
77
100
AcDbEntity
8
1
62
256
6
ByLayer
370
-1
48
1
60
0
100
AcDbLine
10
21.417814
20
-14.084384
30
0
11
21.417814
21
5.175207
31
0
39
0
210
0
220
0
230
1
0
LINE
5
78
100
AcDbEntity
8
1
62
256
6
ByLayer
370
-1
48
1
60
0
100
AcDbLine
10
38.629796
20
-8.489686
30
0
11
38.629796
21
5.414347
31
0
39
0
210
0
220
0
230
1
0
LINE
5
79
100
AcDbEntity
8
1
62
256
6
ByLayer
370
-1
48
1
60
0
100
AcDbLine
10
0
20
-15.7085
30
0
11
0
21
-15.7085
31
0
39
0
210
0
220
0
230
1
0
LINE
5
7A
100
AcDbEntity
8
1
62
256
6
ByLayer
370
-1
48
1
60
0
100
AcDbLine
10
22.371822
20
8.875762
30
0
11
22.546653
21
9.028847
31
0
39
0
210
0
220
0
230
1
0
LINE
5
7B
100
AcDbEntity
8
SK1
62
256
6
ByLayer
370
-1
48
1
60
0
100
AcDbLine
10
-0.2875
20
15.996
30
0
11
-0.2875
21
-15.996
31
0
39
0
210
0
220
0
230
1
0
LINE
5
7C
100
AcDbEntity
8
SK1
62
256
6
ByLayer
370
-1
48
1
60
0
100
AcDbLine
10
-60
20
4.425336
30
0
11
-60
21
-4.425336
31
0
39
0
210
0
220
0
230
1
0
LINE
5
7D
100
AcDbEntity
8
SK1
62
256
6
ByLayer
370
-1
48
1
60
0
100
AcDbLine
10
-60
20
4.425336
30
0
11
-60
21
14.496
31
0
39
0
210
0
220
0
230
1
0
LINE
5
7E
100
AcDbEntity
8
SK1
62
256
6
ByLayer
370
-1
48
1
60
0
100
AcDbLine
10
-60
20
-14.496
30
0
11
-60
21
-4.425336
31
0
39
0
210
0
220
0
230
1
0
LINE
5
7F
100
AcDbEntity
8
SK1
62
256
6
ByLayer
370
-1
48
1
60
0
100
AcDbLine
10
-17.41664
20
-7.98342
30
0
11
-17.41664
21
7.98342
31
0
39
0
210
0
220
0
230
1
0
LINE
5
80
100
AcDbEntity
8
SK1
62
256
6
ByLayer
370
-1
48
1
60
0
100
AcDbLine
10
-58.5
20
-8.082178
30
0
11
-40.581822
21
-8.082178
31
0
39
0
210
0
220
0
230
1
0
LINE
5
81
100
AcDbEntity
8
SK1
62
256
6
ByLayer
370
-1
48
1
60
0
100
AcDbLine
10
-31.418178
20
-8.082178
30
0
11
-31.418178
21
8.082178
31
0
39
0
210
0
220
0
230
1
0
LINE
5
82
100
AcDbEntity
8
SK1
62
256
6
ByLayer
370
-1
48
1
60
0
100
AcDbLine
10
-40.581822
20
-8.082178
30
0
11
-40.581822
21
8.082178
31
0
39
0
210
0
220
0
230
1
0
LINE
5
83
100
AcDbEntity
8
SK1
62
256
6
ByLayer
370
-1
48
1
60
0
100
AcDbLine
10
-31.55836
20
-7.98342
30
0
11
-31.55836
21
7.98342
31
0
39
0
210
0
220
0
230
1
0
LINE
5
84
100
AcDbEntity
8
SK1
62
256
6
ByLayer
370
-1
48
1
60
0
100
AcDbLine
10
0
20
-15.7085
30
0
11
0
21
-15.7085
31
0
39
0
210
0
220
0
230
1
0
LINE
5
85
100
AcDbEntity
8
SK1
62
256
6
ByLayer
370
-1
48
1
60
0
100
AcDbLine
10
-40.581822
20
8.082178
30
0
11
-58.5
21
8.082178
31
0
39
0
210
0
220
0
230
1
0
LINE
5
86
100
AcDbEntity
8
SK1
62
256
6
ByLayer
370
-1
48
1
60
0
100
AcDbLine
10
-17.556822
20
8.082178
30
0
11
-31.418178
21
8.082178
31
0
39
0
210
0
220
0
230
1
0
LINE
5
87
100
AcDbEntity
8
SK1
62
256
6
ByLayer
370
-1
48
1
60
0
100
AcDbLine
10
-17.556822
20
-8.082178
30
0
11
-17.556822
21
8.082178
31
0
39
0
210
0
220
0
230
1
0
LINE
5
88
100
AcDbEntity
8
SK1
62
256
6
ByLayer
370
-1
48
1
60
0
100
AcDbLine
10
-40.44164
20
-7.98342
30
0
11
-40.44164
21
7.98342
31
0
39
0
210
0
220
0
230
1
0
LINE
5
89
100
AcDbEntity
8
SK1
62
256
6
ByLayer
370
-1
48
1
60
0
100
AcDbLine
10
-31.418178
20
-8.082178
30
0
11
-17.556822
21
-8.082178
31
0
39
0
210
0
220
0
230
1
0
LINE
5
8A
100
AcDbEntity
8
SK1
62
256
6
ByLayer
370
-1
48
1
60
0
100
AcDbLine
10
-58.5
20
-8.082178
30
0
11
-58.5
21
-15.996
31
0
39
0
210
0
220
0
230
1
0
LINE
5
8B
100
AcDbEntity
8
SK1
62
256
6
ByLayer
370
-1
48
1
60
0
100
AcDbLine
10
-58.5
20
15.996
30
0
11
-58.5
21
8.082178
31
0
39
0
210
0
220
0
230
1
0
LINE
5
8C
100
AcDbEntity
8
1
62
256
6
ByLayer
370
-1
48
1
60
0
100
AcDbLine
10
30.621426
20
9.684241
30
0
11
30.440108
21
9.809952
31
0
39
0
210
0
220
0
230
1
0
LINE
5
8D
100
AcDbEntity
8
1
62
256
6
ByLayer
370
-1
48
1
60
0
100
AcDbLine
10
30.142814
20
11.074621
30
0
11
29.961495
21
11.200332
31
0
39
0
210
0
220
0
230
1
0
LINE
5
8E
100
AcDbEntity
8
1
62
256
6
ByLayer
370
-1
48
1
60
0
100
AcDbLine
10
31.968693
20
9.496512
30
0
11
31.891927
21
9.549735
31
0
39
0
210
0
220
0
230
1
0
LINE
5
8F
100
AcDbEntity
8
1
62
256
6
ByLayer
370
-1
48
1
60
0
100
AcDbLine
10
32.073006
20
12.215791
30
0
11
31.891927
21
12.341336
31
0
39
0
210
0
220
0
230
1
0
LINE
5
90
100
AcDbEntity
8
1
62
256
6
ByLayer
370
-1
48
1
60
0
100
AcDbLine
10
30.621426
20
11.916794
30
0
11
30.440108
21
12.042505
31
0
39
0
210
0
220
0
230
1
0
LINE
5
91
100
AcDbEntity
8
1
62
256
6
ByLayer
370
-1
48
1
60
0
100
AcDbLine
10
33.00054
20
11.1385
30
0
11
32.855364
21
11.239153
31
0
39
0
210
0
220
0
230
1
0
LINE
5
92
100
AcDbEntity
8
1
62
256
6
ByLayer
370
-1
48
1
60
0
100
AcDbLine
10
31.348377
20
12.120615
30
0
11
31.50732
21
12.010418
31
0
39
0
210
0
220
0
230
1
0
LINE
5
93
100
AcDbEntity
8
1
62
256
6
ByLayer
370
-1
48
1
60
0
100
AcDbLine
10
31.672176
20
12.012629
30
0
11
31.513234
21
12.122827
31
0
39
0
210
0
220
0
230
1
0
MTEXT
5
12F
100
AcDbEntity
8
SK6
62
256
6
ByLayer
370
-1
48
1
60
0
100
AcDbMText
10
-59.126614
20
-26.938367
30
0
210
0
220
0
230
1
1
\W00.723;\fsimplex.shx,bigfont.shx;R390-032B32-17L\P
40
3.5
41
0
44
1.084337
50
0
71
7
72
5
7
DEFAULT
0
DIMENSION
5
140
100
AcDbEntity
8
2
62
256
6
ByLayer
370
-3
48
1
60
0
100
AcDbDimension
2
DimnDraft3D1
10
0.0125
20
35.75
30
0
11
16.359211
21
35.75
31
0
70
32
71
5
72
1
41
1
210
0
220
0
230
1
3
Standard
100
AcDbAlignedDimension
13
40.0125
23
18
33
0
14
0.0125
24
16.516678
34
0
50
0
100
AcDbRotatedDimension
1001
ACAD
1000
DSTYLE
1002
{
1070
   279
1070
     0
1070
   172
1070
     1
1070
   173
1070
     1
1070
   340
1005
130
1070
   271
1070
     2
1070
   272
1070
     2
1070
    77
1070
     1
1070
    73
1070
     0
1070
   171
1070
     4
1070
   274
1070
     4
1070
   177
1070
     2
1070
   176
1070
     2
1070
   178
1070
     7
1070
    78
1070
     8
1070
    41
1041
3.175
1070
   147
1041
2.25
1070
    42
1041
2.0
1070
    44
1041
2.0
1070
   140
1041
4.5
1070
   343
1005
141
1070
   344
1005
141
1002
}
0
DIMENSION
5
155
100
AcDbEntity
8
SK2
62
256
6
ByLayer
370
-3
48
1
60
0
100
AcDbDimension
2
DimnDraft3D2
10
-24.4875
20
45.75
30
0
11
1.139803
21
45.75
31
0
70
32
71
5
72
1
41
1
210
0
220
0
230
1
3
Standard
100
AcDbAlignedDimension
13
40.0125
23
18
33
0
14
-24.4875
24
17.996
34
0
50
0
100
AcDbRotatedDimension
1001
ACAD
1000
DSTYLE
1002
{
1070
   279
1070
     0
1070
   172
1070
     1
1070
   173
1070
     1
1070
   340
1005
130
1070
   271
1070
     2
1070
   272
1070
     2
1070
    77
1070
     1
1070
    73
1070
     0
1070
   171
1070
     4
1070
   274
1070
     4
1070
   177
1070
     2
1070
   176
1070
     2
1070
   178
1070
     7
1070
    78
1070
     8
1070
    41
1041
3.175
1070
   147
1041
2.25
1070
    42
1041
2.0
1070
    44
1041
2.0
1070
   140
1041
4.5
1070
   343
1005
141
1070
   344
1005
141
1002
}
0
DIMENSION
5
163
100
AcDbEntity
8
SK2
62
256
6
ByLayer
370
-3
48
1
60
0
100
AcDbDimension
2
DimnDraft3D3
10
-60
20
55.75
30
0
11
-17.541612
21
55.75
31
0
70
32
71
5
72
1
41
1
210
0
220
0
230
1
3
Standard
100
AcDbAlignedDimension
13
40.0125
23
18
33
0
14
-60
24
17.996
34
0
50
0
100
AcDbRotatedDimension
1001
ACAD
1000
DSTYLE
1002
{
1070
   279
1070
     0
1070
   172
1070
     1
1070
   173
1070
     1
1070
   340
1005
130
1070
   271
1070
     2
1070
   272
1070
     2
1070
    77
1070
     1
1070
    73
1070
     0
1070
   171
1070
     4
1070
   274
1070
     4
1070
   177
1070
     2
1070
   176
1070
     2
1070
   178
1070
     7
1070
    78
1070
     8
1070
    41
1041
3.175
1070
   147
1041
2.25
1070
    42
1041
2.0
1070
    44
1041
2.0
1070
   140
1041
4.5
1070
   343
1005
141
1070
   344
1005
141
1002
}
0
DIMENSION
5
171
100
AcDbEntity
8
2
62
256
6
ByLayer
370
-3
48
1
60
0
100
AcDbDimension
2
DimnDraft3D4
10
23.8125
20
25.75
30
0
11
45.0125
21
25.75
31
0
70
32
71
5
72
1
41
1
210
0
220
0
230
1
3
Standard
100
AcDbAlignedDimension
13
40.0125
23
18
33
0
14
23.8125
24
18
34
0
50
0
100
AcDbRotatedDimension
1001
ACAD
1000
DSTYLE
1002
{
1070
   279
1070
     0
1070
   172
1070
     1
1070
   173
1070
     1
1070
   340
1005
130
1070
   271
1070
     2
1070
   272
1070
     2
1070
    77
1070
     1
1070
    73
1070
     0
1070
   171
1070
     4
1070
   274
1070
     4
1070
   177
1070
     2
1070
   176
1070
     2
1070
   178
1070
     7
1070
    78
1070
     8
1070
    41
1041
3.175
1070
   147
1041
2.25
1070
    42
1041
2.0
1070
    44
1041
2.0
1070
   140
1041
4.5
1070
   343
1005
141
1070
   344
1005
141
1002
}
0
DIMENSION
5
17F
100
AcDbEntity
8
SK2
62
256
6
ByLayer
370
-3
48
1
60
0
100
AcDbDimension
2
DimnDraft3D5
10
-69.75
20
-15.996
30
0
11
-69.75
21
-6.01727
31
0
70
32
71
5
72
1
41
1
210
0
220
0
230
1
3
Standard
100
AcDbAlignedDimension
13
-62
23
15.996
33
0
14
-62
24
-15.996
34
0
50
90
100
AcDbRotatedDimension
1001
ACAD
1000
DSTYLE
1002
{
1070
    74
1070
     0
1070
   279
1070
     0
1070
   172
1070
     1
1070
   173
1070
     1
1070
   340
1005
130
1070
   271
1070
     2
1070
   272
1070
     2
1070
    77
1070
     1
1070
    73
1070
     0
1070
   171
1070
     4
1070
   274
1070
     4
1070
   177
1070
     2
1070
   176
1070
     2
1070
   178
1070
     7
1070
    78
1070
     8
1070
    41
1041
3.175
1070
   147
1041
2.25
1070
    42
1041
2.0
1070
    44
1041
2.0
1070
   140
1041
4.5
1070
   343
1005
141
1070
   344
1005
141
1002
}
0
DIMENSION
5
18D
100
AcDbEntity
8
2
62
256
6
ByLayer
370
-3
48
1
60
0
100
AcDbDimension
2
DimnDraft3D6
10
54.2625
20
-16
30
0
11
54.2625
21
-6.01727
31
0
70
32
71
5
72
1
41
1
210
0
220
0
230
1
3
Standard
100
AcDbAlignedDimension
13
42.0125
23
16
33
0
14
42.0125
24
-16
34
0
50
90
100
AcDbRotatedDimension
1001
ACAD
1000
DSTYLE
1002
{
1070
    74
1070
     0
1070
   279
1070
     0
1070
   172
1070
     1
1070
   173
1070
     1
1070
   340
1005
130
1070
   271
1070
     2
1070
   272
1070
     2
1070
    77
1070
     1
1070
    73
1070
     0
1070
   171
1070
     4
1070
   274
1070
     4
1070
   177
1070
     2
1070
   176
1070
     2
1070
   178
1070
     7
1070
    78
1070
     8
1070
    41
1041
3.175
1070
   147
1041
2.25
1070
    42
1041
2.0
1070
    44
1041
2.0
1070
   140
1041
4.5
1070
   343
1005
141
1070
   344
1005
141
1002
}
0
ENDSEC
0
SECTION
2
OBJECTS
0
DICTIONARY
5
1dc
330
0
100
AcDbDictionary
280
0
281
1
3
ACAD_GROUP
350
1dd
3
ACAD_MLINESTYLE
350
1de
0
DICTIONARY
5
1dd
330
0
100
AcDbDictionary
280
0
281
1
0
DICTIONARY
5
1de
330
0
100
AcDbDictionary
280
0
281
1
3
Standard
350
18
0
MLINESTYLE
5
18
330
1de
100
AcDbMlineStyle
2
Standard
70
0
3

62
256
51
90
52
90
71
2
49
-0.5
62
256
6
ByLayer
49
0.5
62
256
6
ByLayer
0
RASTERVARIABLES
5
1ca
330

100
AcDbRasterVariables
90
0
70
1
71
1
72
1
0
ENDSEC
0
EOF
