0
SECTION
2
HEADER
9
$ACADVER
1
AC1015
9
$DWGCODEPAGE
3
ANSI_1252
9
$HANDSEED
5
321
9
$ANGBASE
50
0
9
$ANGDIR
70
0
9
$ATTMODE
70
1
9
$AUNITS
70
0
9
$AUPREC
70
0
9
$CECOLOR
62
256
9
$CELTSCALE
40
1
9
$CELTYPE
6
ByLayer
9
$CELWEIGHT
370
-1
9
$CLAYER
8
0
9
$CMLJUST
70
0
9
$CMLSCALE
40
1
9
$CMLSTYLE
2
Standard
9
$DIMSTYLE
2
Standard
9
$TEXTSIZE
40
0.2
9
$TEXTSTYLE
7
Standard
9
$LUNITS
70
2
9
$LUPREC
70
4
9
$EXTNAMES
290
1
9
$INSUNITS
70
4
9
$LTSCALE
40
1
9
$LWDISPLAY
290
0
9
$PDMODE
70
0
9
$PDSIZE
40
0
9
$PLINEGEN
70
0
0
ENDSEC
0
SECTION
2
CLASSES
0
CLASS
1
RASTERVARIABLES
2
AcDbRasterVariables
3
ISM
90
0
280
0
281
0
0
ENDSEC
0
SECTION
2
TABLES
0
TABLE
2
VPORT
5
317
100
AcDbSymbolTable
0
VPORT
5
1
100
AcDbSymbolTableRecord
100
AcDbViewportTableRecord
2
*Active
70
0
10
0
20
0
11
1
21
1
12
-1
22
1
13
0
23
0
14
0.5
24
0.5
15
10
25
10
16
0
26
0
36
1
17
0
27
0
37
0
0
ENDTAB
0
TABLE
2
LTYPE
5
318
100
AcDbSymbolTable
0
LTYPE
5
14
100
AcDbSymbolTableRecord
100
AcDbLinetypeTableRecord
70
0
2
ByBlock
3

72
65
73
0
40
0
0
LTYPE
5
15
100
AcDbSymbolTableRecord
100
AcDbLinetypeTableRecord
70
0
2
ByLayer
3

72
65
73
0
40
0
0
LTYPE
5
16
100
AcDbSymbolTableRecord
100
AcDbLinetypeTableRecord
70
0
2
CONTINUOUS
3
Solid line
72
65
73
0
40
0
0
LTYPE
5
3C
100
AcDbSymbolTableRecord
100
AcDbLinetypeTableRecord
70
0
2
DASHED
3
__ __ __ __ __ __ __ __ __
72
65
73
2
40
25.72
49
12.86
74
0
49
-12.86
74
0
0
LTYPE
5
3D
100
AcDbSymbolTableRecord
100
AcDbLinetypeTableRecord
70
0
2
HIDDEN
3
_ _ _ _ _ _ _ _ _ _ _ _ _ _ _
72
65
73
2
40
0.5
49
0.25
74
0
49
-0.25
74
0
0
LTYPE
5
3E
100
AcDbSymbolTableRecord
100
AcDbLinetypeTableRecord
70
0
2
PHANTOM
3
____ _ _ ____ _ _ _____ _ _ ____
72
65
73
6
40
50.5
49
18
74
0
49
-6.5
74
0
49
6.5
74
0
49
-6.5
74
0
49
6.5
74
0
49
-6.5
74
0
0
LTYPE
5
3F
100
AcDbSymbolTableRecord
100
AcDbLinetypeTableRecord
70
0
2
CENTER
3
____ _ ____ _ ____ _ ____
72
65
73
4
40
47.5
49
22
74
0
49
-8.5
74
0
49
8.5
74
0
49
-8.5
74
0
0
LTYPE
5
40
100
AcDbSymbolTableRecord
100
AcDbLinetypeTableRecord
70
0
2
DOT
3
.........................
72
65
73
2
40
10
49
0
74
0
49
-10
74
0
0
LTYPE
5
41
100
AcDbSymbolTableRecord
100
AcDbLinetypeTableRecord
70
0
2
DASHDOT
3
_._._._._._._._._._._._._._._._.
72
65
73
4
40
70
49
31
74
0
49
-13
74
0
49
13
74
0
49
-13
74
0
0
ENDTAB
0
TABLE
2
LAYER
5
319
100
AcDbSymbolTable
0
LAYER
5
10
100
AcDbSymbolTableRecord
100
AcDbLayerTableRecord
2
0
70
0
62
7
6
CONTINUOUS
290
1
370
-3
390
0
0
LAYER
5
43
100
AcDbSymbolTableRecord
100
AcDbLayerTableRecord
2
2
70
0
62
7
6
CONTINUOUS
290
1
370
-3
390
0
0
LAYER
5
45
100
AcDbSymbolTableRecord
100
AcDbLayerTableRecord
2
80
70
0
62
-6
6
CONTINUOUS
290
1
370
-3
390
0
0
LAYER
5
47
100
AcDbSymbolTableRecord
100
AcDbLayerTableRecord
2
81
70
0
62
-3
6
CONTINUOUS
290
1
370
-3
390
0
0
LAYER
5
4F
100
AcDbSymbolTableRecord
100
AcDbLayerTableRecord
2
1
70
0
62
4
6
CONTINUOUS
290
1
370
-3
390
0
0
LAYER
5
304
100
AcDbSymbolTableRecord
100
AcDbLayerTableRecord
2
SK1
70
0
62
4
6
CONTINUOUS
290
1
370
-3
390
0
0
LAYER
5
305
100
AcDbSymbolTableRecord
100
AcDbLayerTableRecord
2
SK6
70
0
62
5
6
CONTINUOUS
290
1
370
-3
390
0
0
LAYER
5
306
100
AcDbSymbolTableRecord
100
AcDbLayerTableRecord
2
SK2
70
0
62
7
6
CONTINUOUS
290
1
370
-3
390
0
0
ENDTAB
0
TABLE
2
STYLE
5
31a
100
AcDbSymbolTable
0
STYLE
5
11
100
AcDbSymbolTableRecord
100
AcDbTextStyleTableRecord
2
Standard
3
txt
70
0
71
0
40
0
41
1
42
0
50
0
0
STYLE
5
284
100
AcDbSymbolTableRecord
100
AcDbTextStyleTableRecord
2
DEFAULT
3
simplex.shx
70
0
71
0
40
0
41
1
42
0
50
0
0
STYLE
5
285
100
AcDbSymbolTableRecord
100
AcDbTextStyleTableRecord
2
DWGDirectTextStyle
3
SIMPLEX
70
0
71
0
40
0
41
1
42
0
50
0
0
ENDTAB
0
TABLE
2
DIMSTYLE
5
31b
100
AcDbSymbolTable
100
AcDbDimStyleTable
0
DIMSTYLE
105
27
100
AcDbSymbolTableRecord
100
AcDbDimStyleTableRecord
2
Standard
70
0
3
<>
41
0.18
42
0.0625
44
0.18
140
0.18
147
0.09
73
0
74
0
77
1
271
2
275
0
278
52
280
0
340
11
0
ENDTAB
0
TABLE
2
VIEW
5
31c
100
AcDbSymbolTable
0
ENDTAB
0
TABLE
2
UCS
5
31d
100
AcDbSymbolTable
0
ENDTAB
0
TABLE
2
APPID
5
31e
100
AcDbSymbolTable
0
APPID
5
12
100
AcDbSymbolTableRecord
100
AcDbRegAppTableRecord
2
ACAD
70
0
0
ENDTAB
0
TABLE
2
BLOCK_RECORD
5
31f
100
AcDbSymbolTable
0
BLOCK_RECORD
5
1F
100
AcDbSymbolTableRecord
100
AcDbBlockTableRecord
2
*Model_Space
340
0
70
0
0
BLOCK_RECORD
5
1B
100
AcDbSymbolTableRecord
100
AcDbBlockTableRecord
2
*Paper_Space
340
0
70
0
0
BLOCK_RECORD
5
23
100
AcDbSymbolTableRecord
100
AcDbBlockTableRecord
2
*Paper_Space0
340
0
70
0
0
BLOCK_RECORD
5
287
100
AcDbSymbolTableRecord
100
AcDbBlockTableRecord
2
DimnDraft3D1
340
0
70
0
0
BLOCK_RECORD
5
296
100
AcDbSymbolTableRecord
100
AcDbBlockTableRecord
2
_CLOSED
340
0
70
0
0
BLOCK_RECORD
5
29D
100
AcDbSymbolTableRecord
100
AcDbBlockTableRecord
2
DimnDraft3D2
340
0
70
0
0
BLOCK_RECORD
5
2AB
100
AcDbSymbolTableRecord
100
AcDbBlockTableRecord
2
DimnDraft3D3
340
0
70
0
0
BLOCK_RECORD
5
2B9
100
AcDbSymbolTableRecord
100
AcDbBlockTableRecord
2
DimnDraft3D4
340
0
70
0
0
ENDTAB
0
ENDSEC
0
SECTION
2
BLOCKS
0
BLOCK
5
20
100
AcDbEntity
8
0
100
AcDbBlockBegin
2
*Model_Space
70
0
10
0
20
0
30
0
3
*Model_Space
0
ENDBLK
5
21
100
AcDbEntity
8
0
100
AcDbBlockEnd
0
BLOCK
5
1C
100
AcDbEntity
8
0
100
AcDbBlockBegin
2
*Paper_Space
70
0
10
0
20
0
30
0
3
*Paper_Space
0
ENDBLK
5
1D
100
AcDbEntity
8
0
100
AcDbBlockEnd
0
BLOCK
5
24
100
AcDbEntity
8
0
100
AcDbBlockBegin
2
*Paper_Space0
70
0
10
0
20
0
30
0
3
*Paper_Space0
0
ENDBLK
5
25
100
AcDbEntity
8
0
100
AcDbBlockEnd
0
BLOCK
5
293
100
AcDbEntity
8
0
100
AcDbBlockBegin
2
DimnDraft3D1
70
0
10
0
20
0
30
0
3
DimnDraft3D1
0
MTEXT
5
288
100
AcDbEntity
8
SK2
62
256
6
ByLayer
370
-1
48
1
60
0
100
AcDbMText
10
-9.919737
20
36.871
30
0
210
0
220
0
230
1
1
\W01.000;\fsimplex.shx,bigfont.shx;112.7\P
40
4.5
41
0
44
1.084337
50
0
71
7
72
5
7
DEFAULT
0
LINE
5
28A
100
AcDbEntity
8
SK2
62
256
6
ByLayer
370
-1
48
1
60
0
100
AcDbLine
10
51.7
20
18
30
0
11
51.7
21
37.746
31
0
39
0
210
0
220
0
230
1
0
LINE
5
28B
100
AcDbEntity
8
SK2
62
256
6
ByLayer
370
-1
48
1
60
0
100
AcDbLine
10
-61
20
17.996
30
0
11
-61
21
37.746
31
0
39
0
210
0
220
0
230
1
0
LINE
5
28C
100
AcDbEntity
8
SK2
62
256
6
ByLayer
370
-1
48
1
60
0
100
AcDbLine
10
51.7
20
35.746
30
0
11
-61
21
35.746
31
0
39
0
210
0
220
0
230
1
0
LINE
5
28D
100
AcDbEntity
8
SK2
62
256
6
ByLayer
370
-1
48
1
60
0
100
AcDbLine
10
51.7
20
35.746
30
0
11
48.525002
21
35.328003
31
0
39
0
210
0
220
0
230
1
0
LINE
5
28E
100
AcDbEntity
8
SK2
62
256
6
ByLayer
370
-1
48
1
60
0
100
AcDbLine
10
51.7
20
35.746
30
0
11
48.524998
21
36.163997
31
0
39
0
210
0
220
0
230
1
0
LINE
5
28F
100
AcDbEntity
8
SK2
62
256
6
ByLayer
370
-1
48
1
60
0
100
AcDbLine
10
48.525002
20
35.328003
30
0
11
48.524998
21
36.163997
31
0
39
0
210
0
220
0
230
1
0
LINE
5
290
100
AcDbEntity
8
SK2
62
256
6
ByLayer
370
-1
48
1
60
0
100
AcDbLine
10
-61
20
35.746
30
0
11
-57.825002
21
36.163997
31
0
39
0
210
0
220
0
230
1
0
LINE
5
291
100
AcDbEntity
8
SK2
62
256
6
ByLayer
370
-1
48
1
60
0
100
AcDbLine
10
-61
20
35.746
30
0
11
-57.824998
21
35.328003
31
0
39
0
210
0
220
0
230
1
0
LINE
5
292
100
AcDbEntity
8
SK2
62
256
6
ByLayer
370
-1
48
1
60
0
100
AcDbLine
10
-57.825002
20
36.163997
30
0
11
-57.824998
21
35.328003
31
0
39
0
210
0
220
0
230
1
0
ENDBLK
5
294
100
AcDbEntity
8
0
100
AcDbBlockEnd
0
BLOCK
5
297
100
AcDbEntity
8
0
100
AcDbBlockBegin
2
_CLOSED
70
0
10
0
20
0
30
0
3
_CLOSED
0
LINE
5
299
100
AcDbEntity
8
0
62
256
6
ByLayer
370
-2
48
1
60
0
100
AcDbLine
10
-1
20
0.166667
30
0
11
0
21
0
31
0
39
0
210
0
220
0
230
1
0
LINE
5
29A
100
AcDbEntity
8
0
62
256
6
ByLayer
370
-2
48
1
60
0
100
AcDbLine
10
0
20
0
30
0
11
-1
21
-0.166667
31
0
39
0
210
0
220
0
230
1
0
LINE
5
29B
100
AcDbEntity
8
0
62
256
6
ByLayer
370
-2
48
1
60
0
100
AcDbLine
10
-1
20
0.166667
30
0
11
-1
21
-0.166667
31
0
39
0
210
0
220
0
230
1
0
LINE
5
29C
100
AcDbEntity
8
0
62
256
6
ByLayer
370
-2
48
1
60
0
100
AcDbLine
10
0
20
0
30
0
11
-1
21
0
31
0
39
0
210
0
220
0
230
1
0
ENDBLK
5
298
100
AcDbEntity
8
0
100
AcDbBlockEnd
0
BLOCK
5
2A8
100
AcDbEntity
8
0
100
AcDbBlockBegin
2
DimnDraft3D2
70
0
10
0
20
0
30
0
3
DimnDraft3D2
0
MTEXT
5
29E
100
AcDbEntity
8
2
62
256
6
ByLayer
370
-1
48
1
60
0
100
AcDbMText
10
28.602886
20
24.875
30
0
210
0
220
0
230
1
1
\W01.000;\fsimplex.shx,bigfont.shx;36.6\P
40
4.5
41
0
44
1.084337
50
0
71
7
72
5
7
DEFAULT
0
LINE
5
29F
100
AcDbEntity
8
2
62
256
6
ByLayer
370
-1
48
1
60
0
100
AcDbLine
10
51.7
20
18
30
0
11
51.7
21
25.75
31
0
39
0
210
0
220
0
230
1
0
LINE
5
2A0
100
AcDbEntity
8
2
62
256
6
ByLayer
370
-1
48
1
60
0
100
AcDbLine
10
15.074194
20
18
30
0
11
15.074194
21
25.75
31
0
39
0
210
0
220
0
230
1
0
LINE
5
2A1
100
AcDbEntity
8
2
62
256
6
ByLayer
370
-1
48
1
60
0
100
AcDbLine
10
51.7
20
23.75
30
0
11
15.074194
21
23.75
31
0
39
0
210
0
220
0
230
1
0
LINE
5
2A2
100
AcDbEntity
8
2
62
256
6
ByLayer
370
-1
48
1
60
0
100
AcDbLine
10
51.7
20
23.75
30
0
11
48.525002
21
23.332003
31
0
39
0
210
0
220
0
230
1
0
LINE
5
2A3
100
AcDbEntity
8
2
62
256
6
ByLayer
370
-1
48
1
60
0
100
AcDbLine
10
51.7
20
23.75
30
0
11
48.524998
21
24.167997
31
0
39
0
210
0
220
0
230
1
0
LINE
5
2A4
100
AcDbEntity
8
2
62
256
6
ByLayer
370
-1
48
1
60
0
100
AcDbLine
10
48.525002
20
23.332003
30
0
11
48.524998
21
24.167997
31
0
39
0
210
0
220
0
230
1
0
LINE
5
2A5
100
AcDbEntity
8
2
62
256
6
ByLayer
370
-1
48
1
60
0
100
AcDbLine
10
15.074194
20
23.75
30
0
11
18.249192
21
24.167997
31
0
39
0
210
0
220
0
230
1
0
LINE
5
2A6
100
AcDbEntity
8
2
62
256
6
ByLayer
370
-1
48
1
60
0
100
AcDbLine
10
15.074194
20
23.75
30
0
11
18.249195
21
23.332003
31
0
39
0
210
0
220
0
230
1
0
LINE
5
2A7
100
AcDbEntity
8
2
62
256
6
ByLayer
370
-1
48
1
60
0
100
AcDbLine
10
18.249192
20
24.167997
30
0
11
18.249195
21
23.332003
31
0
39
0
210
0
220
0
230
1
0
ENDBLK
5
2A9
100
AcDbEntity
8
0
100
AcDbBlockEnd
0
BLOCK
5
2B6
100
AcDbEntity
8
0
100
AcDbBlockBegin
2
DimnDraft3D3
70
0
10
0
20
0
30
0
3
DimnDraft3D3
0
MTEXT
5
2AC
100
AcDbEntity
8
SK2
62
256
6
ByLayer
370
-1
48
1
60
0
100
AcDbMText
10
-69.875
20
-4.49852
30
0
210
0
220
0
230
1
1
\W01.000;\fsimplex.shx,bigfont.shx;%%c32\P
40
4.5
41
0
44
1.084337
50
90
71
7
72
5
7
DEFAULT
0
LINE
5
2AD
100
AcDbEntity
8
SK2
62
256
6
ByLayer
370
-1
48
1
60
0
100
AcDbLine
10
-63
20
15.996
30
0
11
-70.75
21
15.996
31
0
39
0
210
0
220
0
230
1
0
LINE
5
2AE
100
AcDbEntity
8
SK2
62
256
6
ByLayer
370
-1
48
1
60
0
100
AcDbLine
10
-63
20
-15.996
30
0
11
-70.75
21
-15.996
31
0
39
0
210
0
220
0
230
1
0
LINE
5
2AF
100
AcDbEntity
8
SK2
62
256
6
ByLayer
370
-1
48
1
60
0
100
AcDbLine
10
-68.75
20
15.996
30
0
11
-68.75
21
-15.996
31
0
39
0
210
0
220
0
230
1
0
LINE
5
2B0
100
AcDbEntity
8
SK2
62
256
6
ByLayer
370
-1
48
1
60
0
100
AcDbLine
10
-68.75
20
15.996
30
0
11
-68.332003
21
12.821002
31
0
39
0
210
0
220
0
230
1
0
LINE
5
2B1
100
AcDbEntity
8
SK2
62
256
6
ByLayer
370
-1
48
1
60
0
100
AcDbLine
10
-68.75
20
15.996
30
0
11
-69.167997
21
12.820998
31
0
39
0
210
0
220
0
230
1
0
LINE
5
2B2
100
AcDbEntity
8
SK2
62
256
6
ByLayer
370
-1
48
1
60
0
100
AcDbLine
10
-68.332003
20
12.821002
30
0
11
-69.167997
21
12.820998
31
0
39
0
210
0
220
0
230
1
0
LINE
5
2B3
100
AcDbEntity
8
SK2
62
256
6
ByLayer
370
-1
48
1
60
0
100
AcDbLine
10
-68.75
20
-15.996
30
0
11
-69.167997
21
-12.821002
31
0
39
0
210
0
220
0
230
1
0
LINE
5
2B4
100
AcDbEntity
8
SK2
62
256
6
ByLayer
370
-1
48
1
60
0
100
AcDbLine
10
-68.75
20
-15.996
30
0
11
-68.332003
21
-12.820998
31
0
39
0
210
0
220
0
230
1
0
LINE
5
2B5
100
AcDbEntity
8
SK2
62
256
6
ByLayer
370
-1
48
1
60
0
100
AcDbLine
10
-69.167997
20
-12.821002
30
0
11
-68.332003
21
-12.820998
31
0
39
0
210
0
220
0
230
1
0
ENDBLK
5
2B7
100
AcDbEntity
8
0
100
AcDbBlockEnd
0
BLOCK
5
2C4
100
AcDbEntity
8
0
100
AcDbBlockBegin
2
DimnDraft3D4
70
0
10
0
20
0
30
0
3
DimnDraft3D4
0
MTEXT
5
2BA
100
AcDbEntity
8
2
62
256
6
ByLayer
370
-1
48
1
60
0
100
AcDbMText
10
62.825
20
-7.467928
30
0
210
0
220
0
230
1
1
\W01.000;\fsimplex.shx,bigfont.shx;%%c32.0\P
40
4.5
41
0
44
1.084337
50
90
71
7
72
5
7
DEFAULT
0
LINE
5
2BB
100
AcDbEntity
8
2
62
256
6
ByLayer
370
-1
48
1
60
0
100
AcDbLine
10
53.7
20
16
30
0
11
65.95
21
16
31
0
39
0
210
0
220
0
230
1
0
LINE
5
2BC
100
AcDbEntity
8
2
62
256
6
ByLayer
370
-1
48
1
60
0
100
AcDbLine
10
53.7
20
-16
30
0
11
65.95
21
-16
31
0
39
0
210
0
220
0
230
1
0
LINE
5
2BD
100
AcDbEntity
8
2
62
256
6
ByLayer
370
-1
48
1
60
0
100
AcDbLine
10
63.95
20
16
30
0
11
63.95
21
-16
31
0
39
0
210
0
220
0
230
1
0
LINE
5
2BE
100
AcDbEntity
8
2
62
256
6
ByLayer
370
-1
48
1
60
0
100
AcDbLine
10
63.95
20
16
30
0
11
64.367997
21
12.825002
31
0
39
0
210
0
220
0
230
1
0
LINE
5
2BF
100
AcDbEntity
8
2
62
256
6
ByLayer
370
-1
48
1
60
0
100
AcDbLine
10
63.95
20
16
30
0
11
63.532003
21
12.824998
31
0
39
0
210
0
220
0
230
1
0
LINE
5
2C0
100
AcDbEntity
8
2
62
256
6
ByLayer
370
-1
48
1
60
0
100
AcDbLine
10
64.367997
20
12.825002
30
0
11
63.532003
21
12.824998
31
0
39
0
210
0
220
0
230
1
0
LINE
5
2C1
100
AcDbEntity
8
2
62
256
6
ByLayer
370
-1
48
1
60
0
100
AcDbLine
10
63.95
20
-16
30
0
11
63.532003
21
-12.825002
31
0
39
0
210
0
220
0
230
1
0
LINE
5
2C2
100
AcDbEntity
8
2
62
256
6
ByLayer
370
-1
48
1
60
0
100
AcDbLine
10
63.95
20
-16
30
0
11
64.367997
21
-12.824998
31
0
39
0
210
0
220
0
230
1
0
LINE
5
2C3
100
AcDbEntity
8
2
62
256
6
ByLayer
370
-1
48
1
60
0
100
AcDbLine
10
63.532003
20
-12.825002
30
0
11
64.367997
21
-12.824998
31
0
39
0
210
0
220
0
230
1
0
ENDBLK
5
2C5
100
AcDbEntity
8
0
100
AcDbBlockEnd
0
ENDSEC
0
SECTION
2
ENTITIES
0
ARC
5
D9
100
AcDbEntity
8
1
62
256
6
ByLayer
370
-1
48
1
60
0
100
AcDbCircle
39
0
10
29.144106
20
4.418759
30
0
40
4
210
0
220
0
230
1
100
AcDbArc
50
273.615034
51
280.618395
0
ARC
5
DA
100
AcDbEntity
8
1
62
256
6
ByLayer
370
-1
48
1
60
0
100
AcDbCircle
39
0
10
29.144106
20
4.418759
30
0
40
4
210
0
220
0
230
1
100
AcDbArc
50
231.549403
51
238.552765
0
ARC
5
DB
100
AcDbEntity
8
1
62
256
6
ByLayer
370
-1
48
1
60
0
100
AcDbCircle
39
0
10
-3.155812
20
15.229714
30
0
40
0.8
210
0
220
0
230
-1
100
AcDbArc
50
270
51
315
0
ARC
5
DC
100
AcDbEntity
8
1
62
256
6
ByLayer
370
-1
48
1
60
0
100
AcDbCircle
39
0
10
-3.155812
20
-15.229715
30
0
40
0.8
210
0
220
0
230
-1
100
AcDbArc
50
45
51
90
0
ARC
5
DD
100
AcDbEntity
8
1
62
256
6
ByLayer
370
-1
48
1
60
0
100
AcDbCircle
39
0
10
-15.677208
20
-15.229715
30
0
40
0.800000000000001
210
0
220
0
230
-1
100
AcDbArc
50
90
51
136.567463
0
ARC
5
DE
100
AcDbEntity
8
1
62
256
6
ByLayer
370
-1
48
1
60
0
100
AcDbCircle
39
0
10
-15.677208
20
15.229714
30
0
40
0.800000000000001
210
0
220
0
230
-1
100
AcDbArc
50
223.432537
51
270
0
ELLIPSE
5
DF
100
AcDbEntity
8
1
62
256
6
ByLayer
370
-1
48
1
60
0
100
AcDbEllipse
10
34.491801
20
1.470909
30
0
11
-1.13650245715954
21
-0.520444199574118
31
0
210
0
220
0
230
1
40
0.986673
41
-2.73258695480651
42
-2.23658367814917
0
ELLIPSE
5
E0
100
AcDbEntity
8
1
62
256
6
ByLayer
370
-1
48
1
60
0
100
AcDbEllipse
10
53.45733
20
-0.805906
30
0
11
62.9636280730163
21
-12.5507061969866
31
0
210
0
220
0
230
-1
40
0.143337
41
1.74373311362578
42
1.84918363004758
0
ELLIPSE
5
E1
100
AcDbEntity
8
1
62
256
6
ByLayer
370
-1
48
1
60
0
100
AcDbEllipse
10
46.57414
20
8.998485
30
0
11
0.931153402189403
21
0.0931153402188891
31
0
210
0
220
0
230
1
40
0.705346
41
-2.22302896670583
42
-1.20737129477011
0
ELLIPSE
5
E2
100
AcDbEntity
8
1
62
256
6
ByLayer
370
-1
48
1
60
0
100
AcDbEllipse
10
19.427698
20
8.818315
30
0
11
2.8742904809327
21
-1.16122962036787
31
0
210
0
220
0
230
1
40
0.771063
41
-1.26420992503037
42
-0.969325154868589
0
ELLIPSE
5
E3
100
AcDbEntity
8
1
62
256
6
ByLayer
370
-1
48
1
60
0
100
AcDbEllipse
10
27.522514
20
0.022541
30
0
11
1.48369798920634
21
15.1917055101529
31
0
210
0
220
0
230
-1
40
0.236661
41
-0.688349635190418
42
-0.674742032891166
0
ELLIPSE
5
E4
100
AcDbEntity
8
1
62
256
6
ByLayer
370
-1
48
1
60
0
100
AcDbEllipse
10
48.248671
20
-10.982732
30
0
11
1.5
21
0
31
0
210
0
220
0
230
1
40
0.132209
41
-2.83910880713521
42
-2.79678152463069
0
ELLIPSE
5
E5
100
AcDbEntity
8
1
62
256
6
ByLayer
370
-1
48
1
60
0
100
AcDbEllipse
10
48.248671
20
-10.982732
30
0
11
0.710963408267814
21
-1.3208069624681
31
0
210
0
220
0
230
1
40
0.962612
41
1.06092304825801
42
3.00555842856655
0
ELLIPSE
5
E6
100
AcDbEntity
8
1
62
256
6
ByLayer
370
-1
48
1
60
0
100
AcDbEllipse
10
39.187911
20
-1.351807
30
0
11
1.43304423954105
21
-0.443152578146877
31
0
210
0
220
0
230
1
40
0.590054
41
0.180477366623856
42
2.82738226093472
0
ELLIPSE
5
E7
100
AcDbEntity
8
1
62
256
6
ByLayer
370
-1
48
1
60
0
100
AcDbEllipse
10
45.235283
20
0.06387
30
0
11
3.65845191725692
21
15.1954682724662
31
0
210
0
220
0
230
-1
40
0.087033
41
2.20138948727901
42
2.21499456876965
0
ELLIPSE
5
E8
100
AcDbEntity
8
1
62
256
6
ByLayer
370
-1
48
1
60
0
100
AcDbEllipse
10
25.362476
20
7.369937
30
0
11
1.24556568607608
21
0.105195635222343
31
0
210
0
220
0
230
1
40
0.593251
41
2.15605076019557
42
2.29523320396826
0
ELLIPSE
5
E9
100
AcDbEntity
8
1
62
256
6
ByLayer
370
-1
48
1
60
0
100
AcDbEllipse
10
42.699497
20
8.456873
30
0
11
0.511090060329404
21
0.0511090060329122
31
0
210
0
220
0
230
1
40
0.705346
41
3.10220213631209
42
-1.44442759256359
0
ELLIPSE
5
EA
100
AcDbEntity
8
1
62
256
6
ByLayer
370
-1
48
1
60
0
100
AcDbEllipse
10
51.857765
20
-0.429327
30
0
11
61.7207729363159
21
-12.3039539504716
31
0
210
0
220
0
230
-1
40
0.143657
41
1.6822466103334
42
1.68717408363222
0
ELLIPSE
5
EB
100
AcDbEntity
8
1
62
256
6
ByLayer
370
-1
48
1
60
0
100
AcDbEllipse
10
43.003726
20
-0.51132
30
0
11
61.7501404636412
21
-15.0493621975091
31
0
210
0
220
0
230
-1
40
0.030556
41
-1.72326354735062
42
-1.71833652578852
0
ELLIPSE
5
EC
100
AcDbEntity
8
1
62
256
6
ByLayer
370
-1
48
1
60
0
100
AcDbEllipse
10
13.673581
20
5.457529
30
0
11
2.20927351927045
21
-2.91079113517881
31
0
210
0
220
0
230
-1
40
0.399104
41
0.462179862644855
42
0.564591003510136
0
ELLIPSE
5
ED
100
AcDbEntity
8
1
62
256
6
ByLayer
370
-1
48
1
60
0
100
AcDbEllipse
10
14.098094
20
8.401192
30
0
11
-1.24556568607608
21
-0.105195635222344
31
0
210
0
220
0
230
1
40
0.593251
41
-1.29506415376447
42
-0.29147275214776
0
ELLIPSE
5
EE
100
AcDbEntity
8
1
62
256
6
ByLayer
370
-1
48
1
60
0
100
AcDbEllipse
10
13.414036
20
7.745731
30
0
11
12.3928648961726
21
-0.978792597520808
31
0
210
0
220
0
230
-1
40
0.079892
41
1.03730692143811
42
1.05144530551826
0
ELLIPSE
5
EF
100
AcDbEntity
8
1
62
256
6
ByLayer
370
-1
48
1
60
0
100
AcDbEllipse
10
44.638943
20
0.008669
30
0
11
0.524293242535075
21
15.187599251486
31
0
210
0
220
0
230
-1
40
0.243186
41
2.36368044840513
42
2.38536343188292
0
ELLIPSE
5
F0
100
AcDbEntity
8
1
62
256
6
ByLayer
370
-1
48
1
60
0
100
AcDbEllipse
10
65.654973
20
-1.028084
30
0
11
64.3691263411192
21
-15.6874920491402
31
0
210
0
220
0
230
-1
40
0.030485
41
-2.18639753555359
42
-2.17604623845834
0
ELLIPSE
5
F1
100
AcDbEntity
8
1
62
256
6
ByLayer
370
-1
48
1
60
0
100
AcDbEllipse
10
23.940969
20
7.561224
30
0
11
-0.0219034742308526
21
-1.24980808039339
31
0
210
0
220
0
230
1
40
0.165255
41
0.260584661117267
42
0.7792521699332
0
ELLIPSE
5
F2
100
AcDbEntity
8
1
62
256
6
ByLayer
370
-1
48
1
60
0
100
AcDbEllipse
10
34.150376
20
1.694022
30
0
11
-1.13650245715953
21
-0.520444199574117
31
0
210
0
220
0
230
1
40
0.986673
41
-1.81210399834102
42
-1.51025932022191
0
ELLIPSE
5
F3
100
AcDbEntity
8
1
62
256
6
ByLayer
370
-1
48
1
60
0
100
AcDbEllipse
10
74.509877
20
-0.823573
30
0
11
64.3437779011992
21
-12.8258187476355
31
0
210
0
220
0
230
-1
40
0.143337
41
2.09624486818976
42
2.11165951769135
0
ELLIPSE
5
F4
100
AcDbEntity
8
1
62
256
6
ByLayer
370
-1
48
1
60
0
100
AcDbEllipse
10
21.017708
20
-0.290776
30
0
11
2.35065882888622
21
15.1577751041519
31
0
210
0
220
0
230
-1
40
0.190601
41
-0.0769374963138746
42
-0.0448049091497848
0
ELLIPSE
5
F5
100
AcDbEntity
8
1
62
256
6
ByLayer
370
-1
48
1
60
0
100
AcDbEllipse
10
47.327988
20
-11.478312
30
0
11
0.592469506889845
21
-1.10067246872342
31
0
210
0
220
0
230
1
40
0.962612
41
0.288048491988171
42
1.09271750869522
0
ELLIPSE
5
F6
100
AcDbEntity
8
1
62
256
6
ByLayer
370
-1
48
1
60
0
100
AcDbEllipse
10
47.327988
20
-11.478312
30
0
11
0.592469506889845
21
-1.10067246872342
31
0
210
0
220
0
230
1
40
0.962612
41
1.09271670240916
42
2.79355616286282
0
ELLIPSE
5
F7
100
AcDbEntity
8
1
62
256
6
ByLayer
370
-1
48
1
60
0
100
AcDbEllipse
10
25.294729
20
8.172098
30
0
11
-1.24556568607608
21
-0.105195635222344
31
0
210
0
220
0
230
1
40
0.593251
41
-1.35629293228594
42
-1.16517250095707
0
ELLIPSE
5
F8
100
AcDbEntity
8
1
62
256
6
ByLayer
370
-1
48
1
60
0
100
AcDbEllipse
10
34.218124
20
1.546081
30
0
11
1.13650245715953
21
0.520444199574118
31
0
210
0
220
0
230
1
40
0.986673
41
1.32948865524877
42
1.6740940087634
0
ELLIPSE
5
F9
100
AcDbEntity
8
1
62
256
6
ByLayer
370
-1
48
1
60
0
100
AcDbEllipse
10
34.143448
20
-0.288323
30
0
11
61.7082784585245
21
-9.56951799812419
31
0
210
0
220
0
230
-1
40
0.190581
41
-1.74532643816651
42
-1.74039811565805
0
ELLIPSE
5
FA
100
AcDbEntity
8
1
62
256
6
ByLayer
370
-1
48
1
60
0
100
AcDbEllipse
10
21.159861
20
-0.036647
30
0
11
2.36177337914735
21
-15.2292927641834
31
0
210
0
220
0
230
-1
40
0.190601
41
0.125616582879637
42
0.144636680363305
0
ELLIPSE
5
FB
100
AcDbEntity
8
1
62
256
6
ByLayer
370
-1
48
1
60
0
100
AcDbEllipse
10
48.248671
20
-10.982732
30
0
11
1.5
21
0
31
0
210
0
220
0
230
1
40
0.132209
41
-0.826545920451923
42
-0.24087630114208
0
ELLIPSE
5
FC
100
AcDbEntity
8
1
62
256
6
ByLayer
370
-1
48
1
60
0
100
AcDbEllipse
10
38.871157
20
0.047879
30
0
11
3.03612644045721
21
15.2297323144295
31
0
210
0
220
0
230
-1
40
0.143642
41
1.63778284746455
42
1.70145809597908
0
ELLIPSE
5
FD
100
AcDbEntity
8
1
62
256
6
ByLayer
370
-1
48
1
60
0
100
AcDbEllipse
10
30.543188
20
-2.843281
30
0
11
-2.60186822377054
21
-1.19148640338356
31
0
210
0
220
0
230
1
40
0.986673
41
2.98295938170797
42
-2.11035114794512
0
ELLIPSE
5
FE
100
AcDbEntity
8
1
62
256
6
ByLayer
370
-1
48
1
60
0
100
AcDbEllipse
10
21.737228
20
5.032912
30
0
11
-2.28763739722077
21
-1.04758912452158
31
0
210
0
220
0
230
1
40
0.986673
41
2.27274920282512
42
2.7506359842734
0
ELLIPSE
5
FF
100
AcDbEntity
8
1
62
256
6
ByLayer
370
-1
48
1
60
0
100
AcDbEllipse
10
74.509779
20
-0.823575
30
0
11
64.3436649629261
21
-12.82580814143
31
0
210
0
220
0
230
-1
40
0.143337
41
2.14004730414192
42
2.15039872046354
0
ELLIPSE
5
100
100
AcDbEntity
8
1
62
256
6
ByLayer
370
-1
48
1
60
0
100
AcDbEllipse
10
56.798586
20
-0.630377
30
0
11
64.3420699612814
21
-9.97670600610607
31
0
210
0
220
0
230
-1
40
0.190188
41
-2.20844490520672
42
-2.19809350335216
0
ELLIPSE
5
101
100
AcDbEntity
8
1
62
256
6
ByLayer
370
-1
48
1
60
0
100
AcDbEllipse
10
45.131862
20
-0.31475
30
0
11
4.83485499828017
21
15.0266569970767
31
0
210
0
220
0
230
-1
40
0.134822
41
2.32854690619709
42
2.67992616838014
0
ELLIPSE
5
102
100
AcDbEntity
8
1
62
256
6
ByLayer
370
-1
48
1
60
0
100
AcDbEllipse
10
32.953882
20
3.276091
30
0
11
62.1165617127378
21
-12.3632753894431
31
0
210
0
220
0
230
-1
40
0.138313
41
1.53908745132092
42
1.54451865533044
0
ELLIPSE
5
103
100
AcDbEntity
8
1
62
256
6
ByLayer
370
-1
48
1
60
0
100
AcDbEllipse
10
29.873355
20
-0.509914
30
0
11
3.69563780180078
21
15.1639783693701
31
0
210
0
220
0
230
-1
40
0.030555
41
-0.840010180661175
42
-0.807877598495771
0
ELLIPSE
5
104
100
AcDbEntity
8
1
62
256
6
ByLayer
370
-1
48
1
60
0
100
AcDbEllipse
10
42.581479
20
-0.509912
30
0
11
61.7393636273886
21
-15.0466346327122
31
0
210
0
220
0
230
-1
40
0.030551
41
-1.75055908519756
42
-1.72456999023175
0
ELLIPSE
5
105
100
AcDbEntity
8
1
62
256
6
ByLayer
370
-1
48
1
60
0
100
AcDbEllipse
10
21.789414
20
5.931953
30
0
11
2.8355156826805
21
-0.702564853583026
31
0
210
0
220
0
230
1
40
0.127964
41
-0.491999539017426
42
-0.330348735889748
0
ELLIPSE
5
106
100
AcDbEntity
8
1
62
256
6
ByLayer
370
-1
48
1
60
0
100
AcDbEllipse
10
41.372852
20
9.546496
30
0
11
2.05252365199558
21
-0.656634014519422
31
0
210
0
220
0
230
-1
40
0.265142
41
1.45737821351423
42
1.46615536408968
0
ELLIPSE
5
107
100
AcDbEntity
8
1
62
256
6
ByLayer
370
-1
48
1
60
0
100
AcDbEllipse
10
36.378145
20
0.057303
30
0
11
3.5912157188532
21
15.1916264926247
31
0
210
0
220
0
230
-1
40
0.098307
41
-1.47365265922422
42
-1.46004495075998
0
ELLIPSE
5
108
100
AcDbEntity
8
1
62
256
6
ByLayer
370
-1
48
1
60
0
100
AcDbEllipse
10
33.725827
20
-0.290774
30
0
11
61.7141052804373
21
-9.57081223861976
31
0
210
0
220
0
230
-1
40
0.190598
41
-1.75378236030309
42
-1.7466743412432
0
ELLIPSE
5
109
100
AcDbEntity
8
1
62
256
6
ByLayer
370
-1
48
1
60
0
100
AcDbEllipse
10
42.485997
20
9.836587
30
0
11
0.315374235739895
21
-1.20956152858442
31
0
210
0
220
0
230
1
40
0.97026
41
-0.728329537166044
42
-0.0331409203597084
0
ELLIPSE
5
10A
100
AcDbEntity
8
1
62
256
6
ByLayer
370
-1
48
1
60
0
100
AcDbEllipse
10
27.571556
20
0.036393
30
0
11
2.49868681357745
21
15.1769946035601
31
0
210
0
220
0
230
-1
40
0.307686
41
-0.87902683317448
42
-0.717386483322632
0
ELLIPSE
5
10B
100
AcDbEntity
8
1
62
256
6
ByLayer
370
-1
48
1
60
0
100
AcDbEllipse
10
17.47534
20
6.590539
30
0
11
40.9012559190084
21
4.3303319514815
31
0
210
0
220
0
230
-1
40
0.03039
41
0.813278321909832
42
0.873111838624958
0
ELLIPSE
5
10C
100
AcDbEntity
8
1
62
256
6
ByLayer
370
-1
48
1
60
0
100
AcDbEllipse
10
46.515687
20
9.583021
30
0
11
-0.315374235739672
21
1.20956152858448
31
0
210
0
220
0
230
1
40
0.97026
41
1.95842236045317
42
2.89299690202718
0
ELLIPSE
5
10D
100
AcDbEntity
8
1
62
256
6
ByLayer
370
-1
48
1
60
0
100
AcDbEllipse
10
21.159861
20
0.036647
30
0
11
2.36177337914734
21
15.2292927641834
31
0
210
0
220
0
230
-1
40
0.190601
41
-0.189291830672371
42
-0.125616582879634
0
ELLIPSE
5
10E
100
AcDbEntity
8
1
62
256
6
ByLayer
370
-1
48
1
60
0
100
AcDbEllipse
10
21.626543
20
5.274617
30
0
11
-0.0689795011906421
21
-2.99920686655914
31
0
210
0
220
0
230
1
40
0.129437
41
1.03652039500931
42
1.90876508930225
0
ELLIPSE
5
10F
100
AcDbEntity
8
1
62
256
6
ByLayer
370
-1
48
1
60
0
100
AcDbEllipse
10
23.645968
20
4.096284
30
0
11
62.2591902817364
21
-15.1722261276591
31
0
210
0
220
0
230
-1
40
0.029415
41
-1.55927244483181
42
-1.54706924935057
0
ELLIPSE
5
110
100
AcDbEntity
8
1
62
256
6
ByLayer
370
-1
48
1
60
0
100
AcDbEllipse
10
30.827454
20
8.008466
30
0
11
13.0817425937113
21
0.497821128956586
31
0
210
0
220
0
230
-1
40
0.067479
41
0.0953326481266186
42
0.417404172510733
0
ELLIPSE
5
111
100
AcDbEntity
8
1
62
256
6
ByLayer
370
-1
48
1
60
0
100
AcDbEllipse
10
39.187911
20
-1.351807
30
0
11
1.19420353295087
21
-0.369293815122397
31
0
210
0
220
0
230
1
40
0.590054
41
-0.857198351158154
42
-2.23521773675936
0
ELLIPSE
5
112
100
AcDbEntity
8
1
62
256
6
ByLayer
370
-1
48
1
60
0
100
AcDbEllipse
10
35.781945
20
0.047723
30
0
11
3.02621001361557
21
15.179989832288
31
0
210
0
220
0
230
-1
40
0.143642
41
1.55844679807106
42
1.64529131423949
0
ELLIPSE
5
113
100
AcDbEntity
8
1
62
256
6
ByLayer
370
-1
48
1
60
0
100
AcDbEllipse
10
18.070649
20
0.036527
30
0
11
2.35405945888647
21
15.1795515025411
31
0
210
0
220
0
230
-1
40
0.190601
41
-0.13312504882611
42
-0.0462805326468295
0
ELLIPSE
5
114
100
AcDbEntity
8
1
62
256
6
ByLayer
370
-1
48
1
60
0
100
AcDbEllipse
10
24.098202
20
4.087431
30
0
11
62.1501568563591
21
-15.1456599925065
31
0
210
0
220
0
230
-1
40
0.029421
41
-1.57920951079138
42
-1.57377932566888
0
ELLIPSE
5
115
100
AcDbEntity
8
1
62
256
6
ByLayer
370
-1
48
1
60
0
100
AcDbEllipse
10
16.052173
20
7.699479
30
0
11
0.0219034742308527
21
1.24980808039339
31
0
210
0
220
0
230
1
40
0.165255
41
-2.48620861064021
42
-1.88511426576405
0
ELLIPSE
5
116
100
AcDbEntity
8
1
62
256
6
ByLayer
370
-1
48
1
60
0
100
AcDbEllipse
10
46.518491
20
9.583752
30
0
11
1.01188866973557
21
0.749955859796144
31
0
210
0
220
0
230
-1
40
0.991225
41
1.19688212000908
42
1.83435756289178
0
ELLIPSE
5
117
100
AcDbEntity
8
1
62
256
6
ByLayer
370
-1
48
1
60
0
100
AcDbEllipse
10
36.427204
20
0.08029
30
0
11
5.04435074477907
21
15.1871666466968
31
0
210
0
220
0
230
-1
40
0.106263
41
-1.64886873113954
42
-1.48722838122179
0
ELLIPSE
5
118
100
AcDbEntity
8
1
62
256
6
ByLayer
370
-1
48
1
60
0
100
AcDbEllipse
10
38.729003
20
-0.430507
30
0
11
3.02184564507513
21
15.158183505052
31
0
210
0
220
0
230
-1
40
0.143642
41
1.5569791655282
42
1.58911174906551
0
ELLIPSE
5
119
100
AcDbEntity
8
1
62
256
6
ByLayer
370
-1
48
1
60
0
100
AcDbEllipse
10
26.926297
20
0.05956
30
0
11
3.70096511614846
21
15.1858332681193
31
0
210
0
220
0
230
-1
40
0.030555
41
-0.896194656381016
42
-0.809350140611505
0
ELLIPSE
5
11A
100
AcDbEntity
8
1
62
256
6
ByLayer
370
-1
48
1
60
0
100
AcDbEllipse
10
34.191383
20
1.541202
30
0
11
-1.13650245715953
21
-0.520444199574117
31
0
210
0
220
0
230
1
40
0.986673
41
-2.23658367814917
42
-1.83386783656852
0
ELLIPSE
5
11B
100
AcDbEntity
8
1
62
256
6
ByLayer
370
-1
48
1
60
0
100
AcDbEllipse
10
14.240126
20
4.897151
30
0
11
-1.47485887732456
21
2.35686623987285
31
0
210
0
220
0
230
1
40
0.469105
41
-1.43323670510897
42
-1.24019284690448
0
ELLIPSE
5
11C
100
AcDbEntity
8
1
62
256
6
ByLayer
370
-1
48
1
60
0
100
AcDbEllipse
10
21.017708
20
0.290776
30
0
11
2.35065882888624
21
-15.1577751041519
31
0
210
0
220
0
230
-1
40
0.190601
41
0.0448049091497843
42
0.0769374963138713
0
ELLIPSE
5
11D
100
AcDbEntity
8
1
62
256
6
ByLayer
370
-1
48
1
60
0
100
AcDbEllipse
10
12.631957
20
0
30
0
11
1.40888212260676
21
14.4258617694697
31
0
210
0
220
0
230
-1
40
0.23666
41
-0.635041683062951
42
-0.430591778351239
0
ELLIPSE
5
11E
100
AcDbEntity
8
1
62
256
6
ByLayer
370
-1
48
1
60
0
100
AcDbEllipse
10
30.482191
20
-2.710081
30
0
11
-0.323815468755452
21
-2.9824727227914
31
0
210
0
220
0
230
1
40
0.075428
41
1.8242902419768
42
2.69653493626965
0
ELLIPSE
5
11F
100
AcDbEntity
8
1
62
256
6
ByLayer
370
-1
48
1
60
0
100
AcDbEllipse
10
41.357264
20
0.546326
30
0
11
62.2587612452759
21
-2.13906626387407
31
0
210
0
220
0
230
-1
40
0.234138
41
1.53185694075327
42
1.55715744439823
0
ELLIPSE
5
120
100
AcDbEntity
8
1
62
256
6
ByLayer
370
-1
48
1
60
0
100
AcDbEllipse
10
20.375601
20
-1E-06
30
0
11
18.0714412430605
21
0.0265486923952246
31
0
210
0
220
0
230
-1
40
0.79848
41
-2.21597092226281
42
-2.1808891871502
0
ELLIPSE
5
121
100
AcDbEntity
8
1
62
256
6
ByLayer
370
-1
48
1
60
0
100
AcDbEllipse
10
15.083795
20
5.425095
30
0
11
-0.0689795011906421
21
-2.99920686655914
31
0
210
0
220
0
230
1
40
0.129437
41
0.211894651125939
42
1.69605624147313
0
ELLIPSE
5
122
100
AcDbEntity
8
1
62
256
6
ByLayer
370
-1
48
1
60
0
100
AcDbEllipse
10
48.050898
20
-11.089188
30
0
11
0.592469506889845
21
-1.10067246872342
31
0
210
0
220
0
230
1
40
0.962612
41
-2.1522724851265
42
-2.08066960533179
0
ELLIPSE
5
123
100
AcDbEntity
8
1
62
256
6
ByLayer
370
-1
48
1
60
0
100
AcDbEllipse
10
48.050898
20
-11.089188
30
0
11
0.592469506889845
21
-1.10067246872342
31
0
210
0
220
0
230
1
40
0.962612
41
1.06092304825801
42
-2.86769598257234
0
ELLIPSE
5
124
100
AcDbEntity
8
1
62
256
6
ByLayer
370
-1
48
1
60
0
100
AcDbEllipse
10
35.746034
20
-0.616866
30
0
11
62.9619508482647
21
-9.76271264754706
31
0
210
0
220
0
230
-1
40
0.190188
41
-1.90722916919169
42
-1.80177865271704
0
ELLIPSE
5
125
100
AcDbEntity
8
1
62
256
6
ByLayer
370
-1
48
1
60
0
100
AcDbEllipse
10
26.614771
20
-1.728838
30
0
11
2.17805390773115
21
2.06302718717353
31
0
210
0
220
0
230
1
40
0.438511
41
0.489947915654944
42
1.58858286020808
0
ELLIPSE
5
126
100
AcDbEntity
8
1
62
256
6
ByLayer
370
-1
48
1
60
0
100
AcDbEllipse
10
42.200324
20
9.762102
30
0
11
1.01188867143874
21
0.749955857367365
31
0
210
0
220
0
230
-1
40
0.991225
41
2.32036035452686
42
2.50438008769434
0
ELLIPSE
5
127
100
AcDbEntity
8
1
62
256
6
ByLayer
370
-1
48
1
60
0
100
AcDbEllipse
10
30.592876
20
-1.741415
30
0
11
2.49982704049229
21
-0.285644188812779
31
0
210
0
220
0
230
1
40
0.802425
41
-0.767350158153493
42
0.124853693677149
0
ELLIPSE
5
128
100
AcDbEntity
8
1
62
256
6
ByLayer
370
-1
48
1
60
0
100
AcDbEllipse
10
21.68754
20
4.552385
30
0
11
-2.85155369335498
21
-0.240831138410774
31
0
210
0
220
0
230
1
40
0.593251
41
-2.92591132626504
42
-1.73603654873866
0
ELLIPSE
5
129
100
AcDbEntity
8
1
62
256
6
ByLayer
370
-1
48
1
60
0
100
AcDbEllipse
10
46.850956
20
-11.487281
30
0
11
0.623277921248118
21
-1.15790743709704
31
0
210
0
220
0
230
1
40
0.962612
41
1.10608942126981
42
2.30514779056722
0
ELLIPSE
5
12A
100
AcDbEntity
8
1
62
256
6
ByLayer
370
-1
48
1
60
0
100
AcDbEllipse
10
65.654306
20
-1.02789
30
0
11
64.3683509135021
21
-15.6872852447609
31
0
210
0
220
0
230
-1
40
0.030485
41
-2.14765345889664
42
-2.13223882645757
0
ELLIPSE
5
12B
100
AcDbEntity
8
1
62
256
6
ByLayer
370
-1
48
1
60
0
100
AcDbEllipse
10
42.546638
20
8.953473
30
0
11
0.870470634916733
21
0.0597726892906533
31
0
210
0
220
0
230
1
40
0.14838
41
-2.06108688043901
42
-0.736344518617024
0
ELLIPSE
5
12C
100
AcDbEntity
8
1
62
256
6
ByLayer
370
-1
48
1
60
0
100
AcDbEllipse
10
22.14673
20
0
30
0
11
11.4879821080439
21
-13.6380799045463
31
0
210
0
220
0
230
-1
40
0.41032
41
1.69851778037025
42
2.82735593398982
0
ELLIPSE
5
12D
100
AcDbEntity
8
1
62
256
6
ByLayer
370
-1
48
1
60
0
100
AcDbEllipse
10
32.034081
20
0
30
0
11
58.7242009249339
21
-9.10712915527077
31
0
210
0
220
0
230
-1
40
0.190598
41
-1.91199091497607
42
-1.88921158136972
0
ELLIPSE
5
12E
100
AcDbEntity
8
1
62
256
6
ByLayer
370
-1
48
1
60
0
100
AcDbEllipse
10
36.276214
20
-0.327435
30
0
11
4.99297615570167
21
15.0317024618682
31
0
210
0
220
0
230
-1
40
0.106241
41
-1.96687566131245
42
-1.62218596228445
0
ELLIPSE
5
12F
100
AcDbEntity
8
1
62
256
6
ByLayer
370
-1
48
1
60
0
100
AcDbEllipse
10
30.015509
20
0.059756
30
0
11
3.71309245958166
21
15.2355942163179
31
0
210
0
220
0
230
-1
40
0.030555
41
-0.95236145894592
42
-0.888686208812964
0
ELLIPSE
5
130
100
AcDbEntity
8
1
62
256
6
ByLayer
370
-1
48
1
60
0
100
AcDbEllipse
10
42.619116
20
9.260681
30
0
11
-0.132001460698933
21
1.24301070565516
31
0
210
0
220
0
230
1
40
0.129003
41
-2.77646087022308
42
-2.08924319978312
0
ELLIPSE
5
131
100
AcDbEntity
8
1
62
256
6
ByLayer
370
-1
48
1
60
0
100
AcDbEllipse
10
17.759123
20
5.715169
30
0
11
2.3413606054037
21
1.87564136109857
31
0
210
0
220
0
230
1
40
0.151135
41
-2.10274025776616
42
-1.00410531321302
0
ELLIPSE
5
132
100
AcDbEntity
8
1
62
256
6
ByLayer
370
-1
48
1
60
0
100
AcDbEllipse
10
17.47534
20
6.590539
30
0
11
40.9012555558468
21
4.33033192099416
31
0
210
0
220
0
230
-1
40
0.03039
41
0.707311571779389
42
0.746824675511402
0
ELLIPSE
5
133
100
AcDbEntity
8
1
62
256
6
ByLayer
370
-1
48
1
60
0
100
AcDbEllipse
10
24.147288
20
4.567705
30
0
11
1.44614799322209
21
-1.43290332235876
31
0
210
0
220
0
230
-1
40
0.537058
41
-1.86369621235142
42
-1.59646901994671
0
ELLIPSE
5
134
100
AcDbEntity
8
1
62
256
6
ByLayer
370
-1
48
1
60
0
100
AcDbEllipse
10
16.12135
20
6.88039
30
0
11
-0.718449419880201
21
-0.0606774447500364
31
0
210
0
220
0
230
1
40
0.593251
41
-1.78912045265561
42
-0.763485011848133
0
ELLIPSE
5
135
100
AcDbEntity
8
1
62
256
6
ByLayer
370
-1
48
1
60
0
100
AcDbEllipse
10
42.546638
20
-8.953473
30
0
11
-0.870470634916733
21
0.0597726892906553
31
0
210
0
220
0
230
1
40
0.14838
41
-2.36553151791483
42
-1.61941299615905
0
ELLIPSE
5
136
100
AcDbEntity
8
1
62
256
6
ByLayer
370
-1
48
1
60
0
100
AcDbEllipse
10
-41.918999
20
8.715451
30
0
11
71.0620768871251
21
-2.24513190315406
31
0
210
0
220
0
230
-1
40
0.010558
41
0.383473441949099
42
0.522521261331946
0
ELLIPSE
5
137
100
AcDbEntity
8
1
62
256
6
ByLayer
370
-1
48
1
60
0
100
AcDbEllipse
10
-41.894766
20
8.714864
30
0
11
71.0373653229603
21
-2.2444977526856
31
0
210
0
220
0
230
-1
40
0.010559
41
-0.612518522548112
42
-0.606756827022537
0
ELLIPSE
5
138
100
AcDbEntity
8
1
62
256
6
ByLayer
370
-1
48
1
60
0
100
AcDbEllipse
10
47.728163
20
0.008702
30
0
11
0.52616755059744
21
15.2419068981424
31
0
210
0
220
0
230
-1
40
0.243186
41
2.35888134594191
42
2.44419780670822
0
ELLIPSE
5
139
100
AcDbEntity
8
1
62
256
6
ByLayer
370
-1
48
1
60
0
100
AcDbEllipse
10
51.437123
20
-0.430508
30
0
11
61.7157615633688
21
-12.3031241064468
31
0
210
0
220
0
230
-1
40
0.143646
41
1.68849625466976
42
1.71448535557851
0
ELLIPSE
5
13A
100
AcDbEntity
8
1
62
256
6
ByLayer
370
-1
48
1
60
0
100
AcDbEllipse
10
124.670462
20
2.904881
30
0
11
343.185053191948
21
-5.48956263034225
31
0
210
0
220
0
230
-1
40
0.005232
41
-1.87990941715789
42
-1.87465423891034
0
ELLIPSE
5
13B
100
AcDbEntity
8
1
62
256
6
ByLayer
370
-1
48
1
60
0
100
AcDbEllipse
10
15.735421
20
6.008681
30
0
11
-1.89290497576597
21
2.11359898941387
31
0
210
0
220
0
230
1
40
0.440689
41
0.627979531420499
42
1.12614771805594
0
ELLIPSE
5
13C
100
AcDbEntity
8
1
62
256
6
ByLayer
370
-1
48
1
60
0
100
AcDbEllipse
10
41.802283
20
9.678375
30
0
11
0.218844284321014
21
-0.945738567933653
31
0
210
0
220
0
230
1
40
0.45375
41
-0.18125044585628
42
0.318718675169394
0
ELLIPSE
5
13D
100
AcDbEntity
8
1
62
256
6
ByLayer
370
-1
48
1
60
0
100
AcDbEllipse
10
42.695846
20
9.260681
30
0
11
6.02384169269141E-17
21
0.983800496198493
31
0
210
0
220
0
230
1
40
0.995037
41
2.42793605424229
42
2.59542915853802
0
ELLIPSE
5
13E
100
AcDbEntity
8
1
62
256
6
ByLayer
370
-1
48
1
60
0
100
AcDbEllipse
10
56.798577
20
-0.630372
30
0
11
64.3420586808137
21
-9.97670261382278
31
0
210
0
220
0
230
-1
40
0.190188
41
-2.16970500770072
42
-2.15429035720913
0
ELLIPSE
5
13F
100
AcDbEntity
8
1
62
256
6
ByLayer
370
-1
48
1
60
0
100
AcDbEllipse
10
30.332263
20
9.180926
30
0
11
1.21331117114016
21
-0.300626016815718
31
0
210
0
220
0
230
1
40
0.127964
41
-2.24365755135297
42
-1.32093920228241
0
ELLIPSE
5
140
100
AcDbEntity
8
1
62
256
6
ByLayer
370
-1
48
1
60
0
100
AcDbEllipse
10
46.516865
20
9.583021
30
0
11
7.65344646000161E-17
21
1.24994394094279
31
0
210
0
220
0
230
1
40
0.995037
41
2.39811323571974
42
2.76645914997798
0
ELLIPSE
5
141
100
AcDbEntity
8
1
62
256
6
ByLayer
370
-1
48
1
60
0
100
AcDbEllipse
10
27.420566
20
-0.148415
30
0
11
2.47376511790499
21
15.0189473783555
31
0
210
0
220
0
230
-1
40
0.307729
41
-1.19708569601716
42
-0.852395996988177
0
ELLIPSE
5
142
100
AcDbEntity
8
1
62
256
6
ByLayer
370
-1
48
1
60
0
100
AcDbEllipse
10
30.645061
20
-2.183399
30
0
11
2.79086101450184
21
-0.863041921317234
31
0
210
0
220
0
230
1
40
0.590054
41
0.542526158221129
42
0.704176961348845
0
ELLIPSE
5
143
100
AcDbEntity
8
1
62
256
6
ByLayer
370
-1
48
1
60
0
100
AcDbEllipse
10
24.019559
20
6.630673
30
0
11
-0.463937560508996
21
-0.0391823626219161
31
0
210
0
220
0
230
1
40
0.593251
41
1.42037346479421
42
1.73002679944704
0
ELLIPSE
5
144
100
AcDbEntity
8
1
62
256
6
ByLayer
370
-1
48
1
60
0
100
AcDbEllipse
10
14.240126
20
4.897151
30
0
11
-1.47485887732456
21
2.35686623987285
31
0
210
0
220
0
230
1
40
0.469105
41
-0.605306508505207
42
2.5908976531871
0
ELLIPSE
5
145
100
AcDbEntity
8
1
62
256
6
ByLayer
370
-1
48
1
60
0
100
AcDbEllipse
10
32.501611
20
3.282123
30
0
11
62.2373041635778
21
-12.3872955957196
31
0
210
0
220
0
230
-1
40
0.13831
41
1.5123797831405
42
1.52458296061389
0
ELLIPSE
5
146
100
AcDbEntity
8
1
62
256
6
ByLayer
370
-1
48
1
60
0
100
AcDbEllipse
10
46.749919
20
9.644094
30
0
11
-0.315374235739672
21
1.20956152858448
31
0
210
0
220
0
230
1
40
0.97026
41
1.87412893767191
42
3.04029302969487
0
ELLIPSE
5
147
100
AcDbEntity
8
1
62
256
6
ByLayer
370
-1
48
1
60
0
100
AcDbEllipse
10
33.234733
20
-3.876953
30
0
11
0.0685379485887906
21
1.74378581608496
31
0
210
0
220
0
230
-1
40
0.714383
41
0.254062150850306
42
0.468910812301264
0
ELLIPSE
5
148
100
AcDbEntity
8
1
62
256
6
ByLayer
370
-1
48
1
60
0
100
AcDbEllipse
10
44.601682
20
-1.005828
30
0
11
62.9875843967248
21
-15.3507757769724
31
0
210
0
220
0
230
-1
40
0.030485
41
-1.88517707468166
42
-1.77972655815567
0
ELLIPSE
5
149
100
AcDbEntity
8
1
62
256
6
ByLayer
370
-1
48
1
60
0
100
AcDbEllipse
10
15.148664
20
4.657015
30
0
11
-2.83300570411586
21
-0.239264647352199
31
0
210
0
220
0
230
1
40
0.593251
41
-1.5001539675473
42
-1.23470461533446
0
ELLIPSE
5
14A
100
AcDbEntity
8
1
62
256
6
ByLayer
370
-1
48
1
60
0
100
AcDbEllipse
10
45.285573
20
0.084244
30
0
11
4.88549320001901
21
15.185308592847
31
0
210
0
220
0
230
-1
40
0.134845
41
2.19425371725957
42
2.3558709744332
0
ELLIPSE
5
14B
100
AcDbEntity
8
1
62
256
6
ByLayer
370
-1
48
1
60
0
100
AcDbEllipse
10
-33.063351
20
9.215619
30
0
11
71.0618924920728
21
-9.47339633553914
31
0
210
0
220
0
230
-1
40
0.01727
41
0.43794243938413
42
0.523592556141199
0
ELLIPSE
5
14C
100
AcDbEntity
8
1
62
256
6
ByLayer
370
-1
48
1
60
0
100
AcDbEllipse
10
45.994641
20
12.443825
30
0
11
0.817607919507992
21
1.51892800683831
31
0
210
0
220
0
230
1
40
0.962612
41
1.62134624678037
42
2.77386225564593
0
ELLIPSE
5
14D
100
AcDbEntity
8
1
62
256
6
ByLayer
370
-1
48
1
60
0
100
AcDbEllipse
10
28.283346
20
0.944541
30
0
11
-1.67436941617339
21
0.414863903205827
31
0
210
0
220
0
230
1
40
0.127964
41
1.56452532334836E-05
42
0.273225007149694
0
ELLIPSE
5
14E
100
AcDbEntity
8
1
62
256
6
ByLayer
370
-1
48
1
60
0
100
AcDbEllipse
10
28.283346
20
0.944541
30
0
11
-1.67436941617339
21
0.414863903205827
31
0
210
0
220
0
230
1
40
0.127964
41
2.86817138497532
42
-3.14159224537849
0
ELLIPSE
5
14F
100
AcDbEntity
8
1
62
256
6
ByLayer
370
-1
48
1
60
0
100
AcDbEllipse
10
19.427698
20
9.465409
30
0
11
-1.59940357406739
21
0.646168095204699
31
0
210
0
220
0
230
1
40
0.771063
41
0.0996621357753787
42
0.995183839874776
0
ELLIPSE
5
150
100
AcDbEntity
8
1
62
256
6
ByLayer
370
-1
48
1
60
0
100
AcDbEllipse
10
19.427698
20
9.465409
30
0
11
-1.59940357406739
21
0.646168095204699
31
0
210
0
220
0
230
1
40
0.771063
41
2.98358814256784
42
-3.04183784976985
0
ELLIPSE
5
151
100
AcDbEntity
8
1
62
256
6
ByLayer
370
-1
48
1
60
0
100
AcDbEllipse
10
45.366213
20
12.310953
30
0
11
-0.0876854870196974
21
-0.162899525371066
31
0
210
0
220
0
230
1
40
0.962612
41
-2.35899671386327
42
-0.536426825776812
0
ELLIPSE
5
152
100
AcDbEntity
8
1
62
256
6
ByLayer
370
-1
48
1
60
0
100
AcDbEllipse
10
45.207432
20
11.726362
30
0
11
-0.200017705526012
21
-0.371587025441026
31
0
210
0
220
0
230
1
40
0.962612
41
1.82893941768079
42
2.60383820132985
0
ELLIPSE
5
153
100
AcDbEntity
8
1
62
256
6
ByLayer
370
-1
48
1
60
0
100
AcDbEllipse
10
45.953156
20
12.466156
30
0
11
0.490564751704795
21
0.911356804102988
31
0
210
0
220
0
230
1
40
0.962612
41
-2.10726594188786
42
-1.06092304825801
0
ELLIPSE
5
154
100
AcDbEntity
8
1
62
256
6
ByLayer
370
-1
48
1
60
0
100
AcDbEllipse
10
46.191679
20
12.337765
30
0
11
-0.354533752922884
21
-0.658642405284092
31
0
210
0
220
0
230
1
40
0.962612
41
3.0925840454553
42
-2.66945524294693
0
ELLIPSE
5
155
100
AcDbEntity
8
1
62
256
6
ByLayer
370
-1
48
1
60
0
100
AcDbEllipse
10
46.191679
20
12.337765
30
0
11
-0.354533752922884
21
-0.658642405284092
31
0
210
0
220
0
230
1
40
0.962612
41
2.08066952099694
42
2.46429365948967
0
ELLIPSE
5
156
100
AcDbEntity
8
1
62
256
6
ByLayer
370
-1
48
1
60
0
100
AcDbEllipse
10
45.953156
20
12.466156
30
0
11
0.490564751704795
21
0.911356804102988
31
0
210
0
220
0
230
1
40
0.962612
41
3.12700573019663
42
-2.10726594188786
0
ELLIPSE
5
157
100
AcDbEntity
8
1
62
256
6
ByLayer
370
-1
48
1
60
0
100
AcDbEllipse
10
45.994641
20
12.443825
30
0
11
0.817607919507992
21
1.51892800683831
31
0
210
0
220
0
230
1
40
0.962612
41
2.77375256746688
42
-1.09271718590376
0
ELLIPSE
5
158
100
AcDbEntity
8
1
62
256
6
ByLayer
370
-1
48
1
60
0
100
AcDbEllipse
10
45.994641
20
12.443825
30
0
11
0.817607919507992
21
1.51892800683831
31
0
210
0
220
0
230
1
40
0.962612
41
-1.09271718590375
42
0
0
ELLIPSE
5
159
100
AcDbEntity
8
1
62
256
6
ByLayer
370
-1
48
1
60
0
100
AcDbEllipse
10
45.994641
20
12.443825
30
0
11
0.817607919507992
21
1.51892800683831
31
0
210
0
220
0
230
1
40
0.962612
41
0
42
1.63230744748382
0
ELLIPSE
5
15A
100
AcDbEntity
8
1
62
256
6
ByLayer
370
-1
48
1
60
0
100
AcDbEllipse
10
45.207432
20
11.726362
30
0
11
-0.200017705526012
21
-0.371587025441026
31
0
210
0
220
0
230
1
40
0.962612
41
2.60396317689326
42
-3.14145452287014
0
ELLIPSE
5
15B
100
AcDbEntity
8
1
62
256
6
ByLayer
370
-1
48
1
60
0
100
AcDbEllipse
10
45.953156
20
12.466156
30
0
11
0.490564751704795
21
0.911356804102988
31
0
210
0
220
0
230
1
40
0.962612
41
-0.0145869233931662
42
1.03432671170194
0
ELLIPSE
5
15C
100
AcDbEntity
8
1
62
256
6
ByLayer
370
-1
48
1
60
0
100
AcDbEllipse
10
46.191679
20
12.337765
30
0
11
0.354533752922886
21
0.658642405284092
31
0
210
0
220
0
230
1
40
0.962612
41
0.472137410642869
42
0.547600125310938
0
ELLIPSE
5
15D
100
AcDbEntity
8
1
62
256
6
ByLayer
370
-1
48
1
60
0
100
AcDbEllipse
10
45.207432
20
12.885229
30
0
11
-0.200017705526012
21
-0.371587025441026
31
0
210
0
220
0
230
1
40
0.962612
41
0.782595939726511
42
1.55749875419586
0
ELLIPSE
5
15E
100
AcDbEntity
8
1
62
256
6
ByLayer
370
-1
48
1
60
0
100
AcDbEllipse
10
46.191679
20
12.337765
30
0
11
0.354533752922886
21
0.658642405284092
31
0
210
0
220
0
230
1
40
0.962612
41
-2.4970274928634
42
-2.10914167993651
0
ELLIPSE
5
15F
100
AcDbEntity
8
1
62
256
6
ByLayer
370
-1
48
1
60
0
100
AcDbEllipse
10
46.191679
20
12.337765
30
0
11
-0.354533752922884
21
-0.658642405284092
31
0
210
0
220
0
230
1
40
0.962612
41
-1.58409389939394
42
-0.53775445225994
0
ELLIPSE
5
160
100
AcDbEntity
8
1
62
256
6
ByLayer
370
-1
48
1
60
0
100
AcDbEllipse
10
45.207432
20
12.885229
30
0
11
-0.200017705526012
21
-0.371587025441026
31
0
210
0
220
0
230
1
40
0.962612
41
1.55749875419586
42
2.3323992325086
0
ELLIPSE
5
161
100
AcDbEntity
8
1
62
256
6
ByLayer
370
-1
48
1
60
0
100
AcDbEllipse
10
45.953156
20
12.466156
30
0
11
0.490564751704795
21
0.911356804102988
31
0
210
0
220
0
230
1
40
0.962612
41
1.03432671170194
42
2.08066960533178
0
ELLIPSE
5
162
100
AcDbEntity
8
1
62
256
6
ByLayer
370
-1
48
1
60
0
100
AcDbEllipse
10
45.778333
20
13.053637
30
0
11
-0.0876854870196974
21
-0.162899525371066
31
0
210
0
220
0
230
1
40
0.962612
41
-2.63368379219122
42
-0.809193421081196
0
ELLIPSE
5
163
100
AcDbEntity
8
1
62
256
6
ByLayer
370
-1
48
1
60
0
100
AcDbEllipse
10
46.191679
20
12.337765
30
0
11
-0.354533752922884
21
-0.658642405284092
31
0
210
0
220
0
230
1
40
0.962612
41
-0.53775445225994
42
0.0321707764028478
0
ELLIPSE
5
164
100
AcDbEntity
8
1
62
256
6
ByLayer
370
-1
48
1
60
0
100
AcDbEllipse
10
46.191679
20
13.49603
30
0
11
-0.200017705526012
21
-0.371587025441026
31
0
210
0
220
0
230
1
40
0.962612
41
-0.000156551141115514
42
0.442811253906819
0
ELLIPSE
5
165
100
AcDbEntity
8
1
62
256
6
ByLayer
370
-1
48
1
60
0
100
AcDbEllipse
10
45.992679
20
12.444882
30
0
11
0.354533752922886
21
0.658642405284092
31
0
210
0
220
0
230
1
40
0.962612
41
0.472137410642869
42
0.547600125310942
0
ELLIPSE
5
166
100
AcDbEntity
8
1
62
256
6
ByLayer
370
-1
48
1
60
0
100
AcDbEllipse
10
45.953156
20
12.466156
30
0
11
0.490564751704795
21
0.911356804102988
31
0
210
0
220
0
230
1
40
0.962612
41
-1.06092304825801
42
-0.0145869233931662
0
ELLIPSE
5
167
100
AcDbEntity
8
1
62
256
6
ByLayer
370
-1
48
1
60
0
100
AcDbEllipse
10
45.778333
20
11.595041
30
0
11
-0.0876854870196974
21
-0.162899525371066
31
0
210
0
220
0
230
1
40
0.962612
41
-1.31265323590901
42
-0.84000461058561
0
ELLIPSE
5
168
100
AcDbEntity
8
1
62
256
6
ByLayer
370
-1
48
1
60
0
100
AcDbEllipse
10
46.605025
20
13.080489
30
0
11
-0.0876854870196974
21
-0.162899525371066
31
0
210
0
220
0
230
1
40
0.962612
41
-2.29509387204747
42
-1.85463539935073
0
ELLIPSE
5
169
100
AcDbEntity
8
1
62
256
6
ByLayer
370
-1
48
1
60
0
100
AcDbEllipse
10
45.953156
20
12.466156
30
0
11
0.490564751704795
21
0.911356804102988
31
0
210
0
220
0
230
1
40
0.962612
41
2.08066960533178
42
3.12700573019663
0
ELLIPSE
5
16A
100
AcDbEntity
8
1
62
256
6
ByLayer
370
-1
48
1
60
0
100
AcDbEllipse
10
45.992679
20
12.444882
30
0
11
0.354533752922886
21
0.658642405284092
31
0
210
0
220
0
230
1
40
0.962612
41
-2.66945524294693
42
-2.59399252827885
0
ELLIPSE
5
16B
100
AcDbEntity
8
1
62
256
6
ByLayer
370
-1
48
1
60
0
100
AcDbEllipse
10
45.953156
20
12.466156
30
0
11
0.616168287165443
21
1.14469936747235
31
0
210
0
220
0
230
1
40
0.962612
41
0
42
6.28318530717959
0
ELLIPSE
5
16C
100
AcDbEntity
8
1
62
256
6
ByLayer
370
-1
48
1
60
0
100
AcDbEllipse
10
46.191679
20
13.49603
30
0
11
-0.200017705526012
21
-0.371587025441026
31
0
210
0
220
0
230
1
40
0.962612
41
0.57678211364666
42
1.28695725423907
0
ELLIPSE
5
16D
100
AcDbEntity
8
1
62
256
6
ByLayer
370
-1
48
1
60
0
100
AcDbEllipse
10
46.191679
20
12.337765
30
0
11
-0.354533752922884
21
-0.658642405284092
31
0
210
0
220
0
230
1
40
0.962612
41
-2.59399252827886
42
-1.58409389939394
0
ELLIPSE
5
16E
100
AcDbEntity
8
1
62
256
6
ByLayer
370
-1
48
1
60
0
100
AcDbEllipse
10
47.074217
20
-11.862717
30
0
11
-0.450276825236283
21
0.836511076229797
31
0
210
0
220
0
230
1
40
0.962612
41
-2.66407619910789
42
-0.254655148924875
0
ELLIPSE
5
16F
100
AcDbEntity
8
1
62
256
6
ByLayer
370
-1
48
1
60
0
100
AcDbEllipse
10
47.002659
20
-11.901234
30
0
11
-0.592469506889846
21
1.10067246872342
31
0
210
0
220
0
230
1
40
0.962612
41
-2.46515490916657
42
-0.458974038564522
0
ELLIPSE
5
170
100
AcDbEntity
8
1
62
256
6
ByLayer
370
-1
48
1
60
0
100
AcDbEllipse
10
28.24186
20
0.777107
30
0
11
-1.00462164970404
21
0.248918341923496
31
0
210
0
220
0
230
1
40
0.127964
41
-3.10989259788222
42
-2.06355289760469
0
ELLIPSE
5
171
100
AcDbEntity
8
1
62
256
6
ByLayer
370
-1
48
1
60
0
100
AcDbEllipse
10
28.24186
20
0.777107
30
0
11
-1.00462164970404
21
0.248918341923496
31
0
210
0
220
0
230
1
40
0.127964
41
-2.06355289760469
42
-1.01464641336295
0
ELLIPSE
5
172
100
AcDbEntity
8
1
62
256
6
ByLayer
370
-1
48
1
60
0
100
AcDbEllipse
10
28.24186
20
0.777107
30
0
11
-1.26184361798575
21
0.312651057488449
31
0
210
0
220
0
230
1
40
0.127964
41
0
42
6.28318530717959
0
ELLIPSE
5
173
100
AcDbEntity
8
1
62
256
6
ByLayer
370
-1
48
1
60
0
100
AcDbEllipse
10
28.283346
20
0.944541
30
0
11
-1.67436941617339
21
0.414863903205827
31
0
210
0
220
0
230
1
40
0.127964
41
2.86817385810237
42
-2.01183942517376E-15
0
ELLIPSE
5
174
100
AcDbEntity
8
1
62
256
6
ByLayer
370
-1
48
1
60
0
100
AcDbEllipse
10
28.283346
20
0.944541
30
0
11
-1.67436941617339
21
0.414863903205827
31
0
210
0
220
0
230
1
40
0.127964
41
0
42
0.273315958853124
0
ELLIPSE
5
175
100
AcDbEntity
8
1
62
256
6
ByLayer
370
-1
48
1
60
0
100
AcDbEllipse
10
28.24186
20
0.777107
30
0
11
-1.00462164970404
21
0.248918341923496
31
0
210
0
220
0
230
1
40
0.127964
41
0.0317000557075895
42
1.07803975598513
0
ELLIPSE
5
176
100
AcDbEntity
8
1
62
256
6
ByLayer
370
-1
48
1
60
0
100
AcDbEllipse
10
28.24186
20
0.777107
30
0
11
-1.00462164970404
21
0.248918341923496
31
0
210
0
220
0
230
1
40
0.127964
41
1.07803975598513
42
2.12694624022684
0
ELLIPSE
5
177
100
AcDbEntity
8
1
62
256
6
ByLayer
370
-1
48
1
60
0
100
AcDbEllipse
10
28.281383
20
0.936621
30
0
11
-0.726045404810259
21
0.179894608462585
31
0
210
0
220
0
230
1
40
0.127964
41
1.56476082555586
42
1.64022291832893
0
ELLIPSE
5
178
100
AcDbEntity
8
1
62
256
6
ByLayer
370
-1
48
1
60
0
100
AcDbEllipse
10
28.456531
20
1.64351
30
0
11
-1.67436941617339
21
0.414863903205827
31
0
210
0
220
0
230
1
40
0.127964
41
-1.61268450333247
42
-1.59795805922362
0
ELLIPSE
5
179
100
AcDbEntity
8
1
62
256
6
ByLayer
370
-1
48
1
60
0
100
AcDbEllipse
10
28.24186
20
0.777107
30
0
11
-1.00462164970404
21
0.248918341923496
31
0
210
0
220
0
230
1
40
0.127964
41
-1.01464641336295
42
0.0317000557075895
0
ELLIPSE
5
17A
100
AcDbEntity
8
1
62
256
6
ByLayer
370
-1
48
1
60
0
100
AcDbEllipse
10
28.24186
20
0.777107
30
0
11
-1.00462164970404
21
0.248918341923496
31
0
210
0
220
0
230
1
40
0.127964
41
2.12694624022684
42
-3.10989259788222
0
ELLIPSE
5
17B
100
AcDbEntity
8
1
62
256
6
ByLayer
370
-1
48
1
60
0
100
AcDbEllipse
10
19.386212
20
9.362724
30
0
11
-0.959642144440432
21
0.387700857122819
31
0
210
0
220
0
230
1
40
0.771063
41
-2.83960194014829
42
-1.79326539542554
0
ELLIPSE
5
17C
100
AcDbEntity
8
1
62
256
6
ByLayer
370
-1
48
1
60
0
100
AcDbEllipse
10
19.386212
20
9.362724
30
0
11
-0.959642144440432
21
0.387700857122819
31
0
210
0
220
0
230
1
40
0.771063
41
0.3019907134415
42
1.34832725816426
0
ELLIPSE
5
17D
100
AcDbEntity
8
1
62
256
6
ByLayer
370
-1
48
1
60
0
100
AcDbEllipse
10
19.386212
20
9.362724
30
0
11
-0.959642144440432
21
0.387700857122819
31
0
210
0
220
0
230
1
40
0.771063
41
2.39724005354026
42
-2.83960194014829
0
ELLIPSE
5
17E
100
AcDbEntity
8
1
62
256
6
ByLayer
370
-1
48
1
60
0
100
AcDbEllipse
10
19.386212
20
9.362724
30
0
11
-0.959642144440432
21
0.387700857122819
31
0
210
0
220
0
230
1
40
0.771063
41
-1.79326539542554
42
-0.744352600049546
0
ELLIPSE
5
17F
100
AcDbEntity
8
1
62
256
6
ByLayer
370
-1
48
1
60
0
100
AcDbEllipse
10
19.624736
20
9.025336
30
0
11
0.391274381597934
21
-0.158077064450077
31
0
210
0
220
0
230
1
40
0.771063
41
1.93969581072279
42
2.64987053167029
0
ELLIPSE
5
180
100
AcDbEntity
8
1
62
256
6
ByLayer
370
-1
48
1
60
0
100
AcDbEllipse
10
19.624736
20
9.953121
30
0
11
-0.693538477334728
21
0.280193469688762
31
0
210
0
220
0
230
1
40
0.771063
41
1.83505120885677
42
1.91051385049606
0
ELLIPSE
5
181
100
AcDbEntity
8
1
62
256
6
ByLayer
370
-1
48
1
60
0
100
AcDbEllipse
10
19.624736
20
9.953121
30
0
11
0.693538477334727
21
-0.280193469688763
31
0
210
0
220
0
230
1
40
0.771063
41
-2.31643292491503
42
-1.30654144473302
0
ELLIPSE
5
182
100
AcDbEntity
8
1
62
256
6
ByLayer
370
-1
48
1
60
0
100
AcDbEllipse
10
19.427698
20
9.465409
30
0
11
-1.59940357406739
21
0.646168095204699
31
0
210
0
220
0
230
1
40
0.771063
41
-3.04187424151133
42
0
0
ELLIPSE
5
183
100
AcDbEntity
8
1
62
256
6
ByLayer
370
-1
48
1
60
0
100
AcDbEllipse
10
19.427698
20
9.465409
30
0
11
-1.59940357406739
21
0.646168095204699
31
0
210
0
220
0
230
1
40
0.771063
41
0.995122906695108
42
-3.14153002410074
0
ELLIPSE
5
184
100
AcDbEntity
8
1
62
256
6
ByLayer
370
-1
48
1
60
0
100
AcDbEllipse
10
19.427698
20
9.465409
30
0
11
-1.59940357406739
21
0.646168095204699
31
0
210
0
220
0
230
1
40
0.771063
41
0
42
0.0996747257222644
0
ELLIPSE
5
185
100
AcDbEntity
8
1
62
256
6
ByLayer
370
-1
48
1
60
0
100
AcDbEllipse
10
18.640488
20
9.635947
30
0
11
0.391274381597934
21
-0.158077064450077
31
0
210
0
220
0
230
1
40
0.771063
41
0.82548823458865
42
1.39874498294381
0
ELLIPSE
5
186
100
AcDbEntity
8
1
62
256
6
ByLayer
370
-1
48
1
60
0
100
AcDbEllipse
10
19.425736
20
9.460552
30
0
11
-0.693538477334728
21
0.280193469688762
31
0
210
0
220
0
230
1
40
0.771063
41
-1.30654144473304
42
-1.23107880309374
0
ELLIPSE
5
187
100
AcDbEntity
8
1
62
256
6
ByLayer
370
-1
48
1
60
0
100
AcDbEllipse
10
19.624736
20
9.025336
30
0
11
0.391274381597934
21
-0.158077064450077
31
0
210
0
220
0
230
1
40
0.771063
41
1.09569895672458
42
1.80586927616311
0
ELLIPSE
5
188
100
AcDbEntity
8
1
62
256
6
ByLayer
370
-1
48
1
60
0
100
AcDbEllipse
10
19.386212
20
9.362724
30
0
11
-1.20534762103629
21
0.486967260154266
31
0
210
0
220
0
230
1
40
0.771063
41
0
42
6.28318530717959
0
ELLIPSE
5
189
100
AcDbEntity
8
1
62
256
6
ByLayer
370
-1
48
1
60
0
100
AcDbEllipse
10
19.386212
20
9.362724
30
0
11
-0.959642144440432
21
0.387700857122819
31
0
210
0
220
0
230
1
40
0.771063
41
-0.744352600049546
42
0.3019907134415
0
ELLIPSE
5
18A
100
AcDbEntity
8
1
62
256
6
ByLayer
370
-1
48
1
60
0
100
AcDbEllipse
10
20.038082
20
9.307227
30
0
11
0.171530238378241
21
-0.0692991870219535
31
0
210
0
220
0
230
1
40
0.771063
41
-2.04589369686522
42
-1.03616522171624
0
ELLIPSE
5
18B
100
AcDbEntity
8
1
62
256
6
ByLayer
370
-1
48
1
60
0
100
AcDbEllipse
10
19.624736
20
9.953121
30
0
11
-0.693538477334728
21
0.280193469688762
31
0
210
0
220
0
230
1
40
0.771063
41
1.91051385049606
42
2.76768943941735
0
ELLIPSE
5
18C
100
AcDbEntity
8
1
62
256
6
ByLayer
370
-1
48
1
60
0
100
AcDbEllipse
10
19.425736
20
9.460552
30
0
11
-0.693538477334728
21
0.280193469688762
31
0
210
0
220
0
230
1
40
0.771063
41
1.83505120885676
42
1.91051385049606
0
ELLIPSE
5
18D
100
AcDbEntity
8
1
62
256
6
ByLayer
370
-1
48
1
60
0
100
AcDbEllipse
10
19.21139
20
9.430662
30
0
11
0.171530238378241
21
-0.0692991870219535
31
0
210
0
220
0
230
1
40
0.771063
41
-3.09133236147069
42
-0.49172212191947
0
ELLIPSE
5
18E
100
AcDbEntity
8
1
62
256
6
ByLayer
370
-1
48
1
60
0
100
AcDbEllipse
10
19.386212
20
9.362724
30
0
11
-0.959642144440432
21
0.387700857122819
31
0
210
0
220
0
230
1
40
0.771063
41
1.34832725816426
42
2.39724005354026
0
ELLIPSE
5
18F
100
AcDbEntity
8
1
62
256
6
ByLayer
370
-1
48
1
60
0
100
AcDbEllipse
10
19.624736
20
9.953121
30
0
11
0.693538477334727
21
-0.280193469688763
31
0
210
0
220
0
230
1
40
0.771063
41
-2.86483509503895
42
-2.31661525915267
0
ELLIPSE
5
190
100
AcDbEntity
8
1
62
256
6
ByLayer
370
-1
48
1
60
0
100
AcDbEllipse
10
18.640488
20
9.635947
30
0
11
0.391274381597934
21
-0.158077064450077
31
0
210
0
220
0
230
1
40
0.771063
41
0.0502602921190892
42
0.825159728674779
0
POINT
5
42
100
AcDbEntity
8
2
62
256
6
ByLayer
370
-1
48
1
60
0
100
AcDbPoint
10
51.7
20
15.92
30
0
39
0
210
0
220
0
230
1
50
360
0
POINT
5
44
100
AcDbEntity
8
80
62
256
6
ByLayer
370
-1
48
1
60
0
100
AcDbPoint
10
0
20
0
30
0
39
0
210
0
220
0
230
1
50
360
0
POINT
5
46
100
AcDbEntity
8
81
62
256
6
ByLayer
370
-1
48
1
60
0
100
AcDbPoint
10
51.7
20
15.92
30
0
39
0
210
0
220
0
230
1
50
360
0
SPLINE
5
191
100
AcDbEntity
8
1
62
256
6
ByLayer
370
-1
48
1
60
0
100
AcDbSpline
70
4
71
3
72
14
73
10
40
0
40
0
40
0
40
0
40
0.130294486222624
40
0.323431107770693
40
0.469516215074181
40
0.56504077041963
40
0.684814867299415
40
0.829796776675079
40
1
40
1
40
1
40
1
41
1
10
33.547905300711
20
-3.36485781628755
30
7E-16
41
1
10
33.4625120021179
20
-3.45250398732628
30
7E-16
41
1
10
33.2498812923601
20
-3.66906840351163
30
6E-16
41
1
10
32.9388418665945
20
-3.97944578952556
30
6E-16
41
1
10
32.648520158428
20
-4.26525556282746
30
6E-16
41
1
10
32.4031513612806
20
-4.50531094638353
30
6E-16
41
1
10
32.1560872589931
20
-4.74600899012643
30
6E-16
41
1
10
31.8561730519163
20
-5.03700627674814
30
6E-16
41
1
10
31.6381983836288
20
-5.24784258804291
30
5E-16
41
1
10
31.520230613325
20
-5.36172278564939
30
-3E-16
0
SPLINE
5
192
100
AcDbEntity
8
1
62
256
6
ByLayer
370
-1
48
1
60
0
100
AcDbSpline
70
4
71
3
72
11
73
7
40
0
40
0
40
0
40
0
40
0.368253119850318
40
0.700785972951403
40
0.999479572126358
40
1
40
1
40
1
40
1
41
1
10
42.809470047107
20
-10.053086273777
30
-5E-16
41
1
10
42.7631029140054
20
-9.8004778536914
30
-5E-16
41
1
10
42.6745643956408
20
-9.30305804317263
30
-6E-16
41
1
10
42.5480179809286
20
-8.54799485893051
30
-6E-16
41
1
10
42.4669062261415
20
-8.04526930604393
30
-6E-16
41
1
10
42.4278355406413
20
-7.80107881033368
30
-6E-16
41
1
10
42.4277675823791
20
-7.8006540673851
30
-6E-16
0
SPLINE
5
193
100
AcDbEntity
8
1
62
256
6
ByLayer
370
-1
48
1
60
0
100
AcDbSpline
70
4
71
2
72
6
73
3
40
0
40
0
40
0
40
1
40
1
40
1
41
1
10
32.8226480656637
20
-8.58079002547194
30
6E-16
41
1
10
32.9300404733581
20
-8.60913704754341
30
6E-16
41
1
10
33.0376443829453
20
-8.63214728071534
30
6E-16
0
SPLINE
5
194
100
AcDbEntity
8
1
62
256
6
ByLayer
370
-1
48
1
60
0
100
AcDbSpline
70
4
71
3
72
8
73
4
40
0
40
0
40
0
40
0
40
1
40
1
40
1
40
1
41
1
10
42.5963359894031
20
8.83475885325913
30
-6E-16
41
1
10
42.6057527982178
20
8.89107093435339
30
-6E-16
41
1
10
42.6151596660751
20
8.94702843853145
30
-6E-16
41
1
10
42.6245595840671
20
9.00262979343017
30
-6E-16
0
SPLINE
5
195
100
AcDbEntity
8
1
62
256
6
ByLayer
370
-1
48
1
60
0
100
AcDbSpline
70
4
71
3
72
9
73
5
40
0
40
0
40
0
40
0
40
0.606358762246375
40
1
40
1
40
1
40
1
41
1
10
24.5175146380624
20
7.61234325896615
30
1E-16
41
1
10
24.511297445205
20
7.69684320544638
30
1E-16
41
1
10
24.5009734749631
20
7.83826351429093
30
1E-16
41
1
10
24.4903853575667
20
7.98540070663685
30
1E-16
41
1
10
24.4860601503669
20
8.04491411855577
30
1E-16
0
SPLINE
5
196
100
AcDbEntity
8
1
62
256
6
ByLayer
370
-1
48
1
60
0
100
AcDbSpline
70
4
71
3
72
11
73
7
40
0
40
0
40
0
40
0
40
0.204368897392994
40
0.43942192181756
40
0.704601032981833
40
1
40
1
40
1
40
1
41
1
10
25.0870629404193
20
10.639704847384
30
1E-16
41
1
10
25.0498195687112
20
10.7668332428657
30
1E-16
41
1
10
24.9719156145533
20
11.0407692408352
30
1E-16
41
1
10
24.8538152345295
20
11.4795440373063
30
1E-16
41
1
10
24.7317300345255
20
11.9836740592835
30
1E-16
41
1
10
24.6472283476453
20
12.3465685152748
30
1E-16
41
1
10
24.6037793028984
20
12.539858979245
30
1E-16
0
SPLINE
5
197
100
AcDbEntity
8
1
62
256
6
ByLayer
370
-1
48
1
60
0
100
AcDbSpline
70
4
71
2
72
6
73
3
40
0
40
0
40
0
40
1
40
1
40
1
41
1
10
15.2298535028737
20
13.3013586380713
30
-5E-16
41
1
10
15.1568623525698
20
13.3125936316869
30
-5E-16
41
1
10
15.0841499920532
20
13.3159851761093
30
-5E-16
0
SPLINE
5
198
100
AcDbEntity
8
1
62
256
6
ByLayer
370
-1
48
1
60
0
100
AcDbSpline
70
4
71
2
72
6
73
3
40
0
40
0
40
0
40
1
40
1
40
1
41
1
10
24.0041589606168
20
6.6871099665436
30
1E-16
41
1
10
24.0970250970537
20
6.67496000919763
30
1E-16
41
1
10
24.1885133667148
20
6.67012762522674
30
1E-16
0
SPLINE
5
199
100
AcDbEntity
8
1
62
256
6
ByLayer
370
-1
48
1
60
0
100
AcDbSpline
70
4
71
1
72
4
73
2
40
0
40
0
40
1
40
1
41
1
10
16.3717887262071
20
13.9482365559363
30
-4E-16
41
1
10
14.8741237583437
20
13.2950636792258
30
-5E-16
0
SPLINE
5
19A
100
AcDbEntity
8
1
62
256
6
ByLayer
370
-1
48
1
60
0
100
AcDbSpline
70
4
71
2
72
6
73
3
40
0
40
0
40
0
40
1
40
1
40
1
41
1
10
41.657654021968
20
-15.4813198698442
30
-2E-16
41
1
10
41.7388825525001
20
-15.4938381910609
30
-2E-16
41
1
10
41.8203784802368
20
-15.4974153127671
30
-2E-16
0
SPLINE
5
19B
100
AcDbEntity
8
1
62
256
6
ByLayer
370
-1
48
1
60
0
100
AcDbSpline
70
4
71
3
72
10
73
6
40
0
40
0
40
0
40
0
40
0.361124730011836
40
0.694457491768441
40
1
40
1
40
1
40
1
41
1
10
33.9609888737471
20
-0.288990880221689
30
7E-16
41
1
10
33.9021057929849
20
0.176993794336624
30
7E-16
41
1
10
33.7889368592367
20
1.07308004801368
30
7E-16
41
1
10
33.6261482089808
20
2.3633557304874
30
7E-16
41
1
10
33.5222657873815
20
3.18765347161508
30
7E-16
41
1
10
33.4726097788942
20
3.5818673021385
30
7E-16
0
SPLINE
5
19C
100
AcDbEntity
8
1
62
256
6
ByLayer
370
-1
48
1
60
0
100
AcDbSpline
70
4
71
3
72
12
73
8
40
0
40
0
40
0
40
0
40
0.242590616530955
40
0.390015871718438
40
0.49913936806058
40
0.713729169323289
40
1
40
1
40
1
40
1
41
1
10
33.0714184282725
20
0.114508473893068
30
6E-16
41
1
10
32.979011130608
20
0.135886281026302
30
6E-16
41
1
10
32.832896704026
20
0.174063553126842
30
6E-16
41
1
10
32.6485543216098
20
0.232200311619721
30
6E-16
41
1
10
32.4816038230628
20
0.289570340448478
30
6E-16
41
1
10
32.2544143027012
20
0.370923387076715
30
6E-16
41
1
10
32.0705589928113
20
0.439399895002367
30
6E-16
41
1
10
31.9655817336721
20
0.479068476237984
30
6E-16
0
SPLINE
5
19D
100
AcDbEntity
8
1
62
256
6
ByLayer
370
-1
48
1
60
0
100
AcDbSpline
70
4
71
3
72
8
73
4
40
0
40
0
40
0
40
0
40
1
40
1
40
1
40
1
41
1
10
28.5552415771058
20
1.80632128750696
30
4E-16
41
1
10
28.541020907825
20
1.81200286337236
30
4E-16
41
1
10
28.5268015054598
20
1.81768765767097
30
4E-16
41
1
10
28.5125834164401
20
1.82337581112145
30
4E-16
0
SPLINE
5
19E
100
AcDbEntity
8
1
62
256
6
ByLayer
370
-1
48
1
60
0
100
AcDbSpline
70
4
71
2
72
6
73
3
40
0
40
0
40
0
40
1
40
1
40
1
41
1
10
24.0570069231905
20
3.32365808773071
30
1E-16
41
1
10
23.9942398354617
20
3.34017873276269
30
1E-16
41
1
10
23.9317585985526
20
3.35403284302444
30
1E-16
0
SPLINE
5
19F
100
AcDbEntity
8
1
62
256
6
ByLayer
370
-1
48
1
60
0
100
AcDbSpline
70
4
71
3
72
12
73
8
40
0
40
0
40
0
40
0
40
0.089751214270918
40
0.271150014413256
40
0.483280451254557
40
0.726368644058227
40
1
40
1
40
1
40
1
41
1
10
29.8000089746876
20
0.473328740791004
30
4E-16
41
1
10
29.9075618534929
20
0.44832174107006
30
4E-16
41
1
10
30.2322462503796
20
0.371533335472691
30
5E-16
41
1
10
30.8096537897482
20
0.227481223649079
30
5E-16
41
1
10
31.5676103594847
20
0.0264477394815685
30
5E-16
41
1
10
32.4277059169105
20
-0.229897274400088
30
6E-16
41
1
10
33.0451348537157
20
-0.386088908500852
30
6E-16
41
1
10
33.3730046982773
20
-0.465819948160799
30
7E-16
0
SPLINE
5
1A0
100
AcDbEntity
8
1
62
256
6
ByLayer
370
-1
48
1
60
0
100
AcDbSpline
70
4
71
3
72
14
73
10
40
0
40
0
40
0
40
0
40
0.170409520656085
40
0.305333178712779
40
0.406096093894703
40
0.483912990825603
40
0.61623030510133
40
0.788025651412588
40
1
40
1
40
1
40
1
41
1
10
25.0458629752999
20
5.64108392650741
30
1E-16
41
1
10
24.9616960647464
20
5.50976931095616
30
1E-16
41
1
10
24.8093091016163
20
5.272597706894
30
1E-16
41
1
10
24.604408211299
20
4.95481735721705
30
1E-16
41
1
10
24.4419052142348
20
4.7039038244333
30
1E-16
41
1
10
24.2758324751477
20
4.44179181132219
30
1E-16
41
1
10
24.0803202372637
20
4.13956133745515
30
1E-16
41
1
10
23.8206512964995
20
3.74931000390077
30
1E-16
41
1
10
23.6310652480407
20
3.47260789859447
30
1E-16
41
1
10
23.527487099842
20
3.32422202778605
30
1E-16
0
SPLINE
5
1A1
100
AcDbEntity
8
1
62
256
6
ByLayer
370
-1
48
1
60
0
100
AcDbSpline
70
4
71
3
72
12
73
8
40
0
40
0
40
0
40
0
40
0.0960271453368264
40
0.269774759696055
40
0.473564356569933
40
0.715306645607949
40
1
40
1
40
1
40
1
41
1
10
23.9053975954703
20
3.8859945518748
30
1E-16
41
1
10
23.8616670397462
20
3.84339059117264
30
1E-16
41
1
10
23.7373334413091
20
3.70985698741851
30
1E-16
41
1
10
23.5257597262764
20
3.42693218721178
30
1E-16
41
1
10
23.250057267879
20
3.02838159091743
30
0
41
1
10
22.9220835024865
20
2.55273670815683
30
0
41
1
10
22.6854635497746
20
2.2147732792057
30
0
41
1
10
22.5572398366013
20
2.03254830418894
30
0
0
SPLINE
5
1A2
100
AcDbEntity
8
1
62
256
6
ByLayer
370
-1
48
1
60
0
100
AcDbSpline
70
4
71
2
72
6
73
3
40
0
40
0
40
0
40
1
40
1
40
1
41
1
10
41.8203784802369
20
15.4974153127667
30
-2E-16
41
1
10
41.7388825525002
20
15.4938381910605
30
-2E-16
41
1
10
41.6576540219682
20
15.4813198698438
30
-2E-16
0
SPLINE
5
1A3
100
AcDbEntity
8
1
62
256
6
ByLayer
370
-1
48
1
60
0
100
AcDbSpline
70
4
71
2
72
6
73
3
40
0
40
0
40
0
40
1
40
1
40
1
41
1
10
50.6031417434159
20
9.16159629354235
30
0
41
1
10
50.6842089219029
20
9.164787519849
30
0
41
1
10
50.7640103988633
20
9.17754082360679
30
0
0
SPLINE
5
1A4
100
AcDbEntity
8
1
62
256
6
ByLayer
370
-1
48
1
60
0
100
AcDbSpline
70
4
71
3
72
8
73
4
40
0
40
0
40
0
40
0
40
1
40
1
40
1
40
1
41
1
10
25.4758833355301
20
-3.66064720591041
30
2E-16
41
1
10
24.9800020113343
20
-3.96901100444566
30
1E-16
41
1
10
24.4848843805389
20
-4.2404992656819
30
1E-16
41
1
10
23.98870454
20
-4.43777740998888
30
1E-16
0
SPLINE
5
1A5
100
AcDbEntity
8
1
62
256
6
ByLayer
370
-1
48
1
60
0
100
AcDbSpline
70
4
71
4
72
13
73
8
40
0
40
0
40
0
40
0
40
0
40
0.49418869463674
40
0.49418869463674
40
0.49418869463674
40
1
40
1
40
1
40
1
40
1
41
0.57385150153233
10
22.7904370909266
20
-4.50177020943098
30
0
41
0.571592888828371
10
23.0554583554999
20
-4.1741275810943
30
0
41
0.574533377652391
10
23.4079625435415
20
-3.65603892516164
30
0
41
0.585786437626905
10
23.7927938718128
20
-3.01471159943447
30
1E-16
41
0.585786437626905
10
24.4494693890683
20
-1.84689323348761
30
1E-16
41
0.573997841598898
10
24.8238838118284
20
-1.13590259577416
30
1E-16
41
0.571399468711132
10
25.1287864810899
20
-0.479139717616206
30
1E-16
41
0.574081064394917
10
25.3229276052034
20
0.0155255131876366
30
2E-16
0
SPLINE
5
1A6
100
AcDbEntity
8
1
62
256
6
ByLayer
370
-1
48
1
60
0
100
AcDbSpline
70
4
71
3
72
12
73
8
40
0
40
0
40
0
40
0
40
0.354981928083014
40
0.354981928083014
40
0.793089429347908
40
0.793089429347908
40
1
40
1
40
1
40
1
41
1
10
15.5774302059202
20
7.13126267656824
30
-4E-16
41
1
10
15.6257734262656
20
7.05532181160058
30
-4E-16
41
1
10
15.6842347468307
20
6.98598837027964
30
-4E-16
41
1
10
15.8298826142889
20
6.85385694379323
30
-4E-16
41
1
10
15.9225734575261
20
6.79481820744405
30
-4E-16
41
1
10
16.0654657636372
20
6.73407168139457
30
-4E-16
41
1
10
16.1128511513394
20
6.71826769844134
30
-4E-16
41
1
10
16.1606843404839
20
6.70640747626126
30
-4E-16
0
SPLINE
5
1A7
100
AcDbEntity
8
1
62
256
6
ByLayer
370
-1
48
1
60
0
100
AcDbSpline
70
4
71
3
72
14
73
10
40
0
40
0
40
0
40
0
40
0.25
40
0.25
40
0.5
40
0.5
40
0.75
40
0.75
40
1
40
1
40
1
40
1
41
1
10
46.8574564462778
20
-10.9001566151937
30
-3E-16
41
1
10
46.956964897513
20
-10.5495201000933
30
-3E-16
41
1
10
47.1382479831534
20
-10.1922361323002
30
-3E-16
41
1
10
47.7200714457303
20
-9.55255830221554
30
-2E-16
41
1
10
48.1367496782423
20
-9.25835742967971
30
-2E-16
41
1
10
49.1605820568968
20
-9.12464084648235
30
-2E-16
41
1
10
49.6830113390517
20
-9.39728557470605
30
-1E-16
41
1
10
50.0870893261571
20
-10.1379500051163
30
-1E-16
41
1
10
50.0683532145291
20
-10.5351327037543
30
-1E-16
41
1
10
49.9690287783447
20
-10.8881078018796
30
-1E-16
0
SPLINE
5
1A8
100
AcDbEntity
8
1
62
256
6
ByLayer
370
-1
48
1
60
0
100
AcDbSpline
70
4
71
3
72
12
73
8
40
0
40
0
40
0
40
0
40
0.0844043085065326
40
0.0844043085065326
40
0.535956349440172
40
0.535956349440172
40
1
40
1
40
1
40
1
41
1
10
26.1753998766526
20
0.833007679376294
30
2E-16
41
1
10
26.2315245272078
20
0.840876679903317
30
2E-16
41
1
10
26.2878991095968
20
0.847559363818249
30
2E-16
41
1
10
26.6443258458108
20
0.881577272523202
30
2E-16
41
1
10
26.9517075883423
20
0.872170498128128
30
3E-16
41
1
10
27.5480956579371
20
0.767276784619497
30
3E-16
41
1
10
27.843436818426
20
0.668395782055967
30
3E-16
41
1
10
28.1108779053876
20
0.540940198062088
30
3E-16
0
SPLINE
5
1A9
100
AcDbEntity
8
1
62
256
6
ByLayer
370
-1
48
1
60
0
100
AcDbSpline
70
4
71
3
72
14
73
10
40
0
40
0
40
0
40
0
40
0.30005655106132
40
0.30005655106132
40
0.600153762849038
40
0.600153762849038
40
0.899564401041701
40
0.899564401041701
40
1
40
1
40
1
40
1
41
1
10
44.1581178267475
20
-8.69793991883648
30
-5E-16
41
1
10
44.1303339442483
20
-8.58287272793297
30
-5E-16
41
1
10
44.0785753874295
20
-8.46915604606011
30
-5E-16
41
1
10
43.935525374007
20
-8.26395125680128
30
-5E-16
41
1
10
43.8422405482311
20
-8.16965111471023
30
-5E-16
41
1
10
43.6277012180851
20
-8.01466931680616
30
-5E-16
41
1
10
43.503528650057
20
-7.95179935926106
30
-5E-16
41
1
10
43.3281919928305
20
-7.8947346842084
30
-5E-16
41
1
10
43.2826951426706
20
-7.88245388396399
30
-5E-16
41
1
10
43.2366158782949
20
-7.87249529987028
30
-5E-16
0
SPLINE
5
1AA
100
AcDbEntity
8
1
62
256
6
ByLayer
370
-1
48
1
60
0
100
AcDbSpline
70
4
71
1
72
4
73
2
40
0
40
0
40
1
40
1
41
1
10
26.3299045757974
20
0.361562984531076
30
2E-16
41
1
10
24.9504737988315
20
1.32485240458328
30
1E-16
0
SPLINE
5
1AB
100
AcDbEntity
8
1
62
256
6
ByLayer
370
-1
48
1
60
0
100
AcDbSpline
70
4
71
3
72
10
73
6
40
0
40
0
40
0
40
0
40
0.672560170376639
40
0.672560170376639
40
1
40
1
40
1
40
1
41
1
10
44.1463345141685
20
-9.1529121058843
30
-5E-16
41
1
10
44.1760109733828
20
-9.05687887676365
30
-5E-16
41
1
10
44.1876643664167
20
-8.95508646170322
30
-5E-16
41
1
10
44.1770551918111
20
-8.80480463227147
30
-5E-16
41
1
10
44.1691276415676
20
-8.75526611418474
30
-5E-16
41
1
10
44.1568822343844
20
-8.70634414460451
30
-5E-16
0
SPLINE
5
1AC
100
AcDbEntity
8
1
62
256
6
ByLayer
370
-1
48
1
60
0
100
AcDbSpline
70
4
71
3
72
8
73
4
40
0
40
0
40
0
40
0
40
1
40
1
40
1
40
1
41
1
10
19.255230170581
20
6.42354650344475
30
-2E-16
41
1
10
19.3371402974898
20
6.41485020030981
30
-2E-16
41
1
10
19.4178519537217
20
6.40693800050258
30
-2E-16
41
1
10
19.4969375074038
20
6.40040470735534
30
-2E-16
0
SPLINE
5
1AD
100
AcDbEntity
8
1
62
256
6
ByLayer
370
-1
48
1
60
0
100
AcDbSpline
70
4
71
3
72
20
73
16
40
0
40
0
40
0
40
0
40
0.0830558997080085
40
0.0830558997080085
40
0.169890177459143
40
0.169890177459143
40
0.251733065999609
40
0.251733065999609
40
0.3630969743654
40
0.3630969743654
40
0.516377110588924
40
0.516377110588924
40
0.739662948404726
40
0.739662948404726
40
1
40
1
40
1
40
1
41
1
10
23.0784651459762
20
15.1651842871928
30
0
41
1
10
23.001083895727
20
15.1539454178079
30
0
41
1
10
22.9094544092425
20
15.1429507760731
30
0
41
1
10
22.703674015034
20
15.1243382202701
30
0
41
1
10
22.5858307697688
20
15.1167069292336
30
0
41
1
10
22.3531795392997
20
15.1076481666483
30
0
41
1
10
22.2358677745825
20
15.1057507864463
30
0
41
1
10
21.9684058997572
20
15.106633303878
30
0
41
1
10
21.8172216808675
20
15.1112614044453
30
-1E-16
41
1
10
21.4880030606578
20
15.1273532054968
30
-1E-16
41
1
10
21.3147127382902
20
15.1408077962188
30
-1E-16
41
1
10
20.9464424777576
20
15.1734200647103
30
-1E-16
41
1
10
20.7693140734155
20
15.1927860070385
30
1E-16
41
1
10
20.4706900886799
20
15.2202386123259
30
0
41
1
10
20.3581386712588
20
15.2264963616441
30
0
41
1
10
20.288335323117
20
15.2205830641735
30
0
0
SPLINE
5
1AE
100
AcDbEntity
8
1
62
256
6
ByLayer
370
-1
48
1
60
0
100
AcDbSpline
70
4
71
3
72
8
73
4
40
0
40
0
40
0
40
0
40
1
40
1
40
1
40
1
41
1
10
16.6202356003478
20
2.49374901714049
30
-4E-16
41
1
10
16.1242768985366
20
2.39654290643253
30
-4E-16
41
1
10
15.6293214912239
20
2.38253817925727
30
-4E-16
41
1
10
15.1330568099937
20
2.45896658409976
30
-5E-16
0
SPLINE
5
1AF
100
AcDbEntity
8
1
62
256
6
ByLayer
370
-1
48
1
60
0
100
AcDbSpline
70
4
71
3
72
10
73
6
40
0
40
0
40
0
40
0
40
0.250804383348118
40
0.250804383348118
40
1
40
1
40
1
40
1
41
1
10
47.5823061014173
20
8.9387969791097
30
2E-16
41
1
10
47.5678069637965
20
8.94156980966653
30
2E-16
41
1
10
47.5530433885219
20
8.94532672377113
30
2E-16
41
1
10
47.4933922705761
20
8.96409912929991
30
2E-16
41
1
10
47.4458661237628
20
8.98681550006893
30
2E-16
41
1
10
47.3976160899251
20
9.01743424135123
30
2E-16
0
SPLINE
5
1B0
100
AcDbEntity
8
1
62
256
6
ByLayer
370
-1
48
1
60
0
100
AcDbSpline
70
4
71
3
72
10
73
6
40
0
40
0
40
0
40
0
40
0.5
40
0.5
40
1
40
1
40
1
40
1
41
1
10
23.1393533989884
20
-12.2344496621583
30
0
41
1
10
21.793812676148
20
-11.4090375256768
30
-1E-16
41
1
10
20.6303995173232
20
-10.3270380739812
30
-1E-16
41
1
10
18.4008883352551
20
-7.79102109935857
30
-3E-16
41
1
10
17.3581667327249
20
-6.36574757121818
30
-3E-16
41
1
10
16.2893414278936
20
-4.83397128162571
30
-4E-16
0
SPLINE
5
1B1
100
AcDbEntity
8
1
62
256
6
ByLayer
370
-1
48
1
60
0
100
AcDbSpline
70
4
71
3
72
22
73
18
40
0
40
0
40
0
40
0
40
0.0219777433916434
40
0.0219777433916434
40
0.271056950786955
40
0.271056950786955
40
0.384823739315366
40
0.384823739315366
40
0.500446501573588
40
0.500446501573588
40
0.601272542408937
40
0.601272542408937
40
0.721904842375795
40
0.721904842375795
40
0.918646016300132
40
0.918646016300132
40
1
40
1
40
1
40
1
41
1
10
20.5686611773765
20
15.1329081300125
30
1E-16
41
1
10
20.5725853853425
20
15.1313342095337
30
1E-16
41
1
10
20.5766567229344
20
15.1297454540624
30
1E-16
41
1
10
20.6283397243355
20
15.1101388588643
30
1E-16
41
1
10
20.6952062125571
20
15.0897371983283
30
-1E-16
41
1
10
20.8393387978796
20
15.0623917839064
30
-1E-16
41
1
10
20.8925672032583
20
15.0540622250377
30
-1E-16
41
1
10
21.015597103514
20
15.0402983953491
30
-1E-16
41
1
10
21.0877616671623
20
15.0348170858746
30
-1E-16
41
1
10
21.2310383192883
20
15.029869074907
30
-1E-16
41
1
10
21.3028299030082
20
15.0296890137168
30
-1E-16
41
1
10
21.4563546169764
20
15.0335822511406
30
-1E-16
41
1
10
21.5396329734296
20
15.0384415412256
30
-1E-16
41
1
10
21.7439598677086
20
15.0548328410866
30
-1E-16
41
1
10
21.8606269854048
20
15.0687057339308
30
-1E-16
41
1
10
22.0103008516844
20
15.0889688648637
30
0
41
1
10
22.0526239124891
20
15.0950513580431
30
0
41
1
10
22.093496119914
20
15.1011629044843
30
0
0
SPLINE
5
1B2
100
AcDbEntity
8
1
62
256
6
ByLayer
370
-1
48
1
60
0
100
AcDbSpline
70
4
71
3
72
20
73
16
40
0
40
0
40
0
40
0
40
0.24111359869748
40
0.24111359869748
40
0.364262025635301
40
0.364262025635301
40
0.468281880365417
40
0.468281880365417
40
0.573265834297385
40
0.573265834297385
40
0.66580765212611
40
0.66580765212611
40
0.822248961812522
40
0.822248961812522
40
1
40
1
40
1
40
1
41
1
10
29.424308912183
20
9.51132110564848
30
4E-16
41
1
10
29.4670783126821
20
9.38591645261155
30
4E-16
41
1
10
29.5272523289412
20
9.26020398759459
30
4E-16
41
1
10
29.6607375459765
20
9.09021781584798
30
4E-16
41
1
10
29.7144244662685
20
9.03539347136817
30
4E-16
41
1
10
29.8305991445193
20
8.95011381087153
30
4E-16
41
1
10
29.891772985169
20
8.91662377983326
30
4E-16
41
1
10
30.024410375933
20
8.87047331182202
30
4E-16
41
1
10
30.0978396255821
20
8.85766477662244
30
5E-16
41
1
10
30.2349218883451
20
8.85501598619805
30
5E-16
41
1
10
30.300202715118
20
8.86235019008475
30
5E-16
41
1
10
30.4678348226915
20
8.89849112221361
30
5E-16
41
1
10
30.5680242681199
20
8.93849251049343
30
5E-16
41
1
10
30.7641173297265
20
9.03960369474405
30
5E-16
41
1
10
30.8602265698594
20
9.10387706369184
30
5E-16
41
1
10
30.9491438547205
20
9.17258582031022
30
5E-16
0
SPLINE
5
1B3
100
AcDbEntity
8
1
62
256
6
ByLayer
370
-1
48
1
60
0
100
AcDbSpline
70
4
71
3
72
12
73
8
40
0
40
0
40
0
40
0
40
0.286197127705878
40
0.286197127705878
40
0.933000907847175
40
0.933000907847175
40
1
40
1
40
1
40
1
41
1
10
43.3023459372993
20
9.03958043962683
30
-1E-16
41
1
10
43.2658383128996
20
8.99346122236096
30
-1E-16
41
1
10
43.2260901111157
20
8.94987824968703
30
-1E-16
41
1
10
43.0884661316195
20
8.81751224323102
30
-1E-16
41
1
10
42.9787349258904
20
8.73925425463185
30
-1E-16
41
1
10
42.8486940102804
20
8.67174465680057
30
-1E-16
41
1
10
42.8362973857494
20
8.66554036443443
30
-1E-16
41
1
10
42.8238074758881
20
8.65952033768556
30
-1E-16
0
SPLINE
5
1B4
100
AcDbEntity
8
1
62
256
6
ByLayer
370
-1
48
1
60
0
100
AcDbSpline
70
4
71
1
72
4
73
2
40
0
40
0
40
1
40
1
41
1
10
17.381563727867
20
6.39277160311477
30
-3E-16
41
1
10
17.2030592146271
20
6.49804339215993
30
-3E-16
0
SPLINE
5
1B5
100
AcDbEntity
8
1
62
256
6
ByLayer
370
-1
48
1
60
0
100
AcDbSpline
70
4
71
3
72
8
73
4
40
0
40
0
40
0
40
0
40
1
40
1
40
1
40
1
41
1
10
19.441509400925
20
6.35504577501692
30
-2E-16
41
1
10
19.5771117047176
20
6.30200612398411
30
-2E-16
41
1
10
19.7126197548794
20
6.25752256610204
30
-2E-16
41
1
10
19.8446487829666
20
6.22069442555855
30
-2E-16
0
SPLINE
5
1B6
100
AcDbEntity
8
1
62
256
6
ByLayer
370
-1
48
1
60
0
100
AcDbSpline
70
4
71
3
72
8
73
4
40
0
40
0
40
0
40
0
40
1
40
1
40
1
40
1
41
1
10
31.9950011337951
20
12.5048777082091
30
6E-16
41
1
10
30.1452307693249
20
12.4798909053364
30
5E-16
41
1
10
28.2954604064837
20
12.454904017762
30
3E-16
41
1
10
26.4456900453004
20
12.4299170439787
30
2E-16
0
SPLINE
5
1B7
100
AcDbEntity
8
1
62
256
6
ByLayer
370
-1
48
1
60
0
100
AcDbSpline
70
4
71
3
72
10
73
6
40
0
40
0
40
0
40
0
40
0.5
40
0.5
40
1
40
1
40
1
40
1
41
1
10
31.6460848264174
20
-8.92986872045179
30
1E-16
41
1
10
30.4500971766886
20
-8.36351958046387
30
0
41
1
10
29.3888420673797
20
-7.6269234850933
30
4E-16
41
1
10
27.3529639967108
20
-5.85549256920677
30
3E-16
41
1
10
26.3656756689703
20
-4.84481346852715
30
2E-16
41
1
10
25.4758833355301
20
-3.66064720591041
30
2E-16
0
SPLINE
5
1B8
100
AcDbEntity
8
1
62
256
6
ByLayer
370
-1
48
1
60
0
100
AcDbSpline
70
4
71
3
72
8
73
4
40
0
40
0
40
0
40
0
40
1
40
1
40
1
40
1
41
1
10
23.2752996517459
20
14.8735932930001
30
0
41
1
10
23.2646846223781
20
14.8736010899355
30
0
41
1
10
23.2516740444542
20
14.8730195084944
30
0
41
1
10
23.2366060350603
20
14.8718543158122
30
0
0
SPLINE
5
1B9
100
AcDbEntity
8
1
62
256
6
ByLayer
370
-1
48
1
60
0
100
AcDbSpline
70
4
71
3
72
10
73
6
40
0
40
0
40
0
40
0
40
0.664039477082199
40
0.664039477082199
40
1
40
1
40
1
40
1
41
1
10
41.9401875883491
20
8.73022885239675
30
-2E-16
41
1
10
41.846621575927
20
8.74498794714842
30
-2E-16
41
1
10
41.7363803076677
20
8.77291256225885
30
-2E-16
41
1
10
41.5576719847962
20
8.85362653295101
30
-2E-16
41
1
10
41.494795854562
20
8.88785812011298
30
-2E-16
41
1
10
41.4321634491504
20
8.93146764528717
30
-2E-16
0
SPLINE
5
1BA
100
AcDbEntity
8
1
62
256
6
ByLayer
370
-1
48
1
60
0
100
AcDbSpline
70
4
71
3
72
10
73
6
40
0
40
0
40
0
40
0
40
0.5
40
0.5
40
1
40
1
40
1
40
1
41
1
10
23.98870454
20
-12.3710514530142
30
1E-16
41
1
10
25.2578369589282
20
-13.4161543375567
30
2E-16
41
1
10
26.4685269965535
20
-14.1457795282837
30
2E-16
41
1
10
29.0547248127838
20
-14.9292985164013
30
-1E-16
41
1
10
30.4047380592936
20
-14.9511548118107
30
0
41
1
10
31.9950011337952
20
-14.7206633695168
30
1E-16
0
SPLINE
5
1BB
100
AcDbEntity
8
1
62
256
6
ByLayer
370
-1
48
1
60
0
100
AcDbSpline
70
4
71
3
72
8
73
4
40
0
40
0
40
0
40
0
40
1
40
1
40
1
40
1
41
1
10
15.5774302059214
20
7.13126267657006
30
-4E-16
41
1
10
15.4301692073779
20
7.16925587847351
30
4E-16
41
1
10
15.2820453397558
20
7.20623640013798
30
4E-16
41
1
10
15.1330568099945
20
7.24211651583408
30
4E-16
0
SPLINE
5
1BC
100
AcDbEntity
8
1
62
256
6
ByLayer
370
-1
48
1
60
0
100
AcDbSpline
70
4
71
3
72
8
73
4
40
0
40
0
40
0
40
0
40
1
40
1
40
1
40
1
41
1
10
40.8506488686017
20
2.65139491945192
30
-7E-16
41
1
10
39.0008785041314
20
2.64522165713819
30
-8E-16
41
1
10
37.1511081412902
20
2.63904837389794
30
9E-16
41
1
10
35.301337780107
20
2.63287506935887
30
8E-16
0
SPLINE
5
1BD
100
AcDbEntity
8
1
62
256
6
ByLayer
370
-1
48
1
60
0
100
AcDbSpline
70
4
71
3
72
12
73
8
40
0
40
0
40
0
40
0
40
0.379606345774103
40
0.379606345774103
40
0.828156008512748
40
0.828156008512748
40
1
40
1
40
1
40
1
41
1
10
23.3773626918275
20
3.1656777089255
30
0
41
1
10
23.2489301143291
20
3.19212155540387
30
0
41
1
10
23.0858281138179
20
3.23021206002608
30
0
41
1
10
22.6917725022562
20
3.35201915027105
30
0
41
1
10
22.4487213495193
20
3.44468769259089
30
0
41
1
10
22.1126300878219
20
3.62303514396027
30
0
41
1
10
22.0183537249334
20
3.6784424783952
30
0
41
1
10
21.9255248434957
20
3.73968217314405
30
0
0
SPLINE
5
1BE
100
AcDbEntity
8
1
62
256
6
ByLayer
370
-1
48
1
60
0
100
AcDbSpline
70
4
71
3
72
22
73
18
40
0
40
0
40
0
40
0
40
0.0188524676943724
40
0.0188524676943724
40
0.103406834386314
40
0.103406834386314
40
0.188313885915272
40
0.188313885915272
40
0.268340328635279
40
0.268340328635279
40
0.377232592738404
40
0.377232592738404
40
0.527110783261231
40
0.527110783261231
40
0.745440947662992
40
0.745440947662992
40
1
40
1
40
1
40
1
41
1
10
40.8506488686017
20
1.69287919329207
30
-7E-16
41
1
10
40.8342199554083
20
1.71436835640236
30
-7E-16
41
1
10
40.8170765096178
20
1.73533148075705
30
-7E-16
41
1
10
40.7199050205848
20
1.84613862685327
30
-7E-16
41
1
10
40.6248925199459
20
1.92539148473349
30
-7E-16
41
1
10
40.4149694846472
20
2.04455345190945
30
-7E-16
41
1
10
40.2971262393819
20
2.08574501265056
30
-7E-16
41
1
10
40.0644750089128
20
2.12372797712288
30
-7E-16
41
1
10
39.9471632441956
20
2.12362508348758
30
-7E-16
41
1
10
39.6797013693704
20
2.08600321968345
30
-7E-16
41
1
10
39.5285171504807
20
2.03495803297835
30
-7E-16
41
1
10
39.199298530271
20
1.86947027622168
30
-8E-16
41
1
10
39.0260082079034
20
1.73624666839388
30
-8E-16
41
1
10
38.6577379473707
20
1.36590972512596
30
-8E-16
41
1
10
38.4806095430287
20
1.1025837012422
30
-8E-16
41
1
10
38.181985558293
20
0.503240434893655
30
-8E-16
41
1
10
38.0694341408719
20
0.153941002804714
30
-8E-16
41
1
10
37.9996307927301
20
-0.199473348092141
30
-8E-16
0
SPLINE
5
1BF
100
AcDbEntity
8
1
62
256
6
ByLayer
370
-1
48
1
60
0
100
AcDbSpline
70
4
71
1
72
4
73
2
40
0
40
0
40
1
40
1
41
1
10
17.4742568450786
20
5.68581217721939
30
-3E-16
41
1
10
15.1330568099919
20
7.01170621826589
30
4E-16
0
SPLINE
5
1C0
100
AcDbEntity
8
1
62
256
6
ByLayer
370
-1
48
1
60
0
100
AcDbSpline
70
4
71
3
72
8
73
4
40
0
40
0
40
0
40
0
40
1
40
1
40
1
40
1
41
1
10
23.98870454
20
-12.371051453014
30
1E-16
41
1
10
23.6971826164622
20
-12.231620831265
30
1E-16
41
1
10
23.4143522330197
20
-12.0811684011023
30
0
41
1
10
23.1393533989885
20
-11.9203534258444
30
0
0
SPLINE
5
1C1
100
AcDbEntity
8
1
62
256
6
ByLayer
370
-1
48
1
60
0
100
AcDbSpline
70
4
71
3
72
8
73
4
40
0
40
0
40
0
40
0
40
1
40
1
40
1
40
1
41
1
10
47.6543484890992
20
9.02698081947707
30
0
41
1
10
47.6308580889999
20
8.9909379926878
30
0
41
1
10
47.6059630156177
20
8.95655971179821
30
0
41
1
10
47.5801068535105
20
8.92397676794076
30
0
0
SPLINE
5
1C2
100
AcDbEntity
8
1
62
256
6
ByLayer
370
-1
48
1
60
0
100
AcDbSpline
70
4
71
3
72
10
73
6
40
0
40
0
40
0
40
0
40
0.215211803442651
40
0.215211803442651
40
1
40
1
40
1
40
1
41
1
10
16.8158683380999
20
4.45885840993734
30
-4E-16
41
1
10
16.7949734057705
20
4.52259119052826
30
-4E-16
41
1
10
16.7749787807839
20
4.58744320501563
30
-4E-16
41
1
10
16.6864221499737
20
4.89080733147043
30
-4E-16
41
1
10
16.6268576362145
20
5.1422390620757
30
-4E-16
41
1
10
16.575231013496
20
5.39412680723373
30
-4E-16
0
SPLINE
5
1C3
100
AcDbEntity
8
1
62
256
6
ByLayer
370
-1
48
1
60
0
100
AcDbSpline
70
4
71
3
72
10
73
6
40
0
40
0
40
0
40
0
40
0.584428588684705
40
0.584428588684705
40
1
40
1
40
1
40
1
41
1
10
26.4456900453004
20
12.4299170439787
30
2E-16
41
1
10
26.4674666095978
20
12.3693927624356
30
2E-16
41
1
10
26.4755011992586
20
12.3055959841383
30
2E-16
41
1
10
26.4650412091312
20
12.1961003552106
30
2E-16
41
1
10
26.4535216974291
20
12.1500123578297
30
2E-16
41
1
10
26.4351254357492
20
12.1046116582386
30
2E-16
0
SPLINE
5
1C4
100
AcDbEntity
8
1
62
256
6
ByLayer
370
-1
48
1
60
0
100
AcDbSpline
70
4
71
3
72
8
73
4
40
0
40
0
40
0
40
0
40
1
40
1
40
1
40
1
41
1
10
24.5772801352608
20
1.3940920236868
30
1E-16
41
1
10
24.8491990119113
20
0.945491184606993
30
1E-16
41
1
10
25.1033275689663
20
0.486898308713251
30
1E-16
41
1
10
25.3229276052034
20
0.0155255131876402
30
2E-16
0
SPLINE
5
1C5
100
AcDbEntity
8
1
62
256
6
ByLayer
370
-1
48
1
60
0
100
AcDbSpline
70
4
71
3
72
10
73
6
40
0
40
0
40
0
40
0
40
0.833563482414426
40
0.833563482414426
40
1
40
1
40
1
40
1
41
1
10
25.2241543557646
20
12.9551648114112
30
2E-16
41
1
10
25.0889770120089
20
12.9715000350857
30
1E-16
41
1
10
24.9461277761709
20
12.9765972924109
30
1E-16
41
1
10
24.7793998153385
20
12.9689427400253
30
1E-16
41
1
10
24.7514055918351
20
12.9671911439075
30
1E-16
41
1
10
24.7235812250712
20
12.9649818677936
30
1E-16
0
SPLINE
5
1C6
100
AcDbEntity
8
1
62
256
6
ByLayer
370
-1
48
1
60
0
100
AcDbSpline
70
4
71
3
72
10
73
6
40
0
40
0
40
0
40
0
40
0.358239869862518
40
0.358239869862518
40
1
40
1
40
1
40
1
41
1
10
45.6750347198524
20
8.66291504410916
30
1E-16
41
1
10
45.6578391697723
20
8.68109052209584
30
1E-16
41
1
10
45.6413617933852
20
8.70050485870581
30
1E-16
41
1
10
45.5975901855904
20
8.75780156157222
30
1E-16
41
1
10
45.5717782825797
20
8.79846010172113
30
1E-16
41
1
10
45.5483756449051
20
8.84252402450764
30
1E-16
0
SPLINE
5
1C7
100
AcDbEntity
8
1
62
256
6
ByLayer
370
-1
48
1
60
0
100
AcDbSpline
70
4
71
3
72
8
73
4
40
0
40
0
40
0
40
0
40
1
40
1
40
1
40
1
41
1
10
22.7904370909266
20
-4.50177020943099
30
0
41
1
10
23.1817332338373
20
-4.46905675040531
30
0
41
1
10
23.5844048478292
20
-4.44366248219245
30
1E-16
41
1
10
23.98870454
20
-4.43777740998897
30
1E-16
0
SPLINE
5
1C8
100
AcDbEntity
8
1
62
256
6
ByLayer
370
-1
48
1
60
0
100
AcDbSpline
70
4
71
3
72
10
73
6
40
0
40
0
40
0
40
0
40
0.645273699858473
40
0.645273699858473
40
1
40
1
40
1
40
1
41
1
10
32.84435227
20
-14.3447518241961
30
2E-16
41
1
10
34.1134846895676
20
-13.9628682587572
30
-2E-16
41
1
10
35.3241747277652
20
-13.2385464747244
30
-1E-16
41
1
10
37.3281288779831
20
-11.6633460174297
30
-7E-16
41
1
10
38.0561838062506
20
-11.0141227894762
30
-7E-16
41
1
10
38.8318959610657
20
-10.3265267942586
30
-7E-16
0
SPLINE
5
1C9
100
AcDbEntity
8
1
62
256
6
ByLayer
370
-1
48
1
60
0
100
AcDbSpline
70
4
71
3
72
10
73
6
40
0
40
0
40
0
40
0
40
0.584428588681997
40
0.584428588681997
40
1
40
1
40
1
40
1
41
1
10
35.301337780107
20
2.63287506935887
30
8E-16
41
1
10
35.3231143444043
20
2.52858291509108
30
8E-16
41
1
10
35.3311489340651
20
2.420361846709
30
8E-16
41
1
10
35.3206889439379
20
2.23753214979038
30
8E-16
41
1
10
35.3091694322358
20
2.16142563895843
30
8E-16
41
1
10
35.2907731705558
20
2.087237473778
30
8E-16
0
SPLINE
5
1CA
100
AcDbEntity
8
1
62
256
6
ByLayer
370
-1
48
1
60
0
100
AcDbSpline
70
4
71
2
72
6
73
3
40
0
40
0
40
0
40
1
40
1
40
1
41
0.500000014047034
10
26.4456900453004
20
12.4299170439787
30
2E-16
41
0.499999985952966
10
26.446256312718
20
12.4239976949355
30
2E-16
41
0.500000014047034
10
26.4468223571344
20
12.4180775028884
30
2E-16
0
SPLINE
5
1CB
100
AcDbEntity
8
1
62
256
6
ByLayer
370
-1
48
1
60
0
100
AcDbSpline
70
4
71
3
72
14
73
10
40
0
40
0
40
0
40
0
40
0.30005655106132
40
0.30005655106132
40
0.600153762849037
40
0.600153762849037
40
0.899564401041701
40
0.899564401041701
40
1
40
1
40
1
40
1
41
1
10
26.4468223571344
20
12.4180775028884
30
2E-16
41
1
10
26.4190384746351
20
12.4929611377147
30
2E-16
41
1
10
26.3672799178163
20
12.5646337718856
30
2E-16
41
1
10
26.2242299043938
20
12.6907516116844
30
2E-16
41
1
10
26.130945078618
20
12.7469707646873
30
2E-16
41
1
10
25.916405748472
20
12.8377738473061
30
2E-16
41
1
10
25.7922331804438
20
12.873696906487
30
2E-16
41
1
10
25.6168965232173
20
12.9060729916072
30
2E-16
41
1
10
25.5713996730575
20
12.9130097411456
30
2E-16
41
1
10
25.5253204086817
20
12.91862328737
30
2E-16
0
SPLINE
5
1CC
100
AcDbEntity
8
1
62
256
6
ByLayer
370
-1
48
1
60
0
100
AcDbSpline
70
4
71
3
72
8
73
4
40
0
40
0
40
0
40
0
40
1
40
1
40
1
40
1
41
1
10
25.3229276052034
20
0.0155255131876402
30
2E-16
41
1
10
25.3589012946533
20
0.0035210123053275
30
2E-16
41
1
10
25.3948843828944
20
-0.0084699965657933
30
2E-16
41
1
10
25.4308787484798
20
-0.0204407424060093
30
2E-16
0
SPLINE
5
1CD
100
AcDbEntity
8
1
62
256
6
ByLayer
370
-1
48
1
60
0
100
AcDbSpline
70
4
71
3
72
8
73
4
40
0
40
0
40
0
40
0
40
1
40
1
40
1
40
1
41
1
10
16.2893414278958
20
-4.8339712816236
30
-4E-16
41
1
10
16.2789457707757
20
-4.80931817755621
30
-4E-16
41
1
10
16.2685503360979
20
-4.7846719947967
30
-4E-16
41
1
10
16.2581552151456
20
-4.76003308028987
30
-4E-16
0
SPLINE
5
1CE
100
AcDbEntity
8
1
62
256
6
ByLayer
370
-1
48
1
60
0
100
AcDbSpline
70
4
71
3
72
10
73
6
40
0
40
0
40
0
40
0
40
0.833563482414425
40
0.833563482414425
40
1
40
1
40
1
40
1
41
1
10
42.9354498253777
20
-7.80729474837014
30
-5E-16
41
1
10
42.800272481622
20
-7.77797895971133
30
-5E-16
41
1
10
42.6574232457841
20
-7.76871101650755
30
-6E-16
41
1
10
42.4906952849517
20
-7.78251442860679
30
-6E-16
41
1
10
42.4627010614482
20
-7.78567180928513
30
-6E-16
41
1
10
42.4348766946844
20
-7.78964909619285
30
-6E-16
0
SPLINE
5
1CF
100
AcDbEntity
8
1
62
256
6
ByLayer
370
-1
48
1
60
0
100
AcDbSpline
70
4
71
3
72
8
73
4
40
0
40
0
40
0
40
0
40
1
40
1
40
1
40
1
41
1
10
31.9950011337951
20
14.7206633695166
30
1E-16
41
1
10
31.3309547372386
20
14.8169097165182
30
1E-16
41
1
10
30.7093520189549
20
14.8690867519036
30
0
41
1
10
30.1167081016767
20
14.8688895099112
30
0
0
SPLINE
5
1D0
100
AcDbEntity
8
1
62
256
6
ByLayer
370
-1
48
1
60
0
100
AcDbSpline
70
4
71
3
72
10
73
6
40
0
40
0
40
0
40
0
40
0.5
40
0.5
40
1
40
1
40
1
40
1
41
1
10
16.7135688151456
20
-14.935766919739
30
1E-16
41
1
10
16.6278666920057
20
-14.3854652834734
30
-4E-16
41
1
10
16.543038900939
20
-13.1491979185926
30
-4E-16
41
1
10
16.395226712554
20
-9.63876504221079
30
-4E-16
41
1
10
16.3321318183002
20
-7.35075505905272
30
-4E-16
41
1
10
16.2893414279013
20
-4.83397128162062
30
-4E-16
0
SPLINE
5
1D1
100
AcDbEntity
8
1
62
256
6
ByLayer
370
-1
48
1
60
0
100
AcDbSpline
70
4
71
3
72
10
73
6
40
0
40
0
40
0
40
0
40
0.5
40
0.5
40
1
40
1
40
1
40
1
41
1
10
40.8506488686017
20
8.58833914696845
30
-7E-16
41
1
10
39.2638456319721
20
9.88707924472251
30
-8E-16
41
1
10
37.9194031637737
20
11.1967767082758
30
-8E-16
41
1
10
35.34723710766
20
13.2221964614759
30
-1E-16
41
1
10
34.1132488280975
20
13.9629392297744
30
-2E-16
41
1
10
32.84435227
20
14.3447518241958
30
2E-16
0
SPLINE
5
1D2
100
AcDbEntity
8
1
62
256
6
ByLayer
370
-1
48
1
60
0
100
AcDbSpline
70
4
71
3
72
10
73
6
40
0
40
0
40
0
40
0
40
0.400120757939803
40
0.400120757939803
40
1
40
1
40
1
40
1
41
1
10
24.3584035954367
20
5.96110889624171
30
1E-16
41
1
10
24.4236066348839
20
5.94522532721427
30
1E-16
41
1
10
24.4877441559432
20
5.9242663657808
30
1E-16
41
1
10
24.6418003455636
20
5.86027900788369
30
1E-16
41
1
10
24.7298745290485
20
5.81087486157534
30
1E-16
41
1
10
24.8096741880937
20
5.75264952623138
30
1E-16
0
SPLINE
5
1D3
100
AcDbEntity
8
1
62
256
6
ByLayer
370
-1
48
1
60
0
100
AcDbSpline
70
4
71
3
72
12
73
8
40
0
40
0
40
0
40
0
40
0.400463296349184
40
0.400463296349184
40
0.903770796817381
40
0.903770796817381
40
1
40
1
40
1
40
1
41
1
10
42.0550439998525
20
8.51695375414644
30
-1E-16
41
1
10
42.1487781477134
20
8.51287304493451
30
-1E-16
41
1
10
42.2513390461015
20
8.51451381033309
30
-1E-16
41
1
10
42.485875530456
20
8.54187054169731
30
-1E-16
41
1
10
42.6223663903342
20
8.57426862132976
30
-1E-16
41
1
10
42.7751162306656
20
8.63695735644083
30
-1E-16
41
1
10
42.7996296239792
20
8.64786682562359
30
-1E-16
41
1
10
42.8238074758881
20
8.65952033768556
30
-1E-16
0
SPLINE
5
1D4
100
AcDbEntity
8
1
62
256
6
ByLayer
370
-1
48
1
60
0
100
AcDbSpline
70
4
71
3
72
8
73
4
40
0
40
0
40
0
40
0
40
1
40
1
40
1
40
1
41
1
10
41.7
20
7.91999999999987
30
-6E-16
41
1
10
41.408478079857
20
8.13149847479659
30
-6E-16
41
1
10
41.1256476996085
20
8.34810052681402
30
-6E-16
41
1
10
40.8506488686017
20
8.56642762168195
30
-7E-16
0
SPLINE
5
1D5
100
AcDbEntity
8
1
62
256
6
ByLayer
370
-1
48
1
60
0
100
AcDbSpline
70
4
71
3
72
8
73
4
40
0
40
0
40
0
40
0
40
1
40
1
40
1
40
1
41
1
10
32.8443522699999
20
-8.73632647618524
30
2E-16
41
1
10
32.4400525797154
20
-8.76683418520528
30
2E-16
41
1
10
32.037380967597
20
-8.83360829738001
30
1E-16
41
1
10
31.6460848264174
20
-8.92986872045179
30
1E-16
0
SPLINE
5
1D6
100
AcDbEntity
8
1
62
256
6
ByLayer
370
-1
48
1
60
0
100
AcDbSpline
70
4
71
1
72
4
73
2
40
0
40
0
40
1
40
1
41
1
10
23.98870454
20
-12.3710514530142
30
1E-16
41
1
10
23.98870454
20
-4.43777740998897
30
1E-16
0
SPLINE
5
1D7
100
AcDbEntity
8
1
62
256
6
ByLayer
370
-1
48
1
60
0
100
AcDbSpline
70
4
71
3
72
8
73
4
40
0
40
0
40
0
40
0
40
1
40
1
40
1
40
1
41
1
10
49.8465720529528
20
8.41999999999985
30
1E-16
41
1
10
49.8005016475299
20
8.253394845184
30
1E-16
41
1
10
49.7550650091487
20
8.08673111004825
30
1E-16
41
1
10
49.7104154864534
20
7.91999999999985
30
1E-16
0
SPLINE
5
1D8
100
AcDbEntity
8
1
62
256
6
ByLayer
370
-1
48
1
60
0
100
AcDbSpline
70
4
71
3
72
8
73
4
40
0
40
0
40
0
40
0
40
1
40
1
40
1
40
1
41
1
10
20.2961640698828
20
6.28530186197344
30
-1E-16
41
1
10
20.1483052485136
20
6.25313562919163
30
-2E-16
41
1
10
19.9969407125292
20
6.23121817322999
30
-2E-16
41
1
10
19.8446487829666
20
6.22069442555869
30
-2E-16
0
SPLINE
5
1D9
100
AcDbEntity
8
1
62
256
6
ByLayer
370
-1
48
1
60
0
100
AcDbSpline
70
4
71
3
72
16
73
12
40
0
40
0
40
0
40
0
40
0.249999125994744
40
0.249999125994744
40
0.499999833342009
40
0.499999833342009
40
0.820000025268408
40
0.820000025268408
40
0.979999994522608
40
0.979999994522608
40
1
40
1
40
1
40
1
41
1
10
46.9684068168725
20
8.41840860498326
30
0
41
1
10
46.9685987868096
20
8.41848103529273
30
0
41
1
10
46.9687904604218
20
8.41855424864218
30
0
41
1
10
46.9691740132472
20
8.41870013467053
30
0
41
1
10
46.9693657764288
20
8.41877311432637
30
0
41
1
10
46.9698029654459
20
8.41893958777209
30
0
41
1
10
46.9700483843565
20
8.41903309978846
30
0
41
1
10
46.9704164723081
20
8.41917347346683
30
0
41
1
10
46.9705391733996
20
8.41922025123952
30
0
41
1
10
46.9706771533693
20
8.41927302997334
30
0
41
1
10
46.9706924849491
20
8.41927889311012
30
0
41
1
10
46.9707078063775
20
8.41928478267988
30
0
0
SPLINE
5
1DA
100
AcDbEntity
8
1
62
256
6
ByLayer
370
-1
48
1
60
0
100
AcDbSpline
70
4
71
3
72
12
73
8
40
0
40
0
40
0
40
0
40
0.379606345774172
40
0.379606345774172
40
0.828156008512806
40
0.828156008512806
40
1
40
1
40
1
40
1
41
1
10
32.233010426634
20
-3.33958232836733
30
-3E-16
41
1
10
32.1045778491356
20
-3.1581872782443
30
-3E-16
41
1
10
31.9414758486243
20
-2.98131774818458
30
-3E-16
41
1
10
31.5474202370626
20
-2.60962262389765
30
-3E-16
41
1
10
31.3043690843256
20
-2.41204018484632
30
-4E-16
41
1
10
30.9682778226282
20
-2.1392288588213
30
-4E-16
41
1
10
30.8740014597397
20
-2.0626901892991
30
-4E-16
41
1
10
30.781172578302
20
-1.98575772505686
30
-4E-16
0
SPLINE
5
1DB
100
AcDbEntity
8
1
62
256
6
ByLayer
370
-1
48
1
60
0
100
AcDbSpline
70
4
71
3
72
10
73
6
40
0
40
0
40
0
40
0
40
0.833563482414432
40
0.833563482414432
40
1
40
1
40
1
40
1
41
1
10
34.0798020905711
20
3.63928496496533
30
7E-16
41
1
10
33.9446247468155
20
3.67155793238391
30
7E-16
41
1
10
33.8017755109775
20
3.68171340594168
30
7E-16
41
1
10
33.6350475501451
20
3.6665437053525
30
7E-16
41
1
10
33.6070533266416
20
3.6630733059001
30
7E-16
41
1
10
33.5792289598778
20
3.65869971730646
30
7E-16
0
SPLINE
5
1DC
100
AcDbEntity
8
1
62
256
6
ByLayer
370
-1
48
1
60
0
100
AcDbSpline
70
4
71
3
72
14
73
10
40
0
40
0
40
0
40
0
40
0.450911420692305
40
0.450911420692305
40
0.666952434672851
40
0.666952434672851
40
0.845861347048235
40
0.845861347048235
40
1
40
1
40
1
40
1
41
1
10
30.7811725783023
20
-1.98575772505708
30
-4E-16
41
1
10
30.3753727626744
20
-1.64944881643069
30
-4E-16
41
1
10
29.9597499048492
20
-1.3203456328682
30
-4E-16
41
1
10
29.4055090415908
20
-0.820577361138618
30
4E-16
41
1
10
29.2340274613141
20
-0.653629493665136
30
4E-16
41
1
10
28.9749086293045
20
-0.350804073236162
30
4E-16
41
1
10
28.8774821316311
20
-0.211969103379573
30
4E-16
41
1
10
28.7516511520351
20
0.0198142752396109
30
4E-16
41
1
10
28.7136436870495
20
0.118025692660325
30
4E-16
41
1
10
28.6894375059039
20
0.199508958020175
30
4E-16
0
SPLINE
5
1DD
100
AcDbEntity
8
1
62
256
6
ByLayer
370
-1
48
1
60
0
100
AcDbSpline
70
4
71
3
72
8
73
4
40
0
40
0
40
0
40
0
40
1
40
1
40
1
40
1
41
1
10
28.3964721449147
20
0.397776235524788
30
3E-16
41
1
10
28.4958219685979
20
0.333631934564465
30
4E-16
41
1
10
28.593444718688
20
0.267505694931543
30
4E-16
41
1
10
28.6894375059039
20
0.199508958020203
30
4E-16
0
SPLINE
5
1DE
100
AcDbEntity
8
1
62
256
6
ByLayer
370
-1
48
1
60
0
100
AcDbSpline
70
4
71
1
72
4
73
2
40
0
40
0
40
1
40
1
41
1
10
32.8443522699999
20
-14.3447518241963
30
2E-16
41
1
10
32.8443522699999
20
-8.73632647618524
30
2E-16
0
SPLINE
5
1DF
100
AcDbEntity
8
1
62
256
6
ByLayer
370
-1
48
1
60
0
100
AcDbSpline
70
4
71
3
72
26
73
22
40
0
40
0
40
0
40
0
40
0.117998486241254
40
0.117998486241254
40
0.23721366316413
40
0.23721366316413
40
0.341316569813019
40
0.341316569813019
40
0.4335501154868
40
0.4335501154868
40
0.521506532768569
40
0.521506532768569
40
0.611017273137016
40
0.611017273137016
40
0.706880171897252
40
0.706880171897252
40
0.813618322797374
40
0.813618322797374
40
0.935186089380866
40
0.935186089380866
40
1
40
1
40
1
40
1
41
1
10
49.7053192923968
20
-11.7566682335656
30
-1E-16
41
1
10
49.6644522311091
20
-11.8812402453626
30
-1E-16
41
1
10
49.5927241080401
20
-12.0002050549898
30
-1E-16
41
1
10
49.3888043454012
20
-12.2084004477464
30
-1E-16
41
1
10
49.2522944031993
20
-12.300541613489
30
-1E-16
41
1
10
48.9519165005807
20
-12.430539138762
30
-2E-16
41
1
10
48.788950193692
20
-12.4756753032135
30
-2E-16
41
1
10
48.4681292658429
20
-12.52219152555
30
-2E-16
41
1
10
48.3073074003517
20
-12.5286036710872
30
-2E-16
41
1
10
48.0019737677048
20
-12.509853166131
30
-2E-16
41
1
10
47.8530329470678
20
-12.4859069097439
30
-2E-16
41
1
10
47.5762850033524
20
-12.4119879003914
30
-3E-16
41
1
10
47.4453619557381
20
-12.3606590749696
30
-3E-16
41
1
10
47.2094387705994
20
-12.2334654750468
30
-3E-16
41
1
10
47.1039252082239
20
-12.1545963529412
30
-3E-16
41
1
10
46.9258860603662
20
-11.9718225681248
30
-3E-16
41
1
10
46.8560929341175
20
-11.8639081232115
30
-3E-16
41
1
10
46.7607368849605
20
-11.6231094088407
30
-3E-16
41
1
10
46.7412018969025
20
-11.4858425269223
30
-3E-16
41
1
10
46.7564711834602
20
-11.2747250848496
30
-3E-16
41
1
10
46.7701674814928
20
-11.2004357192417
30
-3E-16
41
1
10
46.7919115569605
20
-11.1267143113631
30
-3E-16
0
SPLINE
5
1E0
100
AcDbEntity
8
1
62
256
6
ByLayer
370
-1
48
1
60
0
100
AcDbSpline
70
4
71
3
72
10
73
6
40
0
40
0
40
0
40
0
40
0.499221822841763
40
0.499221822841763
40
1
40
1
40
1
40
1
41
1
10
17.2030592146271
20
6.49804339215993
30
-3E-16
41
1
10
17.0315375494235
20
6.52379691765844
30
-3E-16
41
1
10
16.8586395233501
20
6.55432650820791
30
-4E-16
41
1
10
16.5108881087344
20
6.62388967799211
30
-4E-16
41
1
10
16.3358818409335
20
6.66296731854183
30
-4E-16
41
1
10
16.1606843404842
20
6.70640747626251
30
-4E-16
0
SPLINE
5
1E1
100
AcDbEntity
8
1
62
256
6
ByLayer
370
-1
48
1
60
0
100
AcDbSpline
70
4
71
3
72
8
73
4
40
0
40
0
40
0
40
0
40
1
40
1
40
1
40
1
41
1
10
15.47758034992
20
5.79093502956545
30
-4E-16
41
1
10
15.8426897315617
20
5.6523588580782
30
-4E-16
41
1
10
16.2080285937293
20
5.51865182237077
30
-4E-16
41
1
10
16.5752310134961
20
5.39412680723407
30
-4E-16
0
SPLINE
5
1E2
100
AcDbEntity
8
1
62
256
6
ByLayer
370
-1
48
1
60
0
100
AcDbSpline
70
4
71
3
72
10
73
6
40
0
40
0
40
0
40
0
40
0.867906093580721
40
0.867906093580721
40
1
40
1
40
1
40
1
41
1
10
16.2581552124039
20
-4.76003307642554
30
-4E-16
41
1
10
16.1241165889169
20
-4.44329728593149
30
-4E-16
41
1
10
15.954011181093
20
-4.13046863509203
30
-4E-16
41
1
10
15.7368271536522
20
-3.80131706783035
30
-4E-16
41
1
10
15.7072654474847
20
-3.75790019903434
30
-4E-16
41
1
10
15.6772077104728
20
-3.71521543241985
30
-4E-16
0
SPLINE
5
1E3
100
AcDbEntity
8
1
62
256
6
ByLayer
370
-1
48
1
60
0
100
AcDbSpline
70
4
71
3
72
12
73
8
40
0
40
0
40
0
40
0
40
0.373216267965716
40
0.373216267965716
40
0.683934560503985
40
0.683934560503985
40
1
40
1
40
1
40
1
41
1
10
26.3299045757975
20
0.361562984530963
30
2E-16
41
1
10
26.3011717281724
20
0.420459717131223
30
2E-16
41
1
10
26.2789896209247
20
0.478655135119425
30
2E-16
41
1
10
26.2503559083464
20
0.581626449496895
30
2E-16
41
1
10
26.2418138358613
20
0.627265469590043
30
2E-16
41
1
10
26.2331648416671
20
0.715649762227144
30
2E-16
41
1
10
26.2331823335038
20
0.758519569918349
30
2E-16
41
1
10
26.2372114585302
20
0.799133736939694
30
2E-16
0
SPLINE
5
1E4
100
AcDbEntity
8
1
62
256
6
ByLayer
370
-1
48
1
60
0
100
AcDbSpline
70
4
71
3
72
10
73
6
40
0
40
0
40
0
40
0
40
0.686045383143258
40
0.686045383143258
40
1
40
1
40
1
40
1
41
1
10
41.2575626440856
20
8.25665762598575
30
-2E-16
41
1
10
41.3127101795226
20
8.40576915930282
30
-2E-16
41
1
10
41.3540331367541
20
8.56003491887643
30
-2E-16
41
1
10
41.3901245981135
20
8.78797066389174
30
-2E-16
41
1
10
41.3981645943029
20
8.86078897233705
30
-2E-16
41
1
10
41.4026708454252
20
8.93375066081327
30
-2E-16
0
SPLINE
5
1E5
100
AcDbEntity
8
1
62
256
6
ByLayer
370
-1
48
1
60
0
100
AcDbSpline
70
4
71
3
72
10
73
6
40
0
40
0
40
0
40
0
40
0.598419087361149
40
0.598419087361149
40
1
40
1
40
1
40
1
41
1
10
32.8861792745712
20
-4.03072642503585
30
-3E-16
41
1
10
32.7558913310695
20
-3.89286084649495
30
-3E-16
41
1
10
32.6256024159226
20
-3.75499584910889
30
-3E-16
41
1
10
32.4078789323579
20
-3.52461480310339
30
-3E-16
41
1
10
32.3204448988599
20
-3.43209843452416
30
-3E-16
41
1
10
32.233010426634
20
-3.33958232836733
30
-3E-16
0
SPLINE
5
1E6
100
AcDbEntity
8
1
62
256
6
ByLayer
370
-1
48
1
60
0
100
AcDbSpline
70
4
71
3
72
8
73
4
40
0
40
0
40
0
40
0
40
1
40
1
40
1
40
1
41
1
10
31.995001133795
20
-14.4831227981932
30
1E-16
41
1
10
32.2699999663141
20
-14.4424646234145
30
1E-16
41
1
10
32.5528303481596
20
-14.3957001694888
30
2E-16
41
1
10
32.8443522699999
20
-14.3447518241962
30
2E-16
0
SPLINE
5
1E7
100
AcDbEntity
8
1
62
256
6
ByLayer
370
-1
48
1
60
0
100
AcDbSpline
70
4
71
3
72
8
73
4
40
0
40
0
40
0
40
0
40
1
40
1
40
1
40
1
41
1
10
28.1108779053876
20
0.540940198062117
30
3E-16
41
1
10
28.2079871767024
20
0.494660402286286
30
3E-16
41
1
10
28.3034346018335
20
0.44678855304926
30
3E-16
41
1
10
28.3964721449148
20
0.397776235524873
30
3E-16
0
SPLINE
5
1E8
100
AcDbEntity
8
1
62
256
6
ByLayer
370
-1
48
1
60
0
100
AcDbSpline
70
4
71
3
72
10
73
6
40
0
40
0
40
0
40
0
40
0.976851091153943
40
0.976851091153943
40
1
40
1
40
1
40
1
41
1
10
47.1908708314548
20
-10.2382867245543
30
-3E-16
41
1
10
47.2142273469698
20
-10.2465398317766
30
-3E-16
41
1
10
47.2369820489757
20
-10.2555805688823
30
-3E-16
41
1
10
47.2595312393251
20
-10.2655736045315
30
-3E-16
41
1
10
47.260059242374
20
-10.2658081745969
30
-3E-16
41
1
10
47.2605868891199
20
-10.2660431630633
30
-3E-16
0
SPLINE
5
1E9
100
AcDbEntity
8
1
62
256
6
ByLayer
370
-1
48
1
60
0
100
AcDbSpline
70
4
71
3
72
10
73
6
40
0
40
0
40
0
40
0
40
0.480054761865006
40
0.480054761865006
40
1
40
1
40
1
40
1
41
1
10
31.995001133795
20
11.1219393781014
30
6E-16
41
1
10
32.0985607650042
20
10.9722909724834
30
6E-16
41
1
10
32.1472428079442
20
10.8012281878326
30
6E-16
41
1
10
32.1733612919412
20
10.440738015253
30
6E-16
41
1
10
32.1457970785685
20
10.2453220814478
30
6E-16
41
1
10
32.0922537698668
20
10.0505342726535
30
6E-16
0
SPLINE
5
1EA
100
AcDbEntity
8
1
62
256
6
ByLayer
370
-1
48
1
60
0
100
AcDbSpline
70
4
71
1
72
4
73
2
40
0
40
0
40
1
40
1
41
1
10
15.1330568099958
20
-2.93821141912358
30
-5E-16
41
1
10
15.1330568099937
20
2.45896658409984
30
-5E-16
0
SPLINE
5
1EB
100
AcDbEntity
8
1
62
256
6
ByLayer
370
-1
48
1
60
0
100
AcDbSpline
70
4
71
3
72
8
73
4
40
0
40
0
40
0
40
0
40
1
40
1
40
1
40
1
41
1
10
19.4969375074038
20
6.40040470735536
30
-2E-16
41
1
10
19.4792257213367
20
6.38466120696864
30
-2E-16
41
1
10
19.4607241021344
20
6.36952686619569
30
-2E-16
41
1
10
19.441509400925
20
6.35504577501692
30
-2E-16
0
SPLINE
5
1EC
100
AcDbEntity
8
1
62
256
6
ByLayer
370
-1
48
1
60
0
100
AcDbSpline
70
4
71
3
72
10
73
6
40
0
40
0
40
0
40
0
40
0.254709890105638
40
0.254709890105638
40
1
40
1
40
1
40
1
41
1
10
25.4308787484798
20
-0.0204407424060093
30
2E-16
41
1
10
25.5005838507097
20
0.0255144879517957
30
2E-16
41
1
10
25.5725485839802
20
0.0682594827997036
30
2E-16
41
1
10
25.8609334394253
20
0.222120774499501
30
2E-16
41
1
10
26.0931626909257
20
0.308888905388216
30
2E-16
41
1
10
26.3299045757974
20
0.361562984531076
30
2E-16
0
SPLINE
5
1ED
100
AcDbEntity
8
1
62
256
6
ByLayer
370
-1
48
1
60
0
100
AcDbSpline
70
4
71
3
72
8
73
4
40
0
40
0
40
0
40
0
40
1
40
1
40
1
40
1
41
1
10
15.4775803499201
20
5.79093502956539
30
-4E-16
41
1
10
15.3647449745624
20
5.83376135808942
30
4E-16
41
1
10
15.2492797947531
20
5.87189530578812
30
4E-16
41
1
10
15.1330568099923
20
5.90566710765575
30
4E-16
0
SPLINE
5
1EE
100
AcDbEntity
8
1
62
256
6
ByLayer
370
-1
48
1
60
0
100
AcDbSpline
70
4
71
3
72
8
73
4
40
0
40
0
40
0
40
0
40
1
40
1
40
1
40
1
41
1
10
17.319752146119
20
6.46808380715436
30
-3E-16
41
1
10
17.3399225431532
20
6.44284027578652
30
-3E-16
41
1
10
17.3605360127555
20
6.41772465667137
30
-3E-16
41
1
10
17.381563727867
20
6.39277160311477
30
-3E-16
0
SPLINE
5
1EF
100
AcDbEntity
8
1
62
256
6
ByLayer
370
-1
48
1
60
0
100
AcDbSpline
70
4
71
3
72
8
73
4
40
0
40
0
40
0
40
0
40
1
40
1
40
1
40
1
41
1
10
41.7867525387638
20
8.41999999999982
30
-2E-16
41
1
10
41.8022907888933
20
8.46709256062789
30
-2E-16
41
1
10
41.8165002984797
20
8.51465095592644
30
-2E-16
41
1
10
41.8292871476907
20
8.5625719566244
30
-2E-16
0
SPLINE
5
1F0
100
AcDbEntity
8
1
62
256
6
ByLayer
370
-1
48
1
60
0
100
AcDbSpline
70
4
71
3
72
8
73
4
40
0
40
0
40
0
40
0
40
1
40
1
40
1
40
1
41
1
10
41.4140888902446
20
8.93667702083033
30
-2E-16
41
1
10
41.41028287601
20
8.93570156745582
30
-2E-16
41
1
10
41.4064768610702
20
8.93472611411673
30
-2E-16
41
1
10
41.4026708454252
20
8.93375066081319
30
-2E-16
0
SPLINE
5
1F1
100
AcDbEntity
8
1
62
256
6
ByLayer
370
-1
48
1
60
0
100
AcDbSpline
70
4
71
3
72
12
73
8
40
0
40
0
40
0
40
0
40
0.25
40
0.25
40
0.5
40
0.5
40
1
40
1
40
1
40
1
41
1
10
31.995001133795
20
11.9243988885454
30
6E-16
41
1
10
31.777863903607
20
12.1003851243846
30
6E-16
41
1
10
31.4149709841896
20
12.1959200587921
30
5E-16
41
1
10
30.6977434421979
20
12.1547520549225
30
5E-16
41
1
10
30.3678768081074
20
12.0396368152956
30
5E-16
41
1
10
29.5750724537686
20
11.5764367839961
30
4E-16
41
1
10
29.2813264739303
20
11.1189849736963
30
4E-16
41
1
10
29.143983057925
20
10.6191683312482
30
4E-16
0
SPLINE
5
1F2
100
AcDbEntity
8
1
62
256
6
ByLayer
370
-1
48
1
60
0
100
AcDbSpline
70
4
71
4
72
10
73
5
40
0
40
0
40
0
40
0
40
0
40
1
40
1
40
1
40
1
40
1
41
0.573851501526475
10
31.6460848264174
20
-8.92986872045179
30
1E-16
41
0.57292629204917
10
31.7543944620065
20
-8.65857624715717
30
1E-16
41
0.572873501169582
10
31.8779029141592
20
-8.37740818895926
30
1E-16
41
0.573907141592155
10
32.0131884992617
20
-8.09560033843402
30
1E-16
41
0.575602640506859
10
32.1547069417799
20
-7.82263825297821
30
1E-16
0
SPLINE
5
1F3
100
AcDbEntity
8
1
62
256
6
ByLayer
370
-1
48
1
60
0
100
AcDbSpline
70
4
71
3
72
12
73
8
40
0
40
0
40
0
40
0
40
0.445813929334486
40
0.445813929334486
40
0.948057928629652
40
0.948057928629652
40
1
40
1
40
1
40
1
41
1
10
17.3197521461189
20
6.46808380715439
30
-3E-16
41
1
10
17.613535338938
20
6.48609855519214
30
-3E-16
41
1
10
17.9168675353753
20
6.50091008826135
30
-3E-16
41
1
10
18.5410942563059
20
6.49315037628605
30
-3E-16
41
1
10
18.8678535901105
20
6.46462574048329
30
-2E-16
41
1
10
19.1942771127047
20
6.4300381715943
30
-2E-16
41
1
10
19.2249130497965
20
6.42676523698199
30
-2E-16
41
1
10
19.255230170581
20
6.42354650344475
30
-2E-16
0
SPLINE
5
1F4
100
AcDbEntity
8
1
62
256
6
ByLayer
370
-1
48
1
60
0
100
AcDbSpline
70
4
71
2
72
6
73
3
40
0
40
0
40
0
40
1
40
1
40
1
41
0.499999978409898
10
44.1568822343844
20
-8.70634414460452
30
-5E-16
41
0.500000021590102
10
44.1575001633146
20
-8.702142358312
30
-5E-16
41
0.499999978409898
10
44.1581178267475
20
-8.69793991883648
30
-5E-16
0
SPLINE
5
1F5
100
AcDbEntity
8
1
62
256
6
ByLayer
370
-1
48
1
60
0
100
AcDbSpline
70
4
71
3
72
16
73
12
40
0
40
0
40
0
40
0
40
0.203595700110068
40
0.203595700110068
40
0.406942717650971
40
0.406942717650971
40
0.614259701439863
40
0.614259701439863
40
0.831105451253205
40
0.831105451253205
40
1
40
1
40
1
40
1
41
1
10
14.0199376311486
20
13.5948817507893
30
4E-16
41
1
10
13.8891886925419
20
13.6061911932278
30
3E-16
41
1
10
13.7507322591406
20
13.6099312371254
30
3E-16
41
1
10
13.4817854983568
20
13.6020955522439
30
3E-16
41
1
10
13.3476780546298
20
13.5904444374984
30
3E-16
41
1
10
13.0985408694413
20
13.552899225568
30
3E-16
41
1
10
12.9806093581034
20
13.5262357104607
30
3E-16
41
1
10
12.772709020324
20
13.4589991607588
30
3E-16
41
1
10
12.6814068494777
20
13.4169101301527
30
3E-16
41
1
10
12.5573646765708
20
13.3324524391079
30
3E-16
41
1
10
12.5150987988542
20
13.2914698230351
30
3E-16
41
1
10
12.487192376556
20
13.2482279706392
30
3E-16
0
SPLINE
5
1F6
100
AcDbEntity
8
1
62
256
6
ByLayer
370
-1
48
1
60
0
100
AcDbSpline
70
4
71
3
72
10
73
6
40
0
40
0
40
0
40
0
40
0.40012074862786
40
0.40012074862786
40
1
40
1
40
1
40
1
41
1
10
33.2140513302433
20
-5.70310404035519
30
6E-16
41
1
10
33.2792543681821
20
-5.7157844942312
30
6E-16
41
1
10
33.3433918877775
20
-5.73361711213892
30
7E-16
41
1
10
33.4974480776441
20
-5.7900329360148
30
7E-16
41
1
10
33.5855222626262
20
-5.83505073334089
30
7E-16
41
1
10
33.6653219229003
20
-5.88899815978874
30
7E-16
0
SPLINE
5
1F7
100
AcDbEntity
8
1
62
256
6
ByLayer
370
-1
48
1
60
0
100
AcDbSpline
70
4
71
3
72
14
73
10
40
0
40
0
40
0
40
0
40
0.29986154655955
40
0.29986154655955
40
0.599763727420395
40
0.599763727420395
40
0.898979780885217
40
0.898979780885217
40
1
40
1
40
1
40
1
41
1
10
35.3024700919409
20
2.62994998153562
30
8E-16
41
1
10
35.2746862094417
20
2.76423565224906
30
8E-16
41
1
10
35.2229276526229
20
2.89529656526378
30
8E-16
41
1
10
35.0798776392004
20
3.12952498356424
30
8E-16
41
1
10
34.9865928134245
20
3.23593454729917
30
8E-16
41
1
10
34.7720534832785
20
3.40969208378488
30
7E-16
41
1
10
34.6478809152504
20
3.47953377287411
30
7E-16
41
1
10
34.4725442580239
20
3.54276388741974
30
7E-16
41
1
10
34.427047407864
20
3.55634972760831
30
7E-16
41
1
10
34.3809681434883
20
3.56735843976412
30
7E-16
0
SPLINE
5
1F8
100
AcDbEntity
8
1
62
256
6
ByLayer
370
-1
48
1
60
0
100
AcDbSpline
70
4
71
3
72
10
73
6
40
0
40
0
40
0
40
0
40
0.681361115782516
40
0.681361115782516
40
1
40
1
40
1
40
1
41
1
10
30.8713106200638
20
-0.0286586463719232
30
5E-16
41
1
10
30.3757646079274
20
0.0231784882418822
30
5E-16
41
1
10
29.880217357307
20
0.0750050002069429
30
4E-16
41
1
10
29.152925349733
20
0.151052549795139
30
4E-16
41
1
10
28.921181564017
20
0.17528192291573
30
4E-16
41
1
10
28.6894375059039
20
0.199508958020203
30
4E-16
0
SPLINE
5
1F9
100
AcDbEntity
8
1
62
256
6
ByLayer
370
-1
48
1
60
0
100
AcDbSpline
70
4
71
3
72
14
73
10
40
0
40
0
40
0
40
0
40
0.228481357785857
40
0.228481357785857
40
0.52725799277257
40
0.52725799277257
40
0.83390418021716
40
0.83390418021716
40
1
40
1
40
1
40
1
41
1
10
25.6715160729066
20
-0.810581067886346
30
2E-16
41
1
10
25.738264419357
20
-1.00790934686827
30
2E-16
41
1
10
25.7653405770348
20
-1.22644460582737
30
2E-16
41
1
10
25.767700072696
20
-1.73502395961606
30
2E-16
41
1
10
25.7289031574675
20
-2.03577447005492
30
2E-16
41
1
10
25.6375993853444
20
-2.62981628873519
30
2E-16
41
1
10
25.5828808588955
20
-2.93102653239197
30
2E-16
41
1
10
25.5143616860876
20
-3.36775522163438
30
2E-16
41
1
10
25.4928270163244
20
-3.51771495783484
30
2E-16
41
1
10
25.4758833355301
20
-3.66064720591041
30
2E-16
0
SPLINE
5
1FA
100
AcDbEntity
8
1
62
256
6
ByLayer
370
-1
48
1
60
0
100
AcDbSpline
70
4
71
1
72
4
73
2
40
0
40
0
40
1
40
1
41
1
10
31.995001133795
20
-14.7206633695169
30
1E-16
41
1
10
31.995001133795
20
-14.4831227981932
30
1E-16
0
SPLINE
5
1FB
100
AcDbEntity
8
1
62
256
6
ByLayer
370
-1
48
1
60
0
100
AcDbSpline
70
4
71
3
72
10
73
6
40
0
40
0
40
0
40
0
40
0.336506441992328
40
0.336506441992328
40
1
40
1
40
1
40
1
41
1
10
41.9375933530685
20
7.91999999999973
30
1E-16
41
1
10
41.9303454237915
20
7.97760065741267
30
-2E-16
41
1
10
41.9194567175126
20
8.03483655463705
30
-2E-16
41
1
10
41.8774971756751
20
8.2033143939945
30
-2E-16
41
1
10
41.8370023201569
20
8.31321096911742
30
-2E-16
41
1
10
41.7867525387638
20
8.41999999999982
30
-2E-16
0
SPLINE
5
1FC
100
AcDbEntity
8
1
62
256
6
ByLayer
370
-1
48
1
60
0
100
AcDbSpline
70
4
71
3
72
10
73
6
40
0
40
0
40
0
40
0
40
0.746635581424898
40
0.746635581424898
40
1
40
1
40
1
40
1
41
1
10
25.4308787484799
20
-0.0204407424060093
30
2E-16
41
1
10
25.4799402479451
20
-0.194585779383914
30
2E-16
41
1
10
25.5361642271112
20
-0.389641391408304
30
2E-16
41
1
10
25.6234120803158
20
-0.665618189098439
30
2E-16
41
1
10
25.6468383045647
20
-0.737626128701379
30
2E-16
41
1
10
25.6715160729065
20
-0.810581067886289
30
2E-16
0
SPLINE
5
1FD
100
AcDbEntity
8
1
62
256
6
ByLayer
370
-1
48
1
60
0
100
AcDbSpline
70
4
71
3
72
8
73
4
40
0
40
0
40
0
40
0
40
1
40
1
40
1
40
1
41
1
10
15.1330568099958
20
-2.93821141914123
30
-5E-16
41
1
10
15.3146392438759
20
-3.19867948532817
30
-5E-16
41
1
10
15.4960059751274
20
-3.45789220877578
30
-4E-16
41
1
10
15.6772077104706
20
-3.71521543241681
30
-4E-16
0
SPLINE
5
1FE
100
AcDbEntity
8
1
62
256
6
ByLayer
370
-1
48
1
60
0
100
AcDbSpline
70
4
71
3
72
8
73
4
40
0
40
0
40
0
40
0
40
1
40
1
40
1
40
1
41
1
10
26.0587069449234
20
0.933864952974744
30
2E-16
41
1
10
26.0982405678444
20
0.900238235016872
30
2E-16
41
1
10
26.1371977144152
20
0.866592647300195
30
2E-16
41
1
10
26.1753998766526
20
0.833007679376294
30
2E-16
0
SPLINE
5
1FF
100
AcDbEntity
8
1
62
256
6
ByLayer
370
-1
48
1
60
0
100
AcDbSpline
70
4
71
3
72
20
73
16
40
0
40
0
40
0
40
0
40
0.0345756180274965
40
0.0345756180274965
40
0.237679957193098
40
0.237679957193098
40
0.360042150770452
40
0.360042150770452
40
0.572000886294817
40
0.572000886294817
40
0.783860218065302
40
0.783860218065302
40
0.996693081844243
40
0.996693081844243
40
1
40
1
40
1
40
1
41
1
10
50.1994334790336
20
9.14172365771216
30
-1E-16
41
1
10
50.1933399589331
20
9.12198477523759
30
-1E-16
41
1
10
50.1873160396213
20
9.10281912087638
30
-1E-16
41
1
10
50.1464899666305
20
8.97535148905843
30
-1E-16
41
1
10
50.1136298163802
20
8.88504336926366
30
-1E-16
41
1
10
50.0689445149758
20
8.78086114938819
30
-1E-16
41
1
10
50.0536764248937
20
8.7502151427982
30
-1E-16
41
1
10
50.0181093851188
20
8.69284424474716
30
-1E-16
41
1
10
50.0016655848659
20
8.68429347953722
30
-1E-16
41
1
10
49.9842797169018
20
8.72302095937189
30
-1E-16
41
1
10
49.9831000489425
20
8.7707842972265
30
-1E-16
41
1
10
49.9960412874442
20
8.91550886887629
30
-1E-16
41
1
10
50.0104052691735
20
9.01473620556425
30
-1E-16
41
1
10
50.031451052227
20
9.13457020950659
30
-1E-16
41
1
10
50.0317749014191
20
9.13641006638812
30
-1E-16
41
1
10
50.0321003789988
20
9.13825508160127
30
-1E-16
0
SPLINE
5
200
100
AcDbEntity
8
1
62
256
6
ByLayer
370
-1
48
1
60
0
100
AcDbSpline
70
4
71
3
72
10
73
6
40
0
40
0
40
0
40
0
40
0.876715158665669
40
0.876715158665669
40
1
40
1
40
1
40
1
41
1
10
17.4742568450786
20
5.68581217721939
30
-3E-16
41
1
10
17.1962189579794
20
5.62544881180617
30
-3E-16
41
1
10
16.9238658943703
20
5.54009716908945
30
-4E-16
41
1
10
16.6435145076525
20
5.42408533984221
30
-4E-16
41
1
10
16.6091108033748
20
5.40928696571692
30
-4E-16
41
1
10
16.575231013495
20
5.39412680723484
30
-4E-16
0
SPLINE
5
201
100
AcDbEntity
8
1
62
256
6
ByLayer
370
-1
48
1
60
0
100
AcDbSpline
70
4
71
3
72
8
73
4
40
0
40
0
40
0
40
0
40
1
40
1
40
1
40
1
41
1
10
33.0009724021974
20
-8.62366734889045
30
2E-16
41
1
10
32.948776037025
20
-8.66134612716115
30
2E-16
41
1
10
32.8965700356972
20
-8.69891687563708
30
2E-16
41
1
10
32.84435227
20
-8.73632647618507
30
2E-16
0
SPLINE
5
202
100
AcDbEntity
8
1
62
256
6
ByLayer
370
-1
48
1
60
0
100
AcDbSpline
70
4
71
1
72
4
73
2
40
0
40
0
40
1
40
1
41
1
10
15.1330568099923
20
5.90566637453256
30
4E-16
41
1
10
15.1330568099919
20
7.01170621826591
30
4E-16
0
SPLINE
5
203
100
AcDbEntity
8
1
62
256
6
ByLayer
370
-1
48
1
60
0
100
AcDbSpline
70
4
71
3
72
14
73
10
40
0
40
0
40
0
40
0
40
0.149503839615591
40
0.149503839615591
40
0.351435789391449
40
0.351435789391449
40
0.655335514316338
40
0.655335514316338
40
1
40
1
40
1
40
1
41
1
10
19.8446487829671
20
6.22069442555875
30
-2E-16
41
1
10
19.8711898866568
20
6.05806161427981
30
-2E-16
41
1
10
19.9114213263756
20
5.89097553997405
30
-2E-16
41
1
10
20.0490522993688
20
5.51387493732116
30
-2E-16
41
1
10
20.1649251659089
20
5.30542282993508
30
-2E-16
41
1
10
20.5075928235024
20
4.84382399462595
30
-1E-16
41
1
10
20.7606777919043
20
4.60767166384898
30
-1E-16
41
1
10
21.3132446155062
20
4.15492031428516
30
-1E-16
41
1
10
21.6210453623714
20
3.94054886670503
30
-1E-16
41
1
10
21.9255248434958
20
3.73968217314402
30
0
0
SPLINE
5
204
100
AcDbEntity
8
1
62
256
6
ByLayer
370
-1
48
1
60
0
100
AcDbSpline
70
4
71
3
72
8
73
4
40
0
40
0
40
0
40
0
40
1
40
1
40
1
40
1
41
1
10
45.5483756449051
20
8.84252402450764
30
1E-16
41
1
10
45.524253945642
20
8.88794184059293
30
1E-16
41
1
10
45.5012479545937
20
8.93674155920723
30
1E-16
41
1
10
45.4801866283009
20
8.98839465220851
30
1E-16
0
SPLINE
5
205
100
AcDbEntity
8
1
62
256
6
ByLayer
370
-1
48
1
60
0
100
AcDbSpline
70
4
71
3
72
22
73
18
40
0
40
0
40
0
40
0
40
0.0222568644946153
40
0.0222568644946153
40
0.271264579388643
40
0.271264579388643
40
0.384985803839558
40
0.384985803839558
40
0.500560897361516
40
0.500560897361516
40
0.601355478851628
40
0.601355478851628
40
0.722023243692129
40
0.722023243692129
40
0.918860989941136
40
0.918860989941136
40
1
40
1
40
1
40
1
41
1
10
38.2799566469897
20
-1.67887920644765
30
-8E-16
41
1
10
38.2839305814425
20
-1.69376744760061
30
-8E-16
41
1
10
38.2880553998235
20
-1.70861469671246
30
-8E-16
41
1
10
38.3398253595098
20
-1.88756820761185
30
-8E-16
41
1
10
38.4067220837239
20
-2.04990632116017
30
-8E-16
41
1
10
38.5508889492027
20
-2.25359689559184
30
-8E-16
41
1
10
38.6041231497161
20
-2.31366118534641
30
-8E-16
41
1
10
38.7271504687202
20
-2.41369872368858
30
-8E-16
41
1
10
38.7993051126896
20
-2.45426605759354
30
-8E-16
41
1
10
38.942549204807
20
-2.49828735826839
30
-8E-16
41
1
10
39.0143202658647
20
-2.50627955822364
30
-8E-16
41
1
10
39.1678460515537
20
-2.49793451071656
30
-8E-16
41
1
10
39.251142636162
20
-2.47699669678798
30
-8E-16
41
1
10
39.4555333757839
20
-2.39683666794193
30
-7E-16
41
1
10
39.5722378254939
20
-2.32158229384004
30
-7E-16
41
1
10
39.7218191828512
20
-2.20176403329353
30
-7E-16
41
1
10
39.7640269475478
20
-2.16474654839141
30
-7E-16
41
1
10
39.8047915895271
20
-2.12628448753651
30
-7E-16
0
SPLINE
5
206
100
AcDbEntity
8
1
62
256
6
ByLayer
370
-1
48
1
60
0
100
AcDbSpline
70
4
71
3
72
10
73
6
40
0
40
0
40
0
40
0
40
0.5
40
0.5
40
1
40
1
40
1
40
1
41
1
10
16.6202356003472
20
2.49374901713665
30
-4E-16
41
1
10
17.507778096575
20
1.28841884982631
30
-3E-16
41
1
10
18.5012363042049
20
0.062560382643511
30
-3E-16
41
1
10
20.535891329273
20
-2.32957684554114
30
-1E-16
41
1
10
21.5960004918215
20
-3.49602803586137
30
-1E-16
41
1
10
22.7904370909266
20
-4.50177020943099
30
0
0
SPLINE
5
207
100
AcDbEntity
8
1
62
256
6
ByLayer
370
-1
48
1
60
0
100
AcDbSpline
70
4
71
3
72
30
73
26
40
0
40
0
40
0
40
0
40
0.0467817713737852
40
0.0467817713737852
40
0.124400725464996
40
0.124400725464996
40
0.246933883614934
40
0.246933883614934
40
0.372791949972272
40
0.372791949972272
40
0.456102519400682
40
0.456102519400682
40
0.539888106377348
40
0.539888106377348
40
0.61737117854928
40
0.61737117854928
40
0.700461653257162
40
0.700461653257162
40
0.823885330542784
40
0.823885330542784
40
0.920215291628094
40
0.920215291628094
40
0.983445668436637
40
0.983445668436637
40
1
40
1
40
1
40
1
41
1
10
49.2647650128021
20
-11.1286280166296
30
-1E-16
41
1
10
49.2647647266794
20
-11.193281796909
30
-1E-16
41
1
10
49.2577486589375
20
-11.2592873969616
30
-1E-16
41
1
10
49.2231961574865
20
-11.4290317171453
30
-2E-16
41
1
10
49.1850961609772
20
-11.5314621836081
30
-2E-16
41
1
10
49.0615154740516
20
-11.7737033578885
30
-2E-16
41
1
10
48.9591782644257
20
-11.9078198848893
30
-2E-16
41
1
10
48.7160769023764
20
-12.1399741574009
30
-2E-16
41
1
10
48.5691072703304
20
-12.2408021755729
30
-2E-16
41
1
10
48.3032987526909
20
-12.3564671838387
30
-2E-16
41
1
10
48.1887600542049
20
-12.3896075253938
30
-2E-16
41
1
10
47.9601793650826
20
-12.4202228871431
30
-2E-16
41
1
10
47.8430394786441
20
-12.4177010005745
30
-2E-16
41
1
10
47.6336870492606
20
-12.3786861283227
30
-2E-16
41
1
10
47.537681325273
20
-12.3444480706389
30
-3E-16
41
1
10
47.360291082624
20
-12.2497375100424
30
-3E-16
41
1
10
47.2782917505804
20
-12.1866829115593
30
-3E-16
41
1
10
47.1046790566261
20
-12.0087398595971
30
-3E-16
41
1
10
47.0240624643088
20
-11.8809507006327
30
-3E-16
41
1
10
46.9193336481502
20
-11.6305388731356
30
-3E-16
41
1
10
46.885496979558
20
-11.5097784836783
30
-3E-16
41
1
10
46.8500514728025
20
-11.2975195039506
30
-3E-16
41
1
10
46.841170661004
20
-11.208148338923
30
-3E-16
41
1
10
46.8373279615618
20
-11.0964597853079
30
-3E-16
41
1
10
46.83692315612
20
-11.0730304873571
30
-3E-16
41
1
10
46.836923259015
20
-11.0497797949842
30
-3E-16
0
SPLINE
5
208
100
AcDbEntity
8
1
62
256
6
ByLayer
370
-1
48
1
60
0
100
AcDbSpline
70
4
71
3
72
8
73
4
40
0
40
0
40
0
40
0
40
1
40
1
40
1
40
1
41
1
10
32.84435227
20
14.3447518241959
30
2E-16
41
1
10
32.5528303481596
20
14.3957001694885
30
2E-16
41
1
10
32.2699999663141
20
14.4424646234142
30
1E-16
41
1
10
31.9950011337951
20
14.4831227981929
30
1E-16
0
SPLINE
5
209
100
AcDbEntity
8
1
62
256
6
ByLayer
370
-1
48
1
60
0
100
AcDbSpline
70
4
71
3
72
12
73
8
40
0
40
0
40
0
40
0
40
0.244320297470519
40
0.244320297470519
40
0.617029369504584
40
0.617029369504584
40
1
40
1
40
1
40
1
41
1
10
17.381563727867
20
6.39277160311477
30
-3E-16
41
1
10
17.3784462176008
20
6.33531811994456
30
-3E-16
41
1
10
17.3777274912839
20
6.27734822093848
30
-3E-16
41
1
10
17.3824081550597
20
6.13084795279022
30
-3E-16
41
1
10
17.3912457215821
20
6.04173894066034
30
-3E-16
41
1
10
17.4221881385243
20
5.86320023480522
30
-3E-16
41
1
10
17.4447733196191
20
5.7732142546802
30
-3E-16
41
1
10
17.4742568450786
20
5.68581217721939
30
-3E-16
0
SPLINE
5
20A
100
AcDbEntity
8
1
62
256
6
ByLayer
370
-1
48
1
60
0
100
AcDbSpline
70
4
71
3
72
8
73
4
40
0
40
0
40
0
40
0
40
1
40
1
40
1
40
1
41
1
10
23.1393533989884
20
-15.0371032926399
30
0
41
1
10
20.9974252021749
20
-15.0033246351737
30
-1E-16
41
1
10
18.8554970075456
20
-14.9695458451191
30
2E-16
41
1
10
16.7135688151456
20
-14.935766919739
30
1E-16
0
SPLINE
5
20B
100
AcDbEntity
8
1
62
256
6
ByLayer
370
-1
48
1
60
0
100
AcDbSpline
70
4
71
3
72
14
73
10
40
0
40
0
40
0
40
0
40
0.242904603000795
40
0.242904603000795
40
0.57353754411747
40
0.57353754411747
40
0.841715389872151
40
0.841715389872151
40
1
40
1
40
1
40
1
41
1
10
16.6202356003439
20
2.49374901713767
30
-4E-16
41
1
10
16.6448888088631
20
2.5563374852841
30
-4E-16
41
1
10
16.6794692302614
20
2.64773900686296
30
-4E-16
41
1
10
16.7690734199719
20
2.92190598243567
30
-4E-16
41
1
10
16.8292518218601
20
3.12992458808424
30
-4E-16
41
1
10
16.9027240695021
20
3.5697675114167
30
-4E-16
41
1
10
16.9231498807759
20
3.7954203471767
30
-4E-16
41
1
10
16.8901481726828
20
4.1712966325326
30
-4E-16
41
1
10
16.8624583342632
20
4.31675170404307
30
-4E-16
41
1
10
16.8158683380999
20
4.45885840993734
30
-4E-16
0
SPLINE
5
20C
100
AcDbEntity
8
1
62
256
6
ByLayer
370
-1
48
1
60
0
100
AcDbSpline
70
4
71
3
72
12
73
8
40
0
40
0
40
0
40
0
40
0.286399013469215
40
0.286399013469215
40
0.930561793375726
40
0.930561793375726
40
1
40
1
40
1
40
1
41
1
10
41.8292871476996
20
8.56257195662272
30
-2E-16
41
1
10
41.7864827155603
20
8.58326676493004
30
-2E-16
41
1
10
41.7444857516976
20
8.60804549755954
30
-2E-16
41
1
10
41.6113830817565
20
8.70177216544016
30
-2E-16
41
1
10
41.5223723156273
20
8.78840223531111
30
-2E-16
41
1
10
41.4316623983716
20
8.91156834884788
30
-2E-16
41
1
10
41.4228311115371
20
8.92396970419452
30
-2E-16
41
1
10
41.4140888902446
20
8.93667702083027
30
-2E-16
0
SPLINE
5
20D
100
AcDbEntity
8
1
62
256
6
ByLayer
370
-1
48
1
60
0
100
AcDbSpline
70
4
71
3
72
8
73
4
40
0
40
0
40
0
40
0
40
1
40
1
40
1
40
1
41
1
10
26.2372114585302
20
0.799133736939694
30
2E-16
41
1
10
26.216183743373
20
0.810720704892645
30
2E-16
41
1
10
26.1955702737275
20
0.822017201605149
30
2E-16
41
1
10
26.1753998766526
20
0.833007679376351
30
2E-16
0
SPLINE
5
20E
100
AcDbEntity
8
1
62
256
6
ByLayer
370
-1
48
1
60
0
100
AcDbSpline
70
4
71
3
72
10
73
6
40
0
40
0
40
0
40
0
40
0.563479293159775
40
0.563479293159775
40
1
40
1
40
1
40
1
41
1
10
23.1393533989884
20
-14.8141242408747
30
0
41
1
10
23.2429130301976
20
-14.8347652605375
30
0
41
1
10
23.2915950731376
20
-14.8518941462324
30
0
41
1
10
23.3138902305774
20
-14.8697106733857
30
0
41
1
10
23.302404560858
20
-14.8735733707362
30
0
41
1
10
23.2752997910634
20
-14.8735932928981
30
0
0
SPLINE
5
20F
100
AcDbEntity
8
1
62
256
6
ByLayer
370
-1
48
1
60
0
100
AcDbSpline
70
4
71
3
72
8
73
4
40
0
40
0
40
0
40
0
40
1
40
1
40
1
40
1
41
1
10
17.3197521461187
20
6.46808380715444
30
-3E-16
41
1
10
17.2815499839553
20
6.4770677554753
30
-3E-16
41
1
10
17.2425928374644
20
6.48710594399142
30
-3E-16
41
1
10
17.2030592146271
20
6.49804339215993
30
-3E-16
0
SPLINE
5
210
100
AcDbEntity
8
1
62
256
6
ByLayer
370
-1
48
1
60
0
100
AcDbSpline
70
4
71
1
72
4
73
2
40
0
40
0
40
1
40
1
41
1
10
23.1393533989885
20
-11.9203534258444
30
0
41
1
10
23.1393533989884
20
-12.2344496621583
30
0
0
SPLINE
5
211
100
AcDbEntity
8
1
62
256
6
ByLayer
370
-1
48
1
60
0
100
AcDbSpline
70
4
71
3
72
22
73
18
40
0
40
0
40
0
40
0
40
0.0198433409423567
40
0.0198433409423567
40
0.108841829290614
40
0.108841829290614
40
0.198211539357938
40
0.198211539357938
40
0.282444119041464
40
0.282444119041464
40
0.397059688611108
40
0.397059688611108
40
0.554815377817579
40
0.554815377817579
40
0.784620831430366
40
0.784620831430366
40
1
40
1
40
1
40
1
41
1
10
23.1393533989884
20
-15.174515541951
30
0
41
1
10
23.1229244857951
20
-15.1718613412023
30
0
41
1
10
23.1057810400046
20
-15.1692075612706
30
0
41
1
10
23.0086095509716
20
-15.1548534586468
30
0
41
1
10
22.9135970503327
20
-15.143325472306
30
0
41
1
10
22.703674015034
20
-15.1243382202704
30
0
41
1
10
22.5858307697687
20
-15.1167069292339
30
0
41
1
10
22.3531795392996
20
-15.1076481666486
30
0
41
1
10
22.2358677745824
20
-15.1057507864465
30
0
41
1
10
21.9684058997571
20
-15.1066333038783
30
0
41
1
10
21.8172216808675
20
-15.1112614044456
30
-1E-16
41
1
10
21.4880030606578
20
-15.1273532054971
30
-1E-16
41
1
10
21.3147127382901
20
-15.140807796219
30
-1E-16
41
1
10
20.9464424777575
20
-15.1734200647105
30
-1E-16
41
1
10
20.7693140734154
20
-15.1927860070388
30
1E-16
41
1
10
20.5021813463293
20
-15.217343610215
30
0
41
1
10
20.4041417446975
20
-15.2237142029377
30
0
41
1
10
20.3343879135118
20
-15.2226856545422
30
0
0
SPLINE
5
212
100
AcDbEntity
8
1
62
256
6
ByLayer
370
-1
48
1
60
0
100
AcDbSpline
70
4
71
3
72
8
73
4
40
0
40
0
40
0
40
0
40
1
40
1
40
1
40
1
41
1
10
50.0122588210944
20
9.13775149135034
30
-1E-16
41
1
10
49.956938379223
20
8.89852234502803
30
-1E-16
41
1
10
49.9017022114904
20
8.65927349902967
30
-1E-16
41
1
10
49.8465720529528
20
8.41999999999982
30
1E-16
0
SPLINE
5
213
100
AcDbEntity
8
1
62
256
6
ByLayer
370
-1
48
1
60
0
100
AcDbSpline
70
4
71
3
72
10
73
6
40
0
40
0
40
0
40
0
40
0.480054761864986
40
0.480054761864986
40
1
40
1
40
1
40
1
41
1
10
40.8506488686017
20
0.918169140562497
30
-7E-16
41
1
10
40.9542084998108
20
0.685846278263341
30
-7E-16
41
1
10
41.0028905427508
20
0.426744313658361
30
-7E-16
41
1
10
41.0290090267478
20
-0.104050915051602
30
-7E-16
41
1
10
41.0014448133751
20
-0.383700990122833
30
-7E-16
41
1
10
40.9479015046734
20
-0.655093331761179
30
-7E-16
0
SPLINE
5
214
100
AcDbEntity
8
1
62
256
6
ByLayer
370
-1
48
1
60
0
100
AcDbSpline
70
4
71
3
72
10
73
6
40
0
40
0
40
0
40
0
40
0.252340296519561
40
0.252340296519561
40
1
40
1
40
1
40
1
41
1
10
25.3624923401023
20
1.28262478728251
30
2E-16
41
1
10
25.4214373517239
20
1.25294473662271
30
2E-16
41
1
10
25.4803106091901
20
1.22336152099774
30
2E-16
41
1
10
25.7132255941041
20
1.10646624374866
30
2E-16
41
1
10
25.8866587616927
20
1.01975281869053
30
2E-16
41
1
10
26.0587069449233
20
0.933864952974687
30
2E-16
0
SPLINE
5
215
100
AcDbEntity
8
1
62
256
6
ByLayer
370
-1
48
1
60
0
100
AcDbSpline
70
4
71
1
72
4
73
2
40
0
40
0
40
1
40
1
41
1
10
15.133056809995
20
7.01170621826589
30
4E-16
41
1
10
15.1330568099967
20
7.24211651583215
30
4E-16
0
SPLINE
5
216
100
AcDbEntity
8
1
62
256
6
ByLayer
370
-1
48
1
60
0
100
AcDbSpline
70
4
71
3
72
10
73
6
40
0
40
0
40
0
40
0
40
0.793699535119693
40
0.793699535119693
40
1
40
1
40
1
40
1
41
1
10
47.2803206959411
20
13.5816911348491
30
0
41
1
10
47.1693174370617
20
13.7165390025911
30
-1E-16
41
1
10
47.0357136821992
20
13.8318699383644
30
0
41
1
10
46.8503778157379
20
13.9427771260674
30
0
41
1
10
46.8110005242209
20
13.9639505372508
30
0
41
1
10
46.7706403204707
20
13.9833634773492
30
0
0
SPLINE
5
217
100
AcDbEntity
8
1
62
256
6
ByLayer
370
-1
48
1
60
0
100
AcDbSpline
70
4
71
3
72
8
73
4
40
0
40
0
40
0
40
0
40
1
40
1
40
1
40
1
41
1
10
44.7020350210447
20
13.468058698026
30
0
41
1
10
44.6208681179294
20
13.3709604192973
30
0
41
1
10
44.5500078344897
20
13.2651228264191
30
0
41
1
10
44.4930027611036
20
13.1531338564403
30
0
0
SPLINE
5
218
100
AcDbEntity
8
1
62
256
6
ByLayer
370
-1
48
1
60
0
100
AcDbSpline
70
4
71
3
72
14
73
10
40
0
40
0
40
0
40
0
40
0.258374536041622
40
0.258374536041622
40
0.520163709547353
40
0.520163709547353
40
0.808397479016399
40
0.808397479016399
40
1
40
1
40
1
40
1
41
1
10
47.495671089409
20
11.73352153824
30
0
41
1
10
47.5676908088116
20
11.88778975629
30
0
41
1
10
47.6180266517365
20
12.0558868808804
30
0
41
1
10
47.6698601290313
20
12.3947617917427
30
0
41
1
10
47.6707080435563
20
12.5707247362914
30
0
41
1
10
47.6161149731744
20
12.9267003552013
30
0
41
1
10
47.5559036230979
20
13.1091783082679
30
0
41
1
10
47.4191669922931
20
13.3834370489173
30
0
41
1
10
47.353900702948
20
13.4871131955556
30
0
41
1
10
47.2803206959411
20
13.5816911348491
30
0
0
SPLINE
5
219
100
AcDbEntity
8
1
62
256
6
ByLayer
370
-1
48
1
60
0
100
AcDbSpline
70
4
71
3
72
18
73
14
40
0
40
0
40
0
40
0
40
0.162231875709748
40
0.162231875709748
40
0.332426518712614
40
0.332426518712614
40
0.503041535721004
40
0.503041535721004
40
0.66844831974667
40
0.66844831974667
40
0.829184003052885
40
0.829184003052885
40
1
40
1
40
1
40
1
41
1
10
44.7060046761155
20
11.3094061478986
30
0
41
1
10
44.8250795228079
20
11.1697819053656
30
0
41
1
10
44.9692972387578
20
11.048192156762
30
0
41
1
10
45.2922625937141
20
10.8549461442032
30
1E-16
41
1
10
45.4768744667632
20
10.7833246193639
30
0
41
1
10
45.8538572832906
20
10.7075560921482
30
0
41
1
10
46.0516921595285
20
10.7025882262857
30
0
41
1
10
46.4238382651611
20
10.7603862603151
30
0
41
1
10
46.6037487118819
20
10.8220257321367
30
0
41
1
10
46.9209292561356
20
10.9981903272267
30
0
41
1
10
47.0633551878279
20
11.1132899823707
30
0
41
1
10
47.3104024008175
20
11.3887480191533
30
0
41
1
10
47.4162053123262
20
11.555604390233
30
0
41
1
10
47.495671089409
20
11.73352153824
30
0
0
SPLINE
5
21A
100
AcDbEntity
8
1
62
256
6
ByLayer
370
-1
48
1
60
0
100
AcDbSpline
70
4
71
3
72
25
73
21
40
0
40
0
40
0
40
0
40
0.0625
40
0.09375
40
0.125
40
0.1875
40
0.25
40
0.3125
40
0.375
40
0.4375
40
0.5
40
0.5625
40
0.625
40
0.6875
40
0.75
40
0.8125
40
0.875
40
0.90625
40
0.9375
40
1
40
1
40
1
40
1
41
1
10
50.7981304214219
20
9.17935136889605
30
0
41
1
10
50.9523192940754
20
9.18791647737163
30
0
41
1
10
51.1550233806895
20
9.38732085101182
30
0
41
1
10
51.1386141493688
20
9.70685613552169
30
0
41
1
10
51.117054342039
20
10.0160371354648
30
0
41
1
10
51.0812539139115
20
10.3919126533245
30
0
41
1
10
51.0376283370544
20
10.8376242200174
30
0
41
1
10
51.0131145624069
20
11.2907075553047
30
0
41
1
10
51.0284513780982
20
11.7508064686507
30
0
41
1
10
51.1047830235876
20
12.2175939026885
30
0
41
1
10
51.2314541367762
20
12.6791722917518
30
0
41
1
10
51.3978454410283
20
13.1236769886701
30
0
41
1
10
51.6530628992528
20
13.5344909452323
30
0
41
1
10
51.6766276858296
20
14.0136367238297
30
0
41
1
10
51.6707770505619
20
14.4828260230609
30
0
41
1
10
51.6743839408423
20
14.951998570791
30
0
41
1
10
51.6634164991953
20
15.350731075091
30
0
41
1
10
51.4942687645473
20
15.6167855117856
30
0
41
1
10
51.2685005375586
20
15.8279490263061
30
0
41
1
10
51.0461110578335
20
15.9068566699993
30
0
41
1
10
50.8924056434621
20
15.9075762118704
30
0
0
SPLINE
5
21B
100
AcDbEntity
8
1
62
256
6
ByLayer
370
-1
48
1
60
0
100
AcDbSpline
70
4
71
3
72
25
73
21
40
0
40
0
40
0
40
0
40
0.0625
40
0.09375
40
0.125
40
0.1875
40
0.25
40
0.3125
40
0.375
40
0.4375
40
0.5
40
0.5625
40
0.625
40
0.6875
40
0.75
40
0.8125
40
0.875
40
0.90625
40
0.9375
40
1
40
1
40
1
40
1
41
1
10
41.6188189592177
20
15.4790045876888
30
-2E-16
41
1
10
41.4659678560869
20
15.4696997780966
30
-2E-16
41
1
10
41.2449660366096
20
15.2801143816163
30
-2E-16
41
1
10
41.2297254370906
20
14.9775779968071
30
-2E-16
41
1
10
41.2028661641222
20
14.6943020051929
30
-2E-16
41
1
10
41.1606813463523
20
14.3609680843837
30
-2E-16
41
1
10
41.0954145425065
20
13.9732079843201
30
-2E-16
41
1
10
41.0146348561124
20
13.5767113841375
30
-2E-16
41
1
10
40.9249475022231
20
13.1566766238787
30
-2E-16
41
1
10
40.8329576958919
20
12.6983020435865
30
-2E-16
41
1
10
40.7136745434694
20
12.2326793398971
30
2E-16
41
1
10
40.5421071513066
20
11.7909002094467
30
2E-16
41
1
10
40.2895299772814
20
11.3786177886494
30
2E-16
41
1
10
40.2651458015832
20
10.8998430656014
30
2E-16
41
1
10
40.2710542180981
20
10.4305689321264
30
0
41
1
10
40.2673132112934
20
9.9614067381705
30
0
41
1
10
40.2852843552204
20
9.56199929869445
30
0
41
1
10
40.4410121119645
20
9.29720054608407
30
0
41
1
10
40.6686996313813
20
9.08584388940793
30
0
41
1
10
40.8953616057559
20
9.00652571352489
30
0
41
1
10
41.0490382724154
20
9.00580392250083
30
0
0
SPLINE
5
21C
100
AcDbEntity
8
1
62
256
6
ByLayer
370
-1
48
1
60
0
100
AcDbSpline
70
4
71
3
72
15
73
11
40
0
40
0
40
0
40
0
40
0.0625
40
0.125
40
0.25
40
0.5
40
0.75
40
0.875
40
0.9375
40
1
40
1
40
1
40
1
41
1
10
50.8924056434621
20
15.9075762118704
30
0
41
1
10
50.693021418027
20
15.9057701573388
30
0
41
1
10
50.2932363789112
20
15.9025431397332
30
0
41
1
10
49.5186995001445
20
15.8923255578511
30
0
41
1
10
48.1916539556404
20
15.8606079220052
30
0
41
1
10
46.2741757531117
20
15.7860688336044
30
-1E-16
41
1
10
44.377963443331
20
15.6491394519673
30
0
41
1
10
43.0108933955291
20
15.5605785113124
30
-1E-16
41
1
10
42.2135738688017
20
15.5086656093208
30
-1E-16
41
1
10
41.817254605825
20
15.5035166677745
30
-2E-16
41
1
10
41.6188189592177
20
15.4790045876888
30
-2E-16
0
SPLINE
5
21D
100
AcDbEntity
8
1
62
256
6
ByLayer
370
-1
48
1
60
0
100
AcDbSpline
70
4
71
3
72
14
73
10
40
0
40
0
40
0
40
0
40
0.301632841810063
40
0.301632841810063
40
0.602402032079644
40
0.602402032079644
40
0.899200904780735
40
0.899200904780735
40
1
40
1
40
1
40
1
41
1
10
44.4930027611036
20
13.1531338564403
30
0
41
1
10
44.4061158872684
20
12.975239424684
30
0
41
1
10
44.3478824886459
20
12.7793563704057
30
0
41
1
10
44.3027301391879
20
12.3864210747127
30
0
41
1
10
44.3124384785242
20
12.1853008337087
30
0
41
1
10
44.3967306652886
20
11.8083622775267
30
0
41
1
10
44.4742966384718
20
11.6255409136725
30
0
41
1
10
44.6203146154101
20
11.4115290515097
30
0
41
1
10
44.6615651930553
20
11.358964012446
30
0
41
1
10
44.7060046761155
20
11.3094061478986
30
0
0
SPLINE
5
21E
100
AcDbEntity
8
1
62
256
6
ByLayer
370
-1
48
1
60
0
100
AcDbSpline
70
4
71
3
72
15
73
11
40
0
40
0
40
0
40
0
40
0.0625
40
0.125
40
0.25
40
0.5
40
0.75
40
0.875
40
0.9375
40
1
40
1
40
1
40
1
41
1
10
41.0490382724154
20
9.00580392250083
30
0
41
1
10
41.2482077683011
20
9.00766586497869
30
0
41
1
10
41.649237133586
20
9.00859955893489
30
1E-16
41
1
10
42.4596088588477
20
9.00202076681057
30
1E-16
41
1
10
43.8931536782967
20
8.97546244089602
30
0
41
1
10
45.9327600906095
20
8.98492133730801
30
0
41
1
10
47.9798936311252
20
9.04093627775183
30
0
41
1
10
49.3990165748739
20
9.10119882488084
30
0
41
1
10
50.1962535110811
20
9.15394082688792
30
0
41
1
10
50.5993605068703
20
9.15410827690715
30
0
41
1
10
50.7981304214219
20
9.17935136889605
30
0
0
SPLINE
5
21F
100
AcDbEntity
8
1
62
256
6
ByLayer
370
-1
48
1
60
0
100
AcDbSpline
70
4
71
3
72
10
73
6
40
0
40
0
40
0
40
0
40
0.223119864700582
40
0.896180626864914
40
1
40
1
40
1
40
1
41
1
10
43.1080901692946
20
-9.13881067914997
30
4E-16
41
1
10
43.0725260082332
20
-9.15116553684243
30
4E-16
41
1
10
42.9333350693622
20
-9.21400274616522
30
4E-16
41
1
10
42.7972952018129
20
-9.33345457816344
30
3E-16
41
1
10
42.7104645056968
20
-9.43940099217787
30
3E-16
41
1
10
42.6992525020477
20
-9.45379446412284
30
3E-16
0
SPLINE
5
220
100
AcDbEntity
8
1
62
256
6
ByLayer
370
-1
48
1
60
0
100
AcDbSpline
70
4
71
3
72
8
73
4
40
0
40
0
40
0
40
0
40
1
40
1
40
1
40
1
41
1
10
42.9646701118274
20
-14.0953491535916
30
4E-16
41
1
10
43.0106357926604
20
-14.1253163461126
30
4E-16
41
1
10
43.0619245470684
20
-14.1455411567373
30
4E-16
41
1
10
43.1149726655685
20
-14.1512431915269
30
4E-16
0
SPLINE
5
221
100
AcDbEntity
8
1
62
256
6
ByLayer
370
-1
48
1
60
0
100
AcDbSpline
70
4
71
3
72
8
73
4
40
0
40
0
40
0
40
0
40
1
40
1
40
1
40
1
41
1
10
42.622596905334
20
-8.99811442029923
30
1E-16
41
1
10
42.7974133861005
20
-8.99558860467451
30
1E-16
41
1
10
42.9725769688124
20
-8.99286696858675
30
1E-16
41
1
10
43.1478135774624
20
-8.99042319173626
30
0
0
SPLINE
5
222
100
AcDbEntity
8
1
62
256
6
ByLayer
370
-1
48
1
60
0
100
AcDbSpline
70
4
71
1
72
4
73
2
40
0
40
0
40
1
40
1
41
1
10
43.118942753755
20
-9.0990563441656
30
3E-16
41
1
10
42.6378057743741
20
-9.07738037366354
30
3E-16
0
SPLINE
5
223
100
AcDbEntity
8
1
62
256
6
ByLayer
370
-1
48
1
60
0
100
AcDbSpline
70
4
71
3
72
15
73
11
40
0
40
0
40
0
40
0
40
0.0625
40
0.125
40
0.25
40
0.5
40
0.75
40
0.875
40
0.9375
40
1
40
1
40
1
40
1
41
1
10
50.8924056434621
20
-15.9075762118708
30
0
41
1
10
50.6930214180269
20
-15.9057701573392
30
0
41
1
10
50.2932363789111
20
-15.9025431397335
30
0
41
1
10
49.5186995001445
20
-15.8923255578515
30
0
41
1
10
48.1916539556403
20
-15.8606079220055
30
0
41
1
10
46.2741757531116
20
-15.7860688336048
30
-1E-16
41
1
10
44.3779634433309
20
-15.6491394519677
30
0
41
1
10
43.0108933955291
20
-15.5605785113128
30
-1E-16
41
1
10
42.2135738688016
20
-15.5086656093212
30
-1E-16
41
1
10
41.817254605825
20
-15.5035166677748
30
-2E-16
41
1
10
41.6188189592176
20
-15.4790045876891
30
-2E-16
0
SPLINE
5
224
100
AcDbEntity
8
1
62
256
6
ByLayer
370
-1
48
1
60
0
100
AcDbSpline
70
4
71
1
72
4
73
2
40
0
40
0
40
1
40
1
41
1
10
41.6188189592176
20
-15.4790045876891
30
-2E-16
41
1
10
43.1149726655685
20
-14.1512431915269
30
4E-16
0
SPLINE
5
225
100
AcDbEntity
8
1
62
256
6
ByLayer
370
-1
48
1
60
0
100
AcDbSpline
70
4
71
1
72
4
73
2
40
0
40
0
40
1
40
1
41
1
10
50.8924056434621
20
-15.9075762118708
30
0
41
1
10
50.368704449709
20
-14.8571611130583
30
-1E-16
0
SPLINE
5
226
100
AcDbEntity
8
1
62
256
6
ByLayer
370
-1
48
1
60
0
100
AcDbSpline
70
4
71
3
72
14
73
10
40
0
40
0
40
0
40
0
40
0.194165336393654
40
0.291248004590481
40
0.388330672787308
40
0.582496009180962
40
0.776661345574616
40
0.970826681968269
40
1
40
1
40
1
40
1
41
1
10
50.368704449709
20
-14.8571611130583
30
-1E-16
41
1
10
50.4850878336928
20
-14.8666487367929
30
-1E-16
41
1
10
50.6572307717774
20
-14.8138993116462
30
-1E-16
41
1
10
50.847558257196
20
-14.6818236107444
30
-1E-16
41
1
10
51.0114107524216
20
-14.5168500324004
30
0
41
1
10
51.1716459183179
20
-14.2640213866775
30
0
41
1
10
51.186610831894
20
-13.9037610462125
30
0
41
1
10
51.1855218982893
20
-13.6466478944432
30
0
41
1
10
51.1592886289914
20
-13.5124423201998
30
0
41
1
10
51.155516996084
20
-13.4949554185279
30
0
0
SPLINE
5
227
100
AcDbEntity
8
1
62
256
6
ByLayer
370
-1
48
1
60
0
100
AcDbSpline
70
4
71
3
72
8
73
4
40
0
40
0
40
0
40
0
40
1
40
1
40
1
40
1
41
1
10
43.1149726655685
20
-14.1512431915269
30
4E-16
41
1
10
45.5313319846453
20
-14.4107510436591
30
-4E-16
41
1
10
47.9486912461625
20
-14.6587170686336
30
-2E-16
41
1
10
50.368704449709
20
-14.8571611130583
30
-1E-16
0
SPLINE
5
228
100
AcDbEntity
8
1
62
256
6
ByLayer
370
-1
48
1
60
0
100
AcDbSpline
70
4
71
3
72
17
73
13
40
0
40
0
40
0
40
0
40
0.104394112145079
40
0.216344848126944
40
0.328295584108809
40
0.440246320090674
40
0.552197056072539
40
0.664147792054404
40
0.77609852803627
40
0.832073896027202
40
0.888049264018135
40
1
40
1
40
1
40
1
41
1
10
51.1201383656265
20
-12.2480453894097
30
0
41
1
10
51.15273705184
20
-12.3922112883079
30
0
41
1
10
51.2351979159332
20
-12.6891735801428
30
0
41
1
10
51.3978454410283
20
-13.1236769886704
30
0
41
1
10
51.6530628992527
20
-13.5344909452326
30
0
41
1
10
51.6766276858295
20
-14.01363672383
30
0
41
1
10
51.6707770505619
20
-14.4828260230612
30
0
41
1
10
51.6743839408423
20
-14.9519985707913
30
0
41
1
10
51.6634164991953
20
-15.3507310750913
30
0
41
1
10
51.4942687645472
20
-15.616785511786
30
0
41
1
10
51.2685005375586
20
-15.8279490263064
30
0
41
1
10
51.0461110578334
20
-15.9068566699996
30
0
41
1
10
50.8924056434621
20
-15.9075762118708
30
0
0
SPLINE
5
229
100
AcDbEntity
8
1
62
256
6
ByLayer
370
-1
48
1
60
0
100
AcDbSpline
70
4
71
3
72
20
73
16
40
0
40
0
40
0
40
0
40
0.088341167219701
40
0.132511750829552
40
0.176682334439402
40
0.265023501659103
40
0.353364668878804
40
0.441705836098505
40
0.530047003318206
40
0.618388170537907
40
0.706729337757608
40
0.795070504977309
40
0.88341167219701
40
0.971752839416712
40
1
40
1
40
1
40
1
41
1
10
41.6188189592176
20
-15.4790045876891
30
-2E-16
41
1
10
41.4659678560868
20
-15.469699778097
30
-2E-16
41
1
10
41.2449660366095
20
-15.2801143816166
30
-2E-16
41
1
10
41.2297254370906
20
-14.9775779968074
30
-2E-16
41
1
10
41.2028661641222
20
-14.6943020051932
30
-2E-16
41
1
10
41.1606813463522
20
-14.3609680843841
30
-2E-16
41
1
10
41.0954145425064
20
-13.9732079843204
30
-2E-16
41
1
10
41.0146348561124
20
-13.5767113841379
30
-2E-16
41
1
10
40.9249475022231
20
-13.1566766238791
30
-2E-16
41
1
10
40.8329576958918
20
-12.6983020435868
30
-2E-16
41
1
10
40.7136745434694
20
-12.2326793398974
30
2E-16
41
1
10
40.5421071513066
20
-11.790900209447
30
2E-16
41
1
10
40.2895299772814
20
-11.3786177886497
30
2E-16
41
1
10
40.2706749067646
20
-11.0084051033232
30
2E-16
41
1
10
40.2687415426393
20
-10.8005419220157
30
1E-16
41
1
10
40.2685716861054
20
-10.7502913160274
30
1E-16
0
SPLINE
5
22A
100
AcDbEntity
8
1
62
256
6
ByLayer
370
-1
48
1
60
0
100
AcDbSpline
70
4
71
3
72
9
73
5
40
0
40
0
40
0
40
0
40
0.394219433958044
40
1
40
1
40
1
40
1
41
1
10
40.2741085257272
20
10.7535624175232
30
-7E-16
41
1
10
40.0871186433354
20
10.697169241738
30
-7E-16
41
1
10
39.6139628767763
20
10.5511728904845
30
-7E-16
41
1
10
39.1385630573612
20
10.4071299764888
30
-8E-16
41
1
10
38.8502906007427
20
10.319489201776
30
-8E-16
0
SPLINE
5
22B
100
AcDbEntity
8
1
62
256
6
ByLayer
370
-1
48
1
60
0
100
AcDbSpline
70
4
71
3
72
9
73
5
40
0
40
0
40
0
40
0
40
0.560781034978353
40
1
40
1
40
1
40
1
41
1
10
42.2180258675815
20
8.82264565592544
30
-2E-16
41
1
10
42.2294812655093
20
8.87028122424124
30
-3E-16
41
1
10
42.2530488792516
20
8.95237209383541
30
-4E-16
41
1
10
42.2817405601229
20
9.03141461100287
30
-5E-16
41
1
10
42.2952594142598
20
9.06585211134137
30
-5E-16
0
SPLINE
5
22C
100
AcDbEntity
8
1
62
256
6
ByLayer
370
-1
48
1
60
0
100
AcDbSpline
70
4
71
3
72
10
73
6
40
0
40
0
40
0
40
0
40
0.63041831363725
40
0.945627470455875
40
1
40
1
40
1
40
1
41
1
10
41.5130567149024
20
-7.73847738475075
30
-6E-16
41
1
10
41.6294400988862
20
-7.7646803195513
30
-6E-16
41
1
10
41.8015830369709
20
-7.76250130393797
30
-6E-16
41
1
10
41.9525363653414
20
-7.72473405860777
30
-6E-16
41
1
10
42.0037763945743
20
-7.70651370873446
30
-6E-16
41
1
10
42.0112180428971
20
-7.70374435892649
30
-6E-16
0
SPLINE
5
22D
100
AcDbEntity
8
1
62
256
6
ByLayer
370
-1
48
1
60
0
100
AcDbSpline
70
4
71
3
72
15
73
11
40
0
40
0
40
0
40
0
40
0.0625
40
0.125
40
0.25
40
0.5
40
0.75
40
0.875
40
0.9375
40
1
40
1
40
1
40
1
41
1
10
42.0367579086555
20
-11.1839730839131
30
-6E-16
41
1
10
41.8373736832203
20
-11.1479391023838
30
-6E-16
41
1
10
41.4375886441045
20
-11.0781230515309
30
-6E-16
41
1
10
40.6630517653379
20
-10.8757544120702
30
-7E-16
41
1
10
39.3360062208338
20
-10.4632443610706
30
-8E-16
41
1
10
37.4185280183051
20
-9.89283303597841
30
-9E-16
41
1
10
35.5223157085244
20
-9.24523707780679
30
8E-16
41
1
10
34.1552456607225
20
-8.87163743909059
30
7E-16
41
1
10
33.357926133995
20
-8.70026301996663
30
7E-16
41
1
10
32.9616068710184
20
-8.61765871597282
30
6E-16
41
1
10
32.7631712244111
20
-8.56719764670027
30
6E-16
0
SPLINE
5
22E
100
AcDbEntity
8
1
62
256
6
ByLayer
370
-1
48
1
60
0
100
AcDbSpline
70
4
71
1
72
4
73
2
40
0
40
0
40
1
40
1
41
1
10
32.7631712244111
20
-8.56719764670027
30
6E-16
41
1
10
34.259324930762
20
-6.03510730356206
30
7E-16
0
SPLINE
5
22F
100
AcDbEntity
8
1
62
256
6
ByLayer
370
-1
48
1
60
0
100
AcDbSpline
70
4
71
3
72
8
73
4
40
0
40
0
40
0
40
0
40
1
40
1
40
1
40
1
41
1
10
34.259324930762
20
-6.03510730356206
30
7E-16
41
1
10
36.6756842498387
20
-6.61746065442753
30
9E-16
41
1
10
39.093043511356
20
-7.19291435545233
30
-8E-16
41
1
10
41.5130567149024
20
-7.73847738475075
30
-6E-16
0
SPLINE
5
230
100
AcDbEntity
8
1
62
256
6
ByLayer
370
-1
48
1
60
0
100
AcDbSpline
70
4
71
3
72
14
73
10
40
0
40
0
40
0
40
0
40
0.0669466710054799
40
0.253557336804384
40
0.440168002603288
40
0.626778668402192
40
0.720084001301644
40
0.813389334201096
40
1
40
1
40
1
40
1
41
1
10
42.8094507105517
20
-10.0529096325333
30
-5E-16
41
1
10
42.8133280902169
20
-10.0882968298271
30
-5E-16
41
1
10
42.8197293787237
20
-10.2218606360921
30
-5E-16
41
1
10
42.8151293157553
20
-10.4469912856506
30
-5E-16
41
1
10
42.8187362060357
20
-10.7352648237006
30
-5E-16
41
1
10
42.8077687643887
20
-10.9777450317345
30
-5E-16
41
1
10
42.6386210297407
20
-11.1111843141008
30
-6E-16
41
1
10
42.412852802752
20
-11.2010608270154
30
-6E-16
41
1
10
42.1904633230268
20
-11.2104633094802
30
-6E-16
41
1
10
42.0367579086555
20
-11.1839730839131
30
-6E-16
0
SPLINE
5
231
100
AcDbEntity
8
1
62
256
6
ByLayer
370
-1
48
1
60
0
100
AcDbSpline
70
4
71
3
72
8
73
4
40
0
40
0
40
0
40
0
40
1
40
1
40
1
40
1
41
1
10
34.1094756213549
20
-5.97481071660729
30
7E-16
41
1
10
34.155325103686
20
-6.00110408795365
30
7E-16
41
1
10
34.2064511062172
20
-6.02237568768263
30
7E-16
41
1
10
34.259324930762
20
-6.03510730356206
30
7E-16
0
SPLINE
5
232
100
AcDbEntity
8
1
62
256
6
ByLayer
370
-1
48
1
60
0
100
AcDbSpline
70
4
71
1
72
4
73
2
40
0
40
0
40
1
40
1
41
1
10
42.0367579086555
20
-11.1839730839131
30
-6E-16
41
1
10
41.5130567149024
20
-7.73847738475075
30
-6E-16
0
SPLINE
5
233
100
AcDbEntity
8
1
62
256
6
ByLayer
370
-1
48
1
60
0
100
AcDbSpline
70
4
71
3
72
23
73
19
40
0
40
0
40
0
40
0
40
0.070398978838846
40
0.105598468258269
40
0.140797957677692
40
0.211196936516538
40
0.281595915355384
40
0.35199489419423
40
0.422393873033076
40
0.492792851871922
40
0.563191830710768
40
0.633590809549614
40
0.70398978838846
40
0.774388767227306
40
0.844787746066152
40
0.915186724904998
40
0.985585703743844
40
1
40
1
40
1
40
1
41
1
10
32.7631712244111
20
-8.56719764670027
30
6E-16
41
1
10
32.6103201212803
20
-8.53260869343305
30
6E-16
41
1
10
32.389318301803
20
-8.40577825137686
30
6E-16
41
1
10
32.374077702284
20
-8.26628703134793
30
6E-16
41
1
10
32.3472184293156
20
-8.16212806746165
30
6E-16
41
1
10
32.3050336115456
20
-8.07166707985039
30
6E-16
41
1
10
32.2397668076999
20
-7.98872771426511
30
6E-16
41
1
10
32.1589871213058
20
-7.89343564018176
30
6E-16
41
1
10
32.0692997674165
20
-7.73477456280634
30
6E-16
41
1
10
31.9773099610853
20
-7.46172818734482
30
6E-16
41
1
10
31.8580268086628
20
-7.14388982983539
30
6E-16
41
1
10
31.6864594165
20
-6.85085280631614
30
6E-16
41
1
10
31.4338822424748
20
-6.54968214262203
30
5E-16
41
1
10
31.4094980667766
20
-6.25304492925579
30
5E-16
41
1
10
31.4154064832915
20
-5.96619034388817
30
5E-16
41
1
10
31.4116654764868
20
-5.67800668349469
30
5E-16
41
1
10
31.4275142390723
20
-5.46486217417163
30
5E-16
41
1
10
31.5045613142042
20
-5.37660113004929
30
1E-16
41
1
10
31.519439813734
20
-5.3624713843181
30
0
0
SPLINE
5
234
100
AcDbEntity
8
1
62
256
6
ByLayer
370
-1
48
1
60
0
100
AcDbSpline
70
4
71
3
72
15
73
11
40
0
40
0
40
0
40
0
40
0.0625
40
0.125
40
0.25
40
0.5
40
0.75
40
0.875
40
0.9375
40
1
40
1
40
1
40
1
41
1
10
33.1811101738489
20
0.0875344237763613
30
6E-16
41
1
10
32.9817259484137
20
0.136699440912025
30
6E-16
41
1
10
32.5819409092979
20
0.232229174032142
30
6E-16
41
1
10
31.8074040305313
20
0.508267675640923
30
6E-16
41
1
10
30.4803584860272
20
1.06005700962206
30
5E-16
41
1
10
28.5628802834985
20
1.79238064627035
30
4E-16
41
1
10
26.6666679737178
20
2.57149380543768
30
2E-16
41
1
10
25.2995979259159
20
3.01139997143281
30
2E-16
41
1
10
24.5022783991884
20
3.20190096400356
30
1E-16
41
1
10
24.1059591362118
20
3.31359811384644
30
1E-16
41
1
10
23.9075234896045
20
3.36046462333485
30
1E-16
0
SPLINE
5
235
100
AcDbEntity
8
1
62
256
6
ByLayer
370
-1
48
1
60
0
100
AcDbSpline
70
4
71
3
72
8
73
4
40
0
40
0
40
0
40
0
40
1
40
1
40
1
40
1
41
1
10
25.4036771959554
20
5.6144156239321
30
2E-16
41
1
10
27.8200365150321
20
5.0501684225602
30
3E-16
41
1
10
30.2373957765494
20
4.48413914112419
30
5E-16
41
1
10
32.6574089800958
20
3.91086906778571
30
6E-16
0
SPLINE
5
236
100
AcDbEntity
8
1
62
256
6
ByLayer
370
-1
48
1
60
0
100
AcDbSpline
70
4
71
3
72
18
73
14
40
0
40
0
40
0
40
0
40
0.0888846465529506
40
0.190119685824845
40
0.291354725096739
40
0.392589764368634
40
0.493824803640528
40
0.595059842912423
40
0.696294882184317
40
0.797529921456211
40
0.848147441092158
40
0.898764960728106
40
1
40
1
40
1
40
1
41
1
10
33.3333640401326
20
-0.460777350651938
30
7E-16
41
1
10
33.3489328254278
20
-0.470858833423336
30
7E-16
41
1
10
33.3986387282624
20
-0.46372388414099
30
7E-16
41
1
10
33.520158667163
20
-0.419322252507641
30
7E-16
41
1
10
33.6865499714151
20
-0.412513125478654
30
7E-16
41
1
10
33.9417674296396
20
-0.41518522966399
30
7E-16
41
1
10
33.9653322162163
20
-0.358895444731047
30
7E-16
41
1
10
33.9594815809487
20
-0.29473446092959
30
7E-16
41
1
10
33.9630884712291
20
-0.233332871170887
30
7E-16
41
1
10
33.9521210295821
20
-0.177595382604665
30
7E-16
41
1
10
33.7829732949341
20
-0.10029453172146
30
7E-16
41
1
10
33.5572050679454
20
-0.0162638508916473
30
7E-16
41
1
10
33.3348155882203
20
0.0493437191704515
30
7E-16
41
1
10
33.1811101738489
20
0.0875344237763613
30
6E-16
0
SPLINE
5
237
100
AcDbEntity
8
1
62
256
6
ByLayer
370
-1
48
1
60
0
100
AcDbSpline
70
4
71
3
72
12
73
8
40
0
40
0
40
0
40
0
40
0.343541720262496
40
0.343541720262496
40
0.686099793206802
40
0.686099793206802
40
1
40
1
40
1
40
1
41
1
10
26.7817072914904
20
1.41091674369673
30
3E-16
41
1
10
26.6948204176551
20
1.38906138462755
30
2E-16
41
1
10
26.6365870190326
20
1.37363653398305
30
2E-16
41
1
10
26.5914346695746
20
1.33172243889996
30
2E-16
41
1
10
26.6011430089109
20
1.29651356418975
30
2E-16
41
1
10
26.6824493045727
20
1.2213259826641
30
2E-16
41
1
10
26.7521069253815
20
1.18562287693868
30
2E-16
41
1
10
26.8487814922713
20
1.15394312106235
30
3E-16
0
SPLINE
5
238
100
AcDbEntity
8
1
62
256
6
ByLayer
370
-1
48
1
60
0
100
AcDbSpline
70
4
71
3
72
12
73
8
40
0
40
0
40
0
40
0
40
0.250297670574191
40
0.375446505861287
40
0.500595341148383
40
0.750893011722574
40
1
40
1
40
1
40
1
41
1
10
32.6574089800958
20
3.91086906778571
30
6E-16
41
1
10
32.7737923640796
20
3.88329190958586
30
6E-16
41
1
10
32.9459353021643
20
3.83362476278529
30
6E-16
41
1
10
33.1362627875829
20
3.76890651214589
30
6E-16
41
1
10
33.3001152828084
20
3.70637518230569
30
6E-16
41
1
10
33.4600455490627
20
3.63320072318822
30
7E-16
41
1
10
33.4702789296055
20
3.59882558039976
30
7E-16
41
1
10
33.4725358287615
20
3.58241227406847
30
7E-16
0
SPLINE
5
239
100
AcDbEntity
8
1
62
256
6
ByLayer
370
-1
48
1
60
0
100
AcDbSpline
70
4
71
3
72
18
73
14
40
0
40
0
40
0
40
0
40
0.162600988457447
40
0.162600988457447
40
0.332996094284669
40
0.332996094284669
40
0.503772203001936
40
0.503772203001936
40
0.669272814739438
40
0.669272814739438
40
0.830144082047364
40
0.830144082047364
40
1
40
1
40
1
40
1
41
1
10
29.5690252263279
20
0.777223267311143
30
4E-16
41
1
10
29.4580219674484
20
0.841390574067873
30
4E-16
41
1
10
29.324418212586
20
0.914123481124903
30
4E-16
41
1
10
29.0232797094289
20
1.06202824514685
30
4E-16
41
1
10
28.8500958025096
20
1.13900302235965
30
4E-16
41
1
10
28.490942892879
20
1.27601684137201
30
4E-16
41
1
10
28.2997427190571
20
1.33795320299518
30
3E-16
41
1
10
27.9314658544802
20
1.4288990847491
30
3E-16
41
1
10
27.7489514442298
20
1.45975710434914
30
3E-16
41
1
10
27.4171494839201
20
1.4862540386797
30
3E-16
41
1
10
27.2627360029392
20
1.48312004316489
30
3E-16
41
1
10
26.9896490752441
20
1.45600269957015
30
3E-16
41
1
10
26.8693157421202
20
1.43114580323927
30
3E-16
41
1
10
26.7817072914904
20
1.41091674369673
30
3E-16
0
SPLINE
5
23A
100
AcDbEntity
8
1
62
256
6
ByLayer
370
-1
48
1
60
0
100
AcDbSpline
70
4
71
3
72
25
73
21
40
0
40
0
40
0
40
0
40
0.0625
40
0.09375
40
0.125
40
0.1875
40
0.25
40
0.3125
40
0.375
40
0.4375
40
0.5
40
0.5625
40
0.625
40
0.6875
40
0.75
40
0.8125
40
0.875
40
0.90625
40
0.9375
40
1
40
1
40
1
40
1
41
1
10
23.9075234896045
20
3.36046462333485
30
1E-16
41
1
10
23.7546723864737
20
3.40008685263919
30
1E-16
41
1
10
23.5336705669963
20
3.38990665306667
30
1E-16
41
1
10
23.5184299674774
20
3.28468448864879
30
1E-16
41
1
10
23.491570694509
20
3.14874425588545
30
0
41
1
10
23.449385876739
20
2.94336992452312
30
0
41
1
10
23.3841190728933
20
2.67292986981303
30
0
41
1
10
23.3033393864992
20
2.41122656560512
30
0
41
1
10
23.2136520326099
20
2.21562232349859
30
0
41
1
10
23.1216622262786
20
2.14347945509252
30
0
41
1
10
23.0023790738562
20
2.12744797090372
30
0
41
1
10
22.8308116816934
20
2.1001778814489
30
0
41
1
10
22.5782345076682
20
2.11390976247805
30
0
41
1
10
22.5538503319699
20
2.05473664935414
30
0
41
1
10
22.5597587484849
20
1.99122632571436
30
0
41
1
10
22.5560177416802
20
1.92970795527839
30
0
41
1
10
22.5739888856073
20
1.87217447801129
30
0
41
1
10
22.7297166423513
20
1.79840106386729
30
0
41
1
10
22.9574041617681
20
1.71390255214143
30
0
41
1
10
23.1840661361427
20
1.64720717303572
30
0
41
1
10
23.3377428028022
20
1.60904002413193
30
0
0
SPLINE
5
23B
100
AcDbEntity
8
1
62
256
6
ByLayer
370
-1
48
1
60
0
100
AcDbSpline
70
4
71
3
72
11
73
7
40
0
40
0
40
0
40
0
40
0.17134288476374
40
0.342685769527479
40
0.685371539054959
40
1
40
1
40
1
40
1
41
1
10
23.3377428028022
20
1.60904002413193
30
0
41
1
10
23.5369122986879
20
1.55887894065486
30
1E-16
41
1
10
23.9379416639728
20
1.46987969990104
30
1E-16
41
1
10
24.7483133892346
20
1.33574228057338
30
1E-16
41
1
10
25.7387393715185
20
1.25051329160598
30
2E-16
41
1
10
26.5223337903157
20
1.16728013515862
30
2E-16
41
1
10
26.8973001024779
20
1.12683194344044
30
3E-16
0
SPLINE
5
23C
100
AcDbEntity
8
1
62
256
6
ByLayer
370
-1
48
1
60
0
100
AcDbSpline
70
4
71
1
72
4
73
2
40
0
40
0
40
1
40
1
41
1
10
33.1811101738489
20
0.0875344237763613
30
6E-16
41
1
10
32.6574089800958
20
3.91086906778571
30
6E-16
0
SPLINE
5
23D
100
AcDbEntity
8
1
62
256
6
ByLayer
370
-1
48
1
60
0
100
AcDbSpline
70
4
71
3
72
10
73
6
40
0
40
0
40
0
40
0
40
0.145666573970406
40
0.430444382646937
40
1
40
1
40
1
40
1
41
1
10
25.046654026444
20
5.64294444543634
30
1E-16
41
1
10
25.0484215875873
20
5.64654479942072
30
1E-16
41
1
10
25.0575125420645
20
5.65612508585531
30
1E-16
41
1
10
25.1258261292108
20
5.66513191688625
30
1E-16
41
1
10
25.2874712533968
20
5.64150550801872
30
2E-16
41
1
10
25.4036771959554
20
5.6144156239321
30
2E-16
0
SPLINE
5
23E
100
AcDbEntity
8
1
62
256
6
ByLayer
370
-1
48
1
60
0
100
AcDbSpline
70
4
71
1
72
4
73
2
40
0
40
0
40
1
40
1
41
1
10
23.9075234896045
20
3.36046462333485
30
1E-16
41
1
10
25.4036771959554
20
5.6144156239321
30
2E-16
0
SPLINE
5
23F
100
AcDbEntity
8
1
62
256
6
ByLayer
370
-1
48
1
60
0
100
AcDbSpline
70
4
71
3
72
14
73
10
40
0
40
0
40
0
40
0
40
0.258374536041622
40
0.258374536041622
40
0.520163709547352
40
0.520163709547352
40
0.808397479016398
40
0.808397479016398
40
1
40
1
40
1
40
1
41
1
10
29.7843756197958
20
0.478176408879051
30
4E-16
41
1
10
29.8563953391984
20
0.464186736215026
30
4E-16
41
1
10
29.9067311821233
20
0.467974503809785
30
4E-16
41
1
10
29.9585646594181
20
0.497966979518253
30
4E-16
41
1
10
29.9594125739431
20
0.52035652273122
30
4E-16
41
1
10
29.9048195035612
20
0.57139774487996
30
4E-16
41
1
10
29.8446081534847
20
0.60812258912361
30
4E-16
41
1
10
29.7078715226799
20
0.693122228249678
30
4E-16
41
1
10
29.6426052333348
20
0.733364293685895
30
4E-16
41
1
10
29.5690252263279
20
0.777223267311143
30
4E-16
0
SPLINE
5
240
100
AcDbEntity
8
1
62
256
6
ByLayer
370
-1
48
1
60
0
100
AcDbSpline
70
4
71
3
72
21
73
17
40
0
40
0
40
0
40
0
40
0.0052430409016194
40
0.0881394541598178
40
0.171035867418016
40
0.253932280676214
40
0.336828693934413
40
0.419725107192611
40
0.50262152045081
40
0.585517933709008
40
0.668414346967206
40
0.751310760225405
40
0.834207173483603
40
0.875655380112702
40
0.917103586741802
40
1
40
1
40
1
40
1
41
1
10
24.4760626680912
20
7.50328109078112
30
1E-16
41
1
10
24.4753197368107
20
7.50752801075021
30
1E-16
41
1
10
24.4630306910018
20
7.57897543862336
30
1E-16
41
1
10
24.4461713579871
20
7.72009294578186
30
1E-16
41
1
10
24.4615081736784
20
7.97131467917089
30
1E-16
41
1
10
24.5378398191678
20
8.3077710904584
30
1E-16
41
1
10
24.6645109323564
20
8.6668331800476
30
1E-16
41
1
10
24.8309022366085
20
8.98589361222096
30
1E-16
41
1
10
25.086119694833
20
9.27442767432603
30
1E-16
41
1
10
25.1096844814098
20
9.65298904356192
30
1E-16
41
1
10
25.1038338461421
20
10.0300811721055
30
1E-16
41
1
10
25.1074407364225
20
10.4052089710296
30
1E-16
41
1
10
25.0964732947755
20
10.7265314108594
30
1E-16
41
1
10
24.9273255601275
20
10.9693149023053
30
1E-16
41
1
10
24.7015573331388
20
11.1780551564177
30
1E-16
41
1
10
24.4791678534136
20
11.2802613761778
30
1E-16
41
1
10
24.3254624390423
20
11.3077929672092
30
1E-16
0
SPLINE
5
241
100
AcDbEntity
8
1
62
256
6
ByLayer
370
-1
48
1
60
0
100
AcDbSpline
70
4
71
3
72
8
73
4
40
0
40
0
40
0
40
0
40
1
40
1
40
1
40
1
41
1
10
16.3710449659011
20
13.9479094077845
30
-4E-16
41
1
10
16.4234263204312
20
13.971022726188
30
-4E-16
41
1
10
16.4844648525108
20
13.9825095799131
30
-4E-16
41
1
10
16.5480294611488
20
13.9768547594902
30
-4E-16
0
SPLINE
5
242
100
AcDbEntity
8
1
62
256
6
ByLayer
370
-1
48
1
60
0
100
AcDbSpline
70
4
71
3
72
18
73
14
40
0
40
0
40
0
40
0
40
0.162600988457447
40
0.162600988457447
40
0.332996094284669
40
0.332996094284669
40
0.503772203001936
40
0.503772203001936
40
0.669272814739438
40
0.669272814739438
40
0.830144082047365
40
0.830144082047365
40
1
40
1
40
1
40
1
41
1
10
20.7133774915213
20
10.1515181253907
30
-1E-16
41
1
10
20.6023742326418
20
10.2922521682819
30
-1E-16
41
1
10
20.4687704777794
20
10.4252495551479
30
-1E-16
41
1
10
20.1676319746223
20
10.6572995122199
30
-2E-16
41
1
10
19.994448067703
20
10.7575610649249
30
-2E-16
41
1
10
19.6352951580724
20
10.9003597346749
30
-2E-16
41
1
10
19.4440949842504
20
10.944728014671
30
-2E-16
41
1
10
19.0758181196735
20
10.9660224997353
30
-2E-16
41
1
10
18.8933037094232
20
10.9449957266616
30
-2E-16
41
1
10
18.5615017491135
20
10.844358504604
30
-3E-16
41
1
10
18.4070882681326
20
10.7651837229518
30
-3E-16
41
1
10
18.1340013404375
20
10.5619150718089
30
-3E-16
41
1
10
18.0136680073136
20
10.4329246191402
30
-3E-16
41
1
10
17.9260595566838
20
10.2969374134358
30
-3E-16
0
SPLINE
5
243
100
AcDbEntity
8
1
62
256
6
ByLayer
370
-1
48
1
60
0
100
AcDbSpline
70
4
71
3
72
15
73
11
40
0
40
0
40
0
40
0
40
0.0625
40
0.125
40
0.25
40
0.5
40
0.75
40
0.875
40
0.9375
40
1
40
1
40
1
40
1
41
1
10
14.4820950679956
20
7.50517166755702
30
4E-16
41
1
10
14.6812645638813
20
7.47099507650572
30
4E-16
41
1
10
15.0822939291662
20
7.40868122591382
30
4E-16
41
1
10
15.8926656544279
20
7.30911763339466
30
-4E-16
41
1
10
17.3262104738769
20
7.20305493611332
30
-3E-16
41
1
10
19.3658168861898
20
7.03996506505214
30
-2E-16
41
1
10
21.4129504267054
20
6.95838084637288
30
-1E-16
41
1
10
22.8320733704541
20
6.83738953101852
30
0
41
1
10
23.6293103066613
20
6.73949190304856
30
1E-16
41
1
10
24.0324173024505
20
6.67931066779522
30
1E-16
41
1
10
24.2311872170021
20
6.66519220842218
30
1E-16
0
SPLINE
5
244
100
AcDbEntity
8
1
62
256
6
ByLayer
370
-1
48
1
60
0
100
AcDbSpline
70
4
71
3
72
12
73
8
40
0
40
0
40
0
40
0
40
0.29636209371793
40
0.444543140576895
40
0.59272418743586
40
0.889086281153789
40
1
40
1
40
1
40
1
41
1
10
23.8017612452893
20
13.2705107342523
30
1E-16
41
1
10
23.918144629273
20
13.2577050098004
30
1E-16
41
1
10
24.0902875673577
20
13.1852704300879
30
1E-16
41
1
10
24.2806150527763
20
13.0461063336907
30
1E-16
41
1
10
24.4444675480019
20
12.8852325117336
30
1E-16
41
1
10
24.5645958962684
20
12.7123422656674
30
1E-16
41
1
10
24.5968646758058
20
12.5810226490146
30
1E-16
41
1
10
24.6029182892681
20
12.5450850618546
30
1E-16
0
SPLINE
5
245
100
AcDbEntity
8
1
62
256
6
ByLayer
370
-1
48
1
60
0
100
AcDbSpline
70
4
71
3
72
25
73
21
40
0
40
0
40
0
40
0
40
0.0625
40
0.09375
40
0.125
40
0.1875
40
0.25
40
0.3125
40
0.375
40
0.4375
40
0.5
40
0.5625
40
0.625
40
0.6875
40
0.75
40
0.8125
40
0.875
40
0.90625
40
0.9375
40
1
40
1
40
1
40
1
41
1
10
15.0518757547979
20
13.3206685617044
30
-5E-16
41
1
10
14.8990246516671
20
13.3421263566392
30
-5E-16
41
1
10
14.6780228321898
20
13.2008957384166
30
-5E-16
41
1
10
14.6627822326708
20
12.912564832738
30
-5E-16
41
1
10
14.6359229597025
20
12.6161146189654
30
-5E-16
41
1
10
14.5937381419325
20
12.2351459128559
30
-5E-16
41
1
10
14.5284713380867
20
11.7696615487636
30
4E-16
41
1
10
14.4476916516926
20
11.3041828533796
30
4E-16
41
1
10
14.3580042978033
20
10.8688341211934
30
4E-16
41
1
10
14.266014491472
20
10.4937396466947
30
4E-16
41
1
10
14.1467313390496
20
10.1532243077683
30
4E-16
41
1
10
13.9751639468868
20
9.82161298229894
30
4E-16
41
1
10
13.7225867728616
20
9.53986644722895
30
3E-16
41
1
10
13.6982025971634
20
9.15952721532881
30
3E-16
41
1
10
13.7041110136783
20
8.78283550621114
30
3E-16
41
1
10
13.7003700068736
20
8.40763239541928
30
3E-16
41
1
10
13.7183411508007
20
8.08456200789416
30
3E-16
41
1
10
13.8740689075447
20
7.8451621593216
30
3E-16
41
1
10
14.1017564269616
20
7.63595433647163
30
4E-16
41
1
10
14.3284184013361
20
7.53268818112429
30
4E-16
41
1
10
14.4820950679956
20
7.50517166755702
30
4E-16
0
SPLINE
5
246
100
AcDbEntity
8
1
62
256
6
ByLayer
370
-1
48
1
60
0
100
AcDbSpline
70
4
71
3
72
8
73
4
40
0
40
0
40
0
40
0
40
1
40
1
40
1
40
1
41
1
10
18.1390614716957
20
8.78274526756542
30
-3E-16
41
1
10
18.1707395464722
20
8.75094122632623
30
-3E-16
41
1
10
18.2041970980651
20
8.72012622377852
30
-3E-16
41
1
10
18.2392148959663
20
8.6904009671091
30
-3E-16
0
SPLINE
5
247
100
AcDbEntity
8
1
62
256
6
ByLayer
370
-1
48
1
60
0
100
AcDbSpline
70
4
71
3
72
8
73
4
40
0
40
0
40
0
40
0
40
1
40
1
40
1
40
1
41
1
10
20.7896359556403
20
8.47793096958335
30
-1E-16
41
1
10
20.8422303687296
20
8.52388485179881
30
-1E-16
41
1
10
20.888803138853
20
8.57559580334728
30
-1E-16
41
1
10
20.9287278849892
20
8.63335622004806
30
-1E-16
0
SPLINE
5
248
100
AcDbEntity
8
1
62
256
6
ByLayer
370
-1
48
1
60
0
100
AcDbSpline
70
4
71
1
72
4
73
2
40
0
40
0
40
1
40
1
41
1
10
15.0518757547979
20
13.3206685617044
30
-5E-16
41
1
10
16.5480294611488
20
13.9768547594902
30
-4E-16
0
SPLINE
5
249
100
AcDbEntity
8
1
62
256
6
ByLayer
370
-1
48
1
60
0
100
AcDbSpline
70
4
71
3
72
8
73
4
40
0
40
0
40
0
40
0
40
1
40
1
40
1
40
1
41
1
10
16.5480294611488
20
13.9768547594902
30
-4E-16
41
1
10
18.9643887802256
20
13.7610647101932
30
-2E-16
41
1
10
21.3817480417428
20
13.5358542091124
30
-1E-16
41
1
10
23.8017612452893
20
13.2705107342523
30
1E-16
0
SPLINE
5
24A
100
AcDbEntity
8
1
62
256
6
ByLayer
370
-1
48
1
60
0
100
AcDbSpline
70
4
71
3
72
14
73
10
40
0
40
0
40
0
40
0
40
0.301632841810063
40
0.301632841810063
40
0.602402032079644
40
0.602402032079644
40
0.899200904780737
40
0.899200904780737
40
1
40
1
40
1
40
1
41
1
10
17.9260595566838
20
10.2969374134358
30
-3E-16
41
1
10
17.8391726828485
20
10.1557106300038
30
-3E-16
41
1
10
17.7809392842261
20
10.0063168838532
30
-3E-16
41
1
10
17.735786934768
20
9.69887391093636
30
-3E-16
41
1
10
17.7454952741044
20
9.53177899271336
30
-3E-16
41
1
10
17.8297874608688
20
9.21014755845056
30
-3E-16
41
1
10
17.907353434052
20
9.0537090181721
30
-3E-16
41
1
10
18.0533714109903
20
8.87060135389709
30
-3E-16
41
1
10
18.0946219886355
20
8.82552932884249
30
-3E-16
41
1
10
18.1390614716957
20
8.78274526756542
30
-3E-16
0
SPLINE
5
24B
100
AcDbEntity
8
1
62
256
6
ByLayer
370
-1
48
1
60
0
100
AcDbSpline
70
4
71
3
72
14
73
10
40
0
40
0
40
0
40
0
40
0.258374536041622
40
0.258374536041622
40
0.520163709547351
40
0.520163709547351
40
0.808397479016398
40
0.808397479016398
40
1
40
1
40
1
40
1
41
1
10
20.9287278849892
20
8.63335622004806
30
-1E-16
41
1
10
21.0007476043918
20
8.73251729575648
30
-1E-16
41
1
10
21.0510834473167
20
8.85403364187832
30
-1E-16
41
1
10
21.1029169246115
20
9.11482316605927
30
-1E-16
41
1
10
21.1037648391365
20
9.25506246234693
30
-1E-16
41
1
10
21.0491717687546
20
9.54283496092452
30
-1E-16
41
1
10
20.9889604186781
20
9.69782338716081
30
-1E-16
41
1
10
20.8522237878733
20
9.951854403412
30
-1E-16
41
1
10
20.7869574985282
20
10.0536226289265
30
-1E-16
41
1
10
20.7133774915213
20
10.1515181253907
30
-1E-16
0
SPLINE
5
24C
100
AcDbEntity
8
1
62
256
6
ByLayer
370
-1
48
1
60
0
100
AcDbSpline
70
4
71
3
72
15
73
11
40
0
40
0
40
0
40
0
40
0.0625
40
0.125
40
0.25
40
0.5
40
0.75
40
0.875
40
0.9375
40
1
40
1
40
1
40
1
41
1
10
24.3254624390423
20
11.3077929672092
30
1E-16
41
1
10
24.1260782136071
20
11.3413042733664
30
1E-16
41
1
10
23.7262931744913
20
11.4066176938228
30
1E-16
41
1
10
22.9517562957247
20
11.5947132121179
30
0
41
1
10
21.6247107512206
20
11.9627245604735
30
-1E-16
41
1
10
19.7072325486919
20
12.4282054399905
30
-2E-16
41
1
10
17.8110202389112
20
12.8826867707397
30
-3E-16
41
1
10
16.4439501911093
20
13.1313466704422
30
-4E-16
41
1
10
15.6466306643819
20
13.2294412173584
30
-4E-16
41
1
10
15.2503114014052
20
13.3048356464505
30
-5E-16
41
1
10
15.0518757547979
20
13.3206685617044
30
-5E-16
0
SPLINE
5
24D
100
AcDbEntity
8
1
62
256
6
ByLayer
370
-1
48
1
60
0
100
AcDbSpline
70
4
71
1
72
4
73
2
40
0
40
0
40
1
40
1
41
1
10
24.3254624390423
20
11.3077929672092
30
1E-16
41
1
10
23.8017612452893
20
13.2705107342523
30
1E-16
0
SPLINE
5
24E
100
AcDbEntity
8
1
62
256
6
ByLayer
370
-1
48
1
60
0
100
AcDbSpline
70
4
71
3
72
18
73
14
40
0
40
0
40
0
40
0
40
0.213394464779721
40
0.213394464779721
40
0.389004322610664
40
0.389004322610664
40
0.566252444177966
40
0.566252444177966
40
0.721175490823055
40
0.721175490823055
40
0.927416435499179
40
0.927416435499179
40
1
40
1
40
1
40
1
41
1
10
46.5566508899398
20
13.1601540370718
30
0
41
1
10
46.5514913815706
20
13.1153211366341
30
0
41
1
10
46.5520476795793
20
13.0677540251017
30
0
41
1
10
46.5646783298371
20
12.9813996741579
30
0
41
1
10
46.5749052219183
20
12.9415997569893
30
0
41
1
10
46.6038783707883
20
12.8665172821834
30
0
41
1
10
46.6231880530113
20
12.8302413083879
30
0
41
1
10
46.6647161113585
20
12.7720622022333
30
0
41
1
10
46.6867365274594
20
12.7481848727404
30
0
41
1
10
46.7403162141366
20
12.70303015492
30
0
41
1
10
46.773506114478
20
12.6843034065752
30
0
41
1
10
46.8189916110462
20
12.6683330947474
30
0
41
1
10
46.8310550455548
20
12.6649766341838
30
0
41
1
10
46.8431681234118
20
12.6624347346128
30
0
0
SPLINE
5
24F
100
AcDbEntity
8
1
62
256
6
ByLayer
370
-1
48
1
60
0
100
AcDbSpline
70
4
71
3
72
14
73
10
40
0
40
0
40
0
40
0
40
0.283738489034222
40
0.283738489034222
40
0.570489531030764
40
0.570489531030764
40
0.830294403552171
40
0.830294403552171
40
1
40
1
40
1
40
1
41
1
10
46.2567601311899
20
11.6067086489681
30
0
41
1
10
46.2688049679496
20
11.593880756863
30
0
41
1
10
46.2839744982365
20
11.5832463534908
30
0
41
1
10
46.3187260057824
20
11.5687541423496
30
0
41
1
10
46.338907800118
20
11.5647808438391
30
0
41
1
10
46.3789789499946
20
11.5652469248883
30
0
41
1
10
46.3993255861776
20
11.5689738793165
30
0
41
1
10
46.4317007257642
20
11.5808102247978
30
0
41
1
10
46.4444191980081
20
11.5870267647149
30
0
41
1
10
46.4564147761644
20
11.5944992610525
30
0
0
SPLINE
5
250
100
AcDbEntity
8
1
62
256
6
ByLayer
370
-1
48
1
60
0
100
AcDbSpline
70
4
71
3
72
16
73
12
40
0
40
0
40
0
40
0
40
0.0650212293342958
40
0.0650212293342958
40
0.28969152326947
40
0.28969152326947
40
0.517236422326112
40
0.517236422326112
40
0.759263521180989
40
0.759263521180989
40
1
40
1
40
1
40
1
41
1
10
45.4497871177186
20
13.3378628908529
30
1E-16
41
1
10
45.4451882033679
20
13.3349980543111
30
1E-16
41
1
10
45.4407296470968
20
13.3319100021115
30
1E-16
41
1
10
45.4217282401118
20
13.3173324404154
30
1E-16
41
1
10
45.4088475724529
20
13.3034216526322
30
1E-16
41
1
10
45.3885036557241
20
13.2725658383783
30
1E-16
41
1
10
45.3808403517006
20
13.2552004297396
30
1E-16
41
1
10
45.3710520514279
20
13.2184218247765
30
1E-16
41
1
10
45.3691685851268
20
13.1984946778802
30
1E-16
41
1
10
45.3713657932724
20
13.1596208915705
30
1E-16
41
1
10
45.3754220940421
20
13.1402609697211
30
1E-16
41
1
10
45.381962436935
20
13.1220040648331
30
1E-16
0
SPLINE
5
251
100
AcDbEntity
8
1
62
256
6
ByLayer
370
-1
48
1
60
0
100
AcDbSpline
70
4
71
3
72
16
73
12
40
0
40
0
40
0
40
0
40
0.0668638488454754
40
0.0668638488454754
40
0.290854271538574
40
0.290854271538574
40
0.51782497397127
40
0.51782497397127
40
0.759328674281163
40
0.759328674281163
40
1
40
1
40
1
40
1
41
1
10
46.4564069163029
20
13.3705545524356
30
0
41
1
10
46.4516648931056
20
13.3732005119527
30
0
41
1
10
46.4468202406735
20
13.3756079531116
30
0
41
1
10
46.4255659405784
20
13.3849200167111
30
0
41
1
10
46.4081965786358
20
13.3892839443235
30
0
41
1
10
46.3740162463333
20
13.3919916505269
30
0
41
1
10
46.3567815628622
20
13.3903042982275
30
0
41
1
10
46.3237207146743
20
13.3812880990019
30
0
41
1
10
46.3076368313488
20
13.3735121125076
30
0
41
1
10
46.279426978376
20
13.353393375536
30
0
41
1
10
46.2669820882904
20
13.3408681609055
30
0
41
1
10
46.2567525190643
20
13.3267842387222
30
0
0
SPLINE
5
252
100
AcDbEntity
8
1
62
256
6
ByLayer
370
-1
48
1
60
0
100
AcDbSpline
70
4
71
3
72
16
73
12
40
0
40
0
40
0
40
0
40
0.0670553612811586
40
0.0670553612811586
40
0.291697905104271
40
0.291697905104271
40
0.519329228663783
40
0.519329228663783
40
0.761535715028726
40
0.761535715028726
40
1
40
1
40
1
40
1
41
1
10
46.9582274330094
20
12.4988242397138
30
0
41
1
10
46.958227408265
20
12.5044156006731
30
0
41
1
10
46.9580053340747
20
12.5099901707762
30
0
41
1
10
46.9560929859379
20
12.5338655043699
30
0
41
1
10
46.9520928833037
20
12.5518645483258
30
0
41
1
10
46.9398256318726
20
12.5845566208065
30
0
41
1
10
46.9313587387826
20
12.5996253479421
30
0
41
1
10
46.9108366268936
20
12.6258763266367
30
0
41
1
10
46.8983432556261
20
12.6370906867352
30
0
41
1
10
46.8718440050169
20
12.6537198906364
30
0
41
1
10
46.8575979227175
20
12.6594066767487
30
0
41
1
10
46.8431681234118
20
12.6624347346128
30
0
0
SPLINE
5
253
100
AcDbEntity
8
1
62
256
6
ByLayer
370
-1
48
1
60
0
100
AcDbSpline
70
4
71
3
72
14
73
10
40
0
40
0
40
0
40
0
40
0.284523597312287
40
0.284523597312287
40
0.571736866218036
40
0.571736866218036
40
0.831999616286238
40
0.831999616286238
40
1
40
1
40
1
40
1
41
1
10
46.5566508899398
20
13.1601540370718
30
0
41
1
10
46.559169080588
20
13.1820355386673
30
0
41
1
10
46.5584768390118
20
13.2053028454686
30
0
41
1
10
46.5498792594113
20
13.2510825022012
30
0
41
1
10
46.5417363304322
20
13.2742871218178
30
0
41
1
10
46.5195292204276
20
13.3142201527519
30
0
41
1
10
46.5057277792765
20
13.331934421673
30
0
41
1
10
46.4795700655668
20
13.3557566758211
30
0
41
1
10
46.4682489509021
20
13.363946920451
30
0
41
1
10
46.4564069163029
20
13.3705545524356
30
0
0
SPLINE
5
254
100
AcDbEntity
8
1
62
256
6
ByLayer
370
-1
48
1
60
0
100
AcDbSpline
70
4
71
3
72
12
73
8
40
0
40
0
40
0
40
0
40
0.377026290846268
40
0.377026290846268
40
0.761056372063252
40
0.761056372063252
40
1
40
1
40
1
40
1
41
1
10
45.9652255352875
20
11.703110394478
30
0
41
1
10
45.926367534265
20
11.6995538610028
30
0
41
1
10
45.8864727512662
20
11.6909664739132
30
0
41
1
10
45.8108558884583
20
11.6657903175
30
0
41
1
10
45.7742066298526
20
11.6487871052145
30
0
41
1
10
45.720132919961
20
11.6164317021895
30
0
41
1
10
45.7004058936108
20
11.6027233222561
30
0
41
1
10
45.6820249215946
20
11.5880431617621
30
0
0
SPLINE
5
255
100
AcDbEntity
8
1
62
256
6
ByLayer
370
-1
48
1
60
0
100
AcDbSpline
70
4
71
3
72
12
73
8
40
0
40
0
40
0
40
0
40
0.464390992171652
40
0.464390992171652
40
0.846401077318506
40
0.846401077318506
40
1
40
1
40
1
40
1
41
1
10
46.2567601311899
20
11.6067086489681
30
0
41
1
10
46.2320478011223
20
11.633027569689
30
0
41
1
10
46.2013740058005
20
11.655547413956
30
0
41
1
10
46.1359661162917
20
11.6859625768878
30
0
41
1
10
46.1021072863401
20
11.6960130696344
30
0
41
1
10
46.0509259341851
20
11.7031703940231
30
0
41
1
10
46.0356142684544
20
11.7044483697406
30
0
41
1
10
46.0200294112569
20
11.7048902420124
30
0
0
SPLINE
5
256
100
AcDbEntity
8
1
62
256
6
ByLayer
370
-1
48
1
60
0
100
AcDbSpline
70
4
71
3
72
18
73
14
40
0
40
0
40
0
40
0
40
0.21339446477972
40
0.21339446477972
40
0.389004322610664
40
0.389004322610664
40
0.566252444177968
40
0.566252444177968
40
0.721175490823055
40
0.721175490823055
40
0.927416435499179
40
0.927416435499179
40
1
40
1
40
1
40
1
41
1
10
45.3819684876257
20
11.7547584455471
30
-1E-16
41
1
10
45.3977849831451
20
11.7938549074881
30
-1E-16
41
1
10
45.4072662780394
20
11.8360189877949
30
-1E-16
41
1
10
45.4092545463117
20
11.9145042735091
30
-1E-16
41
1
10
45.4043669091161
20
11.9514301788358
30
1E-16
41
1
10
45.381473188992
20
12.02324022133
30
1E-16
41
1
10
45.3628638674076
20
12.0591392052997
30
1E-16
41
1
10
45.3178706440065
20
12.1191835390213
30
1E-16
41
1
10
45.2922915920856
20
12.1449764094851
30
1E-16
41
1
10
45.2274442455393
20
12.1961962784529
30
0
41
1
10
45.1854637260003
20
12.2196548375489
30
0
41
1
10
45.1268690056609
20
12.2426815767556
30
0
41
1
10
45.1112292362561
20
12.2479631053414
30
0
41
1
10
45.0954512541537
20
12.252477748006
30
0
0
SPLINE
5
257
100
AcDbEntity
8
1
62
256
6
ByLayer
370
-1
48
1
60
0
100
AcDbSpline
70
4
71
3
72
14
73
10
40
0
40
0
40
0
40
0
40
0.284519249123236
40
0.284519249123236
40
0.571733062184451
40
0.571733062184451
40
0.831996244286524
40
0.831996244286524
40
1
40
1
40
1
40
1
41
1
10
45.0954496910949
20
12.6056746553737
30
0
41
1
10
45.0730575321862
20
12.6007816481132
30
0
41
1
10
45.0511403708081
20
12.5920973435714
30
0
41
1
10
45.0119841636944
20
12.5676987593786
30
0
41
1
10
44.9942100845795
20
12.5515100385199
30
0
41
1
10
44.9680135153091
20
12.5155416918677
30
0
41
1
10
44.9585079655855
20
12.4956795747916
30
0
41
1
10
44.9497511839277
20
12.461525371447
30
0
41
1
10
44.9479743990766
20
12.4475018872826
30
0
41
1
10
44.9479744608737
20
12.4335379121915
30
0
0
SPLINE
5
258
100
AcDbEntity
8
1
62
256
6
ByLayer
370
-1
48
1
60
0
100
AcDbSpline
70
4
71
3
72
14
73
10
40
0
40
0
40
0
40
0
40
0.283738489034226
40
0.283738489034226
40
0.570489531030771
40
0.570489531030771
40
0.830294403552177
40
0.830294403552177
40
1
40
1
40
1
40
1
41
1
10
45.682017309469
20
13.3081187515162
30
1E-16
41
1
10
45.6647640555643
20
13.3237502281801
30
1E-16
41
1
10
45.6446416987447
20
13.3370506369053
30
1E-16
41
1
10
45.6012042788484
20
13.3562182972409
30
1E-16
41
1
10
45.5771713694848
20
13.3622645723058
30
1E-16
41
1
10
45.5314805803981
20
13.364823428253
30
1E-16
41
1
10
45.5091233132695
20
13.3621787553924
30
1E-16
41
1
10
45.4748810628442
20
13.3513474375368
30
1E-16
41
1
10
45.4617826958749
20
13.3453353871904
30
1E-16
41
1
10
45.4497871177186
20
13.3378628908529
30
1E-16
0
SPLINE
5
259
100
AcDbEntity
8
1
62
256
6
ByLayer
370
-1
48
1
60
0
100
AcDbSpline
70
4
71
3
72
14
73
10
40
0
40
0
40
0
40
0
40
0.28452359731229
40
0.28452359731229
40
0.571736866218036
40
0.571736866218036
40
0.831999616286242
40
0.831999616286242
40
1
40
1
40
1
40
1
41
1
10
45.3819684876257
20
11.7547584455471
30
-1E-16
41
1
10
45.3742489631567
20
11.7356767157015
30
-1E-16
41
1
10
45.3699976743631
20
11.7150704103188
30
-1E-16
41
1
10
45.3699379112293
20
11.6739508243397
30
-1E-16
41
1
10
45.3742480922816
20
11.6528092946419
30
-1E-16
41
1
10
45.3908697976324
20
11.6158827729421
30
-1E-16
41
1
10
45.4026772901084
20
11.5992418058631
30
-1E-16
41
1
10
45.4270018987443
20
11.5764062747321
30
-1E-16
41
1
10
45.4379529429809
20
11.5684152314543
30
-1E-16
41
1
10
45.4497949775801
20
11.5618075994697
30
0
0
SPLINE
5
25A
100
AcDbEntity
8
1
62
256
6
ByLayer
370
-1
48
1
60
0
100
AcDbSpline
70
4
71
3
72
16
73
12
40
0
40
0
40
0
40
0
40
0.0670553612811574
40
0.0670553612811574
40
0.291697905104275
40
0.291697905104275
40
0.519329228663784
40
0.519329228663784
40
0.761535715028727
40
0.761535715028727
40
1
40
1
40
1
40
1
41
1
10
44.9479744608737
20
12.4335379121915
30
0
41
1
10
44.947974485618
20
12.4279465512322
30
0
41
1
10
44.9482550754167
20
12.4223404833725
30
0
41
1
10
44.9506718715071
20
12.3981936157495
30
0
41
1
10
44.9557260518848
20
12.3796271832755
30
0
41
1
10
44.9712692957576
20
12.345171710981
30
0
41
1
10
44.9820133353996
20
12.3288772423708
30
0
41
1
10
45.0081666801907
20
12.2995950860322
30
0
41
1
10
45.0241422760042
20
12.2865063155905
30
0
41
1
10
45.058233154426
20
12.2657906935092
30
0
41
1
10
45.0766556088294
20
12.2578558516025
30
0
41
1
10
45.0954512541537
20
12.252477748006
30
0
0
SPLINE
5
25B
100
AcDbEntity
8
1
62
256
6
ByLayer
370
-1
48
1
60
0
100
AcDbSpline
70
4
71
3
72
12
73
8
40
0
40
0
40
0
40
0
40
0.464390992172111
40
0.464390992172111
40
0.846401077319349
40
0.846401077319349
40
1
40
1
40
1
40
1
41
1
10
45.682017309469
20
13.3081187515162
30
1E-16
41
1
10
45.717415722394
20
13.2760477306739
30
1E-16
41
1
10
45.7581613587098
20
13.2481064201335
30
1E-16
41
1
10
45.8382541710977
20
13.2097866631793
30
1E-16
41
1
10
45.8774848747338
20
13.1968446005576
30
1E-16
41
1
10
45.9329739540297
20
13.1873685146412
30
1E-16
41
1
10
45.9491644255493
20
13.1856174957186
30
1E-16
41
1
10
45.9652189775861
20
13.1849227963091
30
1E-16
0
SPLINE
5
25C
100
AcDbEntity
8
1
62
256
6
ByLayer
370
-1
48
1
60
0
100
AcDbSpline
70
4
71
3
72
12
73
8
40
0
40
0
40
0
40
0
40
0.377026290639701
40
0.377026290639701
40
0.761056371823051
40
0.761056371823051
40
1
40
1
40
1
40
1
41
1
10
46.0200228535555
20
13.1867026438435
30
1E-16
41
1
10
46.0577440172671
20
13.190871113608
30
1E-16
41
1
10
46.0940119894914
20
13.2014107388344
30
1E-16
41
1
10
46.158964934355
20
13.2323270644217
30
0
41
1
10
46.1884399644944
20
13.2531920173397
30
0
41
1
10
46.2295492369581
20
13.2925259122298
30
0
41
1
10
46.2439204419015
20
13.3091172214494
30
0
41
1
10
46.2567525190643
20
13.3267842387222
30
0
0
SPLINE
5
25D
100
AcDbEntity
8
1
62
256
6
ByLayer
370
-1
48
1
60
0
100
AcDbSpline
70
4
71
3
72
16
73
12
40
0
40
0
40
0
40
0
40
0.0668638488455304
40
0.0668638488455304
40
0.290854271538804
40
0.290854271538804
40
0.517824973971679
40
0.517824973971679
40
0.759328674281757
40
0.759328674281757
40
1
40
1
40
1
40
1
41
1
10
45.4497949775801
20
11.5618075994697
30
0
41
1
10
45.4545370007773
20
11.5591616399526
30
0
41
1
10
45.4594401742766
20
11.5567226980987
30
0
41
1
10
45.4811989510562
20
11.5471390850047
30
0
41
1
10
45.4996224081823
20
11.5422077594866
30
0
41
1
10
45.5370787656061
20
11.5377366358786
30
0
41
1
10
45.556590612125
20
11.5381982378241
30
0
41
1
10
45.5952827256688
20
11.5441832419364
30
0
41
1
10
45.6148488502659
20
11.5500848090846
30
0
41
1
10
45.6506953445394
20
11.5660928980348
30
0
41
1
10
45.6673718437269
20
11.5763403239231
30
0
41
1
10
45.6820249215945
20
11.588043161762
30
0
0
SPLINE
5
25E
100
AcDbEntity
8
1
62
256
6
ByLayer
370
-1
48
1
60
0
100
AcDbSpline
70
4
71
3
72
14
73
10
40
0
40
0
40
0
40
0
40
0.284519249123236
40
0.284519249123236
40
0.571733062184449
40
0.571733062184449
40
0.831996244286527
40
0.831996244286527
40
1
40
1
40
1
40
1
41
1
10
46.8431696864706
20
12.3092378272451
30
0
41
1
10
46.8603605908087
20
12.3169305635969
30
0
41
1
10
46.877334294274
20
12.328275830555
30
0
41
1
10
46.9078331809867
20
12.3573344734798
30
0
41
1
10
46.921774483854
20
12.375586299502
30
0
41
1
10
46.9423855957108
20
12.4145611837879
30
0
41
1
10
46.9498971710585
20
12.4354966165404
30
0
41
1
10
46.9568207954225
20
12.4706375710109
30
0
41
1
10
46.9582274948064
20
12.4848602646227
30
0
41
1
10
46.9582274330094
20
12.4988242397138
30
0
0
SPLINE
5
25F
100
AcDbEntity
8
1
62
256
6
ByLayer
370
-1
48
1
60
0
100
AcDbSpline
70
4
71
3
72
18
73
14
40
0
40
0
40
0
40
0
40
0.213393079737798
40
0.213393079737798
40
0.389003177496046
40
0.389003177496046
40
0.566251555260788
40
0.566251555260788
40
0.721174645896042
40
0.721174645896042
40
0.92741534208992
40
0.92741534208992
40
1
40
1
40
1
40
1
41
1
10
46.8431696864706
20
12.3092378272451
30
0
41
1
10
46.8079470200218
20
12.2934760801451
30
0
41
1
10
46.7728058168995
20
12.2710197179947
30
0
41
1
10
46.7127367657207
20
12.2188386460388
30
0
41
1
10
46.6864485507974
20
12.1904516769538
30
0
41
1
10
46.6394733836724
20
12.1270798602881
30
0
41
1
10
46.6181909972663
20
12.0910593659361
30
0
41
1
10
46.5867993730428
20
12.0225049444099
30
0
41
1
10
46.575220591401
20
11.9892944798235
30
0
41
1
10
46.5567412541689
20
11.9145026454872
30
0
41
1
10
46.5522436303865
20
11.8724856459275
30
0
41
1
10
46.5537787172017
20
11.8196890658972
30
0
41
1
10
46.5548824484757
20
11.8061194900533
30
0
41
1
10
46.5566569406305
20
11.7929084177857
30
0
0
SPLINE
5
260
100
AcDbEntity
8
1
62
256
6
ByLayer
370
-1
48
1
60
0
100
AcDbSpline
70
4
71
3
72
16
73
12
40
0
40
0
40
0
40
0
40
0.0650212293342939
40
0.0650212293342939
40
0.289691523269471
40
0.289691523269471
40
0.517236422326114
40
0.517236422326114
40
0.759263521180982
40
0.759263521180982
40
1
40
1
40
1
40
1
41
1
10
46.4564147761644
20
11.5944992610525
30
0
41
1
10
46.4610136905151
20
11.5973640975943
30
0
41
1
10
46.4655272806726
20
11.6004225261769
30
0
41
1
10
46.485014629395
20
11.614738515362
30
0
41
1
10
46.498938076036
20
11.6280879965196
30
0
41
1
10
46.5225368192605
20
11.657191804156
30
0
41
1
10
46.5324665878269
20
11.6733372212274
30
0
41
1
10
46.5478651076117
20
11.707095959625
30
0
41
1
10
46.5532199690477
20
11.7251545254291
30
0
41
1
10
46.5586328116687
20
11.7599319768587
30
0
41
1
10
46.5587905724034
20
11.7770235554795
30
0
41
1
10
46.5566569406305
20
11.7929084177857
30
0
0
SPLINE
5
261
100
AcDbEntity
8
1
62
256
6
ByLayer
370
-1
48
1
60
0
100
AcDbSpline
70
4
71
3
72
18
73
14
40
0
40
0
40
0
40
0
40
0.2133930797378
40
0.2133930797378
40
0.389003177496046
40
0.389003177496046
40
0.566251555260788
40
0.566251555260788
40
0.721174645896042
40
0.721174645896042
40
0.927415342089921
40
0.927415342089921
40
1
40
1
40
1
40
1
41
1
10
45.0954496910949
20
12.6056746553737
30
0
41
1
10
45.1413292753681
20
12.6157000012937
30
0
41
1
10
45.1865080085116
20
12.6327533660665
30
0
41
1
10
45.2611959821669
20
12.6770653706686
30
0
41
1
10
45.2928234864349
20
12.702578309363
30
1E-16
41
1
10
45.3458781496563
20
12.7626776574637
30
1E-16
41
1
10
45.3678609294975
20
12.7983211443362
30
1E-16
41
1
10
45.3957874321687
20
12.8687407700133
30
1E-16
41
1
10
45.4038075959524
20
12.9038667659021
30
1E-16
41
1
10
45.4110193132872
20
12.9847237298697
30
1E-16
41
1
10
45.4067263437052
20
13.0314725262753
30
1E-16
41
1
10
45.3920820076873
20
13.0913255473737
30
1E-16
41
1
10
45.3874018887191
20
13.1068202196599
30
1E-16
41
1
10
45.381962436935
20
13.1220040648331
30
1E-16
0
SPLINE
5
262
100
AcDbEntity
8
1
62
256
6
ByLayer
370
-1
48
1
60
0
100
AcDbSpline
70
4
71
3
72
16
73
12
40
0
40
0
40
0
40
0
40
0.0670553612811637
40
0.0670553612811637
40
0.291697905104273
40
0.291697905104273
40
0.519329228663786
40
0.519329228663786
40
0.761535715028721
40
0.761535715028721
40
1
40
1
40
1
40
1
41
1
10
27.2366789912604
20
1.0218396292625
30
3E-16
41
1
10
27.2366790160048
20
1.02109633792449
30
3E-16
41
1
10
27.2369596058034
20
1.02040899721032
30
3E-16
41
1
10
27.2393764018939
20
1.01769870001823
30
3E-16
41
1
10
27.2444305822716
20
1.01627362304578
30
3E-16
41
1
10
27.2599738261444
20
1.01497582484612
30
3E-16
41
1
10
27.2707178657864
20
1.01510630355907
30
3E-16
41
1
10
27.2968712105774
20
1.01699604423982
30
3E-16
41
1
10
27.312846806391
20
1.01888058852805
30
3E-16
41
1
10
27.3469376848128
20
1.02421133993954
30
3E-16
41
1
10
27.3653601392162
20
1.02768632550163
30
3E-16
41
1
10
27.3841557845405
20
1.03182132496912
30
3E-16
0
SPLINE
5
263
100
AcDbEntity
8
1
62
256
6
ByLayer
370
-1
48
1
60
0
100
AcDbSpline
70
4
71
3
72
16
73
12
40
0
40
0
40
0
40
0
40
0.066863848845529
40
0.066863848845529
40
0.290854271538798
40
0.290854271538798
40
0.517824973971679
40
0.517824973971679
40
0.759328674281762
40
0.759328674281762
40
1
40
1
40
1
40
1
41
1
10
27.7384995079669
20
0.781611494559684
30
3E-16
41
1
10
27.7432415311641
20
0.780084739250583
30
3E-16
41
1
10
27.7481447046634
20
0.778673010840095
30
3E-16
41
1
10
27.769903481443
20
0.773106028222458
30
3E-16
41
1
10
27.7883269385691
20
0.770180821882718
30
3E-16
41
1
10
27.825783295993
20
0.767439247973215
30
3E-16
41
1
10
27.8452951425118
20
0.76762466763023
30
3E-16
41
1
10
27.8839872560557
20
0.771095749332432
30
3E-16
41
1
10
27.9035533806527
20
0.774615113089027
30
3E-16
41
1
10
27.9393998749262
20
0.784490718661942
30
3E-16
41
1
10
27.9560763741137
20
0.79093566946591
30
3E-16
41
1
10
27.9707294519813
20
0.798493363401576
30
3E-16
0
SPLINE
5
264
100
AcDbEntity
8
1
62
256
6
ByLayer
370
-1
48
1
60
0
100
AcDbSpline
70
4
71
3
72
12
73
8
40
0
40
0
40
0
40
0
40
0.464390992171654
40
0.464390992171654
40
0.846401077318517
40
0.846401077318517
40
1
40
1
40
1
40
1
41
1
10
28.5454646615767
20
0.658562242156052
30
4E-16
41
1
10
28.5207523315091
20
0.691454860483191
30
4E-16
41
1
10
28.4900785361873
20
0.723982027439007
30
4E-16
41
1
10
28.4246706466785
20
0.776211102708714
30
4E-16
41
1
10
28.3908118167269
20
0.797635008438107
30
3E-16
41
1
10
28.3396304645719
20
0.82064928810064
30
3E-16
41
1
10
28.3243187988412
20
0.826526948336095
30
3E-16
41
1
10
28.3087339416437
20
0.831470256118735
30
3E-16
0
SPLINE
5
265
100
AcDbEntity
8
1
62
256
6
ByLayer
370
-1
48
1
60
0
100
AcDbSpline
70
4
71
3
72
16
73
12
40
0
40
0
40
0
40
0
40
0.0650212293342891
40
0.0650212293342891
40
0.289691523269468
40
0.289691523269468
40
0.517236422326102
40
0.517236422326102
40
0.759263521180977
40
0.759263521180977
40
1
40
1
40
1
40
1
41
1
10
28.7451193065512
20
0.536529177116279
30
4E-16
41
1
10
28.7497182209019
20
0.53577045778826
30
4E-16
41
1
10
28.7542318110594
20
0.535178460172205
30
4E-16
41
1
10
28.7737191597818
20
0.533311030833914
30
4E-16
41
1
10
28.7876426064228
20
0.533906381107755
30
4E-16
41
1
10
28.8112413496473
20
0.539015662010854
30
4E-16
41
1
10
28.8211711182137
20
0.543637028073874
30
4E-16
41
1
10
28.8365696379985
20
0.556526238845834
30
4E-16
41
1
10
28.8419244994345
20
0.565159447575439
30
4E-16
41
1
10
28.8473373420555
20
0.585013335176455
30
4E-16
41
1
10
28.8474951027902
20
0.596423040987844
30
4E-16
41
1
10
28.8453614710173
20
0.608659634443427
30
4E-16
0
SPLINE
5
266
100
AcDbEntity
8
1
62
256
6
ByLayer
370
-1
48
1
60
0
100
AcDbSpline
70
4
71
3
72
14
73
10
40
0
40
0
40
0
40
0
40
0.284523597312288
40
0.284523597312288
40
0.571736866218024
40
0.571736866218024
40
0.831999616286232
40
0.831999616286232
40
1
40
1
40
1
40
1
41
1
10
27.6706730180125
20
0.894661726535531
30
3E-16
41
1
10
27.6629534935435
20
0.882711244239374
30
3E-16
41
1
10
27.6587022047499
20
0.870260111146479
30
3E-16
41
1
10
27.6586424416161
20
0.845956075013277
30
3E-16
41
1
10
27.6629526226684
20
0.833731254996792
30
3E-16
41
1
10
27.6795743280192
20
0.812540751084413
30
3E-16
41
1
10
27.6913818204952
20
0.80306072296699
30
3E-16
41
1
10
27.7157064291311
20
0.790005894083436
30
3E-16
41
1
10
27.7266574733677
20
0.785424189783441
30
3E-16
41
1
10
27.7384995079669
20
0.781611494559684
30
3E-16
0
SPLINE
5
267
100
AcDbEntity
8
1
62
256
6
ByLayer
370
-1
48
1
60
0
100
AcDbSpline
70
4
71
3
72
12
73
8
40
0
40
0
40
0
40
0
40
0.44242303903337
40
0.44242303903337
40
0.806508616726229
40
0.806508616726229
40
1
40
1
40
1
40
1
41
1
10
27.6706730180125
20
0.894661726535531
30
3E-16
41
1
10
27.6864895135319
20
0.919147010629217
30
3E-16
41
1
10
27.6959708084262
20
0.944261051546277
30
3E-16
41
1
10
27.6979590766985
20
0.986036624182248
30
3E-16
41
1
10
27.6930714395029
20
1.00378345935456
30
3E-16
41
1
10
27.6756127956471
20
1.02548514448765
30
3E-16
41
1
10
27.6675918619669
20
1.03206663343934
30
3E-16
41
1
10
27.6578565234977
20
1.03751451927721
30
3E-16
0
SPLINE
5
268
100
AcDbEntity
8
1
62
256
6
ByLayer
370
-1
48
1
60
0
100
AcDbSpline
70
4
71
3
72
10
73
6
40
0
40
0
40
0
40
0
40
0.561383448291109
40
0.561383448291109
40
1
40
1
40
1
40
1
41
1
10
27.4882549210187
20
1.05060865606191
30
3E-16
41
1
10
27.4696346136762
20
1.04816803505361
30
3E-16
41
1
10
27.4504194450067
20
1.04502508437889
30
3E-16
41
1
10
27.4155735360477
20
1.03850299479646
30
3E-16
41
1
10
27.3999337666429
20
1.03529244535181
30
3E-16
41
1
10
27.3841557845405
20
1.03182132496912
30
3E-16
0
SPLINE
5
269
100
AcDbEntity
8
1
62
256
6
ByLayer
370
-1
48
1
60
0
100
AcDbSpline
70
4
71
3
72
14
73
10
40
0
40
0
40
0
40
0
40
0.284519249123232
40
0.284519249123232
40
0.571733062184456
40
0.571733062184456
40
0.831996244286532
40
0.831996244286532
40
1
40
1
40
1
40
1
41
1
10
29.1318742168574
20
0.606303285056526
30
4E-16
41
1
10
29.1490651211955
20
0.59173972574709
30
4E-16
41
1
10
29.1660388246608
20
0.578276923715862
30
4E-16
41
1
10
29.1965377113735
20
0.555729986854857
30
4E-16
41
1
10
29.2104790142408
20
0.546355369162256
30
4E-16
41
1
10
29.2310901260975
20
0.534266145176389
30
4E-16
41
1
10
29.2386017014452
20
0.530845740055184
30
4E-16
41
1
10
29.2455253258093
20
0.529809629795352
30
4E-16
41
1
10
29.2469320251932
20
0.530545839296764
30
4E-16
41
1
10
29.2469319633961
20
0.532402149738033
30
4E-16
0
SPLINE
5
26A
100
AcDbEntity
8
1
62
256
6
ByLayer
370
-1
48
1
60
0
100
AcDbSpline
70
4
71
3
72
14
73
10
40
0
40
0
40
0
40
0
40
0.284519249123235
40
0.284519249123235
40
0.571733062184447
40
0.571733062184447
40
0.831996244286522
40
0.831996244286522
40
1
40
1
40
1
40
1
41
1
10
27.3841542214817
20
1.07877379392528
30
3E-16
41
1
10
27.3617620625729
20
1.0723453567955
30
3E-16
41
1
10
27.3398449011949
20
1.065856616465
30
3E-16
41
1
10
27.3006886940812
20
1.05346305261358
30
3E-16
41
1
10
27.2829146149663
20
1.04736878212759
30
3E-16
41
1
10
27.2567180456959
20
1.03691538672299
30
3E-16
41
1
10
27.2472124959722
20
1.03228821362433
30
3E-16
41
1
10
27.2384557143144
20
1.02592579515218
30
3E-16
41
1
10
27.2366789294634
20
1.02369593970377
30
3E-16
41
1
10
27.2366789912604
20
1.0218396292625
30
3E-16
0
SPLINE
5
26B
100
AcDbEntity
8
1
62
256
6
ByLayer
370
-1
48
1
60
0
100
AcDbSpline
70
4
71
3
72
12
73
8
40
0
40
0
40
0
40
0
40
0.165392225367656
40
0.165392225367656
40
0.719473651897683
40
0.719473651897683
40
1
40
1
40
1
40
1
41
1
10
29.2469319633961
20
0.532402149738033
30
4E-16
41
1
10
29.2469319386518
20
0.533145441076073
30
4E-16
41
1
10
29.2467098644615
20
0.534068947781577
30
4E-16
41
1
10
29.2447975163246
20
0.538815171018655
30
4E-16
41
1
10
29.2407974136905
20
0.544494451652639
30
4E-16
41
1
10
29.2316206245176
20
0.555356111829838
30
4E-16
41
1
10
29.2279627917805
20
0.559445505910929
30
4E-16
41
1
10
29.2238347900706
20
0.563882590548758
30
4E-16
0
SPLINE
5
26C
100
AcDbEntity
8
1
62
256
6
ByLayer
370
-1
48
1
60
0
100
AcDbSpline
70
4
71
3
72
12
73
8
40
0
40
0
40
0
40
0
40
0.280224799971259
40
0.280224799971259
40
0.812625947040791
40
0.812625947040791
40
1
40
1
40
1
40
1
41
1
10
28.8778525433955
20
0.726542621844033
30
4E-16
41
1
10
28.8688984038292
20
0.721574730999436
30
4E-16
41
1
10
28.8615479611043
20
0.71431603093211
30
4E-16
41
1
10
28.8454457845557
20
0.688262022686985
30
4E-16
41
1
10
28.8409481607734
20
0.664648164534327
30
4E-16
41
1
10
28.8424832475885
20
0.628701990250448
30
4E-16
41
1
10
28.8435869788624
20
0.618836525960234
30
4E-16
41
1
10
28.8453614710173
20
0.608659634443427
30
4E-16
0
SPLINE
5
26D
100
AcDbEntity
8
1
62
256
6
ByLayer
370
-1
48
1
60
0
100
AcDbSpline
70
4
71
3
72
12
73
8
40
0
40
0
40
0
40
0
40
0.37702629084627
40
0.37702629084627
40
0.761056372063249
40
0.761056372063249
40
1
40
1
40
1
40
1
41
1
10
28.2539300656743
20
0.844813388199327
30
3E-16
41
1
10
28.2150720646519
20
0.851493513533995
30
3E-16
41
1
10
28.175177281653
20
0.852339485085565
30
3E-16
41
1
10
28.0995604188451
20
0.84450740340705
30
3E-16
41
1
10
28.0629111602394
20
0.835705398362592
30
3E-16
41
1
10
28.0088374503478
20
0.816571097029055
30
3E-16
41
1
10
27.9891104239976
20
0.807973812628347
30
3E-16
41
1
10
27.9707294519814
20
0.798493363401661
30
3E-16
0
SPLINE
5
26E
100
AcDbEntity
8
1
62
256
6
ByLayer
370
-1
48
1
60
0
100
AcDbSpline
70
4
71
3
72
14
73
10
40
0
40
0
40
0
40
0
40
0.283738489034233
40
0.283738489034233
40
0.570489531030764
40
0.570489531030764
40
0.830294403552165
40
0.830294403552165
40
1
40
1
40
1
40
1
41
1
10
28.5454646615767
20
0.658562242156052
30
4E-16
41
1
10
28.5575094983364
20
0.642530317312634
30
4E-16
41
1
10
28.5726790286233
20
0.626572307770687
30
4E-16
41
1
10
28.6074305361693
20
0.597119945541863
30
4E-16
41
1
10
28.6276123305047
20
0.583204586882772
30
4E-16
41
1
10
28.6676834803815
20
0.561099814296256
30
4E-16
41
1
10
28.6880301165644
20
0.552175162955564
30
4E-16
41
1
10
28.720405256151
20
0.541660548946425
30
4E-16
41
1
10
28.7331237283949
20
0.538508182660649
30
4E-16
41
1
10
28.7451193065512
20
0.536529177116279
30
4E-16
0
SPLINE
5
26F
100
AcDbEntity
8
1
62
256
6
ByLayer
370
-1
48
1
60
0
100
AcDbSpline
70
4
71
3
72
18
73
14
40
0
40
0
40
0
40
0
40
0.213394464779724
40
0.213394464779724
40
0.389004322610666
40
0.389004322610666
40
0.566252444177971
40
0.566252444177971
40
0.721175490823057
40
0.721175490823057
40
0.927416435499184
40
0.927416435499184
40
1
40
1
40
1
40
1
41
1
10
18.8150252832059
20
8.94306558808103
30
-2E-16
41
1
10
18.8308417787253
20
8.98803007233255
30
-2E-16
41
1
10
18.8403230736196
20
9.03560810296943
30
-2E-16
41
1
10
18.8423113418919
20
9.12065273435437
30
-2E-16
41
1
10
18.8374237046963
20
9.15931476459798
30
-2E-16
41
1
10
18.8145299845722
20
9.23021687631797
30
-2E-16
41
1
10
18.7959206629878
20
9.2633142805235
30
-2E-16
41
1
10
18.7509274395867
20
9.31395978152355
30
-2E-16
41
1
10
18.7253483876658
20
9.33362157654659
30
-2E-16
41
1
10
18.6605010411194
20
9.36865707757022
30
-2E-16
41
1
10
18.6185205215805
20
9.38126299253946
30
-2E-16
41
1
10
18.5599258012411
20
9.38978162729273
30
-3E-16
41
1
10
18.5442860318363
20
9.39124368721204
30
-3E-16
41
1
10
18.5285080497339
20
9.3919792230709
30
-3E-16
0
SPLINE
5
270
100
AcDbEntity
8
1
62
256
6
ByLayer
370
-1
48
1
60
0
100
AcDbSpline
70
4
71
3
72
16
73
12
40
0
40
0
40
0
40
0
40
0.0650212293342813
40
0.0650212293342813
40
0.289691523269462
40
0.289691523269462
40
0.517236422326106
40
0.517236422326106
40
0.759263521180982
40
0.759263521180982
40
1
40
1
40
1
40
1
41
1
10
18.8828439132988
20
10.1493088500275
30
-2E-16
41
1
10
18.8782449989481
20
10.1478204081016
30
-2E-16
41
1
10
18.873786442677
20
10.1462133582784
30
-2E-16
41
1
10
18.854785035692
20
10.1386168362425
30
-2E-16
41
1
10
18.8419043680331
20
10.1313392681899
30
-2E-16
41
1
10
18.8215604513043
20
10.1152055138607
30
-2E-16
41
1
10
18.8138971472808
20
10.1061315209815
30
-2E-16
41
1
10
18.8041088470081
20
10.0870321550201
30
-2E-16
41
1
10
18.8022253807069
20
10.0767494294601
30
-2E-16
41
1
10
18.8044225888526
20
10.0569518389955
30
-2E-16
41
1
10
18.8084788896223
20
10.0472263931442
30
-2E-16
41
1
10
18.8150192325152
20
10.0382457960844
30
-2E-16
0
SPLINE
5
271
100
AcDbEntity
8
1
62
256
6
ByLayer
370
-1
48
1
60
0
100
AcDbSpline
70
4
71
3
72
12
73
8
40
0
40
0
40
0
40
0
40
0.377026290639702
40
0.377026290639702
40
0.761056371823061
40
0.761056371823061
40
1
40
1
40
1
40
1
41
1
10
19.4530796491356
20
10.0500479506832
30
-2E-16
41
1
10
19.4908008128473
20
10.0450216152692
30
-2E-16
41
1
10
19.5270687850715
20
10.0415167459623
30
-2E-16
41
1
10
19.5920217299352
20
10.0384613648163
30
-2E-16
41
1
10
19.6214967600746
20
10.0389521445083
30
-2E-16
41
1
10
19.6626060325383
20
10.0432750583745
30
-2E-16
41
1
10
19.6769772374817
20
10.0457926460957
30
-2E-16
41
1
10
19.6898093146445
20
10.049144244086
30
-2E-16
0
SPLINE
5
272
100
AcDbEntity
8
1
62
256
6
ByLayer
370
-1
48
1
60
0
100
AcDbSpline
70
4
71
3
72
12
73
8
40
0
40
0
40
0
40
0
40
0.464390992172126
40
0.464390992172126
40
0.84640107731936
40
0.84640107731936
40
1
40
1
40
1
40
1
41
1
10
19.1150741050492
20
10.1349608993884
30
-2E-16
41
1
10
19.1504725179742
20
10.1195309764515
30
-2E-16
41
1
10
19.19121815429
20
10.1055250153826
30
-2E-16
41
1
10
19.2713109666779
20
10.0834151796736
30
-2E-16
41
1
10
19.3105416703139
20
10.0744474287913
30
-2E-16
41
1
10
19.3660307496099
20
10.0637656991078
30
-2E-16
41
1
10
19.3822212211295
20
10.0608785615748
30
-2E-16
41
1
10
19.3982757731663
20
10.0582309978583
30
-2E-16
0
SPLINE
5
273
100
AcDbEntity
8
1
62
256
6
ByLayer
370
-1
48
1
60
0
100
AcDbSpline
70
4
71
3
72
14
73
10
40
0
40
0
40
0
40
0
40
0.284519249123232
40
0.284519249123232
40
0.571733062184458
40
0.571733062184458
40
0.831996244286523
40
0.831996244286523
40
1
40
1
40
1
40
1
41
1
10
20.2762264820508
20
9.13101844014366
30
-1E-16
41
1
10
20.2934173863889
20
9.12615195993999
30
-1E-16
41
1
10
20.3103910898542
20
9.1246465068744
30
-1E-16
41
1
10
20.3408899765669
20
9.12923578279643
30
-1E-16
41
1
10
20.3548312794342
20
9.13550562951508
30
-1E-16
41
1
10
20.3754423912909
20
9.15450483880832
30
-1E-16
41
1
10
20.3829539666386
20
9.16688493156937
30
-1E-16
41
1
10
20.3898775910027
20
9.19099468814471
30
-1E-16
41
1
10
20.3912842903866
20
9.20157034230215
30
-1E-16
41
1
10
20.3912842285896
20
9.21275565453072
30
-1E-16
0
SPLINE
5
274
100
AcDbEntity
8
1
62
256
6
ByLayer
370
-1
48
1
60
0
100
AcDbSpline
70
4
71
3
72
18
73
14
40
0
40
0
40
0
40
0
40
0.213393079737798
40
0.213393079737798
40
0.389003177496049
40
0.389003177496049
40
0.566251555260788
40
0.566251555260788
40
0.721174645896046
40
0.721174645896046
40
0.927415342089926
40
0.927415342089926
40
1
40
1
40
1
40
1
41
1
10
18.5285064866751
20
9.67489419973694
30
-3E-16
41
1
10
18.5743860709483
20
9.691301345413
30
-3E-16
41
1
10
18.6195648040918
20
9.71250650627718
30
-2E-16
41
1
10
18.6942527777471
20
9.75743157219324
30
-2E-16
41
1
10
18.7258802820151
20
9.78054956653821
30
-2E-16
41
1
10
18.7789349452365
20
9.82875540712857
30
-2E-16
41
1
10
18.8009177250777
20
9.85453122116462
30
-2E-16
41
1
10
18.8288442277489
20
9.9007025505712
30
-2E-16
41
1
10
18.8368643915326
20
9.92194938499654
30
-2E-16
41
1
10
18.8440761088674
20
9.96809052956584
30
-2E-16
41
1
10
18.8397831392854
20
9.99274449517884
30
-2E-16
41
1
10
18.8251388032675
20
10.0230555674657
30
-2E-16
41
1
10
18.8204586842993
20
10.030776841398
30
-2E-16
41
1
10
18.8150192325152
20
10.0382457960843
30
-2E-16
0
SPLINE
5
275
100
AcDbEntity
8
1
62
256
6
ByLayer
370
-1
48
1
60
0
100
AcDbSpline
70
4
71
3
72
16
73
12
40
0
40
0
40
0
40
0
40
0.0670553612811606
40
0.0670553612811606
40
0.291697905104268
40
0.291697905104268
40
0.519329228663784
40
0.519329228663784
40
0.761535715028733
40
0.761535715028733
40
1
40
1
40
1
40
1
41
1
10
20.3912842285896
20
9.21275565453072
30
-1E-16
41
1
10
20.3912842038452
20
9.21723440200083
30
-1E-16
41
1
10
20.3910621296549
20
9.22182879565162
30
-1E-16
41
1
10
20.3891497815181
20
9.24206577873386
30
-1E-16
41
1
10
20.3851496788839
20
9.2588087319852
30
-1E-16
41
1
10
20.3728824274527
20
9.29219408858438
30
-1E-16
41
1
10
20.3644155343628
20
9.30925755606239
30
-1E-16
41
1
10
20.3438934224738
20
9.34255992707165
30
-1E-16
41
1
10
20.3314000512063
20
9.35909881325995
30
-1E-16
41
1
10
20.3049008005971
20
9.38876268622903
30
-1E-16
41
1
10
20.2906547182976
20
9.4022508057534
30
-1E-16
41
1
10
20.276224918992
20
9.4139334168097
30
-1E-16
0
SPLINE
5
276
100
AcDbEntity
8
1
62
256
6
ByLayer
370
-1
48
1
60
0
100
AcDbSpline
70
4
71
3
72
14
73
10
40
0
40
0
40
0
40
0
40
0.283738489034223
40
0.283738489034223
40
0.570489531030779
40
0.570489531030779
40
0.830294403552169
40
0.830294403552169
40
1
40
1
40
1
40
1
41
1
10
19.1150741050492
20
10.1349608993884
30
-2E-16
41
1
10
19.0978208511445
20
10.1424814732266
30
-2E-16
41
1
10
19.0776984943249
20
10.1490317012724
30
-2E-16
41
1
10
19.0342610744286
20
10.1586173333787
30
-2E-16
41
1
10
19.010228165065
20
10.1617401308211
30
-2E-16
41
1
10
18.9645373759783
20
10.1631416876392
30
-2E-16
41
1
10
18.9421801088496
20
10.1618450679295
30
-2E-16
41
1
10
18.9079378584244
20
10.1562957827965
30
-2E-16
41
1
10
18.8948394914551
20
10.1531912274957
30
-2E-16
41
1
10
18.8828439132988
20
10.1493088500275
30
-2E-16
0
SPLINE
5
277
100
AcDbEntity
8
1
62
256
6
ByLayer
370
-1
48
1
60
0
100
AcDbSpline
70
4
71
3
72
18
73
14
40
0
40
0
40
0
40
0
40
0.213393079737796
40
0.213393079737796
40
0.389003177496046
40
0.389003177496046
40
0.566251555260788
40
0.566251555260788
40
0.721174645896043
40
0.721174645896043
40
0.927415342089921
40
0.927415342089921
40
1
40
1
40
1
40
1
41
1
10
20.2762264820508
20
9.13101844014366
30
-1E-16
41
1
10
20.241003815602
20
9.14098943443358
30
-1E-16
41
1
10
20.2058626124797
20
9.14462929688443
30
-2E-16
41
1
10
20.1457935613009
20
9.13588917577047
30
-2E-16
41
1
10
20.1195053463776
20
9.12598705903446
30
-2E-16
41
1
10
20.0725301792526
20
9.09282926531782
30
-2E-16
41
1
10
20.0512477928465
20
9.0687870741142
30
-2E-16
41
1
10
20.019856168623
20
9.01403883130612
30
-2E-16
41
1
10
20.0082773869812
20
8.98398366022155
30
-2E-16
41
1
10
19.9897980497491
20
8.90995275806642
30
-2E-16
41
1
10
19.9853004259667
20
8.86354020277759
30
-2E-16
41
1
10
19.9868355127819
20
8.80078094837867
30
-2E-16
41
1
10
19.9879392440558
20
8.78420735366049
30
-2E-16
41
1
10
19.9897137362107
20
8.76766684379626
30
-2E-16
0
SPLINE
5
278
100
AcDbEntity
8
1
62
256
6
ByLayer
370
-1
48
1
60
0
100
AcDbSpline
70
4
71
3
72
18
73
14
40
0
40
0
40
0
40
0
40
0.213394464779721
40
0.213394464779721
40
0.389004322610662
40
0.389004322610662
40
0.566252444177962
40
0.566252444177962
40
0.721175490823054
40
0.721175490823054
40
0.927416435499177
40
0.927416435499177
40
1
40
1
40
1
40
1
41
1
10
19.98970768552
20
9.86284705179958
30
-2E-16
41
1
10
19.9845481771507
20
9.84426087910998
30
-2E-16
41
1
10
19.9851044751594
20
9.82152802743386
30
-2E-16
41
1
10
19.9977351254173
20
9.7726683310832
30
-2E-16
41
1
10
20.0079620174985
20
9.74722209315453
30
-2E-16
41
1
10
20.0369351663685
20
9.69136786160163
30
-2E-16
41
1
10
20.0562448485915
20
9.66000399905022
30
-2E-16
41
1
10
20.0977729069387
20
9.60078147697305
30
-2E-16
41
1
10
20.1197933230395
20
9.57231130083125
30
-2E-16
41
1
10
20.1733730097167
20
9.50938594328284
30
-2E-16
41
1
10
20.2065629100582
20
9.47502137469536
30
-2E-16
41
1
10
20.2520484066264
20
9.43405462077837
30
-1E-16
41
1
10
20.264111841135
20
9.42374037075973
30
-1E-16
41
1
10
20.276224918992
20
9.4139334168097
30
-1E-16
0
SPLINE
5
279
100
AcDbEntity
8
1
62
256
6
ByLayer
370
-1
48
1
60
0
100
AcDbSpline
70
4
71
3
72
14
73
10
40
0
40
0
40
0
40
0
40
0.284519249123235
40
0.284519249123235
40
0.571733062184445
40
0.571733062184445
40
0.831996244286517
40
0.831996244286517
40
1
40
1
40
1
40
1
41
1
10
18.5285064866751
20
9.67489419973694
30
-3E-16
41
1
10
18.5061143277663
20
9.66688646777862
30
-3E-16
41
1
10
18.4841971663883
20
9.65615581028339
30
-3E-16
41
1
10
18.4450409592746
20
9.63013782363726
30
-3E-16
41
1
10
18.4272668801597
20
9.61438103989016
30
-3E-16
41
1
10
18.4010703108893
20
9.58155663461994
30
-3E-16
41
1
10
18.3915647611656
20
9.56424103085629
30
-3E-16
41
1
10
18.3828079795079
20
9.53559381978693
30
-3E-16
41
1
10
18.3810311946568
20
9.5241021253247
30
-3E-16
41
1
10
18.3810312564538
20
9.51291681309613
30
-3E-16
0
SPLINE
5
27A
100
AcDbEntity
8
1
62
256
6
ByLayer
370
-1
48
1
60
0
100
AcDbSpline
70
4
71
3
72
14
73
10
40
0
40
0
40
0
40
0
40
0.283738489034228
40
0.283738489034228
40
0.570489531030761
40
0.570489531030761
40
0.830294403552164
40
0.830294403552164
40
1
40
1
40
1
40
1
41
1
10
19.6898169267701
20
8.67134298029254
30
-2E-16
41
1
10
19.7018617635298
20
8.65093046539621
30
-2E-16
41
1
10
19.7170312938167
20
8.63212093746097
30
-2E-16
41
1
10
19.7517828013626
20
8.60103582347008
30
-2E-16
41
1
10
19.7719645956982
20
8.58838069661408
30
-2E-16
41
1
10
19.8120357455749
20
8.5730693365976
30
-2E-16
41
1
10
19.8323823817578
20
8.56938921674899
30
-2E-16
41
1
10
19.8647575213444
20
8.5703170051373
30
-2E-16
41
1
10
19.8774759935883
20
8.5724812401312
30
-2E-16
41
1
10
19.8894715717446
20
8.57636361759938
30
-2E-16
0
SPLINE
5
27B
100
AcDbEntity
8
1
62
256
6
ByLayer
370
-1
48
1
60
0
100
AcDbSpline
70
4
71
3
72
14
73
10
40
0
40
0
40
0
40
0
40
0.284523597312289
40
0.284523597312289
40
0.57173686621803
40
0.57173686621803
40
0.831999616286236
40
0.831999616286236
40
1
40
1
40
1
40
1
41
1
10
19.98970768552
20
9.86284705179958
30
-2E-16
41
1
10
19.9922258761682
20
9.87191836691403
30
-2E-16
41
1
10
19.991533634592
20
9.88305984819806
30
-2E-16
41
1
10
19.9829360549915
20
9.90789756617573
30
-2E-16
41
1
10
19.9747931260124
20
9.92200671287799
30
-2E-16
41
1
10
19.9525860160078
20
9.94928077851168
30
-2E-16
41
1
10
19.9387845748567
20
9.96281751857171
30
-2E-16
41
1
10
19.9126268611469
20
9.98366107689702
30
-2E-16
41
1
10
19.9013057464822
20
9.9916362533227
30
-2E-16
41
1
10
19.889463711883
20
9.99900529661105
30
-2E-16
0
SPLINE
5
27C
100
AcDbEntity
8
1
62
256
6
ByLayer
370
-1
48
1
60
0
100
AcDbSpline
70
4
71
3
72
12
73
8
40
0
40
0
40
0
40
0
40
0.46439099217164
40
0.46439099217164
40
0.846401077318517
40
0.846401077318517
40
1
40
1
40
1
40
1
41
1
10
19.6898169267701
20
8.67134298029254
30
-2E-16
41
1
10
19.6651045967025
20
8.71322323285986
30
-2E-16
41
1
10
19.6344308013807
20
8.75215914420454
30
-2E-16
41
1
10
19.5690229118719
20
8.81061728976067
30
-2E-16
41
1
10
19.5351640819203
20
8.83288157142826
30
-2E-16
41
1
10
19.4839827297653
20
8.85422584269563
30
-2E-16
41
1
10
19.4686710640346
20
8.85928821161207
30
-2E-16
41
1
10
19.4530862068371
20
8.86309837003151
30
-2E-16
0
SPLINE
5
27D
100
AcDbEntity
8
1
62
256
6
ByLayer
370
-1
48
1
60
0
100
AcDbSpline
70
4
71
3
72
16
73
12
40
0
40
0
40
0
40
0
40
0.0650212293342883
40
0.0650212293342883
40
0.289691523269465
40
0.289691523269465
40
0.517236422326108
40
0.517236422326108
40
0.759263521180973
40
0.759263521180973
40
1
40
1
40
1
40
1
41
1
10
19.8894715717446
20
8.57636361759938
30
-2E-16
41
1
10
19.8940704860953
20
8.57785205952527
30
-2E-16
41
1
10
19.8985840762528
20
8.57959532993144
30
-2E-16
41
1
10
19.9180714249752
20
8.58839466120136
30
-2E-16
41
1
10
19.9319948716162
20
8.59825332919269
30
-2E-16
41
1
10
19.9555936148407
20
8.6224434718961
30
-2E-16
41
1
10
19.9655233834071
20
8.63712744694172
30
-2E-16
41
1
10
19.9809219031919
20
8.6701133003441
30
-2E-16
41
1
10
19.9862767646279
20
8.68898846775781
30
-2E-16
41
1
10
19.9916896072489
20
8.72762255368744
30
-2E-16
41
1
10
19.9918473679836
20
8.7477786987352
30
-2E-16
41
1
10
19.9897137362107
20
8.76766684379623
30
-2E-16
0
SPLINE
5
27E
100
AcDbEntity
8
1
62
256
6
ByLayer
370
-1
48
1
60
0
100
AcDbSpline
70
4
71
3
72
12
73
8
40
0
40
0
40
0
40
0
40
0.377026290846267
40
0.377026290846267
40
0.761056372063258
40
0.761056372063258
40
1
40
1
40
1
40
1
41
1
10
19.3982823308678
20
8.8712814172066
30
-2E-16
41
1
10
19.3594243298453
20
8.87349383835146
30
-2E-16
41
1
10
19.3195295468464
20
8.86802157906408
30
-2E-16
41
1
10
19.2439126840385
20
8.84468149348547
30
-2E-16
41
1
10
19.2072634254328
20
8.82643297127996
30
-2E-16
41
1
10
19.1531897155412
20
8.79002031521162
30
-2E-16
41
1
10
19.1334626891909
20
8.77424592947128
30
-2E-16
41
1
10
19.1150817171748
20
8.75715963559497
30
-2E-16
0
SPLINE
5
27F
100
AcDbEntity
8
1
62
256
6
ByLayer
370
-1
48
1
60
0
100
AcDbSpline
70
4
71
3
72
16
73
12
40
0
40
0
40
0
40
0
40
0.0668638488455205
40
0.0668638488455205
40
0.290854271538795
40
0.290854271538795
40
0.517824973971681
40
0.517824973971681
40
0.759328674281769
40
0.759328674281769
40
1
40
1
40
1
40
1
41
1
10
18.8828517731603
20
8.72666717101578
30
-2E-16
41
1
10
18.8875937963575
20
8.72371631202935
30
-2E-16
41
1
10
18.8924969698568
20
8.72099319463783
30
-2E-16
41
1
10
18.9142557466364
20
8.71027898696246
30
-2E-16
41
1
10
18.9326792037626
20
8.70472297576563
30
-2E-16
41
1
10
18.9701355611864
20
8.69962223846022
30
-2E-16
41
1
10
18.9896474077052
20
8.700079766709
30
-2E-16
41
1
10
19.028339521249
20
8.70676692514704
30
-2E-16
41
1
10
19.0479056458462
20
8.71342926118268
30
-2E-16
41
1
10
19.0837521401196
20
8.73173393765092
30
-2E-16
41
1
10
19.1004286393071
20
8.74353865872712
30
-2E-16
41
1
10
19.1150817171747
20
8.75715963559483
30
-2E-16
0
SPLINE
5
280
100
AcDbEntity
8
1
62
256
6
ByLayer
370
-1
48
1
60
0
100
AcDbSpline
70
4
71
3
72
16
73
12
40
0
40
0
40
0
40
0
40
0.0670553612811634
40
0.0670553612811634
40
0.291697905104268
40
0.291697905104268
40
0.519329228663783
40
0.519329228663783
40
0.761535715028708
40
0.761535715028708
40
1
40
1
40
1
40
1
41
1
10
18.3810312564538
20
9.51291681309613
30
-3E-16
41
1
10
18.3810312811982
20
9.50843806562602
30
-3E-16
41
1
10
18.3813118709968
20
9.50398851056104
30
-3E-16
41
1
10
18.3837286670873
20
9.48500014353709
30
-3E-16
41
1
10
18.388782847465
20
9.47086625706402
30
-3E-16
41
1
10
18.4043260913378
20
9.44558967906059
30
-3E-16
41
1
10
18.4150701309798
20
9.43416263399519
30
-3E-16
41
1
10
18.4412234757708
20
9.41479876303981
30
-3E-16
41
1
10
18.4571990715844
20
9.40687912380309
30
-3E-16
41
1
10
18.4912899500062
20
9.39600614556633
30
-3E-16
41
1
10
18.5097124044096
20
9.39285543595014
30
-3E-16
41
1
10
18.5285080497339
20
9.3919792230709
30
-3E-16
0
SPLINE
5
281
100
AcDbEntity
8
1
62
256
6
ByLayer
370
-1
48
1
60
0
100
AcDbSpline
70
4
71
3
72
14
73
10
40
0
40
0
40
0
40
0
40
0.284523597312279
40
0.284523597312279
40
0.571736866218017
40
0.571736866218017
40
0.831999616286222
40
0.831999616286222
40
1
40
1
40
1
40
1
41
1
10
18.8150252832059
20
8.94306558808103
30
-2E-16
41
1
10
18.8073057587369
20
8.92111986464374
30
-2E-16
41
1
10
18.8030544699433
20
8.897742093452
30
-2E-16
41
1
10
18.8029947068095
20
8.85147560947075
30
-2E-16
41
1
10
18.8073048878619
20
8.82787959584013
30
-2E-16
41
1
10
18.8239265932126
20
8.78678046482119
30
-2E-16
41
1
10
18.8357340856886
20
8.76830827737379
30
-2E-16
41
1
10
18.8600586943245
20
8.74292739380968
30
-2E-16
41
1
10
18.8710097385611
20
8.73403621430413
30
-2E-16
41
1
10
18.8828517731603
20
8.72666717101578
30
-2E-16
0
SPLINE
5
282
100
AcDbEntity
8
1
62
256
6
ByLayer
370
-1
48
1
60
0
100
AcDbSpline
70
4
71
3
72
16
73
12
40
0
40
0
40
0
40
0
40
0.0668638488454774
40
0.0668638488454774
40
0.290854271538579
40
0.290854271538579
40
0.517824973971253
40
0.517824973971253
40
0.759328674281163
40
0.759328674281163
40
1
40
1
40
1
40
1
41
1
10
19.889463711883
20
9.99900529661105
30
-2E-16
41
1
10
19.8847216886858
20
10.0019561555975
30
-2E-16
41
1
10
19.8798770362537
20
10.0048241250863
30
-2E-16
41
1
10
19.8586227361586
20
10.016787019935
30
-2E-16
41
1
10
19.8412533742159
20
10.0249521410778
30
-2E-16
41
1
10
19.8070730419134
20
10.0381617378683
30
-2E-16
41
1
10
19.7898383584424
20
10.0433406728623
30
-2E-16
41
1
10
19.7567775102545
20
10.0505920948086
30
-2E-16
41
1
10
19.7406936269289
20
10.0525490471237
30
-2E-16
41
1
10
19.7124837739562
20
10.0531466833522
30
-2E-16
41
1
10
19.7000388838706
20
10.0518160955115
30
-2E-16
41
1
10
19.6898093146445
20
10.049144244086
30
-2E-16
0
LINE
5
48
100
AcDbEntity
8
80
62
256
6
ByLayer
370
-1
48
1
60
0
100
AcDbLine
10
0
20
0
30
0
11
-10
21
0
31
0
39
0
210
0
220
0
230
1
0
LINE
5
49
100
AcDbEntity
8
SK1
62
256
6
ByLayer
370
-1
48
1
60
0
100
AcDbLine
10
0
20
15.996
30
0
11
-59.5
21
15.996
31
0
39
0
210
0
220
0
230
1
0
LINE
5
4B
100
AcDbEntity
8
SK1
62
256
6
ByLayer
370
-1
48
1
60
0
100
AcDbLine
10
-59.5
20
-15.996
30
0
11
0
21
-15.996
31
0
39
0
210
0
220
0
230
1
0
LINE
5
4C
100
AcDbEntity
8
SK1
62
256
6
ByLayer
370
-1
48
1
60
0
100
AcDbLine
10
-59.5
20
15.996
30
0
11
-61
21
14.496
31
0
39
0
210
0
220
0
230
1
0
LINE
5
4D
100
AcDbEntity
8
SK1
62
256
6
ByLayer
370
-1
48
1
60
0
100
AcDbLine
10
-61
20
-14.496
30
0
11
-59.5
21
-15.996
31
0
39
0
210
0
220
0
230
1
0
LINE
5
4E
100
AcDbEntity
8
1
62
256
6
ByLayer
370
-1
48
1
60
0
100
AcDbLine
10
28.85918
20
0.734438
30
0
11
28.845022
21
0.677296
31
0
39
0
210
0
220
0
230
1
0
LINE
5
50
100
AcDbEntity
8
1
62
256
6
ByLayer
370
-1
48
1
60
0
100
AcDbLine
10
27.693345
20
0.94386
30
0
11
27.712682
21
1.021905
31
0
39
0
210
0
220
0
230
1
0
LINE
5
51
100
AcDbEntity
8
1
62
256
6
ByLayer
370
-1
48
1
60
0
100
AcDbLine
10
1.258155
20
15.996
30
0
11
0
21
15.996
31
0
39
0
210
0
220
0
230
1
0
LINE
5
52
100
AcDbEntity
8
1
62
256
6
ByLayer
370
-1
48
1
60
0
100
AcDbLine
10
0
20
-15.996
30
0
11
1.258155
21
-15.996
31
0
39
0
210
0
220
0
230
1
0
LINE
5
53
100
AcDbEntity
8
1
62
256
6
ByLayer
370
-1
48
1
60
0
100
AcDbLine
10
1.258155
20
-15.996
30
0
11
2.590126
21
-14.664029
31
0
39
0
210
0
220
0
230
1
0
LINE
5
54
100
AcDbEntity
8
1
62
256
6
ByLayer
370
-1
48
1
60
0
100
AcDbLine
10
2.590126
20
14.664029
30
0
11
1.258155
21
15.996
31
0
39
0
210
0
220
0
230
1
0
LINE
5
55
100
AcDbEntity
8
1
62
256
6
ByLayer
370
-1
48
1
60
0
100
AcDbLine
10
15.677208
20
14.429714
30
0
11
3.155812
21
14.429714
31
0
39
0
210
0
220
0
230
1
0
LINE
5
56
100
AcDbEntity
8
1
62
256
6
ByLayer
370
-1
48
1
60
0
100
AcDbLine
10
3.155812
20
-14.429715
30
0
11
15.677208
21
-14.429715
31
0
39
0
210
0
220
0
230
1
0
LINE
5
57
100
AcDbEntity
8
1
62
256
6
ByLayer
370
-1
48
1
60
0
100
AcDbLine
10
16.258155
20
-14.679714
30
0
11
16.713569
21
-15.164395
31
0
39
0
210
0
220
0
230
1
0
LINE
5
58
100
AcDbEntity
8
1
62
256
6
ByLayer
370
-1
48
1
60
0
100
AcDbLine
10
30.115643
20
14.873619
30
0
11
23.269556
21
14.873619
31
0
39
0
210
0
220
0
230
1
0
LINE
5
59
100
AcDbEntity
8
1
62
256
6
ByLayer
370
-1
48
1
60
0
100
AcDbLine
10
23.269556
20
-14.873619
30
0
11
30.116674
21
-14.873619
31
0
39
0
210
0
220
0
230
1
0
LINE
5
5A
100
AcDbEntity
8
1
62
256
6
ByLayer
370
-1
48
1
60
0
100
AcDbLine
10
20.342517
20
15.222853
30
0
11
16.713569
21
15.164395
31
0
39
0
210
0
220
0
230
1
0
LINE
5
5B
100
AcDbEntity
8
1
62
256
6
ByLayer
370
-1
48
1
60
0
100
AcDbLine
10
16.713569
20
15.164395
30
0
11
16.258155
21
14.679714
31
0
39
0
210
0
220
0
230
1
0
LINE
5
5C
100
AcDbEntity
8
1
62
256
6
ByLayer
370
-1
48
1
60
0
100
AcDbLine
10
16.713569
20
-15.164395
30
0
11
20.342517
21
-15.222853
31
0
39
0
210
0
220
0
230
1
0
LINE
5
5D
100
AcDbEntity
8
1
62
256
6
ByLayer
370
-1
48
1
60
0
100
AcDbLine
10
21.063743
20
8.926305
30
0
11
21.068703
21
8.945338
31
0
39
0
210
0
220
0
230
1
0
LINE
5
5E
100
AcDbEntity
8
1
62
256
6
ByLayer
370
-1
48
1
60
0
100
AcDbLine
10
17.786584
20
9.985705
30
0
11
17.781486
21
9.966143
31
0
39
0
210
0
220
0
230
1
0
LINE
5
5F
100
AcDbEntity
8
1
62
256
6
ByLayer
370
-1
48
1
60
0
100
AcDbLine
10
17.904236
20
10.299796
30
0
11
17.82824
21
10.11169
31
0
39
0
210
0
220
0
230
1
0
LINE
5
60
100
AcDbEntity
8
1
62
256
6
ByLayer
370
-1
48
1
60
0
100
AcDbLine
10
18.829884
20
9.9067
30
0
11
18.931867
21
10.15913
31
0
39
0
210
0
220
0
230
1
0
LINE
5
61
100
AcDbEntity
8
1
62
256
6
ByLayer
370
-1
48
1
60
0
100
AcDbLine
10
20.208471
20
9.477476
30
0
11
20.015835
21
9.000661
31
0
39
0
210
0
220
0
230
1
0
LINE
5
62
100
AcDbEntity
8
1
62
256
6
ByLayer
370
-1
48
1
60
0
100
AcDbLine
10
45.176979
20
10.924922
30
0
11
45.350164
21
10.8317
31
0
39
0
210
0
220
0
230
1
0
LINE
5
63
100
AcDbEntity
8
1
62
256
6
ByLayer
370
-1
48
1
60
0
100
AcDbLine
10
46.764059
20
12.691604
30
0
11
46.925726
21
12.604582
31
0
39
0
210
0
220
0
230
1
0
LINE
5
64
100
AcDbEntity
8
1
62
256
6
ByLayer
370
-1
48
1
60
0
100
AcDbLine
10
46.364271
20
11.565846
30
0
11
46.181538
21
11.664207
31
0
39
0
210
0
220
0
230
1
0
LINE
5
65
100
AcDbEntity
8
1
62
256
6
ByLayer
370
-1
48
1
60
0
100
AcDbLine
10
45.407397
20
12.097977
30
0
11
45.195604
21
12.211981
31
0
39
0
210
0
220
0
230
1
0
LINE
5
66
100
AcDbEntity
8
1
62
256
6
ByLayer
370
-1
48
1
60
0
100
AcDbLine
10
45.781493
20
13.237565
30
0
11
45.991602
21
13.124467
31
0
39
0
210
0
220
0
230
1
0
LINE
5
67
100
AcDbEntity
8
1
62
256
6
ByLayer
370
-1
48
1
60
0
100
AcDbLine
10
29.95165
20
0.504064
30
0
11
29.957743
21
0.530031
31
0
39
0
210
0
220
0
230
1
0
LINE
5
68
100
AcDbEntity
8
1
62
256
6
ByLayer
370
-1
48
1
60
0
100
AcDbLine
10
26.608839
20
1.359077
30
0
11
26.603008
21
1.334223
31
0
39
0
210
0
220
0
230
1
0
LINE
5
69
100
AcDbEntity
8
81
62
256
6
ByLayer
370
-1
48
1
60
0
100
AcDbLine
10
51.7
20
15.92
30
0
11
61.7
21
15.92
31
0
39
0
210
0
220
0
230
1
0
LINE
5
6A
100
AcDbEntity
8
1
62
256
6
ByLayer
370
-1
48
1
60
0
100
AcDbLine
10
0
20
-15.996
30
0
11
0
21
15.996
31
0
39
0
210
0
220
0
230
1
0
LINE
5
6B
100
AcDbEntity
8
1
62
256
6
ByLayer
370
-1
48
1
60
0
100
AcDbLine
10
43.206806
20
-8.790864
30
0
11
43.170844
21
-8.816595
31
0
39
0
210
0
220
0
230
1
0
LINE
5
6C
100
AcDbEntity
8
1
62
256
6
ByLayer
370
-1
48
1
60
0
100
AcDbLine
10
43.280512
20
-14.10305
30
0
11
43.280512
21
-11.115898
31
0
39
0
210
0
220
0
230
1
0
LINE
5
6D
100
AcDbEntity
8
1
62
256
6
ByLayer
370
-1
48
1
60
0
100
AcDbLine
10
31.995001
20
4.036175
30
0
11
31.995001
21
4.056565
31
0
39
0
210
0
220
0
230
1
0
LINE
5
6E
100
AcDbEntity
8
1
62
256
6
ByLayer
370
-1
48
1
60
0
100
AcDbLine
10
41.786753
20
8.42
30
0
11
42.187384
21
8.42
31
0
39
0
210
0
220
0
230
1
0
LINE
5
6F
100
AcDbEntity
8
1
62
256
6
ByLayer
370
-1
48
1
60
0
100
AcDbLine
10
49.705323
20
-11.030056
30
0
11
49.969029
21
-10.888108
31
0
39
0
210
0
220
0
230
1
0
LINE
5
70
100
AcDbEntity
8
1
62
256
6
ByLayer
370
-1
48
1
60
0
100
AcDbLine
10
11.971646
20
10.241456
30
0
11
11.740938
21
11.811288
31
0
39
0
210
0
220
0
230
1
0
LINE
5
71
100
AcDbEntity
8
1
62
256
6
ByLayer
370
-1
48
1
60
0
100
AcDbLine
10
50.908122
20
7.920494
30
0
11
50.908122
21
9.212582
31
0
39
0
210
0
220
0
230
1
0
LINE
5
72
100
AcDbEntity
8
1
62
256
6
ByLayer
370
-1
48
1
60
0
100
AcDbLine
10
51.095849
20
7.92
30
0
11
41.7
21
7.92
31
0
39
0
210
0
220
0
230
1
0
LINE
5
73
100
AcDbEntity
8
1
62
256
6
ByLayer
370
-1
48
1
60
0
100
AcDbLine
10
24.723581
20
12.964982
30
0
11
24.845321
21
11.523526
31
0
39
0
210
0
220
0
230
1
0
LINE
5
74
100
AcDbEntity
8
1
62
256
6
ByLayer
370
-1
48
1
60
0
100
AcDbLine
10
25.02863
20
9.353066
30
0
11
25.051341
21
9.084154
31
0
39
0
210
0
220
0
230
1
0
LINE
5
75
100
AcDbEntity
8
1
62
256
6
ByLayer
370
-1
48
1
60
0
100
AcDbLine
10
23.139353
20
-12.23445
30
0
11
23.139353
21
-14.935767
31
0
39
0
210
0
220
0
230
1
0
LINE
5
76
100
AcDbEntity
8
1
62
256
6
ByLayer
370
-1
48
1
60
0
100
AcDbLine
10
33.923339
20
2.90726
30
0
11
33.991087
21
2.759319
31
0
39
0
210
0
220
0
230
1
0
LINE
5
77
100
AcDbEntity
8
1
62
256
6
ByLayer
370
-1
48
1
60
0
100
AcDbLine
10
50.912284
20
9.224858
30
0
11
50.912284
21
7.933619
31
0
39
0
210
0
220
0
230
1
0
LINE
5
78
100
AcDbEntity
8
1
62
256
6
ByLayer
370
-1
48
1
60
0
100
AcDbLine
10
40.850649
20
8.588339
30
0
11
40.850649
21
2.62995
31
0
39
0
210
0
220
0
230
1
0
LINE
5
79
100
AcDbEntity
8
1
62
256
6
ByLayer
370
-1
48
1
60
0
100
AcDbLine
10
20.315849
20
6.334025
30
0
11
20.296164
21
6.285302
31
0
39
0
210
0
220
0
230
1
0
LINE
5
7A
100
AcDbEntity
8
1
62
256
6
ByLayer
370
-1
48
1
60
0
100
AcDbLine
10
25.52532
20
12.918623
30
0
11
25.717596
21
10.641994
31
0
39
0
210
0
220
0
230
1
0
LINE
5
7B
100
AcDbEntity
8
1
62
256
6
ByLayer
370
-1
48
1
60
0
100
AcDbLine
10
31.995001
20
11.924399
30
0
11
31.995001
21
11.121939
31
0
39
0
210
0
220
0
230
1
0
LINE
5
7C
100
AcDbEntity
8
1
62
256
6
ByLayer
370
-1
48
1
60
0
100
AcDbLine
10
42.587861
20
-8.779887
30
0
11
43.170844
21
-8.816595
31
0
39
0
210
0
220
0
230
1
0
LINE
5
7D
100
AcDbEntity
8
1
62
256
6
ByLayer
370
-1
48
1
60
0
100
AcDbLine
10
25.569217
20
10.309886
30
0
11
25.569217
21
5.567136
31
0
39
0
210
0
220
0
230
1
0
LINE
5
7E
100
AcDbEntity
8
1
62
256
6
ByLayer
370
-1
48
1
60
0
100
AcDbLine
10
40.850649
20
1.692879
30
0
11
40.850649
21
0.918169
31
0
39
0
210
0
220
0
230
1
0
LINE
5
7F
100
AcDbEntity
8
1
62
256
6
ByLayer
370
-1
48
1
60
0
100
AcDbLine
10
24.69749
20
5.099396
30
0
11
24.442449
21
5.14968
31
0
39
0
210
0
220
0
230
1
0
LINE
5
80
100
AcDbEntity
8
1
62
256
6
ByLayer
370
-1
48
1
60
0
100
AcDbLine
10
43.170844
20
-8.816595
30
0
11
43.527724
21
-7.987448
31
0
39
0
210
0
220
0
230
1
0
LINE
5
81
100
AcDbEntity
8
1
62
256
6
ByLayer
370
-1
48
1
60
0
100
AcDbLine
10
23.221193
20
-14.833703
30
0
11
23.236606
21
-14.871854
31
0
39
0
210
0
220
0
230
1
0
LINE
5
82
100
AcDbEntity
8
1
62
256
6
ByLayer
370
-1
48
1
60
0
100
AcDbLine
10
23.139353
20
13.274756
30
0
11
23.139353
21
15.20234
31
0
39
0
210
0
220
0
230
1
0
LINE
5
83
100
AcDbEntity
8
1
62
256
6
ByLayer
370
-1
48
1
60
0
100
AcDbLine
10
31.995001
20
14.720663
30
0
11
31.995001
21
12.511861
31
0
39
0
210
0
220
0
230
1
0
LINE
5
84
100
AcDbEntity
8
1
62
256
6
ByLayer
370
-1
48
1
60
0
100
AcDbLine
10
15.677208
20
-3.715215
30
0
11
15.677208
21
-14.429715
31
0
39
0
210
0
220
0
230
1
0
LINE
5
85
100
AcDbEntity
8
1
62
256
6
ByLayer
370
-1
48
1
60
0
100
AcDbLine
10
41.705587
20
-14.058645
30
0
11
42.536395
21
-11.14334
31
0
39
0
210
0
220
0
230
1
0
LINE
5
86
100
AcDbEntity
8
1
62
256
6
ByLayer
370
-1
48
1
60
0
100
AcDbLine
10
42.81215
20
-10.175714
30
0
11
43.206806
21
-8.790864
31
0
39
0
210
0
220
0
230
1
0
LINE
5
87
100
AcDbEntity
8
1
62
256
6
ByLayer
370
-1
48
1
60
0
100
AcDbLine
10
44.158118
20
-8.69794
30
0
11
44.171504
21
-8.69794
31
0
39
0
210
0
220
0
230
1
0
LINE
5
88
100
AcDbEntity
8
1
62
256
6
ByLayer
370
-1
48
1
60
0
100
AcDbLine
10
15.133057
20
7.011706
30
0
11
14.976592
21
7.136557
31
0
39
0
210
0
220
0
230
1
0
LINE
5
89
100
AcDbEntity
8
1
62
256
6
ByLayer
370
-1
48
1
60
0
100
AcDbLine
10
13.65642
20
7.228947
30
0
11
11.884771
21
9.568453
31
0
39
0
210
0
220
0
230
1
0
LINE
5
8A
100
AcDbEntity
8
1
62
256
6
ByLayer
370
-1
48
1
60
0
100
AcDbLine
10
16.713569
20
15.164395
30
0
11
16.713569
21
13.909331
31
0
39
0
210
0
220
0
230
1
0
LINE
5
8B
100
AcDbEntity
8
1
62
256
6
ByLayer
370
-1
48
1
60
0
100
AcDbLine
10
19.648985
20
6.395473
30
0
11
20.315849
21
6.334025
31
0
39
0
210
0
220
0
230
1
0
LINE
5
8C
100
AcDbEntity
8
1
62
256
6
ByLayer
370
-1
48
1
60
0
100
AcDbLine
10
24.809674
20
5.75265
30
0
11
24.937799
21
5.472861
31
0
39
0
210
0
220
0
230
1
0
LINE
5
8D
100
AcDbEntity
8
1
62
256
6
ByLayer
370
-1
48
1
60
0
100
AcDbLine
10
16.713569
20
-14.935767
30
0
11
23.139353
21
-14.935767
31
0
39
0
210
0
220
0
230
1
0
LINE
5
8E
100
AcDbEntity
8
1
62
256
6
ByLayer
370
-1
48
1
60
0
100
AcDbLine
10
44.146335
20
-9.152912
30
0
11
44.180505
21
-8.85387
31
0
39
0
210
0
220
0
230
1
0
LINE
5
8F
100
AcDbEntity
8
1
62
256
6
ByLayer
370
-1
48
1
60
0
100
AcDbLine
10
11.740938
20
11.811288
30
0
11
10.004311
21
11.811288
31
0
39
0
210
0
220
0
230
1
0
LINE
5
90
100
AcDbEntity
8
1
62
256
6
ByLayer
370
-1
48
1
60
0
100
AcDbLine
10
24.661798
20
5.044059
30
0
11
24.24614
21
5.141316
31
0
39
0
210
0
220
0
230
1
0
LINE
5
91
100
AcDbEntity
8
1
62
256
6
ByLayer
370
-1
48
1
60
0
100
AcDbLine
10
31.995001
20
11.924399
30
0
11
31.995001
21
12.504878
31
0
39
0
210
0
220
0
230
1
0
LINE
5
92
100
AcDbEntity
8
1
62
256
6
ByLayer
370
-1
48
1
60
0
100
AcDbLine
10
15.133057
20
7.242117
30
0
11
14.976592
21
7.136557
31
0
39
0
210
0
220
0
230
1
0
LINE
5
93
100
AcDbEntity
8
1
62
256
6
ByLayer
370
-1
48
1
60
0
100
AcDbLine
10
40.850649
20
-7.536632
30
0
11
40.850649
21
-1.406681
31
0
39
0
210
0
220
0
230
1
0
LINE
5
94
100
AcDbEntity
8
1
62
256
6
ByLayer
370
-1
48
1
60
0
100
AcDbLine
10
12.88713
20
8.512775
30
0
11
12.816526
21
8.338014
31
0
39
0
210
0
220
0
230
1
0
LINE
5
95
100
AcDbEntity
8
1
62
256
6
ByLayer
370
-1
48
1
60
0
100
AcDbLine
10
24.466519
20
5.725015
30
0
11
24.020909
21
6.043295
31
0
39
0
210
0
220
0
230
1
0
LINE
5
96
100
AcDbEntity
8
1
62
256
6
ByLayer
370
-1
48
1
60
0
100
AcDbLine
10
1.258155
20
15.996
30
0
11
1.258155
21
-15.996
31
0
39
0
210
0
220
0
230
1
0
LINE
5
97
100
AcDbEntity
8
1
62
256
6
ByLayer
370
-1
48
1
60
0
100
AcDbLine
10
34.424864
20
-0.56981
30
0
11
34.424864
21
-6.034462
31
0
39
0
210
0
220
0
230
1
0
LINE
5
98
100
AcDbEntity
8
1
62
256
6
ByLayer
370
-1
48
1
60
0
100
AcDbLine
10
46.972578
20
8.42
30
0
11
49.846572
21
8.42
31
0
39
0
210
0
220
0
230
1
0
LINE
5
99
100
AcDbEntity
8
1
62
256
6
ByLayer
370
-1
48
1
60
0
100
AcDbLine
10
23.139353
20
-15.20234
30
0
11
23.139353
21
-15.174513
31
0
39
0
210
0
220
0
230
1
0
LINE
5
9A
100
AcDbEntity
8
1
62
256
6
ByLayer
370
-1
48
1
60
0
100
AcDbLine
10
16.713569
20
-15.164395
30
0
11
16.713569
21
-14.935767
31
0
39
0
210
0
220
0
230
1
0
LINE
5
9B
100
AcDbEntity
8
1
62
256
6
ByLayer
370
-1
48
1
60
0
100
AcDbLine
10
11.971646
20
10.241456
30
0
11
10.004311
21
11.811288
31
0
39
0
210
0
220
0
230
1
0
LINE
5
9C
100
AcDbEntity
8
1
62
256
6
ByLayer
370
-1
48
1
60
0
100
AcDbLine
10
12.487192
20
13.248228
30
0
11
12.88713
21
8.512775
31
0
39
0
210
0
220
0
230
1
0
LINE
5
9D
100
AcDbEntity
8
1
62
256
6
ByLayer
370
-1
48
1
60
0
100
AcDbLine
10
51.120764
20
9.460934
30
0
11
51.120764
21
7.930052
31
0
39
0
210
0
220
0
230
1
0
LINE
5
9E
100
AcDbEntity
8
1
62
256
6
ByLayer
370
-1
48
1
60
0
100
AcDbLine
10
33.579229
20
3.6587
30
0
11
33.923339
21
2.90726
31
0
39
0
210
0
220
0
230
1
0
LINE
5
9F
100
AcDbEntity
8
1
62
256
6
ByLayer
370
-1
48
1
60
0
100
AcDbLine
10
11.897962
20
9.593146
30
0
11
11.971646
21
10.241456
31
0
39
0
210
0
220
0
230
1
0
LINE
5
A0
100
AcDbEntity
8
1
62
256
6
ByLayer
370
-1
48
1
60
0
100
AcDbLine
10
16.258155
20
14.679714
30
0
11
16.258155
21
13.900172
31
0
39
0
210
0
220
0
230
1
0
LINE
5
A1
100
AcDbEntity
8
1
62
256
6
ByLayer
370
-1
48
1
60
0
100
AcDbLine
10
2.590126
20
-14.664029
30
0
11
2.590126
21
14.664029
31
0
39
0
210
0
220
0
230
1
0
LINE
5
A2
100
AcDbEntity
8
1
62
256
6
ByLayer
370
-1
48
1
60
0
100
AcDbLine
10
49.705319
20
-11.756668
30
0
11
49.705323
21
-11.030056
31
0
39
0
210
0
220
0
230
1
0
LINE
5
A3
100
AcDbEntity
8
1
62
256
6
ByLayer
370
-1
48
1
60
0
100
AcDbLine
10
24.978981
20
8.898729
30
0
11
24.82015
21
8.913364
31
0
39
0
210
0
220
0
230
1
0
LINE
5
A4
100
AcDbEntity
8
1
62
256
6
ByLayer
370
-1
48
1
60
0
100
AcDbLine
10
40.644563
20
-1.636015
30
0
11
40.947902
21
-0.655093
31
0
39
0
210
0
220
0
230
1
0
LINE
5
A5
100
AcDbEntity
8
1
62
256
6
ByLayer
370
-1
48
1
60
0
100
AcDbLine
10
44.161824
20
-8.737147
30
0
11
44.095627
21
-9.316476
31
0
39
0
210
0
220
0
230
1
0
LINE
5
A6
100
AcDbEntity
8
1
62
256
6
ByLayer
370
-1
48
1
60
0
100
AcDbLine
10
11.884771
20
9.568453
30
0
11
11.897962
21
9.593146
31
0
39
0
210
0
220
0
230
1
0
LINE
5
A7
100
AcDbEntity
8
1
62
256
6
ByLayer
370
-1
48
1
60
0
100
AcDbLine
10
16.258155
20
-4.760033
30
0
11
16.258155
21
-14.679715
31
0
39
0
210
0
220
0
230
1
0
LINE
5
A8
100
AcDbEntity
8
1
62
256
6
ByLayer
370
-1
48
1
60
0
100
AcDbLine
10
33.923339
20
2.90726
30
0
11
33.546457
21
2.995444
31
0
39
0
210
0
220
0
230
1
0
LINE
5
A9
100
AcDbEntity
8
1
62
256
6
ByLayer
370
-1
48
1
60
0
100
AcDbLine
10
29.143983
20
10.619168
30
0
11
28.898325
21
9.627707
31
0
39
0
210
0
220
0
230
1
0
LINE
5
AA
100
AcDbEntity
8
1
62
256
6
ByLayer
370
-1
48
1
60
0
100
AcDbLine
10
14.976592
20
7.136557
30
0
11
14.80711
21
6.316619
31
0
39
0
210
0
220
0
230
1
0
LINE
5
AB
100
AcDbEntity
8
1
62
256
6
ByLayer
370
-1
48
1
60
0
100
AcDbLine
10
24.358404
20
5.961109
30
0
11
24.466519
21
5.725015
31
0
39
0
210
0
220
0
230
1
0
LINE
5
AC
100
AcDbEntity
8
1
62
256
6
ByLayer
370
-1
48
1
60
0
100
AcDbLine
10
15.677208
20
14.429714
30
0
11
15.677208
21
13.663454
31
0
39
0
210
0
220
0
230
1
0
LINE
5
AD
100
AcDbEntity
8
1
62
256
6
ByLayer
370
-1
48
1
60
0
100
AcDbLine
10
40.850649
20
-1.406681
30
0
11
40.850649
21
-1.142111
31
0
39
0
210
0
220
0
230
1
0
LINE
5
AE
100
AcDbEntity
8
1
62
256
6
ByLayer
370
-1
48
1
60
0
100
AcDbLine
10
48.52554
20
-11.314761
30
0
11
48.145084
21
-11.519553
31
0
39
0
210
0
220
0
230
1
0
LINE
5
AF
100
AcDbEntity
8
1
62
256
6
ByLayer
370
-1
48
1
60
0
100
AcDbLine
10
20.288335
20
15.220583
30
0
11
20.254935
21
15.13791
31
0
39
0
210
0
220
0
230
1
0
LINE
5
B0
100
AcDbEntity
8
1
62
256
6
ByLayer
370
-1
48
1
60
0
100
AcDbLine
10
34.789956
20
2.674246
30
0
11
34.489538
21
2.744538
31
0
39
0
210
0
220
0
230
1
0
LINE
5
B1
100
AcDbEntity
8
1
62
256
6
ByLayer
370
-1
48
1
60
0
100
AcDbLine
10
34.079802
20
3.639285
30
0
11
34.489538
21
2.744538
31
0
39
0
210
0
220
0
230
1
0
LINE
5
B2
100
AcDbEntity
8
1
62
256
6
ByLayer
370
-1
48
1
60
0
100
AcDbLine
10
23.139353
20
-14.935767
30
0
11
23.139353
21
-15.037103
31
0
39
0
210
0
220
0
230
1
0
LINE
5
B3
100
AcDbEntity
8
1
62
256
6
ByLayer
370
-1
48
1
60
0
100
AcDbLine
10
33.61417
20
-2.20145
30
0
11
33.298097
21
-2.072291
31
0
39
0
210
0
220
0
230
1
0
LINE
5
B4
100
AcDbEntity
8
1
62
256
6
ByLayer
370
-1
48
1
60
0
100
AcDbLine
10
40.644557
20
-2.368804
30
0
11
40.644563
21
-1.636015
31
0
39
0
210
0
220
0
230
1
0
LINE
5
B5
100
AcDbEntity
8
1
62
256
6
ByLayer
370
-1
48
1
60
0
100
AcDbLine
10
31.995001
20
4.056565
30
0
11
31.995001
21
9.752836
31
0
39
0
210
0
220
0
230
1
0
LINE
5
B6
100
AcDbEntity
8
1
62
256
6
ByLayer
370
-1
48
1
60
0
100
AcDbLine
10
11.897962
20
9.593146
30
0
11
9.49162
21
11.513282
31
0
39
0
210
0
220
0
230
1
0
LINE
5
B7
100
AcDbEntity
8
1
62
256
6
ByLayer
370
-1
48
1
60
0
100
AcDbLine
10
51.120761
20
7.92
30
0
11
51.120761
21
-14.028314
31
0
39
0
210
0
220
0
230
1
0
LINE
5
B8
100
AcDbEntity
8
1
62
256
6
ByLayer
370
-1
48
1
60
0
100
AcDbLine
10
3.155812
20
14.429714
30
0
11
3.155812
21
-14.429715
31
0
39
0
210
0
220
0
230
1
0
LINE
5
B9
100
AcDbEntity
8
1
62
256
6
ByLayer
370
-1
48
1
60
0
100
AcDbLine
10
34.380968
20
3.567358
30
0
11
34.789956
21
2.674246
31
0
39
0
210
0
220
0
230
1
0
LINE
5
BA
100
AcDbEntity
8
1
62
256
6
ByLayer
370
-1
48
1
60
0
100
AcDbLine
10
40.850649
20
1.692879
30
0
11
40.850649
21
2.651395
31
0
39
0
210
0
220
0
230
1
0
LINE
5
BB
100
AcDbEntity
8
1
62
256
6
ByLayer
370
-1
48
1
60
0
100
AcDbLine
10
43.149267
20
8.992768
30
0
11
43.174084
21
8.905685
31
0
39
0
210
0
220
0
230
1
0
LINE
5
BC
100
AcDbEntity
8
1
62
256
6
ByLayer
370
-1
48
1
60
0
100
AcDbLine
10
25.224154
20
12.955165
30
0
11
25.466872
21
10.081279
31
0
39
0
210
0
220
0
230
1
0
LINE
5
BD
100
AcDbEntity
8
1
62
256
6
ByLayer
370
-1
48
1
60
0
100
AcDbLine
10
23.139353
20
-15.174516
30
0
11
23.139353
21
-15.037103
31
0
39
0
210
0
220
0
230
1
0
LINE
5
BE
100
AcDbEntity
8
1
62
256
6
ByLayer
370
-1
48
1
60
0
100
AcDbLine
10
14.019938
20
13.594882
30
0
11
14.276387
21
10.558396
31
0
39
0
210
0
220
0
230
1
0
LINE
5
BF
100
AcDbEntity
8
1
62
256
6
ByLayer
370
-1
48
1
60
0
100
AcDbLine
10
43.852994
20
8.42
30
0
11
46.061162
21
8.42
31
0
39
0
210
0
220
0
230
1
0
LINE
5
C0
100
AcDbEntity
8
SK1
62
256
6
ByLayer
370
-1
48
1
60
0
100
AcDbLine
10
-61
20
-14.496
30
0
11
-61
21
14.496
31
0
39
0
210
0
220
0
230
1
0
LINE
5
C1
100
AcDbEntity
8
SK1
62
256
6
ByLayer
370
-1
48
1
60
0
100
AcDbLine
10
0
20
-15.996
30
0
11
0
21
15.996
31
0
39
0
210
0
220
0
230
1
0
LINE
5
C2
100
AcDbEntity
8
SK1
62
256
6
ByLayer
370
-1
48
1
60
0
100
AcDbLine
10
-59.5
20
15.996
30
0
11
-59.5
21
-15.996
31
0
39
0
210
0
220
0
230
1
0
LINE
5
C3
100
AcDbEntity
8
1
62
256
6
ByLayer
370
-1
48
1
60
0
100
AcDbLine
10
46.320434
20
11.572434
30
0
11
46.25676
21
11.606709
31
0
39
0
210
0
220
0
230
1
0
LINE
5
C4
100
AcDbEntity
8
1
62
256
6
ByLayer
370
-1
48
1
60
0
100
AcDbLine
10
45.965219
20
13.184923
30
0
11
46.164219
21
13.077805
31
0
39
0
210
0
220
0
230
1
0
LINE
5
C5
100
AcDbEntity
8
1
62
256
6
ByLayer
370
-1
48
1
60
0
100
AcDbLine
10
46.899945
20
12.631873
30
0
11
46.843168
21
12.662435
31
0
39
0
210
0
220
0
230
1
0
LINE
5
C6
100
AcDbEntity
8
1
62
256
6
ByLayer
370
-1
48
1
60
0
100
AcDbLine
10
45.604283
20
11.635091
30
0
11
45.381968
21
11.754758
31
0
39
0
210
0
220
0
230
1
0
LINE
5
C7
100
AcDbEntity
8
1
62
256
6
ByLayer
370
-1
48
1
60
0
100
AcDbLine
10
45.317765
20
12.486007
30
0
11
45.09545
21
12.605675
31
0
39
0
210
0
220
0
230
1
0
LINE
5
C8
100
AcDbEntity
8
1
62
256
6
ByLayer
370
-1
48
1
60
0
100
AcDbLine
10
46.478988
20
13.207159
30
0
11
46.256753
21
13.326784
31
0
39
0
210
0
220
0
230
1
0
LINE
5
C9
100
AcDbEntity
8
1
62
256
6
ByLayer
370
-1
48
1
60
0
100
AcDbLine
10
45.604277
20
13.002337
30
0
11
45.381962
21
13.122004
31
0
39
0
210
0
220
0
230
1
0
LINE
5
CA
100
AcDbEntity
8
1
62
256
6
ByLayer
370
-1
48
1
60
0
100
AcDbLine
10
46.219023
20
13.079585
30
0
11
46.020023
21
13.186703
31
0
39
0
210
0
220
0
230
1
0
LINE
5
CB
100
AcDbEntity
8
1
62
256
6
ByLayer
370
-1
48
1
60
0
100
AcDbLine
10
29.135723
20
0.621837
30
0
11
29.131874
21
0.606303
31
0
39
0
210
0
220
0
230
1
0
LINE
5
CC
100
AcDbEntity
8
1
62
256
6
ByLayer
370
-1
48
1
60
0
100
AcDbLine
10
28.269281
20
0.906769
30
0
11
28.25393
21
0.844813
31
0
39
0
210
0
220
0
230
1
0
LINE
5
CD
100
AcDbEntity
8
1
62
256
6
ByLayer
370
-1
48
1
60
0
100
AcDbLine
10
28.585839
20
0.82151
30
0
11
28.545465
21
0.658562
31
0
39
0
210
0
220
0
230
1
0
LINE
5
CE
100
AcDbEntity
8
1
62
256
6
ByLayer
370
-1
48
1
60
0
100
AcDbLine
10
27.39037
20
1.056902
30
0
11
27.384156
21
1.031821
31
0
39
0
210
0
220
0
230
1
0
LINE
5
CF
100
AcDbEntity
8
1
62
256
6
ByLayer
370
-1
48
1
60
0
100
AcDbLine
10
28.012187
20
0.965813
30
0
11
27.970729
21
0.798493
31
0
39
0
210
0
220
0
230
1
0
LINE
5
D0
100
AcDbEntity
8
1
62
256
6
ByLayer
370
-1
48
1
60
0
100
AcDbLine
10
28.308734
20
0.83147
30
0
11
28.323989
21
0.893037
31
0
39
0
210
0
220
0
230
1
0
LINE
5
D1
100
AcDbEntity
8
1
62
256
6
ByLayer
370
-1
48
1
60
0
100
AcDbLine
10
19.912053
20
9.221424
30
0
11
19.689817
21
8.671343
31
0
39
0
210
0
220
0
230
1
0
LINE
5
D2
100
AcDbEntity
8
1
62
256
6
ByLayer
370
-1
48
1
60
0
100
AcDbLine
10
19.597283
20
9.36385
30
0
11
19.398282
21
8.871281
31
0
39
0
210
0
220
0
230
1
0
LINE
5
D3
100
AcDbEntity
8
1
62
256
6
ByLayer
370
-1
48
1
60
0
100
AcDbLine
10
19.453086
20
8.863098
30
0
11
19.652087
21
9.355667
31
0
39
0
210
0
220
0
230
1
0
LINE
5
D4
100
AcDbEntity
8
1
62
256
6
ByLayer
370
-1
48
1
60
0
100
AcDbLine
10
20.354631
20
9.325086
30
0
11
20.276226
21
9.131018
31
0
39
0
210
0
220
0
230
1
0
LINE
5
D5
100
AcDbEntity
8
1
62
256
6
ByLayer
370
-1
48
1
60
0
100
AcDbLine
10
18.671092
20
9.744904
30
0
11
18.528508
21
9.391979
31
0
39
0
210
0
220
0
230
1
0
LINE
5
D6
100
AcDbEntity
8
1
62
256
6
ByLayer
370
-1
48
1
60
0
100
AcDbLine
10
18.854557
20
10.136109
30
0
11
18.815019
21
10.038246
31
0
39
0
210
0
220
0
230
1
0
LINE
5
D7
100
AcDbEntity
8
1
62
256
6
ByLayer
370
-1
48
1
60
0
100
AcDbLine
10
19.337318
20
9.307241
30
0
11
19.115082
21
8.75716
31
0
39
0
210
0
220
0
230
1
0
LINE
5
D8
100
AcDbEntity
8
1
62
256
6
ByLayer
370
-1
48
1
60
0
100
AcDbLine
10
19.03734
20
9.493342
30
0
11
18.815025
21
8.943066
31
0
39
0
210
0
220
0
230
1
0
MTEXT
5
283
100
AcDbEntity
8
SK6
62
256
6
ByLayer
370
-1
48
1
60
0
100
AcDbMText
10
11.225
20
-31.795
30
0
210
0
220
0
230
1
1
\W00.755;\fsimplex.shx,bigfont.shx;R390-032A32-36L\P
40
3.5
41
0
44
1.084337
50
0
71
7
72
5
7
DEFAULT
0
DIMENSION
5
295
100
AcDbEntity
8
SK2
62
256
6
ByLayer
370
-3
48
1
60
0
100
AcDbDimension
2
DimnDraft3D1
10
-61
20
35.746
30
0
11
-11.438487
21
35.746
31
0
70
32
71
5
72
1
41
1
210
0
220
0
230
1
3
Standard
100
AcDbAlignedDimension
13
51.7
23
18
33
0
14
-61
24
17.996
34
0
50
0
100
AcDbRotatedDimension
1001
ACAD
1000
DSTYLE
1002
{
1070
   279
1070
     0
1070
   172
1070
     1
1070
   173
1070
     1
1070
   340
1005
284
1070
   271
1070
     2
1070
   272
1070
     2
1070
    77
1070
     1
1070
    73
1070
     0
1070
   171
1070
     4
1070
   274
1070
     4
1070
   177
1070
     2
1070
   176
1070
     2
1070
   178
1070
     7
1070
    78
1070
     8
1070
    41
1041
3.175
1070
   147
1041
2.25
1070
    42
1041
2.0
1070
    44
1041
2.0
1070
   140
1041
4.5
1070
   343
1005
296
1070
   344
1005
296
1002
}
0
DIMENSION
5
2AA
100
AcDbEntity
8
2
62
256
6
ByLayer
370
-3
48
1
60
0
100
AcDbDimension
2
DimnDraft3D2
10
15.074194
20
23.75
30
0
11
27.084136
21
23.75
31
0
70
32
71
5
72
1
41
1
210
0
220
0
230
1
3
Standard
100
AcDbAlignedDimension
13
51.7
23
18
33
0
14
15.074194
24
18
34
0
50
0
100
AcDbRotatedDimension
1001
ACAD
1000
DSTYLE
1002
{
1070
   279
1070
     0
1070
   172
1070
     1
1070
   173
1070
     1
1070
   340
1005
284
1070
   271
1070
     2
1070
   272
1070
     2
1070
    77
1070
     1
1070
    73
1070
     0
1070
   171
1070
     4
1070
   274
1070
     4
1070
   177
1070
     2
1070
   176
1070
     2
1070
   178
1070
     7
1070
    78
1070
     8
1070
    41
1041
3.175
1070
   147
1041
2.25
1070
    42
1041
2.0
1070
    44
1041
2.0
1070
   140
1041
4.5
1070
   343
1005
296
1070
   344
1005
296
1002
}
0
DIMENSION
5
2B8
100
AcDbEntity
8
SK2
62
256
6
ByLayer
370
-3
48
1
60
0
100
AcDbDimension
2
DimnDraft3D3
10
-68.75
20
-15.996
30
0
11
-68.75
21
-6.01727
31
0
70
32
71
5
72
1
41
1
210
0
220
0
230
1
3
Standard
100
AcDbAlignedDimension
13
-63
23
15.996
33
0
14
-63
24
-15.996
34
0
50
90
100
AcDbRotatedDimension
1001
ACAD
1000
DSTYLE
1002
{
1070
    74
1070
     0
1070
   279
1070
     0
1070
   172
1070
     1
1070
   173
1070
     1
1070
   340
1005
284
1070
   271
1070
     2
1070
   272
1070
     2
1070
    77
1070
     1
1070
    73
1070
     0
1070
   171
1070
     4
1070
   274
1070
     4
1070
   177
1070
     2
1070
   176
1070
     2
1070
   178
1070
     7
1070
    78
1070
     8
1070
    41
1041
3.175
1070
   147
1041
2.25
1070
    42
1041
2.0
1070
    44
1041
2.0
1070
   140
1041
4.5
1070
   343
1005
296
1070
   344
1005
296
1002
}
0
DIMENSION
5
2C6
100
AcDbEntity
8
2
62
256
6
ByLayer
370
-3
48
1
60
0
100
AcDbDimension
2
DimnDraft3D4
10
63.95
20
-16
30
0
11
63.95
21
-8.986678
31
0
70
32
71
5
72
1
41
1
210
0
220
0
230
1
3
Standard
100
AcDbAlignedDimension
13
53.7
23
16
33
0
14
53.7
24
-16
34
0
50
90
100
AcDbRotatedDimension
1001
ACAD
1000
DSTYLE
1002
{
1070
    74
1070
     0
1070
   279
1070
     0
1070
   172
1070
     1
1070
   173
1070
     1
1070
   340
1005
284
1070
   271
1070
     2
1070
   272
1070
     2
1070
    77
1070
     1
1070
    73
1070
     0
1070
   171
1070
     4
1070
   274
1070
     4
1070
   177
1070
     2
1070
   176
1070
     2
1070
   178
1070
     7
1070
    78
1070
     8
1070
    41
1041
3.175
1070
   147
1041
2.25
1070
    42
1041
2.0
1070
    44
1041
2.0
1070
   140
1041
4.5
1070
   343
1005
296
1070
   344
1005
296
1002
}
0
ENDSEC
0
SECTION
2
OBJECTS
0
DICTIONARY
5
314
330
0
100
AcDbDictionary
280
0
281
1
3
ACAD_GROUP
350
315
3
ACAD_MLINESTYLE
350
316
0
DICTIONARY
5
315
330
0
100
AcDbDictionary
280
0
281
1
0
DICTIONARY
5
316
330
0
100
AcDbDictionary
280
0
281
1
3
Standard
350
18
0
MLINESTYLE
5
18
330
316
100
AcDbMlineStyle
2
Standard
70
0
3

62
256
51
90
52
90
71
2
49
-0.5
62
256
6
ByLayer
49
0.5
62
256
6
ByLayer
0
RASTERVARIABLES
5
303
330

100
AcDbRasterVariables
90
0
70
1
71
1
72
1
0
ENDSEC
0
EOF
