0
SECTION
2
HEADER
9
$ACADVER
1
AC1015
9
$DWGCODEPAGE
3
ANSI_1252
9
$HANDSEED
5
24b
9
$ANGBASE
50
0
9
$ANGDIR
70
0
9
$ATTMODE
70
1
9
$AUNITS
70
0
9
$AUPREC
70
0
9
$CECOLOR
62
256
9
$CELTSCALE
40
1
9
$CELTYPE
6
ByLayer
9
$CELWEIGHT
370
-1
9
$CLAYER
8
0
9
$CMLJUST
70
0
9
$CMLSCALE
40
1
9
$CMLSTYLE
2
Standard
9
$DIMSTYLE
2
Standard
9
$TEXTSIZE
40
0.2
9
$TEXTSTYLE
7
Standard
9
$LUNITS
70
2
9
$LUPREC
70
4
9
$EXTNAMES
290
1
9
$INSUNITS
70
4
9
$LTSCALE
40
1
9
$LWDISPLAY
290
0
9
$PDMODE
70
0
9
$PDSIZE
40
0
9
$PLINEGEN
70
0
0
ENDSEC
0
SECTION
2
CLASSES
0
CLASS
1
RASTERVARIABLES
2
AcDbRasterVariables
3
ISM
90
0
280
0
281
0
0
ENDSEC
0
SECTION
2
TABLES
0
TABLE
2
VPORT
5
241
100
AcDbSymbolTable
0
VPORT
5
1
100
AcDbSymbolTableRecord
100
AcDbViewportTableRecord
2
*Active
70
0
10
0
20
0
11
1
21
1
12
-1
22
1
13
0
23
0
14
0.5
24
0.5
15
10
25
10
16
0
26
0
36
1
17
0
27
0
37
0
0
ENDTAB
0
TABLE
2
LTYPE
5
242
100
AcDbSymbolTable
0
LTYPE
5
14
100
AcDbSymbolTableRecord
100
AcDbLinetypeTableRecord
70
0
2
ByBlock
3

72
65
73
0
40
0
0
LTYPE
5
15
100
AcDbSymbolTableRecord
100
AcDbLinetypeTableRecord
70
0
2
ByLayer
3

72
65
73
0
40
0
0
LTYPE
5
16
100
AcDbSymbolTableRecord
100
AcDbLinetypeTableRecord
70
0
2
CONTINUOUS
3
Solid line
72
65
73
0
40
0
0
LTYPE
5
3C
100
AcDbSymbolTableRecord
100
AcDbLinetypeTableRecord
70
0
2
DASHED
3
__ __ __ __ __ __ __ __ __
72
65
73
2
40
25.72
49
12.86
74
0
49
-12.86
74
0
0
LTYPE
5
3D
100
AcDbSymbolTableRecord
100
AcDbLinetypeTableRecord
70
0
2
HIDDEN
3
_ _ _ _ _ _ _ _ _ _ _ _ _ _ _
72
65
73
2
40
0.5
49
0.25
74
0
49
-0.25
74
0
0
LTYPE
5
3E
100
AcDbSymbolTableRecord
100
AcDbLinetypeTableRecord
70
0
2
PHANTOM
3
____ _ _ ____ _ _ _____ _ _ ____
72
65
73
6
40
50.5
49
18
74
0
49
-6.5
74
0
49
6.5
74
0
49
-6.5
74
0
49
6.5
74
0
49
-6.5
74
0
0
LTYPE
5
3F
100
AcDbSymbolTableRecord
100
AcDbLinetypeTableRecord
70
0
2
CENTER
3
____ _ ____ _ ____ _ ____
72
65
73
4
40
47.5
49
22
74
0
49
-8.5
74
0
49
8.5
74
0
49
-8.5
74
0
0
LTYPE
5
40
100
AcDbSymbolTableRecord
100
AcDbLinetypeTableRecord
70
0
2
DOT
3
.........................
72
65
73
2
40
10
49
0
74
0
49
-10
74
0
0
LTYPE
5
41
100
AcDbSymbolTableRecord
100
AcDbLinetypeTableRecord
70
0
2
DASHDOT
3
_._._._._._._._._._._._._._._._.
72
65
73
4
40
70
49
31
74
0
49
-13
74
0
49
13
74
0
49
-13
74
0
0
ENDTAB
0
TABLE
2
LAYER
5
243
100
AcDbSymbolTable
0
LAYER
5
10
100
AcDbSymbolTableRecord
100
AcDbLayerTableRecord
2
0
70
0
62
7
6
CONTINUOUS
290
1
370
-3
390
0
0
LAYER
5
43
100
AcDbSymbolTableRecord
100
AcDbLayerTableRecord
2
2
70
0
62
7
6
CONTINUOUS
290
1
370
-3
390
0
0
LAYER
5
45
100
AcDbSymbolTableRecord
100
AcDbLayerTableRecord
2
80
70
0
62
-6
6
CONTINUOUS
290
1
370
-3
390
0
0
LAYER
5
47
100
AcDbSymbolTableRecord
100
AcDbLayerTableRecord
2
81
70
0
62
-3
6
CONTINUOUS
290
1
370
-3
390
0
0
LAYER
5
50
100
AcDbSymbolTableRecord
100
AcDbLayerTableRecord
2
1
70
0
62
4
6
CONTINUOUS
290
1
370
-3
390
0
0
LAYER
5
63
100
AcDbSymbolTableRecord
100
AcDbLayerTableRecord
2
4
70
0
62
-2
6
CENTER
290
1
370
-3
390
0
0
LAYER
5
22d
100
AcDbSymbolTableRecord
100
AcDbLayerTableRecord
2
SK1
70
0
62
4
6
CONTINUOUS
290
1
370
-3
390
0
0
LAYER
5
22e
100
AcDbSymbolTableRecord
100
AcDbLayerTableRecord
2
SK4
70
0
62
2
6
CENTER
290
1
370
-3
390
0
0
LAYER
5
22f
100
AcDbSymbolTableRecord
100
AcDbLayerTableRecord
2
SK6
70
0
62
5
6
CONTINUOUS
290
1
370
-3
390
0
0
LAYER
5
230
100
AcDbSymbolTableRecord
100
AcDbLayerTableRecord
2
SK2
70
0
62
7
6
CONTINUOUS
290
1
370
-3
390
0
0
ENDTAB
0
TABLE
2
STYLE
5
244
100
AcDbSymbolTable
0
STYLE
5
11
100
AcDbSymbolTableRecord
100
AcDbTextStyleTableRecord
2
Standard
3
txt
70
0
71
0
40
0
41
1
42
0
50
0
0
STYLE
5
19F
100
AcDbSymbolTableRecord
100
AcDbTextStyleTableRecord
2
DEFAULT
3
simplex.shx
70
0
71
0
40
0
41
1
42
0
50
0
0
STYLE
5
1A0
100
AcDbSymbolTableRecord
100
AcDbTextStyleTableRecord
2
DWGDirectTextStyle
3
SIMPLEX
70
0
71
0
40
0
41
1
42
0
50
0
0
ENDTAB
0
TABLE
2
DIMSTYLE
5
245
100
AcDbSymbolTable
100
AcDbDimStyleTable
0
DIMSTYLE
105
27
100
AcDbSymbolTableRecord
100
AcDbDimStyleTableRecord
2
Standard
70
0
3
<>
41
0.18
42
0.0625
44
0.18
140
0.18
147
0.09
73
0
74
0
77
1
271
2
275
0
278
52
280
0
340
11
0
ENDTAB
0
TABLE
2
VIEW
5
246
100
AcDbSymbolTable
0
ENDTAB
0
TABLE
2
UCS
5
247
100
AcDbSymbolTable
0
ENDTAB
0
TABLE
2
APPID
5
248
100
AcDbSymbolTable
0
APPID
5
12
100
AcDbSymbolTableRecord
100
AcDbRegAppTableRecord
2
ACAD
70
0
0
ENDTAB
0
TABLE
2
BLOCK_RECORD
5
249
100
AcDbSymbolTable
0
BLOCK_RECORD
5
1F
100
AcDbSymbolTableRecord
100
AcDbBlockTableRecord
2
*Model_Space
340
0
70
0
0
BLOCK_RECORD
5
1B
100
AcDbSymbolTableRecord
100
AcDbBlockTableRecord
2
*Paper_Space
340
0
70
0
0
BLOCK_RECORD
5
23
100
AcDbSymbolTableRecord
100
AcDbBlockTableRecord
2
*Paper_Space0
340
0
70
0
0
BLOCK_RECORD
5
1A2
100
AcDbSymbolTableRecord
100
AcDbBlockTableRecord
2
DimnDraft3D1
340
0
70
0
0
BLOCK_RECORD
5
1B0
100
AcDbSymbolTableRecord
100
AcDbBlockTableRecord
2
_CLOSED
340
0
70
0
0
BLOCK_RECORD
5
1B7
100
AcDbSymbolTableRecord
100
AcDbBlockTableRecord
2
DimnDraft3D2
340
0
70
0
0
BLOCK_RECORD
5
1C6
100
AcDbSymbolTableRecord
100
AcDbBlockTableRecord
2
DimnDraft3D3
340
0
70
0
0
BLOCK_RECORD
5
1D4
100
AcDbSymbolTableRecord
100
AcDbBlockTableRecord
2
DimnDraft3D4
340
0
70
0
0
BLOCK_RECORD
5
1E2
100
AcDbSymbolTableRecord
100
AcDbBlockTableRecord
2
DimnDraft3D5
340
0
70
0
0
ENDTAB
0
ENDSEC
0
SECTION
2
BLOCKS
0
BLOCK
5
20
100
AcDbEntity
8
0
100
AcDbBlockBegin
2
*Model_Space
70
0
10
0
20
0
30
0
3
*Model_Space
0
ENDBLK
5
21
100
AcDbEntity
8
0
100
AcDbBlockEnd
0
BLOCK
5
1C
100
AcDbEntity
8
0
100
AcDbBlockBegin
2
*Paper_Space
70
0
10
0
20
0
30
0
3
*Paper_Space
0
ENDBLK
5
1D
100
AcDbEntity
8
0
100
AcDbBlockEnd
0
BLOCK
5
24
100
AcDbEntity
8
0
100
AcDbBlockBegin
2
*Paper_Space0
70
0
10
0
20
0
30
0
3
*Paper_Space0
0
ENDBLK
5
25
100
AcDbEntity
8
0
100
AcDbBlockEnd
0
BLOCK
5
1AD
100
AcDbEntity
8
0
100
AcDbBlockBegin
2
DimnDraft3D1
70
0
10
0
20
0
30
0
3
DimnDraft3D1
0
MTEXT
5
1A3
100
AcDbEntity
8
2
62
256
6
ByLayer
370
-1
48
1
60
0
100
AcDbMText
10
46.865461
20
36.875
30
0
210
0
220
0
230
1
1
\W01.000;\fsimplex.shx,bigfont.shx;40\P
40
4.5
41
0
44
1.084337
50
0
71
7
72
5
7
DEFAULT
0
LINE
5
1A4
100
AcDbEntity
8
2
62
256
6
ByLayer
370
-1
48
1
60
0
100
AcDbLine
10
69
20
18
30
0
11
69
21
37.75
31
0
39
0
210
0
220
0
230
1
0
LINE
5
1A5
100
AcDbEntity
8
2
62
256
6
ByLayer
370
-1
48
1
60
0
100
AcDbLine
10
29
20
16.756343
30
0
11
29
21
37.75
31
0
39
0
210
0
220
0
230
1
0
LINE
5
1A6
100
AcDbEntity
8
2
62
256
6
ByLayer
370
-1
48
1
60
0
100
AcDbLine
10
69
20
35.75
30
0
11
29
21
35.75
31
0
39
0
210
0
220
0
230
1
0
LINE
5
1A7
100
AcDbEntity
8
2
62
256
6
ByLayer
370
-1
48
1
60
0
100
AcDbLine
10
69
20
35.75
30
0
11
65.825002
21
35.332003
31
0
39
0
210
0
220
0
230
1
0
LINE
5
1A8
100
AcDbEntity
8
2
62
256
6
ByLayer
370
-1
48
1
60
0
100
AcDbLine
10
69
20
35.75
30
0
11
65.824998
21
36.167997
31
0
39
0
210
0
220
0
230
1
0
LINE
5
1A9
100
AcDbEntity
8
2
62
256
6
ByLayer
370
-1
48
1
60
0
100
AcDbLine
10
65.825002
20
35.332003
30
0
11
65.824998
21
36.167997
31
0
39
0
210
0
220
0
230
1
0
LINE
5
1AA
100
AcDbEntity
8
2
62
256
6
ByLayer
370
-1
48
1
60
0
100
AcDbLine
10
29
20
35.75
30
0
11
32.174998
21
36.167997
31
0
39
0
210
0
220
0
230
1
0
LINE
5
1AB
100
AcDbEntity
8
2
62
256
6
ByLayer
370
-1
48
1
60
0
100
AcDbLine
10
29
20
35.75
30
0
11
32.175002
21
35.332003
31
0
39
0
210
0
220
0
230
1
0
LINE
5
1AC
100
AcDbEntity
8
2
62
256
6
ByLayer
370
-1
48
1
60
0
100
AcDbLine
10
32.174998
20
36.167997
30
0
11
32.175002
21
35.332003
31
0
39
0
210
0
220
0
230
1
0
ENDBLK
5
1AE
100
AcDbEntity
8
0
100
AcDbBlockEnd
0
BLOCK
5
1B1
100
AcDbEntity
8
0
100
AcDbBlockBegin
2
_CLOSED
70
0
10
0
20
0
30
0
3
_CLOSED
0
LINE
5
1B3
100
AcDbEntity
8
0
62
256
6
ByLayer
370
-2
48
1
60
0
100
AcDbLine
10
-1
20
0.166667
30
0
11
0
21
0
31
0
39
0
210
0
220
0
230
1
0
LINE
5
1B4
100
AcDbEntity
8
0
62
256
6
ByLayer
370
-2
48
1
60
0
100
AcDbLine
10
0
20
0
30
0
11
-1
21
-0.166667
31
0
39
0
210
0
220
0
230
1
0
LINE
5
1B5
100
AcDbEntity
8
0
62
256
6
ByLayer
370
-2
48
1
60
0
100
AcDbLine
10
-1
20
0.166667
30
0
11
-1
21
-0.166667
31
0
39
0
210
0
220
0
230
1
0
LINE
5
1B6
100
AcDbEntity
8
0
62
256
6
ByLayer
370
-2
48
1
60
0
100
AcDbLine
10
0
20
0
30
0
11
-1
21
0
31
0
39
0
210
0
220
0
230
1
0
ENDBLK
5
1B2
100
AcDbEntity
8
0
100
AcDbBlockEnd
0
BLOCK
5
1C3
100
AcDbEntity
8
0
100
AcDbBlockBegin
2
DimnDraft3D2
70
0
10
0
20
0
30
0
3
DimnDraft3D2
0
MTEXT
5
1B8
100
AcDbEntity
8
SK2
62
256
6
ByLayer
370
-1
48
1
60
0
100
AcDbMText
10
0.940296
20
46.875
30
0
210
0
220
0
230
1
1
\W01.000;\fsimplex.shx,bigfont.shx;130\P
40
4.5
41
0
44
1.084337
50
0
71
7
72
5
7
DEFAULT
0
LINE
5
1BA
100
AcDbEntity
8
SK2
62
256
6
ByLayer
370
-1
48
1
60
0
100
AcDbLine
10
69
20
18
30
0
11
69
21
47.75
31
0
39
0
210
0
220
0
230
1
0
LINE
5
1BB
100
AcDbEntity
8
SK2
62
256
6
ByLayer
370
-1
48
1
60
0
100
AcDbLine
10
-61
20
17.99375
30
0
11
-61
21
47.75
31
0
39
0
210
0
220
0
230
1
0
LINE
5
1BC
100
AcDbEntity
8
SK2
62
256
6
ByLayer
370
-1
48
1
60
0
100
AcDbLine
10
69
20
45.75
30
0
11
-61
21
45.75
31
0
39
0
210
0
220
0
230
1
0
LINE
5
1BD
100
AcDbEntity
8
SK2
62
256
6
ByLayer
370
-1
48
1
60
0
100
AcDbLine
10
69
20
45.75
30
0
11
65.825002
21
45.332003
31
0
39
0
210
0
220
0
230
1
0
LINE
5
1BE
100
AcDbEntity
8
SK2
62
256
6
ByLayer
370
-1
48
1
60
0
100
AcDbLine
10
69
20
45.75
30
0
11
65.824998
21
46.167997
31
0
39
0
210
0
220
0
230
1
0
LINE
5
1BF
100
AcDbEntity
8
SK2
62
256
6
ByLayer
370
-1
48
1
60
0
100
AcDbLine
10
65.825002
20
45.332003
30
0
11
65.824998
21
46.167997
31
0
39
0
210
0
220
0
230
1
0
LINE
5
1C0
100
AcDbEntity
8
SK2
62
256
6
ByLayer
370
-1
48
1
60
0
100
AcDbLine
10
-61
20
45.75
30
0
11
-57.825002
21
46.167997
31
0
39
0
210
0
220
0
230
1
0
LINE
5
1C1
100
AcDbEntity
8
SK2
62
256
6
ByLayer
370
-1
48
1
60
0
100
AcDbLine
10
-61
20
45.75
30
0
11
-57.824998
21
45.332003
31
0
39
0
210
0
220
0
230
1
0
LINE
5
1C2
100
AcDbEntity
8
SK2
62
256
6
ByLayer
370
-1
48
1
60
0
100
AcDbLine
10
-57.825002
20
46.167997
30
0
11
-57.824998
21
45.332003
31
0
39
0
210
0
220
0
230
1
0
ENDBLK
5
1C4
100
AcDbEntity
8
0
100
AcDbBlockEnd
0
BLOCK
5
1D1
100
AcDbEntity
8
0
100
AcDbBlockBegin
2
DimnDraft3D3
70
0
10
0
20
0
30
0
3
DimnDraft3D3
0
MTEXT
5
1C7
100
AcDbEntity
8
2
62
256
6
ByLayer
370
-1
48
1
60
0
100
AcDbMText
10
75.51875
20
26.875
30
0
210
0
220
0
230
1
1
\W01.000;\fsimplex.shx,bigfont.shx;10\P
40
4.5
41
0
44
1.084337
50
0
71
7
72
5
7
DEFAULT
0
LINE
5
1C8
100
AcDbEntity
8
2
62
256
6
ByLayer
370
-1
48
1
60
0
100
AcDbLine
10
69
20
18
30
0
11
69
21
27.75
31
0
39
0
210
0
220
0
230
1
0
LINE
5
1C9
100
AcDbEntity
8
2
62
256
6
ByLayer
370
-1
48
1
60
0
100
AcDbLine
10
58.8
20
18
30
0
11
58.8
21
27.75
31
0
39
0
210
0
220
0
230
1
0
LINE
5
1CA
100
AcDbEntity
8
2
62
256
6
ByLayer
370
-1
48
1
60
0
100
AcDbLine
10
58.8
20
25.75
30
0
11
79.148355
21
25.75
31
0
39
0
210
0
220
0
230
1
0
LINE
5
1CB
100
AcDbEntity
8
2
62
256
6
ByLayer
370
-1
48
1
60
0
100
AcDbLine
10
69
20
25.75
30
0
11
65.825002
21
25.332003
31
0
39
0
210
0
220
0
230
1
0
LINE
5
1CC
100
AcDbEntity
8
2
62
256
6
ByLayer
370
-1
48
1
60
0
100
AcDbLine
10
69
20
25.75
30
0
11
65.824998
21
26.167997
31
0
39
0
210
0
220
0
230
1
0
LINE
5
1CD
100
AcDbEntity
8
2
62
256
6
ByLayer
370
-1
48
1
60
0
100
AcDbLine
10
65.825002
20
25.332003
30
0
11
65.824998
21
26.167997
31
0
39
0
210
0
220
0
230
1
0
LINE
5
1CE
100
AcDbEntity
8
2
62
256
6
ByLayer
370
-1
48
1
60
0
100
AcDbLine
10
58.8
20
25.75
30
0
11
61.974998
21
26.167997
31
0
39
0
210
0
220
0
230
1
0
LINE
5
1CF
100
AcDbEntity
8
2
62
256
6
ByLayer
370
-1
48
1
60
0
100
AcDbLine
10
58.8
20
25.75
30
0
11
61.975002
21
25.332003
31
0
39
0
210
0
220
0
230
1
0
LINE
5
1D0
100
AcDbEntity
8
2
62
256
6
ByLayer
370
-1
48
1
60
0
100
AcDbLine
10
61.974998
20
26.167997
30
0
11
61.975002
21
25.332003
31
0
39
0
210
0
220
0
230
1
0
ENDBLK
5
1D2
100
AcDbEntity
8
0
100
AcDbBlockEnd
0
BLOCK
5
1DF
100
AcDbEntity
8
0
100
AcDbBlockBegin
2
DimnDraft3D4
70
0
10
0
20
0
30
0
3
DimnDraft3D4
0
MTEXT
5
1D5
100
AcDbEntity
8
SK2
62
256
6
ByLayer
370
-1
48
1
60
0
100
AcDbMText
10
-71.875
20
-4.49852
30
0
210
0
220
0
230
1
1
\W01.000;\fsimplex.shx,bigfont.shx;%%c32\P
40
4.5
41
0
44
1.084337
50
90
71
7
72
5
7
DEFAULT
0
LINE
5
1D6
100
AcDbEntity
8
SK2
62
256
6
ByLayer
370
-1
48
1
60
0
100
AcDbLine
10
-63
20
15.99375
30
0
11
-72.75
21
15.99375
31
0
39
0
210
0
220
0
230
1
0
LINE
5
1D7
100
AcDbEntity
8
SK2
62
256
6
ByLayer
370
-1
48
1
60
0
100
AcDbLine
10
-63
20
-15.99375
30
0
11
-72.75
21
-15.99375
31
0
39
0
210
0
220
0
230
1
0
LINE
5
1D8
100
AcDbEntity
8
SK2
62
256
6
ByLayer
370
-1
48
1
60
0
100
AcDbLine
10
-70.75
20
15.99375
30
0
11
-70.75
21
-15.99375
31
0
39
0
210
0
220
0
230
1
0
LINE
5
1D9
100
AcDbEntity
8
SK2
62
256
6
ByLayer
370
-1
48
1
60
0
100
AcDbLine
10
-70.75
20
15.99375
30
0
11
-70.332003
21
12.818752
31
0
39
0
210
0
220
0
230
1
0
LINE
5
1DA
100
AcDbEntity
8
SK2
62
256
6
ByLayer
370
-1
48
1
60
0
100
AcDbLine
10
-70.75
20
15.99375
30
0
11
-71.167997
21
12.818748
31
0
39
0
210
0
220
0
230
1
0
LINE
5
1DB
100
AcDbEntity
8
SK2
62
256
6
ByLayer
370
-1
48
1
60
0
100
AcDbLine
10
-70.332003
20
12.818752
30
0
11
-71.167997
21
12.818748
31
0
39
0
210
0
220
0
230
1
0
LINE
5
1DC
100
AcDbEntity
8
SK2
62
256
6
ByLayer
370
-1
48
1
60
0
100
AcDbLine
10
-70.75
20
-15.99375
30
0
11
-71.167997
21
-12.818752
31
0
39
0
210
0
220
0
230
1
0
LINE
5
1DD
100
AcDbEntity
8
SK2
62
256
6
ByLayer
370
-1
48
1
60
0
100
AcDbLine
10
-70.75
20
-15.99375
30
0
11
-70.332003
21
-12.818748
31
0
39
0
210
0
220
0
230
1
0
LINE
5
1DE
100
AcDbEntity
8
SK2
62
256
6
ByLayer
370
-1
48
1
60
0
100
AcDbLine
10
-71.167997
20
-12.818752
30
0
11
-70.332003
21
-12.818748
31
0
39
0
210
0
220
0
230
1
0
ENDBLK
5
1E0
100
AcDbEntity
8
0
100
AcDbBlockEnd
0
BLOCK
5
1ED
100
AcDbEntity
8
0
100
AcDbBlockBegin
2
DimnDraft3D5
70
0
10
0
20
0
30
0
3
DimnDraft3D5
0
MTEXT
5
1E3
100
AcDbEntity
8
2
62
256
6
ByLayer
370
-1
48
1
60
0
100
AcDbMText
10
82.125
20
-4.49852
30
0
210
0
220
0
230
1
1
\W01.000;\fsimplex.shx,bigfont.shx;%%c32\P
40
4.5
41
0
44
1.084337
50
90
71
7
72
5
7
DEFAULT
0
LINE
5
1E4
100
AcDbEntity
8
2
62
256
6
ByLayer
370
-1
48
1
60
0
100
AcDbLine
10
71
20
16
30
0
11
85.25
21
16
31
0
39
0
210
0
220
0
230
1
0
LINE
5
1E5
100
AcDbEntity
8
2
62
256
6
ByLayer
370
-1
48
1
60
0
100
AcDbLine
10
71
20
-16
30
0
11
85.25
21
-16
31
0
39
0
210
0
220
0
230
1
0
LINE
5
1E6
100
AcDbEntity
8
2
62
256
6
ByLayer
370
-1
48
1
60
0
100
AcDbLine
10
83.25
20
16
30
0
11
83.25
21
-16
31
0
39
0
210
0
220
0
230
1
0
LINE
5
1E7
100
AcDbEntity
8
2
62
256
6
ByLayer
370
-1
48
1
60
0
100
AcDbLine
10
83.25
20
16
30
0
11
83.667997
21
12.825002
31
0
39
0
210
0
220
0
230
1
0
LINE
5
1E8
100
AcDbEntity
8
2
62
256
6
ByLayer
370
-1
48
1
60
0
100
AcDbLine
10
83.25
20
16
30
0
11
82.832003
21
12.824998
31
0
39
0
210
0
220
0
230
1
0
LINE
5
1E9
100
AcDbEntity
8
2
62
256
6
ByLayer
370
-1
48
1
60
0
100
AcDbLine
10
83.667997
20
12.825002
30
0
11
82.832003
21
12.824998
31
0
39
0
210
0
220
0
230
1
0
LINE
5
1EA
100
AcDbEntity
8
2
62
256
6
ByLayer
370
-1
48
1
60
0
100
AcDbLine
10
83.25
20
-16
30
0
11
82.832003
21
-12.825002
31
0
39
0
210
0
220
0
230
1
0
LINE
5
1EB
100
AcDbEntity
8
2
62
256
6
ByLayer
370
-1
48
1
60
0
100
AcDbLine
10
83.25
20
-16
30
0
11
83.667997
21
-12.824998
31
0
39
0
210
0
220
0
230
1
0
LINE
5
1EC
100
AcDbEntity
8
2
62
256
6
ByLayer
370
-1
48
1
60
0
100
AcDbLine
10
82.832003
20
-12.825002
30
0
11
83.667997
21
-12.824998
31
0
39
0
210
0
220
0
230
1
0
ENDBLK
5
1EE
100
AcDbEntity
8
0
100
AcDbBlockEnd
0
ENDSEC
0
SECTION
2
ENTITIES
0
ARC
5
AB
100
AcDbEntity
8
1
62
256
6
ByLayer
370
-1
48
1
60
0
100
AcDbCircle
39
0
10
64.184607
20
7.32867
30
0
40
4
210
0
220
0
230
1
100
AcDbArc
50
239.711517
51
269.986581
0
ARC
5
AC
100
AcDbEntity
8
1
62
256
6
ByLayer
370
-1
48
1
60
0
100
AcDbCircle
39
0
10
-29.8
20
15.556343
30
0
40
0.800000000000002
210
0
220
0
230
-1
100
AcDbArc
50
270
51
0
0
ARC
5
AD
100
AcDbEntity
8
1
62
256
6
ByLayer
370
-1
48
1
60
0
100
AcDbCircle
39
0
10
-29.8
20
-15.556343
30
0
40
0.800000000000002
210
0
220
0
230
-1
100
AcDbArc
50
0
51
90
0
ARC
5
AE
100
AcDbEntity
8
1
62
256
6
ByLayer
370
-1
48
1
60
0
100
AcDbCircle
39
0
10
67.643565
20
-14.536869
30
0
40
0.8
210
0
220
0
230
1
100
AcDbArc
50
269.190925
51
0
0
ARC
5
AF
100
AcDbEntity
8
1
62
256
6
ByLayer
370
-1
48
1
60
0
100
AcDbCircle
39
0
10
-57.438552
20
-15.556343
30
0
40
0.8
210
0
220
0
230
-1
100
AcDbArc
50
90
51
98.784495
0
ELLIPSE
5
B0
100
AcDbEntity
8
1
62
256
6
ByLayer
370
-1
48
1
60
0
100
AcDbEllipse
10
61.824614
20
-0.029152
30
0
11
2.15909752373281
21
-15.248061441783
31
0
210
0
220
0
230
-1
40
0.208492
41
-0.0126547744754906
42
0.0325209106409738
0
ELLIPSE
5
B1
100
AcDbEntity
8
1
62
256
6
ByLayer
370
-1
48
1
60
0
100
AcDbEllipse
10
58.022438
20
2.230116
30
0
11
1.88548023766157
21
-0.411921674897089
31
0
210
0
220
0
230
-1
40
0.52806
41
-0.616686568832255
42
0.597376103192632
0
ELLIPSE
5
B2
100
AcDbEntity
8
1
62
256
6
ByLayer
370
-1
48
1
60
0
100
AcDbEllipse
10
91.352865
20
-4.652783
30
0
11
644.832061861787
21
-8.05792567829419
31
0
210
0
220
0
230
-1
40
0.017008
41
1.61297822213366
42
1.61553655661513
0
ELLIPSE
5
B3
100
AcDbEntity
8
1
62
256
6
ByLayer
370
-1
48
1
60
0
100
AcDbEllipse
10
100.833071
20
0
30
0
11
75.5095621334806
21
-13.8325439670102
31
0
210
0
220
0
230
-1
40
0.068059
41
-2.32020539970484
42
-2.22841412859913
0
ELLIPSE
5
B4
100
AcDbEntity
8
1
62
256
6
ByLayer
370
-1
48
1
60
0
100
AcDbEllipse
10
65.146519
20
-4.026316
30
0
11
1.40865667231165
21
-0.515447746674551
31
0
210
0
220
0
230
1
40
0.703297
41
0.251881059605061
42
2.29505259295856
0
ELLIPSE
5
B5
100
AcDbEntity
8
1
62
256
6
ByLayer
370
-1
48
1
60
0
100
AcDbEllipse
10
53.523679
20
10.206315
30
0
11
-15.0194759737527
21
2.38339626178464
31
0
210
0
220
0
230
1
40
0.365975
41
0.789271200964725
42
1.46691147712703
0
ELLIPSE
5
B6
100
AcDbEntity
8
1
62
256
6
ByLayer
370
-1
48
1
60
0
100
AcDbEllipse
10
64.918383
20
-0.029236
30
0
11
2.16528123637532
21
-15.2917322942471
31
0
210
0
220
0
230
-1
40
0.208492
41
-0.0166938609182705
42
0.144768473674953
0
ELLIPSE
5
B7
100
AcDbEntity
8
1
62
256
6
ByLayer
370
-1
48
1
60
0
100
AcDbEllipse
10
61.526181
20
0.933814
30
0
11
6.85128078907631
21
15.1869916055621
31
0
210
0
220
0
230
-1
40
0.326908
41
-1.25842518379106
42
-1.2246436992392
0
ELLIPSE
5
B8
100
AcDbEntity
8
1
62
256
6
ByLayer
370
-1
48
1
60
0
100
AcDbEllipse
10
60.259404
20
6.508046
30
0
11
0.74587058160297
21
-2.47410969474177
31
0
210
0
220
0
230
-1
40
0.269224
41
2.26790916214413
42
2.44873516081439
0
ELLIPSE
5
B9
100
AcDbEntity
8
1
62
256
6
ByLayer
370
-1
48
1
60
0
100
AcDbEllipse
10
65.146519
20
11.112461
30
0
11
1.44786089096322
21
-0.392044436791533
31
0
210
0
220
0
230
1
40
0.355533
41
-3.04561892556544
42
-1.14701683062145
0
ELLIPSE
5
BA
100
AcDbEntity
8
1
62
256
6
ByLayer
370
-1
48
1
60
0
100
AcDbEllipse
10
56.708387
20
4.634657
30
0
11
0.242837146505974
21
1.22618519004139
31
0
210
0
220
0
230
1
40
0.096504
41
0.376524962037511
42
2.20912067663156
0
ELLIPSE
5
BB
100
AcDbEntity
8
1
62
256
6
ByLayer
370
-1
48
1
60
0
100
AcDbEllipse
10
53.753183
20
11.652578
30
0
11
-13.8269896847909
21
2.19416413622261
31
0
210
0
220
0
230
1
40
0.365975
41
0.901797331894525
42
1.46691147712703
0
ELLIPSE
5
BC
100
AcDbEntity
8
1
62
256
6
ByLayer
370
-1
48
1
60
0
100
AcDbEllipse
10
58.893712
20
9.142818
30
0
11
-15.0194759737527
21
2.38339626178464
31
0
210
0
220
0
230
1
40
0.365975
41
1.46691147712703
42
1.62490172870777
0
ELLIPSE
5
BD
100
AcDbEntity
8
1
62
256
6
ByLayer
370
-1
48
1
60
0
100
AcDbEllipse
10
100.833071
20
0
30
0
11
75.5028354477143
21
-8.77988185444507
31
0
210
0
220
0
230
-1
40
0.157082
41
2.19768274812732
42
2.28947401927865
0
ELLIPSE
5
BE
100
AcDbEntity
8
1
62
256
6
ByLayer
370
-1
48
1
60
0
100
AcDbEllipse
10
53.523679
20
-16.997757
30
0
11
-14.8726876732371
21
3.17307384741713
31
0
210
0
220
0
230
1
40
0.7151
41
-0.75562530118313
42
-0.579862340159056
0
ELLIPSE
5
BF
100
AcDbEntity
8
1
62
256
6
ByLayer
370
-1
48
1
60
0
100
AcDbEllipse
10
58.917462
20
5.858796
30
0
11
1.6944704967079
21
-0.199854994855327
31
0
210
0
220
0
230
-1
40
0.328204
41
2.44276883212897
42
-2.3145549370333
0
ELLIPSE
5
C0
100
AcDbEntity
8
1
62
256
6
ByLayer
370
-1
48
1
60
0
100
AcDbEllipse
10
59.100089
20
4.231889
30
0
11
0.139905481552098
21
1.24214590778687
31
0
210
0
220
0
230
1
40
0.114186
41
-2.38400903524856
42
-1.94047626765358
0
ELLIPSE
5
C1
100
AcDbEntity
8
1
62
256
6
ByLayer
370
-1
48
1
60
0
100
AcDbEllipse
10
64.878986
20
-4.757451
30
0
11
-0.96258205941296
21
0.352222626894277
31
0
210
0
220
0
230
1
40
0.703297
41
-2.88971159398473
42
0.251881059605065
0
ELLIPSE
5
C2
100
AcDbEntity
8
1
62
256
6
ByLayer
370
-1
48
1
60
0
100
AcDbEllipse
10
60.001152
20
-7.623318
30
0
11
1.85096639666283
21
5.30379194141378
31
0
210
0
220
0
230
-1
40
0.304036
41
-1.15535509546574
42
0.973262533884176
0
ELLIPSE
5
C3
100
AcDbEntity
8
1
62
256
6
ByLayer
370
-1
48
1
60
0
100
AcDbEllipse
10
72.281971
20
0
30
0
11
100.08481485022
21
-10.312304041568
31
0
210
0
220
0
230
-1
40
0.10546
41
1.7087793338633
42
1.84069565835129
0
ELLIPSE
5
C4
100
AcDbEntity
8
1
62
256
6
ByLayer
370
-1
48
1
60
0
100
AcDbEllipse
10
65.145727
20
-4.006682
30
0
11
1.49842831062612
21
0.0604337629610295
31
0
210
0
220
0
230
1
40
0.797401
41
1.99527480945383
42
3.10973688241079
0
ELLIPSE
5
C5
100
AcDbEntity
8
1
62
256
6
ByLayer
370
-1
48
1
60
0
100
AcDbEllipse
10
59.307595
20
-9.012344
30
0
11
-0.714652959252957
21
-1.4172509256571
31
0
210
0
220
0
230
1
40
0.192815
41
-1.87384678622105
42
-1.76903929000687
0
ELLIPSE
5
C6
100
AcDbEntity
8
1
62
256
6
ByLayer
370
-1
48
1
60
0
100
AcDbEllipse
10
59.123216
20
10.589082
30
0
11
-13.8269896847909
21
2.19416413622261
31
0
210
0
220
0
230
1
40
0.365975
41
1.46691147712703
42
1.51700674759536
0
ELLIPSE
5
C7
100
AcDbEntity
8
1
62
256
6
ByLayer
370
-1
48
1
60
0
100
AcDbEllipse
10
51.338354
20
5.698153
30
0
11
0.242837146505974
21
1.22618519004139
31
0
210
0
220
0
230
1
40
0.096504
41
0.376524962037495
42
2.20912067663157
0
ELLIPSE
5
C8
100
AcDbEntity
8
1
62
256
6
ByLayer
370
-1
48
1
60
0
100
AcDbEllipse
10
79.284853
20
-0.598253
30
0
11
61.5021937220645
21
-11.0225013650116
31
0
210
0
220
0
230
-1
40
0.176923
41
1.72962014566062
42
1.82864925939101
0
ELLIPSE
5
C9
100
AcDbEntity
8
1
62
256
6
ByLayer
370
-1
48
1
60
0
100
AcDbEllipse
10
60.516799
20
-9.15891
30
0
11
-1.79585987681739
21
0.657130970976558
31
0
210
0
220
0
230
1
40
0.703297
41
-2.02202505692775
42
-1.60306401329145
0
ELLIPSE
5
CA
100
AcDbEntity
8
1
62
256
6
ByLayer
370
-1
48
1
60
0
100
AcDbEllipse
10
59.189235
20
17.934679
30
0
11
1.12304024738302
21
6.73857270904144
31
0
210
0
220
0
230
-1
40
0.144383
41
-2.56789233987849
42
-2.17401541368814
0
ELLIPSE
5
CB
100
AcDbEntity
8
1
62
256
6
ByLayer
370
-1
48
1
60
0
100
AcDbEllipse
10
59.307595
20
9.453956
30
0
11
-0.58048838418202
21
-1.47728205643833
31
0
210
0
220
0
230
1
40
0.3374
41
0.694322608935564
42
0.799130105152534
0
ELLIPSE
5
CC
100
AcDbEntity
8
1
62
256
6
ByLayer
370
-1
48
1
60
0
100
AcDbEllipse
10
91.205869
20
5.451865
30
0
11
643.146506650362
21
9.43684034807512
31
0
210
0
220
0
230
-1
40
0.015769
41
1.61387963580573
42
1.61586956241328
0
ELLIPSE
5
CD
100
AcDbEntity
8
1
62
256
6
ByLayer
370
-1
48
1
60
0
100
AcDbEllipse
10
65.154827
20
-4.00361
30
0
11
1.55297688527529
21
0.146131634960223
31
0
210
0
220
0
230
-1
40
0.7702
41
-1.94337073677187
42
0.0998007965816371
0
ELLIPSE
5
CE
100
AcDbEntity
8
1
62
256
6
ByLayer
370
-1
48
1
60
0
100
AcDbEllipse
10
65.55817
20
12.632732
30
0
11
1.55633833577208
21
0.0443868859642241
31
0
210
0
220
0
230
-1
40
0.372121
41
0.404915428289859
42
-3.12579340278091
0
ELLIPSE
5
CF
100
AcDbEntity
8
1
62
256
6
ByLayer
370
-1
48
1
60
0
100
AcDbEllipse
10
58.068768
20
5.675339
30
0
11
1.08823781410435
21
0.539532364987035
31
0
210
0
220
0
230
-1
40
0.638179
41
-1.24378592156874
42
-1.03651116852661
0
ELLIPSE
5
D0
100
AcDbEntity
8
1
62
256
6
ByLayer
370
-1
48
1
60
0
100
AcDbEllipse
10
65.578641
20
-15.103059
30
0
11
1.55459678492099
21
-0.091698704079131
31
0
210
0
220
0
230
-1
40
0.826293
41
3.08612670643315
42
-0.0554659471566383
0
ELLIPSE
5
D1
100
AcDbEntity
8
1
62
256
6
ByLayer
370
-1
48
1
60
0
100
AcDbEllipse
10
65.146519
20
-4.237801
30
0
11
0.0338324967312279
21
-10.7133863630783
31
0
210
0
220
0
230
-1
40
0.139976
41
1.49191297453553
42
1.59072664425786
0
ELLIPSE
5
D2
100
AcDbEntity
8
1
62
256
6
ByLayer
370
-1
48
1
60
0
100
AcDbEllipse
10
65.146519
20
-4.026316
30
0
11
-1.5
21
1.83690953073357E-16
31
0
210
0
220
0
230
1
40
0.688464
41
2.07633102380374
42
2.89480886944324
0
ELLIPSE
5
D3
100
AcDbEntity
8
1
62
256
6
ByLayer
370
-1
48
1
60
0
100
AcDbEllipse
10
65.146519
20
-4.026316
30
0
11
-1.5
21
1.83690953073357E-16
31
0
210
0
220
0
230
1
40
0.688464
41
0.00262659319558947
42
0.571694061492961
0
ELLIPSE
5
D4
100
AcDbEntity
8
1
62
256
6
ByLayer
370
-1
48
1
60
0
100
AcDbEllipse
10
100.833071
20
0
30
0
11
75.5037495198328
21
8.15365452129283
31
0
210
0
220
0
230
-1
40
0.162894
41
2.2335361911856
42
2.32532746234643
0
ELLIPSE
5
D5
100
AcDbEntity
8
1
62
256
6
ByLayer
370
-1
48
1
60
0
100
AcDbEllipse
10
59.189235
20
8.57475
30
0
11
1.21914974749546
21
2.31755066581673
31
0
210
0
220
0
230
-1
40
0.366512
41
-2.92929161516483
42
-2.27939664591914
0
ELLIPSE
5
D6
100
AcDbEntity
8
1
62
256
6
ByLayer
370
-1
48
1
60
0
100
AcDbEllipse
10
64.918383
20
0.050636
30
0
11
3.61403951205443
21
15.2951805624804
31
0
210
0
220
0
230
-1
40
0.087517
41
-0.764248829241473
42
-0.609284006720913
0
ELLIPSE
5
D7
100
AcDbEntity
8
1
62
256
6
ByLayer
370
-1
48
1
60
0
100
AcDbEllipse
10
79.284853
20
-0.808455
30
0
11
61.5199932795937
21
-14.5359273935106
31
0
210
0
220
0
230
-1
40
0.08738
41
-1.88099005235604
42
-1.78196093863403
0
ELLIPSE
5
D8
100
AcDbEntity
8
1
62
256
6
ByLayer
370
-1
48
1
60
0
100
AcDbEllipse
10
72.281971
20
0
30
0
11
100.09032706757
21
1.92674529082766
31
0
210
0
220
0
230
-1
40
0.146168
41
-1.82019389388144
42
-1.71683126761843
0
ELLIPSE
5
D9
100
AcDbEntity
8
1
62
256
6
ByLayer
370
-1
48
1
60
0
100
AcDbEllipse
10
60.001152
20
13.816413
30
0
11
2.22151259003639
21
-2.33051402843414
31
0
210
0
220
0
230
-1
40
0.44824
41
1.10263475892996
42
1.43247078514382
0
ELLIPSE
5
DA
100
AcDbEntity
8
1
62
256
6
ByLayer
370
-1
48
1
60
0
100
AcDbEllipse
10
61.824614
20
0.050491
30
0
11
3.60371836726173
21
15.251499865756
31
0
210
0
220
0
230
-1
40
0.087517
41
-0.708669545153299
42
-0.613323096836338
0
ELLIPSE
5
DB
100
AcDbEntity
8
1
62
256
6
ByLayer
370
-1
48
1
60
0
100
AcDbEllipse
10
60.001152
20
-17.890705
30
0
11
1.81592479469042
21
5.66563360146052
31
0
210
0
220
0
230
-1
40
0.291566
41
-1.13388727939418
42
0.994730349955726
0
ELLIPSE
5
DC
100
AcDbEntity
8
1
62
256
6
ByLayer
370
-1
48
1
60
0
100
AcDbEllipse
10
72.281971
20
0
30
0
11
100.088017059766
21
-13.7492879770726
31
0
210
0
220
0
230
-1
40
0.053532
41
-1.85891493069585
42
-1.72699860618727
0
ELLIPSE
5
DD
100
AcDbEntity
8
1
62
256
6
ByLayer
370
-1
48
1
60
0
100
AcDbEllipse
10
64.918383
20
0.037471
30
0
11
2.7407252240242
21
15.2907027813178
31
0
210
0
220
0
230
-1
40
0.177201
41
1.87766178455256
42
1.89864035839647
0
ELLIPSE
5
DE
100
AcDbEntity
8
1
62
256
6
ByLayer
370
-1
48
1
60
0
100
AcDbEllipse
10
61.526181
20
1.198336
30
0
11
8.03321576898222
21
15.3062569332913
31
0
210
0
220
0
230
-1
40
0.173547
41
2.17107191656704
42
2.20485340199929
0
ELLIPSE
5
DF
100
AcDbEntity
8
1
62
256
6
ByLayer
370
-1
48
1
60
0
100
AcDbEllipse
10
63.302994
20
12.462385
30
0
11
0.763134941969021
21
1.54701327090169
31
0
210
0
220
0
230
1
40
0.962186
41
1.58521549581686
42
2.20834907914296
0
ELLIPSE
5
E0
100
AcDbEntity
8
1
62
256
6
ByLayer
370
-1
48
1
60
0
100
AcDbEllipse
10
63.917529
20
13.105813
30
0
11
-0.0818434575445031
21
-0.16591156818366
31
0
210
0
220
0
230
1
40
0.962186
41
-2.28537993976303
42
-1.89076475683064
0
ELLIPSE
5
E1
100
AcDbEntity
8
1
62
256
6
ByLayer
370
-1
48
1
60
0
100
AcDbEllipse
10
63.504793
20
12.362838
30
0
11
0.330913006720479
21
0.670820827034471
31
0
210
0
220
0
230
1
40
0.962186
41
0.436010344950171
42
0.511473048784237
0
ELLIPSE
5
E2
100
AcDbEntity
8
1
62
256
6
ByLayer
370
-1
48
1
60
0
100
AcDbEllipse
10
63.504793
20
12.362838
30
0
11
-0.330913006720477
21
-0.670820827034472
31
0
210
0
220
0
230
1
40
0.962186
41
2.0442928563402
42
2.41796687337846
0
ELLIPSE
5
E3
100
AcDbEntity
8
1
62
256
6
ByLayer
370
-1
48
1
60
0
100
AcDbEllipse
10
63.504793
20
13.522303
30
0
11
-0.186691562615029
21
-0.37845773931624
31
0
210
0
220
0
230
1
40
0.962186
41
0.540655019183349
42
1.25082789675916
0
ELLIPSE
5
E4
100
AcDbEntity
8
1
62
256
6
ByLayer
370
-1
48
1
60
0
100
AcDbEllipse
10
63.300985
20
12.463376
30
0
11
0.330913006720479
21
0.670820827034471
31
0
210
0
220
0
230
1
40
0.962186
41
0.43601034495016
42
0.511473048784246
0
ELLIPSE
5
E5
100
AcDbEntity
8
1
62
256
6
ByLayer
370
-1
48
1
60
0
100
AcDbEllipse
10
63.504793
20
12.362838
30
0
11
-0.330913006720477
21
-0.670820827034472
31
0
210
0
220
0
230
1
40
0.962186
41
3.06883678592627
42
-2.70558230863963
0
ELLIPSE
5
E6
100
AcDbEntity
8
1
62
256
6
ByLayer
370
-1
48
1
60
0
100
AcDbEllipse
10
63.260506
20
12.483344
30
0
11
0.457880965181412
21
0.928207962541012
31
0
210
0
220
0
230
1
40
0.962186
41
-1.31503686169107
42
-1.09705462992769
0
ELLIPSE
5
E7
100
AcDbEntity
8
1
62
256
6
ByLayer
370
-1
48
1
60
0
100
AcDbEllipse
10
62.521998
20
12.912105
30
0
11
-0.186691562615029
21
-0.37845773931624
31
0
210
0
220
0
230
1
40
0.962186
41
1.4198676814903
42
1.52136823789375
0
ELLIPSE
5
E8
100
AcDbEntity
8
1
62
256
6
ByLayer
370
-1
48
1
60
0
100
AcDbEllipse
10
63.504793
20
13.522303
30
0
11
-0.186691562615029
21
-0.37845773931624
31
0
210
0
220
0
230
1
40
0.962186
41
1.05727823207927E-05
42
0.406828374551048
0
ELLIPSE
5
E9
100
AcDbEntity
8
1
62
256
6
ByLayer
370
-1
48
1
60
0
100
AcDbEllipse
10
63.260506
20
12.483344
30
0
11
0.575116188150566
21
1.16586507372301
31
0
210
0
220
0
230
1
40
0.962186
41
-1.35801063840121
42
-1.12763955292876
0
ELLIPSE
5
EA
100
AcDbEntity
8
1
62
256
6
ByLayer
370
-1
48
1
60
0
100
AcDbEllipse
10
63.260506
20
12.483344
30
0
11
0.575116188150566
21
1.16586507372301
31
0
210
0
220
0
230
1
40
0.962186
41
-1.12763955292876
42
0
0
ELLIPSE
5
EB
100
AcDbEntity
8
1
62
256
6
ByLayer
370
-1
48
1
60
0
100
AcDbEllipse
10
63.260506
20
12.483344
30
0
11
0.575116188150566
21
1.16586507372301
31
0
210
0
220
0
230
1
40
0.962186
41
0
42
2.11423439005798
0
ELLIPSE
5
EC
100
AcDbEntity
8
1
62
256
6
ByLayer
370
-1
48
1
60
0
100
AcDbEllipse
10
63.260506
20
12.483344
30
0
11
0.457880965181412
21
0.928207962541012
31
0
210
0
220
0
230
1
40
0.962186
41
0.998198452125414
42
1.91737480180533
0
ELLIPSE
5
ED
100
AcDbEntity
8
1
62
256
6
ByLayer
370
-1
48
1
60
0
100
AcDbEllipse
10
63.092057
20
13.07997
30
0
11
-0.0818434575445031
21
-0.16591156818366
31
0
210
0
220
0
230
1
40
0.962186
41
-2.77947877024599
42
-0.845324687843571
0
ELLIPSE
5
EE
100
AcDbEntity
8
1
62
256
6
ByLayer
370
-1
48
1
60
0
100
AcDbEllipse
10
62.521998
20
12.912105
30
0
11
-0.186691562615029
21
-0.37845773931624
31
0
210
0
220
0
230
1
40
0.962186
41
1.52136823789375
42
2.29626796574622
0
ELLIPSE
5
EF
100
AcDbEntity
8
1
62
256
6
ByLayer
370
-1
48
1
60
0
100
AcDbEllipse
10
63.302994
20
12.462385
30
0
11
0.763134941969021
21
1.54701327090169
31
0
210
0
220
0
230
1
40
0.962186
41
-1.34809515969898
42
-1.12763994580734
0
ELLIPSE
5
F0
100
AcDbEntity
8
1
62
256
6
ByLayer
370
-1
48
1
60
0
100
AcDbEllipse
10
63.302994
20
12.462385
30
0
11
0.763134941969021
21
1.54701327090169
31
0
210
0
220
0
230
1
40
0.962186
41
-1.12763994580733
42
0
0
ELLIPSE
5
F1
100
AcDbEntity
8
1
62
256
6
ByLayer
370
-1
48
1
60
0
100
AcDbEllipse
10
63.302994
20
12.462385
30
0
11
0.763134941969021
21
1.54701327090169
31
0
210
0
220
0
230
1
40
0.962186
41
0
42
1.60431499422092
0
ELLIPSE
5
F2
100
AcDbEntity
8
1
62
256
6
ByLayer
370
-1
48
1
60
0
100
AcDbEllipse
10
63.504793
20
12.362838
30
0
11
-0.330913006720477
21
-0.670820827034472
31
0
210
0
220
0
230
1
40
0.962186
41
-1.62022441569604
42
-1.56552104957047
0
ELLIPSE
5
F3
100
AcDbEntity
8
1
62
256
6
ByLayer
370
-1
48
1
60
0
100
AcDbEllipse
10
63.504793
20
12.362838
30
0
11
-0.330913006720477
21
-0.670820827034472
31
0
210
0
220
0
230
1
40
0.962186
41
-2.63011960480555
42
-1.62022441569604
0
ELLIPSE
5
F4
100
AcDbEntity
8
1
62
256
6
ByLayer
370
-1
48
1
60
0
100
AcDbEllipse
10
63.260506
20
12.483344
30
0
11
0.457880965181412
21
0.928207962541012
31
0
210
0
220
0
230
1
40
0.962186
41
-0.0507150583910041
42
0.998198452125408
0
ELLIPSE
5
F5
100
AcDbEntity
8
1
62
256
6
ByLayer
370
-1
48
1
60
0
100
AcDbEllipse
10
63.260506
20
12.483344
30
0
11
0.457880965181412
21
0.928207962541012
31
0
210
0
220
0
230
1
40
0.962186
41
-1.09705462992769
42
-0.0507150583910041
0
ELLIPSE
5
F6
100
AcDbEntity
8
1
62
256
6
ByLayer
370
-1
48
1
60
0
100
AcDbEllipse
10
63.302994
20
4.072782
30
0
11
-1.6650400246077
21
0.450851102310262
31
0
210
0
220
0
230
1
40
0.355533
41
2.77757237554427
42
-3.14157581509526
0
ELLIPSE
5
F7
100
AcDbEntity
8
1
62
256
6
ByLayer
370
-1
48
1
60
0
100
AcDbEllipse
10
63.302994
20
4.072782
30
0
11
-1.6650400246077
21
0.450851102310262
31
0
210
0
220
0
230
1
40
0.355533
41
3.93074108557621E-08
42
0.789168293345524
0
ELLIPSE
5
F8
100
AcDbEntity
8
1
62
256
6
ByLayer
370
-1
48
1
60
0
100
AcDbEllipse
10
63.260506
20
3.91587
30
0
11
-0.999024014764622
21
0.270510661386157
31
0
210
0
220
0
230
1
40
0.355533
41
-1.99927935402875
42
-0.950365843512344
0
ELLIPSE
5
F9
100
AcDbEntity
8
1
62
256
6
ByLayer
370
-1
48
1
60
0
100
AcDbEllipse
10
63.260506
20
3.91587
30
0
11
-0.999024014764622
21
0.270510661386157
31
0
210
0
220
0
230
1
40
0.355533
41
1.14231329956105
42
2.19122681007746
0
ELLIPSE
5
FA
100
AcDbEntity
8
1
62
256
6
ByLayer
370
-1
48
1
60
0
100
AcDbEllipse
10
63.260506
20
3.91587
30
0
11
-0.999024014764622
21
0.270510661386157
31
0
210
0
220
0
230
1
40
0.355533
41
0.095973728024355
42
1.14231329956105
0
ELLIPSE
5
FB
100
AcDbEntity
8
1
62
256
6
ByLayer
370
-1
48
1
60
0
100
AcDbEllipse
10
63.260506
20
3.91587
30
0
11
-1.25481277216812
21
0.339771845219328
31
0
210
0
220
0
230
1
40
0.355533
41
0
42
6.28318530717959
0
ELLIPSE
5
FC
100
AcDbEntity
8
1
62
256
6
ByLayer
370
-1
48
1
60
0
100
AcDbEllipse
10
63.302994
20
4.072782
30
0
11
-1.6650400246077
21
0.450851102310262
31
0
210
0
220
0
230
1
40
0.355533
41
-3.14149881395271
42
0
0
ELLIPSE
5
FD
100
AcDbEntity
8
1
62
256
6
ByLayer
370
-1
48
1
60
0
100
AcDbEllipse
10
63.302994
20
4.072782
30
0
11
-1.6650400246077
21
0.450851102310262
31
0
210
0
220
0
230
1
40
0.355533
41
2.77755597668734
42
3.0762032685448
0
ELLIPSE
5
FE
100
AcDbEntity
8
1
62
256
6
ByLayer
370
-1
48
1
60
0
100
AcDbEllipse
10
63.302994
20
4.072782
30
0
11
-1.6650400246077
21
0.450851102310262
31
0
210
0
220
0
230
1
40
0.355533
41
2.22120018997211
42
2.77755716710429
0
ELLIPSE
5
FF
100
AcDbEntity
8
1
62
256
6
ByLayer
370
-1
48
1
60
0
100
AcDbEllipse
10
63.302994
20
4.072782
30
0
11
-1.6650400246077
21
0.450851102310262
31
0
210
0
220
0
230
1
40
0.355533
41
0
42
0.920285968331925
0
ELLIPSE
5
100
100
AcDbEntity
8
1
62
256
6
ByLayer
370
-1
48
1
60
0
100
AcDbEllipse
10
63.260506
20
3.91587
30
0
11
-0.999024014764622
21
0.270510661386157
31
0
210
0
220
0
230
1
40
0.355533
41
-0.950365843512344
42
0.095973728024355
0
ELLIPSE
5
101
100
AcDbEntity
8
1
62
256
6
ByLayer
370
-1
48
1
60
0
100
AcDbEllipse
10
63.300985
20
4.065361
30
0
11
-0.721999964293659
21
0.195499492480044
31
0
210
0
220
0
230
1
40
0.355533
41
1.62903870290221
42
1.7045014067363
0
ELLIPSE
5
102
100
AcDbEntity
8
1
62
256
6
ByLayer
370
-1
48
1
60
0
100
AcDbEllipse
10
63.260506
20
3.91587
30
0
11
-0.999024014764622
21
0.270510661386157
31
0
210
0
220
0
230
1
40
0.355533
41
-3.04561892556544
42
-1.99927935402875
0
ELLIPSE
5
103
100
AcDbEntity
8
1
62
256
6
ByLayer
370
-1
48
1
60
0
100
AcDbEllipse
10
63.260506
20
3.91587
30
0
11
-0.999024014764622
21
0.270510661386157
31
0
210
0
220
0
230
1
40
0.355533
41
2.19122681007746
42
-3.04561892556544
0
POINT
5
42
100
AcDbEntity
8
2
62
256
6
ByLayer
370
-1
48
1
60
0
100
AcDbPoint
10
69
20
15.935
30
0
39
0
210
0
220
0
230
1
50
360
0
POINT
5
44
100
AcDbEntity
8
80
62
256
6
ByLayer
370
-1
48
1
60
0
100
AcDbPoint
10
0
20
0
30
0
39
0
210
0
220
0
230
1
50
360
0
POINT
5
46
100
AcDbEntity
8
81
62
256
6
ByLayer
370
-1
48
1
60
0
100
AcDbPoint
10
69
20
15.935
30
0
39
0
210
0
220
0
230
1
50
360
0
SPLINE
5
104
100
AcDbEntity
8
1
62
256
6
ByLayer
370
-1
48
1
60
0
100
AcDbSpline
70
4
71
1
72
4
73
2
40
0
40
0
40
1
40
1
41
1
10
68.5074546046262
20
0.903030057389032
30
0
41
1
10
68.7473855391721
20
2.8972938019005
30
0
0
SPLINE
5
105
100
AcDbEntity
8
1
62
256
6
ByLayer
370
-1
48
1
60
0
100
AcDbSpline
70
4
71
1
72
4
73
2
40
0
40
0
40
1
40
1
41
1
10
68.8855934371468
20
4.04605355085778
30
0
41
1
10
68.9720432054112
20
4.76460882551385
30
0
0
SPLINE
5
106
100
AcDbEntity
8
1
62
256
6
ByLayer
370
-1
48
1
60
0
100
AcDbSpline
70
4
71
3
72
11
73
7
40
0
40
0
40
0
40
0
40
0.204965652316197
40
0.461267443904662
40
0.768116635956561
40
1
40
1
40
1
40
1
41
1
10
68.270192587446
20
0.180272475853144
30
0
41
1
10
68.279163011945
20
0.345500575440866
30
0
41
1
10
68.299865618895
20
0.71693795507332
30
0
41
1
10
68.336290861479
20
1.33419835761339
30
0
41
1
10
68.3763845516998
20
1.97064208992214
30
0
41
1
10
68.4056057235994
20
2.40004630595172
30
0
41
1
10
68.4185444146461
20
2.58453737334136
30
0
0
SPLINE
5
107
100
AcDbEntity
8
1
62
256
6
ByLayer
370
-1
48
1
60
0
100
AcDbSpline
70
4
71
3
72
8
73
4
40
0
40
0
40
0
40
0
40
1
40
1
40
1
40
1
41
1
10
68.4200349008477
20
2.60576582225991
30
0
41
1
10
68.4228529578583
20
2.64585675873124
30
0
41
1
10
68.4256880414895
20
2.68593190164512
30
0
41
1
10
68.4285399555212
20
2.72599135926984
30
0
0
SPLINE
5
108
100
AcDbEntity
8
1
62
256
6
ByLayer
370
-1
48
1
60
0
100
AcDbSpline
70
4
71
2
72
6
73
3
40
0
40
0
40
0
40
1
40
1
40
1
41
1
10
67.9507507599687
20
2.52980848728365
30
-1E-16
41
1
10
68.0167662659684
20
2.54492591669612
30
-1E-16
41
1
10
68.0816535699852
20
2.56297197244416
30
-1E-16
0
SPLINE
5
109
100
AcDbEntity
8
1
62
256
6
ByLayer
370
-1
48
1
60
0
100
AcDbSpline
70
4
71
2
72
6
73
3
40
0
40
0
40
0
40
1
40
1
40
1
41
1
10
59.1401707122215
20
15.5317269206147
30
-2E-16
41
1
10
59.0588927352922
20
15.5282643791498
30
-2E-16
41
1
10
58.9778696807858
20
15.5158435800993
30
-2E-16
0
SPLINE
5
10A
100
AcDbEntity
8
1
62
256
6
ByLayer
370
-1
48
1
60
0
100
AcDbSpline
70
4
71
3
72
11
73
7
40
0
40
0
40
0
40
0
40
0.297223751518078
40
0.562894034801031
40
0.79706669493089
40
1
40
1
40
1
40
1
41
1
10
68.9608415211864
20
-11.331518171953
30
0
41
1
10
68.9118297640497
20
-11.0845003157935
30
0
41
1
10
68.8208136001871
20
-10.6189645712916
30
0
41
1
10
68.6958352935867
20
-9.96546211590763
30
0
41
1
10
68.5909831186698
20
-9.39471204217406
30
0
41
1
10
68.5276480644381
20
-9.04577287472523
30
0
41
1
10
68.4987260705286
20
-8.88484426552398
30
0
0
SPLINE
5
10B
100
AcDbEntity
8
1
62
256
6
ByLayer
370
-1
48
1
60
0
100
AcDbSpline
70
4
71
2
72
6
73
3
40
0
40
0
40
0
40
1
40
1
40
1
41
1
10
58.9875034718849
20
-10.4675878486219
30
-6E-16
41
1
10
59.0808690558142
20
-10.4917261809813
30
-6E-16
41
1
10
59.1744657596099
20
-10.509764235193
30
-6E-16
0
SPLINE
5
10C
100
AcDbEntity
8
1
62
256
6
ByLayer
370
-1
48
1
60
0
100
AcDbSpline
70
4
71
3
72
9
73
5
40
0
40
0
40
0
40
0
40
0.87688801558746
40
1
40
1
40
1
40
1
41
1
10
68.4873712790852
20
-13.2640681303025
30
0
41
1
10
68.5275894917569
20
-13.1008470108315
30
0
41
1
10
68.5749148464253
20
-12.9177144760779
30
0
41
1
10
68.6232076499525
20
-12.7380526471827
30
0
41
1
10
68.6291728842694
20
-12.7159863975585
30
0
0
SPLINE
5
10D
100
AcDbEntity
8
1
62
256
6
ByLayer
370
-1
48
1
60
0
100
AcDbSpline
70
4
71
3
72
8
73
4
40
0
40
0
40
0
40
0
40
1
40
1
40
1
40
1
41
1
10
68.4364445838463
20
2.5984326203918
30
0
41
1
10
68.4357769806618
20
2.60948311701603
30
0
41
1
10
68.4351100725536
20
2.62053367603954
30
0
41
1
10
68.4344438570253
20
2.63158430262263
30
0
0
SPLINE
5
10E
100
AcDbEntity
8
1
62
256
6
ByLayer
370
-1
48
1
60
0
100
AcDbSpline
70
4
71
1
72
4
73
2
40
0
40
0
40
1
40
1
41
1
10
68.9717519230339
20
3.3825494525658
30
0
41
1
10
68.5055419641945
20
6.97300064618301
30
0
0
SPLINE
5
10F
100
AcDbEntity
8
1
62
256
6
ByLayer
370
-1
48
1
60
0
100
AcDbSpline
70
4
71
2
72
6
73
3
40
0
40
0
40
0
40
1
40
1
40
1
41
1
10
59.0994600895094
20
7.13740104307877
30
-6E-16
41
1
10
59.0328468892092
20
7.15405952811599
30
-6E-16
41
1
10
58.9665073852792
20
7.1661999075439
30
-6E-16
0
SPLINE
5
110
100
AcDbEntity
8
1
62
256
6
ByLayer
370
-1
48
1
60
0
100
AcDbSpline
70
4
71
3
72
19
73
15
40
0
40
0
40
0
40
0
40
0.0345487156521923
40
0.0694666923254604
40
0.118731029417341
40
0.178094858977759
40
0.201966934159643
40
0.229256679894016
40
0.270111644320154
40
0.344736328798484
40
0.429086274846949
40
0.602567166889761
40
0.780259733259863
40
1
40
1
40
1
40
1
41
1
10
64.027645748879
20
3.20792955224491
30
-3E-16
41
1
10
64.063630542273
20
3.20521872191765
30
-3E-16
41
1
10
64.1311234600883
20
3.20217127847565
30
-3E-16
41
1
10
64.2273715363761
20
3.20770423849405
30
-3E-16
41
1
10
64.3262631036824
20
3.21925732647392
30
-3E-16
41
1
10
64.4335465092113
20
3.23249809593707
30
-3E-16
41
1
10
64.55480508522
20
3.21418869604591
30
-3E-16
41
1
10
64.6286596586523
20
3.19041288622245
30
-3E-16
41
1
10
64.7469180293246
20
3.15768108697625
30
-3E-16
41
1
10
64.9463568230203
20
3.12225321525895
30
-2E-16
41
1
10
65.2915493174486
20
3.08202485740816
30
-2E-16
41
1
10
65.7384878722439
20
3.02723680226146
30
-2E-16
41
1
10
66.325875533485
20
2.94261899335206
30
-2E-16
41
1
10
66.7303984189677
20
2.87130200048401
30
-1E-16
41
1
10
66.9532462926369
20
2.82829667155883
30
-1E-16
0
SPLINE
5
111
100
AcDbEntity
8
1
62
256
6
ByLayer
370
-1
48
1
60
0
100
AcDbSpline
70
4
71
3
72
13
73
9
40
0
40
0
40
0
40
0
40
0.216675514111031
40
0.390990114476279
40
0.523291998186912
40
0.64208250424494
40
0.800644643337816
40
1
40
1
40
1
40
1
41
1
10
60.1104090967192
20
8.99513500177829
30
-5E-16
41
1
10
60.0013830032374
20
8.85581943444993
30
-6E-16
41
1
10
59.8042432676432
20
8.60580301246597
30
-6E-16
41
1
10
59.539310970121
20
8.27454068306244
30
-6E-16
41
1
10
59.3234774157656
20
8.00732766445893
30
-6E-16
41
1
10
59.1150405022363
20
7.75086878257591
30
-6E-16
41
1
10
58.8717317184834
20
7.45315089284165
30
-6E-16
41
1
10
58.6894403932451
20
7.23072428818458
30
-6E-16
41
1
10
58.5879202196931
20
7.10713910430846
30
-6E-16
0
SPLINE
5
112
100
AcDbEntity
8
1
62
256
6
ByLayer
370
-1
48
1
60
0
100
AcDbSpline
70
4
71
3
72
9
73
5
40
0
40
0
40
0
40
0
40
0.449908196096502
40
1
40
1
40
1
40
1
41
1
10
58.3367016323385
20
5.83702938822378
30
-7E-16
41
1
10
58.225622311439
20
5.69478232978352
30
-7E-16
41
1
10
57.9791051607127
20
5.37891904971988
30
-7E-16
41
1
10
57.7326622092857
20
5.06255182305179
30
-7E-16
41
1
10
57.5971944023681
20
4.88848636432502
30
-7E-16
0
SPLINE
5
113
100
AcDbEntity
8
1
62
256
6
ByLayer
370
-1
48
1
60
0
100
AcDbSpline
70
4
71
3
72
8
73
4
40
0
40
0
40
0
40
0
40
1
40
1
40
1
40
1
41
1
10
57.438552241678
20
12.3681824377354
30
-7E-16
41
1
10
57.4795285525692
20
12.3671779398506
30
-7E-16
41
1
10
57.5205738576777
20
12.3677631762969
30
-7E-16
41
1
10
57.5607269605062
20
12.3698878968117
30
-7E-16
0
SPLINE
5
114
100
AcDbEntity
8
1
62
256
6
ByLayer
370
-1
48
1
60
0
100
AcDbSpline
70
4
71
2
72
6
73
3
40
0
40
0
40
0
40
1
40
1
40
1
41
0.500000143700478
10
66.6734351429991
20
-5.04439371636076
30
-1E-16
41
0.499999856299522
10
67.1528384900348
20
-5.03764984378824
30
-1E-16
41
0.500000143700478
10
67.6322686200981
20
-5.03089429753991
30
-1E-16
0
SPLINE
5
115
100
AcDbEntity
8
1
62
256
6
ByLayer
370
-1
48
1
60
0
100
AcDbSpline
70
4
71
3
72
10
73
6
40
0
40
0
40
0
40
0
40
0.762152280798268
40
0.762152280798268
40
1
40
1
40
1
40
1
41
1
10
58.0922529159113
20
6.50633086579569
30
-7E-16
41
1
10
58.0204644702598
20
6.48822212234052
30
-7E-16
41
1
10
57.9502257374608
20
6.46325482880712
30
-7E-16
41
1
10
57.8607048763404
20
6.42376256279817
30
-7E-16
41
1
10
57.8394973785307
20
6.41381126735536
30
-7E-16
41
1
10
57.8184774369566
20
6.40338316335968
30
-7E-16
0
SPLINE
5
116
100
AcDbEntity
8
1
62
256
6
ByLayer
370
-1
48
1
60
0
100
AcDbSpline
70
4
71
3
72
8
73
4
40
0
40
0
40
0
40
0
40
1
40
1
40
1
40
1
41
1
10
68.23341916
20
-2.76663058875653
30
0
41
1
10
68.23341916
20
-2.8028030198976
30
0
41
1
10
68.2369719938491
20
-2.83904469211785
30
0
41
1
10
68.2442020545389
20
-2.87464809944729
30
0
0
SPLINE
5
117
100
AcDbEntity
8
1
62
256
6
ByLayer
370
-1
48
1
60
0
100
AcDbSpline
70
4
71
3
72
18
73
14
40
0
40
0
40
0
40
0
40
0.168088506183543
40
0.168088506183543
40
0.335508183321295
40
0.335508183321295
40
0.514059954902676
40
0.514059954902676
40
0.722200865876593
40
0.722200865876593
40
0.96751692214341
40
0.96751692214341
40
1
40
1
40
1
40
1
41
1
10
67.6322686200961
20
-5.03089429754087
30
-1E-16
41
1
10
67.7112554810906
20
-5.02978131076972
30
-1E-16
41
1
10
67.7913444542014
20
-5.0170029847657
30
-1E-16
41
1
10
67.9396458756662
20
-4.97175051721032
30
-1E-16
41
1
10
68.0098774682793
20
-4.93886550636211
30
-1E-16
41
1
10
68.1382588888511
20
-4.8568623214212
30
-1E-16
41
1
10
68.1969028725095
20
-4.80592271297851
30
0
41
1
10
68.3025847835317
20
-4.68598967866771
30
0
41
1
10
68.3474693788045
20
-4.6140278834205
30
0
41
1
10
68.4173265710372
20
-4.45217031146063
30
0
41
1
10
68.4383260006339
20
-4.35934012355554
30
0
41
1
10
68.4432740976279
20
-4.25504634724908
30
0
41
1
10
68.44356506
20
-4.2427612011987
30
0
41
1
10
68.44356506
20
-4.23048253042796
30
0
0
SPLINE
5
118
100
AcDbEntity
8
1
62
256
6
ByLayer
370
-1
48
1
60
0
100
AcDbSpline
70
4
71
3
72
8
73
4
40
0
40
0
40
0
40
0
40
1
40
1
40
1
40
1
41
1
10
60.5804424629952
20
-15.2155398782413
30
0
41
1
10
60.6032451022704
20
-15.2189547676439
30
0
41
1
10
60.626647727743
20
-15.2209137340068
30
0
41
1
10
60.6497413873226
20
-15.2213328211279
30
0
0
SPLINE
5
119
100
AcDbEntity
8
1
62
256
6
ByLayer
370
-1
48
1
60
0
100
AcDbSpline
70
4
71
3
72
8
73
4
40
0
40
0
40
0
40
0
40
1
40
1
40
1
40
1
41
1
10
57.4385522416778
20
7.43158200105944
30
-7E-16
41
1
10
57.4794648596112
20
7.42631276727258
30
-7E-16
41
1
10
57.5204255996824
20
7.42221660960627
30
-7E-16
41
1
10
57.5607269605061
20
7.41935227375436
30
-7E-16
0
SPLINE
5
11A
100
AcDbEntity
8
1
62
256
6
ByLayer
370
-1
48
1
60
0
100
AcDbSpline
70
4
71
3
72
28
73
24
40
0
40
0
40
0
40
0
40
0.0893731816777053
40
0.0893731816777053
40
0.177630823340194
40
0.177630823340194
40
0.280641793095859
40
0.280641793095859
40
0.400158257488785
40
0.400158257488785
40
0.488178473312099
40
0.488178473312099
40
0.576356993858708
40
0.576356993858708
40
0.66271503409502
40
0.66271503409502
40
0.758894384475039
40
0.758894384475039
40
0.871841670482477
40
0.871841670482477
40
0.956731420774127
40
0.956731420774127
40
1
40
1
40
1
40
1
41
1
10
63.8850402481437
20
-4.58506388109424
30
-3E-16
41
1
10
63.8850402481437
20
-4.65670304922122
30
-3E-16
41
1
10
63.8959963458011
20
-4.74139784814179
30
-3E-16
41
1
10
63.9370935844448
20
-4.9148397860107
30
-3E-16
41
1
10
63.9674099160868
20
-5.00557721408268
30
-3E-16
41
1
10
64.0516762152881
20
-5.19539618687736
30
-3E-16
41
1
10
64.1098207947526
20
-5.29589950474889
30
-3E-16
41
1
10
64.2602133741097
20
-5.49038037763074
30
-3E-16
41
1
10
64.3594696889843
20
-5.58416536746344
30
-3E-16
41
1
10
64.5540243754028
20
-5.70372453734933
30
-3E-16
41
1
10
64.6458314973829
20
-5.74199967728143
30
-3E-16
41
1
10
64.8337742600401
20
-5.78422659142043
30
-3E-16
41
1
10
64.9323524494949
20
-5.78861521651783
30
-2E-16
41
1
10
65.1198616580143
20
-5.76519838245778
30
-2E-16
41
1
10
65.2112080050841
20
-5.73797779758752
30
-2E-16
41
1
10
65.3890156551569
20
-5.65604072565873
30
-2E-16
41
1
10
65.4759841753001
20
-5.59776358092154
30
-2E-16
41
1
10
65.6404093280791
20
-5.45203377605807
30
-2E-16
41
1
10
65.7162816260842
20
-5.35906780322412
30
-2E-16
41
1
10
65.8137239765487
20
-5.18939634096989
30
-2E-16
41
1
10
65.8448199524519
20
-5.11264068397682
30
-2E-16
41
1
10
65.8687397268397
20
-5.00200696355745
30
-2E-16
41
1
10
65.872931631111
20
-4.96503968030819
30
-2E-16
41
1
10
65.872931631111
20
-4.92983775732287
30
-2E-16
0
SPLINE
5
11B
100
AcDbEntity
8
1
62
256
6
ByLayer
370
-1
48
1
60
0
100
AcDbSpline
70
4
71
3
72
20
73
16
40
0
40
0
40
0
40
0
40
0.0466963232719278
40
0.0466963232719278
40
0.149858755583949
40
0.149858755583949
40
0.286166232142708
40
0.286166232142708
40
0.471084830112769
40
0.471084830112769
40
0.538154072426418
40
0.538154072426418
40
0.8117047000714
40
0.8117047000714
40
1
40
1
40
1
40
1
41
1
10
42.3253511733852
20
7.98327547135807
30
1E-16
41
1
10
42.3238509404502
20
8.02129763707711
30
1E-16
41
1
10
42.3258316623123
20
8.05940994664311
30
1E-16
41
1
10
42.3429783949253
20
8.17977640892983
30
1E-16
41
1
10
42.3717027579159
20
8.26117271131199
30
1E-16
41
1
10
42.4678164432887
20
8.43461502675015
30
2E-16
41
1
10
42.5457468711417
20
8.52466907372207
30
2E-16
41
1
10
42.7581432725545
20
8.70719430461358
30
2E-16
41
1
10
42.9061355875006
20
8.79299099526702
30
2E-16
41
1
10
43.1205958866494
20
8.88429497677231
30
2E-16
41
1
10
43.1797250612947
20
8.90643570981317
30
2E-16
41
1
10
43.4818843367519
20
9.00614694646208
30
2E-16
41
1
10
43.7450127827022
20
9.05066593183471
30
2E-16
41
1
10
44.1867278764779
20
9.07188129148366
30
3E-16
41
1
10
44.3692197001375
20
9.0655062179604
30
3E-16
41
1
10
44.5477541246226
20
9.0438601939309
30
3E-16
0
SPLINE
5
11C
100
AcDbEntity
8
1
62
256
6
ByLayer
370
-1
48
1
60
0
100
AcDbSpline
70
4
71
3
72
12
73
8
40
0
40
0
40
0
40
0
40
0.25
40
0.25
40
0.5
40
0.5
40
1
40
1
40
1
40
1
41
1
10
50.0846958186827
20
-14.5458487941432
30
2E-16
41
1
10
48.8804549508194
20
-14.4923669514457
30
1E-16
41
1
10
47.7315727902185
20
-14.3898030233256
30
0
41
1
10
45.7717425413626
20
-13.9659399902368
30
4E-16
41
1
10
44.9432254044537
20
-13.634709953719
30
3E-16
41
1
10
43.0158537048345
20
-12.1771738444416
30
2E-16
41
1
10
42.4085928747364
20
-10.5646925797728
30
1E-16
41
1
10
42.3253511733852
20
-8.51609487851735
30
1E-16
0
SPLINE
5
11D
100
AcDbEntity
8
1
62
256
6
ByLayer
370
-1
48
1
60
0
100
AcDbSpline
70
4
71
3
72
8
73
4
40
0
40
0
40
0
40
0
40
1
40
1
40
1
40
1
41
1
10
68.23341916
20
-12.8991322017393
30
0
41
1
10
68.23341916
20
-12.9380429670181
30
0
41
1
10
68.2369719938491
20
-12.9771286756969
30
0
41
1
10
68.2442020545388
20
-13.0156317793779
30
0
0
SPLINE
5
11E
100
AcDbEntity
8
1
62
256
6
ByLayer
370
-1
48
1
60
0
100
AcDbSpline
70
4
71
3
72
18
73
14
40
0
40
0
40
0
40
0
40
0.105342254155239
40
0.105342254155239
40
0.313801476634386
40
0.313801476634386
40
0.517272834846184
40
0.517272834846184
40
0.72099045971096
40
0.72099045971096
40
0.929425328482673
40
0.929425328482673
40
1
40
1
40
1
40
1
41
1
10
68.44356506
20
-9.1742768704143
30
0
41
1
10
68.44356506
20
-9.2068042211578
30
0
41
1
10
68.4398263927406
20
-9.23880430967878
30
0
41
1
10
68.4176903524589
20
-9.33021844071399
30
0
41
1
10
68.3879037522132
20
-9.38724629493109
30
0
41
1
10
68.3040094651024
20
-9.48290532984558
30
0
41
1
10
68.2493657810552
20
-9.52324558160188
30
0
41
1
10
68.1229085783149
20
-9.58370127787816
30
-1E-16
41
1
10
68.0494040033719
20
-9.6046184971155
30
-1E-16
41
1
10
67.8921920795194
20
-9.62530996880434
30
-1E-16
41
1
10
67.8062112440765
20
-9.62488711451675
30
-1E-16
41
1
10
67.691151001047
20
-9.61023959737986
30
-1E-16
41
1
10
67.6616505681895
20
-9.60527783718186
30
-1E-16
41
1
10
67.6322686200961
20
-9.59914820408915
30
-1E-16
0
SPLINE
5
11F
100
AcDbEntity
8
1
62
256
6
ByLayer
370
-1
48
1
60
0
100
AcDbSpline
70
4
71
3
72
16
73
12
40
0
40
0
40
0
40
0
40
0.229743985900536
40
0.229743985900536
40
0.459857491652549
40
0.459857491652549
40
0.687920805256974
40
0.687920805256974
40
0.906051455171312
40
0.906051455171312
40
1
40
1
40
1
40
1
41
1
10
60.5804424629958
20
-7.60193967606969
30
-5E-16
41
1
10
60.4194583024433
20
-7.58928955433015
30
-5E-16
41
1
10
60.256239624338
20
-7.60028244431098
30
-5E-16
41
1
10
59.951569021273
20
-7.66805222461971
30
-6E-16
41
1
10
59.8059345774072
20
-7.72587620468067
30
-6E-16
41
1
10
59.5553494025978
20
-7.87931711164055
30
-6E-16
41
1
10
59.4464796226913
20
-7.97686512635184
30
-6E-16
41
1
10
59.2858484813218
20
-8.19211119119171
30
-6E-16
41
1
10
59.2296098883865
20
-8.3118372736966
30
-6E-16
41
1
10
59.1894054984904
20
-8.48863514313027
30
-6E-16
41
1
10
59.182305618182
20
-8.54329950514366
30
-6E-16
41
1
10
59.1804276837339
20
-8.59812365741405
30
-6E-16
0
SPLINE
5
120
100
AcDbEntity
8
1
62
256
6
ByLayer
370
-1
48
1
60
0
100
AcDbSpline
70
4
71
3
72
18
73
14
40
0
40
0
40
0
40
0
40
0.0917068797146684
40
0.0917068797146684
40
0.196162500172805
40
0.196162500172805
40
0.347591148292166
40
0.347591148292166
40
0.556563781315571
40
0.556563781315571
40
0.833401470706197
40
0.833401470706197
40
1
40
1
40
1
40
1
41
1
10
42.3253511733852
20
-8.51609487851729
30
1E-16
41
1
10
42.3224152933562
20
-8.44384218568595
30
1E-16
41
1
10
42.3330858077749
20
-8.37004293507084
30
1E-16
41
1
10
42.3816782012768
20
-8.2184753637915
30
1E-16
41
1
10
42.4236705782316
20
-8.13989636437464
30
1E-16
41
1
10
42.5530095817567
20
-7.96370207762004
30
2E-16
41
1
10
42.6539444989472
20
-7.87016112386695
30
2E-16
41
1
10
42.9206347137095
20
-7.68205695674521
30
2E-16
41
1
10
43.1009643514565
20
-7.59645771985055
30
2E-16
41
1
10
43.535710225363
20
-7.45208616560467
30
2E-16
41
1
10
43.8034348173832
20
-7.40773990714737
30
2E-16
41
1
10
44.2284163293731
20
-7.39431105678446
30
3E-16
41
1
10
44.3895941473909
20
-7.40220540283221
30
3E-16
41
1
10
44.5477541246209
20
-7.42317894441962
30
3E-16
0
SPLINE
5
121
100
AcDbEntity
8
1
62
256
6
ByLayer
370
-1
48
1
60
0
100
AcDbSpline
70
4
71
3
72
8
73
4
40
0
40
0
40
0
40
0
40
1
40
1
40
1
40
1
41
1
10
60.6497413873234
20
9.3897091025616
30
-5E-16
41
1
10
60.6268177627274
20
9.39264962195844
30
-5E-16
41
1
10
60.6034394528206
20
9.39309279316299
30
-5E-16
41
1
10
60.580442462996
20
9.39093234744115
30
-5E-16
0
SPLINE
5
122
100
AcDbEntity
8
1
62
256
6
ByLayer
370
-1
48
1
60
0
100
AcDbSpline
70
4
71
3
72
8
73
4
40
0
40
0
40
0
40
0
40
1
40
1
40
1
40
1
41
1
10
58.2285201046278
20
-14.8486023393229
30
0
41
1
10
58.0057147823327
20
-14.8133511382308
30
0
41
1
10
57.7831104632039
20
-14.7777361966694
30
0
41
1
10
57.560726960506
20
-14.7416476110311
30
0
0
SPLINE
5
123
100
AcDbEntity
8
1
62
256
6
ByLayer
370
-1
48
1
60
0
100
AcDbSpline
70
4
71
3
72
8
73
4
40
0
40
0
40
0
40
0
40
1
40
1
40
1
40
1
41
1
10
58.2285201046279
20
12.4169596689233
30
-7E-16
41
1
10
58.5766048466511
20
12.4476069436531
30
-6E-16
41
1
10
58.924703091893
20
12.4782238080564
30
-6E-16
41
1
10
59.2728142270308
20
12.5088115237699
30
-6E-16
0
SPLINE
5
124
100
AcDbEntity
8
1
62
256
6
ByLayer
370
-1
48
1
60
0
100
AcDbSpline
70
4
71
2
72
6
73
3
40
0
40
0
40
0
40
1
40
1
40
1
41
0.500000239591504
10
62.3756455116239
20
12.6667192486811
30
-4E-16
41
0.499999760408496
10
63.1894002135439
20
12.6852573223739
30
-4E-16
41
0.500000239591504
10
64.0032448008453
20
12.7037816663676
30
-3E-16
0
SPLINE
5
125
100
AcDbEntity
8
1
62
256
6
ByLayer
370
-1
48
1
60
0
100
AcDbSpline
70
4
71
3
72
8
73
4
40
0
40
0
40
0
40
0
40
1
40
1
40
1
40
1
41
1
10
57.4385522416777
20
-4.72708078043848
30
-7E-16
41
1
10
56.7531678985969
20
-4.69789947760904
30
-7E-16
41
1
10
56.0816337626848
20
-4.60781477152335
30
-8E-16
41
1
10
55.4242139866599
20
-4.45453471611151
30
-8E-16
0
SPLINE
5
126
100
AcDbEntity
8
1
62
256
6
ByLayer
370
-1
48
1
60
0
100
AcDbSpline
70
4
71
3
72
8
73
4
40
0
40
0
40
0
40
0
40
1
40
1
40
1
40
1
41
1
10
57.7509119554801
20
-9.10126056236322
30
-7E-16
41
1
10
57.6875149047109
20
-9.08665627957089
30
-7E-16
41
1
10
57.6241198996102
20
-9.07204370100374
30
-7E-16
41
1
10
57.560726960506
20
-9.05742277197893
30
-7E-16
0
SPLINE
5
127
100
AcDbEntity
8
1
62
256
6
ByLayer
370
-1
48
1
60
0
100
AcDbSpline
70
4
71
3
72
14
73
10
40
0
40
0
40
0
40
0
40
0.0430975129234347
40
0.0430975129234347
40
0.370595595138495
40
0.370595595138495
40
0.701000071903945
40
0.701000071903945
40
1
40
1
40
1
40
1
41
1
10
58.7903331151576
20
-8.9585484807867
30
-6E-16
41
1
10
58.7744331622966
20
-8.95392292934613
30
-6E-16
41
1
10
58.7584433361432
20
-8.94957274800976
30
-6E-16
41
1
10
58.621652592115
20
-8.91491160488377
30
-6E-16
41
1
10
58.4951768620069
20
-8.90017863446451
30
-6E-16
41
1
10
58.2503863175708
20
-8.90531125299361
30
-7E-16
41
1
10
58.1286220731161
20
-8.92560735022016
30
-7E-16
41
1
10
57.9196721166713
20
-8.99548980636644
30
-7E-16
41
1
10
57.8276934679037
20
-9.04301528407015
30
-7E-16
41
1
10
57.7509119554801
20
-9.10126056236322
30
-7E-16
0
SPLINE
5
128
100
AcDbEntity
8
1
62
256
6
ByLayer
370
-1
48
1
60
0
100
AcDbSpline
70
4
71
3
72
8
73
4
40
0
40
0
40
0
40
0
40
1
40
1
40
1
40
1
41
1
10
58.2285201046278
20
-14.8486023393229
30
0
41
1
10
58.576604846651
20
-14.9036746558715
30
0
41
1
10
58.924703091893
20
-14.9586789245328
30
0
41
1
10
59.2728142270308
20
-15.0136179704006
30
0
0
SPLINE
5
129
100
AcDbEntity
8
1
62
256
6
ByLayer
370
-1
48
1
60
0
100
AcDbSpline
70
4
71
3
72
22
73
18
40
0
40
0
40
0
40
0
40
0.124409052045505
40
0.124409052045505
40
0.262092215678181
40
0.262092215678181
40
0.399648928616344
40
0.399648928616344
40
0.537691144056721
40
0.537691144056721
40
0.676663698673579
40
0.676663698673579
40
0.816680277337994
40
0.816680277337994
40
0.957438648295725
40
0.957438648295725
40
1
40
1
40
1
40
1
41
1
10
61.0366550178244
20
-7.91774472072646
30
-5E-16
41
1
10
60.973462836272
20
-7.86092823311148
30
-5E-16
41
1
10
60.8974701520398
20
-7.81142564157969
30
-5E-16
41
1
10
60.7212321730981
20
-7.7296474250835
30
-5E-16
41
1
10
60.6167770660202
20
-7.69870810202212
30
-5E-16
41
1
10
60.4015541054184
20
-7.66599435196079
30
-5E-16
41
1
10
60.2878428276104
20
-7.6637418200753
30
-5E-16
41
1
10
60.0664572174923
20
-7.68776850586602
30
-5E-16
41
1
10
59.9557757915191
20
-7.71447173940709
30
-6E-16
41
1
10
59.7521766997474
20
-7.7930193058252
30
-6E-16
41
1
10
59.6565910131521
20
-7.84610226945813
30
-6E-16
41
1
10
59.4933974617541
20
-7.9713670291992
30
-6E-16
41
1
10
59.4237557315819
20
-8.04540894615576
30
-6E-16
41
1
10
59.3200522302591
20
-8.20411371511597
30
-6E-16
41
1
10
59.284745344531
20
-8.29102558513384
30
-6E-16
41
1
10
59.2643142647632
20
-8.4045984817015
30
-6E-16
41
1
10
59.2612961542205
20
-8.43126280199169
30
-6E-16
41
1
10
59.2600554469134
20
-8.45787292044363
30
-6E-16
0
SPLINE
5
12A
100
AcDbEntity
8
1
62
256
6
ByLayer
370
-1
48
1
60
0
100
AcDbSpline
70
4
71
3
72
20
73
16
40
0
40
0
40
0
40
0
40
0.154496183332874
40
0.154496183332874
40
0.31211035717479
40
0.31211035717479
40
0.470280825756161
40
0.470280825756161
40
0.629517288410535
40
0.629517288410535
40
0.78995000666169
40
0.78995000666169
40
0.951232679647703
40
0.951232679647703
40
1
40
1
40
1
40
1
41
1
10
60.8080520696944
20
8.95833351331291
30
-5E-16
41
1
10
60.7169099820687
20
9.01374339733496
30
-5E-16
41
1
10
60.6145504564798
20
9.05647535224085
30
-5E-16
41
1
10
60.4015541054184
20
9.11033006011814
30
-5E-16
41
1
10
60.2878428276104
20
9.12154872726163
30
-5E-16
41
1
10
60.0664572174923
20
9.11039241846794
30
-5E-16
41
1
10
59.9557757915191
20
9.08775623802089
30
-6E-16
41
1
10
59.7521766997474
20
9.01214158802986
30
-6E-16
41
1
10
59.6565910131521
20
8.95793493208461
30
-6E-16
41
1
10
59.4933974617541
20
8.82558195643395
30
-6E-16
41
1
10
59.4237557315819
20
8.74544602596754
30
-6E-16
41
1
10
59.3200522302591
20
8.57052194966704
30
-6E-16
41
1
10
59.284745344531
20
8.47324026726122
30
-6E-16
41
1
10
59.2643142647632
20
8.34429120151202
30
-6E-16
41
1
10
59.2612961542205
20
8.31389002334515
30
-6E-16
41
1
10
59.2600554469134
20
8.28342190554821
30
-6E-16
0
SPLINE
5
12B
100
AcDbEntity
8
1
62
256
6
ByLayer
370
-1
48
1
60
0
100
AcDbSpline
70
4
71
3
72
10
73
6
40
0
40
0
40
0
40
0
40
0.705853382289443
40
0.705853382289443
40
1
40
1
40
1
40
1
41
1
10
68.23341916
20
-0.293944935662751
30
0
41
1
10
68.23341916
20
-0.181760528610596
30
0
41
1
10
68.2107325255744
20
-0.0679418652703703
30
0
41
1
10
68.1426021094471
20
0.0810284848820118
30
-1E-16
41
1
10
68.1175950584904
20
0.124081313234029
30
-1E-16
41
1
10
68.0869725506025
20
0.164171941520607
30
-1E-16
0
SPLINE
5
12C
100
AcDbEntity
8
1
62
256
6
ByLayer
370
-1
48
1
60
0
100
AcDbSpline
70
4
71
3
72
18
73
14
40
0
40
0
40
0
40
0
40
0.168088506183532
40
0.168088506183532
40
0.335508183321284
40
0.335508183321284
40
0.514059954902663
40
0.514059954902663
40
0.722200865876578
40
0.722200865876578
40
0.96751692214339
40
0.96751692214339
40
1
40
1
40
1
40
1
41
1
10
67.6322686200961
20
-15.3178075011255
30
0
41
1
10
67.7112554810906
20
-15.3188437064934
30
0
41
1
10
67.7913444542014
20
-15.3073626438294
30
0
41
1
10
67.9396458756661
20
-15.2628778626506
30
0
41
1
10
68.0098774682792
20
-15.2294892648252
30
1E-16
41
1
10
68.138258888851
20
-15.1449083927664
30
-1E-16
41
1
10
68.1969028725095
20
-15.0917707703609
30
0
41
1
10
68.3025847835317
20
-14.9657468185793
30
0
41
1
10
68.3474693788045
20
-14.8896065195727
30
0
41
1
10
68.4173265710371
20
-14.7174712619793
30
0
41
1
10
68.4383260006338
20
-14.618207404646
30
0
41
1
10
68.4432740976279
20
-14.5061582689874
30
0
41
1
10
68.44356506
20
-14.4929513371454
30
0
41
1
10
68.44356506
20
-14.4797431434679
30
0
0
SPLINE
5
12D
100
AcDbEntity
8
1
62
256
6
ByLayer
370
-1
48
1
60
0
100
AcDbSpline
70
4
71
3
72
8
73
4
40
0
40
0
40
0
40
0
40
1
40
1
40
1
40
1
41
1
10
57.4385522416777
20
-14.7316304644422
30
0
41
1
10
56.7531678985969
20
-14.7298484367132
30
0
41
1
10
56.0816337626848
20
-14.7246778585074
30
0
41
1
10
55.4242139866599
20
-14.7122592813303
30
1E-16
0
SPLINE
5
12E
100
AcDbEntity
8
1
62
256
6
ByLayer
370
-1
48
1
60
0
100
AcDbSpline
70
4
71
3
72
8
73
4
40
0
40
0
40
0
40
0
40
1
40
1
40
1
40
1
41
1
10
68.44356506
20
-3.8340318175097
30
0
41
1
10
68.3757419247022
20
-3.51443976345669
30
0
41
1
10
68.3091867208774
20
-3.1946558621901
30
0
41
1
10
68.2442020545389
20
-2.87464809944729
30
0
0
SPLINE
5
12F
100
AcDbEntity
8
1
62
256
6
ByLayer
370
-1
48
1
60
0
100
AcDbSpline
70
4
71
3
72
8
73
4
40
0
40
0
40
0
40
0
40
1
40
1
40
1
40
1
41
1
10
68.4292636261376
20
-12.7650558486243
30
0
41
1
10
68.4340303912155
20
-12.7837610540776
30
0
41
1
10
68.4387975378926
20
-12.8024661367197
30
0
41
1
10
68.44356506
20
-12.8211710985124
30
0
0
SPLINE
5
130
100
AcDbEntity
8
1
62
256
6
ByLayer
370
-1
48
1
60
0
100
AcDbSpline
70
4
71
3
72
12
73
8
40
0
40
0
40
0
40
0
40
0.25473391893948
40
0.25473391893948
40
0.569618266989072
40
0.569618266989072
40
1
40
1
40
1
40
1
41
1
10
60.6497413873233
20
11.8314664696543
30
-5E-16
41
1
10
60.8433161958169
20
11.8440745068728
30
-5E-16
41
1
10
61.0355076722107
20
11.8828090187885
30
-5E-16
41
1
10
61.4267239510137
20
12.0047374284227
30
-5E-16
41
1
10
61.6244567486115
20
12.0977646105238
30
-5E-16
41
1
10
62.0296120667884
20
12.3409923255838
30
-4E-16
41
1
10
62.2224378722595
20
12.5034781925871
30
-4E-16
41
1
10
62.3756455116237
20
12.6667192486848
30
-4E-16
0
SPLINE
5
131
100
AcDbEntity
8
1
62
256
6
ByLayer
370
-1
48
1
60
0
100
AcDbSpline
70
4
71
3
72
8
73
4
40
0
40
0
40
0
40
0
40
1
40
1
40
1
40
1
41
1
10
57.6530761529156
20
5.61393821054014
30
-7E-16
41
1
10
57.6273788850653
20
5.62762670057009
30
-7E-16
41
1
10
57.6023385082961
20
5.64104945194347
30
-7E-16
41
1
10
57.5779787854512
20
5.65403544688439
30
-7E-16
0
SPLINE
5
132
100
AcDbEntity
8
1
62
256
6
ByLayer
370
-1
48
1
60
0
100
AcDbSpline
70
4
71
3
72
12
73
8
40
0
40
0
40
0
40
0
40
0.254511436920305
40
0.254511436920305
40
0.569120768176484
40
0.569120768176484
40
1
40
1
40
1
40
1
41
1
10
60.6497413873233
20
-15.2213328211215
30
0
41
1
10
60.8433161958169
20
-15.2248456774934
30
-1E-16
41
1
10
61.0355076722107
20
-15.2303375689934
30
0
41
1
10
61.4267239510136
20
-15.2427735696023
30
0
41
1
10
61.6244567486115
20
-15.2498054316702
30
0
41
1
10
62.0296120667834
20
-15.2591173213869
30
0
41
1
10
62.2224378722531
20
-15.258744992915
30
0
41
1
10
62.3756455116157
20
-15.2484820947805
30
0
0
SPLINE
5
133
100
AcDbEntity
8
1
62
256
6
ByLayer
370
-1
48
1
60
0
100
AcDbSpline
70
4
71
3
72
10
73
6
40
0
40
0
40
0
40
0
40
0.616912428963759
40
0.616912428963759
40
1
40
1
40
1
40
1
41
1
10
58.8801523067695
20
3.8195450295523
30
3E-16
41
1
10
58.8698708543161
20
3.75490915266567
30
3E-16
41
1
10
58.8601150368638
20
3.69229053719658
30
3E-16
41
1
10
58.8454499669528
20
3.59592157719638
30
3E-16
41
1
10
58.8400543687345
20
3.5598788381524
30
3E-16
41
1
10
58.8349639851484
20
3.52521845284406
30
3E-16
0
SPLINE
5
134
100
AcDbEntity
8
1
62
256
6
ByLayer
370
-1
48
1
60
0
100
AcDbSpline
70
4
71
3
72
8
73
4
40
0
40
0
40
0
40
0
40
1
40
1
40
1
40
1
41
1
10
57.4385522416778
20
12.3681824377363
30
-7E-16
41
1
10
56.753167898597
20
12.3849840264576
30
-7E-16
41
1
10
56.0816337626848
20
12.4371971721227
30
1E-16
41
1
10
55.4242139866599
20
12.522255414073
30
1E-16
0
SPLINE
5
135
100
AcDbEntity
8
1
62
256
6
ByLayer
370
-1
48
1
60
0
100
AcDbSpline
70
4
71
3
72
8
73
4
40
0
40
0
40
0
40
0
40
1
40
1
40
1
40
1
41
1
10
60.5804424629952
20
11.8271645203135
30
-5E-16
41
1
10
60.6032451022704
20
11.8284932573724
30
-5E-16
41
1
10
60.626647727743
20
11.8299623187691
30
-5E-16
41
1
10
60.6497413873227
20
11.831466469654
30
-5E-16
0
SPLINE
5
136
100
AcDbEntity
8
1
62
256
6
ByLayer
370
-1
48
1
60
0
100
AcDbSpline
70
4
71
3
72
12
73
8
40
0
40
0
40
0
40
0
40
0.254598112855974
40
0.254598112855974
40
0.569314586873583
40
0.569314586873583
40
1
40
1
40
1
40
1
41
1
10
60.6497413873233
20
-6.36623737185511
30
-5E-16
41
1
10
60.8433161958168
20
-6.35226257438265
30
-5E-16
41
1
10
61.0355076722106
20
-6.30067053046042
30
-5E-16
41
1
10
61.4267239510135
20
-6.13034408297301
30
-5E-16
41
1
10
61.6244567486114
20
-5.99637815290617
30
-5E-16
41
1
10
62.0296120667856
20
-5.63129008894816
30
-4E-16
41
1
10
62.2224378722556
20
-5.37662630593553
30
-4E-16
41
1
10
62.375645511619
20
-5.10462462976187
30
-4E-16
0
SPLINE
5
137
100
AcDbEntity
8
1
62
256
6
ByLayer
370
-1
48
1
60
0
100
AcDbSpline
70
4
71
3
72
18
73
14
40
0
40
0
40
0
40
0
40
0.0803991331756091
40
0.0803991331756091
40
0.260261480612574
40
0.260261480612574
40
0.440447311227533
40
0.440447311227533
40
0.616913134353188
40
0.616913134353188
40
0.813448027758101
40
0.813448027758101
40
1
40
1
40
1
40
1
41
1
10
64.3651344867289
20
-14.2726539488247
30
2E-16
41
1
10
64.3989907328511
20
-14.2769671389397
30
2E-16
41
1
10
64.4344225037821
20
-14.2798721243616
30
2E-16
41
1
10
64.5540243754027
20
-14.2846739414615
30
2E-16
41
1
10
64.6458314973828
20
-14.2807698253141
30
2E-16
41
1
10
64.8337742600401
20
-14.2590379287373
30
2E-16
41
1
10
64.9323524494949
20
-14.240891206992
30
2E-16
41
1
10
65.1198616580143
20
-14.1936006443956
30
2E-16
41
1
10
65.2112080050841
20
-14.1641761639659
30
2E-16
41
1
10
65.3890156551569
20
-14.0926013737086
30
-2E-16
41
1
10
65.4759841753001
20
-14.0486080792636
30
-2E-16
41
1
10
65.6234095142946
20
-13.9519887919866
30
-2E-16
41
1
10
65.6867198918776
20
-13.8989418804072
30
-2E-16
41
1
10
65.7377027423058
20
-13.8389136730623
30
-1E-16
0
SPLINE
5
138
100
AcDbEntity
8
1
62
256
6
ByLayer
370
-1
48
1
60
0
100
AcDbSpline
70
4
71
3
72
8
73
4
40
0
40
0
40
0
40
0
40
1
40
1
40
1
40
1
41
1
10
57.4385522416779
20
-14.7316304644405
30
0
41
1
10
57.4795285525692
20
-14.7317370045489
30
0
41
1
10
57.5205738576777
20
-14.7351315310483
30
0
41
1
10
57.5607269605062
20
-14.7416476110294
30
0
0
SPLINE
5
139
100
AcDbEntity
8
1
62
256
6
ByLayer
370
-1
48
1
60
0
100
AcDbSpline
70
4
71
3
72
18
73
14
40
0
40
0
40
0
40
0
40
0.105342254155235
40
0.105342254155235
40
0.313801476634381
40
0.313801476634381
40
0.517272834846182
40
0.517272834846182
40
0.720990459710957
40
0.720990459710957
40
0.929425328482672
40
0.929425328482672
40
1
40
1
40
1
40
1
41
1
10
68.44356506
20
7.01838682760047
30
0
41
1
10
68.44356506
20
7.03483016490665
30
0
41
1
10
68.4398263927406
20
7.05221100495703
30
0
41
1
10
68.4176903524589
20
7.10555194952823
30
0
41
1
10
68.3879037522132
20
7.14397370606744
30
0
41
1
10
68.3040094651024
20
7.21934993026184
30
0
41
1
10
68.2493657810552
20
7.25734099243851
30
0
41
1
10
68.1229085783149
20
7.32862858684427
30
-1E-16
41
1
10
68.0494040033719
20
7.36287504340592
30
-1E-16
41
1
10
67.8921920795194
20
7.42396551798083
30
-1E-16
41
1
10
67.8062112440765
20
7.451442075339
30
-1E-16
41
1
10
67.691151001047
20
7.48109282077473
30
-1E-16
41
1
10
67.6616505681895
20
7.48808521512728
30
-1E-16
41
1
10
67.6322686200961
20
7.49444906410727
30
-1E-16
0
SPLINE
5
13A
100
AcDbEntity
8
1
62
256
6
ByLayer
370
-1
48
1
60
0
100
AcDbSpline
70
4
71
3
72
24
73
20
40
0
40
0
40
0
40
0
40
0.123788152821609
40
0.123788152821609
40
0.261842213251091
40
0.261842213251091
40
0.388541243112552
40
0.388541243112552
40
0.504109681840126
40
0.504109681840126
40
0.613469948213443
40
0.613469948213443
40
0.721070540256489
40
0.721070540256489
40
0.83079039431396
40
0.83079039431396
40
0.94647935425334
40
0.94647935425334
40
1
40
1
40
1
40
1
41
1
10
63.6542296241919
20
-5.08675350846747
30
-3E-16
41
1
10
63.6704208207479
20
-5.25535155265172
30
-3E-16
41
1
10
63.712940724265
20
-5.42276943394438
30
-3E-16
41
1
10
63.8570069301776
20
-5.7499845995321
30
-3E-16
41
1
10
63.9674388259165
20
-5.91163958826232
30
-3E-16
41
1
10
64.2307694523973
20
-6.16860305165051
30
-3E-16
41
1
10
64.3835486711565
20
-6.27198992588879
30
-3E-16
41
1
10
64.7007217255609
20
-6.41057766279141
30
-3E-16
41
1
10
64.8674926649609
20
-6.45288319790006
30
-3E-16
41
1
10
65.1926741136722
20
-6.48019011656308
30
-2E-16
41
1
10
65.3555196725734
20
-6.46850309744531
30
-2E-16
41
1
10
65.6603797721009
20
-6.39772134181632
30
-2E-16
41
1
10
65.8067399189625
20
-6.33846688036547
30
-2E-16
41
1
10
66.0698420649382
20
-6.18039374509408
30
-2E-16
41
1
10
66.1893801213022
20
-6.07883051988469
30
-2E-16
41
1
10
66.3918104569862
20
-5.84250366462396
30
-2E-16
41
1
10
66.4750272591951
20
-5.70332061886754
30
-2E-16
41
1
10
66.5612576972291
20
-5.48827171481611
30
-1E-16
41
1
10
66.5837086036907
20
-5.4176853823553
30
-1E-16
41
1
10
66.6010733151025
20
-5.34596771931635
30
-1E-16
0
SPLINE
5
13B
100
AcDbEntity
8
1
62
256
6
ByLayer
370
-1
48
1
60
0
100
AcDbSpline
70
4
71
3
72
8
73
4
40
0
40
0
40
0
40
0
40
1
40
1
40
1
40
1
41
1
10
60.6497413873234
20
-7.61013266809204
30
-5E-16
41
1
10
60.6268177627274
20
-7.60651694687826
30
-5E-16
41
1
10
60.6034394528205
20
-7.60374677758435
30
-5E-16
41
1
10
60.5804424629959
20
-7.60193967606622
30
-5E-16
0
SPLINE
5
13C
100
AcDbEntity
8
1
62
256
6
ByLayer
370
-1
48
1
60
0
100
AcDbSpline
70
4
71
3
72
16
73
12
40
0
40
0
40
0
40
0
40
0.229688373406424
40
0.229688373406424
40
0.459746177217243
40
0.459746177217243
40
0.687754285155921
40
0.687754285155921
40
0.905832133733832
40
0.905832133733832
40
1
40
1
40
1
40
1
41
1
10
60.5804424629958
20
9.39093234743129
30
-5E-16
41
1
10
60.4194583024434
20
9.37580873587967
30
-5E-16
41
1
10
60.2562396243381
20
9.33890719906515
30
-5E-16
41
1
10
59.951569021273
20
9.22636324605182
30
-6E-16
41
1
10
59.8059345774072
20
9.14903442562056
30
-6E-16
41
1
10
59.5553494025978
20
8.96368703703206
30
-6E-16
41
1
10
59.4464796226913
20
8.85315675576825
30
-6E-16
41
1
10
59.2858484813218
20
8.61801194880454
30
-6E-16
41
1
10
59.2296098883865
20
8.49079287360445
30
-6E-16
41
1
10
59.1894054984902
20
8.30633290914727
30
-6E-16
41
1
10
59.1823056181817
20
8.24972975906405
30
-6E-16
41
1
10
59.1804276837337
20
8.19336156907539
30
-6E-16
0
SPLINE
5
13D
100
AcDbEntity
8
1
62
256
6
ByLayer
370
-1
48
1
60
0
100
AcDbSpline
70
4
71
3
72
10
73
6
40
0
40
0
40
0
40
0
40
0.711357752140013
40
0.711357752140013
40
1
40
1
40
1
40
1
41
1
10
67.53341916
20
1.25219362248538
30
-1E-16
41
1
10
67.53341916
20
1.12173860060571
30
-1E-16
41
1
10
67.5523372792888
20
0.989344992341302
30
-1E-16
41
1
10
67.6214419514363
20
0.814548823334377
30
-1E-16
41
1
10
67.6470633976967
20
0.764548714269239
30
-1E-16
41
1
10
67.6798657693934
20
0.718027199099879
30
-1E-16
0
SPLINE
5
13E
100
AcDbEntity
8
1
62
256
6
ByLayer
370
-1
48
1
60
0
100
AcDbSpline
70
4
71
3
72
8
73
4
40
0
40
0
40
0
40
0
40
1
40
1
40
1
40
1
41
1
10
57.7509119554801
20
14.2454426210152
30
2E-16
41
1
10
57.6875149047109
20
14.2330717342363
30
2E-16
41
1
10
57.6241198996102
20
14.2206892173218
30
2E-16
41
1
10
57.560726960506
20
14.2082949927825
30
2E-16
0
SPLINE
5
13F
100
AcDbEntity
8
1
62
256
6
ByLayer
370
-1
48
1
60
0
100
AcDbSpline
70
4
71
3
72
8
73
4
40
0
40
0
40
0
40
0
40
1
40
1
40
1
40
1
41
1
10
58.2285201046279
20
12.4169596689233
30
-7E-16
41
1
10
58.0057147823328
20
12.3973426759924
30
-7E-16
41
1
10
57.783110463204
20
12.3816554255224
30
-7E-16
41
1
10
57.560726960506
20
12.3698878968125
30
-7E-16
0
SPLINE
5
140
100
AcDbEntity
8
1
62
256
6
ByLayer
370
-1
48
1
60
0
100
AcDbSpline
70
4
71
3
72
12
73
8
40
0
40
0
40
0
40
0
40
0.0959572622264688
40
0.0959572622264688
40
0.570192337827286
40
0.570192337827286
40
1
40
1
40
1
40
1
41
1
10
58.4484113143108
20
14.2559299371464
30
2E-16
41
1
10
58.4232327607248
20
14.2527218902906
30
2E-16
41
1
10
58.3981569479256
20
14.2497827998201
30
2E-16
41
1
10
58.2503863175709
20
14.234014816622
30
2E-16
41
1
10
58.1286220731162
20
14.227467618457
30
2E-16
41
1
10
57.9196721166714
20
14.2282997289914
30
2E-16
41
1
10
57.8276934679037
20
14.2344167657477
30
2E-16
41
1
10
57.7509119554801
20
14.2454426210152
30
2E-16
0
SPLINE
5
141
100
AcDbEntity
8
1
62
256
6
ByLayer
370
-1
48
1
60
0
100
AcDbSpline
70
4
71
3
72
14
73
10
40
0
40
0
40
0
40
0
40
0.178385000145962
40
0.178385000145962
40
0.505231779359118
40
0.505231779359118
40
0.845350499659255
40
0.845350499659255
40
1
40
1
40
1
40
1
41
1
10
61.71582439423
20
8.74758048428586
30
-4E-16
41
1
10
61.6817512614046
20
8.80897752489363
30
-4E-16
41
1
10
61.6405827157923
20
8.86765900364199
30
-5E-16
41
1
10
61.5073423025975
20
9.02222907270635
30
-5E-16
41
1
10
61.39928735531
20
9.11050031415979
30
-5E-16
41
1
10
61.1523054512092
20
9.25546893706726
30
-5E-16
41
1
10
61.0090592405499
20
9.31274908603268
30
-5E-16
41
1
10
60.7912418281701
20
9.36736134694641
30
-5E-16
41
1
10
60.7208463737615
20
9.380588136932
30
-5E-16
41
1
10
60.6497413873233
20
9.38970910255242
30
-5E-16
0
SPLINE
5
142
100
AcDbEntity
8
1
62
256
6
ByLayer
370
-1
48
1
60
0
100
AcDbSpline
70
4
71
3
72
18
73
14
40
0
40
0
40
0
40
0
40
0.168088506183538
40
0.168088506183538
40
0.33550818332129
40
0.33550818332129
40
0.51405995490267
40
0.51405995490267
40
0.722200865876587
40
0.722200865876587
40
0.967516922143401
40
0.967516922143401
40
1
40
1
40
1
40
1
41
1
10
67.6322686200961
20
12.7863053817175
30
-1E-16
41
1
10
67.7112554810907
20
12.7880998306551
30
-1E-16
41
1
10
67.7913444542014
20
12.784277132726
30
-1E-16
41
1
10
67.9396458756662
20
12.7667418806297
30
-1E-16
41
1
10
68.0098774682793
20
12.7528899870267
30
-1E-16
41
1
10
68.1382588888511
20
12.7169672969083
30
-1E-16
41
1
10
68.1969028725095
20
12.6940289499468
30
0
41
1
10
68.3025847835317
20
12.639065635529
30
0
41
1
10
68.3474693788045
20
12.6055394250921
30
0
41
1
10
68.4173265710372
20
12.5292130421263
30
0
41
1
10
68.4383260006339
20
12.4848743102341
30
0
41
1
10
68.4432740976279
20
12.4345093833351
30
0
41
1
10
68.44356506
20
12.4285680907718
30
0
41
1
10
68.44356506
20
12.4226213384711
30
0
0
SPLINE
5
143
100
AcDbEntity
8
1
62
256
6
ByLayer
370
-1
48
1
60
0
100
AcDbSpline
70
4
71
3
72
14
73
10
40
0
40
0
40
0
40
0
40
0.314036975447751
40
0.314036975447751
40
0.57195824057295
40
0.57195824057295
40
0.833176723300488
40
0.833176723300488
40
1
40
1
40
1
40
1
41
1
10
59.2728142270308
20
-4.96785084412932
30
-6E-16
41
1
10
59.3157398459155
20
-5.16993552226407
30
-6E-16
41
1
10
59.3841674888
20
-5.36953925280574
30
-6E-16
41
1
10
59.5655751504601
20
-5.70492600080931
30
-6E-16
41
1
10
59.6708753136059
20
-5.84864604183639
30
-6E-16
41
1
10
59.9251961011836
20
-6.0938584037408
30
-6E-16
41
1
10
60.0792178191077
20
-6.19810544705263
30
-5E-16
41
1
10
60.3520933453612
20
-6.31363565097328
30
-5E-16
41
1
10
60.4660251433187
20
-6.34593353609941
30
-5E-16
41
1
10
60.5804424629958
20
-6.36350042458943
30
-5E-16
0
SPLINE
5
144
100
AcDbEntity
8
1
62
256
6
ByLayer
370
-1
48
1
60
0
100
AcDbSpline
70
4
71
3
72
8
73
4
40
0
40
0
40
0
40
0
40
1
40
1
40
1
40
1
41
1
10
60.5804424629952
20
-6.36350042460126
30
-5E-16
41
1
10
60.6032451022704
20
-6.36700139300839
30
-5E-16
41
1
10
60.626647727743
20
-6.36790457855497
30
-5E-16
41
1
10
60.6497413873227
20
-6.36623737186608
30
-5E-16
0
SPLINE
5
145
100
AcDbEntity
8
1
62
256
6
ByLayer
370
-1
48
1
60
0
100
AcDbSpline
70
4
71
2
72
6
73
3
40
0
40
0
40
0
40
1
40
1
40
1
41
0.500000321908296
10
67.116059507984
20
12.7745763912268
30
-1E-16
41
0.499999678091704
10
67.3741602184297
20
12.7804415919495
30
-1E-16
41
0.500000321908296
10
67.6322686201062
20
12.7863053817156
30
-1E-16
0
SPLINE
5
146
100
AcDbEntity
8
1
62
256
6
ByLayer
370
-1
48
1
60
0
100
AcDbSpline
70
4
71
3
72
18
73
14
40
0
40
0
40
0
40
0
40
0.0918793623454758
40
0.0918793623454758
40
0.268978471238461
40
0.268978471238461
40
0.446600676437242
40
0.446600676437242
40
0.630298830778282
40
0.630298830778282
40
0.821294129520371
40
0.821294129520371
40
1
40
1
40
1
40
1
41
1
10
58.8349639851494
20
3.52521845284394
30
3E-16
41
1
10
58.8334793823545
20
3.51510980306745
30
3E-16
41
1
10
58.833113449124
20
3.50482792866404
30
3E-16
41
1
10
58.8353227105839
20
3.47498224119551
30
3E-16
41
1
10
58.8410357907631
20
3.45519103193388
30
3E-16
41
1
10
58.8598746070853
20
3.41846126383356
30
3E-16
41
1
10
58.8732613037009
20
3.40104207764006
30
3E-16
41
1
10
58.9061643296886
20
3.37025162617937
30
3E-16
41
1
10
58.9263030117454
20
3.35662384679458
30
3E-16
41
1
10
58.97099840503
20
3.33495087014762
30
3E-16
41
1
10
58.9963001192837
20
3.32684914899926
30
3E-16
41
1
10
59.0462620671186
20
3.31800588922556
30
3E-16
41
1
10
59.0714304875959
20
3.31670827724287
30
3E-16
41
1
10
59.0959122825658
20
3.31849394037238
30
3E-16
0
SPLINE
5
147
100
AcDbEntity
8
1
62
256
6
ByLayer
370
-1
48
1
60
0
100
AcDbSpline
70
4
71
2
72
6
73
3
40
0
40
0
40
0
40
1
40
1
40
1
41
0.500000071916057
10
58.9071970012531
20
-8.99252936905725
30
-6E-16
41
0.499999928083943
10
58.8487300319295
20
-8.97553708099603
30
-6E-16
41
0.500000071916057
10
58.7903331151575
20
-8.95854848078687
30
-6E-16
0
SPLINE
5
148
100
AcDbEntity
8
1
62
256
6
ByLayer
370
-1
48
1
60
0
100
AcDbSpline
70
4
71
3
72
8
73
4
40
0
40
0
40
0
40
0
40
1
40
1
40
1
40
1
41
1
10
57.438552241678
20
-4.72708078043703
30
-7E-16
41
1
10
57.4795285525692
20
-4.72882541051069
30
-7E-16
41
1
10
57.5205738576777
20
-4.73345561825479
30
-7E-16
41
1
10
57.5607269605062
20
-4.74077808994173
30
-7E-16
0
SPLINE
5
149
100
AcDbEntity
8
1
62
256
6
ByLayer
370
-1
48
1
60
0
100
AcDbSpline
70
4
71
3
72
14
73
10
40
0
40
0
40
0
40
0
40
0.225175790489248
40
0.225175790489248
40
0.553535763910847
40
0.553535763910847
40
0.895643924966353
40
0.895643924966353
40
1
40
1
40
1
40
1
41
1
10
61.71582439423
20
-8.3088565120191
30
-4E-16
41
1
10
61.6728564610584
20
-8.22891141108752
30
-4E-16
41
1
10
61.6184986196386
20
-8.15210987856452
30
-5E-16
41
1
10
61.4628024224006
20
-7.97862397792136
30
-5E-16
41
1
10
61.3491003039328
20
-7.88677281991716
30
-5E-16
41
1
10
61.092349111738
20
-7.7359721353119
30
-5E-16
41
1
10
60.9448836258635
20
-7.67651757218258
30
-5E-16
41
1
10
60.7455284827844
20
-7.62733821203261
30
-5E-16
41
1
10
60.6978105600417
20
-7.61771457237927
30
-5E-16
41
1
10
60.6497413873233
20
-7.61013266809533
30
-5E-16
0
SPLINE
5
14A
100
AcDbEntity
8
1
62
256
6
ByLayer
370
-1
48
1
60
0
100
AcDbSpline
70
4
71
3
72
8
73
4
40
0
40
0
40
0
40
0
40
1
40
1
40
1
40
1
41
1
10
68.0869725505933
20
0.164171941517026
30
-1E-16
41
1
10
67.9473951755628
20
0.346905004397627
30
-1E-16
41
1
10
67.8114123970461
20
0.531462993028441
30
-1E-16
41
1
10
67.6798657694067
20
0.718027199104569
30
-1E-16
0
SPLINE
5
14B
100
AcDbEntity
8
1
62
256
6
ByLayer
370
-1
48
1
60
0
100
AcDbSpline
70
4
71
2
72
6
73
3
40
0
40
0
40
0
40
1
40
1
40
1
41
0.500000437972695
10
67.1365838436319
20
-15.3113015110818
30
0
41
0.499999562027305
10
67.384422687518
20
-15.3145560833236
30
0
41
0.500000437972695
10
67.6322686201014
20
-15.3178075011231
30
0
0
SPLINE
5
14C
100
AcDbEntity
8
1
62
256
6
ByLayer
370
-1
48
1
60
0
100
AcDbSpline
70
4
71
3
72
8
73
4
40
0
40
0
40
0
40
0
40
1
40
1
40
1
40
1
41
1
10
58.2285201046279
20
-4.84189873253746
30
-7E-16
41
1
10
58.576604846651
20
-4.88394550292011
30
-6E-16
41
1
10
58.924703091893
20
-4.92592865931721
30
-6E-16
41
1
10
59.2728142270308
20
-4.96785084412932
30
-6E-16
0
SPLINE
5
14D
100
AcDbEntity
8
1
62
256
6
ByLayer
370
-1
48
1
60
0
100
AcDbSpline
70
4
71
3
72
8
73
4
40
0
40
0
40
0
40
0
40
1
40
1
40
1
40
1
41
1
10
57.4385522416779
20
14.193916192146
30
2E-16
41
1
10
57.4794648596112
20
14.1955840209065
30
2E-16
41
1
10
57.5204255996825
20
14.2004155014322
30
2E-16
41
1
10
57.5607269605061
20
14.2082949927816
30
2E-16
0
SPLINE
5
14E
100
AcDbEntity
8
1
62
256
6
ByLayer
370
-1
48
1
60
0
100
AcDbSpline
70
4
71
3
72
10
73
6
40
0
40
0
40
0
40
0
40
0.589320967997769
40
0.589320967997769
40
1
40
1
40
1
40
1
41
1
10
59.095912282565
20
3.31849394037994
30
3E-16
41
1
10
59.2463742408973
20
3.32946839596013
30
3E-16
41
1
10
59.3968843878615
20
3.34201847854848
30
3E-16
41
1
10
59.6525504861751
20
3.35970621530825
30
3E-16
41
1
10
59.7593879656875
20
3.36830959215777
30
3E-16
41
1
10
59.8632136834853
20
3.35661548524575
30
3E-16
0
SPLINE
5
14F
100
AcDbEntity
8
1
62
256
6
ByLayer
370
-1
48
1
60
0
100
AcDbSpline
70
4
71
3
72
22
73
18
40
0
40
0
40
0
40
0
40
0.0918615946220639
40
0.0918615946220639
40
0.251938362043359
40
0.251938362043359
40
0.399406156586661
40
0.399406156586661
40
0.540771153679878
40
0.540771153679878
40
0.681519086644704
40
0.681519086644704
40
0.826640142638211
40
0.826640142638211
40
0.981198076742996
40
0.981198076742996
40
1
40
1
40
1
40
1
41
1
10
64.0244817103002
20
-15.099681756334
30
1E-16
41
1
10
64.089073536183
20
-15.0881639006367
30
1E-16
41
1
10
64.1612684631794
20
-15.0771107393036
30
1E-16
41
1
10
64.3764390887623
20
-15.0498457936584
30
2E-16
41
1
10
64.5363381111347
20
-15.0355132228998
30
2E-16
41
1
10
64.8600565063388
20
-15.0196364050789
30
2E-16
41
1
10
65.0271607240306
20
-15.0170094831756
30
2E-16
41
1
10
65.3483998517515
20
-15.0230823804043
30
2E-16
41
1
10
65.5071456240746
20
-15.0313935032164
30
-2E-16
41
1
10
65.8006667896338
20
-15.0562263056849
30
-2E-16
41
1
10
65.9394154113286
20
-15.0729875550194
30
-2E-16
41
1
10
66.1849158372598
20
-15.1109096010526
30
-2E-16
41
1
10
66.2937438428795
20
-15.1326086243358
30
-2E-16
41
1
10
66.472533603711
20
-15.1764306498467
30
-2E-16
41
1
10
66.5418998992644
20
-15.1989885027416
30
1E-16
41
1
10
66.5913382010044
20
-15.2213417338766
30
1E-16
41
1
10
66.5963889934684
20
-15.223756437807
30
1E-16
41
1
10
66.6010733151025
20
-15.2261333235146
30
1E-16
0
SPLINE
5
150
100
AcDbEntity
8
1
62
256
6
ByLayer
370
-1
48
1
60
0
100
AcDbSpline
70
4
71
3
72
8
73
4
40
0
40
0
40
0
40
0
40
1
40
1
40
1
40
1
41
1
10
57.7509119554801
20
7.40582174663191
30
-7E-16
41
1
10
57.6875149047109
20
7.41033656542689
30
-7E-16
41
1
10
57.6241198996102
20
7.41484675174442
30
-7E-16
41
1
10
57.560726960506
20
7.41935227375467
30
-7E-16
0
SPLINE
5
151
100
AcDbEntity
8
1
62
256
6
ByLayer
370
-1
48
1
60
0
100
AcDbSpline
70
4
71
3
72
12
73
8
40
0
40
0
40
0
40
0
40
0.369230720121157
40
0.369230720121157
40
0.738461440242315
40
0.738461440242315
40
1
40
1
40
1
40
1
41
1
10
50.0846958186827
20
13.1851089358189
30
-3E-16
41
1
10
48.8804549508194
20
13.3277950111774
30
-3E-16
41
1
10
47.7315727902186
20
13.5772562137653
30
-4E-16
41
1
10
45.7717425413626
20
14.1070090513588
30
4E-16
41
1
10
44.9432254044537
20
14.3847314186969
30
-1E-16
41
1
10
43.8456940662986
20
14.6826889305281
30
0
41
1
10
43.4756208728453
20
14.7482378370411
30
0
41
1
10
43.1837234363804
20
14.7462324256644
30
0
0
SPLINE
5
152
100
AcDbEntity
8
1
62
256
6
ByLayer
370
-1
48
1
60
0
100
AcDbSpline
70
4
71
3
72
8
73
4
40
0
40
0
40
0
40
0
40
1
40
1
40
1
40
1
41
1
10
68.2979559480255
20
0.679002655812099
30
0
41
1
10
68.3464489905351
20
0.735645162770254
30
0
41
1
10
68.3949875364921
20
0.792297005109504
30
0
41
1
10
68.44356506
20
0.848956839084451
30
0
0
SPLINE
5
153
100
AcDbEntity
8
1
62
256
6
ByLayer
370
-1
48
1
60
0
100
AcDbSpline
70
4
71
3
72
14
73
10
40
0
40
0
40
0
40
0
40
0.0430780627159797
40
0.0430780627159797
40
0.370428342767471
40
0.370428342767471
40
0.700683705693263
40
0.700683705693263
40
1
40
1
40
1
40
1
41
1
10
58.7903331151576
20
7.7477889011314
30
-6E-16
41
1
10
58.7744331622966
20
7.74988488152175
30
-6E-16
41
1
10
58.7584433361432
20
7.75166884409865
30
-6E-16
41
1
10
58.6216525921149
20
7.76419460930825
30
-6E-16
41
1
10
58.4951768620068
20
7.7572796698141
30
-6E-16
41
1
10
58.2503863175708
20
7.70805414420027
30
-7E-16
41
1
10
58.1286220731161
20
7.66466178506911
30
-7E-16
41
1
10
57.9196721166713
20
7.55180370966767
30
-7E-16
41
1
10
57.8276934679037
20
7.48373099243739
30
-7E-16
41
1
10
57.7509119554801
20
7.40582174663191
30
-7E-16
0
SPLINE
5
154
100
AcDbEntity
8
1
62
256
6
ByLayer
370
-1
48
1
60
0
100
AcDbSpline
70
4
71
3
72
8
73
4
40
0
40
0
40
0
40
0
40
1
40
1
40
1
40
1
41
1
10
68.44356506
20
-14.0532802227199
30
0
41
1
10
68.3757419247022
20
-13.7075765535646
30
0
41
1
10
68.3091867208774
20
-13.3617023662066
30
0
41
1
10
68.2442020545388
20
-13.0156317793779
30
0
0
SPLINE
5
155
100
AcDbEntity
8
1
62
256
6
ByLayer
370
-1
48
1
60
0
100
AcDbSpline
70
4
71
3
72
8
73
4
40
0
40
0
40
0
40
0
40
1
40
1
40
1
40
1
41
1
10
57.4385522416778
20
-9.03617397826292
30
-7E-16
41
1
10
57.4794648596112
20
-9.04099586511373
30
-7E-16
41
1
10
57.5204255996824
20
-9.04812767784748
30
-7E-16
41
1
10
57.5607269605061
20
-9.05742277197831
30
-7E-16
0
SPLINE
5
156
100
AcDbEntity
8
1
62
256
6
ByLayer
370
-1
48
1
60
0
100
AcDbSpline
70
4
71
2
72
6
73
3
40
0
40
0
40
0
40
1
40
1
40
1
41
0.500000072320789
10
58.9071970012531
20
7.73236897562013
30
-6E-16
41
0.499999927679211
10
58.848730031937
20
7.74009084104922
30
-6E-16
41
0.500000072320789
10
58.7903331151575
20
7.74778890113141
30
-6E-16
0
SPLINE
5
157
100
AcDbEntity
8
1
62
256
6
ByLayer
370
-1
48
1
60
0
100
AcDbSpline
70
4
71
3
72
12
73
8
40
0
40
0
40
0
40
0
40
0.25
40
0.25
40
0.5
40
0.5
40
1
40
1
40
1
40
1
41
1
10
50.0846958186827
20
-3.14628079606317
30
6E-16
41
1
10
48.8804549508194
20
-2.83581601865958
30
5E-16
41
1
10
47.7315727902185
20
-2.2782225876359
30
5E-16
41
1
10
45.7717425413625
20
-0.757507545973709
30
4E-16
41
1
10
44.9432254044536
20
0.217819922294524
30
3E-16
41
1
10
43.0158537048345
20
3.41695115607058
30
2E-16
41
1
10
42.4085928747364
20
5.87358324321204
30
1E-16
41
1
10
42.3253511733852
20
7.98327547135833
30
1E-16
0
SPLINE
5
158
100
AcDbEntity
8
1
62
256
6
ByLayer
370
-1
48
1
60
0
100
AcDbSpline
70
4
71
3
72
10
73
6
40
0
40
0
40
0
40
0
40
0.814624471648911
40
0.814624471648911
40
1
40
1
40
1
40
1
41
1
10
57.9109325123953
20
5.29354819716878
30
2E-16
41
1
10
57.8276467009781
20
5.39358633098951
30
2E-16
41
1
10
57.755288422039
20
5.48829732644194
30
-7E-16
41
1
10
57.679736811013
20
5.58181082062458
30
-7E-16
41
1
10
57.6661364742598
20
5.598397166881
30
-7E-16
41
1
10
57.6530761529156
20
5.61393821054017
30
-7E-16
0
SPLINE
5
159
100
AcDbEntity
8
1
62
256
6
ByLayer
370
-1
48
1
60
0
100
AcDbSpline
70
4
71
3
72
8
73
4
40
0
40
0
40
0
40
0
40
1
40
1
40
1
40
1
41
1
10
58.2285201046279
20
-4.84189873253746
30
-7E-16
41
1
10
58.0057147823327
20
-4.8149850443013
30
-7E-16
41
1
10
57.7831104632039
20
-4.78133278652808
30
-7E-16
41
1
10
57.560726960506
20
-4.74077808994318
30
-7E-16
0
SPLINE
5
15A
100
AcDbEntity
8
1
62
256
6
ByLayer
370
-1
48
1
60
0
100
AcDbSpline
70
4
71
3
72
26
73
22
40
0
40
0
40
0
40
0
40
0.124421854736613
40
0.124421854736613
40
0.255050811463811
40
0.255050811463811
40
0.376368345205978
40
0.376368345205978
40
0.485428579911357
40
0.485428579911357
40
0.58554980727837
40
0.58554980727837
40
0.681162343672682
40
0.681162343672682
40
0.776028452065002
40
0.776028452065002
40
0.873524284362225
40
0.873524284362225
40
0.977059869156537
40
0.977059869156537
40
1
40
1
40
1
40
1
41
1
10
63.6919639741748
20
11.8351240549044
30
-3E-16
41
1
10
63.6479530398657
20
11.7081980282293
30
-3E-16
41
1
10
63.6354648402576
20
11.5722887472569
30
-3E-16
41
1
10
63.6789697035509
20
11.2963073948087
30
-3E-16
41
1
10
63.7394109020167
20
11.152048277968
30
-3E-16
41
1
10
63.9257317714668
20
10.898073893351
30
-3E-16
41
1
10
64.0498470967927
20
10.782880857086
30
-3E-16
41
1
10
64.3325022894217
20
10.6056486145614
30
-3E-16
41
1
10
64.4906266842128
20
10.5369901659534
30
-3E-16
41
1
10
64.8129007512477
20
10.4518936863781
30
-3E-16
41
1
10
64.9800830937018
20
10.4305291155843
30
-2E-16
41
1
10
65.3027687078536
20
10.4320745633451
30
-2E-16
41
1
10
65.4628537776167
20
10.4530608531368
30
-2E-16
41
1
10
65.759946065114
20
10.5307407641939
30
-2E-16
41
1
10
65.9010507556435
20
10.588119289269
30
-2E-16
41
1
10
66.1519495677921
20
10.7304638510154
30
-2E-16
41
1
10
66.2640415878959
20
10.8178766684009
30
-2E-16
41
1
10
66.4500223288888
20
11.0127749404247
30
-2E-16
41
1
10
66.5235909071207
20
11.1235282127582
30
-2E-16
41
1
10
66.5829381981578
20
11.2606082494356
30
-1E-16
41
1
10
66.5926059063043
20
11.2858426519589
30
-1E-16
41
1
10
66.6010733151025
20
11.3111329908881
30
-1E-16
0
SPLINE
5
15B
100
AcDbEntity
8
1
62
256
6
ByLayer
370
-1
48
1
60
0
100
AcDbSpline
70
4
71
3
72
37
73
33
40
0
40
0
40
0
40
0
40
0.0324253886483966
40
0.0324253886483966
40
0.134357431317511
40
0.134357431317511
40
0.239412224861378
40
0.239412224861378
40
0.315512867380746
40
0.315512867380746
40
0.372977910703192
40
0.372977910703192
40
0.419311547119408
40
0.419311547119408
40
0.466019555104978
40
0.466019555104978
40
0.507431111856887
40
0.507431111856887
40
0.548882813027723
40
0.548882813027723
40
0.595361127213945
40
0.595361127213945
40
0.664505171435553
40
0.664505171435553
40
0.753352218466929
40
0.753352218466929
40
0.843480763302283
40
0.843480763302283
40
0.947868427760898
40
0.947868427760898
40
0.947868427760898
40
1
40
1
40
1
40
1
41
1
10
59.686410008241
20
2.46988817194702
30
-6E-16
41
1
10
59.6379255882549
20
2.52567396148788
30
-6E-16
41
1
10
59.584235426263
20
2.57889794782648
30
-6E-16
41
1
10
59.3473630292209
20
2.78766017385479
30
-6E-16
41
1
10
59.1291824115316
20
2.92336423583626
30
-6E-16
41
1
10
58.6548609442922
20
3.14775698159505
30
-6E-16
41
1
10
58.3898359802936
20
3.23823993702098
30
-6E-16
41
1
10
57.9221968492718
20
3.33323904703985
30
-7E-16
41
1
10
57.7176195375528
20
3.35514260992696
30
-7E-16
41
1
10
57.369658774358
20
3.34533708965256
30
-7E-16
41
1
10
57.2202353915987
20
3.32497809373953
30
-7E-16
41
1
10
56.974395677212
20
3.25117797779515
30
-7E-16
41
1
10
56.8709418678116
20
3.20384314721443
30
-7E-16
41
1
10
56.6967599935888
20
3.08145341271643
30
-8E-16
41
1
10
56.6239789490317
20
3.00413163018988
30
-8E-16
41
1
10
56.5302484303341
20
2.84068798331003
30
-8E-16
41
1
10
56.5030907604434
20
2.75447315589008
30
-8E-16
41
1
10
56.4846765225622
20
2.57801020028791
30
-8E-16
41
1
10
56.4930471375198
20
2.4856920428131
30
-8E-16
41
1
10
56.5419424637145
20
2.29476725520263
30
-8E-16
41
1
10
56.5866021514554
20
2.19455344461389
30
-8E-16
41
1
10
56.7301151013505
20
1.96135793241535
30
-8E-16
41
1
10
56.8468157453377
20
1.83197292924322
30
-7E-16
41
1
10
57.14998646388
20
1.5769682845393
30
-7E-16
41
1
10
57.3519008551978
20
1.4579742685188
30
-7E-16
41
1
10
57.7816870097682
20
1.27782304744159
30
-7E-16
41
1
10
58.0154967032551
20
1.21493904975165
30
-7E-16
41
1
10
58.5230719589901
20
1.14655751353908
30
-6E-16
41
1
10
58.8070987096535
20
1.14967770244021
30
-6E-16
41
1
10
59.0729161212785
20
1.20388399696472
30
-6E-16
41
1
10
59.2071676557673
20
1.23126097793218
30
-6E-16
41
1
10
59.3391999721162
20
1.27236199705575
30
-6E-16
41
1
10
59.459030605196
20
1.32950731231298
30
-6E-16
0
SPLINE
5
15C
100
AcDbEntity
8
1
62
256
6
ByLayer
370
-1
48
1
60
0
100
AcDbSpline
70
4
71
3
72
14
73
10
40
0
40
0
40
0
40
0
40
0.365208758570007
40
0.365208758570007
40
0.613712350916744
40
0.613712350916744
40
0.865057865629653
40
0.865057865629653
40
1
40
1
40
1
40
1
41
1
10
59.2728142270308
20
-15.0136179704006
30
0
41
1
10
59.322631055584
20
-15.0328841941474
30
0
41
1
10
59.4072206278088
20
-15.0510038146138
30
0
41
1
10
59.621818037942
20
-15.0842719476068
30
0
41
1
10
59.7314902795948
20
-15.0989795352765
30
0
41
1
10
59.9901035689506
20
-15.1330360638348
30
0
41
1
10
60.1437947441947
20
-15.153123377074
30
0
41
1
10
60.3951103135927
20
-15.1882868662668
30
0
41
1
10
60.4875588553236
20
-15.2016297670548
30
0
41
1
10
60.5804424629958
20
-15.2155398782345
30
0
0
SPLINE
5
15D
100
AcDbEntity
8
1
62
256
6
ByLayer
370
-1
48
1
60
0
100
AcDbSpline
70
4
71
3
72
8
73
4
40
0
40
0
40
0
40
0
40
1
40
1
40
1
40
1
41
1
10
59.2728142270308
20
12.5088115237699
30
-6E-16
41
1
10
59.4102325335795
20
12.1505774594528
30
-6E-16
41
1
10
59.8890923248717
20
11.7868787210201
30
-6E-16
41
1
10
60.5804424629958
20
11.827164520314
30
-5E-16
0
SPLINE
5
15E
100
AcDbEntity
8
1
62
256
6
ByLayer
370
-1
48
1
60
0
100
AcDbSpline
70
4
71
3
72
10
73
6
40
0
40
0
40
0
40
0
40
0.885087566501676
40
0.885087566501676
40
1
40
1
40
1
40
1
41
1
10
64.5868353092121
20
13.5997960505221
30
0
41
1
10
64.4761068225494
20
13.7350724028821
30
-1E-16
41
1
10
64.3428438506007
20
13.8508843906726
30
0
41
1
10
64.1770316926275
20
13.95088028084
30
-1E-16
41
1
10
64.1577048070175
20
13.9619381404788
30
-1E-16
41
1
10
64.1381083936226
20
13.9725661165596
30
-1E-16
0
SPLINE
5
15F
100
AcDbEntity
8
1
62
256
6
ByLayer
370
-1
48
1
60
0
100
AcDbSpline
70
4
71
3
72
8
73
4
40
0
40
0
40
0
40
0
40
1
40
1
40
1
40
1
41
1
10
62.0125535173394
20
13.4895557754717
30
0
41
1
10
61.9314310543531
20
13.3923318281966
30
0
41
1
10
61.8606009657518
20
13.2863661885263
30
0
41
1
10
61.8036305075169
20
13.1742803495017
30
0
0
SPLINE
5
160
100
AcDbEntity
8
1
62
256
6
ByLayer
370
-1
48
1
60
0
100
AcDbSpline
70
4
71
3
72
16
73
12
40
0
40
0
40
0
40
0
40
0.129899637877615
40
0.194849456816422
40
0.259799275755229
40
0.389698913632844
40
0.519598551510459
40
0.649498189388074
40
0.779397827265688
40
0.909297465143303
40
1
40
1
40
1
40
1
41
1
10
58.9391643210601
20
15.5135859607131
30
-2E-16
41
1
10
58.7865564064687
20
15.5044865455212
30
-2E-16
41
1
10
58.5656460808766
20
15.3146629562833
30
-2E-16
41
1
10
58.5500217364617
20
15.0112815622555
30
-2E-16
41
1
10
58.5225831011835
20
14.726905518906
30
-2E-16
41
1
10
58.4794493914778
20
14.3919057727538
30
-2E-16
41
1
10
58.4128934182773
20
14.0019434874101
30
-2E-16
41
1
10
58.3308830669419
20
13.6033035292885
30
-2E-16
41
1
10
58.2403726411811
20
13.1816488196147
30
-2E-16
41
1
10
58.1575757371755
20
12.7688105546755
30
-2E-16
41
1
10
58.0925066963001
20
12.505696910884
30
0
41
1
10
58.0621206851961
20
12.3986937605725
30
1E-16
0
SPLINE
5
161
100
AcDbEntity
8
1
62
256
6
ByLayer
370
-1
48
1
60
0
100
AcDbSpline
70
4
71
3
72
17
73
13
40
0
40
0
40
0
40
0
40
0.0857142036304378
40
0.199999928176633
40
0.314285652722828
40
0.428571377269024
40
0.542857101815219
40
0.657142826361414
40
0.771428550907609
40
0.828571413180707
40
0.885714275453805
40
1
40
1
40
1
40
1
41
1
10
68.440278840367
20
12.3437118095559
30
0
41
1
10
68.4686778642912
20
12.4594259579504
30
0
41
1
10
68.545397674183
20
12.7276766975498
30
0
41
1
10
68.6976399784145
20
13.1352893728403
30
0
41
1
10
68.9525175287098
20
13.5462573488561
30
0
41
1
10
68.9760404229559
20
14.025857353159
30
0
41
1
10
68.9702024988163
20
14.495542610691
30
0
41
1
10
68.9738057021752
20
14.9651959605327
30
0
41
1
10
68.9628562998327
20
15.3643552478366
30
0
41
1
10
68.7939595795758
20
15.6308969010538
30
0
41
1
10
68.5685256969941
20
15.8425615599316
30
0
41
1
10
68.3464649624614
20
15.9218291144122
30
0
41
1
10
68.19298652392
20
15.9227416731098
30
0
0
SPLINE
5
162
100
AcDbEntity
8
1
62
256
6
ByLayer
370
-1
48
1
60
0
100
AcDbSpline
70
4
71
3
72
15
73
11
40
0
40
0
40
0
40
0
40
0.0625
40
0.125
40
0.25
40
0.5
40
0.75
40
0.875
40
0.9375
40
1
40
1
40
1
40
1
41
1
10
68.19298652392
20
15.9227416731098
30
0
41
1
10
67.9938966499292
20
15.9211830701867
30
0
41
1
10
67.5946835468277
20
15.9184277764467
30
0
41
1
10
66.8217932917775
20
15.9098525568731
30
0
41
1
10
65.4980441657532
20
15.8815805518244
30
0
41
1
10
63.5849689048046
20
15.8115007394414
30
-1E-16
41
1
10
61.6934831569977
20
15.6794226813174
30
0
41
1
10
60.3290958195235
20
15.5933837765099
30
-1E-16
41
1
10
59.5329522115343
20
15.5424128092408
30
-1E-16
41
1
10
59.1373014952458
20
15.5378676446369
30
-2E-16
41
1
10
58.9391643210601
20
15.5135859607131
30
-2E-16
0
SPLINE
5
163
100
AcDbEntity
8
1
62
256
6
ByLayer
370
-1
48
1
60
0
100
AcDbSpline
70
4
71
3
72
14
73
10
40
0
40
0
40
0
40
0
40
0.0907175829670469
40
0.0907175829670469
40
0.411688617548068
40
0.411688617548068
40
0.765082495334391
40
0.765082495334391
40
1
40
1
40
1
40
1
41
1
10
64.9215523310407
20
12.0958924975949
30
0
41
1
10
64.932863572144
20
12.1437469412223
30
0
41
1
10
64.9422315331583
20
12.1919396694355
30
0
41
1
10
64.9756475311781
20
12.4109505753536
30
0
41
1
10
64.9764903095322
20
12.5870883568061
30
0
41
1
10
64.9219216726901
20
12.9434223801558
30
0
41
1
10
64.8617855841169
20
13.1261449733766
30
0
41
1
10
64.7253383340985
20
13.4009761175559
30
0
41
1
10
64.6602294210596
20
13.504923625819
30
0
41
1
10
64.5868353092121
20
13.5997960505221
30
0
0
SPLINE
5
164
100
AcDbEntity
8
1
62
256
6
ByLayer
370
-1
48
1
60
0
100
AcDbSpline
70
4
71
3
72
10
73
6
40
0
40
0
40
0
40
0
40
0.553122403686449
40
0.553122403686449
40
1
40
1
40
1
40
1
41
1
10
61.8036305075169
20
13.1742803495017
30
0
41
1
10
61.7167549346597
20
12.9961522935374
30
0
41
1
10
61.6585841855889
20
12.8001086435448
30
0
41
1
10
61.6177633327445
20
12.4440730978824
30
0
41
1
10
61.6206421988621
20
12.2816767581786
30
0
41
1
10
61.6449387180142
20
12.1245973183414
30
0
0
SPLINE
5
165
100
AcDbEntity
8
1
62
256
6
ByLayer
370
-1
48
1
60
0
100
AcDbSpline
70
4
71
3
72
18
73
14
40
0
40
0
40
0
40
0
40
0.213394464779719
40
0.213394464779719
40
0.389004322610663
40
0.389004322610663
40
0.566252444177967
40
0.566252444177967
40
0.721175490823055
40
0.721175490823055
40
0.92741643549918
40
0.92741643549918
40
1
40
1
40
1
40
1
41
1
10
63.8635839458105
20
13.1778458095435
30
0
41
1
10
63.8585684750512
20
13.1331587526272
30
0
41
1
10
63.8592524197185
20
13.0857167052932
30
0
41
1
10
63.8720514502558
20
12.9995120331865
30
0
41
1
10
63.8823315153269
20
12.9597512078763
30
0
41
1
10
63.9113394941894
20
12.8846607489995
30
0
41
1
10
63.9306294868277
20
12.8483352716782
30
0
41
1
10
63.9720515564792
20
12.7899835613055
30
0
41
1
10
63.9939937370998
20
12.7659919162635
30
0
41
1
10
64.0473496753152
20
12.7205269626893
30
0
41
1
10
64.0803778009432
20
12.701586037176
30
0
41
1
10
64.1256280196323
20
12.6853137252657
30
0
41
1
10
64.1376277823284
20
12.6818763439916
30
0
41
1
10
64.1496759832563
20
12.6792527608793
30
0
0
SPLINE
5
166
100
AcDbEntity
8
1
62
256
6
ByLayer
370
-1
48
1
60
0
100
AcDbSpline
70
4
71
3
72
14
73
10
40
0
40
0
40
0
40
0
40
0.283738489034225
40
0.283738489034225
40
0.570489531030766
40
0.570489531030766
40
0.830294403552173
40
0.830294403552173
40
1
40
1
40
1
40
1
41
1
10
62.9902443013894
20
13.3270602122169
30
1E-16
41
1
10
62.9729498182803
20
13.3426386342263
30
1E-16
41
1
10
62.9527937342997
20
13.3558916184614
30
1E-16
41
1
10
62.9093091773662
20
13.3749819922639
30
1E-16
41
1
10
62.8852624056125
20
13.3809974302793
30
1E-16
41
1
10
62.8395670412931
20
13.3835180822467
30
1E-16
41
1
10
62.817216993862
20
13.3808635682472
30
1E-16
41
1
10
62.783001313099
20
13.3700312948288
30
1E-16
41
1
10
62.7699173870899
20
13.3640227728184
30
1E-16
41
1
10
62.7579394854561
20
13.3565575374396
30
1E-16
0
SPLINE
5
167
100
AcDbEntity
8
1
62
256
6
ByLayer
370
-1
48
1
60
0
100
AcDbSpline
70
4
71
3
72
16
73
12
40
0
40
0
40
0
40
0
40
0.0670553612811543
40
0.0670553612811543
40
0.291697905104273
40
0.291697905104273
40
0.519329228663781
40
0.519329228663781
40
0.76153571502873
40
0.76153571502873
40
1
40
1
40
1
40
1
41
1
10
64.2641491234336
20
12.5147636877133
30
0
41
1
10
64.2641491234336
20
12.5203608394646
30
0
41
1
10
64.2639281518817
20
12.5259424809568
30
0
41
1
10
64.2620251993546
20
12.5498537285847
30
0
41
1
10
64.2580445946428
20
12.5678947951416
30
0
41
1
10
64.2458375952826
20
12.6006931879759
30
0
41
1
10
64.2374124609432
20
12.6158278147981
30
0
41
1
10
64.2169929529275
20
12.6422298331934
30
0
41
1
10
64.2045627164696
20
12.6535321487674
30
0
41
1
10
64.1781999830206
20
12.6703440845806
30
0
41
1
10
64.1640284974097
20
12.6761273968538
30
0
41
1
10
64.1496759832563
20
12.6792527608793
30
0
0
SPLINE
5
168
100
AcDbEntity
8
1
62
256
6
ByLayer
370
-1
48
1
60
0
100
AcDbSpline
70
4
71
3
72
12
73
8
40
0
40
0
40
0
40
0
40
0.377026290639701
40
0.377026290639701
40
0.761056371823051
40
0.761056371823051
40
1
40
1
40
1
40
1
41
1
10
63.3283460380438
20
13.2059060010967
30
1E-16
41
1
10
63.3659969571171
20
13.2100117965588
30
1E-16
41
1
10
63.4021649377438
20
13.2204537458837
30
1E-16
41
1
10
63.4668854192534
20
13.251134925178
30
1E-16
41
1
10
63.4962250555579
20
13.2718595344834
30
1E-16
41
1
10
63.5371076114249
20
13.3109567026485
30
0
41
1
10
63.551389013308
20
13.3274538360312
30
0
41
1
10
63.5641310893104
20
13.3450263495697
30
0
0
SPLINE
5
169
100
AcDbEntity
8
1
62
256
6
ByLayer
370
-1
48
1
60
0
100
AcDbSpline
70
4
71
3
72
16
73
12
40
0
40
0
40
0
40
0
40
0.0650212293342944
40
0.0650212293342944
40
0.28969152326947
40
0.28969152326947
40
0.51723642232612
40
0.51723642232612
40
0.759263521180989
40
0.759263521180989
40
1
40
1
40
1
40
1
41
1
10
62.7579394854561
20
13.3565575374396
30
1E-16
41
1
10
62.7533473480038
20
13.3536954846341
30
1E-16
41
1
10
62.7488960659421
20
13.3506107690971
30
1E-16
41
1
10
62.7299288766521
20
13.33605034365
30
1E-16
41
1
10
62.7170805317894
20
13.3221594384019
30
1E-16
41
1
10
62.6968082388767
20
13.2913538608057
30
1E-16
41
1
10
62.6891852269704
20
13.2740195699331
30
1E-16
41
1
10
62.6794831359167
20
13.2373129387512
30
1E-16
41
1
10
62.6776468641649
20
13.2174280392016
30
1E-16
41
1
10
62.6799382146736
20
13.1786439400387
30
1E-16
41
1
10
62.6840424640893
20
13.159332375282
30
1E-16
41
1
10
62.6906295629086
20
13.1411252228435
30
1E-16
0
SPLINE
5
16A
100
AcDbEntity
8
1
62
256
6
ByLayer
370
-1
48
1
60
0
100
AcDbSpline
70
4
71
3
72
18
73
14
40
0
40
0
40
0
40
0
40
0.0327679399710482
40
0.0327679399710482
40
0.248702623789969
40
0.248702623789969
40
0.466651778756769
40
0.466651778756769
40
0.657149187616635
40
0.657149187616635
40
0.910748041507874
40
0.910748041507874
40
1
40
1
40
1
40
1
41
1
10
62.52117340133
20
12.667577023015
30
0
41
1
10
62.5264186867876
20
12.6704007551811
30
0
41
1
10
62.5316046854393
20
12.673336743255
30
0
41
1
10
62.5704921382788
20
12.6964924870291
30
1E-16
41
1
10
62.6021415100273
20
12.7220853997176
30
1E-16
41
1
10
62.6551960489778
20
12.782286654754
30
1E-16
41
1
10
62.6771555110626
20
12.817951780348
30
1E-16
41
1
10
62.7049966743748
20
12.8883489955538
30
1E-16
41
1
10
62.712959532762
20
12.9234392904168
30
1E-16
41
1
10
62.7200165138375
20
13.0041745059589
30
1E-16
41
1
10
62.7156173966374
20
13.0508238068654
30
1E-16
41
1
10
62.7008268895049
20
13.1105285444962
30
1E-16
41
1
10
62.6961079005144
20
13.1259827556308
30
1E-16
41
1
10
62.6906295629086
20
13.1411252228435
30
1E-16
0
SPLINE
5
16B
100
AcDbEntity
8
1
62
256
6
ByLayer
370
-1
48
1
60
0
100
AcDbSpline
70
4
71
3
72
12
73
8
40
0
40
0
40
0
40
0
40
0.464390992172109
40
0.464390992172109
40
0.846401077319347
40
0.846401077319347
40
1
40
1
40
1
40
1
41
1
10
62.9902443013894
20
13.3270602122169
30
1E-16
41
1
10
63.0257273040624
20
13.2950980433382
30
1E-16
41
1
10
63.0665417797113
20
13.2672524648804
30
1E-16
41
1
10
63.1467044337521
20
13.2290489268252
30
1E-16
41
1
10
63.1859460277558
20
13.2161380725079
30
1E-16
41
1
10
63.2414083679014
20
13.2066578988087
30
1E-16
41
1
10
63.2575861950119
20
13.2049001444943
30
1E-16
41
1
10
63.2736230633233
20
13.2041928400676
30
1E-16
0
SPLINE
5
16C
100
AcDbEntity
8
1
62
256
6
ByLayer
370
-1
48
1
60
0
100
AcDbSpline
70
4
71
3
72
14
73
10
40
0
40
0
40
0
40
0
40
0.130450264512724
40
0.130450264512724
40
0.479511640195613
40
0.479511640195613
40
0.795818935502452
40
0.795818935502452
40
1
40
1
40
1
40
1
41
1
10
64.1809973385018
20
12.344003341555
30
0
41
1
10
64.1871205883487
20
12.3485117419249
30
0
41
1
10
64.1930758848461
20
12.3534959789641
30
0
41
1
10
64.2140031901127
20
12.3734278112635
30
0
41
1
10
64.227874856801
20
12.3916142757581
30
0
41
1
10
64.248384108443
20
12.4305063591896
30
0
41
1
10
64.255859124673
20
12.4514193125957
30
0
41
1
10
64.2627491823218
20
12.4865560391799
30
0
41
1
10
64.2641491234336
20
12.5007852505839
30
0
41
1
10
64.2641491234336
20
12.5147636877133
30
0
0
SPLINE
5
16D
100
AcDbEntity
8
1
62
256
6
ByLayer
370
-1
48
1
60
0
100
AcDbSpline
70
4
71
3
72
14
73
10
40
0
40
0
40
0
40
0
40
0.284523597312293
40
0.284523597312293
40
0.57173686621804
40
0.57173686621804
40
0.831999616286243
40
0.831999616286243
40
1
40
1
40
1
40
1
41
1
10
63.8635839458105
20
13.1778458095435
30
0
41
1
10
63.8660318363185
20
13.1996561295914
30
0
41
1
10
63.8652773453554
20
13.2228621998363
30
0
41
1
10
63.8565816771417
20
13.2685490635548
30
0
41
1
10
63.8484017380513
20
13.2917210669152
30
0
41
1
10
63.8261559869643
20
13.3316258325261
30
0
41
1
10
63.8123494380341
20
13.349340937497
30
0
41
1
10
63.7862069475402
20
13.3731886090716
30
0
41
1
10
63.774897838711
20
13.3813950397459
30
0
41
1
10
63.763073316171
20
13.3880243229463
30
0
0
SPLINE
5
16E
100
AcDbEntity
8
1
62
256
6
ByLayer
370
-1
48
1
60
0
100
AcDbSpline
70
4
71
3
72
16
73
12
40
0
40
0
40
0
40
0
40
0.0668638488454794
40
0.0668638488454794
40
0.290854271538576
40
0.290854271538576
40
0.517824973971272
40
0.517824973971272
40
0.75932867428116
40
0.75932867428116
40
1
40
1
40
1
40
1
41
1
10
63.763073316171
20
13.3880243229463
30
0
41
1
10
63.7583383055011
20
13.3906789524741
30
0
41
1
10
63.7535015662758
20
13.3930959653715
30
0
41
1
10
63.7322851530878
20
13.4024530471347
30
0
41
1
10
63.714954966601
20
13.406861593946
30
0
41
1
10
63.6808671054313
20
13.4096719687381
30
0
41
1
10
63.6636870511115
20
13.4080441265097
30
0
41
1
10
63.6307471627987
20
13.399158121804
30
0
41
1
10
63.6147316313942
20
13.3914549132696
30
0
41
1
10
63.5866612356805
20
13.3714837736802
30
0
41
1
10
63.5742889107525
20
13.3590349345742
30
0
41
1
10
63.5641310893104
20
13.3450263495697
30
0
0
SPLINE
5
16F
100
AcDbEntity
8
1
62
256
6
ByLayer
370
-1
48
1
60
0
100
AcDbSpline
70
4
71
3
72
8
73
4
40
0
40
0
40
0
40
0
40
1
40
1
40
1
40
1
41
1
10
67.5337900744455
20
2.43515442328936
30
-1E-16
41
1
10
67.7244348462882
20
2.478666472529
30
-1E-16
41
1
10
67.9159426610792
20
2.51873004602046
30
-1E-16
41
1
10
68.104896326507
20
2.56824769401936
30
-1E-16
0
SPLINE
5
170
100
AcDbEntity
8
1
62
256
6
ByLayer
370
-1
48
1
60
0
100
AcDbSpline
70
4
71
3
72
10
73
6
40
0
40
0
40
0
40
0
40
0.223954414021066
40
0.500102362965069
40
1
40
1
40
1
40
1
41
1
10
68.507433251659
20
0.903960979718789
30
0
41
1
10
68.5079251618434
20
0.885380870903873
30
0
41
1
10
68.5003822113822
20
0.842001463737432
30
0
41
1
10
68.3583445829892
20
0.727846952664777
30
0
41
1
10
68.3107993239823
20
0.652205376826601
30
0
41
1
10
68.2898519121068
20
0.605721708036668
30
0
0
SPLINE
5
171
100
AcDbEntity
8
1
62
256
6
ByLayer
370
-1
48
1
60
0
100
AcDbSpline
70
4
71
3
72
10
73
6
40
0
40
0
40
0
40
0
40
0.0256361044743739
40
0.820547612361896
40
1
40
1
40
1
40
1
41
1
10
68.2698864740611
20
0.177765101888696
30
0
41
1
10
68.2697838820058
20
0.176996949314571
30
0
41
1
10
68.2662293429861
20
0.152337302599705
30
0
41
1
10
68.2509433638124
20
0.119331610139199
30
0
41
1
10
68.1643456373989
20
0.0755282003280229
30
-1E-16
41
1
10
68.1464167829798
20
0.0672851833997754
30
-1E-16
0
SPLINE
5
172
100
AcDbEntity
8
1
62
256
6
ByLayer
370
-1
48
1
60
0
100
AcDbSpline
70
4
71
3
72
14
73
10
40
0
40
0
40
0
40
0
40
0.0766270528886712
40
0.279210021561666
40
0.48179299023466
40
0.684375958907654
40
0.886958927580649
40
0.988250411917146
40
1
40
1
40
1
40
1
41
1
10
68.8476431907673
20
4.53765324003814
30
0
41
1
10
68.873339966372
20
4.5538137699173
30
0
41
1
10
68.957392646801
20
4.61074298096497
30
0
41
1
10
68.9760404229558
20
4.68960972268721
30
0
41
1
10
68.9702024988163
20
4.77829080161357
30
0
41
1
10
68.9738057021752
20
4.86963674983974
30
0
41
1
10
68.9628562998327
20
4.94381788335278
30
0
41
1
10
68.8312858481705
20
4.9520299718329
30
0
41
1
10
68.7753619730303
20
4.95120357827179
30
0
41
1
10
68.7694559461593
20
4.95107682995936
30
0
0
SPLINE
5
173
100
AcDbEntity
8
1
62
256
6
ByLayer
370
-1
48
1
60
0
100
AcDbSpline
70
4
71
1
72
4
73
2
40
0
40
0
40
1
40
1
41
1
10
68.104896326507
20
2.56824769401936
30
-1E-16
41
1
10
67.9389865622338
20
0.365533067873969
30
-1E-16
0
SPLINE
5
174
100
AcDbEntity
8
1
62
256
6
ByLayer
370
-1
48
1
60
0
100
AcDbSpline
70
4
71
3
72
10
73
6
40
0
40
0
40
0
40
0
40
0.104682372964181
40
0.61658397615404
40
1
40
1
40
1
40
1
41
1
10
68.4180104639258
20
-7.41086398557391
30
0
41
1
10
68.4239462976376
20
-7.42059769488836
30
0
41
1
10
68.4535110088872
20
-7.48000991752338
30
0
41
1
10
68.4453119278623
20
-7.59247553900425
30
0
41
1
10
68.435923237269
20
-7.68122186454704
30
0
41
1
10
68.4315540558144
20
-7.71773452177956
30
0
0
SPLINE
5
175
100
AcDbEntity
8
1
62
256
6
ByLayer
370
-1
48
1
60
0
100
AcDbSpline
70
4
71
3
72
13
73
9
40
0
40
0
40
0
40
0
40
0.0705028756144593
40
0.266073217610531
40
0.461643559606602
40
0.657213901602673
40
0.852784243598744
40
1
40
1
40
1
40
1
41
1
10
68.6419462946716
20
-9.7468269133141
30
0
41
1
10
68.6637772272923
20
-9.78768094950698
30
0
41
1
10
68.7519714772972
20
-9.93904161492057
30
0
41
1
10
68.9525175287098
20
-10.1844351890888
30
0
41
1
10
68.9760404229558
20
-10.5873161790288
30
0
41
1
10
68.9702024988163
20
-10.987739815842
30
0
41
1
10
68.9735087392795
20
-11.3534920184443
30
0
41
1
10
68.9670413800568
20
-11.5918586747104
30
0
41
1
10
68.941104918803
20
-11.6917876497084
30
0
0
SPLINE
5
176
100
AcDbEntity
8
1
62
256
6
ByLayer
370
-1
48
1
60
0
100
AcDbSpline
70
4
71
3
72
10
73
6
40
0
40
0
40
0
40
0
40
0.0603993539743867
40
0.538811101643194
40
1
40
1
40
1
40
1
41
1
10
68.4504252455339
20
-13.3855857513845
30
0
41
1
10
68.4556847638491
20
-13.3731077264287
30
0
41
1
10
68.4987246703895
20
-13.2612341303751
30
0
41
1
10
68.5091349698307
20
-13.045941149075
30
0
41
1
10
68.508334751118
20
-12.8462187437795
30
0
41
1
10
68.4905079692366
20
-12.7529579614044
30
0
0
SPLINE
5
177
100
AcDbEntity
8
1
62
256
6
ByLayer
370
-1
48
1
60
0
100
AcDbSpline
70
4
71
3
72
9
73
5
40
0
40
0
40
0
40
0
40
0.991186447159562
40
1
40
1
40
1
40
1
41
1
10
68.4441158634901
20
-7.56957838583719
30
0
41
1
10
68.4503505709357
20
-7.61916263212217
30
0
41
1
10
68.447120427124
20
-7.66960794505485
30
0
41
1
10
68.4435256599332
20
-7.72092794814131
30
0
41
1
10
68.4434939489569
20
-7.72138032747222
30
0
0
SPLINE
5
178
100
AcDbEntity
8
1
62
256
6
ByLayer
370
-1
48
1
60
0
100
AcDbSpline
70
4
71
3
72
14
73
10
40
0
40
0
40
0
40
0
40
0.0835356367868195
40
0.266828509429456
40
0.450121382072091
40
0.633414254714728
40
0.725060691036046
40
0.816707127357364
40
1
40
1
40
1
40
1
41
1
10
68.9608808837638
20
-11.3318376418526
30
0
41
1
10
68.9674439034796
20
-11.3851719386719
30
0
41
1
10
68.9749813252635
20
-11.5557591603693
30
0
41
1
10
68.9702024988163
20
-11.8359026035591
30
0
41
1
10
68.9738057021752
20
-12.1797757825592
30
0
41
1
10
68.9628562998327
20
-12.4698788233259
30
0
41
1
10
68.7939595795757
20
-12.6392637515754
30
0
41
1
10
68.568525696994
20
-12.7600270269134
30
0
41
1
10
68.3464649624614
20
-12.7845269291986
30
0
41
1
10
68.19298652392
20
-12.7620819528676
30
0
0
SPLINE
5
179
100
AcDbEntity
8
1
62
256
6
ByLayer
370
-1
48
1
60
0
100
AcDbSpline
70
4
71
3
72
15
73
11
40
0
40
0
40
0
40
0
40
0.0625
40
0.125
40
0.25
40
0.5
40
0.75
40
0.875
40
0.9375
40
1
40
1
40
1
40
1
41
1
10
68.19298652392
20
-12.7620819528676
30
0
41
1
10
67.9938966499291
20
-12.7309688235144
30
-1E-16
41
1
10
67.5946835468276
20
-12.6706926408638
30
-1E-16
41
1
10
66.8217932917775
20
-12.497353370992
30
-1E-16
41
1
10
65.4980441657531
20
-12.1426155904609
30
-2E-16
41
1
10
63.5849689048046
20
-11.6449076873471
30
-3E-16
41
1
10
61.6934831569976
20
-11.0693285106818
30
-4E-16
41
1
10
60.3290958195235
20
-10.7340250855142
30
-5E-16
41
1
10
59.5329522115343
20
-10.5770030988065
30
-6E-16
41
1
10
59.1373014952458
20
-10.5057024385152
30
-6E-16
41
1
10
58.9391643210601
20
-10.4575570732643
30
-6E-16
0
SPLINE
5
17A
100
AcDbEntity
8
1
62
256
6
ByLayer
370
-1
48
1
60
0
100
AcDbSpline
70
4
71
1
72
4
73
2
40
0
40
0
40
1
40
1
41
1
10
58.9391643210601
20
-10.4575570732643
30
-6E-16
41
1
10
60.4495936720924
20
-8.06664068002618
30
-5E-16
0
SPLINE
5
17B
100
AcDbEntity
8
1
62
256
6
ByLayer
370
-1
48
1
60
0
100
AcDbSpline
70
4
71
1
72
4
73
2
40
0
40
0
40
1
40
1
41
1
10
68.19298652392
20
-12.7620819528676
30
0
41
1
10
67.6926196021664
20
-9.66699502701942
30
-1E-16
0
SPLINE
5
17C
100
AcDbEntity
8
1
62
256
6
ByLayer
370
-1
48
1
60
0
100
AcDbSpline
70
4
71
3
72
8
73
4
40
0
40
0
40
0
40
0
40
1
40
1
40
1
40
1
41
1
10
60.4495936720924
20
-8.06664068002618
30
-5E-16
41
1
10
62.8623867702844
20
-8.61756871928264
30
-4E-16
41
1
10
65.2761782836687
20
-9.16020107765866
30
-2E-16
41
1
10
67.6926196021664
20
-9.66699502701942
30
-1E-16
0
SPLINE
5
17D
100
AcDbEntity
8
1
62
256
6
ByLayer
370
-1
48
1
60
0
100
AcDbSpline
70
4
71
3
72
10
73
6
40
0
40
0
40
0
40
0
40
0.121266022237275
40
0.414177348158183
40
1
40
1
40
1
40
1
41
1
10
60.0942544443063
20
-7.69634179812738
30
-5E-16
41
1
10
60.0961162177942
20
-7.71456995143882
30
-5E-16
41
1
10
60.1058325580056
20
-7.77682286315883
30
-5E-16
41
1
10
60.1721517103266
20
-7.92583886205227
30
-5E-16
41
1
10
60.3335589741986
20
-8.04016387899333
30
-5E-16
41
1
10
60.4495936720924
20
-8.06664068002618
30
-5E-16
0
SPLINE
5
17E
100
AcDbEntity
8
1
62
256
6
ByLayer
370
-1
48
1
60
0
100
AcDbSpline
70
4
71
3
72
15
73
11
40
0
40
0
40
0
40
0
40
0.144644507838618
40
0.216966761757928
40
0.289289015677237
40
0.433933523515856
40
0.578578031354474
40
0.723222539193092
40
0.86786704703171
40
1
40
1
40
1
40
1
41
1
10
58.9391643210601
20
-10.4575570732643
30
-6E-16
41
1
10
58.7865564064687
20
-10.4261596195403
30
-6E-16
41
1
10
58.5656460808766
20
-10.2777273529662
30
-6E-16
41
1
10
58.5500217364617
20
-10.094427492878
30
-6E-16
41
1
10
58.5225831011835
20
-9.94469138333304
30
-6E-16
41
1
10
58.4794493914778
20
-9.79508714005436
30
-6E-16
41
1
10
58.4128934182772
20
-9.63948412215584
30
-6E-16
41
1
10
58.3308830669419
20
-9.47161982248502
30
-7E-16
41
1
10
58.2429823177718
20
-9.25240104504252
30
-7E-16
41
1
10
58.1843084071859
20
-9.04528571358213
30
-7E-16
41
1
10
58.1528541273922
20
-8.94022354005511
30
-7E-16
0
SPLINE
5
17F
100
AcDbEntity
8
1
62
256
6
ByLayer
370
-1
48
1
60
0
100
AcDbSpline
70
4
71
3
72
14
73
10
40
0
40
0
40
0
40
0
40
0.194165358882226
40
0.291248038323339
40
0.388330717764452
40
0.582496076646679
40
0.776661435528905
40
0.970826794411131
40
1
40
1
40
1
40
1
41
1
10
67.6926196021664
20
-9.66699502701942
30
-1E-16
41
1
10
67.8088312067081
20
-9.69132683547514
30
-1E-16
41
1
10
67.9807197703578
20
-9.67845162259403
30
-1E-16
41
1
10
68.1707656843095
20
-9.61025091553716
30
-1E-16
41
1
10
68.3343755487916
20
-9.51402317657471
30
0
41
1
10
68.494373036201
20
-9.3529718822073
30
0
41
1
10
68.5093142648493
20
-9.09160743144398
30
0
41
1
10
68.5082258032523
20
-8.90331652114187
30
0
41
1
10
68.4820306971098
20
-8.80119938420432
30
0
41
1
10
68.4782645728424
20
-8.78784081942058
30
0
0
SPLINE
5
180
100
AcDbEntity
8
1
62
256
6
ByLayer
370
-1
48
1
60
0
100
AcDbSpline
70
4
71
3
72
14
73
10
40
0
40
0
40
0
40
0
40
0.0710038167198812
40
0.142007633439762
40
0.284015266879525
40
0.56803053375905
40
0.852045800638574
40
0.994053434078337
40
1
40
1
40
1
40
1
41
1
10
58.3641203497608
20
3.91703228556708
30
-7E-16
41
1
10
58.5629895907397
20
3.86769103197355
30
-6E-16
41
1
10
58.9634872270944
20
3.77931225734417
30
-6E-16
41
1
10
59.77306012676
20
3.64304833091592
30
-6E-16
41
1
10
61.2058741215294
20
3.50898878767106
30
-5E-16
41
1
10
63.2440246983034
20
3.26709592536761
30
-4E-16
41
1
10
65.2900703261625
20
3.10303415965649
30
-2E-16
41
1
10
66.522194783309
20
2.9137897620854
30
-2E-16
41
1
10
66.9391264085893
20
2.82989526867578
30
-1E-16
41
1
10
66.9558768441785
20
2.82649569021177
30
-1E-16
0
SPLINE
5
181
100
AcDbEntity
8
1
62
256
6
ByLayer
370
-1
48
1
60
0
100
AcDbSpline
70
4
71
3
72
10
73
6
40
0
40
0
40
0
40
0
40
0.497886915117986
40
0.99577379373787
40
1
40
1
40
1
40
1
41
1
10
68.3119347634598
20
2.55348856204495
30
0
41
1
10
68.3697937846577
20
2.54895991270357
30
0
41
1
10
68.4568498326584
20
2.55167673380529
30
0
41
1
10
68.4484199605297
20
2.57952879101282
30
0
41
1
10
68.4435063306995
20
2.58872889191173
30
0
41
1
10
68.4434649252596
20
2.58880598993755
30
0
0
SPLINE
5
182
100
AcDbEntity
8
1
62
256
6
ByLayer
370
-1
48
1
60
0
100
AcDbSpline
70
4
71
3
72
9
73
5
40
0
40
0
40
0
40
0
40
0.78234851180631
40
1
40
1
40
1
40
1
41
1
10
68.4361751388085
20
2.59868752108383
30
0
41
1
10
68.4333034884305
20
2.60136660995758
30
0
41
1
10
68.429409603269
20
2.60347439944914
30
0
41
1
10
68.4252453054929
20
2.6043593831715
30
0
41
1
10
68.4243270082306
20
2.60449636609988
30
0
0
SPLINE
5
183
100
AcDbEntity
8
1
62
256
6
ByLayer
370
-1
48
1
60
0
100
AcDbSpline
70
4
71
3
72
19
73
15
40
0
40
0
40
0
40
0
40
0.0789744517976189
40
0.171077006617857
40
0.263179561438095
40
0.355282116258333
40
0.447384671078571
40
0.539487225898809
40
0.631589780719048
40
0.723692335539285
40
0.815794890359524
40
0.861846167769643
40
0.907897445179762
40
1
40
1
40
1
40
1
41
1
10
68.3208914117571
20
2.49867776628261
30
0
41
1
10
68.3209530264516
20
2.49554455125855
30
0
41
1
10
68.3325663755731
20
2.50614371511571
30
0
41
1
10
68.4049752487154
20
2.62127005716582
30
0
41
1
10
68.5315574172641
20
2.7766684421149
30
0
41
1
10
68.6976399784145
20
2.88941885140235
30
0
41
1
10
68.9525175287098
20
2.98436083169076
30
0
41
1
10
68.9760404229558
20
3.15427255112411
30
0
41
1
10
68.9702024988163
20
3.32958897993558
30
0
41
1
10
68.9738057021752
20
3.50217069338106
30
0
41
1
10
68.9628562998327
20
3.65236931964648
30
0
41
1
10
68.7939595795758
20
3.79241664445704
30
0
41
1
10
68.568525696994
20
3.92608852083853
30
0
41
1
10
68.3464649624614
20
4.01000494267103
30
0
41
1
10
68.19298652392
20
4.04809761703501
30
0
0
SPLINE
5
184
100
AcDbEntity
8
1
62
256
6
ByLayer
370
-1
48
1
60
0
100
AcDbSpline
70
4
71
3
72
8
73
4
40
0
40
0
40
0
40
0
40
1
40
1
40
1
40
1
41
1
10
64.7482150179187
20
3.42645374817121
30
-3E-16
41
1
10
64.7672345442941
20
3.43017731107844
30
-3E-16
41
1
10
64.7851312139774
20
3.43488753916589
30
-3E-16
41
1
10
64.8018596055134
20
3.44071025272112
30
-3E-16
0
SPLINE
5
185
100
AcDbEntity
8
1
62
256
6
ByLayer
370
-1
48
1
60
0
100
AcDbSpline
70
4
71
3
72
12
73
8
40
0
40
0
40
0
40
0
40
0.258698585326974
40
0.388047877990461
40
0.517397170653948
40
0.776095755980922
40
1
40
1
40
1
40
1
41
1
10
67.6926196021664
20
7.5091255589636
30
-1E-16
41
1
10
67.8088312067081
20
7.48399964926347
30
-1E-16
41
1
10
67.9807197703578
20
7.42213384032695
30
-1E-16
41
1
10
68.1707656843095
20
7.32645209790525
30
-1E-16
41
1
10
68.3343755487916
20
7.22511582979402
30
0
41
1
10
68.4857653243678
20
7.0993253176498
30
0
41
1
10
68.5024603374356
20
7.01322801223407
30
0
41
1
10
68.5054543057235
20
6.97416223023248
30
0
0
SPLINE
5
186
100
AcDbEntity
8
1
62
256
6
ByLayer
370
-1
48
1
60
0
100
AcDbSpline
70
4
71
3
72
14
73
10
40
0
40
0
40
0
40
0
40
0.301632841810063
40
0.301632841810063
40
0.602402032079644
40
0.602402032079644
40
0.899200904780736
40
0.899200904780736
40
1
40
1
40
1
40
1
41
1
10
61.8036305075169
20
4.70459068261991
30
-4E-16
41
1
10
61.7167549346597
20
4.64101033852705
30
-4E-16
41
1
10
61.6585841855888
20
4.57918080124574
30
-4E-16
41
1
10
61.613491652407
20
4.44410631770069
30
-5E-16
41
1
10
61.6231490517421
20
4.36143648437664
30
-5E-16
41
1
10
61.7072741912415
20
4.19452234315833
30
-4E-16
41
1
10
61.7847548192986
20
4.11275714427128
30
-4E-16
41
1
10
61.9306720858732
20
4.01676495026388
30
-4E-16
41
1
10
61.9718970203571
20
3.99302394987973
30
-4E-16
41
1
10
62.0163098121414
20
3.97021190513499
30
-4E-16
0
SPLINE
5
187
100
AcDbEntity
8
1
62
256
6
ByLayer
370
-1
48
1
60
0
100
AcDbSpline
70
4
71
3
72
18
73
14
40
0
40
0
40
0
40
0
40
0.162600988457447
40
0.162600988457447
40
0.332996094284669
40
0.332996094284669
40
0.503772203001935
40
0.503772203001935
40
0.669272814739438
40
0.669272814739438
40
0.830144082047365
40
0.830144082047365
40
1
40
1
40
1
40
1
41
1
10
64.5868353092121
20
4.17730985319562
30
-3E-16
41
1
10
64.4761068225493
20
4.2726861196397
30
-3E-16
41
1
10
64.3428438506007
20
4.37180078315279
30
-3E-16
41
1
10
64.0424411328789
20
4.5604322384103
30
-3E-16
41
1
10
63.8696630151778
20
4.65170752717458
30
-3E-16
41
1
10
63.5112725584249
20
4.80230630934514
30
-3E-16
41
1
10
63.3204397719856
20
4.86366683570819
30
-3E-16
41
1
10
62.9527521856311
20
4.93930976897994
30
-4E-16
41
1
10
62.77046983056
20
4.95566827370473
30
-4E-16
41
1
10
62.4389611168878
20
4.94254719596765
30
-4E-16
41
1
10
62.2846166176916
20
4.91413963752609
30
-4E-16
41
1
10
62.0115774899807
20
4.82661194618899
30
-4E-16
41
1
10
61.8912225712405
20
4.76519542019904
30
-4E-16
41
1
10
61.8036305075169
20
4.70459068261991
30
-4E-16
0
SPLINE
5
188
100
AcDbEntity
8
1
62
256
6
ByLayer
370
-1
48
1
60
0
100
AcDbSpline
70
4
71
1
72
4
73
2
40
0
40
0
40
1
40
1
41
1
10
68.19298652392
20
4.04809761703501
30
0
41
1
10
67.6926196021664
20
7.5091255589636
30
-1E-16
0
SPLINE
5
189
100
AcDbEntity
8
1
62
256
6
ByLayer
370
-1
48
1
60
0
100
AcDbSpline
70
4
71
3
72
8
73
4
40
0
40
0
40
0
40
0
40
1
40
1
40
1
40
1
41
1
10
60.4495936720924
20
9.03274260408907
30
-5E-16
41
1
10
62.8623867702844
20
8.53420389713003
30
-4E-16
41
1
10
65.2761782836687
20
8.03114998927617
30
-2E-16
41
1
10
67.6926196021664
20
7.5091255589636
30
-1E-16
0
SPLINE
5
18A
100
AcDbEntity
8
1
62
256
6
ByLayer
370
-1
48
1
60
0
100
AcDbSpline
70
4
71
3
72
15
73
11
40
0
40
0
40
0
40
0
40
0.0625
40
0.125
40
0.25
40
0.5
40
0.75
40
0.875
40
0.9375
40
1
40
1
40
1
40
1
41
1
10
68.19298652392
20
4.04809761703501
30
0
41
1
10
67.9938966499292
20
4.09648668364628
30
-1E-16
41
1
10
67.5946835468276
20
4.19064506586955
30
-1E-16
41
1
10
66.8217932917775
20
4.46040215199474
30
-1E-16
41
1
10
65.4980441657532
20
4.99569262407022
30
-2E-16
41
1
10
63.5849689048046
20
5.69916854364917
30
-3E-16
41
1
10
61.6934831569976
20
6.43291637082436
30
-4E-16
41
1
10
60.3290958195235
20
6.8461374061929
30
-5E-16
41
1
10
59.5329522115343
20
7.02295070470728
30
-6E-16
41
1
10
59.1373014952458
20
7.13231997767039
30
-6E-16
41
1
10
58.9391643210601
20
7.17300391496403
30
-6E-16
0
SPLINE
5
18B
100
AcDbEntity
8
1
62
256
6
ByLayer
370
-1
48
1
60
0
100
AcDbSpline
70
4
71
3
72
9
73
5
40
0
40
0
40
0
40
0
40
0.278109881503878
40
1
40
1
40
1
40
1
41
1
10
60.1120232323331
20
8.99709050843273
30
-5E-16
41
1
10
60.1233945176893
20
9.0104412661936
30
-5E-16
41
1
10
60.1844991106206
20
9.05125610094015
30
-5E-16
41
1
10
60.3335589741986
20
9.05667124668906
30
-5E-16
41
1
10
60.4495936720924
20
9.03274260408907
30
-5E-16
0
SPLINE
5
18C
100
AcDbEntity
8
1
62
256
6
ByLayer
370
-1
48
1
60
0
100
AcDbSpline
70
4
71
3
72
25
73
21
40
0
40
0
40
0
40
0
40
0.0625
40
0.09375
40
0.125
40
0.1875
40
0.25
40
0.3125
40
0.375
40
0.4375
40
0.5
40
0.5625
40
0.625
40
0.6875
40
0.75
40
0.8125
40
0.875
40
0.90625
40
0.9375
40
1
40
1
40
1
40
1
41
1
10
58.9391643210601
20
7.17300391496403
30
-6E-16
41
1
10
58.7865564064687
20
7.2100669774274
30
-6E-16
41
1
10
58.5656460808766
20
7.15574453530749
30
-6E-16
41
1
10
58.5500217364617
20
6.98082752066179
30
-6E-16
41
1
10
58.5225831011835
20
6.78079708020192
30
-6E-16
41
1
10
58.4794493914778
20
6.5013982928273
30
-6E-16
41
1
10
58.4128934182772
20
6.14586209020493
30
-6E-16
41
1
10
58.3308830669419
20
5.79678775091645
30
-7E-16
41
1
10
58.2403726411811
20
5.5062526186307
30
-7E-16
41
1
10
58.1483164447043
20
5.32633403701644
30
-7E-16
41
1
10
58.0293033465877
20
5.19928522302894
30
-7E-16
41
1
10
57.8579222159071
20
5.06735939362349
30
-7E-16
41
1
10
57.6057511539299
20
4.982784339082
30
-7E-16
41
1
10
57.5813916223598
20
4.81016780779581
30
-7E-16
41
1
10
57.587291223124
20
4.63546219206484
30
-7E-16
41
1
10
57.5835532100707
20
4.46277036008129
30
-7E-16
41
1
10
57.6014961435676
20
4.31062718552761
30
-7E-16
41
1
10
57.7569929111599
20
4.17438037916287
30
-7E-16
41
1
10
57.9843434485406
20
4.04019727537323
30
-7E-16
41
1
10
58.2106705180036
20
3.95510247836631
30
-7E-16
41
1
10
58.3641203497608
20
3.91703228556708
30
-7E-16
0
SPLINE
5
18D
100
AcDbEntity
8
1
62
256
6
ByLayer
370
-1
48
1
60
0
100
AcDbSpline
70
4
71
3
72
14
73
10
40
0
40
0
40
0
40
0
40
0.258374536041622
40
0.258374536041622
40
0.520163709547353
40
0.520163709547353
40
0.808397479016398
40
0.808397479016398
40
1
40
1
40
1
40
1
41
1
10
64.8018596055134
20
3.44071025272112
30
-3E-16
41
1
10
64.8736756542618
20
3.46388921735823
30
-3E-16
41
1
10
64.9239021021399
20
3.50777448540552
30
-2E-16
41
1
10
64.9756475311781
20
3.61821963986691
30
-2E-16
41
1
10
64.9764903095322
20
3.68232878218626
30
-2E-16
41
1
10
64.92192167269
20
3.81791190154996
30
-2E-16
41
1
10
64.8617855841169
20
3.89784225410207
30
-3E-16
41
1
10
64.7253383340985
20
4.04715934616831
30
-3E-16
41
1
10
64.6602294210596
20
4.11155191499472
30
-3E-16
41
1
10
64.5868353092121
20
4.17730985319562
30
-3E-16
0
SPLINE
5
18E
100
AcDbEntity
8
1
62
256
6
ByLayer
370
-1
48
1
60
0
100
AcDbSpline
70
4
71
1
72
4
73
2
40
0
40
0
40
1
40
1
41
1
10
58.9391643210601
20
7.17300391496403
30
-6E-16
41
1
10
60.4495936720924
20
9.03274260408907
30
-5E-16
0
SPLINE
5
18F
100
AcDbEntity
8
1
62
256
6
ByLayer
370
-1
48
1
60
0
100
AcDbSpline
70
4
71
3
72
12
73
8
40
0
40
0
40
0
40
0
40
0.377026290846267
40
0.377026290846267
40
0.761056372063249
40
0.761056372063249
40
1
40
1
40
1
40
1
41
1
10
63.2736230633233
20
3.797720855427
30
-4E-16
41
1
10
63.2348078403539
20
3.80356308250399
30
-4E-16
41
1
10
63.1949254233024
20
3.8025364014681
30
-4E-16
41
1
10
63.1192833779981
20
3.78928829418365
30
-4E-16
41
1
10
63.0825961801045
20
3.77685185765785
30
-4E-16
41
1
10
63.0284359592005
20
3.75078501163543
30
-4E-16
41
1
10
63.0086693364556
20
3.7392473396342
30
-4E-16
41
1
10
62.9902443013894
20
3.72661092515142
30
-4E-16
0
SPLINE
5
190
100
AcDbEntity
8
1
62
256
6
ByLayer
370
-1
48
1
60
0
100
AcDbSpline
70
4
71
3
72
12
73
8
40
0
40
0
40
0
40
0
40
0.195990783097423
40
0.195990783097423
40
0.790700412146096
40
0.790700412146096
40
1
40
1
40
1
40
1
41
1
10
63.987447660666
20
3.9999670909645
30
-3E-16
41
1
10
63.9969945551035
20
3.99052968610445
30
-3E-16
41
1
10
64.0068646976903
20
3.98065570284399
30
-3E-16
41
1
10
64.0473496753151
20
3.93990820726987
30
-3E-16
41
1
10
64.0803778009432
20
3.90623422854517
30
-3E-16
41
1
10
64.1256280196323
20
3.86142618127187
30
-3E-16
41
1
10
64.1376277823283
20
3.84965711591411
30
-3E-16
41
1
10
64.1496759832563
20
3.83798991943101
30
-3E-16
0
SPLINE
5
191
100
AcDbEntity
8
1
62
256
6
ByLayer
370
-1
48
1
60
0
100
AcDbSpline
70
4
71
3
72
14
73
10
40
0
40
0
40
0
40
0
40
0.284519249123234
40
0.284519249123234
40
0.571733062184452
40
0.571733062184452
40
0.831996244286535
40
0.831996244286535
40
1
40
1
40
1
40
1
41
1
10
64.1496759832563
20
3.70734652472333
30
-3E-16
41
1
10
64.1667748638676
20
3.69496818528364
30
-3E-16
41
1
10
64.1836601852641
20
3.68453922542443
30
-3E-16
41
1
10
64.2140031901127
20
3.66948431309569
30
-3E-16
41
1
10
64.227874856801
20
3.66470379072382
30
-3E-16
41
1
10
64.2483841084429
20
3.66224269628006
30
-3E-16
41
1
10
64.255859124673
20
3.66392353781345
30
-3E-16
41
1
10
64.2627491823217
20
3.67134340595379
30
-3E-16
41
1
10
64.2641491234336
20
3.67547582641245
30
-3E-16
41
1
10
64.2641491234336
20
3.68064093706735
30
-3E-16
0
SPLINE
5
192
100
AcDbEntity
8
1
62
256
6
ByLayer
370
-1
48
1
60
0
100
AcDbSpline
70
4
71
3
72
14
73
10
40
0
40
0
40
0
40
0
40
0.283738489034221
40
0.283738489034221
40
0.570489531030761
40
0.570489531030761
40
0.830294403552164
40
0.830294403552164
40
1
40
1
40
1
40
1
41
1
10
63.5641310893104
20
3.5921057614386
30
-3E-16
41
1
10
63.5760913171843
20
3.57338811601491
30
-3E-16
41
1
10
63.5911749117454
20
3.5552532582204
30
-3E-16
41
1
10
63.6257637001301
20
3.52298268167561
30
-3E-16
41
1
10
63.6458663118967
20
3.50840718102501
30
-3E-16
41
1
10
63.6858062635751
20
3.48684192592921
30
-3E-16
41
1
10
63.7060971021622
20
3.47896439374708
30
-3E-16
41
1
10
63.7384005617094
20
3.47143026228866
30
-3E-16
41
1
10
63.7510954145373
20
3.46979739800003
30
-3E-16
41
1
10
63.763073316171
20
3.46960995659413
30
-3E-16
0
SPLINE
5
193
100
AcDbEntity
8
1
62
256
6
ByLayer
370
-1
48
1
60
0
100
AcDbSpline
70
4
71
3
72
8
73
4
40
0
40
0
40
0
40
0
40
1
40
1
40
1
40
1
41
1
10
62.6906295629086
20
3.8617693036868
30
-4E-16
41
1
10
62.6871798631805
20
3.85460225164295
30
-4E-16
41
1
10
62.6844125874926
20
3.84726346713094
30
-4E-16
41
1
10
62.6823938537906
20
3.83985843027963
30
-4E-16
0
SPLINE
5
194
100
AcDbEntity
8
1
62
256
6
ByLayer
370
-1
48
1
60
0
100
AcDbSpline
70
4
71
3
72
14
73
10
40
0
40
0
40
0
40
0
40
0.0102579543751095
40
0.0102579543751095
40
0.407569518012331
40
0.407569518012331
40
0.767599542321732
40
0.767599542321732
40
1
40
1
40
1
40
1
41
1
10
62.6784763133895
20
3.81320646470536
30
-4E-16
41
1
10
62.6784683706637
20
3.81277104517085
30
-4E-16
41
1
10
62.6784632832596
20
3.81233583196993
30
-4E-16
41
1
10
62.678375353471
20
3.79509668845216
30
-4E-16
41
1
10
62.6826299434344
20
3.77811479374992
30
-4E-16
41
1
10
62.6991553435614
20
3.74856041691527
30
-4E-16
41
1
10
62.7109197689708
20
3.73528530579102
30
-4E-16
41
1
10
62.7351848656107
20
3.71697914351782
30
-4E-16
41
1
10
62.7461149629162
20
3.71054670466339
30
-4E-16
41
1
10
62.7579394854561
20
3.70518898245629
30
-4E-16
0
SPLINE
5
195
100
AcDbEntity
8
1
62
256
6
ByLayer
370
-1
48
1
60
0
100
AcDbSpline
70
4
71
3
72
12
73
8
40
0
40
0
40
0
40
0
40
0.464390992171651
40
0.464390992171651
40
0.846401077318505
40
0.846401077318505
40
1
40
1
40
1
40
1
41
1
10
63.5641310893104
20
3.5921057614386
30
-3E-16
41
1
10
63.5395923508617
20
3.63050865896452
30
-3E-16
41
1
10
63.5090930571681
20
3.66767475406488
30
-3E-16
41
1
10
63.4439701214458
20
3.72605813758329
30
-3E-16
41
1
10
63.4102301884124
20
3.74946113235711
30
-3E-16
41
1
10
63.359179652355
20
3.77380673061518
30
-3E-16
41
1
10
63.3439018634421
20
3.77990432343057
30
-3E-16
41
1
10
63.3283460380437
20
3.78489511552752
30
-3E-16
0
SPLINE
5
196
100
AcDbEntity
8
1
62
256
6
ByLayer
370
-1
48
1
60
0
100
AcDbSpline
70
4
71
3
72
18
73
14
40
0
40
0
40
0
40
0
40
0.213393079737801
40
0.213393079737801
40
0.389003177496044
40
0.389003177496044
40
0.566251555260785
40
0.566251555260785
40
0.721174645896042
40
0.721174645896042
40
0.927415342089918
40
0.927415342089918
40
1
40
1
40
1
40
1
41
1
10
64.1496759832563
20
3.70734652472333
30
-3E-16
41
1
10
64.1146418654126
20
3.7327086646491
30
-3E-16
41
1
10
64.0796811207279
20
3.75426528509632
30
-3E-16
41
1
10
64.019887930312
20
3.78064429101525
30
-3E-16
41
1
10
63.9937068479395
20
3.78789819337939
30
-3E-16
41
1
10
63.9468786888998
20
3.78886612173022
30
-3E-16
41
1
10
63.925636542123
20
3.78225942243651
30
-3E-16
41
1
10
63.8942465381041
20
3.7573013339977
30
-3E-16
41
1
10
63.8826390837848
20
3.74034409427159
30
-3E-16
41
1
10
63.8640422512052
20
3.69340945586279
30
-3E-16
41
1
10
63.8594383896943
20
3.66039349894527
30
-3E-16
41
1
10
63.8608029212873
20
3.61277750192991
30
-3E-16
41
1
10
63.861859115181
20
3.59992717729227
30
-3E-16
41
1
10
63.8635839458105
20
3.58685720495833
30
-3E-16
0
SPLINE
5
197
100
AcDbEntity
8
1
62
256
6
ByLayer
370
-1
48
1
60
0
100
AcDbSpline
70
4
71
3
72
16
73
12
40
0
40
0
40
0
40
0
40
0.0650212293342861
40
0.0650212293342861
40
0.289691523269465
40
0.289691523269465
40
0.517236422326111
40
0.517236422326111
40
0.759263521180984
40
0.759263521180984
40
1
40
1
40
1
40
1
41
1
10
63.763073316171
20
3.46960995659413
30
-3E-16
41
1
10
63.7676654536234
20
3.46953809453294
30
-3E-16
41
1
10
63.772173099219
20
3.46967516029778
30
-3E-16
41
1
10
63.7916379708537
20
3.47120289889517
30
-3E-16
41
1
10
63.8055542887857
20
3.47491910314611
30
-3E-16
41
1
10
63.8291600465093
20
3.48675778624721
30
-3E-16
41
1
10
63.8391042819308
20
3.49507733693204
30
-3E-16
41
1
10
63.8545521383426
20
3.51563410716389
30
-3E-16
41
1
10
63.8599436759567
20
3.52833383657074
30
-3E-16
41
1
10
63.8654462390327
20
3.55595143657862
30
-3E-16
41
1
10
63.8656578650577
20
3.57114199981325
30
-3E-16
41
1
10
63.8635839458105
20
3.58685720495833
30
-3E-16
0
SPLINE
5
198
100
AcDbEntity
8
1
62
256
6
ByLayer
370
-1
48
1
60
0
100
AcDbSpline
70
4
71
3
72
18
73
14
40
0
40
0
40
0
40
0
40
0.21339446477972
40
0.21339446477972
40
0.389004322610664
40
0.389004322610664
40
0.566252444177969
40
0.566252444177969
40
0.721175490823056
40
0.721175490823056
40
0.927416435499182
40
0.927416435499182
40
1
40
1
40
1
40
1
41
1
10
62.6906295629086
20
3.8617693036868
30
-4E-16
41
1
10
62.7065594992174
20
3.89486513566598
30
-4E-16
41
1
10
62.7161556609626
20
3.92934513163729
30
-4E-16
41
1
10
62.7183287496951
20
3.98878720247427
30
-4E-16
41
1
10
62.7135169387081
20
4.01493397565659
30
-4E-16
41
1
10
62.6907352707788
20
4.05997873967112
30
-4E-16
41
1
10
62.6721625598596
20
4.07931637694736
30
-4E-16
41
1
10
62.6271916049489
20
4.10527179972036
30
-4E-16
41
1
10
62.6016048100002
20
4.1135837610978
30
-4E-16
41
1
10
62.5367089793431
20
4.12466765348969
30
-4E-16
41
1
10
62.4946778485469
20
4.12509259751107
30
-4E-16
41
1
10
62.4360016803642
20
4.12031721655114
30
-4E-16
41
1
10
62.4203391766451
20
4.11855939826171
30
-4E-16
41
1
10
62.4045375254628
20
4.1163647124697
30
-4E-16
0
SPLINE
5
199
100
AcDbEntity
8
1
62
256
6
ByLayer
370
-1
48
1
60
0
100
AcDbSpline
70
4
71
3
72
16
73
12
40
0
40
0
40
0
40
0
40
0.0668638488455271
40
0.0668638488455271
40
0.290854271538802
40
0.290854271538802
40
0.517824973971677
40
0.517824973971677
40
0.759328674281761
40
0.759328674281761
40
1
40
1
40
1
40
1
41
1
10
62.7579394854561
20
3.70518898245629
30
-4E-16
41
1
10
62.762674496126
20
3.70304353669039
30
-4E-16
41
1
10
62.7675711703181
20
3.70105871250237
30
-4E-16
41
1
10
62.7893042486119
20
3.69322660465687
30
-4E-16
41
1
10
62.8077139977748
20
3.68909769842591
30
-4E-16
41
1
10
62.8451570345511
20
3.68515269098739
30
-4E-16
41
1
10
62.8646692693722
20
3.68533601484856
30
-4E-16
41
1
10
62.9033764773657
20
3.68993290800989
30
-4E-16
41
1
10
62.9229583828175
20
3.69466227056242
30
-4E-16
41
1
10
62.9588499250913
20
3.7079055575719
30
-4E-16
41
1
10
62.9755560970167
20
3.71653733572305
30
-4E-16
41
1
10
62.9902443013892
20
3.72661092515133
30
-4E-16
0
SPLINE
5
19A
100
AcDbEntity
8
1
62
256
6
ByLayer
370
-1
48
1
60
0
100
AcDbSpline
70
4
71
3
72
16
73
12
40
0
40
0
40
0
40
0
40
0.0670553612811642
40
0.0670553612811642
40
0.291697905104278
40
0.291697905104278
40
0.519329228663784
40
0.519329228663784
40
0.761535715028729
40
0.761535715028729
40
1
40
1
40
1
40
1
41
1
10
64.2641491234336
20
3.68064093706735
30
-3E-16
41
1
10
64.2641491234336
20
3.682709115926
30
-3E-16
41
1
10
64.2639281518817
20
3.68494940434502
30
-3E-16
41
1
10
64.2620251993545
20
3.69531737417336
30
-3E-16
41
1
10
64.2580445946428
20
3.70518722963436
30
-3E-16
41
1
10
64.2458375952826
20
3.72722246420906
30
-3E-16
41
1
10
64.2374124609431
20
3.73969270069486
30
-3E-16
41
1
10
64.2169929529275
20
3.76635486567102
30
-3E-16
41
1
10
64.2045627164696
20
3.78093732543971
30
-3E-16
41
1
10
64.1781999830206
20
3.80965491116024
30
-3E-16
41
1
10
64.1640284974096
20
3.82409127982032
30
-3E-16
41
1
10
64.1496759832563
20
3.83798991943098
30
-3E-16
0
SPLINE
5
19B
100
AcDbEntity
8
1
62
256
6
ByLayer
370
-1
48
1
60
0
100
AcDbSpline
70
4
71
3
72
14
73
10
40
0
40
0
40
0
40
0
40
0.284519249123231
40
0.284519249123231
40
0.571733062184447
40
0.571733062184447
40
0.83199624428652
40
0.83199624428652
40
1
40
1
40
1
40
1
41
1
10
62.4045375254628
20
4.24700810717738
30
-4E-16
41
1
10
62.3821117252422
20
4.23971357832005
30
-4E-16
41
1
10
62.3601635093969
20
4.2314447422674
30
-4E-16
41
1
10
62.3209540187454
20
4.21375480011136
30
-4E-16
41
1
10
62.303156973925
20
4.20403849266916
30
-4E-16
41
1
10
62.2769273172885
20
4.18537353635247
30
-4E-16
41
1
10
62.2674101512158
20
4.17615082299724
30
-4E-16
41
1
10
62.2586426462316
20
4.16179734652874
30
-4E-16
41
1
10
62.2568636781935
20
4.15626514020016
30
-4E-16
41
1
10
62.2568636781935
20
4.15110002954526
30
-4E-16
0
SPLINE
5
19C
100
AcDbEntity
8
1
62
256
6
ByLayer
370
-1
48
1
60
0
100
AcDbSpline
70
4
71
3
72
14
73
10
40
0
40
0
40
0
40
0
40
0.367476221826153
40
0.367476221826153
40
0.669887786990375
40
0.669887786990375
40
0.975120572729421
40
0.975120572729421
40
1
40
1
40
1
40
1
41
1
10
62.4045375254628
20
4.24700810717738
30
-4E-16
41
1
10
62.4504860378553
20
4.26195396178684
30
-4E-16
41
1
10
62.4957268245515
20
4.27836260596027
30
-4E-16
41
1
10
62.5704921382788
20
4.30727720903812
30
-4E-16
41
1
10
62.6021415100272
20
4.32021826822648
30
-4E-16
41
1
10
62.6551960489778
20
4.34224500864059
30
-4E-16
41
1
10
62.6771555110625
20
4.35150082799152
30
-4E-16
41
1
10
62.693185512162
20
4.35832472304838
30
-4E-16
41
1
10
62.6943562201561
20
4.35882402376481
30
-4E-16
41
1
10
62.6954830047719
20
4.35930584538946
30
-4E-16
0
SPLINE
5
19D
100
AcDbEntity
8
1
62
256
6
ByLayer
370
-1
48
1
60
0
100
AcDbSpline
70
4
71
3
72
16
73
12
40
0
40
0
40
0
40
0
40
0.06705536128116
40
0.06705536128116
40
0.291697905104271
40
0.291697905104271
40
0.519329228663784
40
0.519329228663784
40
0.761535715028726
40
0.761535715028726
40
1
40
1
40
1
40
1
41
1
10
62.2568636781935
20
4.15110002954526
30
-4E-16
41
1
10
62.2568636781935
20
4.14903185068664
30
-4E-16
41
1
10
62.2571445791216
20
4.14701288768831
30
-4E-16
41
1
10
62.2595641673295
20
4.13855290717686
30
-4E-16
41
1
10
62.264624316856
20
4.13266992302579
30
-4E-16
41
1
10
62.2801864583535
20
4.12302557741245
30
-4E-16
41
1
10
62.2909437563001
20
4.11916826375204
30
-4E-16
41
1
10
62.3171305507584
20
4.11380528760145
30
-4E-16
41
1
10
62.3331271441339
20
4.11239375495157
30
-4E-16
41
1
10
62.3672649231054
20
4.11239022121347
30
-4E-16
41
1
10
62.385713684161
20
4.11375027575167
30
-4E-16
41
1
10
62.4045375254628
20
4.1163647124697
30
-4E-16
0
LINE
5
48
100
AcDbEntity
8
80
62
256
6
ByLayer
370
-1
48
1
60
0
100
AcDbLine
10
0
20
0
30
0
11
-10
21
0
31
0
39
0
210
0
220
0
230
1
0
LINE
5
49
100
AcDbEntity
8
81
62
256
6
ByLayer
370
-1
48
1
60
0
100
AcDbLine
10
69
20
15.935
30
0
11
82
21
15.935
31
0
39
0
210
0
220
0
230
1
0
LINE
5
4A
100
AcDbEntity
8
SK1
62
256
6
ByLayer
370
-1
48
1
60
0
100
AcDbLine
10
0
20
15.99375
30
0
11
-59.5
21
15.99375
31
0
39
0
210
0
220
0
230
1
0
LINE
5
4C
100
AcDbEntity
8
SK1
62
256
6
ByLayer
370
-1
48
1
60
0
100
AcDbLine
10
-59.5
20
-15.99375
30
0
11
0
21
-15.99375
31
0
39
0
210
0
220
0
230
1
0
LINE
5
4D
100
AcDbEntity
8
SK1
62
256
6
ByLayer
370
-1
48
1
60
0
100
AcDbLine
10
-59.5
20
15.99375
30
0
11
-61
21
14.49375
31
0
39
0
210
0
220
0
230
1
0
LINE
5
4E
100
AcDbEntity
8
SK1
62
256
6
ByLayer
370
-1
48
1
60
0
100
AcDbLine
10
-61
20
-14.49375
30
0
11
-59.5
21
-15.99375
31
0
39
0
210
0
220
0
230
1
0
LINE
5
4F
100
AcDbEntity
8
1
62
256
6
ByLayer
370
-1
48
1
60
0
100
AcDbLine
10
63.956389
20
4.02622
30
0
11
63.867866
21
3.699293
31
0
39
0
210
0
220
0
230
1
0
LINE
5
51
100
AcDbEntity
8
1
62
256
6
ByLayer
370
-1
48
1
60
0
100
AcDbLine
10
62.708858
20
3.909543
30
0
11
62.8307
21
4.359517
31
0
39
0
210
0
220
0
230
1
0
LINE
5
52
100
AcDbEntity
8
1
62
256
6
ByLayer
370
-1
48
1
60
0
100
AcDbLine
10
64.243499
20
13.921902
30
0
11
64.066129
21
14.009398
31
0
39
0
210
0
220
0
230
1
0
LINE
5
53
100
AcDbEntity
8
1
62
256
6
ByLayer
370
-1
48
1
60
0
100
AcDbLine
10
64.082509
20
12.702911
30
0
11
64.221072
21
12.634558
31
0
39
0
210
0
220
0
230
1
0
LINE
5
54
100
AcDbEntity
8
1
62
256
6
ByLayer
370
-1
48
1
60
0
100
AcDbLine
10
63.104587
20
13.249171
30
0
11
63.318101
21
13.143846
31
0
39
0
210
0
220
0
230
1
0
LINE
5
55
100
AcDbEntity
8
1
62
256
6
ByLayer
370
-1
48
1
60
0
100
AcDbLine
10
28.7
20
15.99375
30
0
11
0
21
15.99375
31
0
39
0
210
0
220
0
230
1
0
LINE
5
56
100
AcDbEntity
8
1
62
256
6
ByLayer
370
-1
48
1
60
0
100
AcDbLine
10
0
20
-15.99375
30
0
11
28.7
21
-15.99375
31
0
39
0
210
0
220
0
230
1
0
LINE
5
57
100
AcDbEntity
8
1
62
256
6
ByLayer
370
-1
48
1
60
0
100
AcDbLine
10
28.7
20
-15.99375
30
0
11
29
21
-15.696
31
0
39
0
210
0
220
0
230
1
0
LINE
5
58
100
AcDbEntity
8
1
62
256
6
ByLayer
370
-1
48
1
60
0
100
AcDbLine
10
29
20
15.696
30
0
11
28.7
21
15.99375
31
0
39
0
210
0
220
0
230
1
0
LINE
5
59
100
AcDbEntity
8
1
62
256
6
ByLayer
370
-1
48
1
60
0
100
AcDbLine
10
29.8
20
-14.756343
30
0
11
57.438552
21
-14.756343
31
0
39
0
210
0
220
0
230
1
0
LINE
5
5A
100
AcDbEntity
8
1
62
256
6
ByLayer
370
-1
48
1
60
0
100
AcDbLine
10
43.188574
20
14.756343
30
0
11
29.8
21
14.756343
31
0
39
0
210
0
220
0
230
1
0
LINE
5
5B
100
AcDbEntity
8
1
62
256
6
ByLayer
370
-1
48
1
60
0
100
AcDbLine
10
57.560727
20
-14.765727
30
0
11
59.537499
21
-15.0712
31
0
39
0
210
0
220
0
230
1
0
LINE
5
5C
100
AcDbEntity
8
1
62
256
6
ByLayer
370
-1
48
1
60
0
100
AcDbLine
10
66.978858
20
-15.327561
30
0
11
67.632269
21
-15.336789
31
0
39
0
210
0
220
0
230
1
0
LINE
5
5D
100
AcDbEntity
8
1
62
256
6
ByLayer
370
-1
48
1
60
0
100
AcDbLine
10
61.914017
20
-15.256036
30
0
11
63.879204
21
-15.283788
31
0
39
0
210
0
220
0
230
1
0
LINE
5
5E
100
AcDbEntity
8
1
62
256
6
ByLayer
370
-1
48
1
60
0
100
AcDbLine
10
64.963993
20
3.60389
30
0
11
64.969966
21
3.629614
31
0
39
0
210
0
220
0
230
1
0
LINE
5
5F
100
AcDbEntity
8
1
62
256
6
ByLayer
370
-1
48
1
60
0
100
AcDbLine
10
61.636023
20
4.515951
30
0
11
61.630194
21
4.490843
31
0
39
0
210
0
220
0
230
1
0
LINE
5
60
100
AcDbEntity
8
SK4
62
256
6
ByLayer
370
-1
48
0.05
60
0
100
AcDbLine
10
79
20
0
30
0
11
-71
21
0
31
0
39
0
210
0
220
0
230
1
0
LINE
5
62
100
AcDbEntity
8
4
62
256
6
ByLayer
370
-1
48
0.05
60
0
100
AcDbLine
10
0
20
0
30
0
11
69
21
0
31
0
39
0
210
0
220
0
230
1
0
LINE
5
64
100
AcDbEntity
8
1
62
256
6
ByLayer
370
-1
48
1
60
0
100
AcDbLine
10
58.326596
20
6.547784
30
0
11
58.482705
21
6.563324
31
0
39
0
210
0
220
0
230
1
0
LINE
5
65
100
AcDbEntity
8
1
62
256
6
ByLayer
370
-1
48
1
60
0
100
AcDbLine
10
0
20
15.99375
30
0
11
0
21
-15.99375
31
0
39
0
210
0
220
0
230
1
0
LINE
5
66
100
AcDbEntity
8
1
62
256
6
ByLayer
370
-1
48
1
60
0
100
AcDbLine
10
50.084696
20
-3.146281
30
0
11
51.098628
21
4.986351
31
0
39
0
210
0
220
0
230
1
0
LINE
5
67
100
AcDbEntity
8
1
62
256
6
ByLayer
370
-1
48
1
60
0
100
AcDbLine
10
60.580442
20
9.390932
30
0
11
60.580442
21
11.827165
31
0
39
0
210
0
220
0
230
1
0
LINE
5
68
100
AcDbEntity
8
1
62
256
6
ByLayer
370
-1
48
1
60
0
100
AcDbLine
10
64.911833
20
5.175903
30
0
11
64.996041
21
5.1761
31
0
39
0
210
0
220
0
230
1
0
LINE
5
69
100
AcDbEntity
8
1
62
256
6
ByLayer
370
-1
48
1
60
0
100
AcDbLine
10
64.003245
20
12.703782
30
0
11
64.001765
21
12.5975
31
0
39
0
210
0
220
0
230
1
0
LINE
5
6A
100
AcDbEntity
8
1
62
256
6
ByLayer
370
-1
48
1
60
0
100
AcDbLine
10
56.890703
20
5.783562
30
0
11
51.52067
21
6.847059
31
0
39
0
210
0
220
0
230
1
0
LINE
5
6B
100
AcDbEntity
8
1
62
256
6
ByLayer
370
-1
48
1
60
0
100
AcDbLine
10
66.711291
20
-3.977379
30
0
11
66.673435
21
-5.044394
31
0
39
0
210
0
220
0
230
1
0
LINE
5
6C
100
AcDbEntity
8
1
62
256
6
ByLayer
370
-1
48
1
60
0
100
AcDbLine
10
68.443565
20
-14.053268
30
0
11
68.443565
21
-12.821171
31
0
39
0
210
0
220
0
230
1
0
LINE
5
6D
100
AcDbEntity
8
1
62
256
6
ByLayer
370
-1
48
1
60
0
100
AcDbLine
10
57.438552
20
7.431582
30
0
11
57.438552
21
12.368182
31
0
39
0
210
0
220
0
230
1
0
LINE
5
6E
100
AcDbEntity
8
1
62
256
6
ByLayer
370
-1
48
1
60
0
100
AcDbLine
10
68.233419
20
-0.293979
30
0
11
68.233419
21
0.173092
31
0
39
0
210
0
220
0
230
1
0
LINE
5
6F
100
AcDbEntity
8
1
62
256
6
ByLayer
370
-1
48
1
60
0
100
AcDbLine
10
67.632269
20
7.494449
30
0
11
67.632269
21
12.786305
31
0
39
0
210
0
220
0
230
1
0
LINE
5
70
100
AcDbEntity
8
1
62
256
6
ByLayer
370
-1
48
1
60
0
100
AcDbLine
10
67.533419
20
2.492704
30
0
11
67.533419
21
2.690217
31
0
39
0
210
0
220
0
230
1
0
LINE
5
71
100
AcDbEntity
8
1
62
256
6
ByLayer
370
-1
48
1
60
0
100
AcDbLine
10
68.443565
20
12.422621
30
0
11
68.443565
21
7.018387
31
0
39
0
210
0
220
0
230
1
0
LINE
5
72
100
AcDbEntity
8
1
62
256
6
ByLayer
370
-1
48
1
60
0
100
AcDbLine
10
67.632269
20
-9.599148
30
0
11
67.632269
21
-5.030894
31
0
39
0
210
0
220
0
230
1
0
LINE
5
73
100
AcDbEntity
8
1
62
256
6
ByLayer
370
-1
48
1
60
0
100
AcDbLine
10
68.443565
20
-4.230483
30
0
11
68.443565
21
-9.174277
31
0
39
0
210
0
220
0
230
1
0
LINE
5
74
100
AcDbEntity
8
1
62
256
6
ByLayer
370
-1
48
1
60
0
100
AcDbLine
10
68.244202
20
0.17538
30
0
11
68.244202
21
-2.87876
31
0
39
0
210
0
220
0
230
1
0
LINE
5
75
100
AcDbEntity
8
1
62
256
6
ByLayer
370
-1
48
1
60
0
100
AcDbLine
10
68.443565
20
-14.536869
30
0
11
68.443565
21
-14.479743
31
0
39
0
210
0
220
0
230
1
0
LINE
5
76
100
AcDbEntity
8
1
62
256
6
ByLayer
370
-1
48
1
60
0
100
AcDbLine
10
68.443565
20
-3.839572
30
0
11
68.443565
21
0.848957
31
0
39
0
210
0
220
0
230
1
0
LINE
5
77
100
AcDbEntity
8
1
62
256
6
ByLayer
370
-1
48
1
60
0
100
AcDbLine
10
67.533419
20
2.492704
30
0
11
59.863214
21
3.356615
31
0
39
0
210
0
220
0
230
1
0
LINE
5
78
100
AcDbEntity
8
1
62
256
6
ByLayer
370
-1
48
1
60
0
100
AcDbLine
10
60.580442
20
-7.60194
30
0
11
60.580442
21
-6.3635
31
0
39
0
210
0
220
0
230
1
0
LINE
5
79
100
AcDbEntity
8
1
62
256
6
ByLayer
370
-1
48
1
60
0
100
AcDbLine
10
68.443565
20
0.848957
30
0
11
68.443565
21
0.92585
31
0
39
0
210
0
220
0
230
1
0
LINE
5
7A
100
AcDbEntity
8
1
62
256
6
ByLayer
370
-1
48
1
60
0
100
AcDbLine
10
57.560727
20
-14.765727
30
0
11
57.560727
21
-14.741648
31
0
39
0
210
0
220
0
230
1
0
LINE
5
7B
100
AcDbEntity
8
1
62
256
6
ByLayer
370
-1
48
1
60
0
100
AcDbLine
10
60.649741
20
11.831466
30
0
11
60.649741
21
9.389709
31
0
39
0
210
0
220
0
230
1
0
LINE
5
7C
100
AcDbEntity
8
1
62
256
6
ByLayer
370
-1
48
1
60
0
100
AcDbLine
10
60.649741
20
-6.366237
30
0
11
60.649741
21
-7.610133
31
0
39
0
210
0
220
0
230
1
0
LINE
5
7D
100
AcDbEntity
8
1
62
256
6
ByLayer
370
-1
48
1
60
0
100
AcDbLine
10
64.001765
20
12.5975
30
0
11
63.691964
21
11.453373
31
0
39
0
210
0
220
0
230
1
0
LINE
5
7E
100
AcDbEntity
8
1
62
256
6
ByLayer
370
-1
48
1
60
0
100
AcDbLine
10
68.244202
20
-12.767215
30
0
11
68.244202
21
-12.785502
31
0
39
0
210
0
220
0
230
1
0
LINE
5
7F
100
AcDbEntity
8
1
62
256
6
ByLayer
370
-1
48
1
60
0
100
AcDbLine
10
57.438552
20
-14.73163
30
0
11
57.438552
21
-14.756343
31
0
39
0
210
0
220
0
230
1
0
LINE
5
80
100
AcDbEntity
8
1
62
256
6
ByLayer
370
-1
48
1
60
0
100
AcDbLine
10
63.691964
20
11.835124
30
0
11
63.691964
21
11.453373
31
0
39
0
210
0
220
0
230
1
0
LINE
5
81
100
AcDbEntity
8
1
62
256
6
ByLayer
370
-1
48
1
60
0
100
AcDbLine
10
57.560727
20
12.369888
30
0
11
57.560727
21
7.419352
31
0
39
0
210
0
220
0
230
1
0
LINE
5
82
100
AcDbEntity
8
1
62
256
6
ByLayer
370
-1
48
1
60
0
100
AcDbLine
10
55.424214
20
-14.712259
30
0
11
56.108522
21
-8.87852
31
0
39
0
210
0
220
0
230
1
0
LINE
5
83
100
AcDbEntity
8
1
62
256
6
ByLayer
370
-1
48
1
60
0
100
AcDbLine
10
68.233419
20
-12.899132
30
0
11
68.233419
21
-12.74914
31
0
39
0
210
0
220
0
230
1
0
LINE
5
84
100
AcDbEntity
8
1
62
256
6
ByLayer
370
-1
48
1
60
0
100
AcDbLine
10
68.443565
20
-4.230483
30
0
11
68.443565
21
-3.834032
31
0
39
0
210
0
220
0
230
1
0
LINE
5
85
100
AcDbEntity
8
1
62
256
6
ByLayer
370
-1
48
1
60
0
100
AcDbLine
10
64.023768
20
-15.270297
30
0
11
64.022234
21
-15.082714
31
0
39
0
210
0
220
0
230
1
0
LINE
5
86
100
AcDbEntity
8
1
62
256
6
ByLayer
370
-1
48
1
60
0
100
AcDbLine
10
67.135047
20
-15.123404
30
0
11
67.136584
21
-15.311302
31
0
39
0
210
0
220
0
230
1
0
LINE
5
87
100
AcDbEntity
8
1
62
256
6
ByLayer
370
-1
48
1
60
0
100
AcDbLine
10
57.560727
20
-4.740778
30
0
11
57.560727
21
-9.057423
31
0
39
0
210
0
220
0
230
1
0
LINE
5
88
100
AcDbEntity
8
1
62
256
6
ByLayer
370
-1
48
1
60
0
100
AcDbLine
10
29.8
20
14.756343
30
0
11
29.8
21
-14.756343
31
0
39
0
210
0
220
0
230
1
0
LINE
5
89
100
AcDbEntity
8
1
62
256
6
ByLayer
370
-1
48
1
60
0
100
AcDbLine
10
68.443565
20
-14.479743
30
0
11
68.443565
21
-14.05328
31
0
39
0
210
0
220
0
230
1
0
LINE
5
8A
100
AcDbEntity
8
1
62
256
6
ByLayer
370
-1
48
1
60
0
100
AcDbLine
10
57.438552
20
-9.036174
30
0
11
57.438552
21
-4.727081
31
0
39
0
210
0
220
0
230
1
0
LINE
5
8B
100
AcDbEntity
8
1
62
256
6
ByLayer
370
-1
48
1
60
0
100
AcDbLine
10
67.135047
20
-15.123404
30
0
11
66.728752
21
-14.25705
31
0
39
0
210
0
220
0
230
1
0
LINE
5
8C
100
AcDbEntity
8
1
62
256
6
ByLayer
370
-1
48
1
60
0
100
AcDbLine
10
58.945284
20
7.543313
30
0
11
58.907197
21
7.732369
31
0
39
0
210
0
220
0
230
1
0
LINE
5
8D
100
AcDbEntity
8
1
62
256
6
ByLayer
370
-1
48
1
60
0
100
AcDbLine
10
50.084696
20
-14.545849
30
0
11
50.825262
21
-8.232511
31
0
39
0
210
0
220
0
230
1
0
LINE
5
8E
100
AcDbEntity
8
1
62
256
6
ByLayer
370
-1
48
1
60
0
100
AcDbLine
10
58.22852
20
-14.848602
30
0
11
59.042407
21
-10.480704
31
0
39
0
210
0
220
0
230
1
0
LINE
5
8F
100
AcDbEntity
8
1
62
256
6
ByLayer
370
-1
48
1
60
0
100
AcDbLine
10
28.7
20
15.99375
30
0
11
28.7
21
-15.99375
31
0
39
0
210
0
220
0
230
1
0
LINE
5
90
100
AcDbEntity
8
1
62
256
6
ByLayer
370
-1
48
1
60
0
100
AcDbLine
10
55.424214
20
-4.454535
30
0
11
56.468661
21
3.922854
31
0
39
0
210
0
220
0
230
1
0
LINE
5
91
100
AcDbEntity
8
1
62
256
6
ByLayer
370
-1
48
1
60
0
100
AcDbLine
10
57.653076
20
5.613938
30
0
11
58.359948
21
6.551114
31
0
39
0
210
0
220
0
230
1
0
LINE
5
92
100
AcDbEntity
8
1
62
256
6
ByLayer
370
-1
48
1
60
0
100
AcDbLine
10
66.601073
20
-14.151409
30
0
11
66.601073
21
-15.226133
31
0
39
0
210
0
220
0
230
1
0
LINE
5
93
100
AcDbEntity
8
1
62
256
6
ByLayer
370
-1
48
1
60
0
100
AcDbLine
10
67.632269
20
-15.317808
30
0
11
67.632269
21
-15.336789
31
0
39
0
210
0
220
0
230
1
0
LINE
5
94
100
AcDbEntity
8
1
62
256
6
ByLayer
370
-1
48
1
60
0
100
AcDbLine
10
58.22852
20
-4.841899
30
0
11
59.459031
21
1.329507
31
0
39
0
210
0
220
0
230
1
0
LINE
5
95
100
AcDbEntity
8
1
62
256
6
ByLayer
370
-1
48
1
60
0
100
AcDbLine
10
58.790333
20
7.747789
30
0
11
58.326596
21
6.547784
31
0
39
0
210
0
220
0
230
1
0
LINE
5
96
100
AcDbEntity
8
1
62
256
6
ByLayer
370
-1
48
1
60
0
100
AcDbLine
10
66.711291
20
-3.977379
30
0
11
66.601073
21
-4.27859
31
0
39
0
210
0
220
0
230
1
0
LINE
5
97
100
AcDbEntity
8
1
62
256
6
ByLayer
370
-1
48
1
60
0
100
AcDbLine
10
67.533419
20
1.252194
30
0
11
67.533419
21
2.492704
31
0
39
0
210
0
220
0
230
1
0
LINE
5
98
100
AcDbEntity
8
1
62
256
6
ByLayer
370
-1
48
1
60
0
100
AcDbLine
10
56.468661
20
3.922854
30
0
11
51.098628
21
4.986351
31
0
39
0
210
0
220
0
230
1
0
LINE
5
99
100
AcDbEntity
8
1
62
256
6
ByLayer
370
-1
48
1
60
0
100
AcDbLine
10
68.233419
20
-2.766631
30
0
11
68.233419
21
-0.293945
31
0
39
0
210
0
220
0
230
1
0
LINE
5
9A
100
AcDbEntity
8
1
62
256
6
ByLayer
370
-1
48
1
60
0
100
AcDbLine
10
29
20
15.696
30
0
11
29
21
-15.696
31
0
39
0
210
0
220
0
230
1
0
LINE
5
9B
100
AcDbEntity
8
1
62
256
6
ByLayer
370
-1
48
1
60
0
100
AcDbLine
10
66.601073
20
-4.27859
30
0
11
66.601073
21
-5.345968
31
0
39
0
210
0
220
0
230
1
0
LINE
5
9C
100
AcDbEntity
8
1
62
256
6
ByLayer
370
-1
48
1
60
0
100
AcDbLine
10
59.68641
20
2.469888
30
0
11
59.863214
21
3.356615
31
0
39
0
210
0
220
0
230
1
0
LINE
5
9D
100
AcDbEntity
8
SK1
62
256
6
ByLayer
370
-1
48
1
60
0
100
AcDbLine
10
-61
20
-14.49375
30
0
11
-61
21
14.49375
31
0
39
0
210
0
220
0
230
1
0
LINE
5
9E
100
AcDbEntity
8
SK1
62
256
6
ByLayer
370
-1
48
1
60
0
100
AcDbLine
10
-59.5
20
15.99375
30
0
11
-59.5
21
-15.99375
31
0
39
0
210
0
220
0
230
1
0
LINE
5
9F
100
AcDbEntity
8
SK1
62
256
6
ByLayer
370
-1
48
1
60
0
100
AcDbLine
10
0
20
15.99375
30
0
11
0
21
-15.99375
31
0
39
0
210
0
220
0
230
1
0
LINE
5
A0
100
AcDbEntity
8
1
62
256
6
ByLayer
370
-1
48
1
60
0
100
AcDbLine
10
63.532154
20
13.105368
30
0
11
63.328346
21
13.205906
31
0
39
0
210
0
220
0
230
1
0
LINE
5
A1
100
AcDbEntity
8
1
62
256
6
ByLayer
370
-1
48
1
60
0
100
AcDbLine
10
64.198934
20
12.654954
30
0
11
64.149676
21
12.679253
31
0
39
0
210
0
220
0
230
1
0
LINE
5
A2
100
AcDbEntity
8
1
62
256
6
ByLayer
370
-1
48
1
60
0
100
AcDbLine
10
62.918316
20
13.028809
30
0
11
62.69063
21
13.141125
31
0
39
0
210
0
220
0
230
1
0
LINE
5
A3
100
AcDbEntity
8
1
62
256
6
ByLayer
370
-1
48
1
60
0
100
AcDbLine
10
63.273623
20
13.204193
30
0
11
63.477431
21
13.103655
31
0
39
0
210
0
220
0
230
1
0
LINE
5
A4
100
AcDbEntity
8
1
62
256
6
ByLayer
370
-1
48
1
60
0
100
AcDbLine
10
63.791736
20
13.23275
30
0
11
63.564131
21
13.345026
31
0
39
0
210
0
220
0
230
1
0
LINE
5
A5
100
AcDbEntity
8
1
62
256
6
ByLayer
370
-1
48
1
60
0
100
AcDbLine
10
63.150599
20
4.318818
30
0
11
62.990244
21
3.726611
31
0
39
0
210
0
220
0
230
1
0
LINE
5
A6
100
AcDbEntity
8
1
62
256
6
ByLayer
370
-1
48
1
60
0
100
AcDbLine
10
62.443703
20
4.261007
30
0
11
62.404538
21
4.116365
31
0
39
0
210
0
220
0
230
1
0
LINE
5
A7
100
AcDbEntity
8
1
62
256
6
ByLayer
370
-1
48
1
60
0
100
AcDbLine
10
64.177375
20
3.809643
30
0
11
64.149676
21
3.707347
31
0
39
0
210
0
220
0
230
1
0
LINE
5
A8
100
AcDbEntity
8
1
62
256
6
ByLayer
370
-1
48
1
60
0
100
AcDbLine
10
63.71461
20
4.14784
30
0
11
63.564131
21
3.592106
31
0
39
0
210
0
220
0
230
1
0
LINE
5
A9
100
AcDbEntity
8
1
62
256
6
ByLayer
370
-1
48
1
60
0
100
AcDbLine
10
63.328346
20
3.784895
30
0
11
63.452481
21
4.243339
31
0
39
0
210
0
220
0
230
1
0
LINE
5
AA
100
AcDbEntity
8
1
62
256
6
ByLayer
370
-1
48
1
60
0
100
AcDbLine
10
63.398621
20
4.259352
30
0
11
63.273623
21
3.797721
31
0
39
0
210
0
220
0
230
1
0
MTEXT
5
19E
100
AcDbEntity
8
SK6
62
256
6
ByLayer
370
-1
48
1
60
0
100
AcDbMText
10
-60.126614
20
-26.938367
30
0
210
0
220
0
230
1
1
\W00.723;\fsimplex.shx,bigfont.shx;R390-032A32-11H\P
40
3.5
41
0
44
1.084337
50
0
71
7
72
5
7
DEFAULT
0
DIMENSION
5
1AF
100
AcDbEntity
8
2
62
256
6
ByLayer
370
-3
48
1
60
0
100
AcDbDimension
2
DimnDraft3D1
10
29
20
35.75
30
0
11
45.346711
21
35.75
31
0
70
32
71
5
72
1
41
1
210
0
220
0
230
1
3
Standard
100
AcDbAlignedDimension
13
69
23
18
33
0
14
29
24
16.756343
34
0
50
0
100
AcDbRotatedDimension
1001
ACAD
1000
DSTYLE
1002
{
1070
   279
1070
     0
1070
   172
1070
     1
1070
   173
1070
     1
1070
   340
1005
19F
1070
   271
1070
     2
1070
   272
1070
     2
1070
    77
1070
     1
1070
    73
1070
     0
1070
   171
1070
     4
1070
   274
1070
     4
1070
   177
1070
     2
1070
   176
1070
     2
1070
   178
1070
     7
1070
    78
1070
     8
1070
    41
1041
3.175
1070
   147
1041
2.25
1070
    42
1041
2.0
1070
    44
1041
2.0
1070
   140
1041
4.5
1070
   343
1005
1B0
1070
   344
1005
1B0
1002
}
0
DIMENSION
5
1C5
100
AcDbEntity
8
SK2
62
256
6
ByLayer
370
-3
48
1
60
0
100
AcDbDimension
2
DimnDraft3D2
10
-61
20
45.75
30
0
11
-0.578454
21
45.75
31
0
70
32
71
5
72
1
41
1
210
0
220
0
230
1
3
Standard
100
AcDbAlignedDimension
13
69
23
18
33
0
14
-61
24
17.99375
34
0
50
0
100
AcDbRotatedDimension
1001
ACAD
1000
DSTYLE
1002
{
1070
   279
1070
     0
1070
   172
1070
     1
1070
   173
1070
     1
1070
   340
1005
19F
1070
   271
1070
     2
1070
   272
1070
     2
1070
    77
1070
     1
1070
    73
1070
     0
1070
   171
1070
     4
1070
   274
1070
     4
1070
   177
1070
     2
1070
   176
1070
     2
1070
   178
1070
     7
1070
    78
1070
     8
1070
    41
1041
3.175
1070
   147
1041
2.25
1070
    42
1041
2.0
1070
    44
1041
2.0
1070
   140
1041
4.5
1070
   343
1005
1B0
1070
   344
1005
1B0
1002
}
0
DIMENSION
5
1D3
100
AcDbEntity
8
2
62
256
6
ByLayer
370
-3
48
1
60
0
100
AcDbDimension
2
DimnDraft3D3
10
58.8
20
25.75
30
0
11
74
21
25.75
31
0
70
32
71
5
72
1
41
1
210
0
220
0
230
1
3
Standard
100
AcDbAlignedDimension
13
69
23
18
33
0
14
58.8
24
18
34
0
50
0
100
AcDbRotatedDimension
1001
ACAD
1000
DSTYLE
1002
{
1070
   279
1070
     0
1070
   172
1070
     1
1070
   173
1070
     1
1070
   340
1005
19F
1070
   271
1070
     2
1070
   272
1070
     2
1070
    77
1070
     1
1070
    73
1070
     0
1070
   171
1070
     4
1070
   274
1070
     4
1070
   177
1070
     2
1070
   176
1070
     2
1070
   178
1070
     7
1070
    78
1070
     8
1070
    41
1041
3.175
1070
   147
1041
2.25
1070
    42
1041
2.0
1070
    44
1041
2.0
1070
   140
1041
4.5
1070
   343
1005
1B0
1070
   344
1005
1B0
1002
}
0
DIMENSION
5
1E1
100
AcDbEntity
8
SK2
62
256
6
ByLayer
370
-3
48
1
60
0
100
AcDbDimension
2
DimnDraft3D4
10
-70.75
20
-15.99375
30
0
11
-70.75
21
-6.01727
31
0
70
32
71
5
72
1
41
1
210
0
220
0
230
1
3
Standard
100
AcDbAlignedDimension
13
-63
23
15.99375
33
0
14
-63
24
-15.99375
34
0
50
90
100
AcDbRotatedDimension
1001
ACAD
1000
DSTYLE
1002
{
1070
    74
1070
     0
1070
   279
1070
     0
1070
   172
1070
     1
1070
   173
1070
     1
1070
   340
1005
19F
1070
   271
1070
     2
1070
   272
1070
     2
1070
    77
1070
     1
1070
    73
1070
     0
1070
   171
1070
     4
1070
   274
1070
     4
1070
   177
1070
     2
1070
   176
1070
     2
1070
   178
1070
     7
1070
    78
1070
     8
1070
    41
1041
3.175
1070
   147
1041
2.25
1070
    42
1041
2.0
1070
    44
1041
2.0
1070
   140
1041
4.5
1070
   343
1005
1B0
1070
   344
1005
1B0
1002
}
0
DIMENSION
5
1EF
100
AcDbEntity
8
2
62
256
6
ByLayer
370
-3
48
1
60
0
100
AcDbDimension
2
DimnDraft3D5
10
83.25
20
-16
30
0
11
83.25
21
-6.01727
31
0
70
32
71
5
72
1
41
1
210
0
220
0
230
1
3
Standard
100
AcDbAlignedDimension
13
71
23
16
33
0
14
71
24
-16
34
0
50
90
100
AcDbRotatedDimension
1001
ACAD
1000
DSTYLE
1002
{
1070
    74
1070
     0
1070
   279
1070
     0
1070
   172
1070
     1
1070
   173
1070
     1
1070
   340
1005
19F
1070
   271
1070
     2
1070
   272
1070
     2
1070
    77
1070
     1
1070
    73
1070
     0
1070
   171
1070
     4
1070
   274
1070
     4
1070
   177
1070
     2
1070
   176
1070
     2
1070
   178
1070
     7
1070
    78
1070
     8
1070
    41
1041
3.175
1070
   147
1041
2.25
1070
    42
1041
2.0
1070
    44
1041
2.0
1070
   140
1041
4.5
1070
   343
1005
1B0
1070
   344
1005
1B0
1002
}
0
ENDSEC
0
SECTION
2
OBJECTS
0
DICTIONARY
5
23e
330
0
100
AcDbDictionary
280
0
281
1
3
ACAD_GROUP
350
23f
3
ACAD_MLINESTYLE
350
240
0
DICTIONARY
5
23f
330
0
100
AcDbDictionary
280
0
281
1
0
DICTIONARY
5
240
330
0
100
AcDbDictionary
280
0
281
1
3
Standard
350
18
0
MLINESTYLE
5
18
330
240
100
AcDbMlineStyle
2
Standard
70
0
3

62
256
51
90
52
90
71
2
49
-0.5
62
256
6
ByLayer
49
0.5
62
256
6
ByLayer
0
RASTERVARIABLES
5
22c
330

100
AcDbRasterVariables
90
0
70
1
71
1
72
1
0
ENDSEC
0
EOF
