0
SECTION
2
HEADER
9
$ACADVER
1
AC1015
9
$DWGCODEPAGE
3
ANSI_1252
9
$HANDSEED
5
223
9
$ANGBASE
50
0
9
$ANGDIR
70
0
9
$ATTMODE
70
1
9
$AUNITS
70
0
9
$AUPREC
70
0
9
$CECOLOR
62
256
9
$CELTSCALE
40
1
9
$CELTYPE
6
ByLayer
9
$CELWEIGHT
370
18
9
$CLAYER
8
0
9
$CMLJUST
70
0
9
$CMLSCALE
40
1
9
$CMLSTYLE
2
Standard
9
$DIMSTYLE
2
Standard
9
$TEXTSIZE
40
0.2
9
$TEXTSTYLE
7
Standard
9
$LUNITS
70
2
9
$LUPREC
70
4
9
$EXTNAMES
290
1
9
$INSUNITS
70
4
9
$LTSCALE
40
1
9
$LWDISPLAY
290
1
9
$PDMODE
70
0
9
$PDSIZE
40
0
9
$PLINEGEN
70
0
0
ENDSEC
0
SECTION
2
CLASSES
0
CLASS
1
RASTERVARIABLES
2
AcDbRasterVariables
3
ISM
90
0
280
0
281
0
0
ENDSEC
0
SECTION
2
TABLES
0
TABLE
2
VPORT
5
219
100
AcDbSymbolTable
0
VPORT
5
1
100
AcDbSymbolTableRecord
100
AcDbViewportTableRecord
2
*Active
70
0
10
0
20
0
11
1
21
1
12
-1
22
1
13
0
23
0
14
0.5
24
0.5
15
10
25
10
16
0
26
0
36
1
17
0
27
0
37
0
0
ENDTAB
0
TABLE
2
LTYPE
5
21a
100
AcDbSymbolTable
0
LTYPE
5
14
100
AcDbSymbolTableRecord
100
AcDbLinetypeTableRecord
70
0
2
ByBlock
3

72
65
73
0
40
0
0
LTYPE
5
15
100
AcDbSymbolTableRecord
100
AcDbLinetypeTableRecord
70
0
2
ByLayer
3

72
65
73
0
40
0
0
LTYPE
5
16
100
AcDbSymbolTableRecord
100
AcDbLinetypeTableRecord
70
0
2
CONTINUOUS
3
Solid line
72
65
73
0
40
0
0
LTYPE
5
6A
100
AcDbSymbolTableRecord
100
AcDbLinetypeTableRecord
70
0
2
CENTER
3
____ _ ____ _ ____ _ ____
72
65
73
4
40
47.5
49
22
74
0
49
-8.5
74
0
49
8.5
74
0
49
-8.5
74
0
0
LTYPE
5
6B
100
AcDbSymbolTableRecord
100
AcDbLinetypeTableRecord
70
0
2
DASHED
3
__ __ __ __ __ __ __ __ __
72
65
73
2
40
25.72
49
12.86
74
0
49
-12.86
74
0
0
ENDTAB
0
TABLE
2
LAYER
5
21b
100
AcDbSymbolTable
0
LAYER
5
10
100
AcDbSymbolTableRecord
100
AcDbLayerTableRecord
2
0
70
0
62
7
6
CONTINUOUS
290
1
370
-3
390
0
0
LAYER
5
6D
100
AcDbSymbolTableRecord
100
AcDbLayerTableRecord
2
80
70
0
62
-6
6
CONTINUOUS
290
1
370
-3
390
0
0
LAYER
5
6F
100
AcDbSymbolTableRecord
100
AcDbLayerTableRecord
2
81
70
0
62
-3
6
CONTINUOUS
290
1
370
-3
390
0
0
LAYER
5
72
100
AcDbSymbolTableRecord
100
AcDbLayerTableRecord
2
4
70
0
62
-2
6
CENTER
290
1
370
-3
390
0
0
LAYER
5
77
100
AcDbSymbolTableRecord
100
AcDbLayerTableRecord
2
1
70
0
62
4
6
CONTINUOUS
290
1
370
-3
390
0
0
LAYER
5
178
100
AcDbSymbolTableRecord
100
AcDbLayerTableRecord
2
2
70
0
62
7
6
CONTINUOUS
290
1
370
-3
390
0
0
LAYER
5
205
100
AcDbSymbolTableRecord
100
AcDbLayerTableRecord
2
SK4
70
0
62
2
6
CENTER
290
1
370
-3
390
0
0
LAYER
5
206
100
AcDbSymbolTableRecord
100
AcDbLayerTableRecord
2
SK1
70
0
62
4
6
CONTINUOUS
290
1
370
-3
390
0
0
LAYER
5
207
100
AcDbSymbolTableRecord
100
AcDbLayerTableRecord
2
SK6
70
0
62
5
6
CONTINUOUS
290
1
370
-3
390
0
0
LAYER
5
208
100
AcDbSymbolTableRecord
100
AcDbLayerTableRecord
2
SK2
70
0
62
7
6
CONTINUOUS
290
1
370
-3
390
0
0
ENDTAB
0
TABLE
2
STYLE
5
21c
100
AcDbSymbolTable
0
STYLE
5
11
100
AcDbSymbolTableRecord
100
AcDbTextStyleTableRecord
2
Standard
3
txt
70
0
71
0
40
0
41
1
42
0
50
0
0
STYLE
5
173
100
AcDbSymbolTableRecord
100
AcDbTextStyleTableRecord
2
iso_b_vert
3
simplex.shx
70
0
71
0
40
0
41
1
42
0
50
0
0
STYLE
5
174
100
AcDbSymbolTableRecord
100
AcDbTextStyleTableRecord
2
DWGDirectTextStyle
3
simplex
70
0
71
0
40
0
41
1
42
0
50
0
0
ENDTAB
0
TABLE
2
DIMSTYLE
5
21d
100
AcDbSymbolTable
100
AcDbDimStyleTable
0
DIMSTYLE
105
27
100
AcDbSymbolTableRecord
100
AcDbDimStyleTableRecord
2
Standard
70
0
3
<>
41
0.18
42
0.0625
44
0.18
140
0.18
147
0.09
73
0
74
0
77
1
271
2
275
0
278
52
280
0
340
11
0
ENDTAB
0
TABLE
2
VIEW
5
21e
100
AcDbSymbolTable
0
ENDTAB
0
TABLE
2
UCS
5
21f
100
AcDbSymbolTable
0
ENDTAB
0
TABLE
2
APPID
5
220
100
AcDbSymbolTable
0
APPID
5
12
100
AcDbSymbolTableRecord
100
AcDbRegAppTableRecord
2
ACAD
70
0
0
ENDTAB
0
TABLE
2
BLOCK_RECORD
5
221
100
AcDbSymbolTable
0
BLOCK_RECORD
5
1F
100
AcDbSymbolTableRecord
100
AcDbBlockTableRecord
2
*Model_Space
340
0
70
0
0
BLOCK_RECORD
5
1B
100
AcDbSymbolTableRecord
100
AcDbBlockTableRecord
2
*Paper_Space
340
0
70
0
0
BLOCK_RECORD
5
23
100
AcDbSymbolTableRecord
100
AcDbBlockTableRecord
2
*Paper_Space0
340
0
70
0
0
BLOCK_RECORD
5
176
100
AcDbSymbolTableRecord
100
AcDbBlockTableRecord
2
DimnDraft3D1
340
0
70
0
0
BLOCK_RECORD
5
181
100
AcDbSymbolTableRecord
100
AcDbBlockTableRecord
2
DimnDraft3D22
340
0
70
0
0
BLOCK_RECORD
5
18B
100
AcDbSymbolTableRecord
100
AcDbBlockTableRecord
2
DimnDraft3D3
340
0
70
0
0
BLOCK_RECORD
5
196
100
AcDbSymbolTableRecord
100
AcDbBlockTableRecord
2
DimnDraft3D4
340
0
70
0
0
BLOCK_RECORD
5
1A2
100
AcDbSymbolTableRecord
100
AcDbBlockTableRecord
2
DimnDraft3D5
340
0
70
0
0
ENDTAB
0
ENDSEC
0
SECTION
2
BLOCKS
0
BLOCK
5
20
100
AcDbEntity
8
0
100
AcDbBlockBegin
2
*Model_Space
70
0
10
0
20
0
30
0
3
*Model_Space
0
ENDBLK
5
21
100
AcDbEntity
8
0
100
AcDbBlockEnd
0
BLOCK
5
1C
100
AcDbEntity
8
0
100
AcDbBlockBegin
2
*Paper_Space
70
0
10
0
20
0
30
0
3
*Paper_Space
0
ENDBLK
5
1D
100
AcDbEntity
8
0
100
AcDbBlockEnd
0
BLOCK
5
24
100
AcDbEntity
8
0
100
AcDbBlockBegin
2
*Paper_Space0
70
0
10
0
20
0
30
0
3
*Paper_Space0
0
ENDBLK
5
25
100
AcDbEntity
8
0
100
AcDbBlockEnd
0
BLOCK
5
17E
100
AcDbEntity
8
0
100
AcDbBlockBegin
2
DimnDraft3D1
70
0
10
0
20
0
30
0
3
DimnDraft3D1
0
MTEXT
5
177
100
AcDbEntity
8
2
62
256
6
ByLayer
370
13
48
1
60
0
100
AcDbMText
10
85.607533
20
59.460561
30
0
210
0
220
0
230
1
1
\W0.6217;175
40
3.175
41
0
44
1.084337
50
0
71
7
72
5
7
iso_b_vert
0
LINE
5
179
100
AcDbEntity
8
2
62
256
6
ByLayer
370
13
48
1
60
0
100
AcDbLine
10
0
20
1.5875
30
0
11
0
21
61.841811
31
0
39
0
210
0
220
0
230
1
0
LINE
5
17A
100
AcDbEntity
8
2
62
256
6
ByLayer
370
13
48
1
60
0
100
AcDbLine
10
175
20
14.0875
30
0
11
175
21
61.841811
31
0
39
0
210
0
220
0
230
1
0
LINE
5
17B
100
AcDbEntity
8
2
62
256
6
ByLayer
370
13
48
1
60
0
100
AcDbLine
10
0
20
58.666811
30
0
11
175
21
58.666811
31
0
39
0
210
0
220
0
230
1
0
SOLID
5
17C
100
AcDbEntity
8
2
62
256
6
ByLayer
370
13
48
1
60
0
100
AcDbTrace
10
0
20
58.666811
30
0
11
3.174998
21
59.084807
31
0
12
3.175002
22
58.248814
32
0
13
0
23
58.666811
33
0
39
0
210
0
220
0
230
1
0
SOLID
5
17D
100
AcDbEntity
8
2
62
256
6
ByLayer
370
13
48
1
60
0
100
AcDbTrace
10
175
20
58.666811
30
0
11
171.825002
21
58.248814
31
0
12
171.824998
22
59.084807
32
0
13
175
23
58.666811
33
0
39
0
210
0
220
0
230
1
0
ENDBLK
5
17F
100
AcDbEntity
8
0
100
AcDbBlockEnd
0
BLOCK
5
182
100
AcDbEntity
8
0
100
AcDbBlockBegin
2
DimnDraft3D22
70
0
10
0
20
0
30
0
3
DimnDraft3D22
0
LINE
5
184
100
AcDbEntity
8
2
62
256
6
ByLayer
370
25
48
1
60
0
100
AcDbLine
10
175
20
14.0875
30
0
11
175
21
45.806561
31
0
39
0
210
0
220
0
230
1
0
LINE
5
185
100
AcDbEntity
8
2
62
256
6
ByLayer
370
25
48
1
60
0
100
AcDbLine
10
24.990876
20
13.763393
30
0
11
24.990876
21
45.806561
31
0
39
0
210
0
220
0
230
1
0
LINE
5
186
100
AcDbEntity
8
2
62
256
6
ByLayer
370
25
48
1
60
0
100
AcDbLine
10
175
20
42.631561
30
0
11
24.990876
21
42.631561
31
0
39
0
210
0
220
0
230
1
0
SOLID
5
187
100
AcDbEntity
8
2
62
256
6
ByLayer
370
25
48
1
60
0
100
AcDbTrace
10
175
20
42.631561
30
0
11
171.825002
21
42.213564
31
0
12
171.824998
22
43.049557
32
0
13
175
23
42.631561
33
0
39
0
210
0
220
0
230
1
0
SOLID
5
188
100
AcDbEntity
8
2
62
256
6
ByLayer
370
25
48
1
60
0
100
AcDbTrace
10
24.990876
20
42.631561
30
0
11
28.165874
21
43.049557
31
0
12
28.165877
22
42.213564
32
0
13
24.990876
23
42.631561
33
0
39
0
210
0
220
0
230
1
0
MTEXT
5
189
100
AcDbEntity
8
2
62
256
6
ByLayer
370
13
48
1
60
0
100
AcDbMText
10
98.102971
20
43.425311
30
0
210
0
220
0
230
1
1
\W0.6217;150
40
3.175
41
0
44
1.084337
50
0
71
7
72
5
7
iso_b_vert
0
ENDBLK
5
183
100
AcDbEntity
8
0
100
AcDbBlockEnd
0
BLOCK
5
193
100
AcDbEntity
8
0
100
AcDbBlockBegin
2
DimnDraft3D3
70
0
10
0
20
0
30
0
3
DimnDraft3D3
0
MTEXT
5
18C
100
AcDbEntity
8
2
62
256
6
ByLayer
370
13
48
1
60
0
100
AcDbMText
10
197.325266
20
3.26273
30
0
210
0
220
0
230
1
1
\W0.6740;25
40
3.175
41
0
44
1.084337
50
90
71
7
72
5
7
iso_b_vert
0
MTEXT
5
18D
100
AcDbEntity
8
2
62
256
6
ByLayer
370
13
48
1
60
0
100
AcDbMText
10
197.325266
20
-3.856215
30
0
210
0
220
0
230
1
1
%%c
40
3.175
41
0
44
1.084337
50
90
71
7
72
5
7
iso_b_vert
0
LINE
5
18E
100
AcDbEntity
8
2
62
256
6
ByLayer
370
13
48
1
60
0
100
AcDbLine
10
175.796473
20
-12.407768
30
0
11
202.087766
21
-12.407768
31
0
39
0
210
0
220
0
230
1
0
LINE
5
18F
100
AcDbEntity
8
2
62
256
6
ByLayer
370
13
48
1
60
0
100
AcDbLine
10
175.796473
20
12.407768
30
0
11
202.087766
21
12.407768
31
0
39
0
210
0
220
0
230
1
0
LINE
5
190
100
AcDbEntity
8
2
62
256
6
ByLayer
370
13
48
1
60
0
100
AcDbLine
10
198.912766
20
-12.407768
30
0
11
198.912766
21
12.407768
31
0
39
0
210
0
220
0
230
1
0
SOLID
5
191
100
AcDbEntity
8
2
62
256
6
ByLayer
370
13
48
1
60
0
100
AcDbTrace
10
198.912766
20
-12.407768
30
0
11
198.49477
21
-9.23277
31
0
12
199.330763
22
-9.232767
32
0
13
198.912766
23
-12.407768
33
0
39
0
210
0
220
0
230
1
0
SOLID
5
192
100
AcDbEntity
8
2
62
256
6
ByLayer
370
13
48
1
60
0
100
AcDbTrace
10
198.912766
20
12.407768
30
0
11
199.330763
21
9.23277
31
0
12
198.49477
22
9.232767
32
0
13
198.912766
23
12.407768
33
0
39
0
210
0
220
0
230
1
0
ENDBLK
5
194
100
AcDbEntity
8
0
100
AcDbBlockEnd
0
BLOCK
5
19F
100
AcDbEntity
8
0
100
AcDbBlockBegin
2
DimnDraft3D4
70
0
10
0
20
0
30
0
3
DimnDraft3D4
0
MTEXT
5
197
100
AcDbEntity
8
SK2
62
256
6
ByLayer
370
13
48
1
60
0
100
AcDbMText
10
-53.287608
20
3.26273
30
0
210
0
220
0
230
1
1
\W0.6740;50
40
3.175
41
0
44
1.084337
50
90
71
7
72
5
7
iso_b_vert
0
MTEXT
5
199
100
AcDbEntity
8
SK2
62
256
6
ByLayer
370
13
48
1
60
0
100
AcDbMText
10
-53.287608
20
-3.856215
30
0
210
0
220
0
230
1
1
%%c
40
3.175
41
0
44
1.084337
50
90
71
7
72
5
7
iso_b_vert
0
LINE
5
19A
100
AcDbEntity
8
SK2
62
256
6
ByLayer
370
13
48
1
60
0
100
AcDbLine
10
-1.2875
20
25
30
0
11
-54.875108
21
25
31
0
39
0
210
0
220
0
230
1
0
LINE
5
19B
100
AcDbEntity
8
SK2
62
256
6
ByLayer
370
13
48
1
60
0
100
AcDbLine
10
-1.2875
20
-25
30
0
11
-54.875108
21
-25
31
0
39
0
210
0
220
0
230
1
0
LINE
5
19C
100
AcDbEntity
8
SK2
62
256
6
ByLayer
370
13
48
1
60
0
100
AcDbLine
10
-51.700108
20
25
30
0
11
-51.700108
21
-25
31
0
39
0
210
0
220
0
230
1
0
SOLID
5
19D
100
AcDbEntity
8
SK2
62
256
6
ByLayer
370
13
48
1
60
0
100
AcDbTrace
10
-51.700108
20
25
30
0
11
-51.282111
21
21.825002
31
0
12
-52.118104
22
21.824998
32
0
13
-51.700108
23
25
33
0
39
0
210
0
220
0
230
1
0
SOLID
5
19E
100
AcDbEntity
8
SK2
62
256
6
ByLayer
370
13
48
1
60
0
100
AcDbTrace
10
-51.700108
20
-25
30
0
11
-52.118104
21
-21.825002
31
0
12
-51.282111
22
-21.824998
32
0
13
-51.700108
23
-25
33
0
39
0
210
0
220
0
230
1
0
ENDBLK
5
1A0
100
AcDbEntity
8
0
100
AcDbBlockEnd
0
BLOCK
5
1A9
100
AcDbEntity
8
0
100
AcDbBlockBegin
2
DimnDraft3D5
70
0
10
0
20
0
30
0
3
DimnDraft3D5
0
MTEXT
5
1A3
100
AcDbEntity
8
SK2
62
256
6
ByLayer
370
13
48
1
60
0
100
AcDbMText
10
169.251158
20
28.969246
30
0
210
0
220
0
230
1
1
\W0.5321;10
40
3.175
41
0
44
1.084337
50
0
71
7
72
5
7
iso_b_vert
0
LINE
5
1A4
100
AcDbEntity
8
SK2
62
256
6
ByLayer
370
13
48
1
60
0
100
AcDbLine
10
175
20
14.0875
30
0
11
175
21
31.350496
31
0
39
0
210
0
220
0
230
1
0
LINE
5
1A5
100
AcDbEntity
8
SK2
62
256
6
ByLayer
370
13
48
1
60
0
100
AcDbLine
10
164.914356
20
13.58989
30
0
11
164.914356
21
31.350496
31
0
39
0
210
0
220
0
230
1
0
LINE
5
1A6
100
AcDbEntity
8
SK2
62
256
6
ByLayer
370
13
48
1
60
0
100
AcDbLine
10
175
20
28.175496
30
0
11
164.914356
21
28.175496
31
0
39
0
210
0
220
0
230
1
0
SOLID
5
1A7
100
AcDbEntity
8
SK2
62
256
6
ByLayer
370
13
48
1
60
0
100
AcDbTrace
10
175
20
28.175496
30
0
11
171.825002
21
27.757499
31
0
12
171.824998
22
28.593493
32
0
13
175
23
28.175496
33
0
39
0
210
0
220
0
230
1
0
SOLID
5
1A8
100
AcDbEntity
8
SK2
62
256
6
ByLayer
370
13
48
1
60
0
100
AcDbTrace
10
164.914356
20
28.175496
30
0
11
168.089355
21
28.593493
31
0
12
168.089358
22
27.757499
32
0
13
164.914356
23
28.175496
33
0
39
0
210
0
220
0
230
1
0
ENDBLK
5
1AA
100
AcDbEntity
8
0
100
AcDbBlockEnd
0
ENDSEC
0
SECTION
2
ENTITIES
0
ARC
5
A4
100
AcDbEntity
8
SK1
62
256
6
ByLayer
370
18
48
1
60
0
100
AcDbCircle
39
0
10
0.6
20
-18.75
30
0
40
1.00000000000001
210
0
220
0
230
-1
100
AcDbArc
50
113.578178
51
126.869898
0
ARC
5
A5
100
AcDbEntity
8
SK1
62
256
6
ByLayer
370
18
48
1
60
0
100
AcDbCircle
39
0
10
0.6
20
18.75
30
0
40
1.00000000000001
210
0
220
0
230
-1
100
AcDbArc
50
233.130102
51
246.421822
0
ARC
5
A6
100
AcDbEntity
8
1
62
256
6
ByLayer
370
18
48
1
60
0
100
AcDbCircle
39
0
10
-25
20
-17.175884
30
0
40
5
210
0
220
0
230
-1
100
AcDbArc
50
0
51
89.895446
0
ARC
5
A7
100
AcDbEntity
8
1
62
256
6
ByLayer
370
18
48
1
60
0
100
AcDbCircle
39
0
10
-25
20
17.175884
30
0
40
5
210
0
220
0
230
-1
100
AcDbArc
50
270.104554
51
0
0
ELLIPSE
5
A8
100
AcDbEntity
8
1
62
256
6
ByLayer
370
18
48
1
60
0
100
AcDbEllipse
10
72.492277
20
-0.980382
30
-7.377621
11
-238.585354950185
21
-1.94613795946329
31
-14.6451702853565
210
-0.0618045811014444
220
0.131476179993886
230
0.989390826644906
40
0.05339
41
-1.96235510656446
42
-1.96221425904469
0
ELLIPSE
5
A9
100
AcDbEntity
8
1
62
256
6
ByLayer
370
18
48
1
60
0
100
AcDbEllipse
10
169.76874
20
-8.628571
30
0
11
-0.782811345991584
21
1.16069220581423
31
0
210
0
220
0
230
1
40
0.969193
41
-1.35358007675624
42
-0.698178060519558
0
ELLIPSE
5
AA
100
AcDbEntity
8
1
62
256
6
ByLayer
370
18
48
1
60
0
100
AcDbEllipse
10
169.59435
20
8.746186
30
0
11
0.982419980244758
21
1.45665647204356
31
0
210
0
220
0
230
1
40
0.969193
41
-0.107991816852953
42
2.24245899427487
0
ELLIPSE
5
AB
100
AcDbEntity
8
1
62
256
6
ByLayer
370
18
48
1
60
0
100
AcDbEllipse
10
169.59435
20
8.746186
30
0
11
0.982419986728356
21
1.45665646849581
31
0
210
0
220
0
230
1
40
0.969193
41
-1.27938111533369
42
-0.962845570931423
0
ELLIPSE
5
AC
100
AcDbEntity
8
1
62
256
6
ByLayer
370
18
48
1
60
0
100
AcDbEllipse
10
169.59435
20
8.746186
30
0
11
0.982419980244163
21
1.456656472044
31
0
210
0
220
0
230
1
40
0.969193
41
3.10124005913524
42
-1.7212766186719
0
ELLIPSE
5
AD
100
AcDbEntity
8
1
62
256
6
ByLayer
370
18
48
1
60
0
100
AcDbEllipse
10
169.76874
20
8.628571
30
0
11
0.78281134616003
21
1.16069220567863
31
0
210
0
220
0
230
1
40
0.969193
41
0.00286386383659074
42
3.14159265358979
0
ELLIPSE
5
AE
100
AcDbEntity
8
1
62
256
6
ByLayer
370
18
48
1
60
0
100
AcDbEllipse
10
169.96146
20
8.498594
30
0
11
0.782811346159716
21
1.16069220567884
31
0
210
0
220
0
230
1
40
0.969193
41
0
42
3.14159265358979
0
ELLIPSE
5
AF
100
AcDbEntity
8
1
62
256
6
ByLayer
370
18
48
1
60
0
100
AcDbEllipse
10
169.768746
20
8.62858
30
0
11
0.782815745989709
21
1.16070272085321
31
0
210
0
220
0
230
1
40
0.969189
41
3.14159110856483
42
-3.11368371103854
0
ELLIPSE
5
B0
100
AcDbEntity
8
1
62
256
6
ByLayer
370
18
48
1
60
0
100
AcDbEllipse
10
170.904157
20
-7.609679
30
0
11
-0.838726442313016
21
1.24359879179938
31
0
210
0
220
0
230
1
40
0.969193
41
-2.17874707851566
42
0
0
ELLIPSE
5
B1
100
AcDbEntity
8
1
62
256
6
ByLayer
370
18
48
1
60
0
100
AcDbEllipse
10
170.904157
20
-7.609679
30
0
11
1.49999999995905
21
0
31
0
210
0
220
0
230
1
40
0.140686
41
3.14159265358979
42
-2.5287635462405
0
ELLIPSE
5
B2
100
AcDbEntity
8
1
62
256
6
ByLayer
370
18
48
1
60
0
100
AcDbEllipse
10
170.904157
20
-7.609679
30
0
11
1.4999999999967
21
0
31
0
210
0
220
0
230
1
40
0.140686
41
-1.02412658393941
42
-0.205648738298343
0
ELLIPSE
5
B3
100
AcDbEntity
8
1
62
256
6
ByLayer
370
18
48
1
60
0
100
AcDbEllipse
10
170.680523
20
-7.760506
30
0
11
-0.573129735495885
21
0.849792507772891
31
0
210
0
220
0
230
1
40
0.969193
41
0
42
0.962845575169055
0
ELLIPSE
5
B4
100
AcDbEntity
8
1
62
256
6
ByLayer
370
18
48
1
60
0
100
AcDbEllipse
10
170.680523
20
-7.760506
30
0
11
-0.573129735581768
21
0.849792507728744
31
0
210
0
220
0
230
1
40
0.969193
41
-2.17874707851703
42
0
0
ELLIPSE
5
B5
100
AcDbEntity
8
1
62
256
6
ByLayer
370
18
48
1
60
0
100
AcDbEllipse
10
169.929598
20
-8.266956
30
0
11
-0.573129735581177
21
0.849792507729088
31
0
210
0
220
0
230
1
40
0.969193
41
-2.72535603923539
42
-0.473352515045307
0
ELLIPSE
5
B6
100
AcDbEntity
8
1
62
256
6
ByLayer
370
18
48
1
60
0
100
AcDbEllipse
10
165.066372
20
-11.91471
30
0
11
0.416670815372399
21
1.52316669753799
31
0
210
0
220
0
230
1
40
0.373537
41
0.643281627232552
42
1.18169954839041
0
ELLIPSE
5
B7
100
AcDbEntity
8
1
62
256
6
ByLayer
370
18
48
1
60
0
100
AcDbEllipse
10
160.317378
20
10.079033
30
0
11
1.0920720932188
21
0.608176407984543
31
0
210
0
220
0
230
1
40
0.144943
41
-2.56714998667356
42
-1.58076901420745
0
ELLIPSE
5
B8
100
AcDbEntity
8
1
62
256
6
ByLayer
370
18
48
1
60
0
100
AcDbEllipse
10
166.514856
20
13.311467
30
0
11
6.33496600752523
21
2.97795327073677
31
0
210
0
220
0
230
1
40
0.989391
41
-3.07362095462088
42
-2.53707034605011
0
ELLIPSE
5
B9
100
AcDbEntity
8
1
62
256
6
ByLayer
370
18
48
1
60
0
100
AcDbEllipse
10
169.903566
20
8.284513
30
0
11
0.836999992847831
21
1.24103894586663
31
0
210
0
220
0
230
1
40
0.969193
41
-0.227485553753389
42
1.39105765658656
0
ELLIPSE
5
BA
100
AcDbEntity
8
1
62
256
6
ByLayer
370
18
48
1
60
0
100
AcDbEllipse
10
169.929598
20
8.266956
30
0
11
0.57312973556452
21
0.849792507738978
31
0
210
0
220
0
230
1
40
0.969193
41
-0.99185434016577
42
0
0
ELLIPSE
5
BB
100
AcDbEntity
8
1
62
256
6
ByLayer
370
18
48
1
60
0
100
AcDbEllipse
10
169.929598
20
8.266956
30
0
11
0.573129735523661
21
0.849792507794476
31
0
210
0
220
0
230
1
40
0.969193
41
3.14159265358979
42
-2.57880933790251
0
ELLIPSE
5
BC
100
AcDbEntity
8
1
62
256
6
ByLayer
370
18
48
1
60
0
100
AcDbEllipse
10
169.929598
20
8.266956
30
0
11
0.57312973533446
21
0.849792507855199
31
0
210
0
220
0
230
1
40
0.969193
41
-1.50697253605304
42
-0.991854340406055
0
ELLIPSE
5
BD
100
AcDbEntity
8
1
62
256
6
ByLayer
370
18
48
1
60
0
100
AcDbEllipse
10
169.929598
20
8.266956
30
0
11
0.573129735581382
21
0.84979250772903
31
0
210
0
220
0
230
1
40
0.969193
41
0
42
3.14159265358979
0
ELLIPSE
5
BE
100
AcDbEntity
8
1
62
256
6
ByLayer
370
18
48
1
60
0
100
AcDbEllipse
10
170.680523
20
7.760506
30
0
11
0.573129735572544
21
0.849792507734592
31
0
210
0
220
0
230
1
40
0.969193
41
2.1787470785067
42
2.66824013853704
0
ELLIPSE
5
BF
100
AcDbEntity
8
1
62
256
6
ByLayer
370
18
48
1
60
0
100
AcDbEllipse
10
169.59435
20
8.746186
30
0
11
0.982419980244758
21
1.45665647204356
31
0
210
0
220
0
230
1
40
0.969193
41
-0.107991816852953
42
2.24245899427487
0
ELLIPSE
5
C0
100
AcDbEntity
8
1
62
256
6
ByLayer
370
18
48
1
60
0
100
AcDbEllipse
10
169.59435
20
8.746186
30
0
11
0.982419980247639
21
1.45665647204114
31
0
210
0
220
0
230
1
40
0.969193
41
3.10124005913771
42
-1.8405418835011
0
ELLIPSE
5
C1
100
AcDbEntity
8
1
62
256
6
ByLayer
370
18
48
1
60
0
100
AcDbEllipse
10
169.76874
20
8.628571
30
0
11
0.78281134616003
21
1.16069220567863
31
0
210
0
220
0
230
1
40
0.969193
41
0.00286386383659074
42
3.14159265358979
0
ELLIPSE
5
C2
100
AcDbEntity
8
1
62
256
6
ByLayer
370
18
48
1
60
0
100
AcDbEllipse
10
169.96146
20
8.498594
30
0
11
0.782811346159716
21
1.16069220567884
31
0
210
0
220
0
230
1
40
0.969193
41
0
42
3.14159265358979
0
ELLIPSE
5
C3
100
AcDbEntity
8
1
62
256
6
ByLayer
370
18
48
1
60
0
100
AcDbEllipse
10
169.768746
20
8.62858
30
0
11
0.782815745989709
21
1.16070272085321
31
0
210
0
220
0
230
1
40
0.969189
41
3.14159110856483
42
-3.11368371103854
0
ELLIPSE
5
C4
100
AcDbEntity
8
1
62
256
6
ByLayer
370
18
48
1
60
0
100
AcDbEllipse
10
-1.056258
20
0
30
0
11
11.7092723497272
21
24.6771864409373
31
0
210
0
220
0
230
1
40
0.341999
41
-1.08183270048928
42
-0.16721307190898
0
ELLIPSE
5
C5
100
AcDbEntity
8
1
62
256
6
ByLayer
370
18
48
1
60
0
100
AcDbEllipse
10
21.056258
20
0
30
0
11
-11.7092723497279
21
24.6771864409382
31
0
210
0
220
0
230
1
40
0.341999
41
0.167213071908975
42
1.08183270048925
0
ELLIPSE
5
C6
100
AcDbEntity
8
1
62
256
6
ByLayer
370
18
48
1
60
0
100
AcDbEllipse
10
-1.056258
20
0
30
0
11
-11.7092723497271
21
24.6771864409372
31
0
210
0
220
0
230
1
40
0.341999
41
-2.97437958168082
42
-2.05975995310051
0
ELLIPSE
5
C7
100
AcDbEntity
8
1
62
256
6
ByLayer
370
18
48
1
60
0
100
AcDbEllipse
10
21.056258
20
0
30
0
11
11.7092723497281
21
24.6771864409385
31
0
210
0
220
0
230
1
40
0.341999
41
2.05975995310055
42
2.97437958168082
0
ELLIPSE
5
C8
100
AcDbEntity
8
1
62
256
6
ByLayer
370
18
48
1
60
0
100
AcDbEllipse
10
164.505319
20
0
30
0
11
-6.62460185293008
21
11.9348631446423
31
0
210
0
220
0
230
1
40
0.008628
41
-0.499711404864505
42
-0.00478889152012101
0
ELLIPSE
5
C9
100
AcDbEntity
8
1
62
256
6
ByLayer
370
18
48
1
60
0
100
AcDbEllipse
10
164.505319
20
0
30
0
11
6.62460185010128
21
11.9348631395309
31
0
210
0
220
0
230
1
40
0.008628
41
-3.1368037620692
42
-2.90740566646457
0
ELLIPSE
5
CA
100
AcDbEntity
8
1
62
256
6
ByLayer
370
18
48
1
60
0
100
AcDbEllipse
10
192.681547
20
0
30
0
11
192.73946774803
21
1.57811939654497
31
0
210
0
220
0
230
1
40
0.061379
41
1.72234782405734
42
1.74291425923371
0
ELLIPSE
5
CB
100
AcDbEntity
8
1
62
256
6
ByLayer
370
18
48
1
60
0
100
AcDbEllipse
10
192.681541
20
-2E-06
30
0
11
-192.73944681284
21
1.57811962690537
31
0
210
0
220
0
230
1
40
0.061379
41
1.39867841040211
42
1.41924484775501
0
ELLIPSE
5
CC
100
AcDbEntity
8
1
62
256
6
ByLayer
370
18
48
1
60
0
100
AcDbEllipse
10
164.505319
20
0
30
0
11
6.6246018757024
21
11.9348631855992
31
0
210
0
220
0
230
1
40
0.008628
41
2.93916904880004
42
-3.13680376207857
0
ELLIPSE
5
CD
100
AcDbEntity
8
1
62
256
6
ByLayer
370
18
48
1
60
0
100
AcDbEllipse
10
165.985993
20
-0.080909
30
0
11
3.83457384696635
21
11.7856200936003
31
0
210
0
220
0
230
1
40
0.383139
41
-2.65990428827093
42
-2.65673342451147
0
ELLIPSE
5
CE
100
AcDbEntity
8
1
62
256
6
ByLayer
370
18
48
1
60
0
100
AcDbEllipse
10
814.204547
20
-7.663092
30
0
11
-869.186856176679
21
17.4553397341508
31
0
210
0
220
0
230
1
40
0.002374
41
-0.741897971833664
42
-0.72975248209314
0
ELLIPSE
5
CF
100
AcDbEntity
8
1
62
256
6
ByLayer
370
18
48
1
60
0
100
AcDbEllipse
10
186.651537
20
-0.07212
30
0
11
-57.6471754609758
21
1.76691078879746
31
0
210
0
220
0
230
1
40
0.20615
41
1.23844021991441
42
1.3465783139469
0
ELLIPSE
5
D0
100
AcDbEntity
8
1
62
256
6
ByLayer
370
18
48
1
60
0
100
AcDbEllipse
10
170.818631
20
0.003102
30
0
11
0.364288331196764
21
11.8842569568271
31
0
210
0
220
0
230
1
40
0.206338
41
-2.31665893892713
42
-2.25598757573951
0
ELLIPSE
5
D1
100
AcDbEntity
8
1
62
256
6
ByLayer
370
18
48
1
60
0
100
AcDbEllipse
10
164.660693
20
7.035619
30
0
11
1.6903765664532
21
0.55666593671389
31
0
210
0
220
0
230
1
40
0.834046
41
2.20463265430444
42
2.59097210521046
0
ELLIPSE
5
D2
100
AcDbEntity
8
1
62
256
6
ByLayer
370
18
48
1
60
0
100
AcDbEllipse
10
164.779044
20
12.931135
30
0
11
1.13053696721389
21
6.4937016043434
31
0
210
0
220
0
230
1
40
0.151184
41
1.82619842974099
42
2.49729415508762
0
POINT
5
6C
100
AcDbEntity
8
80
62
256
6
ByLayer
370
18
48
1
60
0
100
AcDbPoint
10
0
20
0
30
0
39
0
210
0
220
0
230
1
50
360
0
POINT
5
6E
100
AcDbEntity
8
81
62
256
6
ByLayer
370
18
48
1
60
0
100
AcDbPoint
10
175
20
12.5
30
0
39
0
210
0
220
0
230
1
50
360
0
SPLINE
5
D3
100
AcDbEntity
8
1
62
256
6
ByLayer
370
18
48
1
60
0
100
AcDbSpline
70
4
71
3
72
12
73
8
40
0
40
0
40
0
40
0
40
0.250523311733481
40
0.250523311733481
40
0.50104662346703
40
0.50104662346703
40
1
40
1
40
1
40
1
41
1
10
163.543530313014
20
-11.4559776937019
30
0
41
1
10
163.540936416652
20
-11.4560133239
30
0
41
1
10
163.538342520251
20
-11.4560489512583
30
0
41
1
10
163.533154727371
20
-11.4561202002955
30
0
41
1
10
163.530560830892
20
-11.4561558219743
30
0
41
1
10
163.522800814634
20
-11.4562623808788
30
0
41
1
10
163.51763469474
20
-11.4563333096804
30
-1E-16
41
1
10
163.512468574691
20
-11.4564042272192
30
-1E-16
0
SPLINE
5
D4
100
AcDbEntity
8
1
62
256
6
ByLayer
370
18
48
1
60
0
100
AcDbSpline
70
4
71
2
72
6
73
3
40
0
40
0
40
0
40
1
40
1
40
1
41
1
10
174.285730000696
20
-9.00730824576091
30
0
41
1
10
174.363490506838
20
-9.45206939839501
30
0
41
1
10
174.387059168808
20
-9.90191131489015
30
0
0
SPLINE
5
D5
100
AcDbEntity
8
1
62
256
6
ByLayer
370
18
48
1
60
0
100
AcDbSpline
70
4
71
1
72
4
73
2
40
0
40
0
40
1
40
1
41
1
10
174.387059168808
20
-9.9019113148898
30
0
41
1
10
174.387059168808
20
-10.4959439113898
30
0
0
SPLINE
5
D6
100
AcDbEntity
8
1
62
256
6
ByLayer
370
18
48
1
60
0
100
AcDbSpline
70
4
71
3
72
12
73
8
40
0
40
0
40
0
40
0
40
0.238505702992902
40
0.477423530048655
40
0.70554082706027
40
0.906786324162632
40
1
40
1
40
1
40
1
41
1
10
174.387059168808
20
-10.4959439113869
30
0
41
1
10
174.386690780969
20
-10.6079308579648
30
0
41
1
10
174.352269901787
20
-10.8170577171369
30
0
41
1
10
174.198188692941
20
-11.0996492334021
30
0
41
1
10
173.966533160812
20
-11.2926991792661
30
0
41
1
10
173.738631787237
20
-11.3611874716679
30
0
41
1
10
173.60825975235
20
-11.3623817607769
30
0
41
1
10
173.566137917478
20
-11.3592371398502
30
0
0
SPLINE
5
D7
100
AcDbEntity
8
1
62
256
6
ByLayer
370
18
48
1
60
0
100
AcDbSpline
70
4
71
2
72
6
73
3
40
0
40
0
40
0
40
1
40
1
40
1
41
1
10
170.813708077704
20
-11.1412152070847
30
0
41
1
10
172.18962227569
20
-11.2563844210089
30
0
41
1
10
173.566137921732
20
-11.3592371403203
30
0
0
SPLINE
5
D8
100
AcDbEntity
8
1
62
256
6
ByLayer
370
18
48
1
60
0
100
AcDbSpline
70
4
71
2
72
6
73
3
40
0
40
0
40
0
40
1
40
1
40
1
41
1
10
170.813708079461
20
-11.1412151585769
30
0
41
1
10
169.736622374581
20
-11.05412969552
30
0
41
1
10
168.660326176164
20
-10.9529897605199
30
0
0
SPLINE
5
D9
100
AcDbEntity
8
1
62
256
6
ByLayer
370
18
48
1
60
0
100
AcDbSpline
70
4
71
1
72
4
73
2
40
0
40
0
40
1
40
1
41
1
10
168.660326176164
20
-10.9529897605199
30
0
41
1
10
166.165026598646
20
-10.6895370374708
30
0
0
SPLINE
5
DA
100
AcDbEntity
8
1
62
256
6
ByLayer
370
18
48
1
60
0
100
AcDbSpline
70
4
71
3
72
11
73
7
40
0
40
0
40
0
40
0
40
0.280795617290879
40
0.561366706577181
40
0.851932540841491
40
1
40
1
40
1
40
1
41
1
10
166.165026602202
20
-10.6895370348322
30
0
41
1
10
166.121374141136
20
-10.6841379165306
30
0
41
1
10
166.040367989106
20
-10.6610030636386
30
0
41
1
10
165.931770499173
20
-10.5838727523657
30
0
41
1
10
165.864434746634
20
-10.4944679324319
30
0
41
1
10
165.835481127485
20
-10.434150522485
30
0
41
1
10
165.827055418652
20
-10.4128759128538
30
0
0
SPLINE
5
DB
100
AcDbEntity
8
1
62
256
6
ByLayer
370
18
48
1
60
0
100
AcDbSpline
70
4
71
2
72
6
73
3
40
0
40
0
40
0
40
1
40
1
40
1
41
1
10
165.970370470924
20
-10.9300433807557
30
0
41
1
10
165.948417461302
20
-10.9571456151006
30
0
41
1
10
165.925392108759
20
-10.9784665646798
30
0
0
SPLINE
5
DC
100
AcDbEntity
8
1
62
256
6
ByLayer
370
18
48
1
60
0
100
AcDbSpline
70
4
71
1
72
4
73
2
40
0
40
0
40
1
40
1
41
1
10
165.925390860016
20
-10.978458190542
30
0
41
1
10
165.456102080508
20
-11.4128396598198
30
0
0
SPLINE
5
DD
100
AcDbEntity
8
1
62
256
6
ByLayer
370
18
48
1
60
0
100
AcDbSpline
70
4
71
1
72
4
73
2
40
0
40
0
40
1
40
1
41
1
10
165.45610200526
20
-11.4128397294689
30
0
41
1
10
165.331763291422
20
-11.5279273906136
30
0
0
SPLINE
5
DE
100
AcDbEntity
8
1
62
256
6
ByLayer
370
18
48
1
60
0
100
AcDbSpline
70
4
71
2
72
6
73
3
40
0
40
0
40
0
40
1
40
1
40
1
41
1
10
165.091944090009
20
-11.8391600706265
30
0
41
1
10
165.211859265153
20
-11.6845679346858
30
0
41
1
10
165.331763299954
20
-11.5279277518185
30
0
0
SPLINE
5
DF
100
AcDbEntity
8
1
62
256
6
ByLayer
370
18
48
1
60
0
100
AcDbSpline
70
4
71
3
72
13
73
9
40
0
40
0
40
0
40
0
40
0.25003398812912
40
0.49978035154602
40
0.624947548798345
40
0.750022034300028
40
0.875009758288087
40
1
40
1
40
1
40
1
41
1
10
164.669894159447
20
-11.3018348955407
30
0
41
1
10
164.673933883411
20
-11.3601738209284
30
0
41
1
10
164.697359165102
20
-11.4738380192419
30
0
41
1
10
164.762056974567
20
-11.6175418468652
30
0
41
1
10
164.840402543631
20
-11.7173573526177
30
0
41
1
10
164.913185591635
20
-11.7801637813168
30
0
41
1
10
164.999268299992
20
-11.8239367198562
30
0
41
1
10
165.060166899545
20
-11.836621374471
30
0
41
1
10
165.091944090009
20
-11.8391600706265
30
0
0
SPLINE
5
E0
100
AcDbEntity
8
1
62
256
6
ByLayer
370
18
48
1
60
0
100
AcDbSpline
70
4
71
2
72
6
73
3
40
0
40
0
40
0
40
1
40
1
40
1
41
1
10
164.669894159447
20
-11.3018348955407
30
0
41
1
10
164.904476460625
20
-11.1600968144191
30
0
41
1
10
165.078885855067
20
-11.0046014082758
30
0
0
SPLINE
5
E1
100
AcDbEntity
8
1
62
256
6
ByLayer
370
18
48
1
60
0
100
AcDbSpline
70
4
71
2
72
6
73
3
40
0
40
0
40
0
40
1
40
1
40
1
41
1
10
165.078888113076
20
-11.0046017025025
30
0
41
1
10
165.340932832903
20
-10.7212884517731
30
0
41
1
10
165.602970981285
20
-10.4379743542099
30
0
0
SPLINE
5
E2
100
AcDbEntity
8
1
62
256
6
ByLayer
370
18
48
1
60
0
100
AcDbSpline
70
4
71
2
72
6
73
3
40
0
40
0
40
0
40
1
40
1
40
1
41
1
10
166.165026598646
20
-10.6895370374708
30
0
41
1
10
166.067698154869
20
-10.8097858956463
30
0
41
1
10
165.970369811029
20
-10.9300347150378
30
0
0
SPLINE
5
E3
100
AcDbEntity
8
1
62
256
6
ByLayer
370
18
48
1
60
0
100
AcDbSpline
70
4
71
1
72
4
73
2
40
0
40
0
40
1
40
1
41
1
10
165.031084585772
20
-10.6389842504282
30
0
41
1
10
165.078885855067
20
-11.0046014082758
30
0
0
SPLINE
5
E4
100
AcDbEntity
8
1
62
256
6
ByLayer
370
18
48
1
60
0
100
AcDbSpline
70
4
71
2
72
6
73
3
40
0
40
0
40
0
40
1
40
1
40
1
41
1
10
167.489638402232
20
-11.1313377451035
30
0
41
1
10
168.013752002972
20
-11.1623507561397
30
0
41
1
10
168.533395819271
20
-11.2063411163258
30
0
0
SPLINE
5
E5
100
AcDbEntity
8
1
62
256
6
ByLayer
370
18
48
1
60
0
100
AcDbSpline
70
4
71
2
72
6
73
3
40
0
40
0
40
0
40
1
40
1
40
1
41
1
10
165.9703693975
20
-10.9300345765681
30
0
41
1
10
166.727343681699
20
-11.0380975514675
30
0
41
1
10
167.489638397435
20
-11.1313377399516
30
0
0
SPLINE
5
E6
100
AcDbEntity
8
1
62
256
6
ByLayer
370
18
48
1
60
0
100
AcDbSpline
70
4
71
2
72
6
73
3
40
0
40
0
40
0
40
1
40
1
40
1
41
1
10
168.533396064832
20
-11.2063519108483
30
0
41
1
10
168.596826602498
20
-11.0790801718164
30
0
41
1
10
168.660326176164
20
-10.9529897605199
30
0
0
SPLINE
5
E7
100
AcDbEntity
8
1
62
256
6
ByLayer
370
18
48
1
60
0
100
AcDbSpline
70
4
71
2
72
6
73
3
40
0
40
0
40
0
40
1
40
1
40
1
41
1
10
167.489638402201
20
-11.1313377451554
30
0
41
1
10
166.709818271972
20
-11.0512791920199
30
0
41
1
10
165.925391488286
20
-10.9784582484516
30
0
0
SPLINE
5
E8
100
AcDbEntity
8
1
62
256
6
ByLayer
370
18
48
1
60
0
100
AcDbSpline
70
4
71
1
72
4
73
2
40
0
40
0
40
1
40
1
41
1
10
168.493372665742
20
-11.2918087904535
30
0
41
1
10
167.489638402232
20
-11.1313377451583
30
0
0
SPLINE
5
E9
100
AcDbEntity
8
1
62
256
6
ByLayer
370
18
48
1
60
0
100
AcDbSpline
70
4
71
1
72
4
73
2
40
0
40
0
40
1
40
1
41
1
10
168.298265090913
20
-11.7341339585477
30
0
41
1
10
168.493372953118
20
-11.2918088187572
30
0
0
SPLINE
5
EA
100
AcDbEntity
8
1
62
256
6
ByLayer
370
18
48
1
60
0
100
AcDbSpline
70
4
71
1
72
4
73
2
40
0
40
0
40
1
40
1
41
1
10
168.298265090524
20
-11.7341339594314
30
0
41
1
10
168.265431522883
20
-11.8085708583918
30
0
0
SPLINE
5
EB
100
AcDbEntity
8
1
62
256
6
ByLayer
370
18
48
1
60
0
100
AcDbSpline
70
4
71
3
72
10
73
6
40
0
40
0
40
0
40
0
40
0.333360126388571
40
0.666651491311566
40
1
40
1
40
1
40
1
41
1
10
165.331763874494
20
-11.5279274339923
30
0
41
1
10
165.665242732027
20
-11.5464106134494
30
0
41
1
10
166.327138732136
20
-11.5918775491191
30
0
41
1
10
167.305029298904
20
-11.6885188897596
30
0
41
1
10
167.946943597101
20
-11.7660457579769
30
0
41
1
10
168.265431452118
20
-11.8085766564966
30
0
0
SPLINE
5
EC
100
AcDbEntity
8
1
62
256
6
ByLayer
370
18
48
1
60
0
100
AcDbSpline
70
4
71
2
72
6
73
3
40
0
40
0
40
0
40
1
40
1
40
1
41
1
10
170.407446406435
20
-11.8880490087772
30
0
41
1
10
170.406457889597
20
-11.8897605666277
30
0
41
1
10
170.405469164956
20
-11.8914679534451
30
0
0
SPLINE
5
ED
100
AcDbEntity
8
1
62
256
6
ByLayer
370
18
48
1
60
0
100
AcDbSpline
70
4
71
2
72
6
73
3
40
0
40
0
40
0
40
1
40
1
40
1
41
1
10
170.405469164956
20
-11.8914679534451
30
0
41
1
10
170.380662550783
20
-11.9342536775204
30
0
41
1
10
170.355745356968
20
-11.9747024342099
30
0
0
SPLINE
5
EE
100
AcDbEntity
8
1
62
256
6
ByLayer
370
18
48
1
60
0
100
AcDbSpline
70
4
71
2
72
6
73
3
40
0
40
0
40
0
40
1
40
1
40
1
41
1
10
168.265431452118
20
-11.8085766564966
30
0
41
1
10
169.308802010565
20
-11.9225975706673
30
0
41
1
10
170.355744080812
20
-11.9746555028897
30
0
0
SPLINE
5
EF
100
AcDbEntity
8
1
62
256
6
ByLayer
370
18
48
1
60
0
100
AcDbSpline
70
4
71
2
72
6
73
3
40
0
40
0
40
0
40
1
40
1
40
1
41
1
10
168.493373320596
20
-11.2918191394347
30
0
41
1
10
168.513233501017
20
-11.2467549560638
30
0
41
1
10
168.533396060738
20
-11.206351906106
30
0
0
SPLINE
5
F0
100
AcDbEntity
8
1
62
256
6
ByLayer
370
18
48
1
60
0
100
AcDbSpline
70
4
71
2
72
6
73
3
40
0
40
0
40
0
40
1
40
1
40
1
41
1
10
170.813708077704
20
-11.1412152070847
30
0
41
1
10
170.609776904282
20
-11.5000255017699
30
0
41
1
10
170.407446406435
20
-11.8880490087772
30
0
0
SPLINE
5
F1
100
AcDbEntity
8
1
62
256
6
ByLayer
370
18
48
1
60
0
100
AcDbSpline
70
4
71
2
72
6
73
3
40
0
40
0
40
0
40
1
40
1
40
1
41
1
10
173.566229741244
20
-11.3593939182988
30
0
41
1
10
173.777097558563
20
-11.7194263041025
30
0
41
1
10
173.987965375883
20
-12.0794586899063
30
0
0
SPLINE
5
F2
100
AcDbEntity
8
1
62
256
6
ByLayer
370
18
48
1
60
0
100
AcDbSpline
70
4
71
2
72
6
73
3
40
0
40
0
40
0
40
1
40
1
40
1
41
1
10
174.044928374841
20
-12.1767164159929
30
0
41
1
10
174.016446875362
20
-12.1280875529496
30
0
41
1
10
173.987965375883
20
-12.0794586899063
30
0
0
SPLINE
5
F3
100
AcDbEntity
8
1
62
256
6
ByLayer
370
18
48
1
60
0
100
AcDbSpline
70
4
71
3
72
12
73
8
40
0
40
0
40
0
40
0
40
0.13792148098124
40
0.388983866332538
40
0.639393075832212
40
0.88216038552285
40
1
40
1
40
1
40
1
41
1
10
170.355744080812
20
-11.9746555028898
30
0
41
1
10
170.524499864688
20
-11.987556927144
30
0
41
1
10
171.000337868096
20
-12.0226726323279
30
0
41
1
10
171.783479389413
20
-12.0733083510796
30
0
41
1
10
172.690827492027
20
-12.1261882863227
30
0
41
1
10
173.440286618076
20
-12.1616154659824
30
0
41
1
10
173.895331677721
20
-12.1735446659789
30
0
41
1
10
174.044928519042
20
-12.1767217699886
30
0
0
SPLINE
5
F4
100
AcDbEntity
8
1
62
256
6
ByLayer
370
18
48
1
60
0
100
AcDbSpline
70
4
71
3
72
13
73
9
40
0
40
0
40
0
40
0
40
0.125204375216589
40
0.250404768067122
40
0.37562273982746
40
0.500864898949469
40
0.750359531121835
40
1
40
1
40
1
40
1
41
1
10
174.044928349665
20
-12.1767163730091
30
0
41
1
10
174.100457244262
20
-12.1778556400285
30
0
41
1
10
174.208545153451
20
-12.1685226141119
30
0
41
1
10
174.365160688987
20
-12.1186885902743
30
0
41
1
10
174.506121849596
20
-12.0360059185232
30
0
41
1
10
174.666795131096
20
-11.890000722724
30
0
41
1
10
174.809738714188
20
-11.6491544525524
30
0
41
1
10
174.849154874019
20
-11.4363360414943
30
0
41
1
10
174.851261141294
20
-11.3213196512785
30
0
0
SPLINE
5
F5
100
AcDbEntity
8
1
62
256
6
ByLayer
370
18
48
1
60
0
100
AcDbSpline
70
4
71
1
72
4
73
2
40
0
40
0
40
1
40
1
41
1
10
174.387059168808
20
-10.4959439113869
30
0
41
1
10
174.851262953271
20
-11.3213225452751
30
0
0
SPLINE
5
F6
100
AcDbEntity
8
1
62
256
6
ByLayer
370
18
48
1
60
0
100
AcDbSpline
70
4
71
1
72
4
73
2
40
0
40
0
40
1
40
1
41
1
10
164.658272861932
20
-11.1714008840358
30
0
41
1
10
164.661231871709
20
-11.2026281991843
30
0
0
SPLINE
5
F7
100
AcDbEntity
8
1
62
256
6
ByLayer
370
18
48
1
60
0
100
AcDbSpline
70
4
71
1
72
4
73
2
40
0
40
0
40
1
40
1
41
1
10
164.661231871709
20
-11.2026281991843
30
0
41
1
10
164.669894159447
20
-11.3018348955407
30
0
0
SPLINE
5
F8
100
AcDbEntity
8
1
62
256
6
ByLayer
370
18
48
1
60
0
100
AcDbSpline
70
4
71
3
72
14
73
10
40
0
40
0
40
0
40
0
40
0.20751669186489
40
0.415049744637048
40
0.619818188253782
40
0.72480383921103
40
0.830185651647477
40
0.915101064545175
40
1
40
1
40
1
40
1
41
1
10
165.091944090009
20
-11.8391600706265
30
0
41
1
10
165.743817607022
20
-11.8874546197535
30
0
41
1
10
167.033803847876
20
-11.9830843399526
30
0
41
1
10
168.896816180775
20
-12.1497892946308
30
0
41
1
10
170.454162209879
20
-12.2421430169092
30
0
41
1
10
171.706972995646
20
-12.2931338205123
30
0
41
1
10
172.593217079856
20
-12.3191890622232
30
0
41
1
10
173.425131848608
20
-12.3319200336954
30
0
41
1
10
173.954250096968
20
-12.3332633961663
30
0
41
1
10
174.221684881572
20
-12.3323198272113
30
0
0
SPLINE
5
F9
100
AcDbEntity
8
1
62
256
6
ByLayer
370
18
48
1
60
0
100
AcDbSpline
70
4
71
1
72
4
73
2
40
0
40
0
40
1
40
1
41
1
10
174.851264859905
20
-11.3213229303232
30
0
41
1
10
174.845961312339
20
-10.2950598821293
30
0
0
SPLINE
5
FA
100
AcDbEntity
8
1
62
256
6
ByLayer
370
18
48
1
60
0
100
AcDbSpline
70
4
71
1
72
4
73
2
40
0
40
0
40
1
40
1
41
1
10
174.845958775248
20
-10.2950600002063
30
0
41
1
10
174.927123852045
20
-10.3645930835251
30
0
0
SPLINE
5
FB
100
AcDbEntity
8
1
62
256
6
ByLayer
370
18
48
1
60
0
100
AcDbSpline
70
4
71
1
72
4
73
2
40
0
40
0
40
1
40
1
41
1
10
174.927123852045
20
-10.3645930835251
30
0
41
1
10
174.933166482129
20
-11.4669513082576
30
0
0
SPLINE
5
FC
100
AcDbEntity
8
1
62
256
6
ByLayer
370
18
48
1
60
0
100
AcDbSpline
70
4
71
3
72
13
73
9
40
0
40
0
40
0
40
0
40
0.249923686586834
40
0.499568869758957
40
0.624747868995325
40
0.749864607650609
40
0.874930508146404
40
1
40
1
40
1
40
1
41
1
10
174.933166482129
20
-11.4669513082576
30
0
41
1
10
174.931974662003
20
-11.574566839376
30
0
41
1
10
174.89957707413
20
-11.7775086094305
30
0
41
1
10
174.785030291415
20
-12.0163873846738
30
0
41
1
10
174.647116613396
20
-12.1706506532228
30
0
41
1
10
174.521229378436
20
-12.261830039863
30
0
41
1
10
174.376033508514
20
-12.319629606391
30
0
41
1
10
174.274391281804
20
-12.3322220695562
30
0
41
1
10
174.22168538708
20
-12.3323432557998
30
0
0
SPLINE
5
FD
100
AcDbEntity
8
1
62
256
6
ByLayer
370
18
48
1
60
0
100
AcDbSpline
70
4
71
2
72
6
73
3
40
0
40
0
40
0
40
1
40
1
40
1
41
1
10
174.387059168808
20
-9.90191131489013
30
0
41
1
10
174.616511509247
20
-10.0984855350028
30
0
41
1
10
174.845958775176
20
-10.2950599946531
30
0
0
SPLINE
5
FE
100
AcDbEntity
8
1
62
256
6
ByLayer
370
18
48
1
60
0
100
AcDbSpline
70
4
71
2
72
6
73
3
40
0
40
0
40
0
40
1
40
1
40
1
41
1
10
174.306701591507
20
-8.94157586247728
30
0
41
1
10
174.362376106731
20
-9.00721613881334
30
0
41
1
10
174.479190129301
20
-9.07124694591486
30
0
0
SPLINE
5
FF
100
AcDbEntity
8
1
62
256
6
ByLayer
370
18
48
1
60
0
100
AcDbSpline
70
4
71
2
72
6
73
3
40
0
40
0
40
0
40
1
40
1
40
1
41
1
10
174.479190294989
20
-9.07124688097395
30
0
41
1
10
174.486883277633
20
-9.09562518209801
30
0
41
1
10
174.494823062815
20
-9.11992935514711
30
0
0
SPLINE
5
100
100
AcDbEntity
8
1
62
256
6
ByLayer
370
18
48
1
60
0
100
AcDbSpline
70
4
71
3
72
10
73
6
40
0
40
0
40
0
40
0
40
0.56037269331476
40
0.780523137395091
40
1
40
1
40
1
40
1
41
1
10
174.494823062815
20
-9.11992935514712
30
0
41
1
10
174.590089836851
20
-9.34788047681034
30
0
41
1
10
174.710277581204
20
-9.66922783522523
30
0
41
1
10
174.878967350266
20
-10.0783967312287
30
0
41
1
10
174.915098637866
20
-10.2682248987988
30
0
41
1
10
174.927123852045
20
-10.3645930835251
30
0
0
SPLINE
5
101
100
AcDbEntity
8
1
62
256
6
ByLayer
370
18
48
1
60
0
100
AcDbSpline
70
4
71
1
72
4
73
2
40
0
40
0
40
1
40
1
41
1
10
164.428772490592
20
-11.4712873826089
30
0
41
1
10
164.669894159447
20
-11.3018348955407
30
0
0
SPLINE
5
102
100
AcDbEntity
8
1
62
256
6
ByLayer
370
18
48
1
60
0
100
AcDbSpline
70
4
71
1
72
4
73
2
40
0
40
0
40
1
40
1
41
1
10
164.914356063099
20
-12.0023899892368
30
0
41
1
10
165.091944090009
20
-11.8391600706265
30
0
0
SPLINE
5
103
100
AcDbEntity
8
1
62
256
6
ByLayer
370
18
48
1
60
0
100
AcDbSpline
70
4
71
3
72
12
73
8
40
0
40
0
40
0
40
0
40
0.185953919231307
40
0.371830973717329
40
0.563653871569587
40
0.781291837778863
40
1
40
1
40
1
40
1
41
1
10
164.914356063099
20
-12.0023899892368
30
0
41
1
10
164.864096604449
20
-11.9982840019357
30
0
41
1
10
164.769447421603
20
-11.9763532414756
30
0
41
1
10
164.637950922515
20
-11.8960971860659
30
0
41
1
10
164.530420517551
20
-11.7783480490405
30
0
41
1
10
164.455079042855
20
-11.6308689029686
30
0
41
1
10
164.432645547549
20
-11.5258172529692
30
0
41
1
10
164.428772490635
20
-11.4712873825785
30
0
0
SPLINE
5
104
100
AcDbEntity
8
1
62
256
6
ByLayer
370
18
48
1
60
0
100
AcDbSpline
70
4
71
1
72
4
73
2
40
0
40
0
40
1
40
1
41
1
10
174.22168538708
20
-12.3323432557998
30
0
41
1
10
174.208973458678
20
-12.407768268778
30
0
0
SPLINE
5
105
100
AcDbEntity
8
1
62
256
6
ByLayer
370
18
48
1
60
0
100
AcDbSpline
70
4
71
3
72
13
73
9
40
0
40
0
40
0
40
0
40
0.0630849048525943
40
0.126139898226452
40
0.253293158693383
40
0.625856998567361
40
0.812876301947143
40
1
40
1
40
1
40
1
41
1
10
174.208973458678
20
-12.407768268778
30
0
41
1
10
174.007441192201
20
-12.4095980490827
30
0
41
1
10
173.60757885759
20
-12.4120211398477
30
0
41
1
10
172.816893252056
20
-12.4128474507092
30
0
41
1
10
171.103410203693
20
-12.3918843888216
30
0
41
1
10
169.002263361979
20
-12.2953377916786
30
0
41
1
10
166.690900972626
20
-12.1286931522666
30
0
41
1
10
165.509709801496
20
-12.0456005755076
30
0
41
1
10
164.914356108453
20
-12.0023881599612
30
0
0
SPLINE
5
106
100
AcDbEntity
8
1
62
256
6
ByLayer
370
18
48
1
60
0
100
AcDbSpline
70
4
71
1
72
4
73
2
40
0
40
0
40
1
40
1
41
1
10
174.306701591507
20
-8.94157586247728
30
0
41
1
10
174.28609124592
20
-8.46183864268338
30
0
0
SPLINE
5
107
100
AcDbEntity
8
1
62
256
6
ByLayer
370
18
48
1
60
0
100
AcDbSpline
70
4
71
1
72
4
73
2
40
0
40
0
40
1
40
1
41
1
10
164.42877110636
20
-11.4712873633432
30
0
41
1
10
164.407143854241
20
-11.2076576018486
30
0
0
SPLINE
5
108
100
AcDbEntity
8
1
62
256
6
ByLayer
370
18
48
1
60
0
100
AcDbSpline
70
4
71
2
72
6
73
3
40
0
40
0
40
0
40
1
40
1
40
1
41
1
10
174.336206652194
20
-6.31368762366254
30
0
41
1
10
174.346603154619
20
-6.16136298943001
30
0
41
1
10
174.292734800793
20
-6.01910386794366
30
0
0
SPLINE
5
109
100
AcDbEntity
8
1
62
256
6
ByLayer
370
18
48
1
60
0
100
AcDbSpline
70
4
71
1
72
4
73
2
40
0
40
0
40
1
40
1
41
1
10
174.286682486067
20
-6.34595381246801
30
0
41
1
10
174.336206652194
20
-6.31368762366254
30
0
0
SPLINE
5
10A
100
AcDbEntity
8
1
62
256
6
ByLayer
370
18
48
1
60
0
100
AcDbSpline
70
4
71
3
72
10
73
6
40
0
40
0
40
0
40
0
40
0.364256557675769
40
0.728280375586224
40
1
40
1
40
1
40
1
41
1
10
174.479190129301
20
-9.07124694591486
30
0
41
1
10
174.443182854613
20
-8.9579747652817
30
0
41
1
10
174.38012214099
20
-8.72939221374901
30
0
41
1
10
174.316416524375
20
-8.40830197979603
30
0
41
1
10
174.291338085401
20
-8.20254302793914
30
0
41
1
10
174.283255550816
20
-8.11414495724078
30
0
0
SPLINE
5
10B
100
AcDbEntity
8
1
62
256
6
ByLayer
370
18
48
1
60
0
100
AcDbSpline
70
4
71
2
72
6
73
3
40
0
40
0
40
0
40
1
40
1
40
1
41
1
10
174.284772676102
20
-7.04632172844353
30
0
41
1
10
174.307152307638
20
-6.68567818429929
30
0
41
1
10
174.336206652194
20
-6.31368762366254
30
0
0
SPLINE
5
10C
100
AcDbEntity
8
1
62
256
6
ByLayer
370
18
48
1
60
0
100
AcDbSpline
70
4
71
1
72
4
73
2
40
0
40
0
40
1
40
1
41
1
10
174.423446357113
20
-6.24801771372911
30
0
41
1
10
174.336206652194
20
-6.31368762366254
30
0
0
SPLINE
5
10D
100
AcDbEntity
8
1
62
256
6
ByLayer
370
18
48
1
60
0
100
AcDbSpline
70
4
71
3
72
10
73
6
40
0
40
0
40
0
40
0
40
0.218597748582248
40
0.608516918404046
40
1
40
1
40
1
40
1
41
1
10
174.28999967275
20
-5.83791176732378
30
0
41
1
10
174.311082147878
20
-5.86264957471587
30
0
41
1
10
174.362867527419
20
-5.93475774011937
30
0
41
1
10
174.416992917918
20
-6.07532409931293
30
0
41
1
10
174.426661936132
20
-6.18874431250538
30
0
41
1
10
174.423446246397
20
-6.24801779808474
30
0
0
SPLINE
5
10E
100
AcDbEntity
8
1
62
256
6
ByLayer
370
18
48
1
60
0
100
AcDbSpline
70
4
71
1
72
4
73
2
40
0
40
0
40
1
40
1
41
1
10
174.933166482129
20
-11.4669513082576
30
0
41
1
10
174.995646779543
20
-11.5403294217596
30
0
0
SPLINE
5
10F
100
AcDbEntity
8
1
62
256
6
ByLayer
370
18
48
1
60
0
100
AcDbSpline
70
4
71
3
72
12
73
8
40
0
40
0
40
0
40
0
40
0.257670548960191
40
0.468377378491821
40
0.679044720779855
40
0.890449759660642
40
1
40
1
40
1
40
1
41
1
10
174.995646779543
20
-11.5403294217596
30
0
41
1
10
175.001199636376
20
-11.6604539327093
30
0
41
1
10
174.973180975865
20
-11.8623849203547
30
0
41
1
10
174.825976511681
20
-12.1272521641146
30
0
41
1
10
174.616051442043
20
-12.3091008316867
30
0
41
1
10
174.395930656304
20
-12.3936259982957
30
0
41
1
10
174.257529516642
20
-12.4072110898964
30
0
41
1
10
174.208973458678
20
-12.407768268778
30
0
0
SPLINE
5
110
100
AcDbEntity
8
1
62
256
6
ByLayer
370
18
48
1
60
0
100
AcDbSpline
70
4
71
1
72
4
73
2
40
0
40
0
40
1
40
1
41
1
10
174.551396686576
20
-9.13413632467965
30
0
41
1
10
174.494823109906
20
-9.11992936697265
30
0
0
SPLINE
5
111
100
AcDbEntity
8
1
62
256
6
ByLayer
370
18
48
1
60
0
100
AcDbSpline
70
4
71
3
72
13
73
9
40
0
40
0
40
0
40
0
40
0.177797687828087
40
0.357704096241005
40
0.547993449169159
40
0.743316762755634
40
0.871513472777818
40
1
40
1
40
1
40
1
41
1
10
174.423447609159
20
-6.24801782340815
30
0
41
1
10
174.410830041869
20
-6.42224872632329
30
0
41
1
10
174.386696844869
20
-6.76897645660071
30
0
41
1
10
174.345344073758
20
-7.28216065330386
30
0
41
1
10
174.3242841167
20
-7.81258298517415
30
0
41
1
10
174.357146035254
20
-8.32438588294641
30
0
41
1
10
174.442576641837
20
-8.7677008901171
30
0
41
1
10
174.511416161798
20
-9.01281189980214
30
0
41
1
10
174.551396686576
20
-9.13413632467965
30
0
0
SPLINE
5
112
100
AcDbEntity
8
1
62
256
6
ByLayer
370
18
48
1
60
0
100
AcDbSpline
70
4
71
1
72
4
73
2
40
0
40
0
40
1
40
1
41
1
10
174.993045808796
20
-10.4237504992851
30
0
41
1
10
174.927123852045
20
-10.3645930835251
30
0
0
SPLINE
5
113
100
AcDbEntity
8
1
62
256
6
ByLayer
370
18
48
1
60
0
100
AcDbSpline
70
4
71
3
72
10
73
6
40
0
40
0
40
0
40
0
40
0.276050913724157
40
0.561499284837048
40
1
40
1
40
1
40
1
41
1
10
174.995647169913
20
-11.540329453391
30
0
41
1
10
174.997467463667
20
-11.437654510455
30
0
41
1
10
175.000012713171
20
-11.2287681368473
30
0
41
1
10
175.000339994457
20
-10.8565658837751
30
0
41
1
10
174.996688224155
20
-10.5870403842752
30
0
41
1
10
174.993045808796
20
-10.4237504992851
30
0
0
SPLINE
5
114
100
AcDbEntity
8
1
62
256
6
ByLayer
370
18
48
1
60
0
100
AcDbSpline
70
4
71
3
72
10
73
6
40
0
40
0
40
0
40
0
40
0.213195560902851
40
0.606543736281698
40
1
40
1
40
1
40
1
41
1
10
174.993045808796
20
-10.4237504992851
30
0
41
1
10
174.980154377402
20
-10.3271378036832
30
0
41
1
10
174.931387107017
20
-10.0555170789183
30
0
41
1
10
174.73766313039
20
-9.63791009336024
30
0
41
1
10
174.616449067315
20
-9.30126049559752
30
0
41
1
10
174.551396686576
20
-9.13413632467965
30
0
0
SPLINE
5
115
100
AcDbEntity
8
1
62
256
6
ByLayer
370
18
48
1
60
0
100
AcDbSpline
70
4
71
3
72
17
73
13
40
0
40
0
40
0
40
0
40
0.105919182402697
40
0.211837752784286
40
0.317756155891381
40
0.423674452174799
40
0.529603395425174
40
0.635532246265267
40
0.74142121421149
40
0.847310060608473
40
0.953223252187174
40
1
40
1
40
1
40
1
41
1
10
171.347003763338
20
8.94597331954049
30
0
41
1
10
171.346741743596
20
8.83326800390037
30
0
41
1
10
171.328067289481
20
8.61095910744604
30
0
41
1
10
171.245253712728
20
8.28227998852931
30
0
41
1
10
171.108691561102
20
7.97194386564517
30
0
41
1
10
170.924084621339
20
7.68688532378247
30
0
41
1
10
170.694831853071
20
7.43669378574608
30
0
41
1
10
170.429148136028
20
7.22687722459658
30
0
41
1
10
170.133169523646
20
7.06523848447735
30
0
41
1
10
169.816508693259
20
6.95424961122926
30
0
41
1
10
169.548112441071
20
6.90961657449327
30
0
41
1
10
169.389331134914
20
6.90225767818113
30
0
41
1
10
169.340497628125
20
6.90180379275213
30
0
0
SPLINE
5
116
100
AcDbEntity
8
1
62
256
6
ByLayer
370
18
48
1
60
0
100
AcDbSpline
70
4
71
1
72
4
73
2
40
0
40
0
40
1
40
1
41
1
10
163.497896879879
20
7.0449891405657
30
0
41
1
10
163.504544771357
20
7.53473397084385
30
0
0
SPLINE
5
117
100
AcDbEntity
8
1
62
256
6
ByLayer
370
18
48
1
60
0
100
AcDbSpline
70
4
71
3
72
10
73
6
40
0
40
0
40
0
40
0
40
0.213208498211603
40
0.606550632732195
40
1
40
1
40
1
40
1
41
1
10
163.504544771357
20
7.53473397084385
30
0
41
1
10
163.517638600152
20
7.63121784291002
30
0
41
1
10
163.566947921118
20
7.90247917488962
30
0
41
1
10
163.761578500189
20
8.31947020178755
30
0
41
1
10
163.883083029888
20
8.65591254983103
30
0
41
1
10
163.948211271218
20
8.82297859803812
30
0
0
SPLINE
5
118
100
AcDbEntity
8
1
62
256
6
ByLayer
370
18
48
1
60
0
100
AcDbSpline
70
4
71
3
72
13
73
9
40
0
40
0
40
0
40
0
40
0.172591138089511
40
0.34568900063157
40
0.530036611257708
40
0.71818236359349
40
0.858856692619823
40
1
40
1
40
1
40
1
41
1
10
164.42877110636
20
11.4712873633432
30
0
41
1
10
164.417709539244
20
11.3173499114476
30
0
41
1
10
164.389723282273
20
11.0163127629045
30
0
41
1
10
164.328999747566
20
10.5884791983434
30
0
41
1
10
164.247237241284
20
10.1477876514428
30
0
41
1
10
164.155979800531
20
9.68458116841057
30
0
41
1
10
164.064574301801
20
9.22702563433876
30
0
41
1
10
163.989522294805
20
8.95815061191627
30
0
41
1
10
163.948211271218
20
8.82297859803812
30
0
0
SPLINE
5
119
100
AcDbEntity
8
1
62
256
6
ByLayer
370
18
48
1
60
0
100
AcDbSpline
70
4
71
3
72
12
73
8
40
0
40
0
40
0
40
0
40
0.185953919231307
40
0.37183097371733
40
0.563653871569587
40
0.781291837778863
40
1
40
1
40
1
40
1
41
1
10
164.914356063099
20
12.0023899892368
30
0
41
1
10
164.864096604449
20
11.9982840019357
30
0
41
1
10
164.769447421603
20
11.9763532414756
30
0
41
1
10
164.637950922515
20
11.8960971860659
30
0
41
1
10
164.530420517551
20
11.7783480490405
30
0
41
1
10
164.455079042855
20
11.6308689029686
30
0
41
1
10
164.432645547549
20
11.5258172529693
30
0
41
1
10
164.428772490635
20
11.4712873825785
30
0
0
SPLINE
5
11A
100
AcDbEntity
8
1
62
256
6
ByLayer
370
18
48
1
60
0
100
AcDbSpline
70
4
71
3
72
13
73
9
40
0
40
0
40
0
40
0
40
0.0630849048525965
40
0.12613989822646
40
0.253293158693383
40
0.625856998567364
40
0.81287630194715
40
1
40
1
40
1
40
1
41
1
10
174.208973458678
20
12.407768268778
30
0
41
1
10
174.007441192201
20
12.4095980490827
30
0
41
1
10
173.60757885759
20
12.4120211398477
30
0
41
1
10
172.816893252056
20
12.4128474507092
30
0
41
1
10
171.103410203693
20
12.3918843888216
30
0
41
1
10
169.002263361979
20
12.2953377916786
30
0
41
1
10
166.690900972625
20
12.1286931522667
30
0
41
1
10
165.509709801496
20
12.0456005755077
30
0
41
1
10
164.914356108453
20
12.0023881599612
30
0
0
SPLINE
5
11B
100
AcDbEntity
8
1
62
256
6
ByLayer
370
18
48
1
60
0
100
AcDbSpline
70
4
71
3
72
12
73
8
40
0
40
0
40
0
40
0
40
0.257670548960191
40
0.468377378491821
40
0.679044720779855
40
0.890449759660643
40
1
40
1
40
1
40
1
41
1
10
174.995646779543
20
11.5403294217596
30
0
41
1
10
175.001199636376
20
11.6604539327093
30
0
41
1
10
174.973180975865
20
11.8623849203547
30
0
41
1
10
174.825976511681
20
12.1272521641146
30
0
41
1
10
174.616051442043
20
12.3091008316867
30
0
41
1
10
174.395930656304
20
12.3936259982957
30
0
41
1
10
174.257529516642
20
12.4072110898964
30
0
41
1
10
174.208973458678
20
12.407768268778
30
0
0
SPLINE
5
11C
100
AcDbEntity
8
1
62
256
6
ByLayer
370
18
48
1
60
0
100
AcDbSpline
70
4
71
3
72
10
73
6
40
0
40
0
40
0
40
0
40
0.276050913724157
40
0.561499284837048
40
1
40
1
40
1
40
1
41
1
10
174.995647169913
20
11.540329453391
30
0
41
1
10
174.997467463667
20
11.437654510455
30
0
41
1
10
175.000012713171
20
11.2287681368473
30
0
41
1
10
175.000339994457
20
10.8565658837751
30
0
41
1
10
174.996688224155
20
10.5870403842752
30
0
41
1
10
174.993045808796
20
10.4237504992851
30
0
0
SPLINE
5
11D
100
AcDbEntity
8
1
62
256
6
ByLayer
370
18
48
1
60
0
100
AcDbSpline
70
4
71
3
72
10
73
6
40
0
40
0
40
0
40
0
40
0.213195560902851
40
0.606543736281698
40
1
40
1
40
1
40
1
41
1
10
174.993045808796
20
10.4237504992851
30
0
41
1
10
174.980154377402
20
10.3271378036832
30
0
41
1
10
174.931387107017
20
10.0555170789183
30
0
41
1
10
174.73766313039
20
9.63791009336024
30
0
41
1
10
174.616449067315
20
9.30126049559752
30
0
41
1
10
174.551396686576
20
9.13413632467965
30
0
0
SPLINE
5
11E
100
AcDbEntity
8
1
62
256
6
ByLayer
370
18
48
1
60
0
100
AcDbSpline
70
4
71
3
72
13
73
9
40
0
40
0
40
0
40
0
40
0.177797687828083
40
0.357704096241005
40
0.547993449169145
40
0.743316762755633
40
0.871513472777816
40
1
40
1
40
1
40
1
41
1
10
174.423447609159
20
6.24801782340815
30
0
41
1
10
174.410830041869
20
6.42224872632328
30
0
41
1
10
174.386696844869
20
6.76897645660071
30
0
41
1
10
174.345344073758
20
7.28216065330384
30
0
41
1
10
174.3242841167
20
7.81258298517413
30
0
41
1
10
174.357146035254
20
8.32438588294639
30
0
41
1
10
174.442576641837
20
8.76770089011712
30
0
41
1
10
174.511416161798
20
9.01281189980215
30
0
41
1
10
174.551396686576
20
9.13413632467965
30
0
0
SPLINE
5
11F
100
AcDbEntity
8
1
62
256
6
ByLayer
370
18
48
1
60
0
100
AcDbSpline
70
4
71
3
72
10
73
6
40
0
40
0
40
0
40
0
40
0.218597748582195
40
0.608516918404018
40
1
40
1
40
1
40
1
41
1
10
174.28999967275
20
5.8379117673238
30
0
41
1
10
174.311082147878
20
5.86264957471588
30
0
41
1
10
174.362867527419
20
5.93475774011939
30
0
41
1
10
174.416992917918
20
6.07532409931293
30
0
41
1
10
174.426661936132
20
6.18874431250538
30
0
41
1
10
174.423446246397
20
6.24801779808474
30
0
0
SPLINE
5
120
100
AcDbEntity
8
1
62
256
6
ByLayer
370
18
48
1
60
0
100
AcDbSpline
70
4
71
2
72
6
73
3
40
0
40
0
40
0
40
1
40
1
40
1
41
1
10
171.209205207642
20
9.67272878407149
30
0
41
1
10
171.346242171317
20
9.32527026998844
30
0
41
1
10
171.347003763338
20
8.94597331954049
30
0
0
SPLINE
5
121
100
AcDbEntity
8
1
62
256
6
ByLayer
370
18
48
1
60
0
100
AcDbSpline
70
4
71
3
72
34
73
30
40
0
40
0
40
0
40
0
40
0.0218711849420575
40
0.0609746489236366
40
0.100078088485884
40
0.139182616560583
40
0.178287169821965
40
0.217394592061455
40
0.256502046258675
40
0.295605535268437
40
0.334709114964451
40
0.37381780860677
40
0.412926473840328
40
0.452024478025778
40
0.49112256179589
40
0.530228973634174
40
0.569335403079479
40
0.608443604233641
40
0.647551791929975
40
0.686649995654107
40
0.725748045016058
40
0.764856213086599
40
0.803964417966549
40
0.843071132987644
40
0.882177821594678
40
0.921278587193636
40
0.960379234515599
40
0.999485701068052
40
1
40
1
40
1
40
1
41
1
10
169.340497628125
20
6.90180379275213
30
0
41
1
10
169.278579938703
20
6.90136540367365
30
0
41
1
10
169.107272141696
20
6.90826611506552
30
0
41
1
10
168.829154176545
20
6.95765986604181
30
0
41
1
10
168.519101131428
20
7.06933425756276
30
0
41
1
10
168.233949361791
20
7.23368020142332
30
0
41
1
10
167.980776942436
20
7.44404405213041
30
0
41
1
10
167.768231372461
20
7.69625894953354
30
0
41
1
10
167.600608468009
20
7.98161790214245
30
0
41
1
10
167.484653989743
20
8.29323503597082
30
0
41
1
10
167.421475264551
20
8.62140495360015
30
0
41
1
10
167.415124818406
20
8.95733302082543
30
0
41
1
10
167.463539253974
20
9.2913153491187
30
0
41
1
10
167.567595694352
20
9.61357762285895
30
0
41
1
10
167.722112451817
20
9.91568014522103
30
0
41
1
10
167.924752802025
20
10.1880557697891
30
0
41
1
10
168.16796393036
20
10.4243234272052
30
0
41
1
10
168.446398914922
20
10.6160933638848
30
0
41
1
10
168.750902783929
20
10.7597803109308
30
0
41
1
10
169.073686530267
20
10.8492605534665
30
0
41
1
10
169.405074152858
20
10.8842522668656
30
0
41
1
10
169.735882010273
20
10.8613973527406
30
0
41
1
10
170.05692575464
20
10.7836965874984
30
0
41
1
10
170.358386398083
20
10.6510555845009
30
0
41
1
10
170.632976877492
20
10.4695033839626
30
0
41
1
10
170.87044810148
20
10.2417583033611
30
0
41
1
10
171.069957719506
20
9.97792509066093
30
0
41
1
10
171.162615273243
20
9.77585760329671
30
0
41
1
10
171.208609116893
20
9.67405083376878
30
0
41
1
10
171.209205207642
20
9.67272878407149
30
0
0
SPLINE
5
122
100
AcDbEntity
8
1
62
256
6
ByLayer
370
18
48
1
60
0
100
AcDbSpline
70
4
71
1
72
4
73
2
40
0
40
0
40
1
40
1
41
1
10
171.314313000835
20
8.79666104477014
30
0
41
1
10
171.31211780831
20
8.88445440526958
30
0
0
SPLINE
5
123
100
AcDbEntity
8
1
62
256
6
ByLayer
370
18
48
1
60
0
100
AcDbSpline
70
4
71
1
72
4
73
2
40
0
40
0
40
1
40
1
41
1
10
171.312117808305
20
8.88445440535832
30
0
41
1
10
171.297999440948
20
9.03519702446688
30
0
0
SPLINE
5
124
100
AcDbEntity
8
1
62
256
6
ByLayer
370
18
48
1
60
0
100
AcDbSpline
70
4
71
3
72
12
73
8
40
0
40
0
40
0
40
0
40
0.116946799633447
40
0.355555742493066
40
0.629294367277215
40
0.903032992061368
40
1
40
1
40
1
40
1
41
1
10
171.297999440948
20
9.03519702446688
30
0
41
1
10
171.291367972683
20
9.08327178112542
30
0
41
1
10
171.265321087758
20
9.22760019382392
30
0
41
1
10
171.186760629043
20
9.47591151464081
30
0
41
1
10
171.033749698584
20
9.76098556551087
30
0
41
1
10
170.864507435377
20
9.9645086724543
30
0
41
1
10
170.753331763687
20
10.0661068112922
30
0
41
1
10
170.723211241335
20
10.0917314992303
30
0
0
SPLINE
5
125
100
AcDbEntity
8
1
62
256
6
ByLayer
370
18
48
1
60
0
100
AcDbSpline
70
4
71
3
72
11
73
7
40
0
40
0
40
0
40
0
40
0.382349089838006
40
0.611210953951622
40
0.840072818065241
40
1
40
1
40
1
40
1
41
1
10
167.877876073672
20
8.58506041032053
30
0
41
1
10
167.891557324697
20
8.38953829482755
30
0
41
1
10
167.958924521539
20
8.09703868995877
30
0
41
1
10
168.155019985871
20
7.7311378286634
30
0
41
1
10
168.349029476491
20
7.49805696835545
30
0
41
1
10
168.492707816215
20
7.37567263472562
30
0
41
1
10
168.555775915247
20
7.32912661698565
30
0
0
SPLINE
5
126
100
AcDbEntity
8
1
62
256
6
ByLayer
370
18
48
1
60
0
100
AcDbSpline
70
4
71
3
72
13
73
9
40
0
40
0
40
0
40
0
40
0.0983600793390456
40
0.291243182627577
40
0.48326982352248
40
0.673392919692304
40
0.861096471212637
40
1
40
1
40
1
40
1
41
1
10
170.548536611001
20
9.79128996456306
30
0
41
1
10
170.582346184507
20
9.76862562180307
30
0
41
1
10
170.67861351972
20
9.69704365682568
30
0
41
1
10
170.821187118257
20
9.55490470960547
30
0
41
1
10
170.957076713128
20
9.35449979874425
30
0
41
1
10
171.054025796116
20
9.13039326194425
30
0
41
1
10
171.104370099808
20
8.90961535165895
30
0
41
1
10
171.113845882472
20
8.76563910556098
30
0
41
1
10
171.113954315498
20
8.70326476781264
30
0
0
SPLINE
5
127
100
AcDbEntity
8
1
62
256
6
ByLayer
370
18
48
1
60
0
100
AcDbSpline
70
4
71
3
72
20
73
16
40
0
40
0
40
0
40
0
40
0.0324520608261287
40
0.114216869994142
40
0.19555887323087
40
0.276436235469455
40
0.357080899047895
40
0.437692381715368
40
0.518460692950122
40
0.599625587115012
40
0.681429733494902
40
0.764102007795051
40
0.847819121762279
40
0.932642504891909
40
1
40
1
40
1
40
1
41
1
10
171.113954315498
20
8.70326476781264
30
0
41
1
10
171.113960578656
20
8.67092317730801
30
0
41
1
10
171.110041900108
20
8.55724824964699
30
0
41
1
10
171.079495227165
20
8.36110486108165
30
0
41
1
10
170.999299246786
20
8.12409634639209
30
0
41
1
10
170.880058141102
20
7.90350485337697
30
0
41
1
10
170.725938368043
20
7.70654710827598
30
0
41
1
10
170.542085875918
20
7.53918076899451
30
0
41
1
10
170.334488165497
20
7.40637041238691
30
0
41
1
10
170.10968124518
20
7.31190722125391
30
0
41
1
10
169.874488013758
20
7.25841932319388
30
0
41
1
10
169.635799638896
20
7.24748360417172
30
0
41
1
10
169.400689807708
20
7.27958829735854
30
0
41
1
10
169.191926699103
20
7.34918577530605
30
0
41
1
10
169.068551890259
20
7.41496318831322
30
0
41
1
10
169.01585662524
20
7.44831488812486
30
0
0
SPLINE
5
128
100
AcDbEntity
8
1
62
256
6
ByLayer
370
18
48
1
60
0
100
AcDbSpline
70
4
71
3
72
12
73
8
40
0
40
0
40
0
40
0
40
0.459644305972742
40
0.642726098164937
40
0.827224710285312
40
0.94222989739407
40
1
40
1
40
1
40
1
41
1
10
8.1056624327026
20
8.05584836782775
30
0
41
1
10
8.12939005236704
20
7.94573224796185
30
0
41
1
10
8.18865735276282
20
7.80565268512261
30
0
41
1
10
8.30452526756781
20
7.64199389030058
30
0
41
1
10
8.39641094884297
20
7.56467770031464
30
0
41
1
10
8.48134844346408
20
7.53341137556287
30
0
41
1
10
8.52406944833502
20
7.52978436584908
30
0
41
1
10
8.53867513459475
20
7.52966679426472
30
0
0
SPLINE
5
129
100
AcDbEntity
8
1
62
256
6
ByLayer
370
18
48
1
60
0
100
AcDbSpline
70
4
71
3
72
12
73
8
40
0
40
0
40
0
40
0
40
0.111858040727072
40
0.249615564081485
40
0.466512325295257
40
0.883363308578708
40
1
40
1
40
1
40
1
41
1
10
11.4613248654052
20
7.52966679426503
30
0
41
1
10
11.490202477147
20
7.53055100813238
30
0
41
1
10
11.5512049415471
20
7.54041112540453
30
0
41
1
10
11.6532263618683
20
7.59950838735871
30
0
41
1
10
11.7782175608376
20
7.74142185662715
30
0
41
1
10
11.8507722029757
20
7.9084413581892
30
0
41
1
10
11.8873565915027
20
8.02906268286475
30
0
41
1
10
11.8943375672976
20
8.0558483678277
30
0
0
SPLINE
5
12A
100
AcDbEntity
8
1
62
256
6
ByLayer
370
18
48
1
60
0
100
AcDbSpline
70
4
71
3
72
12
73
8
40
0
40
0
40
0
40
0
40
0.459644305972753
40
0.642726098164944
40
0.827224710285315
40
0.942229897394075
40
1
40
1
40
1
40
1
41
1
10
11.8943375672974
20
23.6665017920809
30
0
41
1
10
11.870609947633
20
23.7038077009478
30
0
41
1
10
11.8113426472372
20
23.7505385119541
30
0
41
1
10
11.6954747324322
20
23.8034353169055
30
0
41
1
10
11.603589051157
20
23.8280652820467
30
0
41
1
10
11.5186515565359
20
23.8379462243764
30
0
41
1
10
11.475930551665
20
23.8390940049547
30
0
41
1
10
11.4613248654053
20
23.8391299750505
30
0
0
SPLINE
5
12B
100
AcDbEntity
8
1
62
256
6
ByLayer
370
18
48
1
60
0
100
AcDbSpline
70
4
71
3
72
12
73
8
40
0
40
0
40
0
40
0
40
0.111858040727075
40
0.249615564081481
40
0.466512325295238
40
0.88336330857867
40
1
40
1
40
1
40
1
41
1
10
8.53867513459481
20
23.8391299750503
30
0
41
1
10
8.50979752285303
20
23.8388589976898
30
0
41
1
10
8.44879505845288
20
23.8357352266636
30
0
41
1
10
8.34677363813175
20
23.8170102166354
30
0
41
1
10
8.22178243916246
20
23.7714946431978
30
0
41
1
10
8.14922779702436
20
23.7164634042069
30
0
41
1
10
8.11264340849731
20
23.6756140303039
30
0
41
1
10
8.10566243270245
20
23.6665017920809
30
0
0
SPLINE
5
12C
100
AcDbEntity
8
1
62
256
6
ByLayer
370
18
48
1
60
0
100
AcDbSpline
70
4
71
3
72
12
73
8
40
0
40
0
40
0
40
0
40
0.459644305972749
40
0.642726098164941
40
0.827224710285308
40
0.942229897394069
40
1
40
1
40
1
40
1
41
1
10
8.1056624327026
20
-23.6665017920809
30
0
41
1
10
8.12939005236704
20
-23.7038077009479
30
0
41
1
10
8.18865735276282
20
-23.7505385119541
30
0
41
1
10
8.30452526756781
20
-23.8034353169055
30
0
41
1
10
8.39641094884297
20
-23.8280652820467
30
0
41
1
10
8.48134844346409
20
-23.8379462243764
30
0
41
1
10
8.52406944833502
20
-23.8390940049547
30
0
41
1
10
8.53867513459475
20
-23.8391299750505
30
0
0
SPLINE
5
12D
100
AcDbEntity
8
1
62
256
6
ByLayer
370
18
48
1
60
0
100
AcDbSpline
70
4
71
3
72
12
73
8
40
0
40
0
40
0
40
0
40
0.111858040727072
40
0.249615564081478
40
0.466512325295248
40
0.883363308578692
40
1
40
1
40
1
40
1
41
1
10
11.4613248654052
20
-23.8391299750503
30
0
41
1
10
11.490202477147
20
-23.8388589976898
30
0
41
1
10
11.5512049415471
20
-23.8357352266636
30
0
41
1
10
11.6532263618683
20
-23.8170102166354
30
0
41
1
10
11.7782175608376
20
-23.7714946431978
30
0
41
1
10
11.8507722029756
20
-23.7164634042069
30
0
41
1
10
11.8873565915027
20
-23.6756140303039
30
0
41
1
10
11.8943375672976
20
-23.6665017920809
30
0
0
SPLINE
5
12E
100
AcDbEntity
8
1
62
256
6
ByLayer
370
18
48
1
60
0
100
AcDbSpline
70
4
71
3
72
12
73
8
40
0
40
0
40
0
40
0
40
0.459644305972732
40
0.642726098164924
40
0.827224710285297
40
0.942229897394063
40
1
40
1
40
1
40
1
41
1
10
11.8943375672974
20
-8.05584836782774
30
0
41
1
10
11.870609947633
20
-7.94573224796184
30
0
41
1
10
11.8113426472372
20
-7.80565268512261
30
0
41
1
10
11.6954747324322
20
-7.64199389030058
30
0
41
1
10
11.603589051157
20
-7.56467770031463
30
0
41
1
10
11.5186515565359
20
-7.53341137556286
30
0
41
1
10
11.475930551665
20
-7.52978436584906
30
0
41
1
10
11.4613248654053
20
-7.52966679426471
30
0
0
SPLINE
5
12F
100
AcDbEntity
8
1
62
256
6
ByLayer
370
18
48
1
60
0
100
AcDbSpline
70
4
71
3
72
12
73
8
40
0
40
0
40
0
40
0
40
0.111858040727072
40
0.249615564081476
40
0.466512325295238
40
0.883363308578664
40
1
40
1
40
1
40
1
41
1
10
8.53867513459481
20
-7.52966679426503
30
0
41
1
10
8.50979752285304
20
-7.53055100813239
30
0
41
1
10
8.44879505845287
20
-7.54041112540455
30
0
41
1
10
8.34677363813176
20
-7.59950838735871
30
0
41
1
10
8.22178243916246
20
-7.74142185662715
30
0
41
1
10
8.14922779702436
20
-7.90844135818919
30
0
41
1
10
8.11264340849731
20
-8.02906268286475
30
0
41
1
10
8.10566243270245
20
-8.0558483678277
30
0
0
SPLINE
5
130
100
AcDbEntity
8
SK1
62
256
6
ByLayer
370
18
48
1
60
0
100
AcDbSpline
70
4
71
3
72
16
73
12
40
0
40
0
40
0
40
0
40
0.358784764078555
40
0.539969669267952
40
0.720192300947435
40
0.824629221662129
40
0.861739635268987
40
0.89921059005768
40
0.932623101773373
40
0.972460481991851
40
1
40
1
40
1
40
1
41
1
10
-1.30710678118655
20
3.91806548153782
30
0
41
1
10
-1.26869329403527
20
4.15290168340231
30
0
41
1
10
-1.18631818669602
20
4.49654944949581
30
0
41
1
10
-1.0437700119702
20
4.94145201348042
30
0
41
1
10
-0.908767380814986
20
5.21274630858181
30
0
41
1
10
-0.771578821315732
20
5.38099905382557
30
0
41
1
10
-0.665052306838648
20
5.44571930243862
30
0
41
1
10
-0.589033288667629
20
5.46534527921048
30
0
41
1
10
-0.509045915098689
20
5.45648352439001
30
0
41
1
10
-0.445322088128398
20
5.4256348956362
30
0
41
1
10
-0.408879232487384
20
5.39911218496009
30
0
41
1
10
-0.394976888875401
20
5.38678223323953
30
0
0
SPLINE
5
131
100
AcDbEntity
8
SK1
62
256
6
ByLayer
370
18
48
1
60
0
100
AcDbSpline
70
4
71
3
72
15
73
11
40
0
40
0
40
0
40
0
40
0.0263918973636588
40
0.0530860994925839
40
0.0713006629702692
40
0.089470546475085
40
0.118786561672317
40
0.176331429052691
40
0.378137870895166
40
1
40
1
40
1
40
1
41
1
10
-0.394976888872949
20
5.38678223324205
30
0
41
1
10
-0.38963752842385
20
5.38182609858726
30
0
41
1
10
-0.377937578125802
20
5.37416779254814
30
0
41
1
10
-0.358964115826076
20
5.36816975925244
30
0
41
1
10
-0.341227685206654
20
5.37044484056795
30
0
41
1
10
-0.324285641889538
20
5.37870763212332
30
0
41
1
10
-0.302323050794941
20
5.39975391399386
30
0
41
1
10
-0.261648132673788
20
5.47178978279535
30
0
41
1
10
-0.209929488976105
20
5.71419900598209
30
0
41
1
10
-0.184538112392055
20
5.9335970239528
30
0
41
1
10
-0.200000000000359
20
6.10344667966
30
0
0
SPLINE
5
132
100
AcDbEntity
8
SK1
62
256
6
ByLayer
370
18
48
1
60
0
100
AcDbSpline
70
4
71
1
72
4
73
2
40
0
40
0
40
1
40
1
41
1
10
-0.200000000000378
20
-6.10344849122223
30
0
41
1
10
-0.200310152777452
20
-6.04846221829991
30
0
0
SPLINE
5
133
100
AcDbEntity
8
SK1
62
256
6
ByLayer
370
18
48
1
60
0
100
AcDbSpline
70
4
71
3
72
16
73
12
40
0
40
0
40
0
40
0
40
0.0398408398642637
40
0.080061199369115
40
0.110409226977645
40
0.140674349901544
40
0.190666681682727
40
0.291247807710012
40
0.474591796579417
40
0.658800309111034
40
1
40
1
40
1
40
1
41
1
10
-0.394976888875293
20
-5.38678189578291
30
0
41
1
10
-0.415120738474063
20
-5.40520184701873
30
0
41
1
10
-0.459540293537228
20
-5.43506364687671
30
0
41
1
10
-0.533695648009158
20
-5.46240589865789
30
0
41
1
10
-0.607037112592313
20
-5.46182759017226
30
0
41
1
10
-0.68261959789318
20
-5.43813440818807
30
0
41
1
10
-0.786081333008654
20
-5.36639074044947
30
0
41
1
10
-0.921764992175002
20
-5.18982964826516
30
0
41
1
10
-1.05403886615462
20
-4.91502639134367
30
0
41
1
10
-1.19113914155615
20
-4.47620937208191
30
0
41
1
10
-1.27016967279662
20
-4.14124723456106
30
0
41
1
10
-1.30710678118655
20
-3.91806548057695
30
0
0
SPLINE
5
134
100
AcDbEntity
8
SK1
62
256
6
ByLayer
370
18
48
1
60
0
100
AcDbSpline
70
4
71
1
72
4
73
2
40
0
40
0
40
1
40
1
41
1
10
-2.2
20
-17.520098551796
30
0
41
1
10
-2.19849666822812
20
-17.5001395013283
30
0
0
SPLINE
5
135
100
AcDbEntity
8
SK1
62
256
6
ByLayer
370
18
48
1
60
0
100
AcDbSpline
70
4
71
3
72
13
73
9
40
0
40
0
40
0
40
0
40
0.188217749661558
40
0.325805662954844
40
0.466313556624172
40
0.606821630873528
40
0.744410041927481
40
1
40
1
40
1
40
1
41
1
10
-2.19849666822812
20
-17.5001395013283
30
0
41
1
10
-2.1960566577102
20
-17.4814286460051
30
0
41
1
10
-2.18781367353936
20
-17.4508012682939
30
0
41
1
10
-2.16563904087055
20
-17.4104570700287
30
0
41
1
10
-2.13886294404758
20
-17.379165668894
30
0
41
1
10
-2.10627734460677
20
-17.3540009331723
30
0
41
1
10
-2.05884052296928
20
-17.3309562943219
30
0
41
1
10
-2.02111030873065
20
-17.3247843360228
30
0
41
1
10
-1.99503997793929
20
-17.3251859759625
30
0
0
SPLINE
5
136
100
AcDbEntity
8
SK1
62
256
6
ByLayer
370
18
48
1
60
0
100
AcDbSpline
70
4
71
3
72
13
73
9
40
0
40
0
40
0
40
0
40
0.255590241366454
40
0.393178804912879
40
0.533687034880037
40
0.674195084255105
40
0.811783150007516
40
1
40
1
40
1
40
1
41
1
10
-1.99503997793929
20
17.3251861589552
30
0
41
1
10
-2.02111030872967
20
17.324784519015
30
0
41
1
10
-2.05884052296555
20
17.3309564773068
30
0
41
1
10
-2.10627734460883
20
17.3540011161607
30
0
41
1
10
-2.138862944033
20
17.3791658518294
30
0
41
1
10
-2.16563904091885
20
17.4104572531086
30
0
41
1
10
-2.18781362063236
20
17.4508013548306
30
0
41
1
10
-2.19605660225333
20
17.4814286221381
30
0
41
1
10
-2.19849662724434
20
17.5001393587196
30
0
0
SPLINE
5
137
100
AcDbEntity
8
SK1
62
256
6
ByLayer
370
18
48
1
60
0
100
AcDbSpline
70
4
71
1
72
4
73
2
40
0
40
0
40
1
40
1
41
1
10
-2.19849662724434
20
17.5001393587196
30
0
41
1
10
-2.19999999999999
20
17.5200987347078
30
0
0
SPLINE
5
138
100
AcDbEntity
8
SK1
62
256
6
ByLayer
370
18
48
1
60
0
100
AcDbSpline
70
4
71
2
72
6
73
3
40
0
40
0
40
0
40
1
40
1
40
1
41
1
10
-28.5
20
-16.8542724489282
30
0
41
1
10
-15.3499999999286
20
-17.1845422635703
30
0
41
1
10
-2.2
20
-17.5148116792767
30
0
0
SPLINE
5
139
100
AcDbEntity
8
SK1
62
256
6
ByLayer
370
18
48
1
60
0
100
AcDbSpline
70
4
71
2
72
6
73
3
40
0
40
0
40
0
40
1
40
1
40
1
41
1
10
-2.19999999999999
20
17.5148117187522
30
0
41
1
10
-15.3499999999294
20
17.1845422725478
30
0
41
1
10
-28.5
20
16.854272429841
30
0
0
SPLINE
5
13A
100
AcDbEntity
8
SK1
62
256
6
ByLayer
370
18
48
1
60
0
100
AcDbSpline
70
4
71
3
72
17
73
13
40
0
40
0
40
0
40
0
40
0.0988961720752903
40
0.197772127255064
40
0.298927421664482
40
0.400041224390143
40
0.499376076515246
40
0.598710684843648
40
0.702381095035075
40
0.806097249593327
40
0.903039355309692
40
1
40
1
40
1
40
1
41
1
10
-1.30710678118655
20
3.91806548153783
30
0
41
1
10
-1.35197587562434
20
3.67377165081535
30
0
41
1
10
-1.43619270662037
20
3.17915680596349
30
0
41
1
10
-1.54975714655522
20
2.41285176331875
30
0
41
1
10
-1.64120723839553
20
1.62283533783915
30
0
41
1
10
-1.70219035447532
20
0.816203064504219
30
0
41
1
10
-1.72282909958762
20
0.0050848557116597
30
0
41
1
10
-1.70254268284402
20
-0.813007991893924
30
0
41
1
10
-1.64044869376789
20
-1.6333837627173
30
0
41
1
10
-1.54729273796262
20
-2.43133938172832
30
0
41
1
10
-1.43373886470107
20
-3.19373425727628
30
0
41
1
10
-1.35107084014277
20
-3.67855608364566
30
0
41
1
10
-1.30710678118655
20
-3.91806548057697
30
0
0
SPLINE
5
13B
100
AcDbEntity
8
SK1
62
256
6
ByLayer
370
18
48
1
60
0
100
AcDbSpline
70
4
71
2
72
6
73
3
40
0
40
0
40
0
40
1
40
1
40
1
41
1
10
-1.99503997793929
20
-17.3199593099743
30
0
41
1
10
-1.19500843340704
20
-17.340052552406
30
0
41
1
10
-0.394976888875288
20
-17.3601457933935
30
0
0
SPLINE
5
13C
100
AcDbEntity
8
SK1
62
256
6
ByLayer
370
18
48
1
60
0
100
AcDbSpline
70
4
71
2
72
6
73
3
40
0
40
0
40
0
40
1
40
1
40
1
41
1
10
-0.394976888875288
20
17.3601458189993
30
0
41
1
10
-1.19500843340704
20
17.3400525762132
30
0
41
1
10
-1.99503997793929
20
17.3199593319919
30
0
0
SPLINE
5
13D
100
AcDbEntity
8
SK1
62
256
6
ByLayer
370
18
48
1
60
0
100
AcDbSpline
70
4
71
2
72
6
73
3
40
0
40
0
40
0
40
1
40
1
40
1
41
1
10
-30
20
-15.9924794145163
30
0
41
1
10
-29.2591352338337
20
-16.420191125962
30
0
41
1
10
-28.5182704693274
20
-16.847902653257
30
0
0
SPLINE
5
13E
100
AcDbEntity
8
SK1
62
256
6
ByLayer
370
18
48
1
60
0
100
AcDbSpline
70
4
71
1
72
4
73
2
40
0
40
0
40
1
40
1
41
1
10
-28.5182704693274
20
-16.847902653257
30
0
41
1
10
-28.5
20
-16.8584504491481
30
0
0
SPLINE
5
13F
100
AcDbEntity
8
SK1
62
256
6
ByLayer
370
18
48
1
60
0
100
AcDbSpline
70
4
71
2
72
6
73
3
40
0
40
0
40
0
40
1
40
1
40
1
41
1
10
-28.5
20
16.8584505716142
30
0
41
1
10
-29.2499999991496
20
16.4254651505507
30
0
41
1
10
-30
20
15.9924795407901
30
0
0
SPLINE
5
140
100
AcDbEntity
8
SK1
62
256
6
ByLayer
370
18
48
1
60
0
100
AcDbSpline
70
4
71
3
72
16
73
12
40
0
40
0
40
0
40
0
40
0.429947025980102
40
0.637871508141324
40
0.847475369771315
40
0.893804117619704
40
0.915771547487163
40
0.937919266400913
40
0.957603651332695
40
0.98683616578518
40
1
40
1
40
1
40
1
41
1
10
-0.200310152777452
20
-6.04846221829991
30
0
41
1
10
-0.198787242497288
20
-5.94054392125105
30
0
41
1
10
-0.208143272389764
20
-5.77937570784665
30
0
41
1
10
-0.239824128147568
20
-5.56580290711368
30
0
41
1
10
-0.26937315079398
20
-5.44525057844108
30
0
41
1
10
-0.315072515377357
20
-5.3857090375456
30
0
41
1
10
-0.335403929832902
20
-5.37242149178336
30
0
41
1
10
-0.351974093102418
20
-5.36836875581727
30
0
41
1
10
-0.370185102677011
20
-5.37082187371172
30
0
41
1
10
-0.384145874664101
20
-5.37825433225386
30
0
41
1
10
-0.39249683921549
20
-5.38461167007122
30
0
41
1
10
-0.394976888875303
20
-5.3867818957822
30
0
0
SPLINE
5
141
100
AcDbEntity
8
SK1
62
256
6
ByLayer
370
18
48
1
60
0
100
AcDbSpline
70
4
71
2
72
6
73
3
40
0
40
0
40
0
40
1
40
1
40
1
41
1
10
-0.394976888875288
20
-17.3596967958969
30
0
41
1
10
-0.299595611716197
20
-17.3718102713531
30
0
41
1
10
-0.239313860657741
20
-17.4441155342582
30
0
0
SPLINE
5
142
100
AcDbEntity
8
SK1
62
256
6
ByLayer
370
18
48
1
60
0
100
AcDbSpline
70
4
71
2
72
6
73
3
40
0
40
0
40
0
40
1
40
1
40
1
41
1
10
-0.20955829723689
20
17.5042063389093
30
0
41
1
10
-0.217613201584117
20
17.476733262254
30
0
41
1
10
-0.240458029387806
20
17.4425610101147
30
0
0
SPLINE
5
143
100
AcDbEntity
8
SK1
62
256
6
ByLayer
370
18
48
1
60
0
100
AcDbSpline
70
4
71
2
72
6
73
3
40
0
40
0
40
0
40
1
40
1
40
1
41
1
10
-0.239223159705506
20
17.4442274285872
30
0
41
1
10
-0.299508127285386
20
17.3718269391492
30
0
41
1
10
-0.394976888875288
20
17.3596982935394
30
0
0
SPLINE
5
144
100
AcDbEntity
8
1
62
256
6
ByLayer
370
18
48
1
60
0
100
AcDbSpline
70
4
71
3
72
12
73
8
40
0
40
0
40
0
40
0
40
0.15927535274223
40
0.459166885364129
40
0.615468297738079
40
0.771628033588567
40
1
40
1
40
1
40
1
41
1
10
159.575747377993
20
11.3851217892739
30
0
41
1
10
159.48004573027
20
11.383478861652
30
0
41
1
10
159.209090161576
20
11.3853510575417
30
0
41
1
10
158.84854385542
20
11.4157892637855
30
0
41
1
10
158.533562431878
20
11.4676953512394
30
0
41
1
10
158.286497621452
20
11.524820860082
30
0
41
1
10
158.157669123569
20
11.5711823683843
30
0
41
1
10
158.095681076304
20
11.6011630783949
30
0
0
SPLINE
5
145
100
AcDbEntity
8
1
62
256
6
ByLayer
370
18
48
1
60
0
100
AcDbSpline
70
4
71
3
72
16
73
12
40
0
40
0
40
0
40
0
40
0.0447922232184805
40
0.154430362572456
40
0.264368656740452
40
0.373920672148135
40
0.483990828193992
40
0.594473069904297
40
0.704532601377271
40
0.852249465253324
40
1
40
1
40
1
40
1
41
1
10
158.740108737847
20
10.5028658311802
30
0
41
1
10
158.769248001422
20
10.4519570449025
30
0
41
1
10
158.875967237465
20
10.2734184010837
30
0
41
1
10
159.094391477201
20
9.94675413327575
30
0
41
1
10
159.434643352636
20
9.51649355273791
30
0
41
1
10
159.847442454161
20
9.07359061915319
30
0
41
1
10
160.339075889249
20
8.63258163356744
30
0
41
1
10
160.902692176398
20
8.20915077243043
30
0
41
1
10
161.603305957623
20
7.77398645742977
30
0
41
1
10
162.463701872592
20
7.36288130754346
30
0
41
1
10
163.136948403461
20
7.13868325376301
30
0
41
1
10
163.48752536034
20
7.0438703942322
30
0
0
SPLINE
5
146
100
AcDbEntity
8
1
62
256
6
ByLayer
370
18
48
1
60
0
100
AcDbSpline
70
4
71
3
72
14
73
10
40
0
40
0
40
0
40
0
40
0.131839419233367
40
0.38007321569441
40
0.509450969866372
40
0.638711451966724
40
0.832094312734988
40
0.994180748438168
40
1
40
1
40
1
40
1
41
1
10
159.575747377993
20
-11.3851217892739
30
0
41
1
10
159.48004573027
20
-11.383478861652
30
0
41
1
10
159.209061521076
20
-11.3853585713442
30
0
41
1
10
158.848698169106
20
-11.4157487797661
30
0
41
1
10
158.533286871333
20
-11.4677676442337
30
0
41
1
10
158.285363852406
20
-11.5250435800994
30
0
41
1
10
158.081992680059
20
-11.5979059239053
30
0
41
1
10
158.008741965293
20
-11.6541673132596
30
0
41
1
10
157.995704612296
20
-11.6788345671581
30
0
41
1
10
157.995275748381
20
-11.679688830073
30
0
0
SPLINE
5
147
100
AcDbEntity
8
1
62
256
6
ByLayer
370
18
48
1
60
0
100
AcDbSpline
70
4
71
1
72
4
73
2
40
0
40
0
40
1
40
1
41
1
10
163.512468574687
20
7.03723184092357
30
0
41
1
10
163.48752536034
20
7.04387039423224
30
0
0
SPLINE
5
148
100
AcDbEntity
8
1
62
256
6
ByLayer
370
18
48
1
60
0
100
AcDbSpline
70
4
71
1
72
4
73
2
40
0
40
0
40
1
40
1
41
1
10
163.48752536034
20
-11.4563562981079
30
0
41
1
10
163.512468574693
20
-11.4564042272194
30
0
0
SPLINE
5
149
100
AcDbEntity
8
1
62
256
6
ByLayer
370
18
48
1
60
0
100
AcDbSpline
70
4
71
3
72
12
73
8
40
0
40
0
40
0
40
0
40
0.132912601407315
40
0.363548019674874
40
0.594375490606815
40
0.825991838294133
40
1
40
1
40
1
40
1
41
1
10
163.543530313013
20
-11.4559776937018
30
0
41
1
10
163.562503174185
20
-11.437714679947
30
0
41
1
10
163.628581481197
20
-11.3891988530528
30
0
41
1
10
163.807493426406
20
-11.3114830457428
30
0
41
1
10
164.09260334746
20
-11.2416388869318
30
0
41
1
10
164.399260746916
20
-11.2065939628283
30
0
41
1
10
164.594350761372
20
-11.2038943650928
30
0
41
1
10
164.679677910921
20
-11.2061242173792
30
0
0
SPLINE
5
14A
100
AcDbEntity
8
1
62
256
6
ByLayer
370
18
48
1
60
0
100
AcDbSpline
70
4
71
2
72
6
73
3
40
0
40
0
40
0
40
1
40
1
40
1
41
1
10
163.512468574687
20
7.03723184092357
30
0
41
1
10
164.529060844878
20
6.76654938419868
30
0
41
1
10
165.592122698319
20
6.74118692014933
30
0
0
SPLINE
5
14B
100
AcDbEntity
8
1
62
256
6
ByLayer
370
18
48
1
60
0
100
AcDbSpline
70
4
71
1
72
4
73
2
40
0
40
0
40
1
40
1
41
1
10
165.592122698319
20
6.74118692014933
30
0
41
1
10
166.372888629247
20
6.72299336768564
30
0
0
SPLINE
5
14C
100
AcDbEntity
8
1
62
256
6
ByLayer
370
18
48
1
60
0
100
AcDbSpline
70
4
71
3
72
10
73
6
40
0
40
0
40
0
40
0
40
0.347143479196227
40
0.803753188578313
40
1
40
1
40
1
40
1
41
1
10
164.698006315083
20
-11.192883884316
30
0
41
1
10
164.659451776968
20
-11.1560774503047
30
0
41
1
10
164.603907797099
20
-11.0665010969518
30
0
41
1
10
164.633609408001
20
-10.9345739742799
30
0
41
1
10
164.70296101015
20
-10.8491890451818
30
0
41
1
10
164.728412867805
20
-10.8231583044675
30
0
0
SPLINE
5
14D
100
AcDbEntity
8
1
62
256
6
ByLayer
370
18
48
1
60
0
100
AcDbSpline
70
4
71
3
72
13
73
9
40
0
40
0
40
0
40
0
40
0.0090049512755672
40
0.268851146498682
40
0.52001035682481
40
0.745718591536461
40
0.945160805161154
40
1
40
1
40
1
40
1
41
1
10
174.286014978827
20
6.46647932342904
30
0
41
1
10
174.286015430981
20
6.46700124024045
30
0
41
1
10
174.285316139545
20
6.48258253668975
30
0
41
1
10
174.243301058415
20
6.51377442007875
30
0
41
1
10
174.0715473222
20
6.55470621059544
30
0
41
1
10
173.826967422251
20
6.58393991687652
30
0
41
1
10
173.615866027405
20
6.59573340133414
30
0
41
1
10
173.503412584607
20
6.59843327964456
30
0
41
1
10
173.478901305182
20
6.59886506048711
30
0
0
SPLINE
5
14E
100
AcDbEntity
8
1
62
256
6
ByLayer
370
18
48
1
60
0
100
AcDbSpline
70
4
71
3
72
13
73
9
40
0
40
0
40
0
40
0
40
0.10761449305006
40
0.32296843403476
40
0.530497039866325
40
0.734687997157653
40
0.940483233662733
40
1
40
1
40
1
40
1
41
1
10
174.286014978827
20
-10.5149205600653
30
0
41
1
10
174.28599963254
20
-10.560613299304
30
0
41
1
10
174.274833093184
20
-10.6942423552854
30
0
41
1
10
174.19950557271
20
-10.9066391448946
30
0
41
1
10
174.030646756478
20
-11.1073831530177
30
0
41
1
10
173.807447510927
20
-11.2359467121085
30
0
41
1
10
173.613098394182
20
-11.2710903860639
30
0
41
1
10
173.503642858288
20
-11.2676705840704
30
0
41
1
10
173.478901305182
20
-11.2657404332002
30
0
0
SPLINE
5
14F
100
AcDbEntity
8
1
62
256
6
ByLayer
370
18
48
1
60
0
100
AcDbSpline
70
4
71
3
72
10
73
6
40
0
40
0
40
0
40
0
40
0.369418482308612
40
0.739397396600339
40
1
40
1
40
1
40
1
41
1
10
166.392924184245
20
-10.3832942417735
30
0
41
1
10
166.567417165401
20
-10.3975298835629
30
0
41
1
10
166.887588566029
20
-10.4466875483054
30
0
41
1
10
167.269542383959
20
-10.5807711089703
30
0
41
1
10
167.438342852802
20
-10.6828713294637
30
0
41
1
10
167.498613606569
20
-10.7292516184483
30
0
0
SPLINE
5
150
100
AcDbEntity
8
1
62
256
6
ByLayer
370
18
48
1
60
0
100
AcDbSpline
70
4
71
3
72
18
73
14
40
0
40
0
40
0
40
0
40
0.175634160618913
40
0.253752367043806
40
0.331771736506411
40
0.457389862884713
40
0.520959753990768
40
0.584480704389388
40
0.692003767561541
40
0.795630576604497
40
0.90902432605277
40
0.990987081011571
40
1
40
1
40
1
40
1
41
1
10
172.486813348225
20
-7.57570835730468
30
0
41
1
10
172.52460398739
20
-7.40618261603695
30
0
41
1
10
172.536401337329
20
-7.15855819209312
30
0
41
1
10
172.47629234795
20
-6.82503730692575
30
0
41
1
10
172.37396758839
20
-6.54705355138506
30
0
41
1
10
172.203666098239
20
-6.2986971400117
30
0
41
1
10
171.975707851305
20
-6.11054450430457
30
0
41
1
10
171.728687303443
20
-5.97284410960822
30
0
41
1
10
171.39333641523
20
-5.88639058534014
30
0
41
1
10
170.984249721256
20
-5.90273798371237
30
0
41
1
10
170.629844077772
20
-6.01285053166554
30
0
41
1
10
170.415780011493
20
-6.13132372383696
30
0
41
1
10
170.326427464492
20
-6.19009122908683
30
0
41
1
10
170.317633193277
20
-6.19598609042688
30
0
0
SPLINE
5
151
100
AcDbEntity
8
1
62
256
6
ByLayer
370
18
48
1
60
0
100
AcDbSpline
70
4
71
1
72
4
73
2
40
0
40
0
40
1
40
1
41
1
10
169.417672933465
20
-7.58141370825238
30
0
41
1
10
169.438772381723
20
-7.47165619703155
30
0
0
SPLINE
5
152
100
AcDbEntity
8
1
62
256
6
ByLayer
370
18
48
1
60
0
100
AcDbSpline
70
4
71
3
72
19
73
15
40
0
40
0
40
0
40
0
40
0.0779692903394066
40
0.155818873548222
40
0.263716781958319
40
0.318220234131185
40
0.372681986551826
40
0.4677918250087
40
0.555673020723776
40
0.644373889924816
40
0.740295513240543
40
0.849832803980182
40
0.980075674348996
40
1
40
1
40
1
40
1
41
1
10
172.372549851166
20
-8.11683241370183
30
0
41
1
10
172.352506770127
20
-8.20982014408999
30
0
41
1
10
172.289887234643
20
-8.3869261869587
30
0
41
1
10
172.111037486245
20
-8.66237660141388
30
0
41
1
10
171.857719788354
20
-8.86991079478392
30
0
41
1
10
171.566738944058
20
-9.00347057660736
30
0
41
1
10
171.261297176724
20
-9.09173473907119
30
0
41
1
10
170.867296407059
20
-9.12517495746656
30
0
41
1
10
170.425008590308
20
-9.06056532571031
30
0
41
1
10
170.036502915667
20
-8.90610354749112
30
0
41
1
10
169.71276975314
20
-8.65897933383181
30
0
41
1
10
169.477455121552
20
-8.3063498534317
30
0
41
1
10
169.408774001443
20
-7.99470800100765
30
0
41
1
10
169.404109640414
20
-7.81014600226704
30
0
41
1
10
169.404156854199
20
-7.78550199574626
30
0
0
SPLINE
5
153
100
AcDbEntity
8
1
62
256
6
ByLayer
370
18
48
1
60
0
100
AcDbSpline
70
4
71
1
72
4
73
2
40
0
40
0
40
1
40
1
41
1
10
166.372888629247
20
6.72299336768564
30
0
41
1
10
166.392924184245
20
6.7225853565607
30
0
0
SPLINE
5
154
100
AcDbEntity
8
1
62
256
6
ByLayer
370
18
48
1
60
0
100
AcDbSpline
70
4
71
1
72
4
73
2
40
0
40
0
40
1
40
1
41
1
10
166.372888629247
20
-10.3820527494766
30
0
41
1
10
166.392924184245
20
-10.3832942417735
30
0
0
SPLINE
5
155
100
AcDbEntity
8
1
62
256
6
ByLayer
370
18
48
1
60
0
100
AcDbSpline
70
4
71
3
72
12
73
8
40
0
40
0
40
0
40
0
40
0.148717950330438
40
0.366599876725393
40
0.584748755677238
40
0.792328491278866
40
1
40
1
40
1
40
1
41
1
10
170.317633193277
20
-6.19598609042688
30
0
41
1
10
170.246450730915
20
-6.24477062810866
30
0
41
1
10
170.081329098094
20
-6.37197320036123
30
0
41
1
10
169.858858144139
20
-6.60811870669588
30
0
41
1
10
169.666772299291
20
-6.89069903237445
30
0
41
1
10
169.526528474435
20
-7.18175313681503
30
0
41
1
10
169.463122731618
20
-7.37434896390266
30
0
41
1
10
169.438772381723
20
-7.47165619703155
30
0
0
SPLINE
5
156
100
AcDbEntity
8
1
62
256
6
ByLayer
370
18
48
1
60
0
100
AcDbSpline
70
4
71
1
72
4
73
2
40
0
40
0
40
1
40
1
41
1
10
169.404156854199
20
-7.78550199574626
30
0
41
1
10
169.417672933465
20
-7.58141370825238
30
0
0
SPLINE
5
157
100
AcDbEntity
8
1
62
256
6
ByLayer
370
18
48
1
60
0
100
AcDbSpline
70
4
71
3
72
11
73
7
40
0
40
0
40
0
40
0
40
0.254066823170785
40
0.534716193001944
40
0.857375818987049
40
1
40
1
40
1
40
1
41
1
10
171.68392459089
20
-7.78995235868684
30
0
41
1
10
171.682272864118
20
-7.87927353007163
30
0
41
1
10
171.656385926723
20
-8.05938862719895
30
0
41
1
10
171.53004240517
20
-8.32938688575884
30
0
41
1
10
171.363106296293
20
-8.52368824122927
30
0
41
1
10
171.238108430966
20
-8.62052979248353
30
0
41
1
10
171.19757936935
20
-8.64811187094744
30
0
0
SPLINE
5
158
100
AcDbEntity
8
1
62
256
6
ByLayer
370
18
48
1
60
0
100
AcDbSpline
70
4
71
3
72
15
73
11
40
0
40
0
40
0
40
0
40
0.108221514501514
40
0.237373105247959
40
0.366794844465346
40
0.491141566053693
40
0.627268866998001
40
0.786650955255733
40
0.917363534175373
40
1
40
1
40
1
40
1
41
1
10
171.19757936935
20
-8.64811187094744
30
0
41
1
10
171.127473045813
20
-8.69600401310347
30
0
41
1
10
170.967578847162
20
-8.77998888829276
30
0
41
1
10
170.687575120844
20
-8.84547412342833
30
0
41
1
10
170.397116675659
20
-8.81783183727486
30
0
41
1
10
170.13756062638
20
-8.70166149262914
30
0
41
1
10
169.916594752806
20
-8.50114200015605
30
0
41
1
10
169.762520169776
20
-8.23483779078096
30
0
41
1
10
169.689072053478
20
-7.9578652642766
30
0
41
1
10
169.677363456681
20
-7.79540690959199
30
0
41
1
10
169.677120721673
20
-7.73105931863385
30
0
0
SPLINE
5
159
100
AcDbEntity
8
1
62
256
6
ByLayer
370
18
48
1
60
0
100
AcDbSpline
70
4
71
3
72
12
73
8
40
0
40
0
40
0
40
0
40
0.128750662443074
40
0.360139184549721
40
0.602680125746927
40
0.857423774383241
40
1
40
1
40
1
40
1
41
1
10
164.728412867805
20
-10.8231583044675
30
0
41
1
10
164.762469532401
20
-10.7886114189803
30
0
41
1
10
164.874542387257
20
-10.6959832464342
30
0
41
1
10
165.153132321251
20
-10.5520023955317
30
0
41
1
10
165.584572459338
20
-10.426878490866
30
0
41
1
10
166.014090243048
20
-10.376072558485
30
0
41
1
10
166.277402385766
20
-10.3774853569339
30
0
41
1
10
166.372888629247
20
-10.3820527494766
30
0
0
SPLINE
5
15A
100
AcDbEntity
8
1
62
256
6
ByLayer
370
18
48
1
60
0
100
AcDbSpline
70
4
71
2
72
6
73
3
40
0
40
0
40
0
40
1
40
1
40
1
41
1
10
162.952350678502
20
7.22074396716877
30
0
41
1
10
162.964422167503
20
7.25975395863173
30
0
41
1
10
162.977232742185
20
7.29888566168556
30
0
0
SPLINE
5
15B
100
AcDbEntity
8
1
62
256
6
ByLayer
370
18
48
1
60
0
100
AcDbSpline
70
4
71
2
72
6
73
3
40
0
40
0
40
0
40
1
40
1
40
1
41
1
10
163.656143320382
20
8.08407196484806
30
0
41
1
10
163.459739265289
20
7.9564215605196
30
0
41
1
10
163.285481058497
20
7.84194332929218
30
0
0
SPLINE
5
15C
100
AcDbEntity
8
1
62
256
6
ByLayer
370
18
48
1
60
0
100
AcDbSpline
70
4
71
1
72
4
73
2
40
0
40
0
40
1
40
1
41
1
10
163.48752536034
20
11.4563562981079
30
0
41
1
10
163.512468574693
20
11.4564042272194
30
0
0
SPLINE
5
15D
100
AcDbEntity
8
1
62
256
6
ByLayer
370
18
48
1
60
0
100
AcDbSpline
70
4
71
3
72
11
73
7
40
0
40
0
40
0
40
0
40
0.16397945036327
40
0.448523344029562
40
0.733304180544077
40
1
40
1
40
1
40
1
41
1
10
163.543530313012
20
11.4559776937016
30
0
41
1
10
163.562503174184
20
11.4377146799469
30
0
41
1
10
163.628676536039
20
11.3891826252046
30
0
41
1
10
163.806893732555
20
11.3115854260182
30
0
41
1
10
164.088381040752
20
11.2428315656011
30
0
41
1
10
164.296286532494
20
11.2186313931261
30
0
41
1
10
164.404242793137
20
11.2111936700181
30
0
0
SPLINE
5
15E
100
AcDbEntity
8
1
62
256
6
ByLayer
370
18
48
1
60
0
100
AcDbSpline
70
4
71
3
72
14
73
10
40
0
40
0
40
0
40
0
40
0.0448335609354174
40
0.206930259381923
40
0.36267065627353
40
0.533165861985785
40
0.732786964702486
40
0.896500399682003
40
1
40
1
40
1
40
1
41
1
10
170.769262174834
20
8.82009769778066
30
0
41
1
10
170.742110855137
20
8.82434345615139
30
0
41
1
10
170.61761419382
20
8.83847212902324
30
0
41
1
10
170.396802625001
20
8.81792866516625
30
0
41
1
10
170.137651731362
20
8.70163340320148
30
0
41
1
10
169.916564355602
20
8.50115137220187
30
0
41
1
10
169.762527295934
20
8.23483559364846
30
0
41
1
10
169.689070917643
20
7.95786561447665
30
0
41
1
10
169.677363456681
20
7.79540690959201
30
0
41
1
10
169.677120721673
20
7.73105931863387
30
0
0
SPLINE
5
15F
100
AcDbEntity
8
1
62
256
6
ByLayer
370
18
48
1
60
0
100
AcDbSpline
70
4
71
3
72
17
73
13
40
0
40
0
40
0
40
0
40
0.105919182402697
40
0.211837752784286
40
0.317756155891381
40
0.423674452174799
40
0.529603395425174
40
0.635532246265267
40
0.74142121421149
40
0.847310060608473
40
0.953223252187174
40
1
40
1
40
1
40
1
41
1
10
171.347003763338
20
8.94597331954049
30
0
41
1
10
171.346741743596
20
8.83326800390037
30
0
41
1
10
171.328067289481
20
8.61095910744604
30
0
41
1
10
171.245253712728
20
8.28227998852931
30
0
41
1
10
171.108691561102
20
7.97194386564517
30
0
41
1
10
170.924084621339
20
7.68688532378247
30
0
41
1
10
170.694831853071
20
7.43669378574608
30
0
41
1
10
170.429148136028
20
7.22687722459658
30
0
41
1
10
170.133169523646
20
7.06523848447735
30
0
41
1
10
169.816508693259
20
6.95424961122926
30
0
41
1
10
169.548112441071
20
6.90961657449327
30
0
41
1
10
169.389331134914
20
6.90225767818113
30
0
41
1
10
169.340497628125
20
6.90180379275213
30
0
0
SPLINE
5
160
100
AcDbEntity
8
1
62
256
6
ByLayer
370
18
48
1
60
0
100
AcDbSpline
70
4
71
1
72
4
73
2
40
0
40
0
40
1
40
1
41
1
10
163.497896879879
20
7.0449891405657
30
0
41
1
10
163.504544771357
20
7.53473397084385
30
0
0
SPLINE
5
161
100
AcDbEntity
8
1
62
256
6
ByLayer
370
18
48
1
60
0
100
AcDbSpline
70
4
71
3
72
10
73
6
40
0
40
0
40
0
40
0
40
0.213208498211603
40
0.606550632732195
40
1
40
1
40
1
40
1
41
1
10
163.504544771357
20
7.53473397084385
30
0
41
1
10
163.517638600152
20
7.63121784291002
30
0
41
1
10
163.566947921118
20
7.90247917488962
30
0
41
1
10
163.761578500189
20
8.31947020178755
30
0
41
1
10
163.883083029888
20
8.65591254983103
30
0
41
1
10
163.948211271218
20
8.82297859803812
30
0
0
SPLINE
5
162
100
AcDbEntity
8
1
62
256
6
ByLayer
370
18
48
1
60
0
100
AcDbSpline
70
4
71
3
72
13
73
9
40
0
40
0
40
0
40
0
40
0.172591138089511
40
0.34568900063157
40
0.530036611257708
40
0.71818236359349
40
0.858856692619823
40
1
40
1
40
1
40
1
41
1
10
164.42877110636
20
11.4712873633432
30
0
41
1
10
164.417709539244
20
11.3173499114476
30
0
41
1
10
164.389723282273
20
11.0163127629045
30
0
41
1
10
164.328999747566
20
10.5884791983434
30
0
41
1
10
164.247237241284
20
10.1477876514428
30
0
41
1
10
164.155979800531
20
9.68458116841057
30
0
41
1
10
164.064574301801
20
9.22702563433876
30
0
41
1
10
163.989522294805
20
8.95815061191627
30
0
41
1
10
163.948211271218
20
8.82297859803812
30
0
0
SPLINE
5
163
100
AcDbEntity
8
1
62
256
6
ByLayer
370
18
48
1
60
0
100
AcDbSpline
70
4
71
3
72
12
73
8
40
0
40
0
40
0
40
0
40
0.185953919231307
40
0.37183097371733
40
0.563653871569587
40
0.781291837778863
40
1
40
1
40
1
40
1
41
1
10
164.914356063099
20
12.0023899892368
30
0
41
1
10
164.864096604449
20
11.9982840019357
30
0
41
1
10
164.769447421603
20
11.9763532414756
30
0
41
1
10
164.637950922515
20
11.8960971860659
30
0
41
1
10
164.530420517551
20
11.7783480490405
30
0
41
1
10
164.455079042855
20
11.6308689029686
30
0
41
1
10
164.432645547549
20
11.5258172529693
30
0
41
1
10
164.428772490635
20
11.4712873825785
30
0
0
SPLINE
5
164
100
AcDbEntity
8
1
62
256
6
ByLayer
370
18
48
1
60
0
100
AcDbSpline
70
4
71
3
72
13
73
9
40
0
40
0
40
0
40
0
40
0.0630849048525965
40
0.12613989822646
40
0.253293158693383
40
0.625856998567364
40
0.81287630194715
40
1
40
1
40
1
40
1
41
1
10
174.208973458678
20
12.407768268778
30
0
41
1
10
174.007441192201
20
12.4095980490827
30
0
41
1
10
173.60757885759
20
12.4120211398477
30
0
41
1
10
172.816893252056
20
12.4128474507092
30
0
41
1
10
171.103410203693
20
12.3918843888216
30
0
41
1
10
169.002263361979
20
12.2953377916786
30
0
41
1
10
166.690900972625
20
12.1286931522667
30
0
41
1
10
165.509709801496
20
12.0456005755077
30
0
41
1
10
164.914356108453
20
12.0023881599612
30
0
0
SPLINE
5
165
100
AcDbEntity
8
1
62
256
6
ByLayer
370
18
48
1
60
0
100
AcDbSpline
70
4
71
3
72
12
73
8
40
0
40
0
40
0
40
0
40
0.257670548960191
40
0.468377378491821
40
0.679044720779855
40
0.890449759660643
40
1
40
1
40
1
40
1
41
1
10
174.995646779543
20
11.5403294217596
30
0
41
1
10
175.001199636376
20
11.6604539327093
30
0
41
1
10
174.973180975865
20
11.8623849203547
30
0
41
1
10
174.825976511681
20
12.1272521641146
30
0
41
1
10
174.616051442043
20
12.3091008316867
30
0
41
1
10
174.395930656304
20
12.3936259982957
30
0
41
1
10
174.257529516642
20
12.4072110898964
30
0
41
1
10
174.208973458678
20
12.407768268778
30
0
0
SPLINE
5
166
100
AcDbEntity
8
1
62
256
6
ByLayer
370
18
48
1
60
0
100
AcDbSpline
70
4
71
3
72
10
73
6
40
0
40
0
40
0
40
0
40
0.276050913724157
40
0.561499284837048
40
1
40
1
40
1
40
1
41
1
10
174.995647169913
20
11.540329453391
30
0
41
1
10
174.997467463667
20
11.437654510455
30
0
41
1
10
175.000012713171
20
11.2287681368473
30
0
41
1
10
175.000339994457
20
10.8565658837751
30
0
41
1
10
174.996688224155
20
10.5870403842752
30
0
41
1
10
174.993045808796
20
10.4237504992851
30
0
0
SPLINE
5
167
100
AcDbEntity
8
1
62
256
6
ByLayer
370
18
48
1
60
0
100
AcDbSpline
70
4
71
3
72
10
73
6
40
0
40
0
40
0
40
0
40
0.213195560902851
40
0.606543736281698
40
1
40
1
40
1
40
1
41
1
10
174.993045808796
20
10.4237504992851
30
0
41
1
10
174.980154377402
20
10.3271378036832
30
0
41
1
10
174.931387107017
20
10.0555170789183
30
0
41
1
10
174.73766313039
20
9.63791009336024
30
0
41
1
10
174.616449067315
20
9.30126049559752
30
0
41
1
10
174.551396686576
20
9.13413632467965
30
0
0
SPLINE
5
168
100
AcDbEntity
8
1
62
256
6
ByLayer
370
18
48
1
60
0
100
AcDbSpline
70
4
71
3
72
13
73
9
40
0
40
0
40
0
40
0
40
0.177797687828083
40
0.357704096241005
40
0.547993449169145
40
0.743316762755633
40
0.871513472777816
40
1
40
1
40
1
40
1
41
1
10
174.423447609159
20
6.24801782340815
30
0
41
1
10
174.410830041869
20
6.42224872632328
30
0
41
1
10
174.386696844869
20
6.76897645660071
30
0
41
1
10
174.345344073758
20
7.28216065330384
30
0
41
1
10
174.3242841167
20
7.81258298517413
30
0
41
1
10
174.357146035254
20
8.32438588294639
30
0
41
1
10
174.442576641837
20
8.76770089011712
30
0
41
1
10
174.511416161798
20
9.01281189980215
30
0
41
1
10
174.551396686576
20
9.13413632467965
30
0
0
SPLINE
5
169
100
AcDbEntity
8
1
62
256
6
ByLayer
370
18
48
1
60
0
100
AcDbSpline
70
4
71
3
72
10
73
6
40
0
40
0
40
0
40
0
40
0.218597748582195
40
0.608516918404018
40
1
40
1
40
1
40
1
41
1
10
174.28999967275
20
5.8379117673238
30
0
41
1
10
174.311082147878
20
5.86264957471588
30
0
41
1
10
174.362867527419
20
5.93475774011939
30
0
41
1
10
174.416992917918
20
6.07532409931293
30
0
41
1
10
174.426661936132
20
6.18874431250538
30
0
41
1
10
174.423446246397
20
6.24801779808474
30
0
0
SPLINE
5
16A
100
AcDbEntity
8
1
62
256
6
ByLayer
370
18
48
1
60
0
100
AcDbSpline
70
4
71
2
72
6
73
3
40
0
40
0
40
0
40
1
40
1
40
1
41
1
10
171.209205207642
20
9.67272878407149
30
0
41
1
10
171.346242171317
20
9.32527026998844
30
0
41
1
10
171.347003763338
20
8.94597331954049
30
0
0
SPLINE
5
16B
100
AcDbEntity
8
1
62
256
6
ByLayer
370
18
48
1
60
0
100
AcDbSpline
70
4
71
3
72
34
73
30
40
0
40
0
40
0
40
0
40
0.0218711849420575
40
0.0609746489236366
40
0.100078088485884
40
0.139182616560583
40
0.178287169821965
40
0.217394592061455
40
0.256502046258675
40
0.295605535268437
40
0.334709114964451
40
0.37381780860677
40
0.412926473840328
40
0.452024478025778
40
0.49112256179589
40
0.530228973634174
40
0.569335403079479
40
0.608443604233641
40
0.647551791929975
40
0.686649995654107
40
0.725748045016058
40
0.764856213086599
40
0.803964417966549
40
0.843071132987644
40
0.882177821594678
40
0.921278587193636
40
0.960379234515599
40
0.999485701068052
40
1
40
1
40
1
40
1
41
1
10
169.340497628125
20
6.90180379275213
30
0
41
1
10
169.278579938703
20
6.90136540367365
30
0
41
1
10
169.107272141696
20
6.90826611506552
30
0
41
1
10
168.829154176545
20
6.95765986604181
30
0
41
1
10
168.519101131428
20
7.06933425756276
30
0
41
1
10
168.233949361791
20
7.23368020142332
30
0
41
1
10
167.980776942436
20
7.44404405213041
30
0
41
1
10
167.768231372461
20
7.69625894953354
30
0
41
1
10
167.600608468009
20
7.98161790214245
30
0
41
1
10
167.484653989743
20
8.29323503597082
30
0
41
1
10
167.421475264551
20
8.62140495360015
30
0
41
1
10
167.415124818406
20
8.95733302082543
30
0
41
1
10
167.463539253974
20
9.2913153491187
30
0
41
1
10
167.567595694352
20
9.61357762285895
30
0
41
1
10
167.722112451817
20
9.91568014522103
30
0
41
1
10
167.924752802025
20
10.1880557697891
30
0
41
1
10
168.16796393036
20
10.4243234272052
30
0
41
1
10
168.446398914922
20
10.6160933638848
30
0
41
1
10
168.750902783929
20
10.7597803109308
30
0
41
1
10
169.073686530267
20
10.8492605534665
30
0
41
1
10
169.405074152858
20
10.8842522668656
30
0
41
1
10
169.735882010273
20
10.8613973527406
30
0
41
1
10
170.05692575464
20
10.7836965874984
30
0
41
1
10
170.358386398083
20
10.6510555845009
30
0
41
1
10
170.632976877492
20
10.4695033839626
30
0
41
1
10
170.87044810148
20
10.2417583033611
30
0
41
1
10
171.069957719506
20
9.97792509066093
30
0
41
1
10
171.162615273243
20
9.77585760329671
30
0
41
1
10
171.208609116893
20
9.67405083376878
30
0
41
1
10
171.209205207642
20
9.67272878407149
30
0
0
SPLINE
5
16C
100
AcDbEntity
8
1
62
256
6
ByLayer
370
18
48
1
60
0
100
AcDbSpline
70
4
71
1
72
4
73
2
40
0
40
0
40
1
40
1
41
1
10
171.314313000835
20
8.79666104477014
30
0
41
1
10
171.31211780831
20
8.88445440526958
30
0
0
SPLINE
5
16D
100
AcDbEntity
8
1
62
256
6
ByLayer
370
18
48
1
60
0
100
AcDbSpline
70
4
71
1
72
4
73
2
40
0
40
0
40
1
40
1
41
1
10
171.312117808305
20
8.88445440535832
30
0
41
1
10
171.297999440948
20
9.03519702446688
30
0
0
SPLINE
5
16E
100
AcDbEntity
8
1
62
256
6
ByLayer
370
18
48
1
60
0
100
AcDbSpline
70
4
71
3
72
12
73
8
40
0
40
0
40
0
40
0
40
0.116946799633447
40
0.355555742493066
40
0.629294367277215
40
0.903032992061368
40
1
40
1
40
1
40
1
41
1
10
171.297999440948
20
9.03519702446688
30
0
41
1
10
171.291367972683
20
9.08327178112542
30
0
41
1
10
171.265321087758
20
9.22760019382392
30
0
41
1
10
171.186760629043
20
9.47591151464081
30
0
41
1
10
171.033749698584
20
9.76098556551087
30
0
41
1
10
170.864507435377
20
9.9645086724543
30
0
41
1
10
170.753331763687
20
10.0661068112922
30
0
41
1
10
170.723211241335
20
10.0917314992303
30
0
0
SPLINE
5
16F
100
AcDbEntity
8
1
62
256
6
ByLayer
370
18
48
1
60
0
100
AcDbSpline
70
4
71
3
72
11
73
7
40
0
40
0
40
0
40
0
40
0.159927181934759
40
0.388789046048378
40
0.617650910161994
40
1
40
1
40
1
40
1
41
1
10
168.555775915247
20
7.32912661698565
30
0
41
1
10
168.492707816215
20
7.37567263472562
30
0
41
1
10
168.349029476491
20
7.49805696835545
30
0
41
1
10
168.155019985871
20
7.7311378286634
30
0
41
1
10
167.958924521539
20
8.09703868995877
30
0
41
1
10
167.891557324697
20
8.38953829482755
30
0
41
1
10
167.877876073672
20
8.58506041032053
30
0
0
SPLINE
5
170
100
AcDbEntity
8
1
62
256
6
ByLayer
370
18
48
1
60
0
100
AcDbSpline
70
4
71
3
72
13
73
9
40
0
40
0
40
0
40
0
40
0.0983600793390456
40
0.291243182627577
40
0.48326982352248
40
0.673392919692304
40
0.861096471212637
40
1
40
1
40
1
40
1
41
1
10
170.548536611001
20
9.79128996456306
30
0
41
1
10
170.582346184507
20
9.76862562180307
30
0
41
1
10
170.67861351972
20
9.69704365682568
30
0
41
1
10
170.821187118257
20
9.55490470960547
30
0
41
1
10
170.957076713128
20
9.35449979874425
30
0
41
1
10
171.054025796116
20
9.13039326194425
30
0
41
1
10
171.104370099808
20
8.90961535165895
30
0
41
1
10
171.113845882472
20
8.76563910556098
30
0
41
1
10
171.113954315498
20
8.70326476781264
30
0
0
SPLINE
5
171
100
AcDbEntity
8
1
62
256
6
ByLayer
370
18
48
1
60
0
100
AcDbSpline
70
4
71
3
72
20
73
16
40
0
40
0
40
0
40
0
40
0.0324520608261287
40
0.114216869994142
40
0.19555887323087
40
0.276436235469455
40
0.357080899047895
40
0.437692381715368
40
0.518460692950122
40
0.599625587115012
40
0.681429733494902
40
0.764102007795051
40
0.847819121762279
40
0.932642504891909
40
1
40
1
40
1
40
1
41
1
10
171.113954315498
20
8.70326476781264
30
0
41
1
10
171.113960578656
20
8.67092317730801
30
0
41
1
10
171.110041900108
20
8.55724824964699
30
0
41
1
10
171.079495227165
20
8.36110486108165
30
0
41
1
10
170.999299246786
20
8.12409634639209
30
0
41
1
10
170.880058141102
20
7.90350485337697
30
0
41
1
10
170.725938368043
20
7.70654710827598
30
0
41
1
10
170.542085875918
20
7.53918076899451
30
0
41
1
10
170.334488165497
20
7.40637041238691
30
0
41
1
10
170.10968124518
20
7.31190722125391
30
0
41
1
10
169.874488013758
20
7.25841932319388
30
0
41
1
10
169.635799638896
20
7.24748360417172
30
0
41
1
10
169.400689807708
20
7.27958829735854
30
0
41
1
10
169.191926699103
20
7.34918577530605
30
0
41
1
10
169.068551890259
20
7.41496318831322
30
0
41
1
10
169.01585662524
20
7.44831488812486
30
0
0
INSERT
5
18A
100
AcDbEntity
8
2
62
256
6
ByLayer
370
25
48
1
60
0
100
AcDbBlockReference
2
DimnDraft3D22
10
0
20
0
30
0
41
1
42
1
43
1
50
0
210
0
220
0
230
1
0
LINE
5
70
100
AcDbEntity
8
81
62
256
6
ByLayer
370
18
48
1
60
0
100
AcDbLine
10
175
20
12.5
30
0
11
192.5
21
12.5
31
0
39
0
210
0
220
0
230
1
0
LINE
5
71
100
AcDbEntity
8
4
62
256
6
ByLayer
370
18
48
0.05
60
0
100
AcDbLine
10
0
20
0
30
0
11
175
21
0
31
0
39
0
210
0
220
0
230
1
0
LINE
5
73
100
AcDbEntity
8
SK4
62
256
6
ByLayer
370
18
48
0.05
60
0
100
AcDbLine
10
-36
20
0
30
0
11
180
21
0
31
0
39
0
210
0
220
0
230
1
0
LINE
5
75
100
AcDbEntity
8
80
62
256
6
ByLayer
370
18
48
1
60
0
100
AcDbLine
10
0
20
0
30
0
11
-17.5
21
0
31
0
39
0
210
0
220
0
230
1
0
LINE
5
76
100
AcDbEntity
8
1
62
256
6
ByLayer
370
18
48
1
60
0
100
AcDbLine
10
0.3
20
25
30
0
11
0
21
24.7
31
0
39
0
210
0
220
0
230
1
0
LINE
5
78
100
AcDbEntity
8
1
62
256
6
ByLayer
370
18
48
1
60
0
100
AcDbLine
10
0
20
-24.7
30
0
11
0.3
21
-25
31
0
39
0
210
0
220
0
230
1
0
LINE
5
79
100
AcDbEntity
8
1
62
256
6
ByLayer
370
18
48
1
60
0
100
AcDbLine
10
0.3
20
-25
30
0
11
20
21
-25
31
0
39
0
210
0
220
0
230
1
0
LINE
5
7A
100
AcDbEntity
8
1
62
256
6
ByLayer
370
18
48
1
60
0
100
AcDbLine
10
20
20
25
30
0
11
0.3
21
25
31
0
39
0
210
0
220
0
230
1
0
LINE
5
7B
100
AcDbEntity
8
1
62
256
6
ByLayer
370
18
48
1
60
0
100
AcDbLine
10
8.538675
20
7.529667
30
0
11
11.461325
21
7.529667
31
0
39
0
210
0
220
0
230
1
0
LINE
5
7C
100
AcDbEntity
8
1
62
256
6
ByLayer
370
18
48
1
60
0
100
AcDbLine
10
11.461325
20
23.83913
30
0
11
8.538675
21
23.83913
31
0
39
0
210
0
220
0
230
1
0
LINE
5
7D
100
AcDbEntity
8
1
62
256
6
ByLayer
370
18
48
1
60
0
100
AcDbLine
10
8.538675
20
-23.83913
30
0
11
11.461325
21
-23.83913
31
0
39
0
210
0
220
0
230
1
0
LINE
5
7E
100
AcDbEntity
8
1
62
256
6
ByLayer
370
18
48
1
60
0
100
AcDbLine
10
11.461325
20
-7.529667
30
0
11
8.538675
21
-7.529667
31
0
39
0
210
0
220
0
230
1
0
LINE
5
7F
100
AcDbEntity
8
1
62
256
6
ByLayer
370
18
48
1
60
0
100
AcDbLine
10
8.105662
20
23.666502
30
0
11
8.105662
21
8.055848
31
0
39
0
210
0
220
0
230
1
0
LINE
5
80
100
AcDbEntity
8
1
62
256
6
ByLayer
370
18
48
1
60
0
100
AcDbLine
10
8.538675
20
23.83913
30
0
11
8.538675
21
7.529667
31
0
39
0
210
0
220
0
230
1
0
LINE
5
81
100
AcDbEntity
8
1
62
256
6
ByLayer
370
18
48
1
60
0
100
AcDbLine
10
11.461325
20
-7.529667
30
0
11
11.461325
21
-23.83913
31
0
39
0
210
0
220
0
230
1
0
LINE
5
82
100
AcDbEntity
8
1
62
256
6
ByLayer
370
18
48
1
60
0
100
AcDbLine
10
11.894338
20
-8.055848
30
0
11
11.894338
21
-23.666502
31
0
39
0
210
0
220
0
230
1
0
LINE
5
83
100
AcDbEntity
8
1
62
256
6
ByLayer
370
18
48
1
60
0
100
AcDbLine
10
11.461325
20
23.83913
30
0
11
11.461325
21
7.529667
31
0
39
0
210
0
220
0
230
1
0
LINE
5
84
100
AcDbEntity
8
1
62
256
6
ByLayer
370
18
48
1
60
0
100
AcDbLine
10
11.894338
20
23.666502
30
0
11
11.894338
21
8.055848
31
0
39
0
210
0
220
0
230
1
0
LINE
5
85
100
AcDbEntity
8
1
62
256
6
ByLayer
370
18
48
1
60
0
100
AcDbLine
10
8.105662
20
-8.055848
30
0
11
8.105662
21
-23.666502
31
0
39
0
210
0
220
0
230
1
0
LINE
5
86
100
AcDbEntity
8
1
62
256
6
ByLayer
370
18
48
1
60
0
100
AcDbLine
10
8.538675
20
-7.529667
30
0
11
8.538675
21
-23.83913
31
0
39
0
210
0
220
0
230
1
0
LINE
5
87
100
AcDbEntity
8
1
62
256
6
ByLayer
370
18
48
1
60
0
100
AcDbLine
10
24.990876
20
-12.175893
30
0
11
157
21
-11.935
31
0
39
0
210
0
220
0
230
1
0
LINE
5
88
100
AcDbEntity
8
1
62
256
6
ByLayer
370
18
48
1
60
0
100
AcDbLine
10
157
20
11.935
30
0
11
24.990876
21
12.175893
31
0
39
0
210
0
220
0
230
1
0
LINE
5
89
100
AcDbEntity
8
1
62
256
6
ByLayer
370
18
48
1
60
0
100
AcDbLine
10
157.881287
20
11.935
30
0
11
157
21
11.935
31
0
39
0
210
0
220
0
230
1
0
LINE
5
8A
100
AcDbEntity
8
1
62
256
6
ByLayer
370
18
48
1
60
0
100
AcDbLine
10
157
20
-11.935
30
0
11
157.881287
21
-11.935
31
0
39
0
210
0
220
0
230
1
0
LINE
5
8B
100
AcDbEntity
8
1
62
256
6
ByLayer
370
18
48
1
60
0
100
AcDbLine
10
172.37255
20
-7.652772
30
0
11
172.486813
21
-7.575708
31
0
39
0
210
0
220
0
230
1
0
LINE
5
8C
100
AcDbEntity
8
1
62
256
6
ByLayer
370
18
48
1
60
0
100
AcDbLine
10
172.37255
20
-7.652772
30
0
11
172.37255
21
-8.116832
31
0
39
0
210
0
220
0
230
1
0
LINE
5
8D
100
AcDbEntity
8
1
62
256
6
ByLayer
370
18
48
1
60
0
100
AcDbLine
10
160.394634
20
9.914688
30
0
11
159.575747
21
11.385122
31
0
39
0
210
0
220
0
230
1
0
LINE
5
8E
100
AcDbEntity
8
1
62
256
6
ByLayer
370
18
48
1
60
0
100
AcDbLine
10
0.3
20
-25
30
0
11
0.3
21
25
31
0
39
0
210
0
220
0
230
1
0
LINE
5
8F
100
AcDbEntity
8
1
62
256
6
ByLayer
370
18
48
1
60
0
100
AcDbLine
10
0
20
-24.7
30
0
11
0
21
24.7
31
0
39
0
210
0
220
0
230
1
0
LINE
5
90
100
AcDbEntity
8
1
62
256
6
ByLayer
370
18
48
1
60
0
100
AcDbLine
10
20
20
-25
30
0
11
20
21
25
31
0
39
0
210
0
220
0
230
1
0
LINE
5
91
100
AcDbEntity
8
SK1
62
256
6
ByLayer
370
18
48
1
60
0
100
AcDbLine
10
-0.2
20
-17.833485
30
0
11
-0.2
21
-6.103448
31
0
39
0
210
0
220
0
230
1
0
LINE
5
93
100
AcDbEntity
8
SK1
62
256
6
ByLayer
370
18
48
1
60
0
100
AcDbLine
10
-1.307107
20
-3.918065
30
0
11
-1.307107
21
3.918065
31
0
39
0
210
0
220
0
230
1
0
LINE
5
94
100
AcDbEntity
8
SK1
62
256
6
ByLayer
370
18
48
1
60
0
100
AcDbLine
10
-0.2
20
6.103447
30
0
11
-0.2
21
17.833485
31
0
39
0
210
0
220
0
230
1
0
LINE
5
95
100
AcDbEntity
8
1
62
256
6
ByLayer
370
18
48
1
60
0
100
AcDbLine
10
24.990876
20
12.175893
30
0
11
24.990876
21
-12.175893
31
0
39
0
210
0
220
0
230
1
0
LINE
5
96
100
AcDbEntity
8
1
62
256
6
ByLayer
370
18
48
1
60
0
100
AcDbLine
10
157
20
11.935
30
0
11
157
21
-11.935
31
0
39
0
210
0
220
0
230
1
0
LINE
5
97
100
AcDbEntity
8
1
62
256
6
ByLayer
370
18
48
1
60
0
100
AcDbLine
10
163.487525
20
-11.456356
30
0
11
163.487525
21
7.004855
31
0
39
0
210
0
220
0
230
1
0
LINE
5
98
100
AcDbEntity
8
1
62
256
6
ByLayer
370
18
48
1
60
0
100
AcDbLine
10
163.487525
20
7.004855
30
0
11
163.487525
21
7.04387
31
0
39
0
210
0
220
0
230
1
0
LINE
5
99
100
AcDbEntity
8
1
62
256
6
ByLayer
370
18
48
1
60
0
100
AcDbLine
10
163.512469
20
7.037232
30
0
11
163.512469
21
-11.456404
31
0
39
0
210
0
220
0
230
1
0
LINE
5
9A
100
AcDbEntity
8
1
62
256
6
ByLayer
370
18
48
1
60
0
100
AcDbLine
10
166.372889
20
-10.382053
30
0
11
166.372889
21
6.722993
31
0
39
0
210
0
220
0
230
1
0
LINE
5
9B
100
AcDbEntity
8
1
62
256
6
ByLayer
370
18
48
1
60
0
100
AcDbLine
10
173.478901
20
-11.26574
30
0
11
173.478901
21
6.598865
31
0
39
0
210
0
220
0
230
1
0
LINE
5
9C
100
AcDbEntity
8
1
62
256
6
ByLayer
370
18
48
1
60
0
100
AcDbLine
10
174.286015
20
6.466479
30
0
11
174.286015
21
-10.514921
31
0
39
0
210
0
220
0
230
1
0
LINE
5
9D
100
AcDbEntity
8
1
62
256
6
ByLayer
370
18
48
1
60
0
100
AcDbLine
10
166.392924
20
6.722585
30
0
11
166.392924
21
-10.383294
31
0
39
0
210
0
220
0
230
1
0
LINE
5
9E
100
AcDbEntity
8
SK1
62
256
6
ByLayer
370
18
48
1
60
0
100
AcDbLine
10
-2.2
20
-17.514811
30
0
11
-2.2
21
17.514811
31
0
39
0
210
0
220
0
230
1
0
LINE
5
9F
100
AcDbEntity
8
SK1
62
256
6
ByLayer
370
18
48
1
60
0
100
AcDbLine
10
-28.5
20
-16.854298
30
0
11
-28.5
21
16.854298
31
0
39
0
210
0
220
0
230
1
0
LINE
5
A0
100
AcDbEntity
8
SK1
62
256
6
ByLayer
370
18
48
1
60
0
100
AcDbLine
10
-1.99504
20
-17.319966
30
0
11
-1.99504
21
17.319966
31
0
39
0
210
0
220
0
230
1
0
LINE
5
A1
100
AcDbEntity
8
SK1
62
256
6
ByLayer
370
18
48
1
60
0
100
AcDbLine
10
-0.394977
20
-17.360151
30
0
11
-0.394977
21
-5.386782
31
0
39
0
210
0
220
0
230
1
0
LINE
5
A2
100
AcDbEntity
8
SK1
62
256
6
ByLayer
370
18
48
1
60
0
100
AcDbLine
10
-0.394977
20
5.386782
30
0
11
-0.394977
21
17.360151
31
0
39
0
210
0
220
0
230
1
0
LINE
5
A3
100
AcDbEntity
8
SK1
62
256
6
ByLayer
370
18
48
1
60
0
100
AcDbLine
10
-30
20
15.992505
30
0
11
-30
21
-15.992505
31
0
39
0
210
0
220
0
230
1
0
MTEXT
5
172
100
AcDbEntity
8
SK6
62
256
6
ByLayer
370
13
48
1
60
0
100
AcDbMText
10
5.132143
20
62.296798
30
0
210
0
220
0
230
1
1
\W0.7176;R390-025C5D-11L175
40
3.5
41
0
44
1.084337
50
0
71
7
72
5
7
iso_b_vert
0
DIMENSION
5
180
100
AcDbEntity
8
2
62
256
6
ByLayer
370
13
48
1
60
0
100
AcDbDimension
2
DimnDraft3D1
10
175
20
58.666811
30
0
11
84.813783
21
58.666811
31
0
70
32
71
5
72
1
41
1
210
0
220
0
230
1
3
Standard
100
AcDbAlignedDimension
13
0
23
1.5875
33
0
14
175
24
14.0875
34
0
50
0
100
AcDbRotatedDimension
1001
ACAD
1000
DSTYLE
1002
{
1070
   279
1070
     0
1070
   173
1070
     1
1070
   340
1005
173
1070
   271
1070
     1
1070
   272
1070
     2
1070
    77
1070
     1
1070
    73
1070
     0
1070
   171
1070
     3
1070
   274
1070
     4
1070
   177
1070
     7
1070
   176
1070
     7
1070
   178
1070
     7
1070
    78
1070
     8
1070
    48
1040
-0.005
1070
    41
1041
3.175
1070
   147
1041
1.5875
1070
    42
1041
1.5875
1070
    44
1041
3.175
1070
   140
1041
3.175
1070
   343
1005
0
1070
   344
1005
0
1002
}
0
DIMENSION
5
195
100
AcDbEntity
8
2
62
256
6
ByLayer
370
13
48
1
60
0
100
AcDbDimension
2
DimnDraft3D3
10
202.087766
20
12.407768
30
0
11
196.531516
21
2.46898
31
0
70
33
71
5
72
1
41
1
210
0
220
0
230
1
3
Standard
100
AcDbAlignedDimension
13
175.796473
23
-12.407768
33
0
14
175.796473
24
12.407768
34
0
1001
ACAD
1000
DSTYLE
1002
{
1070
   279
1070
     0
1070
    74
1070
     0
1070
   173
1070
     1
1070
   340
1005
173
1070
   271
1070
     0
1070
   272
1070
     2
1070
    77
1070
     1
1070
    73
1070
     0
1070
   171
1070
     3
1070
   274
1070
     4
1070
   177
1070
     7
1070
   176
1070
     7
1070
   178
1070
     7
1070
    78
1070
     8
1070
    48
1040
-0.005
1070
    41
1041
3.175
1070
   147
1041
1.5875
1070
    42
1041
1.5875
1070
    44
1041
3.175
1070
   140
1041
3.175
1070
   343
1005
0
1070
   344
1005
0
1002
}
0
DIMENSION
5
1A1
100
AcDbEntity
8
SK2
62
256
6
ByLayer
370
13
48
1
60
0
100
AcDbDimension
2
DimnDraft3D4
10
-54.875108
20
-25
30
0
11
-54.081358
21
2.46898
31
0
70
33
71
5
72
1
41
1
210
0
220
0
230
1
3
Standard
100
AcDbAlignedDimension
13
-1.2875
23
25
33
0
14
-1.2875
24
-25
34
0
1001
ACAD
1000
DSTYLE
1002
{
1070
   279
1070
     0
1070
    74
1070
     0
1070
   173
1070
     1
1070
   340
1005
173
1070
   271
1070
     1
1070
   272
1070
     2
1070
    77
1070
     1
1070
    73
1070
     0
1070
   171
1070
     3
1070
   274
1070
     4
1070
   177
1070
     7
1070
   176
1070
     7
1070
   178
1070
     7
1070
    78
1070
     8
1070
    48
1040
-0.005
1070
    41
1041
3.175
1070
   147
1041
1.5875
1070
    42
1041
1.5875
1070
    44
1041
3.175
1070
   140
1041
3.175
1070
   343
1005
0
1070
   344
1005
0
1002
}
0
DIMENSION
5
1AB
100
AcDbEntity
8
SK2
62
256
6
ByLayer
370
13
48
1
60
0
100
AcDbDimension
2
DimnDraft3D5
10
164.914356
20
28.175496
30
0
11
168.457408
21
28.175496
31
0
70
32
71
5
72
1
41
1
210
0
220
0
230
1
3
Standard
100
AcDbAlignedDimension
13
175
23
14.0875
33
0
14
164.914356
24
13.58989
34
0
50
0
100
AcDbRotatedDimension
1001
ACAD
1000
DSTYLE
1002
{
1070
   279
1070
     0
1070
   173
1070
     1
1070
   340
1005
173
1070
   271
1070
     0
1070
   272
1070
     2
1070
    77
1070
     1
1070
    73
1070
     0
1070
   171
1070
     3
1070
   274
1070
     4
1070
   177
1070
     7
1070
   176
1070
     7
1070
   178
1070
     7
1070
    78
1070
     8
1070
    48
1040
-0.005
1070
    41
1041
3.175
1070
   147
1041
1.5875
1070
    42
1041
1.5875
1070
    44
1041
3.175
1070
   140
1041
3.175
1070
   343
1005
0
1070
   344
1005
0
1002
}
0
ENDSEC
0
SECTION
2
OBJECTS
0
DICTIONARY
5
216
330
0
100
AcDbDictionary
280
0
281
1
3
ACAD_GROUP
350
217
3
ACAD_MLINESTYLE
350
218
0
DICTIONARY
5
217
330
0
100
AcDbDictionary
280
0
281
1
0
DICTIONARY
5
218
330
0
100
AcDbDictionary
280
0
281
1
3
Standard
350
18
0
MLINESTYLE
5
18
330
218
100
AcDbMlineStyle
2
Standard
70
0
3

62
256
51
90
52
90
71
2
49
-0.5
62
256
6
ByLayer
49
0.5
62
256
6
ByLayer
0
RASTERVARIABLES
5
204
330

100
AcDbRasterVariables
90
0
70
1
71
1
72
1
0
ENDSEC
0
EOF
