0
SECTION
2
HEADER
9
$ACADVER
1
AC1015
9
$DWGCODEPAGE
3
ANSI_1252
9
$HANDSEED
5
1fa
9
$ANGBASE
50
0
9
$ANGDIR
70
0
9
$ATTMODE
70
1
9
$AUNITS
70
0
9
$AUPREC
70
0
9
$CECOLOR
62
256
9
$CELTSCALE
40
1
9
$CELTYPE
6
ByLayer
9
$CELWEIGHT
370
18
9
$CLAYER
8
0
9
$CMLJUST
70
0
9
$CMLSCALE
40
1
9
$CMLSTYLE
2
Standard
9
$DIMSTYLE
2
Standard
9
$TEXTSIZE
40
0.2
9
$TEXTSTYLE
7
Standard
9
$LUNITS
70
2
9
$LUPREC
70
4
9
$EXTNAMES
290
1
9
$INSUNITS
70
4
9
$LTSCALE
40
1
9
$LWDISPLAY
290
1
9
$PDMODE
70
0
9
$PDSIZE
40
0
9
$PLINEGEN
70
0
0
ENDSEC
0
SECTION
2
CLASSES
0
CLASS
1
RASTERVARIABLES
2
AcDbRasterVariables
3
ISM
90
0
280
0
281
0
0
ENDSEC
0
SECTION
2
TABLES
0
TABLE
2
VPORT
5
1f0
100
AcDbSymbolTable
0
VPORT
5
1
100
AcDbSymbolTableRecord
100
AcDbViewportTableRecord
2
*Active
70
0
10
0
20
0
11
1
21
1
12
-1
22
1
13
0
23
0
14
0.5
24
0.5
15
10
25
10
16
0
26
0
36
1
17
0
27
0
37
0
0
ENDTAB
0
TABLE
2
LTYPE
5
1f1
100
AcDbSymbolTable
0
LTYPE
5
14
100
AcDbSymbolTableRecord
100
AcDbLinetypeTableRecord
70
0
2
ByBlock
3

72
65
73
0
40
0
0
LTYPE
5
15
100
AcDbSymbolTableRecord
100
AcDbLinetypeTableRecord
70
0
2
ByLayer
3

72
65
73
0
40
0
0
LTYPE
5
16
100
AcDbSymbolTableRecord
100
AcDbLinetypeTableRecord
70
0
2
CONTINUOUS
3
Solid line
72
65
73
0
40
0
0
LTYPE
5
6A
100
AcDbSymbolTableRecord
100
AcDbLinetypeTableRecord
70
0
2
CENTER
3
____ _ ____ _ ____ _ ____
72
65
73
4
40
47.5
49
22
74
0
49
-8.5
74
0
49
8.5
74
0
49
-8.5
74
0
0
LTYPE
5
6B
100
AcDbSymbolTableRecord
100
AcDbLinetypeTableRecord
70
0
2
DASHED
3
__ __ __ __ __ __ __ __ __
72
65
73
2
40
25.72
49
12.86
74
0
49
-12.86
74
0
0
ENDTAB
0
TABLE
2
LAYER
5
1f2
100
AcDbSymbolTable
0
LAYER
5
10
100
AcDbSymbolTableRecord
100
AcDbLayerTableRecord
2
0
70
0
62
7
6
CONTINUOUS
290
1
370
-3
390
0
0
LAYER
5
6D
100
AcDbSymbolTableRecord
100
AcDbLayerTableRecord
2
80
70
0
62
-6
6
CONTINUOUS
290
1
370
-3
390
0
0
LAYER
5
6F
100
AcDbSymbolTableRecord
100
AcDbLayerTableRecord
2
81
70
0
62
-3
6
CONTINUOUS
290
1
370
-3
390
0
0
LAYER
5
72
100
AcDbSymbolTableRecord
100
AcDbLayerTableRecord
2
4
70
0
62
-2
6
CENTER
290
1
370
-3
390
0
0
LAYER
5
7C
100
AcDbSymbolTableRecord
100
AcDbLayerTableRecord
2
1
70
0
62
4
6
CONTINUOUS
290
1
370
-3
390
0
0
LAYER
5
14F
100
AcDbSymbolTableRecord
100
AcDbLayerTableRecord
2
2
70
0
62
7
6
CONTINUOUS
290
1
370
-3
390
0
0
LAYER
5
1dc
100
AcDbSymbolTableRecord
100
AcDbLayerTableRecord
2
SK4
70
0
62
2
6
CENTER
290
1
370
-3
390
0
0
LAYER
5
1dd
100
AcDbSymbolTableRecord
100
AcDbLayerTableRecord
2
SK1
70
0
62
4
6
CONTINUOUS
290
1
370
-3
390
0
0
LAYER
5
1de
100
AcDbSymbolTableRecord
100
AcDbLayerTableRecord
2
SK6
70
0
62
5
6
CONTINUOUS
290
1
370
-3
390
0
0
LAYER
5
1df
100
AcDbSymbolTableRecord
100
AcDbLayerTableRecord
2
SK2
70
0
62
7
6
CONTINUOUS
290
1
370
-3
390
0
0
ENDTAB
0
TABLE
2
STYLE
5
1f3
100
AcDbSymbolTable
0
STYLE
5
11
100
AcDbSymbolTableRecord
100
AcDbTextStyleTableRecord
2
Standard
3
txt
70
0
71
0
40
0
41
1
42
0
50
0
0
STYLE
5
14A
100
AcDbSymbolTableRecord
100
AcDbTextStyleTableRecord
2
iso_b_vert
3
simplex.shx
70
0
71
0
40
0
41
1
42
0
50
0
0
STYLE
5
14B
100
AcDbSymbolTableRecord
100
AcDbTextStyleTableRecord
2
DWGDirectTextStyle
3
simplex
70
0
71
0
40
0
41
1
42
0
50
0
0
ENDTAB
0
TABLE
2
DIMSTYLE
5
1f4
100
AcDbSymbolTable
100
AcDbDimStyleTable
0
DIMSTYLE
105
27
100
AcDbSymbolTableRecord
100
AcDbDimStyleTableRecord
2
Standard
70
0
3
<>
41
0.18
42
0.0625
44
0.18
140
0.18
147
0.09
73
0
74
0
77
1
271
2
275
0
278
52
280
0
340
11
0
ENDTAB
0
TABLE
2
VIEW
5
1f5
100
AcDbSymbolTable
0
ENDTAB
0
TABLE
2
UCS
5
1f6
100
AcDbSymbolTable
0
ENDTAB
0
TABLE
2
APPID
5
1f7
100
AcDbSymbolTable
0
APPID
5
12
100
AcDbSymbolTableRecord
100
AcDbRegAppTableRecord
2
ACAD
70
0
0
ENDTAB
0
TABLE
2
BLOCK_RECORD
5
1f8
100
AcDbSymbolTable
0
BLOCK_RECORD
5
1F
100
AcDbSymbolTableRecord
100
AcDbBlockTableRecord
2
*Model_Space
340
0
70
0
0
BLOCK_RECORD
5
1B
100
AcDbSymbolTableRecord
100
AcDbBlockTableRecord
2
*Paper_Space
340
0
70
0
0
BLOCK_RECORD
5
23
100
AcDbSymbolTableRecord
100
AcDbBlockTableRecord
2
*Paper_Space0
340
0
70
0
0
BLOCK_RECORD
5
14D
100
AcDbSymbolTableRecord
100
AcDbBlockTableRecord
2
DimnDraft3D1
340
0
70
0
0
BLOCK_RECORD
5
158
100
AcDbSymbolTableRecord
100
AcDbBlockTableRecord
2
DimnDraft3D2
340
0
70
0
0
BLOCK_RECORD
5
163
100
AcDbSymbolTableRecord
100
AcDbBlockTableRecord
2
DimnDraft3D3
340
0
70
0
0
BLOCK_RECORD
5
16F
100
AcDbSymbolTableRecord
100
AcDbBlockTableRecord
2
DimnDraft3D44
340
0
70
0
0
BLOCK_RECORD
5
179
100
AcDbSymbolTableRecord
100
AcDbBlockTableRecord
2
DimnDraft3D5
340
0
70
0
0
ENDTAB
0
ENDSEC
0
SECTION
2
BLOCKS
0
BLOCK
5
20
100
AcDbEntity
8
0
100
AcDbBlockBegin
2
*Model_Space
70
0
10
0
20
0
30
0
3
*Model_Space
0
ENDBLK
5
21
100
AcDbEntity
8
0
100
AcDbBlockEnd
0
BLOCK
5
1C
100
AcDbEntity
8
0
100
AcDbBlockBegin
2
*Paper_Space
70
0
10
0
20
0
30
0
3
*Paper_Space
0
ENDBLK
5
1D
100
AcDbEntity
8
0
100
AcDbBlockEnd
0
BLOCK
5
24
100
AcDbEntity
8
0
100
AcDbBlockBegin
2
*Paper_Space0
70
0
10
0
20
0
30
0
3
*Paper_Space0
0
ENDBLK
5
25
100
AcDbEntity
8
0
100
AcDbBlockEnd
0
BLOCK
5
155
100
AcDbEntity
8
0
100
AcDbBlockBegin
2
DimnDraft3D1
70
0
10
0
20
0
30
0
3
DimnDraft3D1
0
MTEXT
5
14E
100
AcDbEntity
8
2
62
256
6
ByLayer
370
13
48
1
60
0
100
AcDbMText
10
73.107533
20
39.633494
30
0
210
0
220
0
230
1
1
\W0.6217;150
40
3.175
41
0
44
1.084337
50
0
71
7
72
5
7
iso_b_vert
0
LINE
5
150
100
AcDbEntity
8
2
62
256
6
ByLayer
370
13
48
1
60
0
100
AcDbLine
10
0
20
1.5875
30
0
11
0
21
42.014744
31
0
39
0
210
0
220
0
230
1
0
LINE
5
151
100
AcDbEntity
8
2
62
256
6
ByLayer
370
13
48
1
60
0
100
AcDbLine
10
150
20
14.0875
30
0
11
150
21
42.014744
31
0
39
0
210
0
220
0
230
1
0
LINE
5
152
100
AcDbEntity
8
2
62
256
6
ByLayer
370
13
48
1
60
0
100
AcDbLine
10
0
20
38.839744
30
0
11
150
21
38.839744
31
0
39
0
210
0
220
0
230
1
0
SOLID
5
153
100
AcDbEntity
8
2
62
256
6
ByLayer
370
13
48
1
60
0
100
AcDbTrace
10
0
20
38.839744
30
0
11
3.174998
21
39.257741
31
0
12
3.175002
22
38.421748
32
0
13
0
23
38.839744
33
0
39
0
210
0
220
0
230
1
0
SOLID
5
154
100
AcDbEntity
8
2
62
256
6
ByLayer
370
13
48
1
60
0
100
AcDbTrace
10
150
20
38.839744
30
0
11
146.825002
21
38.421748
31
0
12
146.824998
22
39.257741
32
0
13
150
23
38.839744
33
0
39
0
210
0
220
0
230
1
0
ENDBLK
5
156
100
AcDbEntity
8
0
100
AcDbBlockEnd
0
BLOCK
5
160
100
AcDbEntity
8
0
100
AcDbBlockBegin
2
DimnDraft3D2
70
0
10
0
20
0
30
0
3
DimnDraft3D2
0
MTEXT
5
159
100
AcDbEntity
8
2
62
256
6
ByLayer
370
13
48
1
60
0
100
AcDbMText
10
169.103651
20
3.26273
30
0
210
0
220
0
230
1
1
\W0.6740;25
40
3.175
41
0
44
1.084337
50
90
71
7
72
5
7
iso_b_vert
0
MTEXT
5
15A
100
AcDbEntity
8
2
62
256
6
ByLayer
370
13
48
1
60
0
100
AcDbMText
10
169.103651
20
-3.856215
30
0
210
0
220
0
230
1
1
%%c
40
3.175
41
0
44
1.084337
50
90
71
7
72
5
7
iso_b_vert
0
LINE
5
15B
100
AcDbEntity
8
2
62
256
6
ByLayer
370
13
48
1
60
0
100
AcDbLine
10
151.071588
20
12.407768
30
0
11
173.866151
21
12.407768
31
0
39
0
210
0
220
0
230
1
0
LINE
5
15C
100
AcDbEntity
8
2
62
256
6
ByLayer
370
13
48
1
60
0
100
AcDbLine
10
151.071588
20
-12.407768
30
0
11
173.866151
21
-12.407768
31
0
39
0
210
0
220
0
230
1
0
LINE
5
15D
100
AcDbEntity
8
2
62
256
6
ByLayer
370
13
48
1
60
0
100
AcDbLine
10
170.691151
20
12.407768
30
0
11
170.691151
21
-12.407768
31
0
39
0
210
0
220
0
230
1
0
SOLID
5
15E
100
AcDbEntity
8
2
62
256
6
ByLayer
370
13
48
1
60
0
100
AcDbTrace
10
170.691151
20
12.407768
30
0
11
171.109148
21
9.23277
31
0
12
170.273154
22
9.232767
32
0
13
170.691151
23
12.407768
33
0
39
0
210
0
220
0
230
1
0
SOLID
5
15F
100
AcDbEntity
8
2
62
256
6
ByLayer
370
13
48
1
60
0
100
AcDbTrace
10
170.691151
20
-12.407768
30
0
11
170.273154
21
-9.23277
31
0
12
171.109148
22
-9.232767
32
0
13
170.691151
23
-12.407768
33
0
39
0
210
0
220
0
230
1
0
ENDBLK
5
161
100
AcDbEntity
8
0
100
AcDbBlockEnd
0
BLOCK
5
16C
100
AcDbEntity
8
0
100
AcDbBlockBegin
2
DimnDraft3D3
70
0
10
0
20
0
30
0
3
DimnDraft3D3
0
MTEXT
5
164
100
AcDbEntity
8
SK2
62
256
6
ByLayer
370
13
48
1
60
0
100
AcDbMText
10
-71.66478
20
3.26273
30
0
210
0
220
0
230
1
1
\W0.6740;25
40
3.175
41
0
44
1.084337
50
90
71
7
72
5
7
iso_b_vert
0
MTEXT
5
166
100
AcDbEntity
8
SK2
62
256
6
ByLayer
370
13
48
1
60
0
100
AcDbMText
10
-71.66478
20
-3.856215
30
0
210
0
220
0
230
1
1
%%c
40
3.175
41
0
44
1.084337
50
90
71
7
72
5
7
iso_b_vert
0
LINE
5
167
100
AcDbEntity
8
SK2
62
256
6
ByLayer
370
13
48
1
60
0
100
AcDbLine
10
-58.312386
20
-12.49675
30
0
11
-73.25228
21
-12.49675
31
0
39
0
210
0
220
0
230
1
0
LINE
5
168
100
AcDbEntity
8
SK2
62
256
6
ByLayer
370
13
48
1
60
0
100
AcDbLine
10
-58.312386
20
12.49675
30
0
11
-73.25228
21
12.49675
31
0
39
0
210
0
220
0
230
1
0
LINE
5
169
100
AcDbEntity
8
SK2
62
256
6
ByLayer
370
13
48
1
60
0
100
AcDbLine
10
-70.07728
20
-12.49675
30
0
11
-70.07728
21
12.49675
31
0
39
0
210
0
220
0
230
1
0
SOLID
5
16A
100
AcDbEntity
8
SK2
62
256
6
ByLayer
370
13
48
1
60
0
100
AcDbTrace
10
-70.07728
20
-12.49675
30
0
11
-70.495277
21
-9.321752
31
0
12
-69.659283
22
-9.321748
32
0
13
-70.07728
23
-12.49675
33
0
39
0
210
0
220
0
230
1
0
SOLID
5
16B
100
AcDbEntity
8
SK2
62
256
6
ByLayer
370
13
48
1
60
0
100
AcDbTrace
10
-70.07728
20
12.49675
30
0
11
-69.659283
21
9.321752
31
0
12
-70.495277
22
9.321748
32
0
13
-70.07728
23
12.49675
33
0
39
0
210
0
220
0
230
1
0
ENDBLK
5
16D
100
AcDbEntity
8
0
100
AcDbBlockEnd
0
BLOCK
5
170
100
AcDbEntity
8
0
100
AcDbBlockBegin
2
DimnDraft3D44
70
0
10
0
20
0
30
0
3
DimnDraft3D44
0
LINE
5
172
100
AcDbEntity
8
SK2
62
256
6
ByLayer
370
25
48
1
60
0
100
AcDbLine
10
150
20
14.0875
30
0
11
150
21
53.000317
31
0
39
0
210
0
220
0
230
1
0
LINE
5
173
100
AcDbEntity
8
SK2
62
256
6
ByLayer
370
25
48
1
60
0
100
AcDbLine
10
-57.724886
20
13.08425
30
0
11
-57.724886
21
53.000317
31
0
39
0
210
0
220
0
230
1
0
LINE
5
174
100
AcDbEntity
8
SK2
62
256
6
ByLayer
370
25
48
1
60
0
100
AcDbLine
10
150
20
49.825317
30
0
11
-57.724886
21
49.825317
31
0
39
0
210
0
220
0
230
1
0
SOLID
5
175
100
AcDbEntity
8
SK2
62
256
6
ByLayer
370
25
48
1
60
0
100
AcDbTrace
10
150
20
49.825317
30
0
11
146.825002
21
49.407321
31
0
12
146.824998
22
50.243314
32
0
13
150
23
49.825317
33
0
39
0
210
0
220
0
230
1
0
SOLID
5
176
100
AcDbEntity
8
SK2
62
256
6
ByLayer
370
25
48
1
60
0
100
AcDbTrace
10
-57.724886
20
49.825317
30
0
11
-54.549887
21
50.243314
31
0
12
-54.549884
22
49.407321
32
0
13
-57.724886
23
49.825317
33
0
39
0
210
0
220
0
230
1
0
MTEXT
5
177
100
AcDbEntity
8
SK2
62
256
6
ByLayer
370
13
48
1
60
0
100
AcDbMText
10
43.848215
20
50.619067
30
0
210
0
220
0
230
1
1
\W0.7138;208
40
3.175
41
0
44
1.084337
50
0
71
7
72
5
7
iso_b_vert
0
ENDBLK
5
171
100
AcDbEntity
8
0
100
AcDbBlockEnd
0
BLOCK
5
180
100
AcDbEntity
8
0
100
AcDbBlockBegin
2
DimnDraft3D5
70
0
10
0
20
0
30
0
3
DimnDraft3D5
0
MTEXT
5
17A
100
AcDbEntity
8
SK2
62
256
6
ByLayer
370
13
48
1
60
0
100
AcDbMText
10
144.388715
20
28.547344
30
0
210
0
220
0
230
1
1
\W0.5321;10
40
3.175
41
0
44
1.084337
50
0
71
7
72
5
7
iso_b_vert
0
LINE
5
17B
100
AcDbEntity
8
SK2
62
256
6
ByLayer
370
13
48
1
60
0
100
AcDbLine
10
150
20
14.0875
30
0
11
150
21
30.928594
31
0
39
0
210
0
220
0
230
1
0
LINE
5
17C
100
AcDbEntity
8
SK2
62
256
6
ByLayer
370
13
48
1
60
0
100
AcDbLine
10
140.18947
20
13.58989
30
0
11
140.18947
21
30.928594
31
0
39
0
210
0
220
0
230
1
0
LINE
5
17D
100
AcDbEntity
8
SK2
62
256
6
ByLayer
370
13
48
1
60
0
100
AcDbLine
10
150
20
27.753594
30
0
11
140.18947
21
27.753594
31
0
39
0
210
0
220
0
230
1
0
SOLID
5
17E
100
AcDbEntity
8
SK2
62
256
6
ByLayer
370
13
48
1
60
0
100
AcDbTrace
10
150
20
27.753594
30
0
11
146.825002
21
27.335597
31
0
12
146.824998
22
28.171591
32
0
13
150
23
27.753594
33
0
39
0
210
0
220
0
230
1
0
SOLID
5
17F
100
AcDbEntity
8
SK2
62
256
6
ByLayer
370
13
48
1
60
0
100
AcDbTrace
10
140.18947
20
27.753594
30
0
11
143.364469
21
28.171591
31
0
12
143.364472
22
27.335597
32
0
13
140.18947
23
27.753594
33
0
39
0
210
0
220
0
230
1
0
ENDBLK
5
181
100
AcDbEntity
8
0
100
AcDbBlockEnd
0
ENDSEC
0
SECTION
2
ENTITIES
0
ARC
5
94
100
AcDbEntity
8
SK1
62
256
6
ByLayer
370
18
48
1
60
0
100
AcDbCircle
39
0
10
-0.00188
20
-13.183636
30
0
40
1
210
0
220
0
230
-1
100
AcDbArc
50
43.384084
51
89.892301
0
ARC
5
95
100
AcDbEntity
8
SK1
62
256
6
ByLayer
370
18
48
1
60
0
100
AcDbCircle
39
0
10
-0.00188
20
13.183636
30
0
40
1
210
0
220
0
230
-1
100
AcDbArc
50
270.107699
51
316.615916
0
ARC
5
96
100
AcDbEntity
8
1
62
256
6
ByLayer
370
18
48
1
60
0
100
AcDbCircle
39
0
10
-132.275866
20
12.735
30
0
40
0.8
210
0
220
0
230
-1
100
AcDbArc
50
270
51
270.107699
0
ARC
5
97
100
AcDbEntity
8
1
62
256
6
ByLayer
370
18
48
1
60
0
100
AcDbCircle
39
0
10
-132.275866
20
-12.735
30
0
40
0.8
210
0
220
0
230
-1
100
AcDbArc
50
89.892301
51
90
0
ELLIPSE
5
98
100
AcDbEntity
8
1
62
256
6
ByLayer
370
18
48
1
60
0
100
AcDbEllipse
10
144.869464
20
8.746186
30
0
11
0.982419980247135
21
1.45665647204177
31
0
210
0
220
0
230
1
40
0.969193
41
-0.107991816851357
42
2.24245899427669
0
ELLIPSE
5
99
100
AcDbEntity
8
1
62
256
6
ByLayer
370
18
48
1
60
0
100
AcDbEllipse
10
144.869464
20
8.746186
30
0
11
0.982419980251034
21
1.45665647203844
31
0
210
0
220
0
230
1
40
0.969193
41
3.10124005914007
42
-1.8405418834986
0
ELLIPSE
5
9A
100
AcDbEntity
8
1
62
256
6
ByLayer
370
18
48
1
60
0
100
AcDbEllipse
10
145.043854
20
8.628571
30
0
11
0.782811346160427
21
1.16069220567836
31
0
210
0
220
0
230
1
40
0.969193
41
0.00286386383693373
42
3.14159265358979
0
ELLIPSE
5
9B
100
AcDbEntity
8
1
62
256
6
ByLayer
370
18
48
1
60
0
100
AcDbEllipse
10
145.236574
20
8.498594
30
0
11
0.782811346160123
21
1.16069220567856
31
0
210
0
220
0
230
1
40
0.969193
41
0
42
3.14159265358979
0
ELLIPSE
5
9C
100
AcDbEntity
8
1
62
256
6
ByLayer
370
18
48
1
60
0
100
AcDbEllipse
10
145.043864
20
8.628586
30
0
11
0.7828181189045
21
1.16070909132256
31
0
210
0
220
0
230
1
40
0.969186
41
3.14159000458466
42
-3.11368488089803
0
ELLIPSE
5
9D
100
AcDbEntity
8
1
62
256
6
ByLayer
370
18
48
1
60
0
100
AcDbEllipse
10
146.138431
20
-7.637223
30
0
11
-0.838726442311624
21
1.24359879180053
31
0
210
0
220
0
230
1
40
0.969193
41
-2.17874707851467
42
-0.0820138309137878
0
ELLIPSE
5
9E
100
AcDbEntity
8
1
62
256
6
ByLayer
370
18
48
1
60
0
100
AcDbEllipse
10
141.998686
20
13.578511
30
0
11
6.85661318581572
21
5.02366033966784
31
0
210
0
220
0
230
1
40
0.984077
41
3.01838181310522
42
3.04578450314642
0
ELLIPSE
5
9F
100
AcDbEntity
8
1
62
256
6
ByLayer
370
18
48
1
60
0
100
AcDbEllipse
10
146.138431
20
-7.637223
30
0
11
1.50000000015509
21
0
31
0
210
0
220
0
230
1
40
0.140686
41
-2.95583141673587
42
-2.52876354627957
0
ELLIPSE
5
A0
100
AcDbEntity
8
1
62
256
6
ByLayer
370
18
48
1
60
0
100
AcDbEllipse
10
146.138431
20
-7.637223
30
0
11
1.49999999999535
21
0
31
0
210
0
220
0
230
1
40
0.140686
41
-1.02412658393988
42
-0.205648738298282
0
ELLIPSE
5
A1
100
AcDbEntity
8
1
62
256
6
ByLayer
370
18
48
1
60
0
100
AcDbEllipse
10
145.914796
20
-7.78805
30
0
11
-0.57312973546015
21
0.849792507790894
31
0
210
0
220
0
230
1
40
0.969193
41
1.27246024780472E-10
42
0.962845575208795
0
ELLIPSE
5
A2
100
AcDbEntity
8
1
62
256
6
ByLayer
370
18
48
1
60
0
100
AcDbEllipse
10
145.914796
20
-7.78805
30
0
11
-0.57312973557908
21
0.849792507730754
31
0
210
0
220
0
230
1
40
0.969193
41
-2.17874707851324
42
0
0
ELLIPSE
5
A3
100
AcDbEntity
8
1
62
256
6
ByLayer
370
18
48
1
60
0
100
AcDbEllipse
10
145.204712
20
-8.266956
30
0
11
-0.573129735581178
21
0.849792507729157
31
0
210
0
220
0
230
1
40
0.969193
41
-2.75311074293326
42
-0.445688522032191
0
ELLIPSE
5
A4
100
AcDbEntity
8
1
62
256
6
ByLayer
370
18
48
1
60
0
100
AcDbEllipse
10
140.341486
20
-11.91471
30
0
11
0.416670815373991
21
1.52316669749376
31
0
210
0
220
0
230
1
40
0.373537
41
0.643281627240764
42
1.18169954840638
0
ELLIPSE
5
A5
100
AcDbEntity
8
1
62
256
6
ByLayer
370
18
48
1
60
0
100
AcDbEllipse
10
135.894512
20
10.155657
30
0
11
1.31120866291821
21
0.728513446884457
31
0
210
0
220
0
230
1
40
0.176389
41
-3.11939788807652
42
-1.54860156128236
0
ELLIPSE
5
A6
100
AcDbEntity
8
1
62
256
6
ByLayer
370
18
48
1
60
0
100
AcDbEllipse
10
142.15624
20
13.363445
30
0
11
5.6465799295767
21
4.13716510379416
31
0
210
0
220
0
230
1
40
0.984078
41
3.01837438582393
42
-2.79156156518945
0
ELLIPSE
5
A7
100
AcDbEntity
8
1
62
256
6
ByLayer
370
18
48
1
60
0
100
AcDbEllipse
10
145.17868
20
8.284513
30
0
11
0.836999992847234
21
1.24103894586699
31
0
210
0
220
0
230
1
40
0.969193
41
-0.227485553753973
42
1.39103523580117
0
ELLIPSE
5
A8
100
AcDbEntity
8
1
62
256
6
ByLayer
370
18
48
1
60
0
100
AcDbEllipse
10
145.204712
20
8.266956
30
0
11
0.573129735623259
21
0.849792507709343
31
0
210
0
220
0
230
1
40
0.969193
41
-0.991854340099693
42
0
0
ELLIPSE
5
A9
100
AcDbEntity
8
1
62
256
6
ByLayer
370
18
48
1
60
0
100
AcDbEllipse
10
145.204712
20
8.266956
30
0
11
0.573129735427173
21
0.849792507888987
31
0
210
0
220
0
230
1
40
0.969193
41
3.1415926533845
42
-2.57880933803495
0
ELLIPSE
5
AA
100
AcDbEntity
8
1
62
256
6
ByLayer
370
18
48
1
60
0
100
AcDbEllipse
10
145.204712
20
8.266956
30
0
11
0.573129735300615
21
0.849792507878957
31
0
210
0
220
0
230
1
40
0.969193
41
-1.50697253609521
42
-0.991854340449149
0
ELLIPSE
5
AB
100
AcDbEntity
8
1
62
256
6
ByLayer
370
18
48
1
60
0
100
AcDbEllipse
10
145.204712
20
8.266956
30
0
11
0.573129735581534
21
0.849792507728946
31
0
210
0
220
0
230
1
40
0.969193
41
0
42
3.14159265358979
0
ELLIPSE
5
AC
100
AcDbEntity
8
1
62
256
6
ByLayer
370
18
48
1
60
0
100
AcDbEllipse
10
145.914796
20
7.78805
30
0
11
0.573129733950106
21
0.849792508608352
31
0
210
0
220
0
230
1
40
0.969193
41
2.17874707668616
42
2.69590412978197
0
ELLIPSE
5
AD
100
AcDbEntity
8
1
62
256
6
ByLayer
370
18
48
1
60
0
100
AcDbEllipse
10
145.043854
20
-8.628571
30
0
11
-0.782811346268514
21
1.16069220559152
31
0
210
0
220
0
230
1
40
0.969193
41
-1.35357648311445
42
-0.698181618066596
0
ELLIPSE
5
AE
100
AcDbEntity
8
1
62
256
6
ByLayer
370
18
48
1
60
0
100
AcDbEllipse
10
144.869464
20
8.746186
30
0
11
0.982419980247135
21
1.45665647204177
31
0
210
0
220
0
230
1
40
0.969193
41
-0.107991816851357
42
2.24245899427669
0
ELLIPSE
5
AF
100
AcDbEntity
8
1
62
256
6
ByLayer
370
18
48
1
60
0
100
AcDbEllipse
10
144.869464
20
8.746186
30
0
11
0.982419979881599
21
1.45665647223723
31
0
210
0
220
0
230
1
40
0.969193
41
-1.27938111981515
42
-0.96284557530263
0
ELLIPSE
5
B0
100
AcDbEntity
8
1
62
256
6
ByLayer
370
18
48
1
60
0
100
AcDbEllipse
10
144.869464
20
8.746186
30
0
11
0.982419980243049
21
1.45665647204506
31
0
210
0
220
0
230
1
40
0.969193
41
3.1012400591344
42
-1.72127661867291
0
ELLIPSE
5
B1
100
AcDbEntity
8
1
62
256
6
ByLayer
370
18
48
1
60
0
100
AcDbEllipse
10
145.043854
20
8.628571
30
0
11
0.782811346160427
21
1.16069220567836
31
0
210
0
220
0
230
1
40
0.969193
41
0.00286386383693373
42
3.14159265358979
0
ELLIPSE
5
B2
100
AcDbEntity
8
1
62
256
6
ByLayer
370
18
48
1
60
0
100
AcDbEllipse
10
145.236574
20
8.498594
30
0
11
0.782811346160123
21
1.16069220567856
31
0
210
0
220
0
230
1
40
0.969193
41
0
42
3.14159265358979
0
ELLIPSE
5
B3
100
AcDbEntity
8
1
62
256
6
ByLayer
370
18
48
1
60
0
100
AcDbEllipse
10
145.043864
20
8.628586
30
0
11
0.7828181189045
21
1.16070909132256
31
0
210
0
220
0
230
1
40
0.969186
41
3.14159000458466
42
-3.11368488089803
0
ELLIPSE
5
B4
100
AcDbEntity
8
1
62
256
6
ByLayer
370
18
48
1
60
0
100
AcDbEllipse
10
139.824788
20
0
30
0
11
-6.69524498809001
21
11.9343180284572
31
0
210
0
220
0
230
1
40
0.019056
41
-0.0106902834374764
42
0.483199198673102
0
ELLIPSE
5
B5
100
AcDbEntity
8
1
62
256
6
ByLayer
370
18
48
1
60
0
100
AcDbEllipse
10
152.867525
20
1E-06
30
0
11
112.987826284343
21
1.73966150324202
31
0
210
0
220
0
230
1
40
0.104503
41
1.69434912473883
42
1.72581535765219
0
ELLIPSE
5
B6
100
AcDbEntity
8
1
62
256
6
ByLayer
370
18
48
1
60
0
100
AcDbEllipse
10
139.824788
20
0
30
0
11
-6.69524498481207
21
11.9343180226041
31
0
210
0
220
0
230
1
40
0.019056
41
-0.202081949902594
42
-0.0106902834401794
0
ELLIPSE
5
B7
100
AcDbEntity
8
1
62
256
6
ByLayer
370
18
48
1
60
0
100
AcDbEllipse
10
152.867527
20
0
30
0
11
-112.987831895072
21
1.7396614333344
31
0
210
0
220
0
230
1
40
0.104503
41
1.41577729017961
42
1.44724352155911
0
ELLIPSE
5
B8
100
AcDbEntity
8
1
62
256
6
ByLayer
370
18
48
1
60
0
100
AcDbEllipse
10
139.824788
20
0
30
0
11
6.69524498960645
21
11.9343180311609
31
0
210
0
220
0
230
1
40
0.019056
41
-3.13090237015373
42
-2.93951070375993
0
ELLIPSE
5
B9
100
AcDbEntity
8
1
62
256
6
ByLayer
370
18
48
1
60
0
100
AcDbEllipse
10
141.26017
20
-0.08891
30
0
11
3.83367653439657
21
11.7775453087554
31
0
210
0
220
0
230
1
40
0.383218
41
-2.65970575381799
42
-2.65653374900709
0
ELLIPSE
5
BA
100
AcDbEntity
8
1
62
256
6
ByLayer
370
18
48
1
60
0
100
AcDbEllipse
10
682.79199
20
-6.663446
30
0
11
-756.998527843481
21
16.4886927604422
31
0
210
0
220
0
230
1
40
0.002854
41
-0.786705398107215
42
-0.77435565417397
0
ELLIPSE
5
BB
100
AcDbEntity
8
1
62
256
6
ByLayer
370
18
48
1
60
0
100
AcDbEllipse
10
161.926651
20
-0.07212
30
0
11
-57.6471754952242
21
1.76691078628599
31
0
210
0
220
0
230
1
40
0.20615
41
1.2384402197915
42
1.34657831376421
0
ELLIPSE
5
BC
100
AcDbEntity
8
1
62
256
6
ByLayer
370
18
48
1
60
0
100
AcDbEllipse
10
143.02932
20
0.002358
30
0
11
0.36354949796056
21
11.8561964667491
31
0
210
0
220
0
230
1
40
0.206336
41
-2.26872124330897
42
-2.25849155289418
0
ELLIPSE
5
BD
100
AcDbEntity
8
1
62
256
6
ByLayer
370
18
48
1
60
0
100
AcDbEllipse
10
146.093746
20
0.003101
30
0
11
0.364288357384637
21
11.8842567340297
31
0
210
0
220
0
230
1
40
0.206338
41
-2.33762665911095
42
-2.25598756823364
0
ELLIPSE
5
BE
100
AcDbEntity
8
1
62
256
6
ByLayer
370
18
48
1
60
0
100
AcDbEllipse
10
139.755492
20
7.018242
30
0
11
1.61317621228307
21
0.646919096712957
31
0
210
0
220
0
230
1
40
0.850219
41
2.19064769200498
42
2.32732924089271
0
ELLIPSE
5
BF
100
AcDbEntity
8
1
62
256
6
ByLayer
370
18
48
1
60
0
100
AcDbEllipse
10
140.55174
20
7.094847
30
0
11
-2.48293008679697
21
1.17998793576503
31
0
210
0
220
0
230
1
40
0.213983
41
0.608939230622108
42
0.622873678809931
0
ELLIPSE
5
C0
100
AcDbEntity
8
1
62
256
6
ByLayer
370
18
48
1
60
0
100
AcDbEllipse
10
139.802788
20
11.589209
30
0
11
1.12778687968134
21
6.71953127013408
31
0
210
0
220
0
230
1
40
0.145573
41
1.60798313643025
42
2.20094455065328
0
POINT
5
6C
100
AcDbEntity
8
80
62
256
6
ByLayer
370
18
48
1
60
0
100
AcDbPoint
10
0
20
0
30
0
39
0
210
0
220
0
230
1
50
360
0
POINT
5
6E
100
AcDbEntity
8
81
62
256
6
ByLayer
370
18
48
1
60
0
100
AcDbPoint
10
150
20
12.5
30
0
39
0
210
0
220
0
230
1
50
360
0
SPLINE
5
C1
100
AcDbEntity
8
1
62
256
6
ByLayer
370
18
48
1
60
0
100
AcDbSpline
70
4
71
3
72
17
73
13
40
0
40
0
40
0
40
0
40
0.105919182402699
40
0.211837752784288
40
0.317756155891384
40
0.423674452174804
40
0.529603395425185
40
0.635532246265281
40
0.741421214211513
40
0.847310060608489
40
0.953223252187184
40
1
40
1
40
1
40
1
41
1
10
146.62211795804
20
8.94597331954049
30
0
41
1
10
146.621855938299
20
8.83326800390037
30
0
41
1
10
146.603181484183
20
8.61095910744604
30
0
41
1
10
146.52036790743
20
8.28227998852931
30
0
41
1
10
146.383805755805
20
7.97194386564518
30
0
41
1
10
146.199198816042
20
7.68688532378246
30
0
41
1
10
145.969946047773
20
7.4366937857461
30
0
41
1
10
145.704262330731
20
7.22687722459657
30
0
41
1
10
145.408283718348
20
7.06523848447736
30
0
41
1
10
145.091622887962
20
6.95424961122926
30
0
41
1
10
144.823226635773
20
6.90961657449327
30
0
41
1
10
144.664445329617
20
6.90225767818113
30
0
41
1
10
144.615611822828
20
6.90180379275213
30
0
0
SPLINE
5
C2
100
AcDbEntity
8
1
62
256
6
ByLayer
370
18
48
1
60
0
100
AcDbSpline
70
4
71
1
72
4
73
2
40
0
40
0
40
1
40
1
41
1
10
138.772694888693
20
6.91510766491927
30
0
41
1
10
138.772704725908
20
6.93562664912413
30
0
0
SPLINE
5
C3
100
AcDbEntity
8
1
62
256
6
ByLayer
370
18
48
1
60
0
100
AcDbSpline
70
4
71
2
72
6
73
3
40
0
40
0
40
0
40
1
40
1
40
1
41
1
10
138.772704725908
20
6.93562664912413
30
0
41
1
10
138.77295446638
20
7.23511813197687
30
0
41
1
10
138.779658966059
20
7.53473397084385
30
0
0
SPLINE
5
C4
100
AcDbEntity
8
1
62
256
6
ByLayer
370
18
48
1
60
0
100
AcDbSpline
70
4
71
3
72
10
73
6
40
0
40
0
40
0
40
0
40
0.213208498211608
40
0.606550632732193
40
1
40
1
40
1
40
1
41
1
10
138.779658966059
20
7.53473397084385
30
0
41
1
10
138.792752794854
20
7.63121784291002
30
0
41
1
10
138.84206211582
20
7.90247917488961
30
0
41
1
10
139.036692694892
20
8.31947020178756
30
0
41
1
10
139.15819722459
20
8.65591254983103
30
0
41
1
10
139.22332546592
20
8.82297859803812
30
0
0
SPLINE
5
C5
100
AcDbEntity
8
1
62
256
6
ByLayer
370
18
48
1
60
0
100
AcDbSpline
70
4
71
3
72
13
73
9
40
0
40
0
40
0
40
0
40
0.172591138089506
40
0.345689000631569
40
0.530036611257689
40
0.718182363593488
40
0.85885669261982
40
1
40
1
40
1
40
1
41
1
10
139.703885301063
20
11.4712873633432
30
0
41
1
10
139.692823733947
20
11.3173499114476
30
0
41
1
10
139.664837476975
20
11.0163127629046
30
0
41
1
10
139.604113942268
20
10.5884791983434
30
0
41
1
10
139.522351435987
20
10.1477876514428
30
0
41
1
10
139.431093995234
20
9.68458116841058
30
0
41
1
10
139.339688496503
20
9.22702563433874
30
0
41
1
10
139.264636489508
20
8.95815061191627
30
0
41
1
10
139.22332546592
20
8.82297859803812
30
0
0
SPLINE
5
C6
100
AcDbEntity
8
1
62
256
6
ByLayer
370
18
48
1
60
0
100
AcDbSpline
70
4
71
3
72
12
73
8
40
0
40
0
40
0
40
0
40
0.185953919231303
40
0.371830973717352
40
0.563653871569581
40
0.781291837778868
40
1
40
1
40
1
40
1
41
1
10
140.189470257801
20
12.0023899892368
30
0
41
1
10
140.139210799151
20
11.9982840019357
30
0
41
1
10
140.044561616305
20
11.9763532414756
30
0
41
1
10
139.913065117218
20
11.8960971860659
30
0
41
1
10
139.805534712253
20
11.7783480490405
30
0
41
1
10
139.730193237557
20
11.6308689029686
30
0
41
1
10
139.707759742251
20
11.5258172529693
30
0
41
1
10
139.703886685338
20
11.4712873825785
30
0
0
SPLINE
5
C7
100
AcDbEntity
8
1
62
256
6
ByLayer
370
18
48
1
60
0
100
AcDbSpline
70
4
71
3
72
13
73
9
40
0
40
0
40
0
40
0
40
0.0630849048525909
40
0.126139898226449
40
0.253293158693382
40
0.625856998567362
40
0.812876301947144
40
1
40
1
40
1
40
1
41
1
10
149.48408765338
20
12.407768268778
30
0
41
1
10
149.282555386904
20
12.4095980490827
30
0
41
1
10
148.882693052293
20
12.4120211398477
30
0
41
1
10
148.092007446758
20
12.4128474507092
30
0
41
1
10
146.378524398395
20
12.3918843888216
30
0
41
1
10
144.277377556682
20
12.2953377916786
30
0
41
1
10
141.966015167328
20
12.1286931522666
30
0
41
1
10
140.784823996198
20
12.0456005755077
30
0
41
1
10
140.189470303155
20
12.0023881599612
30
0
0
SPLINE
5
C8
100
AcDbEntity
8
1
62
256
6
ByLayer
370
18
48
1
60
0
100
AcDbSpline
70
4
71
3
72
12
73
8
40
0
40
0
40
0
40
0
40
0.257670548960198
40
0.468377378491833
40
0.67904472077987
40
0.890449759660661
40
1
40
1
40
1
40
1
41
1
10
150.270760974245
20
11.5403294217596
30
0
41
1
10
150.276313831078
20
11.6604539327093
30
0
41
1
10
150.248295170568
20
11.8623849203547
30
0
41
1
10
150.101090706383
20
12.1272521641146
30
0
41
1
10
149.891165636745
20
12.3091008316867
30
0
41
1
10
149.671044851007
20
12.3936259982957
30
0
41
1
10
149.532643711344
20
12.4072110898964
30
0
41
1
10
149.48408765338
20
12.407768268778
30
0
0
SPLINE
5
C9
100
AcDbEntity
8
1
62
256
6
ByLayer
370
18
48
1
60
0
100
AcDbSpline
70
4
71
3
72
10
73
6
40
0
40
0
40
0
40
0
40
0.276050913724158
40
0.561499284837049
40
1
40
1
40
1
40
1
41
1
10
150.270761364615
20
11.540329453391
30
0
41
1
10
150.272581658369
20
11.437654510455
30
0
41
1
10
150.275126907874
20
11.2287681368473
30
0
41
1
10
150.275454189159
20
10.8565658837751
30
0
41
1
10
150.271802418857
20
10.5870403842752
30
0
41
1
10
150.268160003499
20
10.4237504992851
30
0
0
SPLINE
5
CA
100
AcDbEntity
8
1
62
256
6
ByLayer
370
18
48
1
60
0
100
AcDbSpline
70
4
71
3
72
10
73
6
40
0
40
0
40
0
40
0
40
0.213195560902851
40
0.606543736281692
40
1
40
1
40
1
40
1
41
1
10
150.268160003499
20
10.4237504992851
30
0
41
1
10
150.255268572105
20
10.3271378036832
30
0
41
1
10
150.20650130172
20
10.0555170789183
30
0
41
1
10
150.012777325092
20
9.63791009336023
30
0
41
1
10
149.891563262017
20
9.30126049559752
30
0
41
1
10
149.826510881278
20
9.13413632467965
30
0
0
SPLINE
5
CB
100
AcDbEntity
8
1
62
256
6
ByLayer
370
18
48
1
60
0
100
AcDbSpline
70
4
71
3
72
13
73
9
40
0
40
0
40
0
40
0
40
0.177797687828087
40
0.357704096241007
40
0.547993449169163
40
0.743316762755635
40
0.87151347277782
40
1
40
1
40
1
40
1
41
1
10
149.698561803861
20
6.24801782340815
30
0
41
1
10
149.685944236572
20
6.42224872632329
30
0
41
1
10
149.661811039571
20
6.76897645660071
30
0
41
1
10
149.62045826846
20
7.28216065330387
30
0
41
1
10
149.599398311402
20
7.81258298517414
30
0
41
1
10
149.632260229956
20
8.32438588294642
30
0
41
1
10
149.717690836539
20
8.7677008901171
30
0
41
1
10
149.786530356501
20
9.01281189980214
30
0
41
1
10
149.826510881278
20
9.13413632467965
30
0
0
SPLINE
5
CC
100
AcDbEntity
8
1
62
256
6
ByLayer
370
18
48
1
60
0
100
AcDbSpline
70
4
71
3
72
10
73
6
40
0
40
0
40
0
40
0
40
0.218597748582122
40
0.608516918403982
40
1
40
1
40
1
40
1
41
1
10
149.565113867453
20
5.83791176732381
30
0
41
1
10
149.586196342581
20
5.86264957471589
30
0
41
1
10
149.637981722121
20
5.93475774011941
30
0
41
1
10
149.692107112621
20
6.07532409931293
30
0
41
1
10
149.701776130834
20
6.18874431250538
30
0
41
1
10
149.6985604411
20
6.24801779808474
30
0
0
SPLINE
5
CD
100
AcDbEntity
8
1
62
256
6
ByLayer
370
18
48
1
60
0
100
AcDbSpline
70
4
71
2
72
6
73
3
40
0
40
0
40
0
40
1
40
1
40
1
41
1
10
146.484319402345
20
9.67272878407152
30
0
41
1
10
146.621356366019
20
9.32527026998843
30
0
41
1
10
146.62211795804
20
8.94597331954049
30
0
0
SPLINE
5
CE
100
AcDbEntity
8
1
62
256
6
ByLayer
370
18
48
1
60
0
100
AcDbSpline
70
4
71
3
72
34
73
30
40
0
40
0
40
0
40
0
40
0.0218711849420642
40
0.0609746489236428
40
0.10007808848589
40
0.139182616560586
40
0.178287169821968
40
0.217394592061457
40
0.256502046258679
40
0.295605535268441
40
0.334709114964455
40
0.373817808606773
40
0.412926473840332
40
0.45202447802578
40
0.491122561795892
40
0.530228973634177
40
0.569335403079482
40
0.608443604233639
40
0.647551791929978
40
0.686649995654113
40
0.72574804501606
40
0.764856213086598
40
0.803964417966548
40
0.843071132987643
40
0.882177821594676
40
0.921278587193636
40
0.960379234515597
40
0.99948570106805
40
1
40
1
40
1
40
1
41
1
10
144.615611822828
20
6.90180379275213
30
0
41
1
10
144.553694133406
20
6.90136540367365
30
0
41
1
10
144.382386336398
20
6.90826611506552
30
0
41
1
10
144.104268371247
20
6.95765986604182
30
0
41
1
10
143.79421532613
20
7.06933425756276
30
0
41
1
10
143.509063556493
20
7.23368020142333
30
0
41
1
10
143.255891137138
20
7.44404405213041
30
0
41
1
10
143.043345567163
20
7.69625894953355
30
0
41
1
10
142.875722662711
20
7.98161790214246
30
0
41
1
10
142.759768184445
20
8.29323503597081
30
0
41
1
10
142.696589459254
20
8.62140495360015
30
0
41
1
10
142.690239013108
20
8.95733302082543
30
0
41
1
10
142.738653448676
20
9.2913153491187
30
0
41
1
10
142.842709889055
20
9.61357762285896
30
0
41
1
10
142.99722664652
20
9.91568014522104
30
0
41
1
10
143.199866996728
20
10.1880557697891
30
0
41
1
10
143.443078125062
20
10.4243234272052
30
0
41
1
10
143.721513109624
20
10.6160933638849
30
0
41
1
10
144.026016978631
20
10.7597803109307
30
0
41
1
10
144.34880072497
20
10.8492605534665
30
0
41
1
10
144.68018834756
20
10.8842522668656
30
0
41
1
10
145.010996204976
20
10.8613973527406
30
0
41
1
10
145.332039949342
20
10.7836965874984
30
0
41
1
10
145.633500592786
20
10.6510555845009
30
0
41
1
10
145.908091072194
20
10.4695033839626
30
0
41
1
10
146.145562296183
20
10.2417583033611
30
0
41
1
10
146.345071914209
20
9.97792509066083
30
0
41
1
10
146.437729467944
20
9.77585760329691
30
0
41
1
10
146.483723311595
20
9.67405083376877
30
0
41
1
10
146.484319402345
20
9.67272878407152
30
0
0
SPLINE
5
CF
100
AcDbEntity
8
1
62
256
6
ByLayer
370
18
48
1
60
0
100
AcDbSpline
70
4
71
1
72
4
73
2
40
0
40
0
40
1
40
1
41
1
10
146.589427195537
20
8.79666104477014
30
0
41
1
10
146.587232003012
20
8.88445440526958
30
0
0
SPLINE
5
D0
100
AcDbEntity
8
1
62
256
6
ByLayer
370
18
48
1
60
0
100
AcDbSpline
70
4
71
1
72
4
73
2
40
0
40
0
40
1
40
1
41
1
10
146.587232003008
20
8.88445440535832
30
0
41
1
10
146.573113635651
20
9.03519702446688
30
0
0
SPLINE
5
D1
100
AcDbEntity
8
1
62
256
6
ByLayer
370
18
48
1
60
0
100
AcDbSpline
70
4
71
3
72
12
73
8
40
0
40
0
40
0
40
0
40
0.116946799633451
40
0.355555742493065
40
0.629294367277215
40
0.903032992061369
40
1
40
1
40
1
40
1
41
1
10
146.573113635651
20
9.03519702446688
30
0
41
1
10
146.566482167385
20
9.08327178112542
30
0
41
1
10
146.54043528246
20
9.22760019382392
30
0
41
1
10
146.461874823746
20
9.47591151464082
30
0
41
1
10
146.308863893286
20
9.76098556551087
30
0
41
1
10
146.139621630079
20
9.9645086724543
30
0
41
1
10
146.02844595839
20
10.0661068112922
30
0
41
1
10
145.998325436038
20
10.0917314992303
30
0
0
SPLINE
5
D2
100
AcDbEntity
8
1
62
256
6
ByLayer
370
18
48
1
60
0
100
AcDbSpline
70
4
71
3
72
11
73
7
40
0
40
0
40
0
40
0
40
0.159927181934759
40
0.38878904604838
40
0.617650910161997
40
1
40
1
40
1
40
1
41
1
10
143.83089010995
20
7.32912661698565
30
0
41
1
10
143.767822010917
20
7.37567263472562
30
0
41
1
10
143.624143671193
20
7.49805696835545
30
0
41
1
10
143.430134180574
20
7.7311378286634
30
0
41
1
10
143.234038716242
20
8.09703868995877
30
0
41
1
10
143.166671519399
20
8.38953829482756
30
0
41
1
10
143.152990268375
20
8.58506041032054
30
0
0
SPLINE
5
D3
100
AcDbEntity
8
1
62
256
6
ByLayer
370
18
48
1
60
0
100
AcDbSpline
70
4
71
3
72
13
73
9
40
0
40
0
40
0
40
0
40
0.0983600793391071
40
0.291243182627656
40
0.483269823522491
40
0.67339291969225
40
0.861096471212653
40
1
40
1
40
1
40
1
41
1
10
145.823650805703
20
9.79128996456305
30
0
41
1
10
145.857460379209
20
9.76862562180304
30
0
41
1
10
145.953727714423
20
9.69704365682563
30
0
41
1
10
146.09630131296
20
9.5549047096054
30
0
41
1
10
146.232190907831
20
9.35449979874424
30
0
41
1
10
146.329139990819
20
9.13039326194425
30
0
41
1
10
146.37948429451
20
8.90961535165896
30
0
41
1
10
146.388960077174
20
8.76563910556098
30
0
41
1
10
146.3890685102
20
8.70326476781265
30
0
0
SPLINE
5
D4
100
AcDbEntity
8
1
62
256
6
ByLayer
370
18
48
1
60
0
100
AcDbSpline
70
4
71
3
72
20
73
16
40
0
40
0
40
0
40
0
40
0.0324520608261289
40
0.114216869994141
40
0.195558873230868
40
0.276436235469452
40
0.357080899047898
40
0.43769238171537
40
0.518460692950124
40
0.599625587115005
40
0.681429733494895
40
0.764102007795052
40
0.847819121762271
40
0.932642504891909
40
1
40
1
40
1
40
1
41
1
10
146.3890685102
20
8.70326476781265
30
0
41
1
10
146.389074773358
20
8.67092317730801
30
0
41
1
10
146.38515609481
20
8.55724824964699
30
0
41
1
10
146.354609421867
20
8.36110486108164
30
0
41
1
10
146.274413441488
20
8.12409634639209
30
0
41
1
10
146.155172335805
20
7.90350485337696
30
0
41
1
10
146.001052562745
20
7.70654710827599
30
0
41
1
10
145.81720007062
20
7.53918076899451
30
0
41
1
10
145.609602360199
20
7.40637041238691
30
0
41
1
10
145.384795439882
20
7.3119072212539
30
0
41
1
10
145.14960220846
20
7.25841932319388
30
0
41
1
10
144.910913833598
20
7.24748360417172
30
0
41
1
10
144.675804002411
20
7.27958829735855
30
0
41
1
10
144.467040893806
20
7.34918577530604
30
0
41
1
10
144.343666084962
20
7.41496318831322
30
0
41
1
10
144.290970819942
20
7.44831488812486
30
0
0
SPLINE
5
D5
100
AcDbEntity
8
1
62
256
6
ByLayer
370
18
48
1
60
0
100
AcDbSpline
70
4
71
3
72
14
73
10
40
0
40
0
40
0
40
0
40
0.174521749334932
40
0.300445824985787
40
0.426341749374212
40
0.553988292859672
40
0.681493916602627
40
0.865742179451774
40
1
40
1
40
1
40
1
41
1
10
135.242709440899
20
11.3973408683063
30
0
41
1
10
135.091568262816
20
11.3927789335547
30
0
41
1
10
134.835285528615
20
11.3934414604525
30
0
41
1
10
134.476098722063
20
11.4160155923508
30
0
41
1
10
134.17256131363
20
11.450150360669
30
0
41
1
10
133.892795291037
20
11.4975397764746
30
0
41
1
10
133.61261008343
20
11.5634330386893
30
0
41
1
10
133.398504654286
20
11.6414749434604
30
0
41
1
10
133.328349722243
20
11.6944971324914
30
0
41
1
10
133.311431293677
20
11.7170723385233
30
0
0
SPLINE
5
D6
100
AcDbEntity
8
1
62
256
6
ByLayer
370
18
48
1
60
0
100
AcDbSpline
70
4
71
2
72
6
73
3
40
0
40
0
40
0
40
1
40
1
40
1
41
1
10
133.790396754313
20
10.5087161586898
30
0
41
1
10
133.961223599669
20
10.1718477059306
30
0
41
1
10
134.238607711916
20
9.78794025486451
30
0
0
SPLINE
5
D7
100
AcDbEntity
8
1
62
256
6
ByLayer
370
18
48
1
60
0
100
AcDbSpline
70
4
71
3
72
14
73
10
40
0
40
0
40
0
40
0
40
0.174521749334932
40
0.300445824985786
40
0.426341749374212
40
0.553988292859672
40
0.681493916602627
40
0.865742179451774
40
1
40
1
40
1
40
1
41
1
10
135.242709440899
20
-11.3973408683063
30
0
41
1
10
135.091568262816
20
-11.3927789335547
30
0
41
1
10
134.835285528615
20
-11.3934414604525
30
0
41
1
10
134.476098722064
20
-11.4160155923508
30
0
41
1
10
134.17256131363
20
-11.450150360669
30
0
41
1
10
133.892795291037
20
-11.4975397764746
30
0
41
1
10
133.61261008343
20
-11.5634330386893
30
0
41
1
10
133.398504654286
20
-11.6414749434604
30
0
41
1
10
133.328349722243
20
-11.6944971324914
30
0
41
1
10
133.311431293677
20
-11.7170723385233
30
0
0
SPLINE
5
D8
100
AcDbEntity
8
1
62
256
6
ByLayer
370
18
48
1
60
0
100
AcDbSpline
70
4
71
1
72
4
73
2
40
0
40
0
40
1
40
1
41
1
10
138.762639555043
20
-11.5031298700191
30
0
41
1
10
138.783353500715
20
-11.503450037562
30
0
0
SPLINE
5
D9
100
AcDbEntity
8
1
62
256
6
ByLayer
370
18
48
1
60
0
100
AcDbSpline
70
4
71
1
72
4
73
2
40
0
40
0
40
1
40
1
41
1
10
138.787582769393
20
6.91164049140214
30
0
41
1
10
138.762639555043
20
6.91764809124876
30
0
0
SPLINE
5
DA
100
AcDbEntity
8
1
62
256
6
ByLayer
370
18
48
1
60
0
100
AcDbSpline
70
4
71
1
72
4
73
2
40
0
40
0
40
1
40
1
41
1
10
138.787582769413
20
-11.4949458706819
30
0
41
1
10
138.783353500715
20
-11.503450037562
30
0
0
SPLINE
5
DB
100
AcDbEntity
8
1
62
256
6
ByLayer
370
18
48
1
60
0
100
AcDbSpline
70
4
71
2
72
6
73
3
40
0
40
0
40
0
40
1
40
1
40
1
41
1
10
138.787582769393
20
6.91164049140214
30
0
41
1
10
139.735802672838
20
6.68328351038269
30
0
41
1
10
140.7185515224
20
6.65846204641595
30
0
0
SPLINE
5
DC
100
AcDbEntity
8
1
62
256
6
ByLayer
370
18
48
1
60
0
100
AcDbSpline
70
4
71
1
72
4
73
2
40
0
40
0
40
1
40
1
41
1
10
140.7185515224
20
6.65846204641595
30
0
41
1
10
141.648002823949
20
6.63505424832868
30
0
0
SPLINE
5
DD
100
AcDbEntity
8
1
62
256
6
ByLayer
370
18
48
1
60
0
100
AcDbSpline
70
4
71
3
72
10
73
6
40
0
40
0
40
0
40
0
40
0.34714347919339
40
0.803753188577397
40
1
40
1
40
1
40
1
41
1
10
139.973120509784
20
-11.1928838843147
30
0
41
1
10
139.93456597167
20
-11.1560774503038
30
0
41
1
10
139.879021991802
20
-11.0665010969513
30
0
41
1
10
139.908723602704
20
-10.9345739742799
30
0
41
1
10
139.978075204852
20
-10.8491890451818
30
0
41
1
10
140.003527062508
20
-10.8231583044675
30
0
0
SPLINE
5
DE
100
AcDbEntity
8
1
62
256
6
ByLayer
370
18
48
1
60
0
100
AcDbSpline
70
4
71
3
72
12
73
8
40
0
40
0
40
0
40
0
40
0.209451656677163
40
0.419728553931134
40
0.630180551083803
40
0.841351789702907
40
1
40
1
40
1
40
1
41
1
10
138.787582769413
20
-11.4949458706819
30
0
41
1
10
138.805897183929
20
-11.4631710782229
30
0
41
1
10
138.874366253989
20
-11.4020695429229
30
0
41
1
10
139.082657767794
20
-11.3114261548616
30
0
41
1
10
139.367703859858
20
-11.2416544093682
30
0
41
1
10
139.674377824459
20
-11.2065906922819
30
0
41
1
10
139.869464956077
20
-11.2038943650928
30
0
41
1
10
139.954792105624
20
-11.206124217379
30
0
0
SPLINE
5
DF
100
AcDbEntity
8
1
62
256
6
ByLayer
370
18
48
1
60
0
100
AcDbSpline
70
4
71
2
72
6
73
3
40
0
40
0
40
0
40
1
40
1
40
1
41
1
10
148.996574075023
20
6.52008798615623
30
0
41
1
10
148.878489991731
20
6.5189855430661
30
0
41
1
10
148.754015499885
20
6.51453314642299
30
0
0
SPLINE
5
E0
100
AcDbEntity
8
1
62
256
6
ByLayer
370
18
48
1
60
0
100
AcDbSpline
70
4
71
3
72
11
73
7
40
0
40
0
40
0
40
0
40
0.272058414011815
40
0.577509791022516
40
0.867128811193403
40
1
40
1
40
1
40
1
41
1
10
149.561129173529
20
6.42563977398319
30
0
41
1
10
149.560790134822
20
6.44114568676495
30
0
41
1
10
149.529651063643
20
6.47033731401482
30
0
41
1
10
149.38348806477
20
6.50471999150619
30
0
41
1
10
149.180929789049
20
6.51936162637914
30
0
41
1
10
149.042614905509
20
6.52042541400797
30
0
41
1
10
148.996574075023
20
6.52008798615623
30
0
0
SPLINE
5
E1
100
AcDbEntity
8
1
62
256
6
ByLayer
370
18
48
1
60
0
100
AcDbSpline
70
4
71
3
72
13
73
9
40
0
40
0
40
0
40
0
40
0.107614493050161
40
0.322968434034872
40
0.530497039866445
40
0.734687997157818
40
0.94048323366291
40
1
40
1
40
1
40
1
41
1
10
149.561129173529
20
-10.5149205600653
30
0
41
1
10
149.561113827243
20
-10.560613299304
30
0
41
1
10
149.549947287886
20
-10.6942423552855
30
0
41
1
10
149.474619767412
20
-10.9066391448946
30
0
41
1
10
149.30576095118
20
-11.1073831530178
30
0
41
1
10
149.082561705629
20
-11.2359467121085
30
0
41
1
10
148.888212588884
20
-11.2710903860639
30
0
41
1
10
148.77875705299
20
-11.2676705840704
30
0
41
1
10
148.754015499885
20
-11.2657404332002
30
0
0
SPLINE
5
E2
100
AcDbEntity
8
1
62
256
6
ByLayer
370
18
48
1
60
0
100
AcDbSpline
70
4
71
1
72
4
73
2
40
0
40
0
40
1
40
1
41
1
10
148.246709564166
20
6.5102860026173
30
0
41
1
10
148.754015499885
20
6.51453314642299
30
0
0
SPLINE
5
E3
100
AcDbEntity
8
1
62
256
6
ByLayer
370
18
48
1
60
0
100
AcDbSpline
70
4
71
3
72
10
73
6
40
0
40
0
40
0
40
0
40
0.36941848230865
40
0.739397396600421
40
1
40
1
40
1
40
1
41
1
10
141.668038378947
20
-10.3832942417736
30
0
41
1
10
141.842531360103
20
-10.3975298835629
30
0
41
1
10
142.162702760731
20
-10.4466875483054
30
0
41
1
10
142.544656578662
20
-10.5807711089704
30
0
41
1
10
142.713457047505
20
-10.6828713294637
30
0
41
1
10
142.773727801271
20
-10.7292516184483
30
0
0
SPLINE
5
E4
100
AcDbEntity
8
1
62
256
6
ByLayer
370
18
48
1
60
0
100
AcDbSpline
70
4
71
3
72
16
73
12
40
0
40
0
40
0
40
0
40
0.107356130565864
40
0.214543839126841
40
0.359536382379872
40
0.480391102996592
40
0.601948012492563
40
0.707608568553378
40
0.812067872479751
40
0.927935918836019
40
1
40
1
40
1
40
1
41
1
10
147.761927542928
20
-7.57570835730499
30
0
41
1
10
147.783602257611
20
-7.47335655083746
30
0
41
1
10
147.806129709222
20
-7.26619328473943
30
0
41
1
10
147.781463815718
20
-6.90653906931105
30
0
41
1
10
147.653389027795
20
-6.5317391512134
30
0
41
1
10
147.379210646124
20
-6.18627439035858
30
0
41
1
10
147.014311026436
20
-5.96599974621949
30
0
41
1
10
146.604748418651
20
-5.88172927042607
30
0
41
1
10
146.195584596504
20
-5.91482927876337
30
0
41
1
10
145.854928118642
20
-6.0369515716612
30
0
41
1
10
145.662661342281
20
-6.14799238826871
30
0
41
1
10
145.592172367062
20
-6.19637431892874
30
0
0
SPLINE
5
E5
100
AcDbEntity
8
1
62
256
6
ByLayer
370
18
48
1
60
0
100
AcDbSpline
70
4
71
3
72
19
73
15
40
0
40
0
40
0
40
0
40
0.0787036737969965
40
0.15728578715784
40
0.265260716694267
40
0.319771479917218
40
0.37424546306333
40
0.470296929490399
40
0.559824827033198
40
0.65028666866175
40
0.74773694016543
40
0.858276155765779
40
0.988571286672121
40
1
40
1
40
1
40
1
41
1
10
147.606823591592
20
-8.29699237634595
30
0
41
1
10
147.586355152608
20
-8.38823899765085
30
0
41
1
10
147.522378012832
20
-8.56165753197883
30
0
41
1
10
147.33989522306
20
-8.82930823769365
30
0
41
1
10
147.083385727429
20
-9.0286730426565
30
0
41
1
10
146.79196338
20
-9.15552989273396
30
0
41
1
10
146.48604053936
20
-9.23908496587031
30
0
41
1
10
146.090681080136
20
-9.26956343973902
30
0
41
1
10
145.645622813751
20
-9.20409115597887
30
0
41
1
10
145.254809410083
20
-9.04980388150613
30
0
41
1
10
144.931954521584
20
-8.80435930947325
30
0
41
1
10
144.701927447656
20
-8.45671966150727
30
0
41
1
10
144.640991133097
20
-8.1608750048607
30
0
41
1
10
144.638416951592
20
-7.99106806105934
30
0
41
1
10
144.638430528757
20
-7.97732481801299
30
0
0
SPLINE
5
E6
100
AcDbEntity
8
1
62
256
6
ByLayer
370
18
48
1
60
0
100
AcDbSpline
70
4
71
1
72
4
73
2
40
0
40
0
40
1
40
1
41
1
10
141.648002823949
20
6.63505424832868
30
0
41
1
10
141.668038378947
20
6.63461300254456
30
0
0
SPLINE
5
E7
100
AcDbEntity
8
1
62
256
6
ByLayer
370
18
48
1
60
0
100
AcDbSpline
70
4
71
1
72
4
73
2
40
0
40
0
40
1
40
1
41
1
10
141.648002823949
20
-10.3820527494766
30
0
41
1
10
141.668038378947
20
-10.3832942417736
30
0
0
SPLINE
5
E8
100
AcDbEntity
8
1
62
256
6
ByLayer
370
18
48
1
60
0
100
AcDbSpline
70
4
71
3
72
13
73
9
40
0
40
0
40
0
40
0
40
0.0241121997951016
40
0.184295912479817
40
0.393781465482859
40
0.603521756380448
40
0.801720425355385
40
1
40
1
40
1
40
1
41
1
10
145.592172367062
20
-6.19637431892874
30
0
41
1
10
145.5797812
20
-6.20480281084153
30
0
41
1
10
145.486022762528
20
-6.27001644073385
30
0
41
1
10
145.300287736785
20
-6.42413003780448
30
0
41
1
10
145.075958627989
20
-6.68286927572756
30
0
41
1
10
144.892417631756
20
-6.98031827782122
30
0
41
1
10
144.763354526068
20
-7.28297667178701
30
0
41
1
10
144.708606459795
20
-7.48148826290296
30
0
41
1
10
144.68888279482
20
-7.58142097628153
30
0
0
SPLINE
5
E9
100
AcDbEntity
8
1
62
256
6
ByLayer
370
18
48
1
60
0
100
AcDbSpline
70
4
71
3
72
15
73
11
40
0
40
0
40
0
40
0
40
0.0204128042685801
40
0.145078621615144
40
0.270355740934603
40
0.396083219306747
40
0.521345666671324
40
0.697501886857163
40
0.873716949387348
40
1
40
1
40
1
40
1
41
1
10
134.238607711916
20
9.78794025486451
30
0
41
1
10
134.255399142674
20
9.76513732085101
30
0
41
1
10
134.376882024152
20
9.60274846853616
30
0
41
1
10
134.627764368576
20
9.29468166197587
30
0
41
1
10
135.055091861944
20
8.85964241766631
30
0
41
1
10
135.553066705844
20
8.43339798207018
30
0
41
1
10
136.194453615273
20
7.97479295231607
30
0
41
1
10
137.00773840294
20
7.51942254775199
30
0
41
1
10
137.907537666268
20
7.15111700253707
30
0
41
1
10
138.506371554382
20
6.97949669428307
30
0
41
1
10
138.762639555043
20
6.91764809124876
30
0
0
SPLINE
5
EA
100
AcDbEntity
8
1
62
256
6
ByLayer
370
18
48
1
60
0
100
AcDbSpline
70
4
71
1
72
4
73
2
40
0
40
0
40
1
40
1
41
1
10
144.638430528757
20
-7.97732481801299
30
0
41
1
10
144.670037441519
20
-7.6742538835599
30
0
0
SPLINE
5
EB
100
AcDbEntity
8
1
62
256
6
ByLayer
370
18
48
1
60
0
100
AcDbSpline
70
4
71
3
72
11
73
7
40
0
40
0
40
0
40
0
40
0.254066823171054
40
0.534716193002135
40
0.857375818987144
40
1
40
1
40
1
40
1
41
1
10
146.918198331317
20
-7.81749658689212
30
0
41
1
10
146.916546604545
20
-7.90681775827704
30
0
41
1
10
146.89065966715
20
-8.08693285540448
30
0
41
1
10
146.764316145596
20
-8.35693111396449
30
0
41
1
10
146.597380036719
20
-8.55123246943494
30
0
41
1
10
146.472382171392
20
-8.64807402068917
30
0
41
1
10
146.431853109776
20
-8.67565609915306
30
0
0
SPLINE
5
EC
100
AcDbEntity
8
1
62
256
6
ByLayer
370
18
48
1
60
0
100
AcDbSpline
70
4
71
3
72
15
73
11
40
0
40
0
40
0
40
0
40
0.108221514501509
40
0.237373105247934
40
0.366794844465303
40
0.491141566053638
40
0.627268866997919
40
0.786650955255643
40
0.917363534175248
40
1
40
1
40
1
40
1
41
1
10
146.431853109777
20
-8.67565609915306
30
0
41
1
10
146.361746786239
20
-8.7235482413091
30
0
41
1
10
146.201852587588
20
-8.80753311649839
30
0
41
1
10
145.92184886127
20
-8.87301835163395
30
0
41
1
10
145.631390416086
20
-8.84537606548046
30
0
41
1
10
145.371834366806
20
-8.72920572083473
30
0
41
1
10
145.150868493232
20
-8.52868622836161
30
0
41
1
10
144.996793910202
20
-8.26238201898653
30
0
41
1
10
144.923345793904
20
-7.98540949248205
30
0
41
1
10
144.911637197107
20
-7.82295113779735
30
0
41
1
10
144.9113944621
20
-7.7586035468391
30
0
0
SPLINE
5
ED
100
AcDbEntity
8
1
62
256
6
ByLayer
370
18
48
1
60
0
100
AcDbSpline
70
4
71
3
72
12
73
8
40
0
40
0
40
0
40
0
40
0.128750662443016
40
0.360139184549664
40
0.602680125746828
40
0.857423774383147
40
1
40
1
40
1
40
1
41
1
10
140.003527062508
20
-10.8231583044675
30
0
41
1
10
140.037583727104
20
-10.7886114189804
30
0
41
1
10
140.149656581959
20
-10.6959832464343
30
0
41
1
10
140.428246515953
20
-10.5520023955318
30
0
41
1
10
140.85968665404
20
-10.426878490866
30
0
41
1
10
141.289204437751
20
-10.376072558485
30
0
41
1
10
141.552516580468
20
-10.3774853569339
30
0
41
1
10
141.648002823949
20
-10.3820527494766
30
0
0
SPLINE
5
EE
100
AcDbEntity
8
1
62
256
6
ByLayer
370
18
48
1
60
0
100
AcDbSpline
70
4
71
2
72
6
73
3
40
0
40
0
40
0
40
1
40
1
40
1
41
1
10
138.024010766092
20
7.12569287075072
30
0
41
1
10
138.121982332026
20
7.3462024316053
30
0
41
1
10
138.248213384672
20
7.57161465757259
30
0
0
SPLINE
5
EF
100
AcDbEntity
8
1
62
256
6
ByLayer
370
18
48
1
60
0
100
AcDbSpline
70
4
71
3
72
10
73
6
40
0
40
0
40
0
40
0
40
0.23553883996392
40
0.612867090176316
40
1
40
1
40
1
40
1
41
1
10
138.931257515084
20
8.08407196484785
30
0
41
1
10
138.884635527207
20
8.05381338960839
30
0
41
1
10
138.765754089308
20
7.97708146818826
30
0
41
1
10
138.582393595166
20
7.85206537103444
30
0
41
1
10
138.451575346575
20
7.77745862881656
30
0
41
1
10
138.387791252016
20
7.74329126195225
30
0
0
SPLINE
5
F0
100
AcDbEntity
8
1
62
256
6
ByLayer
370
18
48
1
60
0
100
AcDbSpline
70
4
71
3
72
11
73
7
40
0
40
0
40
0
40
0
40
0.253184833297416
40
0.507367216106871
40
0.761761259398585
40
1
40
1
40
1
40
1
41
1
10
138.787582769413
20
11.4949458706823
30
0
41
1
10
138.805897183929
20
11.4631710782231
30
0
41
1
10
138.874533581338
20
11.4020410666517
30
0
41
1
10
139.082069439521
20
11.311526278335
30
0
41
1
10
139.363478847493
20
11.2428473236017
30
0
41
1
10
139.571400727199
20
11.2186313931259
30
0
41
1
10
139.679356987839
20
11.2111936700181
30
0
0
SPLINE
5
F1
100
AcDbEntity
8
1
62
256
6
ByLayer
370
18
48
1
60
0
100
AcDbSpline
70
4
71
1
72
4
73
2
40
0
40
0
40
1
40
1
41
1
10
138.787582769413
20
11.4949458706823
30
0
41
1
10
138.783353500715
20
11.503450037562
30
0
0
SPLINE
5
F2
100
AcDbEntity
8
1
62
256
6
ByLayer
370
18
48
1
60
0
100
AcDbSpline
70
4
71
1
72
4
73
2
40
0
40
0
40
1
40
1
41
1
10
138.762639555043
20
11.5031298700191
30
0
41
1
10
138.783353500715
20
11.503450037562
30
0
0
SPLINE
5
F3
100
AcDbEntity
8
1
62
256
6
ByLayer
370
18
48
1
60
0
100
AcDbSpline
70
4
71
3
72
14
73
10
40
0
40
0
40
0
40
0
40
0.0591339183761723
40
0.218803771999647
40
0.37221248798995
40
0.540155109896973
40
0.736787567907563
40
0.89804995295236
40
1
40
1
40
1
40
1
41
1
10
146.03096734225
20
8.8429469971475
30
0
41
1
10
145.99461611592
20
8.84970156501839
30
0
41
1
10
145.861205782513
20
8.86683978970314
30
0
41
1
10
145.63105411242
20
8.84548596659439
30
0
41
1
10
145.371931927306
20
8.7291738389116
30
0
41
1
10
145.150835942143
20
8.52869686577466
30
0
41
1
10
144.996801541306
20
8.26237952520805
30
0
41
1
10
144.923344577586
20
7.98540988996436
30
0
41
1
10
144.911637197107
20
7.82295113779736
30
0
41
1
10
144.9113944621
20
7.75860354683912
30
0
0
SPLINE
5
F4
100
AcDbEntity
8
1
62
256
6
ByLayer
370
18
48
1
60
0
100
AcDbSpline
70
4
71
2
72
6
73
3
40
0
40
0
40
0
40
1
40
1
40
1
41
1
10
149.560844195398
20
-9.0073082457611
30
0
41
1
10
149.63860470154
20
-9.45206939839513
30
0
41
1
10
149.66217336351
20
-9.90191131489015
30
0
0
SPLINE
5
F5
100
AcDbEntity
8
1
62
256
6
ByLayer
370
18
48
1
60
0
100
AcDbSpline
70
4
71
1
72
4
73
2
40
0
40
0
40
1
40
1
41
1
10
149.66217336351
20
-9.9019113148898
30
0
41
1
10
149.66217336351
20
-10.4959439113898
30
0
0
SPLINE
5
F6
100
AcDbEntity
8
1
62
256
6
ByLayer
370
18
48
1
60
0
100
AcDbSpline
70
4
71
3
72
12
73
8
40
0
40
0
40
0
40
0
40
0.238505702992899
40
0.477423530048646
40
0.705540827060257
40
0.906786324162634
40
1
40
1
40
1
40
1
41
1
10
149.66217336351
20
-10.4959439113869
30
0
41
1
10
149.661804975671
20
-10.6079308579648
30
0
41
1
10
149.627384096489
20
-10.8170577171369
30
0
41
1
10
149.473302887643
20
-11.0996492334021
30
0
41
1
10
149.241647355514
20
-11.2926991792662
30
0
41
1
10
149.01374598194
20
-11.3611874716679
30
0
41
1
10
148.883373947052
20
-11.3623817607769
30
0
41
1
10
148.841252112181
20
-11.3592371398502
30
0
0
SPLINE
5
F7
100
AcDbEntity
8
1
62
256
6
ByLayer
370
18
48
1
60
0
100
AcDbSpline
70
4
71
2
72
6
73
3
40
0
40
0
40
0
40
1
40
1
40
1
41
1
10
146.088822272406
20
-11.1412152070847
30
0
41
1
10
147.464736470393
20
-11.2563844210089
30
0
41
1
10
148.841252116435
20
-11.3592371403203
30
0
0
SPLINE
5
F8
100
AcDbEntity
8
1
62
256
6
ByLayer
370
18
48
1
60
0
100
AcDbSpline
70
4
71
2
72
6
73
3
40
0
40
0
40
0
40
1
40
1
40
1
41
1
10
146.088822274164
20
-11.1412151585769
30
0
41
1
10
145.011736569284
20
-11.05412969552
30
0
41
1
10
143.935440370866
20
-10.95298976052
30
0
0
SPLINE
5
F9
100
AcDbEntity
8
1
62
256
6
ByLayer
370
18
48
1
60
0
100
AcDbSpline
70
4
71
1
72
4
73
2
40
0
40
0
40
1
40
1
41
1
10
143.935440370866
20
-10.95298976052
30
0
41
1
10
141.440140793348
20
-10.6895370374708
30
0
0
SPLINE
5
FA
100
AcDbEntity
8
1
62
256
6
ByLayer
370
18
48
1
60
0
100
AcDbSpline
70
4
71
3
72
11
73
7
40
0
40
0
40
0
40
0
40
0.280795617290802
40
0.561366706577087
40
0.851932540841379
40
1
40
1
40
1
40
1
41
1
10
141.440140796904
20
-10.6895370348322
30
0
41
1
10
141.396488335838
20
-10.6841379165306
30
0
41
1
10
141.315482183808
20
-10.6610030636386
30
0
41
1
10
141.206884693875
20
-10.5838727523658
30
0
41
1
10
141.139548941336
20
-10.4944679324318
30
0
41
1
10
141.110595322187
20
-10.434150522485
30
0
41
1
10
141.102169613354
20
-10.4128759128538
30
0
0
SPLINE
5
FB
100
AcDbEntity
8
1
62
256
6
ByLayer
370
18
48
1
60
0
100
AcDbSpline
70
4
71
2
72
6
73
3
40
0
40
0
40
0
40
1
40
1
40
1
41
1
10
141.245484665626
20
-10.9300433807557
30
0
41
1
10
141.223531656004
20
-10.9571456151006
30
0
41
1
10
141.200506303461
20
-10.9784665646798
30
0
0
SPLINE
5
FC
100
AcDbEntity
8
1
62
256
6
ByLayer
370
18
48
1
60
0
100
AcDbSpline
70
4
71
1
72
4
73
2
40
0
40
0
40
1
40
1
41
1
10
141.200505054718
20
-10.978458190542
30
0
41
1
10
140.73121627521
20
-11.4128396598198
30
0
0
SPLINE
5
FD
100
AcDbEntity
8
1
62
256
6
ByLayer
370
18
48
1
60
0
100
AcDbSpline
70
4
71
1
72
4
73
2
40
0
40
0
40
1
40
1
41
1
10
140.731216199962
20
-11.4128397294689
30
0
41
1
10
140.606877486124
20
-11.5279273906136
30
0
0
SPLINE
5
FE
100
AcDbEntity
8
1
62
256
6
ByLayer
370
18
48
1
60
0
100
AcDbSpline
70
4
71
2
72
6
73
3
40
0
40
0
40
0
40
1
40
1
40
1
41
1
10
140.367058284712
20
-11.8391600706265
30
0
41
1
10
140.486973459855
20
-11.6845679346858
30
0
41
1
10
140.606877494656
20
-11.5279277518185
30
0
0
SPLINE
5
FF
100
AcDbEntity
8
1
62
256
6
ByLayer
370
18
48
1
60
0
100
AcDbSpline
70
4
71
3
72
13
73
9
40
0
40
0
40
0
40
0
40
0.250033988129103
40
0.499780351546048
40
0.624947548798346
40
0.750022034299997
40
0.875009758288089
40
1
40
1
40
1
40
1
41
1
10
139.945008354149
20
-11.3018348955407
30
0
41
1
10
139.949048078114
20
-11.3601738209284
30
0
41
1
10
139.972473359804
20
-11.4738380192419
30
0
41
1
10
140.037171169269
20
-11.6175418468652
30
0
41
1
10
140.115516738333
20
-11.7173573526177
30
0
41
1
10
140.188299786338
20
-11.7801637813168
30
0
41
1
10
140.274382494694
20
-11.8239367198562
30
0
41
1
10
140.335281094247
20
-11.836621374471
30
0
41
1
10
140.367058284712
20
-11.8391600706265
30
0
0
SPLINE
5
100
100
AcDbEntity
8
1
62
256
6
ByLayer
370
18
48
1
60
0
100
AcDbSpline
70
4
71
2
72
6
73
3
40
0
40
0
40
0
40
1
40
1
40
1
41
1
10
139.945008354149
20
-11.3018348955407
30
0
41
1
10
140.179590655327
20
-11.1600968144191
30
0
41
1
10
140.354000049769
20
-11.0046014082758
30
0
0
SPLINE
5
101
100
AcDbEntity
8
1
62
256
6
ByLayer
370
18
48
1
60
0
100
AcDbSpline
70
4
71
2
72
6
73
3
40
0
40
0
40
0
40
1
40
1
40
1
41
1
10
140.354002307778
20
-11.0046017025025
30
0
41
1
10
140.616047027605
20
-10.7212884517731
30
0
41
1
10
140.878085175987
20
-10.4379743542099
30
0
0
SPLINE
5
102
100
AcDbEntity
8
1
62
256
6
ByLayer
370
18
48
1
60
0
100
AcDbSpline
70
4
71
2
72
6
73
3
40
0
40
0
40
0
40
1
40
1
40
1
41
1
10
141.440140793348
20
-10.6895370374708
30
0
41
1
10
141.342812349571
20
-10.8097858956463
30
0
41
1
10
141.245484005732
20
-10.9300347150378
30
0
0
SPLINE
5
103
100
AcDbEntity
8
1
62
256
6
ByLayer
370
18
48
1
60
0
100
AcDbSpline
70
4
71
1
72
4
73
2
40
0
40
0
40
1
40
1
41
1
10
140.306198780474
20
-10.6389842504282
30
0
41
1
10
140.354000049769
20
-11.0046014082758
30
0
0
SPLINE
5
104
100
AcDbEntity
8
1
62
256
6
ByLayer
370
18
48
1
60
0
100
AcDbSpline
70
4
71
2
72
6
73
3
40
0
40
0
40
0
40
1
40
1
40
1
41
1
10
142.764752596934
20
-11.1313377451035
30
0
41
1
10
143.288866197675
20
-11.1623507561397
30
0
41
1
10
143.808510013973
20
-11.2063411163258
30
0
0
SPLINE
5
105
100
AcDbEntity
8
1
62
256
6
ByLayer
370
18
48
1
60
0
100
AcDbSpline
70
4
71
2
72
6
73
3
40
0
40
0
40
0
40
1
40
1
40
1
41
1
10
141.245483592203
20
-10.9300345765681
30
0
41
1
10
142.002457876401
20
-11.0380975514675
30
0
41
1
10
142.764752592137
20
-11.1313377399516
30
0
0
SPLINE
5
106
100
AcDbEntity
8
1
62
256
6
ByLayer
370
18
48
1
60
0
100
AcDbSpline
70
4
71
2
72
6
73
3
40
0
40
0
40
0
40
1
40
1
40
1
41
1
10
143.808510259535
20
-11.2063519108483
30
0
41
1
10
143.8719407972
20
-11.0790801718164
30
0
41
1
10
143.935440370866
20
-10.9529897605199
30
0
0
SPLINE
5
107
100
AcDbEntity
8
1
62
256
6
ByLayer
370
18
48
1
60
0
100
AcDbSpline
70
4
71
2
72
6
73
3
40
0
40
0
40
0
40
1
40
1
40
1
41
1
10
142.764752596903
20
-11.1313377451554
30
0
41
1
10
141.984932466675
20
-11.0512791920199
30
0
41
1
10
141.200505682989
20
-10.9784582484516
30
0
0
SPLINE
5
108
100
AcDbEntity
8
1
62
256
6
ByLayer
370
18
48
1
60
0
100
AcDbSpline
70
4
71
1
72
4
73
2
40
0
40
0
40
1
40
1
41
1
10
143.768486860445
20
-11.2918087904535
30
0
41
1
10
142.764752596934
20
-11.1313377451583
30
0
0
SPLINE
5
109
100
AcDbEntity
8
1
62
256
6
ByLayer
370
18
48
1
60
0
100
AcDbSpline
70
4
71
1
72
4
73
2
40
0
40
0
40
1
40
1
41
1
10
143.573379285616
20
-11.7341339585477
30
0
41
1
10
143.76848714782
20
-11.2918088187572
30
0
0
SPLINE
5
10A
100
AcDbEntity
8
1
62
256
6
ByLayer
370
18
48
1
60
0
100
AcDbSpline
70
4
71
1
72
4
73
2
40
0
40
0
40
1
40
1
41
1
10
143.573379285226
20
-11.7341339594314
30
0
41
1
10
143.540545717585
20
-11.8085708583918
30
0
0
SPLINE
5
10B
100
AcDbEntity
8
1
62
256
6
ByLayer
370
18
48
1
60
0
100
AcDbSpline
70
4
71
3
72
10
73
6
40
0
40
0
40
0
40
0
40
0.333360126388571
40
0.666651491311566
40
1
40
1
40
1
40
1
41
1
10
140.606878069196
20
-11.5279274339923
30
0
41
1
10
140.94035692673
20
-11.5464106134494
30
0
41
1
10
141.602252926838
20
-11.5918775491191
30
0
41
1
10
142.580143493607
20
-11.6885188897596
30
0
41
1
10
143.222057791803
20
-11.7660457579769
30
0
41
1
10
143.540545646821
20
-11.8085766564966
30
0
0
SPLINE
5
10C
100
AcDbEntity
8
1
62
256
6
ByLayer
370
18
48
1
60
0
100
AcDbSpline
70
4
71
2
72
6
73
3
40
0
40
0
40
0
40
1
40
1
40
1
41
1
10
145.682560601137
20
-11.8880490087772
30
0
41
1
10
145.681572084299
20
-11.8897605666277
30
0
41
1
10
145.680583359658
20
-11.8914679534451
30
0
0
SPLINE
5
10D
100
AcDbEntity
8
1
62
256
6
ByLayer
370
18
48
1
60
0
100
AcDbSpline
70
4
71
2
72
6
73
3
40
0
40
0
40
0
40
1
40
1
40
1
41
1
10
145.680583359658
20
-11.8914679534451
30
0
41
1
10
145.655776745485
20
-11.9342536775204
30
0
41
1
10
145.630859551671
20
-11.9747024342099
30
0
0
SPLINE
5
10E
100
AcDbEntity
8
1
62
256
6
ByLayer
370
18
48
1
60
0
100
AcDbSpline
70
4
71
2
72
6
73
3
40
0
40
0
40
0
40
1
40
1
40
1
41
1
10
143.540545646821
20
-11.8085766564966
30
0
41
1
10
144.583916205268
20
-11.9225975706673
30
0
41
1
10
145.630858275514
20
-11.9746555028897
30
0
0
SPLINE
5
10F
100
AcDbEntity
8
1
62
256
6
ByLayer
370
18
48
1
60
0
100
AcDbSpline
70
4
71
2
72
6
73
3
40
0
40
0
40
0
40
1
40
1
40
1
41
1
10
143.768487515298
20
-11.2918191394347
30
0
41
1
10
143.788347695719
20
-11.2467549560638
30
0
41
1
10
143.80851025544
20
-11.206351906106
30
0
0
SPLINE
5
110
100
AcDbEntity
8
1
62
256
6
ByLayer
370
18
48
1
60
0
100
AcDbSpline
70
4
71
2
72
6
73
3
40
0
40
0
40
0
40
1
40
1
40
1
41
1
10
146.088822272406
20
-11.1412152070847
30
0
41
1
10
145.884891098984
20
-11.5000255017699
30
0
41
1
10
145.682560601137
20
-11.8880490087772
30
0
0
SPLINE
5
111
100
AcDbEntity
8
1
62
256
6
ByLayer
370
18
48
1
60
0
100
AcDbSpline
70
4
71
2
72
6
73
3
40
0
40
0
40
0
40
1
40
1
40
1
41
1
10
148.841343935946
20
-11.3593939182988
30
0
41
1
10
149.052211753266
20
-11.7194263041026
30
0
41
1
10
149.263079570585
20
-12.0794586899063
30
0
0
SPLINE
5
112
100
AcDbEntity
8
1
62
256
6
ByLayer
370
18
48
1
60
0
100
AcDbSpline
70
4
71
2
72
6
73
3
40
0
40
0
40
0
40
1
40
1
40
1
41
1
10
149.320042569543
20
-12.1767164159929
30
0
41
1
10
149.291561070064
20
-12.1280875529496
30
0
41
1
10
149.263079570585
20
-12.0794586899063
30
0
0
SPLINE
5
113
100
AcDbEntity
8
1
62
256
6
ByLayer
370
18
48
1
60
0
100
AcDbSpline
70
4
71
3
72
12
73
8
40
0
40
0
40
0
40
0
40
0.137921480981234
40
0.388983866332532
40
0.639393075832205
40
0.88216038552285
40
1
40
1
40
1
40
1
41
1
10
145.630858275514
20
-11.9746555028898
30
0
41
1
10
145.79961405939
20
-11.987556927144
30
0
41
1
10
146.275452062798
20
-12.0226726323279
30
0
41
1
10
147.058593584115
20
-12.0733083510796
30
0
41
1
10
147.965941686729
20
-12.1261882863227
30
0
41
1
10
148.715400812778
20
-12.1616154659824
30
0
41
1
10
149.170445872424
20
-12.1735446659789
30
0
41
1
10
149.320042713744
20
-12.1767217699886
30
0
0
SPLINE
5
114
100
AcDbEntity
8
1
62
256
6
ByLayer
370
18
48
1
60
0
100
AcDbSpline
70
4
71
3
72
13
73
9
40
0
40
0
40
0
40
0
40
0.12520437521659
40
0.250404768067124
40
0.375622739827447
40
0.500864898949471
40
0.750359531121827
40
1
40
1
40
1
40
1
41
1
10
149.320042544368
20
-12.1767163730091
30
0
41
1
10
149.375571438965
20
-12.1778556400285
30
0
41
1
10
149.483659348153
20
-12.1685226141119
30
0
41
1
10
149.640274883689
20
-12.1186885902743
30
0
41
1
10
149.781236044298
20
-12.0360059185231
30
0
41
1
10
149.941909325798
20
-11.890000722724
30
0
41
1
10
150.08485290889
20
-11.6491544525523
30
0
41
1
10
150.124269068722
20
-11.4363360414943
30
0
41
1
10
150.126375335996
20
-11.3213196512785
30
0
0
SPLINE
5
115
100
AcDbEntity
8
1
62
256
6
ByLayer
370
18
48
1
60
0
100
AcDbSpline
70
4
71
1
72
4
73
2
40
0
40
0
40
1
40
1
41
1
10
149.66217336351
20
-10.4959439113869
30
0
41
1
10
150.126377147973
20
-11.3213225452751
30
0
0
SPLINE
5
116
100
AcDbEntity
8
1
62
256
6
ByLayer
370
18
48
1
60
0
100
AcDbSpline
70
4
71
1
72
4
73
2
40
0
40
0
40
1
40
1
41
1
10
139.933387056634
20
-11.1714008840362
30
0
41
1
10
139.936170502151
20
-11.2007378226219
30
0
0
SPLINE
5
117
100
AcDbEntity
8
1
62
256
6
ByLayer
370
18
48
1
60
0
100
AcDbSpline
70
4
71
1
72
4
73
2
40
0
40
0
40
1
40
1
41
1
10
139.936170502151
20
-11.2007378226219
30
0
41
1
10
139.945008354149
20
-11.3018348955407
30
0
0
SPLINE
5
118
100
AcDbEntity
8
1
62
256
6
ByLayer
370
18
48
1
60
0
100
AcDbSpline
70
4
71
3
72
14
73
10
40
0
40
0
40
0
40
0
40
0.207516691864895
40
0.415049744637044
40
0.61981818825378
40
0.724803839211025
40
0.830185651647477
40
0.915101064545167
40
1
40
1
40
1
40
1
41
1
10
140.367058284712
20
-11.8391600706265
30
0
41
1
10
141.018931801725
20
-11.8874546197535
30
0
41
1
10
142.308918042579
20
-11.9830843399526
30
0
41
1
10
144.171930375477
20
-12.1497892946308
30
0
41
1
10
145.729276404581
20
-12.2421430169092
30
0
41
1
10
146.982087190348
20
-12.2931338205123
30
0
41
1
10
147.868331274558
20
-12.3191890622232
30
0
41
1
10
148.700246043311
20
-12.3319200336954
30
0
41
1
10
149.229364291671
20
-12.3332633961663
30
0
41
1
10
149.496799076274
20
-12.3323198272113
30
0
0
SPLINE
5
119
100
AcDbEntity
8
1
62
256
6
ByLayer
370
18
48
1
60
0
100
AcDbSpline
70
4
71
1
72
4
73
2
40
0
40
0
40
1
40
1
41
1
10
150.126379054607
20
-11.3213229303232
30
0
41
1
10
150.121075507041
20
-10.2950598821293
30
0
0
SPLINE
5
11A
100
AcDbEntity
8
1
62
256
6
ByLayer
370
18
48
1
60
0
100
AcDbSpline
70
4
71
1
72
4
73
2
40
0
40
0
40
1
40
1
41
1
10
150.121072969951
20
-10.2950600002063
30
0
41
1
10
150.202238046748
20
-10.3645930835251
30
0
0
SPLINE
5
11B
100
AcDbEntity
8
1
62
256
6
ByLayer
370
18
48
1
60
0
100
AcDbSpline
70
4
71
1
72
4
73
2
40
0
40
0
40
1
40
1
41
1
10
150.202238046748
20
-10.3645930835251
30
0
41
1
10
150.208280676831
20
-11.4669513082576
30
0
0
SPLINE
5
11C
100
AcDbEntity
8
1
62
256
6
ByLayer
370
18
48
1
60
0
100
AcDbSpline
70
4
71
3
72
13
73
9
40
0
40
0
40
0
40
0
40
0.249923686586832
40
0.499568869758964
40
0.624747868995344
40
0.749864607650591
40
0.874930508146405
40
1
40
1
40
1
40
1
41
1
10
150.208280676831
20
-11.4669513082576
30
0
41
1
10
150.207088856705
20
-11.574566839376
30
0
41
1
10
150.174691268833
20
-11.7775086094305
30
0
41
1
10
150.060144486118
20
-12.0163873846738
30
0
41
1
10
149.922230808098
20
-12.1706506532228
30
0
41
1
10
149.796343573139
20
-12.261830039863
30
0
41
1
10
149.651147703216
20
-12.319629606391
30
0
41
1
10
149.549505476506
20
-12.3322220695562
30
0
41
1
10
149.496799581782
20
-12.3323432557998
30
0
0
SPLINE
5
11D
100
AcDbEntity
8
1
62
256
6
ByLayer
370
18
48
1
60
0
100
AcDbSpline
70
4
71
2
72
6
73
3
40
0
40
0
40
0
40
1
40
1
40
1
41
1
10
149.66217336351
20
-9.90191131489014
30
0
41
1
10
149.891625703949
20
-10.0984855350028
30
0
41
1
10
150.121072969878
20
-10.2950599946531
30
0
0
SPLINE
5
11E
100
AcDbEntity
8
1
62
256
6
ByLayer
370
18
48
1
60
0
100
AcDbSpline
70
4
71
2
72
6
73
3
40
0
40
0
40
0
40
1
40
1
40
1
41
1
10
149.58181578621
20
-8.94157586247728
30
0
41
1
10
149.637490301434
20
-9.00721613881333
30
0
41
1
10
149.754304324003
20
-9.07124694591486
30
0
0
SPLINE
5
11F
100
AcDbEntity
8
1
62
256
6
ByLayer
370
18
48
1
60
0
100
AcDbSpline
70
4
71
2
72
6
73
3
40
0
40
0
40
0
40
1
40
1
40
1
41
1
10
149.754304489691
20
-9.07124688097395
30
0
41
1
10
149.761997472335
20
-9.09562518209803
30
0
41
1
10
149.769937257518
20
-9.11992935514712
30
0
0
SPLINE
5
120
100
AcDbEntity
8
1
62
256
6
ByLayer
370
18
48
1
60
0
100
AcDbSpline
70
4
71
3
72
10
73
6
40
0
40
0
40
0
40
0
40
0.56037269331477
40
0.780523137395086
40
1
40
1
40
1
40
1
41
1
10
149.769937257518
20
-9.11992935514712
30
0
41
1
10
149.865204031554
20
-9.34788047681032
30
0
41
1
10
149.985391775906
20
-9.6692278352252
30
0
41
1
10
150.154081544968
20
-10.0783967312288
30
0
41
1
10
150.190212832569
20
-10.2682248987988
30
0
41
1
10
150.202238046748
20
-10.3645930835251
30
0
0
SPLINE
5
121
100
AcDbEntity
8
1
62
256
6
ByLayer
370
18
48
1
60
0
100
AcDbSpline
70
4
71
1
72
4
73
2
40
0
40
0
40
1
40
1
41
1
10
139.703886685294
20
-11.4712873826089
30
0
41
1
10
139.945008354149
20
-11.3018348955407
30
0
0
SPLINE
5
122
100
AcDbEntity
8
1
62
256
6
ByLayer
370
18
48
1
60
0
100
AcDbSpline
70
4
71
1
72
4
73
2
40
0
40
0
40
1
40
1
41
1
10
140.189470257801
20
-12.0023899892368
30
0
41
1
10
140.367058284711
20
-11.8391600706265
30
0
0
SPLINE
5
123
100
AcDbEntity
8
1
62
256
6
ByLayer
370
18
48
1
60
0
100
AcDbSpline
70
4
71
3
72
12
73
8
40
0
40
0
40
0
40
0
40
0.185953919231303
40
0.371830973717351
40
0.563653871569581
40
0.781291837778867
40
1
40
1
40
1
40
1
41
1
10
140.189470257801
20
-12.0023899892368
30
0
41
1
10
140.139210799151
20
-11.9982840019357
30
0
41
1
10
140.044561616305
20
-11.9763532414756
30
0
41
1
10
139.913065117218
20
-11.8960971860659
30
0
41
1
10
139.805534712253
20
-11.7783480490405
30
0
41
1
10
139.730193237557
20
-11.6308689029686
30
0
41
1
10
139.707759742252
20
-11.5258172529692
30
0
41
1
10
139.703886685338
20
-11.4712873825785
30
0
0
SPLINE
5
124
100
AcDbEntity
8
1
62
256
6
ByLayer
370
18
48
1
60
0
100
AcDbSpline
70
4
71
1
72
4
73
2
40
0
40
0
40
1
40
1
41
1
10
149.496799581782
20
-12.3323432557998
30
0
41
1
10
149.48408765338
20
-12.407768268778
30
0
0
SPLINE
5
125
100
AcDbEntity
8
1
62
256
6
ByLayer
370
18
48
1
60
0
100
AcDbSpline
70
4
71
3
72
13
73
9
40
0
40
0
40
0
40
0
40
0.0630849048525907
40
0.126139898226452
40
0.253293158693383
40
0.625856998567366
40
0.812876301947147
40
1
40
1
40
1
40
1
41
1
10
149.48408765338
20
-12.407768268778
30
0
41
1
10
149.282555386904
20
-12.4095980490827
30
0
41
1
10
148.882693052292
20
-12.4120211398477
30
0
41
1
10
148.092007446758
20
-12.4128474507092
30
0
41
1
10
146.378524398395
20
-12.3918843888216
30
0
41
1
10
144.277377556682
20
-12.2953377916786
30
0
41
1
10
141.966015167328
20
-12.1286931522667
30
0
41
1
10
140.784823996198
20
-12.0456005755077
30
0
41
1
10
140.189470303155
20
-12.0023881599612
30
0
0
SPLINE
5
126
100
AcDbEntity
8
1
62
256
6
ByLayer
370
18
48
1
60
0
100
AcDbSpline
70
4
71
1
72
4
73
2
40
0
40
0
40
1
40
1
41
1
10
149.58181578621
20
-8.94157586247728
30
0
41
1
10
149.561205440623
20
-8.46183864268354
30
0
0
SPLINE
5
127
100
AcDbEntity
8
1
62
256
6
ByLayer
370
18
48
1
60
0
100
AcDbSpline
70
4
71
1
72
4
73
2
40
0
40
0
40
1
40
1
41
1
10
139.703885301063
20
-11.4712873633432
30
0
41
1
10
139.682258048943
20
-11.207657601849
30
0
0
SPLINE
5
128
100
AcDbEntity
8
1
62
256
6
ByLayer
370
18
48
1
60
0
100
AcDbSpline
70
4
71
2
72
6
73
3
40
0
40
0
40
0
40
1
40
1
40
1
41
1
10
149.611320846896
20
-6.31368762366254
30
0
41
1
10
149.621717349322
20
-6.1613629894301
30
0
41
1
10
149.567848995496
20
-6.01910386794377
30
0
0
SPLINE
5
129
100
AcDbEntity
8
1
62
256
6
ByLayer
370
18
48
1
60
0
100
AcDbSpline
70
4
71
1
72
4
73
2
40
0
40
0
40
1
40
1
41
1
10
149.561796680769
20
-6.34595381246799
30
0
41
1
10
149.611320846896
20
-6.31368762366254
30
0
0
SPLINE
5
12A
100
AcDbEntity
8
1
62
256
6
ByLayer
370
18
48
1
60
0
100
AcDbSpline
70
4
71
3
72
10
73
6
40
0
40
0
40
0
40
0
40
0.369283727591108
40
0.738331503333769
40
1
40
1
40
1
40
1
41
1
10
149.754304324003
20
-9.07124694591486
30
0
41
1
10
149.718297049315
20
-8.9579747652817
30
0
41
1
10
149.655237173131
20
-8.72938700961009
30
0
41
1
10
149.592395398898
20
-8.41268900964923
30
0
41
1
10
149.567537216662
20
-8.21133029422461
30
0
41
1
10
149.559601273034
20
-8.12737355031883
30
0
0
SPLINE
5
12B
100
AcDbEntity
8
1
62
256
6
ByLayer
370
18
48
1
60
0
100
AcDbSpline
70
4
71
2
72
6
73
3
40
0
40
0
40
0
40
1
40
1
40
1
41
1
10
149.559886870804
20
-7.04632172844354
30
0
41
1
10
149.582266502341
20
-6.68567818429929
30
0
41
1
10
149.611320846896
20
-6.31368762366254
30
0
0
SPLINE
5
12C
100
AcDbEntity
8
1
62
256
6
ByLayer
370
18
48
1
60
0
100
AcDbSpline
70
4
71
1
72
4
73
2
40
0
40
0
40
1
40
1
41
1
10
149.698560551815
20
-6.24801771372911
30
0
41
1
10
149.611320846896
20
-6.31368762366254
30
0
0
SPLINE
5
12D
100
AcDbEntity
8
1
62
256
6
ByLayer
370
18
48
1
60
0
100
AcDbSpline
70
4
71
3
72
10
73
6
40
0
40
0
40
0
40
0
40
0.218597748582114
40
0.608516918403978
40
1
40
1
40
1
40
1
41
1
10
149.565113867453
20
-5.83791176732384
30
0
41
1
10
149.586196342581
20
-5.86264957471591
30
0
41
1
10
149.637981722121
20
-5.9347577401194
30
0
41
1
10
149.692107112621
20
-6.07532409931293
30
0
41
1
10
149.701776130834
20
-6.18874431250538
30
0
41
1
10
149.698560441099
20
-6.24801779808474
30
0
0
SPLINE
5
12E
100
AcDbEntity
8
1
62
256
6
ByLayer
370
18
48
1
60
0
100
AcDbSpline
70
4
71
1
72
4
73
2
40
0
40
0
40
1
40
1
41
1
10
150.208280676831
20
-11.4669513082576
30
0
41
1
10
150.270760974245
20
-11.5403294217596
30
0
0
SPLINE
5
12F
100
AcDbEntity
8
1
62
256
6
ByLayer
370
18
48
1
60
0
100
AcDbSpline
70
4
71
3
72
12
73
8
40
0
40
0
40
0
40
0
40
0.257670548960198
40
0.468377378491833
40
0.67904472077987
40
0.890449759660661
40
1
40
1
40
1
40
1
41
1
10
150.270760974245
20
-11.5403294217596
30
0
41
1
10
150.276313831078
20
-11.6604539327093
30
0
41
1
10
150.248295170568
20
-11.8623849203547
30
0
41
1
10
150.101090706383
20
-12.1272521641146
30
0
41
1
10
149.891165636745
20
-12.3091008316867
30
0
41
1
10
149.671044851007
20
-12.3936259982957
30
0
41
1
10
149.532643711344
20
-12.4072110898964
30
0
41
1
10
149.48408765338
20
-12.407768268778
30
0
0
SPLINE
5
130
100
AcDbEntity
8
1
62
256
6
ByLayer
370
18
48
1
60
0
100
AcDbSpline
70
4
71
1
72
4
73
2
40
0
40
0
40
1
40
1
41
1
10
149.826510881278
20
-9.13413632467965
30
0
41
1
10
149.769937304608
20
-9.11992936697265
30
0
0
SPLINE
5
131
100
AcDbEntity
8
1
62
256
6
ByLayer
370
18
48
1
60
0
100
AcDbSpline
70
4
71
3
72
13
73
9
40
0
40
0
40
0
40
0
40
0.177797687828088
40
0.35770409624101
40
0.547993449169151
40
0.743316762755642
40
0.871513472777826
40
1
40
1
40
1
40
1
41
1
10
149.698561803861
20
-6.24801782340815
30
0
41
1
10
149.685944236572
20
-6.42224872632329
30
0
41
1
10
149.661811039571
20
-6.76897645660072
30
0
41
1
10
149.62045826846
20
-7.28216065330385
30
0
41
1
10
149.599398311402
20
-7.81258298517412
30
0
41
1
10
149.632260229956
20
-8.32438588294645
30
0
41
1
10
149.717690836539
20
-8.76770089011699
30
0
41
1
10
149.786530356501
20
-9.01281189980211
30
0
41
1
10
149.826510881278
20
-9.13413632467965
30
0
0
SPLINE
5
132
100
AcDbEntity
8
1
62
256
6
ByLayer
370
18
48
1
60
0
100
AcDbSpline
70
4
71
1
72
4
73
2
40
0
40
0
40
1
40
1
41
1
10
150.268160003499
20
-10.4237504992851
30
0
41
1
10
150.202238046748
20
-10.3645930835251
30
0
0
SPLINE
5
133
100
AcDbEntity
8
1
62
256
6
ByLayer
370
18
48
1
60
0
100
AcDbSpline
70
4
71
3
72
10
73
6
40
0
40
0
40
0
40
0
40
0.276050913724158
40
0.561499284837049
40
1
40
1
40
1
40
1
41
1
10
150.270761364615
20
-11.540329453391
30
0
41
1
10
150.272581658369
20
-11.437654510455
30
0
41
1
10
150.275126907874
20
-11.2287681368473
30
0
41
1
10
150.275454189159
20
-10.8565658837751
30
0
41
1
10
150.271802418857
20
-10.5870403842752
30
0
41
1
10
150.268160003499
20
-10.4237504992851
30
0
0
SPLINE
5
134
100
AcDbEntity
8
1
62
256
6
ByLayer
370
18
48
1
60
0
100
AcDbSpline
70
4
71
3
72
10
73
6
40
0
40
0
40
0
40
0
40
0.213195560902851
40
0.606543736281692
40
1
40
1
40
1
40
1
41
1
10
150.268160003499
20
-10.4237504992851
30
0
41
1
10
150.255268572105
20
-10.3271378036832
30
0
41
1
10
150.20650130172
20
-10.0555170789183
30
0
41
1
10
150.012777325092
20
-9.63791009336023
30
0
41
1
10
149.891563262017
20
-9.30126049559752
30
0
41
1
10
149.826510881278
20
-9.13413632467965
30
0
0
SPLINE
5
135
100
AcDbEntity
8
1
62
256
6
ByLayer
370
18
48
1
60
0
100
AcDbSpline
70
4
71
3
72
17
73
13
40
0
40
0
40
0
40
0
40
0.105919182402699
40
0.211837752784288
40
0.317756155891384
40
0.423674452174804
40
0.529603395425185
40
0.635532246265281
40
0.741421214211513
40
0.847310060608489
40
0.953223252187184
40
1
40
1
40
1
40
1
41
1
10
146.62211795804
20
8.94597331954049
30
0
41
1
10
146.621855938299
20
8.83326800390037
30
0
41
1
10
146.603181484183
20
8.61095910744604
30
0
41
1
10
146.52036790743
20
8.28227998852931
30
0
41
1
10
146.383805755805
20
7.97194386564518
30
0
41
1
10
146.199198816042
20
7.68688532378246
30
0
41
1
10
145.969946047773
20
7.4366937857461
30
0
41
1
10
145.704262330731
20
7.22687722459657
30
0
41
1
10
145.408283718348
20
7.06523848447736
30
0
41
1
10
145.091622887962
20
6.95424961122926
30
0
41
1
10
144.823226635773
20
6.90961657449327
30
0
41
1
10
144.664445329617
20
6.90225767818113
30
0
41
1
10
144.615611822828
20
6.90180379275213
30
0
0
SPLINE
5
136
100
AcDbEntity
8
1
62
256
6
ByLayer
370
18
48
1
60
0
100
AcDbSpline
70
4
71
1
72
4
73
2
40
0
40
0
40
1
40
1
41
1
10
138.772694888693
20
6.91510766491927
30
0
41
1
10
138.772704725908
20
6.93562664912413
30
0
0
SPLINE
5
137
100
AcDbEntity
8
1
62
256
6
ByLayer
370
18
48
1
60
0
100
AcDbSpline
70
4
71
2
72
6
73
3
40
0
40
0
40
0
40
1
40
1
40
1
41
1
10
138.772704725908
20
6.93562664912413
30
0
41
1
10
138.77295446638
20
7.23511813197687
30
0
41
1
10
138.779658966059
20
7.53473397084385
30
0
0
SPLINE
5
138
100
AcDbEntity
8
1
62
256
6
ByLayer
370
18
48
1
60
0
100
AcDbSpline
70
4
71
3
72
10
73
6
40
0
40
0
40
0
40
0
40
0.213208498211608
40
0.606550632732193
40
1
40
1
40
1
40
1
41
1
10
138.779658966059
20
7.53473397084385
30
0
41
1
10
138.792752794854
20
7.63121784291002
30
0
41
1
10
138.84206211582
20
7.90247917488961
30
0
41
1
10
139.036692694892
20
8.31947020178756
30
0
41
1
10
139.15819722459
20
8.65591254983103
30
0
41
1
10
139.22332546592
20
8.82297859803812
30
0
0
SPLINE
5
139
100
AcDbEntity
8
1
62
256
6
ByLayer
370
18
48
1
60
0
100
AcDbSpline
70
4
71
3
72
13
73
9
40
0
40
0
40
0
40
0
40
0.172591138089506
40
0.345689000631569
40
0.530036611257689
40
0.718182363593488
40
0.85885669261982
40
1
40
1
40
1
40
1
41
1
10
139.703885301063
20
11.4712873633432
30
0
41
1
10
139.692823733947
20
11.3173499114476
30
0
41
1
10
139.664837476975
20
11.0163127629046
30
0
41
1
10
139.604113942268
20
10.5884791983434
30
0
41
1
10
139.522351435987
20
10.1477876514428
30
0
41
1
10
139.431093995234
20
9.68458116841058
30
0
41
1
10
139.339688496503
20
9.22702563433874
30
0
41
1
10
139.264636489508
20
8.95815061191627
30
0
41
1
10
139.22332546592
20
8.82297859803812
30
0
0
SPLINE
5
13A
100
AcDbEntity
8
1
62
256
6
ByLayer
370
18
48
1
60
0
100
AcDbSpline
70
4
71
3
72
12
73
8
40
0
40
0
40
0
40
0
40
0.185953919231303
40
0.371830973717352
40
0.563653871569581
40
0.781291837778868
40
1
40
1
40
1
40
1
41
1
10
140.189470257801
20
12.0023899892368
30
0
41
1
10
140.139210799151
20
11.9982840019357
30
0
41
1
10
140.044561616305
20
11.9763532414756
30
0
41
1
10
139.913065117218
20
11.8960971860659
30
0
41
1
10
139.805534712253
20
11.7783480490405
30
0
41
1
10
139.730193237557
20
11.6308689029686
30
0
41
1
10
139.707759742251
20
11.5258172529693
30
0
41
1
10
139.703886685338
20
11.4712873825785
30
0
0
SPLINE
5
13B
100
AcDbEntity
8
1
62
256
6
ByLayer
370
18
48
1
60
0
100
AcDbSpline
70
4
71
3
72
13
73
9
40
0
40
0
40
0
40
0
40
0.0630849048525909
40
0.126139898226449
40
0.253293158693382
40
0.625856998567362
40
0.812876301947144
40
1
40
1
40
1
40
1
41
1
10
149.48408765338
20
12.407768268778
30
0
41
1
10
149.282555386904
20
12.4095980490827
30
0
41
1
10
148.882693052293
20
12.4120211398477
30
0
41
1
10
148.092007446758
20
12.4128474507092
30
0
41
1
10
146.378524398395
20
12.3918843888216
30
0
41
1
10
144.277377556682
20
12.2953377916786
30
0
41
1
10
141.966015167328
20
12.1286931522666
30
0
41
1
10
140.784823996198
20
12.0456005755077
30
0
41
1
10
140.189470303155
20
12.0023881599612
30
0
0
SPLINE
5
13C
100
AcDbEntity
8
1
62
256
6
ByLayer
370
18
48
1
60
0
100
AcDbSpline
70
4
71
3
72
12
73
8
40
0
40
0
40
0
40
0
40
0.257670548960198
40
0.468377378491833
40
0.67904472077987
40
0.890449759660661
40
1
40
1
40
1
40
1
41
1
10
150.270760974245
20
11.5403294217596
30
0
41
1
10
150.276313831078
20
11.6604539327093
30
0
41
1
10
150.248295170568
20
11.8623849203547
30
0
41
1
10
150.101090706383
20
12.1272521641146
30
0
41
1
10
149.891165636745
20
12.3091008316867
30
0
41
1
10
149.671044851007
20
12.3936259982957
30
0
41
1
10
149.532643711344
20
12.4072110898964
30
0
41
1
10
149.48408765338
20
12.407768268778
30
0
0
SPLINE
5
13D
100
AcDbEntity
8
1
62
256
6
ByLayer
370
18
48
1
60
0
100
AcDbSpline
70
4
71
3
72
10
73
6
40
0
40
0
40
0
40
0
40
0.276050913724158
40
0.561499284837049
40
1
40
1
40
1
40
1
41
1
10
150.270761364615
20
11.540329453391
30
0
41
1
10
150.272581658369
20
11.437654510455
30
0
41
1
10
150.275126907874
20
11.2287681368473
30
0
41
1
10
150.275454189159
20
10.8565658837751
30
0
41
1
10
150.271802418857
20
10.5870403842752
30
0
41
1
10
150.268160003499
20
10.4237504992851
30
0
0
SPLINE
5
13E
100
AcDbEntity
8
1
62
256
6
ByLayer
370
18
48
1
60
0
100
AcDbSpline
70
4
71
3
72
10
73
6
40
0
40
0
40
0
40
0
40
0.213195560902851
40
0.606543736281692
40
1
40
1
40
1
40
1
41
1
10
150.268160003499
20
10.4237504992851
30
0
41
1
10
150.255268572105
20
10.3271378036832
30
0
41
1
10
150.20650130172
20
10.0555170789183
30
0
41
1
10
150.012777325092
20
9.63791009336023
30
0
41
1
10
149.891563262017
20
9.30126049559752
30
0
41
1
10
149.826510881278
20
9.13413632467965
30
0
0
SPLINE
5
13F
100
AcDbEntity
8
1
62
256
6
ByLayer
370
18
48
1
60
0
100
AcDbSpline
70
4
71
3
72
13
73
9
40
0
40
0
40
0
40
0
40
0.177797687828087
40
0.357704096241007
40
0.547993449169163
40
0.743316762755635
40
0.87151347277782
40
1
40
1
40
1
40
1
41
1
10
149.698561803861
20
6.24801782340815
30
0
41
1
10
149.685944236572
20
6.42224872632329
30
0
41
1
10
149.661811039571
20
6.76897645660071
30
0
41
1
10
149.62045826846
20
7.28216065330387
30
0
41
1
10
149.599398311402
20
7.81258298517414
30
0
41
1
10
149.632260229956
20
8.32438588294642
30
0
41
1
10
149.717690836539
20
8.7677008901171
30
0
41
1
10
149.786530356501
20
9.01281189980214
30
0
41
1
10
149.826510881278
20
9.13413632467965
30
0
0
SPLINE
5
140
100
AcDbEntity
8
1
62
256
6
ByLayer
370
18
48
1
60
0
100
AcDbSpline
70
4
71
3
72
10
73
6
40
0
40
0
40
0
40
0
40
0.218597748582122
40
0.608516918403982
40
1
40
1
40
1
40
1
41
1
10
149.565113867453
20
5.83791176732381
30
0
41
1
10
149.586196342581
20
5.86264957471589
30
0
41
1
10
149.637981722121
20
5.93475774011941
30
0
41
1
10
149.692107112621
20
6.07532409931293
30
0
41
1
10
149.701776130834
20
6.18874431250538
30
0
41
1
10
149.6985604411
20
6.24801779808474
30
0
0
SPLINE
5
141
100
AcDbEntity
8
1
62
256
6
ByLayer
370
18
48
1
60
0
100
AcDbSpline
70
4
71
2
72
6
73
3
40
0
40
0
40
0
40
1
40
1
40
1
41
1
10
146.484319402345
20
9.67272878407152
30
0
41
1
10
146.621356366019
20
9.32527026998843
30
0
41
1
10
146.62211795804
20
8.94597331954049
30
0
0
SPLINE
5
142
100
AcDbEntity
8
1
62
256
6
ByLayer
370
18
48
1
60
0
100
AcDbSpline
70
4
71
3
72
34
73
30
40
0
40
0
40
0
40
0
40
0.0218711849420642
40
0.0609746489236428
40
0.10007808848589
40
0.139182616560586
40
0.178287169821968
40
0.217394592061457
40
0.256502046258679
40
0.295605535268441
40
0.334709114964455
40
0.373817808606773
40
0.412926473840332
40
0.45202447802578
40
0.491122561795892
40
0.530228973634177
40
0.569335403079482
40
0.608443604233639
40
0.647551791929978
40
0.686649995654113
40
0.72574804501606
40
0.764856213086598
40
0.803964417966548
40
0.843071132987643
40
0.882177821594676
40
0.921278587193636
40
0.960379234515597
40
0.99948570106805
40
1
40
1
40
1
40
1
41
1
10
144.615611822828
20
6.90180379275213
30
0
41
1
10
144.553694133406
20
6.90136540367365
30
0
41
1
10
144.382386336398
20
6.90826611506552
30
0
41
1
10
144.104268371247
20
6.95765986604182
30
0
41
1
10
143.79421532613
20
7.06933425756276
30
0
41
1
10
143.509063556493
20
7.23368020142333
30
0
41
1
10
143.255891137138
20
7.44404405213041
30
0
41
1
10
143.043345567163
20
7.69625894953355
30
0
41
1
10
142.875722662711
20
7.98161790214246
30
0
41
1
10
142.759768184445
20
8.29323503597081
30
0
41
1
10
142.696589459254
20
8.62140495360015
30
0
41
1
10
142.690239013108
20
8.95733302082543
30
0
41
1
10
142.738653448676
20
9.2913153491187
30
0
41
1
10
142.842709889055
20
9.61357762285896
30
0
41
1
10
142.99722664652
20
9.91568014522104
30
0
41
1
10
143.199866996728
20
10.1880557697891
30
0
41
1
10
143.443078125062
20
10.4243234272052
30
0
41
1
10
143.721513109624
20
10.6160933638849
30
0
41
1
10
144.026016978631
20
10.7597803109307
30
0
41
1
10
144.34880072497
20
10.8492605534665
30
0
41
1
10
144.68018834756
20
10.8842522668656
30
0
41
1
10
145.010996204976
20
10.8613973527406
30
0
41
1
10
145.332039949342
20
10.7836965874984
30
0
41
1
10
145.633500592786
20
10.6510555845009
30
0
41
1
10
145.908091072194
20
10.4695033839626
30
0
41
1
10
146.145562296183
20
10.2417583033611
30
0
41
1
10
146.345071914209
20
9.97792509066083
30
0
41
1
10
146.437729467944
20
9.77585760329691
30
0
41
1
10
146.483723311595
20
9.67405083376877
30
0
41
1
10
146.484319402345
20
9.67272878407152
30
0
0
SPLINE
5
143
100
AcDbEntity
8
1
62
256
6
ByLayer
370
18
48
1
60
0
100
AcDbSpline
70
4
71
1
72
4
73
2
40
0
40
0
40
1
40
1
41
1
10
146.589427195537
20
8.79666104477014
30
0
41
1
10
146.587232003012
20
8.88445440526958
30
0
0
SPLINE
5
144
100
AcDbEntity
8
1
62
256
6
ByLayer
370
18
48
1
60
0
100
AcDbSpline
70
4
71
1
72
4
73
2
40
0
40
0
40
1
40
1
41
1
10
146.587232003008
20
8.88445440535832
30
0
41
1
10
146.573113635651
20
9.03519702446688
30
0
0
SPLINE
5
145
100
AcDbEntity
8
1
62
256
6
ByLayer
370
18
48
1
60
0
100
AcDbSpline
70
4
71
3
72
12
73
8
40
0
40
0
40
0
40
0
40
0.116946799633451
40
0.355555742493065
40
0.629294367277215
40
0.903032992061369
40
1
40
1
40
1
40
1
41
1
10
146.573113635651
20
9.03519702446688
30
0
41
1
10
146.566482167385
20
9.08327178112542
30
0
41
1
10
146.54043528246
20
9.22760019382392
30
0
41
1
10
146.461874823746
20
9.47591151464082
30
0
41
1
10
146.308863893286
20
9.76098556551087
30
0
41
1
10
146.139621630079
20
9.9645086724543
30
0
41
1
10
146.02844595839
20
10.0661068112922
30
0
41
1
10
145.998325436038
20
10.0917314992303
30
0
0
SPLINE
5
146
100
AcDbEntity
8
1
62
256
6
ByLayer
370
18
48
1
60
0
100
AcDbSpline
70
4
71
3
72
11
73
7
40
0
40
0
40
0
40
0
40
0.382349089838003
40
0.61121095395162
40
0.840072818065241
40
1
40
1
40
1
40
1
41
1
10
143.152990268375
20
8.58506041032054
30
0
41
1
10
143.166671519399
20
8.38953829482755
30
0
41
1
10
143.234038716242
20
8.09703868995877
30
0
41
1
10
143.430134180574
20
7.7311378286634
30
0
41
1
10
143.624143671193
20
7.49805696835545
30
0
41
1
10
143.767822010917
20
7.37567263472562
30
0
41
1
10
143.83089010995
20
7.32912661698565
30
0
0
SPLINE
5
147
100
AcDbEntity
8
1
62
256
6
ByLayer
370
18
48
1
60
0
100
AcDbSpline
70
4
71
3
72
13
73
9
40
0
40
0
40
0
40
0
40
0.0983600793391071
40
0.291243182627656
40
0.483269823522491
40
0.67339291969225
40
0.861096471212653
40
1
40
1
40
1
40
1
41
1
10
145.823650805703
20
9.79128996456305
30
0
41
1
10
145.857460379209
20
9.76862562180304
30
0
41
1
10
145.953727714423
20
9.69704365682563
30
0
41
1
10
146.09630131296
20
9.5549047096054
30
0
41
1
10
146.232190907831
20
9.35449979874424
30
0
41
1
10
146.329139990819
20
9.13039326194425
30
0
41
1
10
146.37948429451
20
8.90961535165896
30
0
41
1
10
146.388960077174
20
8.76563910556098
30
0
41
1
10
146.3890685102
20
8.70326476781265
30
0
0
SPLINE
5
148
100
AcDbEntity
8
1
62
256
6
ByLayer
370
18
48
1
60
0
100
AcDbSpline
70
4
71
3
72
20
73
16
40
0
40
0
40
0
40
0
40
0.0324520608261289
40
0.114216869994141
40
0.195558873230868
40
0.276436235469452
40
0.357080899047898
40
0.43769238171537
40
0.518460692950124
40
0.599625587115005
40
0.681429733494895
40
0.764102007795052
40
0.847819121762271
40
0.932642504891909
40
1
40
1
40
1
40
1
41
1
10
146.3890685102
20
8.70326476781265
30
0
41
1
10
146.389074773358
20
8.67092317730801
30
0
41
1
10
146.38515609481
20
8.55724824964699
30
0
41
1
10
146.354609421867
20
8.36110486108164
30
0
41
1
10
146.274413441488
20
8.12409634639209
30
0
41
1
10
146.155172335805
20
7.90350485337696
30
0
41
1
10
146.001052562745
20
7.70654710827599
30
0
41
1
10
145.81720007062
20
7.53918076899451
30
0
41
1
10
145.609602360199
20
7.40637041238691
30
0
41
1
10
145.384795439882
20
7.3119072212539
30
0
41
1
10
145.14960220846
20
7.25841932319388
30
0
41
1
10
144.910913833598
20
7.24748360417172
30
0
41
1
10
144.675804002411
20
7.27958829735855
30
0
41
1
10
144.467040893806
20
7.34918577530604
30
0
41
1
10
144.343666084962
20
7.41496318831322
30
0
41
1
10
144.290970819942
20
7.44831488812486
30
0
0
INSERT
5
178
100
AcDbEntity
8
SK2
62
256
6
ByLayer
370
25
48
1
60
0
100
AcDbBlockReference
2
DimnDraft3D44
10
0
20
0
30
0
41
1
42
1
43
1
50
0
210
0
220
0
230
1
0
LINE
5
70
100
AcDbEntity
8
81
62
256
6
ByLayer
370
18
48
1
60
0
100
AcDbLine
10
150
20
12.5
30
0
11
165
21
12.5
31
0
39
0
210
0
220
0
230
1
0
LINE
5
71
100
AcDbEntity
8
4
62
256
6
ByLayer
370
18
48
0.05
60
0
100
AcDbLine
10
0
20
0
30
0
11
150
21
0
31
0
39
0
210
0
220
0
230
1
0
LINE
5
73
100
AcDbEntity
8
SK4
62
256
6
ByLayer
370
18
48
0.05
60
0
100
AcDbLine
10
-63
20
0
30
0
11
155
21
0
31
0
39
0
210
0
220
0
230
1
0
LINE
5
75
100
AcDbEntity
8
80
62
256
6
ByLayer
370
18
48
1
60
0
100
AcDbLine
10
0
20
0
30
0
11
-15
21
0
31
0
39
0
210
0
220
0
230
1
0
LINE
5
76
100
AcDbEntity
8
SK1
62
256
6
ByLayer
370
18
48
1
60
0
100
AcDbLine
10
-0.724886
20
12.49675
30
0
11
-56.724886
21
12.49675
31
0
39
0
210
0
220
0
230
1
0
LINE
5
78
100
AcDbEntity
8
SK1
62
256
6
ByLayer
370
18
48
1
60
0
100
AcDbLine
10
-56.724886
20
-12.49675
30
0
11
-0.724886
21
-12.49675
31
0
39
0
210
0
220
0
230
1
0
LINE
5
79
100
AcDbEntity
8
SK1
62
256
6
ByLayer
370
18
48
1
60
0
100
AcDbLine
10
-56.724886
20
12.49675
30
0
11
-57.724886
21
11.49675
31
0
39
0
210
0
220
0
230
1
0
LINE
5
7A
100
AcDbEntity
8
SK1
62
256
6
ByLayer
370
18
48
1
60
0
100
AcDbLine
10
-57.724886
20
-11.49675
30
0
11
-56.724886
21
-12.49675
31
0
39
0
210
0
220
0
230
1
0
LINE
5
7B
100
AcDbEntity
8
1
62
256
6
ByLayer
370
18
48
1
60
0
100
AcDbLine
10
0
20
-12.183637
30
0
11
132.274362
21
-11.935001
31
0
39
0
210
0
220
0
230
1
0
LINE
5
7D
100
AcDbEntity
8
1
62
256
6
ByLayer
370
18
48
1
60
0
100
AcDbLine
10
132.274362
20
11.935001
30
0
11
0
21
12.183637
31
0
39
0
210
0
220
0
230
1
0
LINE
5
7E
100
AcDbEntity
8
1
62
256
6
ByLayer
370
18
48
1
60
0
100
AcDbLine
10
133.132356
20
11.935
30
0
11
132.275866
21
11.935
31
0
39
0
210
0
220
0
230
1
0
LINE
5
7F
100
AcDbEntity
8
1
62
256
6
ByLayer
370
18
48
1
60
0
100
AcDbLine
10
132.275866
20
-11.935
30
0
11
133.132356
21
-11.935
31
0
39
0
210
0
220
0
230
1
0
LINE
5
80
100
AcDbEntity
8
1
62
256
6
ByLayer
370
18
48
1
60
0
100
AcDbLine
10
147.606824
20
-7.680316
30
0
11
147.761928
21
-7.575708
31
0
39
0
210
0
220
0
230
1
0
LINE
5
81
100
AcDbEntity
8
1
62
256
6
ByLayer
370
18
48
1
60
0
100
AcDbLine
10
133.790397
20
10.508716
30
0
11
134.586478
21
9.42219
31
0
39
0
210
0
220
0
230
1
0
LINE
5
82
100
AcDbEntity
8
1
62
256
6
ByLayer
370
18
48
1
60
0
100
AcDbLine
10
147.606824
20
-7.680316
30
0
11
147.606824
21
-8.296992
31
0
39
0
210
0
220
0
230
1
0
LINE
5
83
100
AcDbEntity
8
1
62
256
6
ByLayer
370
18
48
1
60
0
100
AcDbLine
10
134.586478
20
9.42219
30
0
11
133.311431
21
11.717072
31
0
39
0
210
0
220
0
230
1
0
LINE
5
84
100
AcDbEntity
8
1
62
256
6
ByLayer
370
18
48
1
60
0
100
AcDbLine
10
136.052081
20
9.9406
30
0
11
135.242709
21
11.397341
31
0
39
0
210
0
220
0
230
1
0
LINE
5
85
100
AcDbEntity
8
1
62
256
6
ByLayer
370
18
48
1
60
0
100
AcDbLine
10
138.370676
20
7.758833
30
0
11
138.347911
21
7.762271
31
0
39
0
210
0
220
0
230
1
0
LINE
5
86
100
AcDbEntity
8
SK1
62
256
6
ByLayer
370
18
48
1
60
0
100
AcDbLine
10
-56.724886
20
12.49675
30
0
11
-56.724886
21
-12.49675
31
0
39
0
210
0
220
0
230
1
0
LINE
5
87
100
AcDbEntity
8
SK1
62
256
6
ByLayer
370
18
48
1
60
0
100
AcDbLine
10
-0.724886
20
-12.49675
30
0
11
-0.724886
21
12.49675
31
0
39
0
210
0
220
0
230
1
0
LINE
5
88
100
AcDbEntity
8
1
62
256
6
ByLayer
370
18
48
1
60
0
100
AcDbLine
10
0
20
12.183637
30
0
11
0
21
-12.183637
31
0
39
0
210
0
220
0
230
1
0
LINE
5
89
100
AcDbEntity
8
SK1
62
256
6
ByLayer
370
18
48
1
60
0
100
AcDbLine
10
-57.724886
20
11.49675
30
0
11
-57.724886
21
-11.49675
31
0
39
0
210
0
220
0
230
1
0
LINE
5
8A
100
AcDbEntity
8
1
62
256
6
ByLayer
370
18
48
1
60
0
100
AcDbLine
10
132.274362
20
-11.935001
30
0
11
132.274362
21
11.935001
31
0
39
0
210
0
220
0
230
1
0
LINE
5
8B
100
AcDbEntity
8
1
62
256
6
ByLayer
370
18
48
1
60
0
100
AcDbLine
10
132.275866
20
11.935
30
0
11
132.275866
21
-11.935
31
0
39
0
210
0
220
0
230
1
0
LINE
5
8C
100
AcDbEntity
8
1
62
256
6
ByLayer
370
18
48
1
60
0
100
AcDbLine
10
138.76264
20
-11.50313
30
0
11
138.76264
21
-11.495557
31
0
39
0
210
0
220
0
230
1
0
LINE
5
8D
100
AcDbEntity
8
1
62
256
6
ByLayer
370
18
48
1
60
0
100
AcDbLine
10
138.76264
20
-11.495557
30
0
11
138.76264
21
6.878915
31
0
39
0
210
0
220
0
230
1
0
LINE
5
8E
100
AcDbEntity
8
1
62
256
6
ByLayer
370
18
48
1
60
0
100
AcDbLine
10
138.76264
20
6.878915
30
0
11
138.76264
21
6.917648
31
0
39
0
210
0
220
0
230
1
0
LINE
5
8F
100
AcDbEntity
8
1
62
256
6
ByLayer
370
18
48
1
60
0
100
AcDbLine
10
138.787583
20
6.91164
30
0
11
138.787583
21
-11.494946
31
0
39
0
210
0
220
0
230
1
0
LINE
5
90
100
AcDbEntity
8
1
62
256
6
ByLayer
370
18
48
1
60
0
100
AcDbLine
10
141.648003
20
-10.382053
30
0
11
141.648003
21
6.635054
31
0
39
0
210
0
220
0
230
1
0
LINE
5
91
100
AcDbEntity
8
1
62
256
6
ByLayer
370
18
48
1
60
0
100
AcDbLine
10
148.754015
20
-11.26574
30
0
11
148.754015
21
6.514533
31
0
39
0
210
0
220
0
230
1
0
LINE
5
92
100
AcDbEntity
8
1
62
256
6
ByLayer
370
18
48
1
60
0
100
AcDbLine
10
149.561129
20
6.42564
30
0
11
149.561129
21
-10.514921
31
0
39
0
210
0
220
0
230
1
0
LINE
5
93
100
AcDbEntity
8
1
62
256
6
ByLayer
370
18
48
1
60
0
100
AcDbLine
10
141.668038
20
6.634613
30
0
11
141.668038
21
-10.383294
31
0
39
0
210
0
220
0
230
1
0
MTEXT
5
149
100
AcDbEntity
8
SK6
62
256
6
ByLayer
370
13
48
1
60
0
100
AcDbMText
10
5.132143
20
62.296798
30
0
210
0
220
0
230
1
1
\W0.7413;R390-025A25D-11L
40
3.5
41
0
44
1.084337
50
0
71
7
72
5
7
iso_b_vert
0
DIMENSION
5
157
100
AcDbEntity
8
2
62
256
6
ByLayer
370
13
48
1
60
0
100
AcDbDimension
2
DimnDraft3D1
10
150
20
38.839744
30
0
11
72.313783
21
38.839744
31
0
70
32
71
5
72
1
41
1
210
0
220
0
230
1
3
Standard
100
AcDbAlignedDimension
13
0
23
1.5875
33
0
14
150
24
14.0875
34
0
50
0
100
AcDbRotatedDimension
1001
ACAD
1000
DSTYLE
1002
{
1070
   279
1070
     0
1070
   173
1070
     1
1070
   340
1005
14A
1070
   271
1070
     1
1070
   272
1070
     2
1070
    77
1070
     1
1070
    73
1070
     0
1070
   171
1070
     3
1070
   274
1070
     4
1070
   177
1070
     7
1070
   176
1070
     7
1070
   178
1070
     7
1070
    78
1070
     8
1070
    48
1040
-0.005
1070
    41
1041
3.175
1070
   147
1041
1.5875
1070
    42
1041
1.5875
1070
    44
1041
3.175
1070
   140
1041
3.175
1070
   343
1005
0
1070
   344
1005
0
1002
}
0
DIMENSION
5
162
100
AcDbEntity
8
2
62
256
6
ByLayer
370
13
48
1
60
0
100
AcDbDimension
2
DimnDraft3D2
10
173.866151
20
-12.407768
30
0
11
168.309901
21
2.46898
31
0
70
33
71
5
72
1
41
1
210
0
220
0
230
1
3
Standard
100
AcDbAlignedDimension
13
151.071588
23
12.407768
33
0
14
151.071588
24
-12.407768
34
0
1001
ACAD
1000
DSTYLE
1002
{
1070
   279
1070
     0
1070
    74
1070
     0
1070
   173
1070
     1
1070
   340
1005
14A
1070
   271
1070
     0
1070
   272
1070
     2
1070
    77
1070
     1
1070
    73
1070
     0
1070
   171
1070
     3
1070
   274
1070
     4
1070
   177
1070
     7
1070
   176
1070
     7
1070
   178
1070
     7
1070
    78
1070
     8
1070
    48
1040
-0.005
1070
    41
1041
3.175
1070
   147
1041
1.5875
1070
    42
1041
1.5875
1070
    44
1041
3.175
1070
   140
1041
3.175
1070
   343
1005
0
1070
   344
1005
0
1002
}
0
DIMENSION
5
16E
100
AcDbEntity
8
SK2
62
256
6
ByLayer
370
13
48
1
60
0
100
AcDbDimension
2
DimnDraft3D3
10
-73.25228
20
12.49675
30
0
11
-72.45853
21
2.46898
31
0
70
33
71
5
72
1
41
1
210
0
220
0
230
1
3
Standard
100
AcDbAlignedDimension
13
-58.312386
23
-12.49675
33
0
14
-58.312386
24
12.49675
34
0
1001
ACAD
1000
DSTYLE
1002
{
1070
   279
1070
     0
1070
    74
1070
     0
1070
   173
1070
     1
1070
   340
1005
14A
1070
   271
1070
     1
1070
   272
1070
     2
1070
    77
1070
     1
1070
    73
1070
     0
1070
   171
1070
     3
1070
   274
1070
     4
1070
   177
1070
     7
1070
   176
1070
     7
1070
   178
1070
     7
1070
    78
1070
     8
1070
    48
1040
-0.005
1070
    41
1041
3.175
1070
   147
1041
1.5875
1070
    42
1041
1.5875
1070
    44
1041
3.175
1070
   140
1041
3.175
1070
   343
1005
0
1070
   344
1005
0
1002
}
0
DIMENSION
5
182
100
AcDbEntity
8
SK2
62
256
6
ByLayer
370
13
48
1
60
0
100
AcDbDimension
2
DimnDraft3D5
10
140.18947
20
27.753594
30
0
11
143.594965
21
27.753594
31
0
70
32
71
5
72
1
41
1
210
0
220
0
230
1
3
Standard
100
AcDbAlignedDimension
13
150
23
14.0875
33
0
14
140.18947
24
13.58989
34
0
50
0
100
AcDbRotatedDimension
1001
ACAD
1000
DSTYLE
1002
{
1070
   279
1070
     0
1070
   173
1070
     1
1070
   340
1005
14A
1070
   271
1070
     0
1070
   272
1070
     2
1070
    77
1070
     1
1070
    73
1070
     0
1070
   171
1070
     3
1070
   274
1070
     4
1070
   177
1070
     7
1070
   176
1070
     7
1070
   178
1070
     7
1070
    78
1070
     8
1070
    48
1040
-0.005
1070
    41
1041
3.175
1070
   147
1041
1.5875
1070
    42
1041
1.5875
1070
    44
1041
3.175
1070
   140
1041
3.175
1070
   343
1005
0
1070
   344
1005
0
1002
}
0
ENDSEC
0
SECTION
2
OBJECTS
0
DICTIONARY
5
1ed
330
0
100
AcDbDictionary
280
0
281
1
3
ACAD_GROUP
350
1ee
3
ACAD_MLINESTYLE
350
1ef
0
DICTIONARY
5
1ee
330
0
100
AcDbDictionary
280
0
281
1
0
DICTIONARY
5
1ef
330
0
100
AcDbDictionary
280
0
281
1
3
Standard
350
18
0
MLINESTYLE
5
18
330
1ef
100
AcDbMlineStyle
2
Standard
70
0
3

62
256
51
90
52
90
71
2
49
-0.5
62
256
6
ByLayer
49
0.5
62
256
6
ByLayer
0
RASTERVARIABLES
5
1db
330

100
AcDbRasterVariables
90
0
70
1
71
1
72
1
0
ENDSEC
0
EOF
