0
SECTION
2
HEADER
9
$ACADVER
1
AC1015
9
$DWGCODEPAGE
3
ANSI_1252
9
$HANDSEED
5
1c1
9
$ANGBASE
50
0
9
$ANGDIR
70
0
9
$ATTMODE
70
1
9
$AUNITS
70
0
9
$AUPREC
70
0
9
$CECOLOR
62
256
9
$CELTSCALE
40
1
9
$CELTYPE
6
ByLayer
9
$CELWEIGHT
370
-1
9
$CLAYER
8
0
9
$CMLJUST
70
0
9
$CMLSCALE
40
1
9
$CMLSTYLE
2
Standard
9
$DIMSTYLE
2
Standard
9
$TEXTSIZE
40
0.2
9
$TEXTSTYLE
7
Standard
9
$LUNITS
70
2
9
$LUPREC
70
4
9
$EXTNAMES
290
1
9
$INSUNITS
70
4
9
$LTSCALE
40
1
9
$LWDISPLAY
290
0
9
$PDMODE
70
0
9
$PDSIZE
40
0
9
$PLINEGEN
70
0
0
ENDSEC
0
SECTION
2
CLASSES
0
CLASS
1
RASTERVARIABLES
2
AcDbRasterVariables
3
ISM
90
0
280
0
281
0
0
ENDSEC
0
SECTION
2
TABLES
0
TABLE
2
VPORT
5
1b7
100
AcDbSymbolTable
0
VPORT
5
1
100
AcDbSymbolTableRecord
100
AcDbViewportTableRecord
2
*Active
70
0
10
0
20
0
11
1
21
1
12
-1
22
1
13
0
23
0
14
0.5
24
0.5
15
10
25
10
16
0
26
0
36
1
17
0
27
0
37
0
0
ENDTAB
0
TABLE
2
LTYPE
5
1b8
100
AcDbSymbolTable
0
LTYPE
5
14
100
AcDbSymbolTableRecord
100
AcDbLinetypeTableRecord
70
0
2
ByBlock
3

72
65
73
0
40
0
0
LTYPE
5
15
100
AcDbSymbolTableRecord
100
AcDbLinetypeTableRecord
70
0
2
ByLayer
3

72
65
73
0
40
0
0
LTYPE
5
16
100
AcDbSymbolTableRecord
100
AcDbLinetypeTableRecord
70
0
2
CONTINUOUS
3
Solid line
72
65
73
0
40
0
0
LTYPE
5
3C
100
AcDbSymbolTableRecord
100
AcDbLinetypeTableRecord
70
0
2
DASHED
3
__ __ __ __ __ __ __ __ __
72
65
73
2
40
25.72
49
12.86
74
0
49
-12.86
74
0
0
LTYPE
5
3D
100
AcDbSymbolTableRecord
100
AcDbLinetypeTableRecord
70
0
2
HIDDEN
3
_ _ _ _ _ _ _ _ _ _ _ _ _ _ _
72
65
73
2
40
0.5
49
0.25
74
0
49
-0.25
74
0
0
LTYPE
5
3E
100
AcDbSymbolTableRecord
100
AcDbLinetypeTableRecord
70
0
2
PHANTOM
3
____ _ _ ____ _ _ _____ _ _ ____
72
65
73
6
40
50.5
49
18
74
0
49
-6.5
74
0
49
6.5
74
0
49
-6.5
74
0
49
6.5
74
0
49
-6.5
74
0
0
LTYPE
5
3F
100
AcDbSymbolTableRecord
100
AcDbLinetypeTableRecord
70
0
2
CENTER
3
____ _ ____ _ ____ _ ____
72
65
73
4
40
47.5
49
22
74
0
49
-8.5
74
0
49
8.5
74
0
49
-8.5
74
0
0
LTYPE
5
40
100
AcDbSymbolTableRecord
100
AcDbLinetypeTableRecord
70
0
2
DOT
3
.........................
72
65
73
2
40
10
49
0
74
0
49
-10
74
0
0
LTYPE
5
41
100
AcDbSymbolTableRecord
100
AcDbLinetypeTableRecord
70
0
2
DASHDOT
3
_._._._._._._._._._._._._._._._.
72
65
73
4
40
70
49
31
74
0
49
-13
74
0
49
13
74
0
49
-13
74
0
0
ENDTAB
0
TABLE
2
LAYER
5
1b9
100
AcDbSymbolTable
0
LAYER
5
10
100
AcDbSymbolTableRecord
100
AcDbLayerTableRecord
2
0
70
0
62
7
6
CONTINUOUS
290
1
370
-3
390
0
0
LAYER
5
45
100
AcDbSymbolTableRecord
100
AcDbLayerTableRecord
2
2
70
0
62
7
6
CONTINUOUS
290
1
370
-3
390
0
0
LAYER
5
47
100
AcDbSymbolTableRecord
100
AcDbLayerTableRecord
2
81
70
0
62
-3
6
CONTINUOUS
290
1
370
-3
390
0
0
LAYER
5
49
100
AcDbSymbolTableRecord
100
AcDbLayerTableRecord
2
80
70
0
62
-6
6
CONTINUOUS
290
1
370
-3
390
0
0
LAYER
5
4F
100
AcDbSymbolTableRecord
100
AcDbLayerTableRecord
2
4
70
0
62
-2
6
CENTER
290
1
370
-3
390
0
0
LAYER
5
51
100
AcDbSymbolTableRecord
100
AcDbLayerTableRecord
2
1
70
0
62
4
6
CONTINUOUS
290
1
370
-3
390
0
0
LAYER
5
1a3
100
AcDbSymbolTableRecord
100
AcDbLayerTableRecord
2
SK2
70
0
62
7
6
CONTINUOUS
290
1
370
-3
390
0
0
LAYER
5
1a4
100
AcDbSymbolTableRecord
100
AcDbLayerTableRecord
2
SK4
70
0
62
2
6
CENTER
290
1
370
-3
390
0
0
LAYER
5
1a5
100
AcDbSymbolTableRecord
100
AcDbLayerTableRecord
2
SK1
70
0
62
4
6
CONTINUOUS
290
1
370
-3
390
0
0
LAYER
5
1a6
100
AcDbSymbolTableRecord
100
AcDbLayerTableRecord
2
SK6
70
0
62
5
6
CONTINUOUS
290
1
370
-3
390
0
0
ENDTAB
0
TABLE
2
STYLE
5
1ba
100
AcDbSymbolTable
0
STYLE
5
11
100
AcDbSymbolTableRecord
100
AcDbTextStyleTableRecord
2
Standard
3
txt
70
0
71
0
40
0
41
1
42
0
50
0
0
STYLE
5
116
100
AcDbSymbolTableRecord
100
AcDbTextStyleTableRecord
2
DEFAULT
3
simplex.shx
70
0
71
0
40
0
41
1
42
0
50
0
0
STYLE
5
117
100
AcDbSymbolTableRecord
100
AcDbTextStyleTableRecord
2
DWGDirectTextStyle
3
SIMPLEX
70
0
71
0
40
0
41
1
42
0
50
0
0
ENDTAB
0
TABLE
2
DIMSTYLE
5
1bb
100
AcDbSymbolTable
100
AcDbDimStyleTable
0
DIMSTYLE
105
27
100
AcDbSymbolTableRecord
100
AcDbDimStyleTableRecord
2
Standard
70
0
3
<>
41
0.18
42
0.0625
44
0.18
140
0.18
147
0.09
73
0
74
0
77
1
271
2
275
0
278
52
280
0
340
11
0
ENDTAB
0
TABLE
2
VIEW
5
1bc
100
AcDbSymbolTable
0
ENDTAB
0
TABLE
2
UCS
5
1bd
100
AcDbSymbolTable
0
ENDTAB
0
TABLE
2
APPID
5
1be
100
AcDbSymbolTable
0
APPID
5
12
100
AcDbSymbolTableRecord
100
AcDbRegAppTableRecord
2
ACAD
70
0
0
ENDTAB
0
TABLE
2
BLOCK_RECORD
5
1bf
100
AcDbSymbolTable
0
BLOCK_RECORD
5
1F
100
AcDbSymbolTableRecord
100
AcDbBlockTableRecord
2
*Model_Space
340
0
70
0
0
BLOCK_RECORD
5
1B
100
AcDbSymbolTableRecord
100
AcDbBlockTableRecord
2
*Paper_Space
340
0
70
0
0
BLOCK_RECORD
5
23
100
AcDbSymbolTableRecord
100
AcDbBlockTableRecord
2
*Paper_Space0
340
0
70
0
0
BLOCK_RECORD
5
119
100
AcDbSymbolTableRecord
100
AcDbBlockTableRecord
2
DimnDraft3D1
340
0
70
0
0
BLOCK_RECORD
5
127
100
AcDbSymbolTableRecord
100
AcDbBlockTableRecord
2
_CLOSED
340
0
70
0
0
BLOCK_RECORD
5
12E
100
AcDbSymbolTableRecord
100
AcDbBlockTableRecord
2
DimnDraft3D2
340
0
70
0
0
BLOCK_RECORD
5
13C
100
AcDbSymbolTableRecord
100
AcDbBlockTableRecord
2
DimnDraft3D3
340
0
70
0
0
BLOCK_RECORD
5
14A
100
AcDbSymbolTableRecord
100
AcDbBlockTableRecord
2
DimnDraft3D4
340
0
70
0
0
BLOCK_RECORD
5
158
100
AcDbSymbolTableRecord
100
AcDbBlockTableRecord
2
DimnDraft3D5
340
0
70
0
0
ENDTAB
0
ENDSEC
0
SECTION
2
BLOCKS
0
BLOCK
5
20
100
AcDbEntity
8
0
100
AcDbBlockBegin
2
*Model_Space
70
0
10
0
20
0
30
0
3
*Model_Space
0
ENDBLK
5
21
100
AcDbEntity
8
0
100
AcDbBlockEnd
0
BLOCK
5
1C
100
AcDbEntity
8
0
100
AcDbBlockBegin
2
*Paper_Space
70
0
10
0
20
0
30
0
3
*Paper_Space
0
ENDBLK
5
1D
100
AcDbEntity
8
0
100
AcDbBlockEnd
0
BLOCK
5
24
100
AcDbEntity
8
0
100
AcDbBlockBegin
2
*Paper_Space0
70
0
10
0
20
0
30
0
3
*Paper_Space0
0
ENDBLK
5
25
100
AcDbEntity
8
0
100
AcDbBlockEnd
0
BLOCK
5
124
100
AcDbEntity
8
0
100
AcDbBlockBegin
2
DimnDraft3D1
70
0
10
0
20
0
30
0
3
DimnDraft3D1
0
MTEXT
5
11A
100
AcDbEntity
8
2
62
256
6
ByLayer
370
-1
48
1
60
0
100
AcDbMText
10
102.496053
20
31.875
30
0
210
0
220
0
230
1
1
\W01.000;\fsimplex.shx,bigfont.shx;30\P
40
4.5
41
0
44
1.084337
50
0
71
7
72
5
7
DEFAULT
0
LINE
5
11B
100
AcDbEntity
8
2
62
256
6
ByLayer
370
-1
48
1
60
0
100
AcDbLine
10
119
20
13
30
0
11
119
21
32.75
31
0
39
0
210
0
220
0
230
1
0
LINE
5
11C
100
AcDbEntity
8
2
62
256
6
ByLayer
370
-1
48
1
60
0
100
AcDbLine
10
89
20
10.99675
30
0
11
89
21
32.75
31
0
39
0
210
0
220
0
230
1
0
LINE
5
11D
100
AcDbEntity
8
2
62
256
6
ByLayer
370
-1
48
1
60
0
100
AcDbLine
10
119
20
30.75
30
0
11
89
21
30.75
31
0
39
0
210
0
220
0
230
1
0
LINE
5
11E
100
AcDbEntity
8
2
62
256
6
ByLayer
370
-1
48
1
60
0
100
AcDbLine
10
119
20
30.75
30
0
11
115.825002
21
30.332003
31
0
39
0
210
0
220
0
230
1
0
LINE
5
11F
100
AcDbEntity
8
2
62
256
6
ByLayer
370
-1
48
1
60
0
100
AcDbLine
10
119
20
30.75
30
0
11
115.824998
21
31.167997
31
0
39
0
210
0
220
0
230
1
0
LINE
5
120
100
AcDbEntity
8
2
62
256
6
ByLayer
370
-1
48
1
60
0
100
AcDbLine
10
115.825002
20
30.332003
30
0
11
115.824998
21
31.167997
31
0
39
0
210
0
220
0
230
1
0
LINE
5
121
100
AcDbEntity
8
2
62
256
6
ByLayer
370
-1
48
1
60
0
100
AcDbLine
10
89
20
30.75
30
0
11
92.174998
21
31.167997
31
0
39
0
210
0
220
0
230
1
0
LINE
5
122
100
AcDbEntity
8
2
62
256
6
ByLayer
370
-1
48
1
60
0
100
AcDbLine
10
89
20
30.75
30
0
11
92.175002
21
30.332003
31
0
39
0
210
0
220
0
230
1
0
LINE
5
123
100
AcDbEntity
8
2
62
256
6
ByLayer
370
-1
48
1
60
0
100
AcDbLine
10
92.174998
20
31.167997
30
0
11
92.175002
21
30.332003
31
0
39
0
210
0
220
0
230
1
0
ENDBLK
5
125
100
AcDbEntity
8
0
100
AcDbBlockEnd
0
BLOCK
5
128
100
AcDbEntity
8
0
100
AcDbBlockBegin
2
_CLOSED
70
0
10
0
20
0
30
0
3
_CLOSED
0
LINE
5
12A
100
AcDbEntity
8
0
62
256
6
ByLayer
370
-2
48
1
60
0
100
AcDbLine
10
-1
20
0.166667
30
0
11
0
21
0
31
0
39
0
210
0
220
0
230
1
0
LINE
5
12B
100
AcDbEntity
8
0
62
256
6
ByLayer
370
-2
48
1
60
0
100
AcDbLine
10
0
20
0
30
0
11
-1
21
-0.166667
31
0
39
0
210
0
220
0
230
1
0
LINE
5
12C
100
AcDbEntity
8
0
62
256
6
ByLayer
370
-2
48
1
60
0
100
AcDbLine
10
-1
20
0.166667
30
0
11
-1
21
-0.166667
31
0
39
0
210
0
220
0
230
1
0
LINE
5
12D
100
AcDbEntity
8
0
62
256
6
ByLayer
370
-2
48
1
60
0
100
AcDbLine
10
0
20
0
30
0
11
-1
21
0
31
0
39
0
210
0
220
0
230
1
0
ENDBLK
5
129
100
AcDbEntity
8
0
100
AcDbBlockEnd
0
BLOCK
5
139
100
AcDbEntity
8
0
100
AcDbBlockBegin
2
DimnDraft3D2
70
0
10
0
20
0
30
0
3
DimnDraft3D2
0
MTEXT
5
12F
100
AcDbEntity
8
SK2
62
256
6
ByLayer
370
-1
48
1
60
0
100
AcDbMText
10
31.406579
20
41.875
30
0
210
0
220
0
230
1
1
\W01.000;\fsimplex.shx,bigfont.shx;170\P
40
4.5
41
0
44
1.084337
50
0
71
7
72
5
7
DEFAULT
0
LINE
5
130
100
AcDbEntity
8
SK2
62
256
6
ByLayer
370
-1
48
1
60
0
100
AcDbLine
10
119
20
13
30
0
11
119
21
42.75
31
0
39
0
210
0
220
0
230
1
0
LINE
5
131
100
AcDbEntity
8
SK2
62
256
6
ByLayer
370
-1
48
1
60
0
100
AcDbLine
10
-51
20
11.99475
30
0
11
-51
21
42.75
31
0
39
0
210
0
220
0
230
1
0
LINE
5
132
100
AcDbEntity
8
SK2
62
256
6
ByLayer
370
-1
48
1
60
0
100
AcDbLine
10
119
20
40.75
30
0
11
-51
21
40.75
31
0
39
0
210
0
220
0
230
1
0
LINE
5
133
100
AcDbEntity
8
SK2
62
256
6
ByLayer
370
-1
48
1
60
0
100
AcDbLine
10
119
20
40.75
30
0
11
115.825002
21
40.332003
31
0
39
0
210
0
220
0
230
1
0
LINE
5
134
100
AcDbEntity
8
SK2
62
256
6
ByLayer
370
-1
48
1
60
0
100
AcDbLine
10
119
20
40.75
30
0
11
115.824998
21
41.167997
31
0
39
0
210
0
220
0
230
1
0
LINE
5
135
100
AcDbEntity
8
SK2
62
256
6
ByLayer
370
-1
48
1
60
0
100
AcDbLine
10
115.825002
20
40.332003
30
0
11
115.824998
21
41.167997
31
0
39
0
210
0
220
0
230
1
0
LINE
5
136
100
AcDbEntity
8
SK2
62
256
6
ByLayer
370
-1
48
1
60
0
100
AcDbLine
10
-51
20
40.75
30
0
11
-47.825002
21
41.167997
31
0
39
0
210
0
220
0
230
1
0
LINE
5
137
100
AcDbEntity
8
SK2
62
256
6
ByLayer
370
-1
48
1
60
0
100
AcDbLine
10
-51
20
40.75
30
0
11
-47.824998
21
40.332003
31
0
39
0
210
0
220
0
230
1
0
LINE
5
138
100
AcDbEntity
8
SK2
62
256
6
ByLayer
370
-1
48
1
60
0
100
AcDbLine
10
-47.825002
20
41.167997
30
0
11
-47.824998
21
40.332003
31
0
39
0
210
0
220
0
230
1
0
ENDBLK
5
13A
100
AcDbEntity
8
0
100
AcDbBlockEnd
0
BLOCK
5
147
100
AcDbEntity
8
0
100
AcDbBlockBegin
2
DimnDraft3D3
70
0
10
0
20
0
30
0
3
DimnDraft3D3
0
MTEXT
5
13D
100
AcDbEntity
8
2
62
256
6
ByLayer
370
-1
48
1
60
0
100
AcDbMText
10
125.125
20
21.875
30
0
210
0
220
0
230
1
1
\W01.000;\fsimplex.shx,bigfont.shx;10\P
40
4.5
41
0
44
1.084337
50
0
71
7
72
5
7
DEFAULT
0
LINE
5
13E
100
AcDbEntity
8
2
62
256
6
ByLayer
370
-1
48
1
60
0
100
AcDbLine
10
119
20
13
30
0
11
119
21
22.75
31
0
39
0
210
0
220
0
230
1
0
LINE
5
13F
100
AcDbEntity
8
2
62
256
6
ByLayer
370
-1
48
1
60
0
100
AcDbLine
10
108.8
20
13
30
0
11
108.8
21
22.75
31
0
39
0
210
0
220
0
230
1
0
LINE
5
140
100
AcDbEntity
8
2
62
256
6
ByLayer
370
-1
48
1
60
0
100
AcDbLine
10
108.8
20
20.75
30
0
11
128.132895
21
20.75
31
0
39
0
210
0
220
0
230
1
0
LINE
5
141
100
AcDbEntity
8
2
62
256
6
ByLayer
370
-1
48
1
60
0
100
AcDbLine
10
119
20
20.75
30
0
11
115.825002
21
20.332003
31
0
39
0
210
0
220
0
230
1
0
LINE
5
142
100
AcDbEntity
8
2
62
256
6
ByLayer
370
-1
48
1
60
0
100
AcDbLine
10
119
20
20.75
30
0
11
115.824998
21
21.167997
31
0
39
0
210
0
220
0
230
1
0
LINE
5
143
100
AcDbEntity
8
2
62
256
6
ByLayer
370
-1
48
1
60
0
100
AcDbLine
10
115.825002
20
20.332003
30
0
11
115.824998
21
21.167997
31
0
39
0
210
0
220
0
230
1
0
LINE
5
144
100
AcDbEntity
8
2
62
256
6
ByLayer
370
-1
48
1
60
0
100
AcDbLine
10
108.8
20
20.75
30
0
11
111.974998
21
21.167997
31
0
39
0
210
0
220
0
230
1
0
LINE
5
145
100
AcDbEntity
8
2
62
256
6
ByLayer
370
-1
48
1
60
0
100
AcDbLine
10
108.8
20
20.75
30
0
11
111.975002
21
20.332003
31
0
39
0
210
0
220
0
230
1
0
LINE
5
146
100
AcDbEntity
8
2
62
256
6
ByLayer
370
-1
48
1
60
0
100
AcDbLine
10
111.974998
20
21.167997
30
0
11
111.975002
21
20.332003
31
0
39
0
210
0
220
0
230
1
0
ENDBLK
5
148
100
AcDbEntity
8
0
100
AcDbBlockEnd
0
BLOCK
5
155
100
AcDbEntity
8
0
100
AcDbBlockBegin
2
DimnDraft3D4
70
0
10
0
20
0
30
0
3
DimnDraft3D4
0
MTEXT
5
14B
100
AcDbEntity
8
2
62
256
6
ByLayer
370
-1
48
1
60
0
100
AcDbMText
10
132.125
20
-3.659211
30
0
210
0
220
0
230
1
1
\W01.000;\fsimplex.shx,bigfont.shx;%%c22\P
40
4.5
41
0
44
1.084337
50
90
71
7
72
5
7
DEFAULT
0
LINE
5
14C
100
AcDbEntity
8
2
62
256
6
ByLayer
370
-1
48
1
60
0
100
AcDbLine
10
121
20
11
30
0
11
135.25
21
11
31
0
39
0
210
0
220
0
230
1
0
LINE
5
14D
100
AcDbEntity
8
2
62
256
6
ByLayer
370
-1
48
1
60
0
100
AcDbLine
10
121
20
-11
30
0
11
135.25
21
-11
31
0
39
0
210
0
220
0
230
1
0
LINE
5
14E
100
AcDbEntity
8
2
62
256
6
ByLayer
370
-1
48
1
60
0
100
AcDbLine
10
133.25
20
11
30
0
11
133.25
21
-11
31
0
39
0
210
0
220
0
230
1
0
LINE
5
14F
100
AcDbEntity
8
2
62
256
6
ByLayer
370
-1
48
1
60
0
100
AcDbLine
10
133.25
20
11
30
0
11
133.667997
21
7.825002
31
0
39
0
210
0
220
0
230
1
0
LINE
5
150
100
AcDbEntity
8
2
62
256
6
ByLayer
370
-1
48
1
60
0
100
AcDbLine
10
133.25
20
11
30
0
11
132.832003
21
7.824998
31
0
39
0
210
0
220
0
230
1
0
LINE
5
151
100
AcDbEntity
8
2
62
256
6
ByLayer
370
-1
48
1
60
0
100
AcDbLine
10
133.667997
20
7.825002
30
0
11
132.832003
21
7.824998
31
0
39
0
210
0
220
0
230
1
0
LINE
5
152
100
AcDbEntity
8
2
62
256
6
ByLayer
370
-1
48
1
60
0
100
AcDbLine
10
133.25
20
-11
30
0
11
132.832003
21
-7.825002
31
0
39
0
210
0
220
0
230
1
0
LINE
5
153
100
AcDbEntity
8
2
62
256
6
ByLayer
370
-1
48
1
60
0
100
AcDbLine
10
133.25
20
-11
30
0
11
133.667997
21
-7.824998
31
0
39
0
210
0
220
0
230
1
0
LINE
5
154
100
AcDbEntity
8
2
62
256
6
ByLayer
370
-1
48
1
60
0
100
AcDbLine
10
132.832003
20
-7.825002
30
0
11
133.667997
21
-7.824998
31
0
39
0
210
0
220
0
230
1
0
ENDBLK
5
156
100
AcDbEntity
8
0
100
AcDbBlockEnd
0
BLOCK
5
163
100
AcDbEntity
8
0
100
AcDbBlockBegin
2
DimnDraft3D5
70
0
10
0
20
0
30
0
3
DimnDraft3D5
0
MTEXT
5
159
100
AcDbEntity
8
SK2
62
256
6
ByLayer
370
-1
48
1
60
0
100
AcDbMText
10
-61.875
20
-3.659211
30
0
210
0
220
0
230
1
1
\W01.000;\fsimplex.shx,bigfont.shx;%%c20\P
40
4.5
41
0
44
1.084337
50
90
71
7
72
5
7
DEFAULT
0
LINE
5
15A
100
AcDbEntity
8
SK2
62
256
6
ByLayer
370
-1
48
1
60
0
100
AcDbLine
10
-53
20
-9.99475
30
0
11
-62.75
21
-9.99475
31
0
39
0
210
0
220
0
230
1
0
LINE
5
15B
100
AcDbEntity
8
SK2
62
256
6
ByLayer
370
-1
48
1
60
0
100
AcDbLine
10
-53
20
9.99475
30
0
11
-62.75
21
9.99475
31
0
39
0
210
0
220
0
230
1
0
LINE
5
15C
100
AcDbEntity
8
SK2
62
256
6
ByLayer
370
-1
48
1
60
0
100
AcDbLine
10
-60.75
20
-9.99475
30
0
11
-60.75
21
9.99475
31
0
39
0
210
0
220
0
230
1
0
LINE
5
15D
100
AcDbEntity
8
SK2
62
256
6
ByLayer
370
-1
48
1
60
0
100
AcDbLine
10
-60.75
20
-9.99475
30
0
11
-61.167997
21
-6.819752
31
0
39
0
210
0
220
0
230
1
0
LINE
5
15E
100
AcDbEntity
8
SK2
62
256
6
ByLayer
370
-1
48
1
60
0
100
AcDbLine
10
-60.75
20
-9.99475
30
0
11
-60.332003
21
-6.819748
31
0
39
0
210
0
220
0
230
1
0
LINE
5
15F
100
AcDbEntity
8
SK2
62
256
6
ByLayer
370
-1
48
1
60
0
100
AcDbLine
10
-61.167997
20
-6.819752
30
0
11
-60.332003
21
-6.819748
31
0
39
0
210
0
220
0
230
1
0
LINE
5
160
100
AcDbEntity
8
SK2
62
256
6
ByLayer
370
-1
48
1
60
0
100
AcDbLine
10
-60.75
20
9.99475
30
0
11
-60.332003
21
6.819752
31
0
39
0
210
0
220
0
230
1
0
LINE
5
161
100
AcDbEntity
8
SK2
62
256
6
ByLayer
370
-1
48
1
60
0
100
AcDbLine
10
-60.75
20
9.99475
30
0
11
-61.167997
21
6.819748
31
0
39
0
210
0
220
0
230
1
0
LINE
5
162
100
AcDbEntity
8
SK2
62
256
6
ByLayer
370
-1
48
1
60
0
100
AcDbLine
10
-60.332003
20
6.819752
30
0
11
-61.167997
21
6.819748
31
0
39
0
210
0
220
0
230
1
0
ENDBLK
5
164
100
AcDbEntity
8
0
100
AcDbBlockEnd
0
ENDSEC
0
SECTION
2
ENTITIES
0
ARC
5
85
100
AcDbEntity
8
1
62
256
6
ByLayer
370
-1
48
1
60
0
100
AcDbCircle
39
0
10
-89.5
20
9.49675
30
0
40
0.500000000000002
210
0
220
0
230
-1
100
AcDbArc
50
270.985699
51
0
0
ARC
5
86
100
AcDbEntity
8
1
62
256
6
ByLayer
370
-1
48
1
60
0
100
AcDbCircle
39
0
10
-89.5
20
-9.49675
30
0
40
0.500000000000002
210
0
220
0
230
-1
100
AcDbArc
50
0
51
89.014301
0
ELLIPSE
5
87
100
AcDbEntity
8
1
62
256
6
ByLayer
370
-1
48
1
60
0
100
AcDbEllipse
10
110.885325
20
17.781335
30
0
11
12.2055383599369
21
6.8574655189881
31
0
210
0
220
0
230
1
40
0.984497
41
-2.96498832537407
42
-2.35988748699865
0
ELLIPSE
5
88
100
AcDbEntity
8
1
62
256
6
ByLayer
370
-1
48
1
60
0
100
AcDbEllipse
10
246.611174
20
1.629868
30
0
11
200.722535020748
21
2.66878551311557
31
0
210
0
220
0
230
-1
40
0.06728
41
-2.38842739814146
42
-2.33668564400158
0
ELLIPSE
5
89
100
AcDbEntity
8
1
62
256
6
ByLayer
370
-1
48
1
60
0
100
AcDbEllipse
10
246.611174
20
-1.629868
30
0
11
200.722535135508
21
-2.66878550951025
31
0
210
0
220
0
230
-1
40
0.06728
41
2.33668564420458
42
2.38842739832491
0
ELLIPSE
5
8A
100
AcDbEntity
8
1
62
256
6
ByLayer
370
-1
48
1
60
0
100
AcDbEllipse
10
109.934304
20
5.192363
30
0
11
-0.125514726187864
21
1.49473946007657
31
0
210
0
220
0
230
1
40
0.834666
41
2.62612319965929
42
2.72709256070781
0
ELLIPSE
5
8B
100
AcDbEntity
8
1
62
256
6
ByLayer
370
-1
48
1
60
0
100
AcDbEllipse
10
110.498676
20
4.728506
30
0
11
2.26023505325459
21
1.38634787103668
31
0
210
0
220
0
230
-1
40
0.138643
41
1.83425767984061
42
1.96367398866791
0
ELLIPSE
5
8C
100
AcDbEntity
8
1
62
256
6
ByLayer
370
-1
48
1
60
0
100
AcDbEllipse
10
114.407007
20
-6.28808
30
0
11
-0.638023280527557
21
0.802216487928823
31
0
210
0
220
0
230
1
40
0.971552
41
-2.25678416387603
42
0.884808489713763
0
ELLIPSE
5
8D
100
AcDbEntity
8
1
62
256
6
ByLayer
370
-1
48
1
60
0
100
AcDbEllipse
10
106.807188
20
4.754956
30
0
11
0.532300394297106
21
1.92786314094936
31
0
210
0
220
0
230
1
40
0.124485
41
-1.99758491242451
42
-1.69565767102247
0
ELLIPSE
5
8E
100
AcDbEntity
8
1
62
256
6
ByLayer
370
-1
48
1
60
0
100
AcDbEllipse
10
109.968954
20
4.114183
30
0
11
0.9999994209534
21
0.0281291009169471
31
0
210
0
220
0
230
-1
40
0.038264
41
0.745002799678873
42
1.09894858905268
0
ELLIPSE
5
8F
100
AcDbEntity
8
1
62
256
6
ByLayer
370
-1
48
1
60
0
100
AcDbEllipse
10
109.934304
20
3.931035
30
0
11
0.788938456368066
21
0
31
0
210
0
220
0
230
1
40
0.150014
41
-2.26673736482428
42
-1.98755922391802
0
ELLIPSE
5
90
100
AcDbEntity
8
1
62
256
6
ByLayer
370
-1
48
1
60
0
100
AcDbEllipse
10
109.934304
20
5.192363
30
0
11
-0.125514726187864
21
1.49473946007657
31
0
210
0
220
0
230
1
40
0.834666
41
2.34807850681437
42
2.5741041343664
0
ELLIPSE
5
91
100
AcDbEntity
8
1
62
256
6
ByLayer
370
-1
48
1
60
0
100
AcDbEllipse
10
114.609996
20
-6.126638
30
0
11
-1.5
21
1.83690953073357E-16
31
0
210
0
220
0
230
1
40
0.150014
41
8.24659421595689E-06
42
0.632048825043383
0
ELLIPSE
5
92
100
AcDbEntity
8
1
62
256
6
ByLayer
370
-1
48
1
60
0
100
AcDbEllipse
10
108.442554
20
10.080159
30
0
11
1.12929899891041
21
6.70791383600275
31
0
210
0
220
0
230
-1
40
0.146115
41
-2.19831761156664
42
-1.67992811106293
0
ELLIPSE
5
93
100
AcDbEntity
8
1
62
256
6
ByLayer
370
-1
48
1
60
0
100
AcDbEllipse
10
113.63914
20
4.951277
30
0
11
0.280499139579826
21
-1.2181216001266
31
0
210
0
220
0
230
1
40
0.982402
41
-0.877296419587642
42
-0.492244607311851
0
ELLIPSE
5
94
100
AcDbEntity
8
1
62
256
6
ByLayer
370
-1
48
1
60
0
100
AcDbEllipse
10
113.821157
20
4.99319
30
0
11
0.280499139579826
21
-1.2181216001266
31
0
210
0
220
0
230
1
40
0.982402
41
-0.900733688137003
42
-2.11214584979051E-05
0
ELLIPSE
5
95
100
AcDbEntity
8
1
62
256
6
ByLayer
370
-1
48
1
60
0
100
AcDbEllipse
10
110.127614
20
0.466888
30
0
11
3.27620990062355
21
10.2936206722161
31
0
210
0
220
0
230
-1
40
0.36574
41
2.69381540157262
42
2.7280518366347
0
ELLIPSE
5
96
100
AcDbEntity
8
1
62
256
6
ByLayer
370
-1
48
1
60
0
100
AcDbEllipse
10
108.974697
20
-10.401248
30
0
11
-0.414930691528873
21
-1.53204489479658
31
0
210
0
220
0
230
1
40
0.357779
41
-2.48570809063077
42
-2.24333600282672
0
ELLIPSE
5
97
100
AcDbEntity
8
1
62
256
6
ByLayer
370
-1
48
1
60
0
100
AcDbEllipse
10
122.677129
20
-1.941478
30
0
11
37.0040675127501
21
-10.6759001406807
31
0
210
0
220
0
230
-1
40
0.033943
41
-2.06388242382159
42
-2.04940949337479
0
ELLIPSE
5
98
100
AcDbEntity
8
1
62
256
6
ByLayer
370
-1
48
1
60
0
100
AcDbEllipse
10
114.746577
20
-0.443255
30
0
11
0.299253934579661
21
10.2085355242051
31
0
210
0
220
0
230
-1
40
0.18633
41
2.1524846375746
42
2.21773054808755
0
ELLIPSE
5
99
100
AcDbEntity
8
1
62
256
6
ByLayer
370
-1
48
1
60
0
100
AcDbEllipse
10
114.609996
20
-6.126638
30
0
11
-1.5
21
1.83690953073357E-16
31
0
210
0
220
0
230
1
40
0.150014
41
2.13668578735415
42
2.95516363299366
0
ELLIPSE
5
9A
100
AcDbEntity
8
1
62
256
6
ByLayer
370
-1
48
1
60
0
100
AcDbEllipse
10
73.012932
20
-0.57867
30
0
11
157.466914927162
21
10.1158048465026
31
0
210
0
220
0
230
-1
40
0.010303
41
-1.32109082303509
42
-1.27935469351252
0
ELLIPSE
5
9B
100
AcDbEntity
8
1
62
256
6
ByLayer
370
-1
48
1
60
0
100
AcDbEllipse
10
113.866661
20
5.003669
30
0
11
0.274831906104126
21
-1.19351054598913
31
0
210
0
220
0
230
1
40
0.982402
41
-0.860665521422989
42
0.0410690915151952
0
ELLIPSE
5
9C
100
AcDbEntity
8
1
62
256
6
ByLayer
370
-1
48
1
60
0
100
AcDbEllipse
10
105.834345
20
4.848085
30
0
11
5.04798391972382
21
-1.03540152229902
31
0
210
0
220
0
230
-1
40
0.074431
41
0.763306566708586
42
0.856280372593237
0
ELLIPSE
5
9D
100
AcDbEntity
8
1
62
256
6
ByLayer
370
-1
48
1
60
0
100
AcDbEllipse
10
112.444605
20
4.129568
30
0
11
-0.155539136682575
21
1.99394272158456
31
0
210
0
220
0
230
1
40
0.074714
41
-1.87522448354089
42
-1.73061314947862
0
ELLIPSE
5
9E
100
AcDbEntity
8
1
62
256
6
ByLayer
370
-1
48
1
60
0
100
AcDbEllipse
10
109.180853
20
5.596138
30
0
11
2.42813704321342
21
-1.20332016581043
31
0
210
0
220
0
230
-1
40
0.229653
41
2.51377774396255
42
2.53697442808417
0
ELLIPSE
5
9F
100
AcDbEntity
8
1
62
256
6
ByLayer
370
-1
48
1
60
0
100
AcDbEllipse
10
114.609996
20
-6.126638
30
0
11
0.933692605650082
21
-1.17397534818852
31
0
210
0
220
0
230
1
40
0.971552
41
0.884808489713762
42
3.14157636973622
0
ELLIPSE
5
A0
100
AcDbEntity
8
1
62
256
6
ByLayer
370
-1
48
1
60
0
100
AcDbEllipse
10
108.416954
20
5.53199
30
0
11
1.62161769260633
21
0.630525909277834
31
0
210
0
220
0
230
-1
40
0.849049
41
2.73001572948939
42
-2.20373794511318
0
ELLIPSE
5
A1
100
AcDbEntity
8
1
62
256
6
ByLayer
370
-1
48
1
60
0
100
AcDbEllipse
10
107.285405
20
4.622916
30
0
11
0.532300394297106
21
1.92786314094936
31
0
210
0
220
0
230
1
40
0.124485
41
-1.98433211932549
42
-1.84224509671549
0
ELLIPSE
5
A2
100
AcDbEntity
8
1
62
256
6
ByLayer
370
-1
48
1
60
0
100
AcDbEllipse
10
113.2268
20
7.489214
30
0
11
1.0737464964976
21
1.3500716504168
31
0
210
0
220
0
230
1
40
0.971552
41
1.79746163603078
42
2.9499787291972
0
ELLIPSE
5
A3
100
AcDbEntity
8
1
62
256
6
ByLayer
370
-1
48
1
60
0
100
AcDbEllipse
10
113.194562
20
7.514853
30
0
11
0.644247897898558
21
0.810042990250078
31
0
210
0
220
0
230
1
40
0.971552
41
-0.884808489713773
42
0.161531081822915
0
ELLIPSE
5
A4
100
AcDbEntity
8
1
62
256
6
ByLayer
370
-1
48
1
60
0
100
AcDbEllipse
10
113.361378
20
7.38218
30
0
11
1.0737464964976
21
1.3500716504168
31
0
210
0
220
0
230
1
40
0.971552
41
-0.095559331773765
42
0
0
ELLIPSE
5
A5
100
AcDbEntity
8
1
62
256
6
ByLayer
370
-1
48
1
60
0
100
AcDbEllipse
10
112.544642
20
7.343804
30
0
11
-0.11515542136351
21
-0.144790292943251
31
0
210
0
220
0
230
1
40
0.971552
41
-2.18287800333461
42
-0.591726023398584
0
ELLIPSE
5
A6
100
AcDbEntity
8
1
62
256
6
ByLayer
370
-1
48
1
60
0
100
AcDbEllipse
10
113.194562
20
7.514853
30
0
11
0.644247897898558
21
0.810042990250078
31
0
210
0
220
0
230
1
40
0.971552
41
0.161531081822916
42
1.21044459233932
0
ELLIPSE
5
A7
100
AcDbEntity
8
1
62
256
6
ByLayer
370
-1
48
1
60
0
100
AcDbEllipse
10
113.194562
20
7.514853
30
0
11
0.809200258230073
21
1.01744530176338
31
0
210
0
220
0
230
1
40
0.971552
41
0
42
6.28318530717959
0
ELLIPSE
5
A8
100
AcDbEntity
8
1
62
256
6
ByLayer
370
-1
48
1
60
0
100
AcDbEllipse
10
113.379913
20
7.367439
30
0
11
0.465601379350842
21
0.585422373630008
31
0
210
0
220
0
230
1
40
0.971552
41
-2.2713440998395
42
-1.84568840670695
0
ELLIPSE
5
A9
100
AcDbEntity
8
1
62
256
6
ByLayer
370
-1
48
1
60
0
100
AcDbEllipse
10
112.383974
20
7.917208
30
0
11
-0.262678853056223
21
-0.330278397957037
31
0
210
0
220
0
230
1
40
0.971552
41
0.958714650255223
42
1.73361437810768
0
ELLIPSE
5
AA
100
AcDbEntity
8
1
62
256
6
ByLayer
370
-1
48
1
60
0
100
AcDbEllipse
10
112.961657
20
6.628173
30
0
11
-0.11515542136351
21
-0.144790292943251
31
0
210
0
220
0
230
1
40
0.971552
41
-1.13653843179784
42
-0.717596691899133
0
ELLIPSE
5
AB
100
AcDbEntity
8
1
62
256
6
ByLayer
370
-1
48
1
60
0
100
AcDbEllipse
10
113.194562
20
7.514853
30
0
11
0.644247897898558
21
0.810042990250078
31
0
210
0
220
0
230
1
40
0.971552
41
-1.93114806125046
42
-0.884808489713773
0
ELLIPSE
5
AC
100
AcDbEntity
8
1
62
256
6
ByLayer
370
-1
48
1
60
0
100
AcDbEllipse
10
113.194562
20
7.514853
30
0
11
0.644247897898558
21
0.810042990250078
31
0
210
0
220
0
230
1
40
0.971552
41
2.25678416387602
42
-2.98006157176687
0
ELLIPSE
5
AD
100
AcDbEntity
8
1
62
256
6
ByLayer
370
-1
48
1
60
0
100
AcDbEllipse
10
113.379913
20
7.367439
30
0
11
-0.465601379350841
21
-0.585422373630009
31
0
210
0
220
0
230
1
40
0.971552
41
2.20816246137541
42
2.68787698504203
0
ELLIPSE
5
AE
100
AcDbEntity
8
1
62
256
6
ByLayer
370
-1
48
1
60
0
100
AcDbEllipse
10
113.79817
20
8.106704
30
0
11
-0.11515542136351
21
-0.144790292943251
31
0
210
0
220
0
230
1
40
0.971552
41
-2.4431315948342
42
-1.67851861661671
0
ELLIPSE
5
AF
100
AcDbEntity
8
1
62
256
6
ByLayer
370
-1
48
1
60
0
100
AcDbEllipse
10
113.194562
20
7.514853
30
0
11
0.644247897898558
21
0.810042990250078
31
0
210
0
220
0
230
1
40
0.971552
41
-2.98006157176687
42
-1.93114806125046
0
ELLIPSE
5
B0
100
AcDbEntity
8
1
62
256
6
ByLayer
370
-1
48
1
60
0
100
AcDbEllipse
10
113.379913
20
7.367439
30
0
11
-0.465601379350841
21
-0.585422373630009
31
0
210
0
220
0
230
1
40
0.971552
41
-0.361638703945422
42
0.211934669698623
0
ELLIPSE
5
B1
100
AcDbEntity
8
1
62
256
6
ByLayer
370
-1
48
1
60
0
100
AcDbEllipse
10
112.961657
20
8.083035
30
0
11
-0.11515542136351
21
-0.144790292943251
31
0
210
0
220
0
230
1
40
0.971552
41
-2.9764266735682
42
-0.633078547629648
0
ELLIPSE
5
B2
100
AcDbEntity
8
1
62
256
6
ByLayer
370
-1
48
1
60
0
100
AcDbEllipse
10
112.383974
20
7.917208
30
0
11
-0.262678853056223
21
-0.330278397957037
31
0
210
0
220
0
230
1
40
0.971552
41
1.73361437810768
42
2.50851410596016
0
ELLIPSE
5
B3
100
AcDbEntity
8
1
62
256
6
ByLayer
370
-1
48
1
60
0
100
AcDbEllipse
10
113.2268
20
7.489214
30
0
11
1.0737464964976
21
1.3500716504168
31
0
210
0
220
0
230
1
40
0.971552
41
0
42
6.28318530717959
0
ELLIPSE
5
B4
100
AcDbEntity
8
1
62
256
6
ByLayer
370
-1
48
1
60
0
100
AcDbEllipse
10
113.379913
20
8.522739
30
0
11
-0.262678853056223
21
-0.330278397957037
31
0
210
0
220
0
230
1
40
0.971552
41
0.752901159397269
42
1.46307403697308
0
ELLIPSE
5
B5
100
AcDbEntity
8
1
62
256
6
ByLayer
370
-1
48
1
60
0
100
AcDbEllipse
10
113.379913
20
7.367439
30
0
11
0.465601379350842
21
0.585422373630008
31
0
210
0
220
0
230
1
40
0.971552
41
0.648256485164088
42
0.723719188998171
0
ELLIPSE
5
B6
100
AcDbEntity
8
1
62
256
6
ByLayer
370
-1
48
1
60
0
100
AcDbEllipse
10
113.225275
20
7.490427
30
0
11
0.465601379350842
21
0.585422373630008
31
0
210
0
220
0
230
1
40
0.971552
41
-2.49333616842571
42
-2.41787346459162
0
ELLIPSE
5
B7
100
AcDbEntity
8
1
62
256
6
ByLayer
370
-1
48
1
60
0
100
AcDbEllipse
10
113.379913
20
7.367439
30
0
11
-0.465601379350841
21
-0.585422373630009
31
0
210
0
220
0
230
1
40
0.971552
41
-3.10422812181849
42
-2.49333616842571
0
ELLIPSE
5
B8
100
AcDbEntity
8
1
62
256
6
ByLayer
370
-1
48
1
60
0
100
AcDbEllipse
10
113.379913
20
7.367439
30
0
11
-0.465601379350841
21
-0.585422373630009
31
0
210
0
220
0
230
1
40
0.971552
41
-2.41787346459162
42
-1.40797827548211
0
ELLIPSE
5
B9
100
AcDbEntity
8
1
62
256
6
ByLayer
370
-1
48
1
60
0
100
AcDbEllipse
10
113.379913
20
7.367439
30
0
11
-0.465601379350841
21
-0.585422373630009
31
0
210
0
220
0
230
1
40
0.971552
41
-1.40797827548211
42
-0.361638703945422
0
ELLIPSE
5
BA
100
AcDbEntity
8
1
62
256
6
ByLayer
370
-1
48
1
60
0
100
AcDbEllipse
10
114.375852
20
7.97357
30
0
11
-0.262678853056223
21
-0.330278397957037
31
0
210
0
220
0
230
1
40
0.971552
41
8.6077437406796E-06
42
0.245905162934786
0
ELLIPSE
5
BB
100
AcDbEntity
8
1
62
256
6
ByLayer
370
-1
48
1
60
0
100
AcDbEllipse
10
112.383974
20
6.761308
30
0
11
-0.262678853056223
21
-0.330278397957037
31
0
210
0
220
0
230
1
40
0.971552
41
2.00505422179192
42
2.77995394964437
0
ELLIPSE
5
BC
100
AcDbEntity
8
1
62
256
6
ByLayer
370
-1
48
1
60
0
100
AcDbEllipse
10
112.383974
20
6.761308
30
0
11
-0.262678853056223
21
-0.330278397957037
31
0
210
0
220
0
230
1
40
0.971552
41
2.77995394964437
42
-3.14158279726446
0
ELLIPSE
5
BD
100
AcDbEntity
8
1
62
256
6
ByLayer
370
-1
48
1
60
0
100
AcDbEllipse
10
113.225275
20
7.490427
30
0
11
0.465601379350842
21
0.585422373630008
31
0
210
0
220
0
230
1
40
0.971552
41
0.648256485164088
42
0.723719188998172
0
ELLIPSE
5
BE
100
AcDbEntity
8
1
62
256
6
ByLayer
370
-1
48
1
60
0
100
AcDbEllipse
10
113.194562
20
7.514853
30
0
11
0.644247897898558
21
0.810042990250078
31
0
210
0
220
0
230
1
40
0.971552
41
1.21044459233932
42
2.25678416387602
0
ELLIPSE
5
BF
100
AcDbEntity
8
1
62
256
6
ByLayer
370
-1
48
1
60
0
100
AcDbEllipse
10
113.379913
20
8.522739
30
0
11
-0.262678853056223
21
-0.330278397957037
31
0
210
0
220
0
230
1
40
0.971552
41
4.71351904055331E-06
42
0.619074514764962
0
ELLIPSE
5
C0
100
AcDbEntity
8
1
62
256
6
ByLayer
370
-1
48
1
60
0
100
AcDbEllipse
10
114.065712
20
-6.822006
30
0
11
-0.591338650245052
21
0.743517720519396
31
0
210
0
220
0
230
1
40
0.971552
41
-2.25684467720747
42
0
0
ELLIPSE
5
C1
100
AcDbEntity
8
1
62
256
6
ByLayer
370
-1
48
1
60
0
100
AcDbEllipse
10
114.065712
20
-6.822006
30
0
11
-0.591338650245052
21
0.743517720519396
31
0
210
0
220
0
230
1
40
0.971552
41
0
42
0.0971907677573892
0
POINT
5
42
100
AcDbEntity
8
SK2
62
256
6
ByLayer
370
-1
48
1
60
0
100
AcDbPoint
10
107.5
20
3.747504
30
0
39
0
210
0
220
0
230
1
50
360
0
POINT
5
44
100
AcDbEntity
8
2
62
256
6
ByLayer
370
-1
48
1
60
0
100
AcDbPoint
10
119
20
10.935
30
0
39
0
210
0
220
0
230
1
50
360
0
POINT
5
46
100
AcDbEntity
8
81
62
256
6
ByLayer
370
-1
48
1
60
0
100
AcDbPoint
10
119
20
10.935
30
0
39
0
210
0
220
0
230
1
50
360
0
POINT
5
48
100
AcDbEntity
8
80
62
256
6
ByLayer
370
-1
48
1
60
0
100
AcDbPoint
10
0
20
0
30
0
39
0
210
0
220
0
230
1
50
360
0
SPLINE
5
C2
100
AcDbEntity
8
1
62
256
6
ByLayer
370
-1
48
1
60
0
100
AcDbSpline
70
4
71
2
72
6
73
3
40
0
40
0
40
0
40
1
40
1
40
1
41
1
10
108.799567911922
20
-10.5193634966061
30
-2E-16
41
1
10
108.896500038302
20
-10.5331432483312
30
-2E-16
41
1
10
108.993801919658
20
-10.5365001232982
30
-2E-16
0
SPLINE
5
C3
100
AcDbEntity
8
1
62
256
6
ByLayer
370
-1
48
1
60
0
100
AcDbSpline
70
4
71
2
72
6
73
3
40
0
40
0
40
0
40
1
40
1
40
1
41
1
10
108.993801919658
20
10.5365001232979
30
-2E-16
41
1
10
108.896500038302
20
10.5331432483309
30
-2E-16
41
1
10
108.799567911922
20
10.5193634966058
30
-2E-16
0
SPLINE
5
C4
100
AcDbEntity
8
1
62
256
6
ByLayer
370
-1
48
1
60
0
100
AcDbSpline
70
4
71
2
72
6
73
3
40
0
40
0
40
0
40
1
40
1
40
1
41
1
10
117.807005219232
20
4.17984789234376
30
0
41
1
10
117.901230885845
20
4.18264946846594
30
0
41
1
10
117.994193526325
20
4.19643541053983
30
0
0
SPLINE
5
C5
100
AcDbEntity
8
1
62
256
6
ByLayer
370
-1
48
1
60
0
100
AcDbSpline
70
4
71
3
72
10
73
6
40
0
40
0
40
0
40
0
40
0.890279332312324
40
0.890279332312324
40
1
40
1
40
1
40
1
41
1
10
116.084004135027
20
-6.64087039811284
30
-2E-16
41
1
10
116.050022918314
20
-6.83986033494372
30
-2E-16
41
1
10
115.980025333393
20
-7.03264411370429
30
-2E-16
41
1
10
115.853101165168
20
-7.22329705472612
30
-2E-16
41
1
10
115.838345217045
20
-7.24411803813152
30
-2E-16
41
1
10
115.822907485036
20
-7.26457241201609
30
-2E-16
0
SPLINE
5
C6
100
AcDbEntity
8
1
62
256
6
ByLayer
370
-1
48
1
60
0
100
AcDbSpline
70
4
71
3
72
14
73
10
40
0
40
0
40
0
40
0
40
0.161848001012339
40
0.161848001012339
40
0.441232000674893
40
0.441232000674893
40
0.720616000337446
40
0.720616000337446
40
1
40
1
40
1
40
1
41
1
10
97.2978978376456
20
9.40722045396703
30
0
41
1
10
97.3116373196359
20
9.40628648266951
30
0
41
1
10
97.391617480336
20
9.31323670078319
30
0
41
1
10
97.8147215378749
20
8.82201961310787
30
0
41
1
10
98.3190636276114
20
8.25271217708828
30
-4E-16
41
1
10
99.804590451158
20
6.96058392741398
30
-3E-16
41
1
10
100.780280860073
20
6.2541946119747
30
-2E-16
41
1
10
102.974361871657
20
5.06091608165971
30
8E-16
41
1
10
104.192800415493
20
4.56453598479945
30
9E-16
41
1
10
105.480579990923
20
4.21831378250519
30
-8E-16
0
SPLINE
5
C7
100
AcDbEntity
8
1
62
256
6
ByLayer
370
-1
48
1
60
0
100
AcDbSpline
70
4
71
3
72
10
73
6
40
0
40
0
40
0
40
0
40
0.436819482998401
40
0.436819482998401
40
1
40
1
40
1
40
1
41
1
10
109.089662368404
20
3.63983213870696
30
1E-16
41
1
10
109.20099025066
20
3.66497469569273
30
1E-16
41
1
10
109.310168820929
20
3.69691756519978
30
1E-16
41
1
10
109.552502917836
20
3.78267770779576
30
-1E-16
41
1
10
109.684686016268
20
3.84047324786783
30
-1E-16
41
1
10
109.810911663094
20
3.90825431451063
30
-1E-16
0
SPLINE
5
C8
100
AcDbEntity
8
1
62
256
6
ByLayer
370
-1
48
1
60
0
100
AcDbSpline
70
4
71
3
72
8
73
4
40
0
40
0
40
0
40
0
40
1
40
1
40
1
40
1
41
1
10
107.544096074564
20
3.74053193755194
30
-7E-16
41
1
10
107.550572280746
20
3.73951655872477
30
-7E-16
41
1
10
107.557049466075
20
3.73850481648361
30
-7E-16
41
1
10
107.56352762218
20
3.73749671347412
30
-7E-16
0
SPLINE
5
C9
100
AcDbEntity
8
1
62
256
6
ByLayer
370
-1
48
1
60
0
100
AcDbSpline
70
4
71
3
72
8
73
4
40
0
40
0
40
0
40
0
40
1
40
1
40
1
40
1
41
1
10
110.31907511428
20
-8.85022493863235
30
4E-16
41
1
10
110.292967494732
20
-8.84800712382182
30
4E-16
41
1
10
110.266366639454
20
-8.84514752637691
30
4E-16
41
1
10
110.240322471758
20
-8.84172915921258
30
4E-16
0
SPLINE
5
CA
100
AcDbEntity
8
1
62
256
6
ByLayer
370
-1
48
1
60
0
100
AcDbSpline
70
4
71
3
72
8
73
4
40
0
40
0
40
0
40
0
40
1
40
1
40
1
40
1
41
1
10
107.455363016977
20
9.42391973190939
30
2E-16
41
1
10
107.481121779995
20
9.41034802574023
30
2E-16
41
1
10
107.510939295844
20
9.39847922572386
30
2E-16
41
1
10
107.544096074492
20
9.38998785190972
30
2E-16
0
SPLINE
5
CB
100
AcDbEntity
8
1
62
256
6
ByLayer
370
-1
48
1
60
0
100
AcDbSpline
70
4
71
3
72
20
73
16
40
0
40
0
40
0
40
0
40
0.0156249999999998
40
0.0156249999999998
40
0.0312499999999996
40
0.0312499999999996
40
0.0624999999999995
40
0.0624999999999995
40
0.124999999999999
40
0.124999999999999
40
0.249999999999999
40
0.249999999999999
40
0.5
40
0.5
40
1
40
1
40
1
40
1
41
1
10
117.407807570629
20
-7.4882304474732
30
-1E-16
41
1
10
117.472996098805
20
-7.49738986730554
30
-1E-16
41
1
10
117.489485855323
20
-7.4213459719852
30
-1E-16
41
1
10
117.527524240148
20
-7.3306736836407
30
-1E-16
41
1
10
117.542025057764
20
-7.28385264028603
30
-1E-16
41
1
10
117.581319088285
20
-7.14228584234695
30
-1E-16
41
1
10
117.601407506558
20
-7.04558437936953
30
-1E-16
41
1
10
117.656192699685
20
-6.75004529964863
30
-1E-16
41
1
10
117.684355556667
20
-6.54619283441784
30
-1E-16
41
1
10
117.760553869151
20
-5.92072368107614
30
-1E-16
41
1
10
117.799413325433
20
-5.48319559814686
30
-1E-16
41
1
10
117.903989605101
20
-4.11019106266559
30
-1E-16
41
1
10
117.954861412382
20
-3.1279213433472
30
-1E-16
41
1
10
118.081645088562
20
-0.108315547834877
30
-1E-16
41
1
10
118.129270916525
20
2.01217994276436
30
-1E-16
41
1
10
118.158599629973
20
3.88194041018016
30
-1E-16
0
SPLINE
5
CC
100
AcDbEntity
8
1
62
256
6
ByLayer
370
-1
48
1
60
0
100
AcDbSpline
70
4
71
3
72
8
73
4
40
0
40
0
40
0
40
0
40
1
40
1
40
1
40
1
41
1
10
105.956606628066
20
4.09017212110658
30
-8E-16
41
1
10
106.448189451325
20
3.95767794971061
30
-8E-16
41
1
10
106.947865352535
20
3.84577747237179
30
-7E-16
41
1
10
107.455363016932
20
3.75539467452239
30
-7E-16
0
SPLINE
5
CD
100
AcDbEntity
8
1
62
256
6
ByLayer
370
-1
48
1
60
0
100
AcDbSpline
70
4
71
3
72
8
73
4
40
0
40
0
40
0
40
0
40
1
40
1
40
1
40
1
41
1
10
97.3693289810433
20
-9.26160566679468
30
0
41
1
10
97.2446629760602
20
-9.47888598378728
30
0
41
1
10
97.273594826057
20
-9.44994511505493
30
0
41
1
10
97.4931542618226
20
-9.19533453433473
30
0
0
SPLINE
5
CE
100
AcDbEntity
8
1
62
256
6
ByLayer
370
-1
48
1
60
0
100
AcDbSpline
70
4
71
3
72
8
73
4
40
0
40
0
40
0
40
0
40
1
40
1
40
1
40
1
41
1
10
107.145130698822
20
4.40312679305495
30
2E-16
41
1
10
107.145061737372
20
4.40318787700917
30
2E-16
41
1
10
107.144992781595
20
4.40324896755584
30
2E-16
41
1
10
107.144923831491
20
4.40331006469333
30
2E-16
0
SPLINE
5
CF
100
AcDbEntity
8
1
62
256
6
ByLayer
370
-1
48
1
60
0
100
AcDbSpline
70
4
71
3
72
8
73
4
40
0
40
0
40
0
40
0
40
1
40
1
40
1
40
1
41
1
10
115.822907485035
20
-7.26457241201555
30
-2E-16
41
1
10
116.351386831224
20
-7.33946675070516
30
-2E-16
41
1
10
116.879696105439
20
-7.41402728990218
30
-1E-16
41
1
10
117.407807570629
20
-7.4882304474728
30
-1E-16
0
SPLINE
5
D0
100
AcDbEntity
8
1
62
256
6
ByLayer
370
-1
48
1
60
0
100
AcDbSpline
70
4
71
3
72
8
73
4
40
0
40
0
40
0
40
0
40
1
40
1
40
1
40
1
41
1
10
110.319075114281
20
-6.47409318324725
30
-5E-16
41
1
10
111.27918012057
20
-6.61370665485055
30
-5E-16
41
1
10
112.238912886655
20
-6.75241915274512
30
-4E-16
41
1
10
113.198162079745
20
-6.89013552514356
30
-4E-16
0
SPLINE
5
D1
100
AcDbEntity
8
1
62
256
6
ByLayer
370
-1
48
1
60
0
100
AcDbSpline
70
4
71
3
72
10
73
6
40
0
40
0
40
0
40
0
40
0.349799154203818
40
0.349799154203818
40
1
40
1
40
1
40
1
41
1
10
118.158599629972
20
3.881940410196
30
-1E-16
41
1
10
118.171118364408
20
3.87743008388844
30
-1E-16
41
1
10
118.181552273625
20
3.87264918506645
30
-1E-16
41
1
10
118.205017794275
20
3.85841258409857
30
0
41
1
10
118.21280027
20
3.84833696467109
30
0
41
1
10
118.21280027
20
3.83783163723893
30
0
0
SPLINE
5
D2
100
AcDbEntity
8
1
62
256
6
ByLayer
370
-1
48
1
60
0
100
AcDbSpline
70
4
71
3
72
8
73
4
40
0
40
0
40
0
40
0
40
1
40
1
40
1
40
1
41
1
10
114.398773415925
20
3.96276292371815
30
-1E-16
41
1
10
114.389192143755
20
3.95544468691523
30
-1E-16
41
1
10
114.379507567582
20
3.94825992273459
30
-1E-16
41
1
10
114.369725603891
20
3.94121233330682
30
-1E-16
0
SPLINE
5
D3
100
AcDbEntity
8
1
62
256
6
ByLayer
370
-1
48
1
60
0
100
AcDbSpline
70
4
71
3
72
28
73
24
40
0
40
0
40
0
40
0
40
0.0893731816777055
40
0.0893731816777055
40
0.177630823340194
40
0.177630823340194
40
0.280641793095857
40
0.280641793095857
40
0.400158257488785
40
0.400158257488785
40
0.488178473312098
40
0.488178473312098
40
0.576356993858707
40
0.576356993858707
40
0.662715034095019
40
0.662715034095019
40
0.758894384475038
40
0.758894384475038
40
0.871841670482475
40
0.871841670482475
40
0.956731420774125
40
0.956731420774125
40
1
40
1
40
1
40
1
41
1
10
113.399767421414
20
-6.25958011429893
30
-3E-16
41
1
10
113.399767421414
20
-6.35723812220979
30
-3E-16
41
1
10
113.411763064448
20
-6.45873953846976
30
-3E-16
41
1
10
113.456335995746
20
-6.64837300579953
30
-3E-16
41
1
10
113.48907731837
20
-6.73935833707699
30
-3E-16
41
1
10
113.579136305543
20
-6.9195994867674
30
-3E-16
41
1
10
113.640807670925
20
-7.0085752517881
30
-3E-16
41
1
10
113.79857400081
20
-7.1723233983426
30
-3E-16
41
1
10
113.901770733187
20
-7.24538092675871
30
-3E-16
41
1
10
114.101887993027
20
-7.32922963487476
30
-3E-16
41
1
10
114.195710900876
20
-7.35202933089838
30
-3E-16
41
1
10
114.386505401429
20
-7.36612558017666
30
-3E-16
41
1
10
114.485952381311
20
-7.35750796505309
30
-3E-16
41
1
10
114.674024483998
20
-7.31206412867999
30
-3E-16
41
1
10
114.76510385738
20
-7.27544685643977
30
-3E-16
41
1
10
114.941518488933
20
-7.17612451418995
30
-2E-16
41
1
10
115.027256433716
20
-7.1099158395657
30
-2E-16
41
1
10
115.18859949533
20
-6.94615909934763
30
-2E-16
41
1
10
115.26249835162
20
-6.84274178534957
30
-2E-16
41
1
10
115.357067605073
20
-6.64581594176988
30
-2E-16
41
1
10
115.387107748789
20
-6.55396830893824
30
-2E-16
41
1
10
115.410202922668
20
-6.41315036883339
30
-2E-16
41
1
10
115.414245808015
20
-6.3645677801145
30
-2E-16
41
1
10
115.414245808015
20
-6.31658076737747
30
-2E-16
0
SPLINE
5
D4
100
AcDbEntity
8
1
62
256
6
ByLayer
370
-1
48
1
60
0
100
AcDbSpline
70
4
71
3
72
10
73
6
40
0
40
0
40
0
40
0
40
0.52790594045297
40
0.52790594045297
40
1
40
1
40
1
40
1
41
1
10
113.03601944394
20
3.85646018291288
30
1E-16
41
1
10
113.009536474511
20
3.87134857253707
30
1E-16
41
1
10
112.984271185864
20
3.88804352661154
30
1E-16
41
1
10
112.938609789669
20
3.92312266819925
30
1E-16
41
1
10
112.91793182899
20
3.94119538390152
30
1E-16
41
1
10
112.898177081396
20
3.96070251384449
30
1E-16
0
SPLINE
5
D5
100
AcDbEntity
8
1
62
256
6
ByLayer
370
-1
48
1
60
0
100
AcDbSpline
70
4
71
3
72
16
73
12
40
0
40
0
40
0
40
0
40
0.0725595853597922
40
0.0725595853597922
40
0.384466339124919
40
0.384466339124919
40
0.703608696567743
40
0.703608696567743
40
0.91298640663106
40
0.91298640663106
40
1
40
1
40
1
40
1
41
1
10
100.055727774945
20
8.9194114251728
30
2E-16
41
1
10
99.9811221922849
20
8.9130594728758
30
2E-16
41
1
10
99.9061750306537
20
8.90771913266138
30
2E-16
41
1
10
99.5117515499087
20
8.88507803571977
30
1E-16
41
1
10
99.1865965626838
20
8.88592619236104
30
1E-16
41
1
10
98.5720970523175
20
8.92388517873545
30
1E-16
41
1
10
98.2728049374125
20
8.96256571160811
30
1E-16
41
1
10
97.8593312794559
20
9.04664034705786
30
0
41
1
10
97.7129139431171
20
9.08602695094311
30
0
41
1
10
97.5553725742738
20
9.14324489472205
30
0
41
1
10
97.5148442926264
20
9.16037197046293
30
0
41
1
10
97.4808906182883
20
9.17740859557082
30
0
0
SPLINE
5
D6
100
AcDbEntity
8
1
62
256
6
ByLayer
370
-1
48
1
60
0
100
AcDbSpline
70
4
71
3
72
22
73
18
40
0
40
0
40
0
40
0
40
0.0708120339396002
40
0.0708120339396002
40
0.238352351571194
40
0.238352351571194
40
0.379594674093774
40
0.379594674093774
40
0.521893739785479
40
0.521893739785479
40
0.648236894683051
40
0.648236894683051
40
0.76861952789734
40
0.76861952789734
40
0.893600281006837
40
0.893600281006837
40
1
40
1
40
1
40
1
41
1
10
113.198162079745
20
-6.89013552514353
30
-4E-16
41
1
10
113.220103200191
20
-6.95024277043066
30
-4E-16
41
1
10
113.246455296332
20
-7.00896796063714
30
-4E-16
41
1
10
113.35033583756
20
-7.19932947637028
30
-3E-16
41
1
10
113.450811658168
20
-7.32401475117348
30
-3E-16
41
1
10
113.684086362038
20
-7.51782948319891
30
-3E-16
41
1
10
113.812171378075
20
-7.59461914564568
30
-3E-16
41
1
10
114.096607777116
20
-7.7104096389682
30
-3E-16
41
1
10
114.257647704775
20
-7.75077224781649
30
-3E-16
41
1
10
114.567088847392
20
-7.78439165190926
30
-3E-16
41
1
10
114.71916157383
20
-7.78285160435075
30
-3E-16
41
1
10
115.001878547833
20
-7.74611171601453
30
-2E-16
41
1
10
115.13682790775
20
-7.71205456011458
30
-2E-16
41
1
10
115.385780643057
20
-7.61588939610391
30
-2E-16
41
1
10
115.501881593018
20
-7.55165159136229
30
-2E-16
41
1
10
115.686105562625
20
-7.41364607879572
30
-2E-16
41
1
10
115.760320662127
20
-7.34179391944318
30
-2E-16
41
1
10
115.822907485036
20
-7.26457241201598
30
-2E-16
0
SPLINE
5
D7
100
AcDbEntity
8
1
62
256
6
ByLayer
370
-1
48
1
60
0
100
AcDbSpline
70
4
71
3
72
14
73
10
40
0
40
0
40
0
40
0
40
0.18026846039397
40
0.18026846039397
40
0.477667222926763
40
0.477667222926763
40
0.77231041981764
40
0.77231041981764
40
1
40
1
40
1
40
1
41
1
10
113.03601944394
20
3.85646018291288
30
1E-16
41
1
10
113.109458554036
20
3.81587519250209
30
1E-16
41
1
10
113.187386587065
20
3.78277855210661
30
1E-16
41
1
10
113.399561045585
20
3.71749628000848
30
1E-16
41
1
10
113.540863154204
20
3.69916926587004
30
1E-16
41
1
10
113.81770867501
20
3.70973639145873
30
-1E-16
41
1
10
113.957059250403
20
3.73833920848565
30
-1E-16
41
1
10
114.186494810306
20
3.8265811859977
30
-1E-16
41
1
10
114.28259315838
20
3.87843621582633
30
-1E-16
41
1
10
114.369725603893
20
3.94121233330432
30
-1E-16
0
SPLINE
5
D8
100
AcDbEntity
8
1
62
256
6
ByLayer
370
-1
48
1
60
0
100
AcDbSpline
70
4
71
3
72
18
73
14
40
0
40
0
40
0
40
0
40
0.0253189634225441
40
0.0253189634225441
40
0.218464460617184
40
0.218464460617184
40
0.410146493598094
40
0.410146493598094
40
0.608599837657408
40
0.608599837657408
40
0.818744439554122
40
0.818744439554122
40
1
40
1
40
1
40
1
41
1
10
108.804414812166
20
-9.33069617110806
30
3E-16
41
1
10
108.802831998058
20
-9.32258857341984
30
3E-16
41
1
10
108.801694109094
20
-9.31447933242742
30
3E-16
41
1
10
108.795791215295
20
-9.24527103806295
30
3E-16
41
1
10
108.816759422123
20
-9.18373618865371
30
3E-16
41
1
10
108.906358136336
20
-9.07113713874057
30
3E-16
41
1
10
108.975719349702
20
-9.01855378938839
30
3E-16
41
1
10
109.154016309665
20
-8.92846706445312
30
3E-16
41
1
10
109.266479383223
20
-8.89041677995522
30
3E-16
41
1
10
109.52328389366
20
-8.83553759170053
30
3E-16
41
1
10
109.672430918893
20
-8.81937745534063
30
3E-16
41
1
10
109.960608572248
20
-8.81512394699544
30
3E-16
41
1
10
110.100919243026
20
-8.82343210993389
30
3E-16
41
1
10
110.240322471758
20
-8.84172915921036
30
4E-16
0
SPLINE
5
D9
100
AcDbEntity
8
1
62
256
6
ByLayer
370
-1
48
1
60
0
100
AcDbSpline
70
4
71
3
72
8
73
4
40
0
40
0
40
0
40
0
40
1
40
1
40
1
40
1
41
1
10
107.455363016955
20
-9.42391973192136
30
2E-16
41
1
10
107.481121780001
20
-9.410348025735
30
2E-16
41
1
10
107.510939295889
20
-9.39847922570502
30
2E-16
41
1
10
107.544096074582
20
-9.38998785188684
30
2E-16
0
SPLINE
5
DA
100
AcDbEntity
8
1
62
256
6
ByLayer
370
-1
48
1
60
0
100
AcDbSpline
70
4
71
3
72
8
73
4
40
0
40
0
40
0
40
0
40
1
40
1
40
1
40
1
41
1
10
107.345257949386
20
9.51359050102934
30
2E-16
41
1
10
107.36413367971
20
9.48300935116583
30
2E-16
41
1
10
107.401871942496
20
9.45210296202947
30
2E-16
41
1
10
107.455363016982
20
9.42391973191206
30
2E-16
0
SPLINE
5
DB
100
AcDbEntity
8
1
62
256
6
ByLayer
370
-1
48
1
60
0
100
AcDbSpline
70
4
71
3
72
20
73
16
40
0
40
0
40
0
40
0
40
0.340463282312288
40
0.340463282312288
40
0.571028100403727
40
0.571028100403727
40
0.726226378397993
40
0.726226378397993
40
0.881352205296239
40
0.881352205296239
40
0.941060232627958
40
0.941060232627958
40
0.986099054958523
40
0.986099054958523
40
1
40
1
40
1
40
1
41
1
10
110.240322471761
20
-6.33419919368402
30
-5E-16
41
1
10
110.245436354126
20
-6.35176959181192
30
-5E-16
41
1
10
110.250979322518
20
-6.36922982835543
30
-5E-16
41
1
10
110.261644905506
20
-6.39810976870766
30
-5E-16
41
1
10
110.266322125758
20
-6.40967695546453
30
-5E-16
41
1
10
110.275333494004
20
-6.42862506902645
30
-5E-16
41
1
10
110.279280501083
20
-6.43615747291099
30
-5E-16
41
1
10
110.288368507144
20
-6.45067514166493
30
-5E-16
41
1
10
110.293483306855
20
-6.45781381487572
30
-5E-16
41
1
10
110.302632496868
20
-6.46628578932913
30
-5E-16
41
1
10
110.305450656695
20
-6.46850725319621
30
-5E-16
41
1
10
110.310995164537
20
-6.47169493788405
30
-5E-16
41
1
10
110.313626824812
20
-6.47285137975396
30
-5E-16
41
1
10
110.317286354243
20
-6.47378299108902
30
-5E-16
41
1
10
110.318176120232
20
-6.47396245622411
30
-5E-16
41
1
10
110.319075114277
20
-6.47409318325799
30
-5E-16
0
SPLINE
5
DC
100
AcDbEntity
8
1
62
256
6
ByLayer
370
-1
48
1
60
0
100
AcDbSpline
70
4
71
3
72
26
73
22
40
0
40
0
40
0
40
0
40
0.1408294777111
40
0.1408294777111
40
0.27190104111294
40
0.27190104111294
40
0.38062982738159
40
0.38062982738159
40
0.49045545672822
40
0.49045545672822
40
0.584093138126437
40
0.584093138126437
40
0.665994289412516
40
0.665994289412516
40
0.744832976473278
40
0.744832976473278
40
0.828927397074154
40
0.828927397074154
40
0.952679764820477
40
0.952679764820477
40
1
40
1
40
1
40
1
41
1
10
113.139151278079
20
-5.98789758817892
30
-4E-16
41
1
10
113.181588144262
20
-5.78428691021634
30
-4E-16
41
1
10
113.256911824166
20
-5.57803201305708
30
-4E-16
41
1
10
113.467910197811
20
-5.20546417444035
30
-3E-16
41
1
10
113.60184523353
20
-5.0332476946343
30
-3E-16
41
1
10
113.898360771401
20
-4.76641198093947
30
-3E-16
41
1
10
114.05571932893
20
-4.66087298362845
30
-3E-16
41
1
10
114.398480302854
20
-4.50754771258073
30
-3E-16
41
1
10
114.590035868195
20
-4.45825822111647
30
-3E-16
41
1
10
114.944370398466
20
-4.43935058539103
30
-2E-16
41
1
10
115.112646726026
20
-4.45917034718508
30
-2E-16
41
1
10
115.403500197781
20
-4.54982435093842
30
-2E-16
41
1
10
115.533084239563
20
-4.61525067300104
30
-2E-16
41
1
10
115.753050677103
20
-4.7758834179705
30
-2E-16
41
1
10
115.847513445241
20
-4.87174353035761
30
-2E-16
41
1
10
116.004523622273
20
-5.08644381414078
30
-2E-16
41
1
10
116.066556326019
20
-5.20871635257859
30
-2E-16
41
1
10
116.172462516635
20
-5.51487496770386
30
-2E-16
41
1
10
116.19662762719
20
-5.70566901022715
30
-2E-16
41
1
10
116.188632826723
20
-5.95953221716573
30
-2E-16
41
1
10
116.182007004462
20
-6.02969082580867
30
-2E-16
41
1
10
116.171479368681
20
-6.09877464932873
30
-2E-16
0
SPLINE
5
DD
100
AcDbEntity
8
1
62
256
6
ByLayer
370
-1
48
1
60
0
100
AcDbSpline
70
4
71
3
72
8
73
4
40
0
40
0
40
0
40
0
40
1
40
1
40
1
40
1
41
1
10
110.240322471762
20
-6.33419919368384
30
-5E-16
41
1
10
109.390205581481
20
-3.41334745129177
30
-6E-16
41
1
10
108.357512156757
20
0.466907299085392
30
-7E-16
41
1
10
107.56352762218
20
3.73749671347412
30
-7E-16
0
SPLINE
5
DE
100
AcDbEntity
8
1
62
256
6
ByLayer
370
-1
48
1
60
0
100
AcDbSpline
70
4
71
3
72
18
73
14
40
0
40
0
40
0
40
0
40
0.108165844867233
40
0.108165844867233
40
0.328660604550116
40
0.328660604550116
40
0.539119790079597
40
0.539119790079597
40
0.74370658651324
40
0.74370658651324
40
0.947905673027245
40
0.947905673027245
40
1
40
1
40
1
40
1
41
1
10
118.21280027
20
-8.97962318401761
30
0
41
1
10
118.21280027
20
-9.02485451880366
30
0
41
1
10
118.20904589777
20
-9.07014163509623
30
0
41
1
10
118.186268514001
20
-9.20463640806835
30
0
41
1
10
118.154746009335
20
-9.29297753242588
30
-1E-16
41
1
10
118.065810373248
20
-9.44615019498781
30
-1E-16
41
1
10
118.008366890652
20
-9.51399364640778
30
-1E-16
41
1
10
117.877035336799
20
-9.62208115095504
30
-1E-16
41
1
10
117.801864061493
20
-9.66451492306439
30
-1E-16
41
1
10
117.643457130641
20
-9.72085631290815
30
-1E-16
41
1
10
117.558130621372
20
-9.73559534776584
30
-1E-16
41
1
10
117.451593402369
20
-9.73630985334313
30
-1E-16
41
1
10
117.429669107626
20
-9.73553596189595
30
-1E-16
41
1
10
117.407807570629
20
-9.73385411902331
30
-1E-16
0
SPLINE
5
DF
100
AcDbEntity
8
1
62
256
6
ByLayer
370
-1
48
1
60
0
100
AcDbSpline
70
4
71
3
72
10
73
6
40
0
40
0
40
0
40
0
40
0.640504206975028
40
0.640504206975028
40
1
40
1
40
1
40
1
41
1
10
107.895747472087
20
3.6817378435529
30
0
41
1
10
107.766841485002
20
3.73148093313506
30
0
41
1
10
107.645107139621
20
3.79957697835914
30
0
41
1
10
107.479743300354
20
3.93150505775026
30
0
41
1
10
107.424219286554
20
3.98468721872141
30
0
41
1
10
107.373882105881
20
4.04216632675278
30
2E-16
0
SPLINE
5
E0
100
AcDbEntity
8
1
62
256
6
ByLayer
370
-1
48
1
60
0
100
AcDbSpline
70
4
71
3
72
8
73
4
40
0
40
0
40
0
40
0
40
1
40
1
40
1
40
1
41
1
10
113.121992884398
20
-6.09823517213292
30
-4E-16
41
1
10
113.125774158186
20
-6.06143966117497
30
-4E-16
41
1
10
113.131504604684
20
-6.02458607378554
30
-4E-16
41
1
10
113.139151278079
20
-5.98789758817892
30
-4E-16
0
SPLINE
5
E1
100
AcDbEntity
8
1
62
256
6
ByLayer
370
-1
48
1
60
0
100
AcDbSpline
70
4
71
3
72
14
73
10
40
0
40
0
40
0
40
0
40
0.303359745670222
40
0.303359745670222
40
0.606346885930746
40
0.606346885930746
40
0.919669281948905
40
0.919669281948905
40
1
40
1
40
1
40
1
41
1
10
107.544096074586
20
-9.38998785188986
30
2E-16
41
1
10
107.616000197263
20
-9.37157337349865
30
2E-16
41
1
10
107.704684477867
20
-9.35854123156977
30
2E-16
41
1
10
107.899400304249
20
-9.34674452404491
30
2E-16
41
1
10
108.007983825848
20
-9.3478155379303
30
2E-16
41
1
10
108.233787410663
20
-9.36452046440982
30
-2E-16
41
1
10
108.354157518779
20
-9.38085422207274
30
-2E-16
41
1
10
108.50108230377
20
-9.40951924494217
30
-2E-16
41
1
10
108.531127861859
20
-9.41584444826032
30
-2E-16
41
1
10
108.560915679617
20
-9.42257413062447
30
-2E-16
0
SPLINE
5
E2
100
AcDbEntity
8
1
62
256
6
ByLayer
370
-1
48
1
60
0
100
AcDbSpline
70
4
71
3
72
12
73
8
40
0
40
0
40
0
40
0
40
0.348577257200787
40
0.348577257200787
40
0.719036261060348
40
0.719036261060348
40
1
40
1
40
1
40
1
41
1
10
111.393124234964
20
-9.2023274039108
30
4E-16
41
1
10
111.312962561965
20
-9.14097981459321
30
4E-16
41
1
10
111.210404314178
20
-9.08282792504787
30
4E-16
41
1
10
110.970076987732
20
-8.98024664506238
30
4E-16
41
1
10
110.827410590918
20
-8.93559247252051
30
4E-16
41
1
10
110.5623662309
20
-8.87859743238494
30
4E-16
41
1
10
110.441383215149
20
-8.86061488310807
30
4E-16
41
1
10
110.31907511428
20
-8.85022493863033
30
4E-16
0
SPLINE
5
E3
100
AcDbEntity
8
1
62
256
6
ByLayer
370
-1
48
1
60
0
100
AcDbSpline
70
4
71
3
72
18
73
14
40
0
40
0
40
0
40
0
40
0.0631909977507382
40
0.0631909977507382
40
0.334825667076352
40
0.334825667076352
40
0.612761709452204
40
0.612761709452204
40
0.795105452736557
40
0.795105452736557
40
0.979516923161389
40
0.979516923161389
40
1
40
1
40
1
40
1
41
1
10
100.055727774945
20
-8.91941142517297
30
2E-16
41
1
10
99.981122192285
20
-8.91305947287597
30
2E-16
41
1
10
99.9061750306537
20
-8.90771913266158
30
2E-16
41
1
10
99.5117515499088
20
-8.88507803571997
30
1E-16
41
1
10
99.1865965626839
20
-8.88592619236121
30
1E-16
41
1
10
98.5720970523176
20
-8.92388517873562
30
1E-16
41
1
10
98.2728049374126
20
-8.96256571160831
30
1E-16
41
1
10
97.8593312794559
20
-9.04664034705803
30
0
41
1
10
97.7129139431171
20
-9.08602695094331
30
0
41
1
10
97.4892886458977
20
-9.16724612389956
30
0
41
1
10
97.410091896768
20
-9.21026735559309
30
0
41
1
10
97.3747772822185
20
-9.25306393636041
30
0
41
1
10
97.3717638004604
20
-9.25736202126481
30
0
41
1
10
97.3693289810433
20
-9.26160566679468
30
0
0
SPLINE
5
E4
100
AcDbEntity
8
1
62
256
6
ByLayer
370
-1
48
1
60
0
100
AcDbSpline
70
4
71
3
72
12
73
8
40
0
40
0
40
0
40
0
40
0.398965640219889
40
0.398965640219889
40
0.797441245727456
40
0.797441245727456
40
1
40
1
40
1
40
1
41
1
10
107.544096074495
20
9.38998785191274
30
2E-16
41
1
10
107.616000197189
20
9.37157337350936
30
2E-16
41
1
10
107.704684477827
20
9.35854123157196
30
2E-16
41
1
10
107.899400304249
20
9.34674452404465
30
2E-16
41
1
10
108.007983825848
20
9.34781553793005
30
2E-16
41
1
10
108.175424576787
20
9.36020278783315
30
0
41
1
10
108.23319968908
20
9.36627205778294
30
-1E-16
41
1
10
108.291232747033
20
9.37407062191969
30
-2E-16
0
SPLINE
5
E5
100
AcDbEntity
8
1
62
256
6
ByLayer
370
-1
48
1
60
0
100
AcDbSpline
70
4
71
3
72
10
73
6
40
0
40
0
40
0
40
0
40
0.82899633223141
40
0.82899633223141
40
1
40
1
40
1
40
1
41
1
10
107.580595988406
20
6.58797618389767
30
2E-16
41
1
10
107.421397224459
20
6.48370801210982
30
2E-16
41
1
10
107.273325480771
20
6.37690620130545
30
2E-16
41
1
10
107.108911954697
20
6.27415351398489
30
2E-16
41
1
10
107.080871978633
20
6.25742305873464
30
2E-16
41
1
10
107.053411188654
20
6.24246210796755
30
2E-16
0
SPLINE
5
E6
100
AcDbEntity
8
1
62
256
6
ByLayer
370
-1
48
1
60
0
100
AcDbSpline
70
4
71
3
72
10
73
6
40
0
40
0
40
0
40
0
40
0.363940738598378
40
0.363940738598378
40
1
40
1
40
1
40
1
41
1
10
109.083828961117
20
3.8858078767033
30
-2E-16
41
1
10
109.108314407266
20
3.89182108230838
30
3E-16
41
1
10
109.136960642827
20
3.89533286029175
30
3E-16
41
1
10
109.225418880299
20
3.89718956200741
30
3E-16
41
1
10
109.294078693377
20
3.8894024492738
30
3E-16
41
1
10
109.369535384794
20
3.87560686467413
30
3E-16
0
SPLINE
5
E7
100
AcDbEntity
8
1
62
256
6
ByLayer
370
-1
48
1
60
0
100
AcDbSpline
70
4
71
3
72
8
73
4
40
0
40
0
40
0
40
0
40
1
40
1
40
1
40
1
41
1
10
107.373882105881
20
4.0421663267538
30
2E-16
41
1
10
107.280683448685
20
4.14858817266796
30
2E-16
41
1
10
107.203990231563
20
4.27183464272176
30
2E-16
41
1
10
107.145130698822
20
4.40312679305495
30
2E-16
0
SPLINE
5
E8
100
AcDbEntity
8
1
62
256
6
ByLayer
370
-1
48
1
60
0
100
AcDbSpline
70
4
71
2
72
6
73
3
40
0
40
0
40
0
40
1
40
1
40
1
41
0.500000013542397
10
108.560915679616
20
-9.42257413062474
30
-2E-16
41
0.499999986457603
10
108.600666850947
20
-9.43155474004142
30
-2E-16
41
0.500000013542397
10
108.640473124527
20
-9.44053649805887
30
-2E-16
0
SPLINE
5
E9
100
AcDbEntity
8
1
62
256
6
ByLayer
370
-1
48
1
60
0
100
AcDbSpline
70
4
71
3
72
8
73
4
40
0
40
0
40
0
40
0
40
1
40
1
40
1
40
1
41
1
10
111.824943431129
20
3.49323320590008
30
-4E-16
41
1
10
110.396862281752
20
3.40525938961952
30
-5E-16
41
1
10
108.976262277689
20
3.48567287310769
30
-6E-16
41
1
10
107.56352762218
20
3.73749671347412
30
-7E-16
0
SPLINE
5
EA
100
AcDbEntity
8
1
62
256
6
ByLayer
370
-1
48
1
60
0
100
AcDbSpline
70
4
71
3
72
10
73
6
40
0
40
0
40
0
40
0
40
0.632666980160595
40
0.632666980160595
40
1
40
1
40
1
40
1
41
1
10
109.292566093319
20
3.53806095646772
30
1E-16
41
1
10
109.992864441249
20
3.61573714995728
30
1E-16
41
1
10
110.694754521981
20
3.67236003584691
30
-1E-16
41
1
10
111.802462068753
20
3.76038821235744
30
0
41
1
10
112.209445548223
20
3.79198260853099
30
0
41
1
10
112.616434533671
20
3.8237301180009
30
1E-16
0
SPLINE
5
EB
100
AcDbEntity
8
1
62
256
6
ByLayer
370
-1
48
1
60
0
100
AcDbSpline
70
4
71
3
72
8
73
4
40
0
40
0
40
0
40
0
40
1
40
1
40
1
40
1
41
1
10
107.345257949386
20
-9.51359050102982
30
2E-16
41
1
10
107.364133679707
20
-9.48300935117041
30
2E-16
41
1
10
107.401871942485
20
-9.45210296203831
30
2E-16
41
1
10
107.45536301696
20
-9.42391973192403
30
2E-16
0
SPLINE
5
EC
100
AcDbEntity
8
1
62
256
6
ByLayer
370
-1
48
1
60
0
100
AcDbSpline
70
4
71
3
72
8
73
4
40
0
40
0
40
0
40
0
40
1
40
1
40
1
40
1
41
1
10
109.537969587285
20
3.85167502227967
30
3E-16
41
1
10
109.478563971496
20
3.85800037931571
30
3E-16
41
1
10
109.421850672362
20
3.86604217316773
30
3E-16
41
1
10
109.369535384794
20
3.87560686467415
30
3E-16
0
SPLINE
5
ED
100
AcDbEntity
8
1
62
256
6
ByLayer
370
-1
48
1
60
0
100
AcDbSpline
70
4
71
3
72
8
73
4
40
0
40
0
40
0
40
0
40
1
40
1
40
1
40
1
41
1
10
107.455363016932
20
3.75539467452234
30
-7E-16
41
1
10
107.485138224585
20
3.75009185883872
30
-7E-16
41
1
10
107.514804561292
20
3.74512443840166
30
-7E-16
41
1
10
107.544096074564
20
3.74053193755188
30
-7E-16
0
SPLINE
5
EE
100
AcDbEntity
8
1
62
256
6
ByLayer
370
-1
48
1
60
0
100
AcDbSpline
70
4
71
3
72
10
73
6
40
0
40
0
40
0
40
0
40
0.105729626819438
40
0.105729626819438
40
1
40
1
40
1
40
1
41
1
10
113.198162079744
20
-6.89013552514365
30
-4E-16
41
1
10
113.18912501881
20
-6.8637821068418
30
-4E-16
41
1
10
113.180834640189
20
-6.83716040932748
30
-4E-16
41
1
10
113.109976135241
20
-6.58566876379322
30
-4E-16
41
1
10
113.096902541769
20
-6.34238886976306
30
-4E-16
41
1
10
113.121992884398
20
-6.09823517213292
30
-4E-16
0
SPLINE
5
EF
100
AcDbEntity
8
1
62
256
6
ByLayer
370
-1
48
1
60
0
100
AcDbSpline
70
4
71
3
72
10
73
6
40
0
40
0
40
0
40
0
40
0.768233040708246
40
0.768233040708246
40
1
40
1
40
1
40
1
41
1
10
114.398773415925
20
3.96276292371823
30
-1E-16
41
1
10
114.432887141093
20
3.98586570719957
30
-1E-16
41
1
10
114.466601092902
20
4.01062646678443
30
-1E-16
41
1
10
114.509539276535
20
4.0450195494947
30
-1E-16
41
1
10
114.519405953204
20
4.05312542757326
30
-1E-16
41
1
10
114.529208388649
20
4.0613901763696
30
-1E-16
0
SPLINE
5
F0
100
AcDbEntity
8
1
62
256
6
ByLayer
370
-1
48
1
60
0
100
AcDbSpline
70
4
71
3
72
10
73
6
40
0
40
0
40
0
40
0
40
0.909361878738933
40
0.909361878738933
40
1
40
1
40
1
40
1
41
1
10
114.527811548318
20
8.61930459764324
30
-1E-16
41
1
10
114.414480263789
20
8.75389196936297
30
1E-16
41
1
10
114.277980193861
20
8.86899863728448
30
0
41
1
10
114.112843875634
20
8.96570337337334
30
0
41
1
10
114.097717463128
20
8.97421217723925
30
0
41
1
10
114.082426865428
20
8.98247033609863
30
0
0
SPLINE
5
F1
100
AcDbEntity
8
1
62
256
6
ByLayer
370
-1
48
1
60
0
100
AcDbSpline
70
4
71
3
72
14
73
10
40
0
40
0
40
0
40
0
40
0.258374536041623
40
0.258374536041623
40
0.520163709547353
40
0.520163709547353
40
0.808397479016399
40
0.808397479016399
40
1
40
1
40
1
40
1
41
1
10
114.745711681698
20
6.77505690285767
30
0
41
1
10
114.819485283488
20
6.92895499299445
30
0
41
1
10
114.87074786801
20
7.09654046456251
30
0
41
1
10
114.923317813672
20
7.43439202346141
30
0
41
1
10
114.924219281189
20
7.60991531179914
30
0
41
1
10
114.869508076398
20
7.96535908925651
30
0
41
1
10
114.808714543311
20
8.14763990177437
30
0
41
1
10
114.669564615865
20
8.42145042206528
30
0
41
1
10
114.602968906611
20
8.52492389816646
30
0
41
1
10
114.527811548318
20
8.61930459764324
30
-1E-16
0
SPLINE
5
F2
100
AcDbEntity
8
1
62
256
6
ByLayer
370
-1
48
1
60
0
100
AcDbSpline
70
4
71
1
72
4
73
2
40
0
40
0
40
1
40
1
41
1
10
108.481977511577
20
4.08355164805937
30
0
41
1
10
108.228093811548
20
4.0804211099796
30
0
0
SPLINE
5
F3
100
AcDbEntity
8
1
62
256
6
ByLayer
370
-1
48
1
60
0
100
AcDbSpline
70
4
71
3
72
14
73
10
40
0
40
0
40
0
40
0
40
0.301632841810063
40
0.301632841810063
40
0.602402032079644
40
0.602402032079644
40
0.899200904780736
40
0.899200904780736
40
1
40
1
40
1
40
1
41
1
10
111.707382843541
20
8.20233026136665
30
0
41
1
10
111.620527121915
20
8.02556876000747
30
0
41
1
10
111.561806785527
20
7.83047407519123
30
0
41
1
10
111.51616311342
20
7.43873011803063
30
0
41
1
10
111.526312975308
20
7.23819607979658
30
0
41
1
10
111.611979630603
20
6.86202906003768
30
0
41
1
10
111.69019162479
20
6.67929354047695
30
0
41
1
10
111.836882556966
20
6.46493088058915
30
0
41
1
10
111.878297887651
20
6.41223816082154
30
0
41
1
10
111.922906622212
20
6.36252191647714
30
0
0
SPLINE
5
F4
100
AcDbEntity
8
1
62
256
6
ByLayer
370
-1
48
1
60
0
100
AcDbSpline
70
4
71
3
72
25
73
21
40
0
40
0
40
0
40
0
40
0.0625
40
0.09375
40
0.125
40
0.1875
40
0.25
40
0.3125
40
0.375
40
0.4375
40
0.5
40
0.5625
40
0.625
40
0.6875
40
0.75
40
0.8125
40
0.875
40
0.90625
40
0.9375
40
1
40
1
40
1
40
1
41
1
10
108.749029763464
20
10.5165707510677
30
-2E-16
41
1
10
108.594202094369
20
10.5078117637889
30
-2E-16
41
1
10
108.372716681961
20
10.3202490797046
30
-2E-16
41
1
10
108.361001776614
20
10.0197664309113
30
-2E-16
41
1
10
108.339479569268
20
9.73918085133843
30
-2E-16
41
1
10
108.306038817523
20
9.40990580615244
30
-2E-16
41
1
10
108.252667730521
20
9.02755963671899
30
-2E-16
41
1
10
108.183273061802
20
8.63645015001688
30
0
41
1
10
108.101251621815
20
8.22070575544939
30
0
41
1
10
108.010000221008
20
7.76445486241968
30
0
41
1
10
107.888418853056
20
7.30018336377415
30
0
41
1
10
107.715407511636
20
6.86037715235915
30
0
41
1
10
107.45950735129
20
6.44999476570473
30
0
41
1
10
107.434916000826
20
5.97256550327313
30
0
41
1
10
107.440874358887
20
5.50446469022316
30
0
41
1
10
107.437090990457
20
5.03651918341976
30
0
41
1
10
107.455273026267
20
4.63806651671592
30
0
41
1
10
107.612848586669
20
4.37335965096693
30
0
41
1
10
107.843238842124
20
4.16168731760291
30
0
41
1
10
108.072592148768
20
4.08171931473544
30
0
41
1
10
108.228093811548
20
4.0804211099796
30
0
0
SPLINE
5
F5
100
AcDbEntity
8
1
62
256
6
ByLayer
370
-1
48
1
60
0
100
AcDbSpline
70
4
71
3
72
25
73
21
40
0
40
0
40
0
40
0
40
0.0625
40
0.09375
40
0.125
40
0.1875
40
0.25
40
0.3125
40
0.375
40
0.4375
40
0.5
40
0.5625
40
0.625
40
0.6875
40
0.75
40
0.8125
40
0.875
40
0.90625
40
0.9375
40
1
40
1
40
1
40
1
41
1
10
118.037347006763
20
4.19851477391001
30
0
41
1
10
118.193206474259
20
4.20642487098985
30
0
41
1
10
118.400461550746
20
4.40526200991079
30
0
41
1
10
118.38756681572
20
4.72526264771216
30
0
41
1
10
118.371408333146
20
5.03559676070617
30
0
41
1
10
118.344437057449
20
5.41369328608815
30
0
41
1
10
118.31296168359
20
5.86260128042215
30
0
41
1
10
118.300504465387
20
6.31868460390723
30
0
41
1
10
118.324759622761
20
6.78042562495975
30
0
41
1
10
118.403833405022
20
7.24633482580609
30
0
41
1
10
118.531131851195
20
7.70596511655134
30
0
41
1
10
118.700097390922
20
8.14890206502628
30
0
41
1
10
118.95802714869
20
8.55759826553643
30
0
41
1
10
118.981958428046
20
9.03545641671548
30
0
41
1
10
118.976022079345
20
9.50346038271456
30
0
41
1
10
118.979677899829
20
9.9714194105234
30
0
41
1
10
118.968581183609
20
10.3691720046867
30
0
41
1
10
118.797424345224
20
10.6351811990042
30
0
41
1
10
118.568974377625
20
10.846653070819
30
0
41
1
10
118.343942942797
20
10.9261950679796
30
0
41
1
10
118.188411288807
20
10.9274908402806
30
0
0
SPLINE
5
F6
100
AcDbEntity
8
1
62
256
6
ByLayer
370
-1
48
1
60
0
100
AcDbSpline
70
4
71
3
72
15
73
11
40
0
40
0
40
0
40
0
40
0.0625
40
0.125
40
0.25
40
0.5
40
0.75
40
0.875
40
0.9375
40
1
40
1
40
1
40
1
41
1
10
108.228093811548
20
4.0804211099796
30
0
41
1
10
108.429686103249
20
4.08154779806321
30
0
41
1
10
108.834926634171
20
4.08078844100112
30
0
41
1
10
109.651283205683
20
4.06997823921631
30
0
41
1
10
111.089166182613
20
4.03391377478263
30
0
41
1
10
113.138756941623
20
4.03098265192781
30
0
41
1
10
115.192495187817
20
4.07331695456276
30
0
41
1
10
116.622414152632
20
4.12608946680453
30
0
41
1
10
117.429149070224
20
4.17570646428405
30
0
41
1
10
117.836254901882
20
4.17409691746249
30
0
41
1
10
118.037347006763
20
4.19851477391001
30
0
0
SPLINE
5
F7
100
AcDbEntity
8
1
62
256
6
ByLayer
370
-1
48
1
60
0
100
AcDbSpline
70
4
71
3
72
15
73
11
40
0
40
0
40
0
40
0
40
0.0625
40
0.125
40
0.25
40
0.5
40
0.75
40
0.875
40
0.9375
40
1
40
1
40
1
40
1
41
1
10
118.188411288807
20
10.9274908402806
30
0
41
1
10
117.986658685509
20
10.9264394755758
30
0
41
1
10
117.582292125127
20
10.9247798030133
30
0
41
1
10
116.793946822103
20
10.9159837778288
30
0
41
1
10
115.438890383175
20
10.8853040840503
30
0
41
1
10
113.484235308026
20
10.8134245361007
30
1E-16
41
1
10
111.547844748096
20
10.6781623619592
30
0
41
1
10
110.158447195263
20
10.5929648506199
30
-1E-16
41
1
10
109.351665409712
20
10.5441872334334
30
-1E-16
41
1
10
108.949874104959
20
10.5402905368717
30
-2E-16
41
1
10
108.749029763464
20
10.5165707510677
30
-2E-16
0
SPLINE
5
F8
100
AcDbEntity
8
1
62
256
6
ByLayer
370
-1
48
1
60
0
100
AcDbSpline
70
4
71
3
72
10
73
6
40
0
40
0
40
0
40
0
40
0.864536028265322
40
0.864536028265322
40
1
40
1
40
1
40
1
41
1
10
111.922906622212
20
6.36252191647716
30
0
41
1
10
112.042391853701
20
6.22247659935965
30
0
41
1
10
112.187018731476
20
6.1002261801512
30
0
41
1
10
112.370085860008
20
5.99018820440133
30
0
41
1
10
112.395294444762
20
5.97590309108975
30
0
41
1
10
112.42088812116
20
5.96224489899313
30
0
0
SPLINE
5
F9
100
AcDbEntity
8
1
62
256
6
ByLayer
370
-1
48
1
60
0
100
AcDbSpline
70
4
71
3
72
18
73
14
40
0
40
0
40
0
40
0
40
0.213394464779721
40
0.213394464779721
40
0.389004322610666
40
0.389004322610666
40
0.566252444177968
40
0.566252444177968
40
0.721175490823056
40
0.721175490823056
40
0.92741643549918
40
0.92741643549918
40
1
40
1
40
1
40
1
41
1
10
113.801478801433
20
8.20352472766052
30
0
41
1
10
113.795006675856
20
8.15841378669126
30
0
41
1
10
113.794390955849
20
8.110578092634
30
0
41
1
10
113.805454990858
20
8.02383182929165
30
0
41
1
10
113.815176355459
20
7.98388880643088
30
0
41
1
10
113.843779597835
20
7.90865440923025
30
0
41
1
10
113.863236263253
20
7.87237158278063
30
0
41
1
10
113.90566415778
20
7.81431925405926
30
0
41
1
10
113.928363817737
20
7.79055787800468
30
0
41
1
10
113.983902565389
20
7.74575307354854
30
0
41
1
10
114.018518642748
20
7.72728945910032
30
0
41
1
10
114.066083384544
20
7.71169602336795
30
0
41
1
10
114.078709959757
20
7.7084411168581
30
0
41
1
10
114.091397169686
20
7.70600192508547
30
0
0
SPLINE
5
FA
100
AcDbEntity
8
1
62
256
6
ByLayer
370
-1
48
1
60
0
100
AcDbSpline
70
4
71
3
72
12
73
8
40
0
40
0
40
0
40
0
40
0.3770262906397
40
0.3770262906397
40
0.761056371823051
40
0.761056371823051
40
1
40
1
40
1
40
1
41
1
10
113.253002362841
20
8.23022038087905
30
0
41
1
10
113.291305076576
20
8.23428024952548
30
0
41
1
10
113.328429688545
20
8.24479674640901
30
0
41
1
10
113.395406251758
20
8.27580207430989
30
0
41
1
10
113.426073745333
20
8.29678023984076
30
0
41
1
10
113.469193530273
20
8.33636027284763
30
0
41
1
10
113.48436428948
20
8.35306221556962
30
0
41
1
10
113.498000310176
20
8.37085037077114
30
0
0
SPLINE
5
FB
100
AcDbEntity
8
1
62
256
6
ByLayer
370
-1
48
1
60
0
100
AcDbSpline
70
4
71
3
72
14
73
10
40
0
40
0
40
0
40
0
40
0.284523597312291
40
0.284523597312291
40
0.571736866218035
40
0.571736866218035
40
0.831999616286237
40
0.831999616286237
40
1
40
1
40
1
40
1
41
1
10
112.612836769444
20
6.80614655736187
30
0
41
1
10
112.605636100346
20
6.78734392546187
30
0
41
1
10
112.601914591041
20
6.76699760179866
30
0
41
1
10
112.602870305512
20
6.7263184112052
30
0
41
1
10
112.607681554332
20
6.70536305809875
30
0
41
1
10
112.625156259675
20
6.66868461103098
30
0
41
1
10
112.63733802112
20
6.65211896354666
30
0
41
1
10
112.662166671146
20
6.629321302259
30
0
41
1
10
112.67329120663
20
6.62132383748272
30
0
41
1
10
112.685273875951
20
6.61468857481142
30
0
0
SPLINE
5
FC
100
AcDbEntity
8
1
62
256
6
ByLayer
370
-1
48
1
60
0
100
AcDbSpline
70
4
71
3
72
16
73
12
40
0
40
0
40
0
40
0
40
0.0668638488454779
40
0.0668638488454779
40
0.290854271538575
40
0.290854271538575
40
0.517824973971269
40
0.517824973971269
40
0.759328674281162
40
0.759328674281162
40
1
40
1
40
1
40
1
41
1
10
113.703850843971
20
8.41501763794875
30
0
41
1
10
113.699052505019
20
8.41767466189538
30
0
41
1
10
113.694143446324
20
8.42009190052013
30
0
41
1
10
113.672577495513
20
8.42944056414117
30
0
41
1
10
113.654878082324
20
8.43381788543209
30
0
41
1
10
113.619907149617
20
8.43652051741867
30
0
41
1
10
113.602200399455
20
8.43481423434659
30
0
41
1
10
113.56808569094
20
8.42572766046123
30
0
41
1
10
113.551401907186
20
8.41789738770126
30
0
41
1
10
113.521960335142
20
8.39764088069202
30
0
41
1
10
113.508870772995
20
8.38503086257538
30
0
41
1
10
113.498000310176
20
8.37085037077114
30
0
0
SPLINE
5
FD
100
AcDbEntity
8
1
62
256
6
ByLayer
370
-1
48
1
60
0
100
AcDbSpline
70
4
71
3
72
18
73
14
40
0
40
0
40
0
40
0
40
0.213393079737798
40
0.213393079737798
40
0.389003177496045
40
0.389003177496045
40
0.566251555260788
40
0.566251555260788
40
0.721174645896043
40
0.721174645896043
40
0.927415342089921
40
0.927415342089921
40
1
40
1
40
1
40
1
41
1
10
112.322918401191
20
7.65596195174535
30
0
41
1
10
112.368091884325
20
7.66537679635522
30
0
41
1
10
112.412628938916
20
7.68182826142652
30
0
41
1
10
112.486488023107
20
7.72518034206675
30
0
41
1
10
112.51786449315
20
7.75030244002067
30
0
41
1
10
112.57083589695
20
7.80981315233757
30
1E-16
41
1
10
112.59299773029
20
7.84525558751784
30
1E-16
41
1
10
112.621663075313
20
7.91552389415344
30
1E-16
41
1
10
112.630196444598
20
7.95066743916468
30
1E-16
41
1
10
112.638817005653
20
8.03172610866
30
1E-16
41
1
10
112.635505267092
20
8.07871140268671
30
1E-16
41
1
10
112.622226273195
20
8.1389733673023
30
1E-16
41
1
10
112.617910499079
20
8.15458431737267
30
1E-16
41
1
10
112.612836769444
20
8.16989151890994
30
1E-16
0
SPLINE
5
FE
100
AcDbEntity
8
1
62
256
6
ByLayer
370
-1
48
1
60
0
100
AcDbSpline
70
4
71
3
72
16
73
12
40
0
40
0
40
0
40
0
40
0.067055361281165
40
0.067055361281165
40
0.291697905104277
40
0.291697905104277
40
0.519329228663784
40
0.519329228663784
40
0.761535715028727
40
0.761535715028727
40
1
40
1
40
1
40
1
41
1
10
114.211628277099
20
7.54363148488559
30
0
41
1
10
114.211628277099
20
7.54920852987945
30
0
41
1
10
114.211396720258
20
7.55476739880538
30
0
41
1
10
114.209402541251
20
7.57856928300913
30
0
41
1
10
114.205231255759
20
7.59649651602541
30
0
41
1
10
114.192433834163
20
7.62902430864403
30
0
41
1
10
114.18359909859
20
7.64399821983383
30
0
41
1
10
114.162172228118
20
7.67004135770267
30
0
41
1
10
114.149121692928
20
7.68113930228859
30
0
41
1
10
114.121416491591
20
7.69753195322036
30
0
41
1
10
114.10651090834
20
7.70309621869424
30
0
41
1
10
114.091397169686
20
7.70600192508547
30
0
0
SPLINE
5
FF
100
AcDbEntity
8
1
62
256
6
ByLayer
370
-1
48
1
60
0
100
AcDbSpline
70
4
71
3
72
12
73
8
40
0
40
0
40
0
40
0
40
0.377026290846268
40
0.377026290846268
40
0.761056372063251
40
0.761056372063251
40
1
40
1
40
1
40
1
41
1
10
113.197547497063
20
6.75063284779517
30
0
41
1
10
113.158361374249
20
6.74727557695397
30
0
41
1
10
113.118418454396
20
6.7390005523516
30
0
41
1
10
113.043155215688
20
6.71458582927934
30
0
41
1
10
113.006912800821
20
6.69804154116235
30
0
41
1
10
112.953718661746
20
6.66647389956108
30
0
41
1
10
112.93438602187
20
6.65308200695711
30
0
41
1
10
112.916438087749
20
6.63872322675996
30
0
0
SPLINE
5
100
100
AcDbEntity
8
1
62
256
6
ByLayer
370
-1
48
1
60
0
100
AcDbSpline
70
4
71
3
72
16
73
12
40
0
40
0
40
0
40
0
40
0.0650212293342962
40
0.0650212293342962
40
0.289691523269469
40
0.289691523269469
40
0.517236422326119
40
0.517236422326119
40
0.759263521180989
40
0.759263521180989
40
1
40
1
40
1
40
1
41
1
10
112.685273875951
20
8.38619650351805
30
-1E-16
41
1
10
112.680620321071
20
8.38335630282268
30
-1E-16
41
1
10
112.676102329523
20
8.38029080111932
30
-1E-16
41
1
10
112.65681810159
20
8.36580324795065
30
-1E-16
41
1
10
112.643661947835
20
8.35193619585269
30
1E-16
41
1
10
112.622694123469
20
8.32111001156764
30
1E-16
41
1
10
112.614673631134
20
8.30373022115367
30
1E-16
41
1
10
112.604110257406
20
8.26686558871583
30
1E-16
41
1
10
112.601796787697
20
8.24686226596492
30
1E-16
41
1
10
112.603126501459
20
8.20778536947793
30
1E-16
41
1
10
112.606736167237
20
8.18829674626699
30
1E-16
41
1
10
112.612836769444
20
8.16989151890996
30
1E-16
0
SPLINE
5
101
100
AcDbEntity
8
1
62
256
6
ByLayer
370
-1
48
1
60
0
100
AcDbSpline
70
4
71
3
72
14
73
10
40
0
40
0
40
0
40
0
40
0.284519249123237
40
0.284519249123237
40
0.571733062184455
40
0.571733062184455
40
0.831996244286526
40
0.831996244286526
40
1
40
1
40
1
40
1
41
1
10
114.091397169686
20
7.35370933327704
30
0
41
1
10
114.109402935789
20
7.36151890040691
30
0
41
1
10
114.127158672063
20
7.37296249109448
30
0
41
1
10
114.159036335594
20
7.40216688576783
30
0
41
1
10
114.173593288184
20
7.42046779565047
30
0
41
1
10
114.195105133844
20
7.45948141166167
30
0
41
1
10
114.202940120864
20
7.48041211570555
30
0
41
1
10
114.210161356684
20
7.51550796081119
30
0
41
1
10
114.211628277099
20
7.52970326276875
30
0
41
1
10
114.211628277099
20
7.54363148488559
30
0
0
SPLINE
5
102
100
AcDbEntity
8
1
62
256
6
ByLayer
370
-1
48
1
60
0
100
AcDbSpline
70
4
71
3
72
12
73
8
40
0
40
0
40
0
40
0
40
0.46439099217165
40
0.46439099217165
40
0.846401077318506
40
0.846401077318506
40
1
40
1
40
1
40
1
41
1
10
113.498000310176
20
6.65517881481921
30
0
41
1
10
113.471740009635
20
6.68110994934162
30
0
41
1
10
113.43951952618
20
6.70329792154794
30
0
41
1
10
113.371610823164
20
6.73331321828812
30
0
41
1
10
113.336719192097
20
6.74325755411402
30
0
41
1
10
113.284424192942
20
6.75042245911516
30
0
41
1
10
113.268827483232
20
6.75172076950599
30
0
41
1
10
113.253002362841
20
6.75220197039624
30
0
0
SPLINE
5
103
100
AcDbEntity
8
1
62
256
6
ByLayer
370
-1
48
1
60
0
100
AcDbSpline
70
4
71
3
72
16
73
12
40
0
40
0
40
0
40
0
40
0.0668638488455263
40
0.0668638488455263
40
0.2908542715388
40
0.2908542715388
40
0.517824973971677
40
0.517824973971677
40
0.759328674281758
40
0.759328674281758
40
1
40
1
40
1
40
1
41
1
10
112.685273875951
20
6.61468857481142
30
0
41
1
10
112.690072214903
20
6.6120315508648
30
0
41
1
10
112.695026748919
20
6.60957814455469
30
0
41
1
10
112.716984716491
20
6.59991769998177
30
0
41
1
10
112.735503241828
20
6.59488891786071
30
0
41
1
10
112.773019895274
20
6.59016160909121
30
0
41
1
10
112.792496174358
20
6.59046054057626
30
0
41
1
10
112.830986804449
20
6.59606683216754
30
0
41
1
10
112.85037655458
20
6.60174498069338
30
0
41
1
10
112.885752377865
20
6.61728182598802
30
0
41
1
10
112.902130222201
20
6.62727658921926
30
0
41
1
10
112.916438087749
20
6.63872322675985
30
0
0
SPLINE
5
104
100
AcDbEntity
8
1
62
256
6
ByLayer
370
-1
48
1
60
0
100
AcDbSpline
70
4
71
3
72
14
73
10
40
0
40
0
40
0
40
0
40
0.284519249123234
40
0.284519249123234
40
0.571733062184446
40
0.571733062184446
40
0.831996244286524
40
0.831996244286524
40
1
40
1
40
1
40
1
41
1
10
112.322918401191
20
7.65596195174535
30
0
41
1
10
112.300870864606
20
7.65136690800324
30
0
41
1
10
112.279273685464
20
7.64297851503011
30
0
41
1
10
112.240668625382
20
7.6191245908108
30
0
41
1
10
112.223133314073
20
7.60319244575606
30
0
41
1
10
112.197281143093
20
7.56763080142662
30
0
41
1
10
112.187896686293
20
7.54793243030912
30
0
41
1
10
112.1792509478
20
7.51396952859514
30
0
41
1
10
112.177496442823
20
7.50000294999143
30
0
41
1
10
112.177496442823
20
7.48607472787458
30
0
0
SPLINE
5
105
100
AcDbEntity
8
1
62
256
6
ByLayer
370
-1
48
1
60
0
100
AcDbSpline
70
4
71
3
72
18
73
14
40
0
40
0
40
0
40
0
40
0.213393079737799
40
0.213393079737799
40
0.389003177496045
40
0.389003177496045
40
0.566251555260787
40
0.566251555260787
40
0.721174645896042
40
0.721174645896042
40
0.927415342089919
40
0.927415342089919
40
1
40
1
40
1
40
1
41
1
10
114.091397169686
20
7.35370933327704
30
0
41
1
10
114.054504922419
20
7.33770821008338
30
0
41
1
10
114.017767792251
20
7.31505326572261
30
0
41
1
10
113.955268722947
20
7.26266627483798
30
0
41
1
10
113.928041286906
20
7.2342443440765
30
0
41
1
10
113.879794114066
20
7.17097633010832
30
0
41
1
10
113.858176539707
20
7.13510103184717
30
0
41
1
10
113.826818531631
20
7.06697426897182
30
0
41
1
10
113.815519845552
20
7.03403005109936
30
0
41
1
10
113.798143486662
20
6.95993509145364
30
0
41
1
10
113.794624265442
20
6.91838263436614
30
0
41
1
10
113.797716375432
20
6.86622255893622
30
0
41
1
10
113.799253024239
20
6.85282191826917
30
0
41
1
10
113.801478801433
20
6.83977976611243
30
0
0
SPLINE
5
106
100
AcDbEntity
8
1
62
256
6
ByLayer
370
-1
48
1
60
0
100
AcDbSpline
70
4
71
3
72
14
73
10
40
0
40
0
40
0
40
0
40
0.284523597312289
40
0.284523597312289
40
0.571736866218032
40
0.571736866218032
40
0.83199961628624
40
0.83199961628624
40
1
40
1
40
1
40
1
41
1
10
113.801478801433
20
8.20352472766052
30
0
41
1
10
113.804637638465
20
8.22554193192707
30
0
41
1
10
113.804517648598
20
8.24894349808534
30
0
41
1
10
113.796834520221
20
8.29497317293541
30
0
41
1
10
113.789044934689
20
8.31829727336665
30
0
41
1
10
113.767229945025
20
8.35842765950915
30
0
41
1
10
113.753498733772
20
8.37622562403593
30
0
41
1
10
113.727245621651
20
8.40015619644191
30
0
41
1
10
113.715833513292
20
8.40838237527745
30
0
41
1
10
113.703850843971
20
8.41501763794875
30
0
0
SPLINE
5
107
100
AcDbEntity
8
1
62
256
6
ByLayer
370
-1
48
1
60
0
100
AcDbSpline
70
4
71
3
72
14
73
10
40
0
40
0
40
0
40
0
40
0.283738489034225
40
0.283738489034225
40
0.57048953103077
40
0.57048953103077
40
0.830294403552175
40
0.830294403552175
40
1
40
1
40
1
40
1
41
1
10
112.916438087749
20
8.35439478271189
30
0
41
1
10
112.899591430883
20
8.37025261714763
30
0
41
1
10
112.879811574013
20
8.38378625851601
30
0
41
1
10
112.836877999016
20
8.4034042438897
30
0
41
1
10
112.813011765168
20
8.40967441913605
30
0
41
1
10
112.767437999885
20
8.41261599073235
30
0
41
1
10
112.745051200542
20
8.41013997193753
30
0
41
1
10
112.710621357517
20
8.39953742777709
30
-1E-16
41
1
10
112.697411975731
20
8.39360474094607
30
-1E-16
41
1
10
112.685273875951
20
8.38619650351805
30
-1E-16
0
SPLINE
5
108
100
AcDbEntity
8
1
62
256
6
ByLayer
370
-1
48
1
60
0
100
AcDbSpline
70
4
71
3
72
14
73
10
40
0
40
0
40
0
40
0
40
0.283738489034221
40
0.283738489034221
40
0.570489531030765
40
0.570489531030765
40
0.830294403552169
40
0.830294403552169
40
1
40
1
40
1
40
1
41
1
10
113.498000310176
20
6.65517881481921
30
0
41
1
10
113.510799630695
20
6.64253993044605
30
0
41
1
10
113.526730764566
20
6.632067276866
30
0
41
1
10
113.562914724894
20
6.61781743258496
30
0
41
1
10
113.583788349394
20
6.61392735605492
30
0
41
1
10
113.624995227502
20
6.61445888146349
30
0
41
1
10
113.645819613642
20
6.61817752741899
30
0
41
1
10
113.678798569507
20
6.62993399922837
30
0
41
1
10
113.691712744191
20
6.6361014718141
30
0
41
1
10
113.703850843971
20
6.64350970924212
30
0
0
SPLINE
5
109
100
AcDbEntity
8
1
62
256
6
ByLayer
370
-1
48
1
60
0
100
AcDbSpline
70
4
71
3
72
16
73
12
40
0
40
0
40
0
40
0
40
0.0670553612811601
40
0.0670553612811601
40
0.291697905104272
40
0.291697905104272
40
0.519329228663783
40
0.519329228663783
40
0.761535715028724
40
0.761535715028724
40
1
40
1
40
1
40
1
41
1
10
112.177496442823
20
7.48607472787458
30
0
41
1
10
112.177496442823
20
7.48049768288072
30
0
41
1
10
112.177773470743
20
7.4749026496431
30
0
41
1
10
112.180159644185
20
7.45078900224394
30
0
41
1
10
112.185150028273
20
7.43221031917594
30
0
41
1
10
112.200493145214
20
7.3976578699714
30
0
41
1
10
112.21109739689
20
7.38127661738935
30
0
41
1
10
112.236900163719
20
7.35175321728391
30
0
41
1
10
112.252656652288
20
7.33850315880071
30
0
41
1
10
112.286261125963
20
7.31741866577141
30
0
41
1
10
112.304412068053
20
7.30927328344936
30
0
41
1
10
112.322918401191
20
7.30366935993692
30
0
0
SPLINE
5
10A
100
AcDbEntity
8
1
62
256
6
ByLayer
370
-1
48
1
60
0
100
AcDbSpline
70
4
71
3
72
18
73
14
40
0
40
0
40
0
40
0
40
0.213394464779721
40
0.213394464779721
40
0.389004322610664
40
0.389004322610664
40
0.566252444177967
40
0.566252444177967
40
0.721175490823055
40
0.721175490823055
40
0.927416435499179
40
0.927416435499179
40
1
40
1
40
1
40
1
41
1
10
112.612836769444
20
6.80614655736187
30
0
41
1
10
112.627590184758
20
6.84467117690204
30
1E-16
41
1
10
112.636005878053
20
6.88630335280715
30
1E-16
41
1
10
112.636301854864
20
6.96401470834397
30
1E-16
41
1
10
112.630729497489
20
7.00065791969402
30
1E-16
41
1
10
112.606850433736
20
7.07213505686784
30
1E-16
41
1
10
112.587938001813
20
7.10798504050572
30
1E-16
41
1
10
112.54281741043
20
7.16817893987257
30
0
41
1
10
112.517352419721
20
7.19413965416689
30
0
41
1
10
112.453057843172
20
7.2459081931764
30
0
41
1
10
112.411610785957
20
7.26980466052945
30
0
41
1
10
112.353859180017
20
7.29349996973008
30
0
41
1
10
112.338453520524
20
7.29896515301252
30
0
41
1
10
112.322918401191
20
7.30366935993692
30
0
0
SPLINE
5
10B
100
AcDbEntity
8
1
62
256
6
ByLayer
370
-1
48
1
60
0
100
AcDbSpline
70
4
71
3
72
16
73
12
40
0
40
0
40
0
40
0
40
0.0650212293342896
40
0.0650212293342896
40
0.289691523269469
40
0.289691523269469
40
0.517236422326115
40
0.517236422326115
40
0.759263521180987
40
0.759263521180987
40
1
40
1
40
1
40
1
41
1
10
113.703850843971
20
6.64350970924212
30
0
41
1
10
113.708504398851
20
6.6463499099375
30
0
41
1
10
113.713065155915
20
6.64938139913244
30
0
41
1
10
113.732726997546
20
6.66356862647413
30
0
41
1
10
113.746693469899
20
6.67679121147657
30
0
41
1
10
113.77019054206
20
6.70560582033283
30
0
41
1
10
113.779972249764
20
6.72158487114027
30
0
41
1
10
113.794895190846
20
6.75498222821469
30
0
41
1
10
113.799906198658
20
6.77284012995273
30
0
41
1
10
113.80449007327
20
6.80721379843214
30
0
41
1
10
113.804155053863
20
6.82409801167256
30
0
41
1
10
113.801478801433
20
6.83977976611243
30
0
0
SPLINE
5
10C
100
AcDbEntity
8
1
62
256
6
ByLayer
370
-1
48
1
60
0
100
AcDbSpline
70
4
71
3
72
12
73
8
40
0
40
0
40
0
40
0
40
0.464390992172111
40
0.464390992172111
40
0.846401077319347
40
0.846401077319347
40
1
40
1
40
1
40
1
41
1
10
112.916438087749
20
8.35439478271189
30
0
41
1
10
112.951002287606
20
8.32185934478508
30
0
41
1
10
112.99104935772
20
8.29344668813138
30
0
41
1
10
113.070369362957
20
8.25435569101916
30
0
41
1
10
113.109435348538
20
8.24109138433622
30
0
41
1
10
113.165077779387
20
8.23126418133478
30
0
41
1
10
113.181357388051
20
8.22942274394964
30
0
41
1
10
113.197547497063
20
8.22865125827801
30
0
0
SPLINE
5
10D
100
AcDbEntity
8
1
62
256
6
ByLayer
370
-1
48
1
60
0
100
AcDbSpline
70
4
71
3
72
9
73
5
40
0
40
0
40
0
40
0
40
0.266593448438026
40
1
40
1
40
1
40
1
41
1
10
109.771857232112
20
-8.82510742622472
30
3E-16
41
1
10
109.783341198336
20
-8.86600690473233
30
3E-16
41
1
10
109.845670335611
20
-9.0135886496987
30
3E-16
41
1
10
109.994349655072
20
-9.12480089619439
30
3E-16
41
1
10
110.111933616348
20
-9.13682171572046
30
3E-16
0
SPLINE
5
10E
100
AcDbEntity
8
1
62
256
6
ByLayer
370
-1
48
1
60
0
100
AcDbSpline
70
4
71
1
72
4
73
2
40
0
40
0
40
1
40
1
41
1
10
108.749029763464
20
-10.516570751068
30
-2E-16
41
1
10
110.111933616348
20
-9.13682171572046
30
3E-16
0
SPLINE
5
10F
100
AcDbEntity
8
1
62
256
6
ByLayer
370
-1
48
1
60
0
100
AcDbSpline
70
4
71
3
72
14
73
10
40
0
40
0
40
0
40
0
40
0.194155926663528
40
0.291233889995291
40
0.388311853327055
40
0.582467779990583
40
0.77662370665411
40
0.970779633317638
40
1
40
1
40
1
40
1
41
1
10
117.45183126082
20
-9.81364426298515
30
-1E-16
41
1
10
117.569597134643
20
-9.82266976968413
30
-1E-16
41
1
10
117.743784617194
20
-9.76940781539176
30
-1E-16
41
1
10
117.936372294401
20
-9.63695428243614
30
-1E-16
41
1
10
118.102170353558
20
-9.47178670012192
30
-1E-16
41
1
10
118.264307721219
20
-9.21900260144321
30
0
41
1
10
118.279448777645
20
-8.85960836975363
30
0
41
1
10
118.278345627713
20
-8.60312785403283
30
0
41
1
10
118.251788753262
20
-8.46933630124542
30
0
41
1
10
118.247964739322
20
-8.45187955759496
30
0
0
SPLINE
5
110
100
AcDbEntity
8
1
62
256
6
ByLayer
370
-1
48
1
60
0
100
AcDbSpline
70
4
71
3
72
15
73
11
40
0
40
0
40
0
40
0
40
0.0625
40
0.125
40
0.25
40
0.5
40
0.75
40
0.875
40
0.9375
40
1
40
1
40
1
40
1
41
1
10
118.188411288807
20
-10.9274908402809
30
0
41
1
10
117.986658685509
20
-10.9264394755761
30
0
41
1
10
117.582292125127
20
-10.9247798030136
30
0
41
1
10
116.793946822103
20
-10.9159837778291
30
0
41
1
10
115.438890383175
20
-10.8853040840505
30
0
41
1
10
113.484235308026
20
-10.813424536101
30
1E-16
41
1
10
111.547844748096
20
-10.6781623619595
30
0
41
1
10
110.158447195263
20
-10.5929648506202
30
-1E-16
41
1
10
109.351665409712
20
-10.5441872334336
30
-1E-16
41
1
10
108.949874104959
20
-10.540290536872
30
-2E-16
41
1
10
108.749029763464
20
-10.516570751068
30
-2E-16
0
SPLINE
5
111
100
AcDbEntity
8
1
62
256
6
ByLayer
370
-1
48
1
60
0
100
AcDbSpline
70
4
71
3
72
12
73
8
40
0
40
0
40
0
40
0
40
0.321957488618115
40
0.482936232927173
40
0.64391497723623
40
0.965872465854346
40
1
40
1
40
1
40
1
41
1
10
108.749029763464
20
-10.516570751068
30
-2E-16
41
1
10
108.594202094369
20
-10.5078117637892
30
-2E-16
41
1
10
108.372716681961
20
-10.3202490797049
30
-2E-16
41
1
10
108.361001776614
20
-10.0197664309116
30
-2E-16
41
1
10
108.339479569268
20
-9.73918085133872
30
-2E-16
41
1
10
108.31799722867
20
-9.52765454580353
30
-2E-16
41
1
10
108.30050331826
20
-9.38458953457868
30
-2E-16
41
1
10
108.298801334536
20
-9.37089770788421
30
-2E-16
0
SPLINE
5
112
100
AcDbEntity
8
1
62
256
6
ByLayer
370
-1
48
1
60
0
100
AcDbSpline
70
4
71
3
72
8
73
4
40
0
40
0
40
0
40
0
40
1
40
1
40
1
40
1
41
1
10
110.111933616348
20
-9.13682171572046
30
3E-16
41
1
10
112.556996570753
20
-9.38657497937365
30
-4E-16
41
1
10
115.003071293542
20
-9.62481220570515
30
-2E-16
41
1
10
117.45183126082
20
-9.81364426298515
30
-1E-16
0
SPLINE
5
113
100
AcDbEntity
8
1
62
256
6
ByLayer
370
-1
48
1
60
0
100
AcDbSpline
70
4
71
1
72
4
73
2
40
0
40
0
40
1
40
1
41
1
10
118.188411288807
20
-10.9274908402809
30
0
41
1
10
117.45183126082
20
-9.81364426298515
30
-1E-16
0
SPLINE
5
114
100
AcDbEntity
8
1
62
256
6
ByLayer
370
-1
48
1
60
0
100
AcDbSpline
70
4
71
3
72
25
73
21
40
0
40
0
40
0
40
0
40
0.0378602578892793
40
0.0699315826263033
40
0.102002907363327
40
0.166145556837375
40
0.230288206311423
40
0.294430855785472
40
0.358573505259519
40
0.422716154733568
40
0.486858804207616
40
0.551001453681664
40
0.615144103155712
40
0.67928675262976
40
0.743429402103808
40
0.807572051577856
40
0.871714701051904
40
0.903786025788928
40
0.935857350525952
40
1
40
1
40
1
40
1
41
1
10
118.214611312666
20
-4.26370478807686
30
0
41
1
10
118.290249615743
20
-4.31812757960543
30
0
41
1
10
118.397819747842
20
-4.47082199331552
30
0
41
1
10
118.38756681572
20
-4.72526264771244
30
0
41
1
10
118.371408333146
20
-5.03559676070645
30
0
41
1
10
118.344437057449
20
-5.41369328608843
30
0
41
1
10
118.31296168359
20
-5.86260128042244
30
0
41
1
10
118.300504465387
20
-6.31868460390751
30
0
41
1
10
118.324759622761
20
-6.78042562496003
30
0
41
1
10
118.403833405022
20
-7.24633482580637
30
0
41
1
10
118.531131851195
20
-7.70596511655162
30
0
41
1
10
118.700097390922
20
-8.14890206502656
30
0
41
1
10
118.95802714869
20
-8.55759826553671
30
0
41
1
10
118.981958428046
20
-9.03545641671576
30
0
41
1
10
118.976022079345
20
-9.50346038271485
30
0
41
1
10
118.979677899829
20
-9.97141941052368
30
0
41
1
10
118.968581183609
20
-10.369172004687
30
0
41
1
10
118.797424345224
20
-10.6351811990045
30
0
41
1
10
118.568974377625
20
-10.8466530708193
30
0
41
1
10
118.343942942797
20
-10.9261950679799
30
0
41
1
10
118.188411288807
20
-10.9274908402809
30
0
0
LINE
5
4A
100
AcDbEntity
8
80
62
256
6
ByLayer
370
-1
48
1
60
0
100
AcDbLine
10
0
20
0
30
0
11
-10
21
0
31
0
39
0
210
0
220
0
230
1
0
LINE
5
4B
100
AcDbEntity
8
SK4
62
256
6
ByLayer
370
-1
48
0.05
60
0
100
AcDbLine
10
129
20
0
30
0
11
-61
21
0
31
0
39
0
210
0
220
0
230
1
0
LINE
5
4D
100
AcDbEntity
8
81
62
256
6
ByLayer
370
-1
48
1
60
0
100
AcDbLine
10
119
20
10.935
30
0
11
136
21
10.935
31
0
39
0
210
0
220
0
230
1
0
LINE
5
4E
100
AcDbEntity
8
4
62
256
6
ByLayer
370
-1
48
0.05
60
0
100
AcDbLine
10
0
20
0
30
0
11
119
21
0
31
0
39
0
210
0
220
0
230
1
0
LINE
5
50
100
AcDbEntity
8
1
62
256
6
ByLayer
370
-1
48
1
60
0
100
AcDbLine
10
88.7
20
-9.99475
30
0
11
89
21
-9.69675
31
0
39
0
210
0
220
0
230
1
0
LINE
5
52
100
AcDbEntity
8
1
62
256
6
ByLayer
370
-1
48
1
60
0
100
AcDbLine
10
89
20
9.69675
30
0
11
88.7
21
9.99475
31
0
39
0
210
0
220
0
230
1
0
LINE
5
53
100
AcDbEntity
8
1
62
256
6
ByLayer
370
-1
48
1
60
0
100
AcDbLine
10
88.7
20
9.99475
30
0
11
0
21
9.99475
31
0
39
0
210
0
220
0
230
1
0
LINE
5
54
100
AcDbEntity
8
1
62
256
6
ByLayer
370
-1
48
1
60
0
100
AcDbLine
10
0
20
-9.99475
30
0
11
88.7
21
-9.99475
31
0
39
0
210
0
220
0
230
1
0
LINE
5
55
100
AcDbEntity
8
1
62
256
6
ByLayer
370
-1
48
1
60
0
100
AcDbLine
10
97.303242
20
9.4101
30
0
11
89.491399
21
8.996824
31
0
39
0
210
0
220
0
230
1
0
LINE
5
56
100
AcDbEntity
8
1
62
256
6
ByLayer
370
-1
48
1
60
0
100
AcDbLine
10
89.491399
20
-8.996824
30
0
11
97.303242
21
-9.4101
31
0
39
0
210
0
220
0
230
1
0
LINE
5
57
100
AcDbEntity
8
1
62
256
6
ByLayer
370
-1
48
1
60
0
100
AcDbLine
10
114.435125
20
8.732252
30
0
11
114.300546
21
8.839286
31
0
39
0
210
0
220
0
230
1
0
LINE
5
58
100
AcDbEntity
8
1
62
256
6
ByLayer
370
-1
48
1
60
0
100
AcDbLine
10
112.153053
20
6.139142
30
0
11
112.287632
21
6.032109
31
0
39
0
210
0
220
0
230
1
0
LINE
5
59
100
AcDbEntity
8
1
62
256
6
ByLayer
370
-1
48
1
60
0
100
AcDbLine
10
113.512991
20
6.645492
30
0
11
113.473099
21
6.677219
31
0
39
0
210
0
220
0
230
1
0
LINE
5
5A
100
AcDbEntity
8
1
62
256
6
ByLayer
370
-1
48
1
60
0
100
AcDbLine
10
113.954045
20
7.76985
30
0
11
114.113174
21
7.643291
31
0
39
0
210
0
220
0
230
1
0
LINE
5
5B
100
AcDbEntity
8
1
62
256
6
ByLayer
370
-1
48
1
60
0
100
AcDbLine
10
112.646653
20
7.091586
30
0
11
112.487524
21
7.218145
31
0
39
0
210
0
220
0
230
1
0
LINE
5
5C
100
AcDbEntity
8
1
62
256
6
ByLayer
370
-1
48
1
60
0
100
AcDbLine
10
112.947742
20
8.327262
30
0
11
113.117234
21
8.19246
31
0
39
0
210
0
220
0
230
1
0
LINE
5
5D
100
AcDbEntity
8
SK1
62
256
6
ByLayer
370
-1
48
1
60
0
100
AcDbLine
10
0
20
9.99475
30
0
11
-50
21
9.99475
31
0
39
0
210
0
220
0
230
1
0
LINE
5
5F
100
AcDbEntity
8
SK1
62
256
6
ByLayer
370
-1
48
1
60
0
100
AcDbLine
10
-50
20
-9.99475
30
0
11
0
21
-9.99475
31
0
39
0
210
0
220
0
230
1
0
LINE
5
60
100
AcDbEntity
8
SK1
62
256
6
ByLayer
370
-1
48
1
60
0
100
AcDbLine
10
-50
20
9.99475
30
0
11
-51
21
8.99475
31
0
39
0
210
0
220
0
230
1
0
LINE
5
61
100
AcDbEntity
8
SK1
62
256
6
ByLayer
370
-1
48
1
60
0
100
AcDbLine
10
-51
20
-8.99475
30
0
11
-50
21
-9.99475
31
0
39
0
210
0
220
0
230
1
0
LINE
5
62
100
AcDbEntity
8
1
62
256
6
ByLayer
370
-1
48
1
60
0
100
AcDbLine
10
107.544096
20
3.740532
30
0
11
107.544096
21
-9.389988
31
0
39
0
210
0
220
0
230
1
0
LINE
5
63
100
AcDbEntity
8
1
62
256
6
ByLayer
370
-1
48
1
60
0
100
AcDbLine
10
0
20
9.99475
30
0
11
0
21
-9.99475
31
0
39
0
210
0
220
0
230
1
0
LINE
5
64
100
AcDbEntity
8
1
62
256
6
ByLayer
370
-1
48
1
60
0
100
AcDbLine
10
117.416697
20
4.193177
30
0
11
117.416697
21
3.836553
31
0
39
0
210
0
220
0
230
1
0
LINE
5
65
100
AcDbEntity
8
1
62
256
6
ByLayer
370
-1
48
1
60
0
100
AcDbLine
10
107.455363
20
-9.42392
30
0
11
107.455363
21
3.755395
31
0
39
0
210
0
220
0
230
1
0
LINE
5
66
100
AcDbEntity
8
1
62
256
6
ByLayer
370
-1
48
1
60
0
100
AcDbLine
10
88.7
20
9.99475
30
0
11
88.7
21
-9.99475
31
0
39
0
210
0
220
0
230
1
0
LINE
5
67
100
AcDbEntity
8
1
62
256
6
ByLayer
370
-1
48
1
60
0
100
AcDbLine
10
89
20
9.69675
30
0
11
89
21
-9.69675
31
0
39
0
210
0
220
0
230
1
0
LINE
5
68
100
AcDbEntity
8
1
62
256
6
ByLayer
370
-1
48
1
60
0
100
AcDbLine
10
89.491399
20
8.996824
30
0
11
89.491399
21
-8.996824
31
0
39
0
210
0
220
0
230
1
0
LINE
5
69
100
AcDbEntity
8
1
62
256
6
ByLayer
370
-1
48
1
60
0
100
AcDbLine
10
110.424445
20
4.092886
30
0
11
110.095631
21
4.064915
31
0
39
0
210
0
220
0
230
1
0
LINE
5
6A
100
AcDbEntity
8
1
62
256
6
ByLayer
370
-1
48
1
60
0
100
AcDbLine
10
117.270251
20
3.827597
30
0
11
117.270251
21
4.186755
31
0
39
0
210
0
220
0
230
1
0
LINE
5
6B
100
AcDbEntity
8
1
62
256
6
ByLayer
370
-1
48
1
60
0
100
AcDbLine
10
117.826432
20
3.86156
30
0
11
117.826432
21
4.215019
31
0
39
0
210
0
220
0
230
1
0
LINE
5
6C
100
AcDbEntity
8
1
62
256
6
ByLayer
370
-1
48
1
60
0
100
AcDbLine
10
107.02609
20
6.26915
30
0
11
106.986097
21
6.275245
31
0
39
0
210
0
220
0
230
1
0
LINE
5
6D
100
AcDbEntity
8
1
62
256
6
ByLayer
370
-1
48
1
60
0
100
AcDbLine
10
118.2128
20
4.286514
30
0
11
118.2128
21
3.843895
31
0
39
0
210
0
220
0
230
1
0
LINE
5
6E
100
AcDbEntity
8
1
62
256
6
ByLayer
370
-1
48
1
60
0
100
AcDbLine
10
116.171479
20
-6.098775
30
0
11
116.084004
21
-6.168346
31
0
39
0
210
0
220
0
230
1
0
LINE
5
6F
100
AcDbEntity
8
1
62
256
6
ByLayer
370
-1
48
1
60
0
100
AcDbLine
10
117.407808
20
-9.733854
30
0
11
117.407808
21
-7.48823
31
0
39
0
210
0
220
0
230
1
0
LINE
5
70
100
AcDbEntity
8
1
62
256
6
ByLayer
370
-1
48
1
60
0
100
AcDbLine
10
118.010795
20
4.211759
30
0
11
118.010795
21
3.872886
31
0
39
0
210
0
220
0
230
1
0
LINE
5
71
100
AcDbEntity
8
1
62
256
6
ByLayer
370
-1
48
1
60
0
100
AcDbLine
10
114.398773
20
3.962763
30
0
11
117.270251
21
4.186755
31
0
39
0
210
0
220
0
230
1
0
LINE
5
72
100
AcDbEntity
8
1
62
256
6
ByLayer
370
-1
48
1
60
0
100
AcDbLine
10
110.240322
20
-8.841729
30
0
11
110.240322
21
-6.334199
31
0
39
0
210
0
220
0
230
1
0
LINE
5
73
100
AcDbEntity
8
1
62
256
6
ByLayer
370
-1
48
1
60
0
100
AcDbLine
10
110.319075
20
-6.474093
30
0
11
110.319075
21
-8.850225
31
0
39
0
210
0
220
0
230
1
0
LINE
5
74
100
AcDbEntity
8
1
62
256
6
ByLayer
370
-1
48
1
60
0
100
AcDbLine
10
112.616435
20
3.82373
30
0
11
113.036019
21
3.85646
31
0
39
0
210
0
220
0
230
1
0
LINE
5
75
100
AcDbEntity
8
1
62
256
6
ByLayer
370
-1
48
1
60
0
100
AcDbLine
10
117.972838
20
4.244602
30
0
11
117.972838
21
3.870516
31
0
39
0
210
0
220
0
230
1
0
LINE
5
76
100
AcDbEntity
8
1
62
256
6
ByLayer
370
-1
48
1
60
0
100
AcDbLine
10
117.999224
20
3.872146
30
0
11
117.999224
21
4.222226
31
0
39
0
210
0
220
0
230
1
0
LINE
5
77
100
AcDbEntity
8
1
62
256
6
ByLayer
370
-1
48
1
60
0
100
AcDbLine
10
107.144924
20
4.40331
30
0
11
106.979018
21
4.449118
31
0
39
0
210
0
220
0
230
1
0
LINE
5
78
100
AcDbEntity
8
1
62
256
6
ByLayer
370
-1
48
1
60
0
100
AcDbLine
10
118.2128
20
3.837832
30
0
11
118.2128
21
-8.979623
31
0
39
0
210
0
220
0
230
1
0
LINE
5
79
100
AcDbEntity
8
1
62
256
6
ByLayer
370
-1
48
1
60
0
100
AcDbLine
10
107.145131
20
4.403127
30
0
11
107.586586
21
4.440196
31
0
39
0
210
0
220
0
230
1
0
LINE
5
7A
100
AcDbEntity
8
1
62
256
6
ByLayer
370
-1
48
1
60
0
100
AcDbLine
10
116.084004
20
-6.168346
30
0
11
116.084004
21
-6.64087
31
0
39
0
210
0
220
0
230
1
0
LINE
5
7B
100
AcDbEntity
8
SK1
62
256
6
ByLayer
370
-1
48
1
60
0
100
AcDbLine
10
0
20
9.99475
30
0
11
0
21
-9.99475
31
0
39
0
210
0
220
0
230
1
0
LINE
5
7C
100
AcDbEntity
8
SK1
62
256
6
ByLayer
370
-1
48
1
60
0
100
AcDbLine
10
-50
20
9.99475
30
0
11
-50
21
-9.99475
31
0
39
0
210
0
220
0
230
1
0
LINE
5
7D
100
AcDbEntity
8
SK1
62
256
6
ByLayer
370
-1
48
1
60
0
100
AcDbLine
10
-51
20
-8.99475
30
0
11
-51
21
8.99475
31
0
39
0
210
0
220
0
230
1
0
LINE
5
7E
100
AcDbEntity
8
1
62
256
6
ByLayer
370
-1
48
1
60
0
100
AcDbLine
10
114.190302
20
7.62734
30
0
11
114.091397
21
7.706002
31
0
39
0
210
0
220
0
230
1
0
LINE
5
7F
100
AcDbEntity
8
1
62
256
6
ByLayer
370
-1
48
1
60
0
100
AcDbLine
10
113.670694
20
8.233502
30
0
11
113.498
21
8.37085
31
0
39
0
210
0
220
0
230
1
0
LINE
5
80
100
AcDbEntity
8
1
62
256
6
ByLayer
370
-1
48
1
60
0
100
AcDbLine
10
112.785592
20
8.032495
30
0
11
112.612837
21
8.169892
31
0
39
0
210
0
220
0
230
1
0
LINE
5
81
100
AcDbEntity
8
1
62
256
6
ByLayer
370
-1
48
1
60
0
100
AcDbLine
10
113.407641
20
8.107232
30
0
11
113.253002
21
8.23022
31
0
39
0
210
0
220
0
230
1
0
LINE
5
82
100
AcDbEntity
8
1
62
256
6
ByLayer
370
-1
48
1
60
0
100
AcDbLine
10
112.495674
20
7.518565
30
0
11
112.322918
21
7.655962
31
0
39
0
210
0
220
0
230
1
0
LINE
5
83
100
AcDbEntity
8
1
62
256
6
ByLayer
370
-1
48
1
60
0
100
AcDbLine
10
113.197547
20
8.228651
30
0
11
113.352186
21
8.105663
31
0
39
0
210
0
220
0
230
1
0
LINE
5
84
100
AcDbEntity
8
1
62
256
6
ByLayer
370
-1
48
1
60
0
100
AcDbLine
10
112.785592
20
6.66875
30
0
11
112.612837
21
6.806147
31
0
39
0
210
0
220
0
230
1
0
MTEXT
5
115
100
AcDbEntity
8
SK6
62
256
6
ByLayer
370
-1
48
1
60
0
100
AcDbMText
10
-50.148697
20
-21.841552
30
0
210
0
220
0
230
1
1
\W00.730;\fsimplex.shx,bigfont.shx;R390-022A20L-11L\P
40
3.5
41
0
44
1.084337
50
0
71
7
72
5
7
DEFAULT
0
DIMENSION
5
126
100
AcDbEntity
8
2
62
256
6
ByLayer
370
-3
48
1
60
0
100
AcDbDimension
2
DimnDraft3D1
10
89
20
30.75
30
0
11
101.371053
21
30.75
31
0
70
32
71
5
72
1
41
1
210
0
220
0
230
1
3
Standard
100
AcDbAlignedDimension
13
119
23
13
33
0
14
89
24
10.99675
34
0
50
0
100
AcDbRotatedDimension
1001
ACAD
1000
DSTYLE
1002
{
1070
   279
1070
     0
1070
   172
1070
     1
1070
   173
1070
     1
1070
   340
1005
116
1070
   271
1070
     2
1070
   272
1070
     2
1070
    77
1070
     1
1070
    73
1070
     0
1070
   171
1070
     4
1070
   274
1070
     4
1070
   177
1070
     2
1070
   176
1070
     2
1070
   178
1070
     7
1070
    78
1070
     8
1070
    41
1041
3.175
1070
   147
1041
2.25
1070
    42
1041
2.0
1070
    44
1041
2.0
1070
   140
1041
4.5
1070
   343
1005
127
1070
   344
1005
127
1002
}
0
DIMENSION
5
13B
100
AcDbEntity
8
SK2
62
256
6
ByLayer
370
-3
48
1
60
0
100
AcDbDimension
2
DimnDraft3D2
10
-51
20
40.75
30
0
11
30.281579
21
40.75
31
0
70
32
71
5
72
1
41
1
210
0
220
0
230
1
3
Standard
100
AcDbAlignedDimension
13
119
23
13
33
0
14
-51
24
11.99475
34
0
50
0
100
AcDbRotatedDimension
1001
ACAD
1000
DSTYLE
1002
{
1070
   279
1070
     0
1070
   172
1070
     1
1070
   173
1070
     1
1070
   340
1005
116
1070
   271
1070
     2
1070
   272
1070
     2
1070
    77
1070
     1
1070
    73
1070
     0
1070
   171
1070
     4
1070
   274
1070
     4
1070
   177
1070
     2
1070
   176
1070
     2
1070
   178
1070
     7
1070
    78
1070
     8
1070
    41
1041
3.175
1070
   147
1041
2.25
1070
    42
1041
2.0
1070
    44
1041
2.0
1070
   140
1041
4.5
1070
   343
1005
127
1070
   344
1005
127
1002
}
0
DIMENSION
5
149
100
AcDbEntity
8
2
62
256
6
ByLayer
370
-3
48
1
60
0
100
AcDbDimension
2
DimnDraft3D3
10
108.8
20
20.75
30
0
11
124
21
20.75
31
0
70
32
71
5
72
1
41
1
210
0
220
0
230
1
3
Standard
100
AcDbAlignedDimension
13
119
23
13
33
0
14
108.8
24
13
34
0
50
0
100
AcDbRotatedDimension
1001
ACAD
1000
DSTYLE
1002
{
1070
   279
1070
     0
1070
   172
1070
     1
1070
   173
1070
     1
1070
   340
1005
116
1070
   271
1070
     2
1070
   272
1070
     2
1070
    77
1070
     1
1070
    73
1070
     0
1070
   171
1070
     4
1070
   274
1070
     4
1070
   177
1070
     2
1070
   176
1070
     2
1070
   178
1070
     7
1070
    78
1070
     8
1070
    41
1041
3.175
1070
   147
1041
2.25
1070
    42
1041
2.0
1070
    44
1041
2.0
1070
   140
1041
4.5
1070
   343
1005
127
1070
   344
1005
127
1002
}
0
DIMENSION
5
157
100
AcDbEntity
8
2
62
256
6
ByLayer
370
-3
48
1
60
0
100
AcDbDimension
2
DimnDraft3D4
10
133.25
20
-11
30
0
11
133.25
21
-4.784211
31
0
70
32
71
5
72
1
41
1
210
0
220
0
230
1
3
Standard
100
AcDbAlignedDimension
13
121
23
11
33
0
14
121
24
-11
34
0
50
90
100
AcDbRotatedDimension
1001
ACAD
1000
DSTYLE
1002
{
1070
    74
1070
     0
1070
   279
1070
     0
1070
   172
1070
     1
1070
   173
1070
     1
1070
   340
1005
116
1070
   271
1070
     2
1070
   272
1070
     2
1070
    77
1070
     1
1070
    73
1070
     0
1070
   171
1070
     4
1070
   274
1070
     4
1070
   177
1070
     2
1070
   176
1070
     2
1070
   178
1070
     7
1070
    78
1070
     8
1070
    41
1041
3.175
1070
   147
1041
2.25
1070
    42
1041
2.0
1070
    44
1041
2.0
1070
   140
1041
4.5
1070
   343
1005
127
1070
   344
1005
127
1002
}
0
DIMENSION
5
165
100
AcDbEntity
8
SK2
62
256
6
ByLayer
370
-3
48
1
60
0
100
AcDbDimension
2
DimnDraft3D5
10
-60.75
20
9.99475
30
0
11
-60.75
21
-4.784211
31
0
70
32
71
5
72
1
41
1
210
0
220
0
230
1
3
Standard
100
AcDbAlignedDimension
13
-53
23
-9.99475
33
0
14
-53
24
9.99475
34
0
50
90
100
AcDbRotatedDimension
1001
ACAD
1000
DSTYLE
1002
{
1070
    74
1070
     0
1070
   279
1070
     0
1070
   172
1070
     1
1070
   173
1070
     1
1070
   340
1005
116
1070
   271
1070
     2
1070
   272
1070
     2
1070
    77
1070
     1
1070
    73
1070
     0
1070
   171
1070
     4
1070
   274
1070
     4
1070
   177
1070
     2
1070
   176
1070
     2
1070
   178
1070
     7
1070
    78
1070
     8
1070
    41
1041
3.175
1070
   147
1041
2.25
1070
    42
1041
2.0
1070
    44
1041
2.0
1070
   140
1041
4.5
1070
   343
1005
127
1070
   344
1005
127
1002
}
0
ENDSEC
0
SECTION
2
OBJECTS
0
DICTIONARY
5
1b4
330
0
100
AcDbDictionary
280
0
281
1
3
ACAD_GROUP
350
1b5
3
ACAD_MLINESTYLE
350
1b6
0
DICTIONARY
5
1b5
330
0
100
AcDbDictionary
280
0
281
1
0
DICTIONARY
5
1b6
330
0
100
AcDbDictionary
280
0
281
1
3
Standard
350
18
0
MLINESTYLE
5
18
330
1b6
100
AcDbMlineStyle
2
Standard
70
0
3

62
256
51
90
52
90
71
2
49
-0.5
62
256
6
ByLayer
49
0.5
62
256
6
ByLayer
0
RASTERVARIABLES
5
1a2
330

100
AcDbRasterVariables
90
0
70
1
71
1
72
1
0
ENDSEC
0
EOF
