0
SECTION
2
HEADER
9
$ACADVER
1
AC1015
9
$DWGCODEPAGE
3
ANSI_1252
9
$HANDSEED
5
1fd
9
$ANGBASE
50
0
9
$ANGDIR
70
0
9
$ATTMODE
70
1
9
$AUNITS
70
0
9
$AUPREC
70
0
9
$CECOLOR
62
256
9
$CELTSCALE
40
1
9
$CELTYPE
6
ByLayer
9
$CELWEIGHT
370
-1
9
$CLAYER
8
0
9
$CMLJUST
70
0
9
$CMLSCALE
40
1
9
$CMLSTYLE
2
Standard
9
$DIMSTYLE
2
Standard
9
$TEXTSIZE
40
0.2
9
$TEXTSTYLE
7
Standard
9
$LUNITS
70
2
9
$LUPREC
70
4
9
$EXTNAMES
290
1
9
$INSUNITS
70
4
9
$LTSCALE
40
1
9
$LWDISPLAY
290
0
9
$PDMODE
70
0
9
$PDSIZE
40
0
9
$PLINEGEN
70
0
0
ENDSEC
0
SECTION
2
CLASSES
0
CLASS
1
RASTERVARIABLES
2
AcDbRasterVariables
3
ISM
90
0
280
0
281
0
0
ENDSEC
0
SECTION
2
TABLES
0
TABLE
2
VPORT
5
1f3
100
AcDbSymbolTable
0
VPORT
5
1
100
AcDbSymbolTableRecord
100
AcDbViewportTableRecord
2
*Active
70
0
10
0
20
0
11
1
21
1
12
-1
22
1
13
0
23
0
14
0.5
24
0.5
15
10
25
10
16
0
26
0
36
1
17
0
27
0
37
0
0
ENDTAB
0
TABLE
2
LTYPE
5
1f4
100
AcDbSymbolTable
0
LTYPE
5
14
100
AcDbSymbolTableRecord
100
AcDbLinetypeTableRecord
70
0
2
ByBlock
3

72
65
73
0
40
0
0
LTYPE
5
15
100
AcDbSymbolTableRecord
100
AcDbLinetypeTableRecord
70
0
2
ByLayer
3

72
65
73
0
40
0
0
LTYPE
5
16
100
AcDbSymbolTableRecord
100
AcDbLinetypeTableRecord
70
0
2
CONTINUOUS
3
Solid line
72
65
73
0
40
0
0
LTYPE
5
3C
100
AcDbSymbolTableRecord
100
AcDbLinetypeTableRecord
70
0
2
DASHED
3
__ __ __ __ __ __ __ __ __
72
65
73
2
40
25.72
49
12.86
74
0
49
-12.86
74
0
0
LTYPE
5
3D
100
AcDbSymbolTableRecord
100
AcDbLinetypeTableRecord
70
0
2
HIDDEN
3
_ _ _ _ _ _ _ _ _ _ _ _ _ _ _
72
65
73
2
40
0.5
49
0.25
74
0
49
-0.25
74
0
0
LTYPE
5
3E
100
AcDbSymbolTableRecord
100
AcDbLinetypeTableRecord
70
0
2
PHANTOM
3
____ _ _ ____ _ _ _____ _ _ ____
72
65
73
6
40
50.5
49
18
74
0
49
-6.5
74
0
49
6.5
74
0
49
-6.5
74
0
49
6.5
74
0
49
-6.5
74
0
0
LTYPE
5
3F
100
AcDbSymbolTableRecord
100
AcDbLinetypeTableRecord
70
0
2
CENTER
3
____ _ ____ _ ____ _ ____
72
65
73
4
40
47.5
49
22
74
0
49
-8.5
74
0
49
8.5
74
0
49
-8.5
74
0
0
LTYPE
5
40
100
AcDbSymbolTableRecord
100
AcDbLinetypeTableRecord
70
0
2
DOT
3
.........................
72
65
73
2
40
10
49
0
74
0
49
-10
74
0
0
LTYPE
5
41
100
AcDbSymbolTableRecord
100
AcDbLinetypeTableRecord
70
0
2
DASHDOT
3
_._._._._._._._._._._._._._._._.
72
65
73
4
40
70
49
31
74
0
49
-13
74
0
49
13
74
0
49
-13
74
0
0
ENDTAB
0
TABLE
2
LAYER
5
1f5
100
AcDbSymbolTable
0
LAYER
5
10
100
AcDbSymbolTableRecord
100
AcDbLayerTableRecord
2
0
70
0
62
7
6
CONTINUOUS
290
1
370
-3
390
0
0
LAYER
5
43
100
AcDbSymbolTableRecord
100
AcDbLayerTableRecord
2
80
70
0
62
-6
6
CONTINUOUS
290
1
370
-3
390
0
0
LAYER
5
45
100
AcDbSymbolTableRecord
100
AcDbLayerTableRecord
2
81
70
0
62
-3
6
CONTINUOUS
290
1
370
-3
390
0
0
LAYER
5
49
100
AcDbSymbolTableRecord
100
AcDbLayerTableRecord
2
2
70
0
62
7
6
CONTINUOUS
290
1
370
-3
390
0
0
LAYER
5
4B
100
AcDbSymbolTableRecord
100
AcDbLayerTableRecord
2
1
70
0
62
4
6
CONTINUOUS
290
1
370
-3
390
0
0
LAYER
5
59
100
AcDbSymbolTableRecord
100
AcDbLayerTableRecord
2
4
70
0
62
-2
6
CENTER
290
1
370
-3
390
0
0
LAYER
5
1df
100
AcDbSymbolTableRecord
100
AcDbLayerTableRecord
2
SK2
70
0
62
7
6
CONTINUOUS
290
1
370
-3
390
0
0
LAYER
5
1e0
100
AcDbSymbolTableRecord
100
AcDbLayerTableRecord
2
SK4
70
0
62
2
6
CENTER
290
1
370
-3
390
0
0
LAYER
5
1e1
100
AcDbSymbolTableRecord
100
AcDbLayerTableRecord
2
SK1
70
0
62
4
6
CONTINUOUS
290
1
370
-3
390
0
0
LAYER
5
1e2
100
AcDbSymbolTableRecord
100
AcDbLayerTableRecord
2
SK6
70
0
62
5
6
CONTINUOUS
290
1
370
-3
390
0
0
ENDTAB
0
TABLE
2
STYLE
5
1f6
100
AcDbSymbolTable
0
STYLE
5
11
100
AcDbSymbolTableRecord
100
AcDbTextStyleTableRecord
2
Standard
3
txt
70
0
71
0
40
0
41
1
42
0
50
0
0
STYLE
5
152
100
AcDbSymbolTableRecord
100
AcDbTextStyleTableRecord
2
DEFAULT
3
simplex.shx
70
0
71
0
40
0
41
1
42
0
50
0
0
STYLE
5
153
100
AcDbSymbolTableRecord
100
AcDbTextStyleTableRecord
2
DWGDirectTextStyle
3
SIMPLEX
70
0
71
0
40
0
41
1
42
0
50
0
0
ENDTAB
0
TABLE
2
DIMSTYLE
5
1f7
100
AcDbSymbolTable
100
AcDbDimStyleTable
0
DIMSTYLE
105
27
100
AcDbSymbolTableRecord
100
AcDbDimStyleTableRecord
2
Standard
70
0
3
<>
41
0.18
42
0.0625
44
0.18
140
0.18
147
0.09
73
0
74
0
77
1
271
2
275
0
278
52
280
0
340
11
0
ENDTAB
0
TABLE
2
VIEW
5
1f8
100
AcDbSymbolTable
0
ENDTAB
0
TABLE
2
UCS
5
1f9
100
AcDbSymbolTable
0
ENDTAB
0
TABLE
2
APPID
5
1fa
100
AcDbSymbolTable
0
APPID
5
12
100
AcDbSymbolTableRecord
100
AcDbRegAppTableRecord
2
ACAD
70
0
0
ENDTAB
0
TABLE
2
BLOCK_RECORD
5
1fb
100
AcDbSymbolTable
0
BLOCK_RECORD
5
1F
100
AcDbSymbolTableRecord
100
AcDbBlockTableRecord
2
*Model_Space
340
0
70
0
0
BLOCK_RECORD
5
1B
100
AcDbSymbolTableRecord
100
AcDbBlockTableRecord
2
*Paper_Space
340
0
70
0
0
BLOCK_RECORD
5
23
100
AcDbSymbolTableRecord
100
AcDbBlockTableRecord
2
*Paper_Space0
340
0
70
0
0
BLOCK_RECORD
5
155
100
AcDbSymbolTableRecord
100
AcDbBlockTableRecord
2
DimnDraft3D1
340
0
70
0
0
BLOCK_RECORD
5
163
100
AcDbSymbolTableRecord
100
AcDbBlockTableRecord
2
_CLOSED
340
0
70
0
0
BLOCK_RECORD
5
16A
100
AcDbSymbolTableRecord
100
AcDbBlockTableRecord
2
DimnDraft3D2
340
0
70
0
0
BLOCK_RECORD
5
178
100
AcDbSymbolTableRecord
100
AcDbBlockTableRecord
2
DimnDraft3D3
340
0
70
0
0
BLOCK_RECORD
5
186
100
AcDbSymbolTableRecord
100
AcDbBlockTableRecord
2
DimnDraft3D4
340
0
70
0
0
BLOCK_RECORD
5
194
100
AcDbSymbolTableRecord
100
AcDbBlockTableRecord
2
DimnDraft3D5
340
0
70
0
0
ENDTAB
0
ENDSEC
0
SECTION
2
BLOCKS
0
BLOCK
5
20
100
AcDbEntity
8
0
100
AcDbBlockBegin
2
*Model_Space
70
0
10
0
20
0
30
0
3
*Model_Space
0
ENDBLK
5
21
100
AcDbEntity
8
0
100
AcDbBlockEnd
0
BLOCK
5
1C
100
AcDbEntity
8
0
100
AcDbBlockBegin
2
*Paper_Space
70
0
10
0
20
0
30
0
3
*Paper_Space
0
ENDBLK
5
1D
100
AcDbEntity
8
0
100
AcDbBlockEnd
0
BLOCK
5
24
100
AcDbEntity
8
0
100
AcDbBlockBegin
2
*Paper_Space0
70
0
10
0
20
0
30
0
3
*Paper_Space0
0
ENDBLK
5
25
100
AcDbEntity
8
0
100
AcDbBlockEnd
0
BLOCK
5
160
100
AcDbEntity
8
0
100
AcDbBlockBegin
2
DimnDraft3D1
70
0
10
0
20
0
30
0
3
DimnDraft3D1
0
MTEXT
5
156
100
AcDbEntity
8
2
62
256
6
ByLayer
370
-1
48
1
60
0
100
AcDbMText
10
35.996053
20
36.875
30
0
210
0
220
0
230
1
1
\W01.000;\fsimplex.shx,bigfont.shx;25\P
40
4.5
41
0
44
1.084337
50
0
71
7
72
5
7
DEFAULT
0
LINE
5
157
100
AcDbEntity
8
2
62
256
6
ByLayer
370
-1
48
1
60
0
100
AcDbLine
10
50
20
12
30
0
11
50
21
37.75
31
0
39
0
210
0
220
0
230
1
0
LINE
5
158
100
AcDbEntity
8
2
62
256
6
ByLayer
370
-1
48
1
60
0
100
AcDbLine
10
25
20
11.011317
30
0
11
25
21
37.75
31
0
39
0
210
0
220
0
230
1
0
LINE
5
159
100
AcDbEntity
8
2
62
256
6
ByLayer
370
-1
48
1
60
0
100
AcDbLine
10
50
20
35.75
30
0
11
25
21
35.75
31
0
39
0
210
0
220
0
230
1
0
LINE
5
15A
100
AcDbEntity
8
2
62
256
6
ByLayer
370
-1
48
1
60
0
100
AcDbLine
10
50
20
35.75
30
0
11
46.825002
21
35.332003
31
0
39
0
210
0
220
0
230
1
0
LINE
5
15B
100
AcDbEntity
8
2
62
256
6
ByLayer
370
-1
48
1
60
0
100
AcDbLine
10
50
20
35.75
30
0
11
46.824998
21
36.167997
31
0
39
0
210
0
220
0
230
1
0
LINE
5
15C
100
AcDbEntity
8
2
62
256
6
ByLayer
370
-1
48
1
60
0
100
AcDbLine
10
46.825002
20
35.332003
30
0
11
46.824998
21
36.167997
31
0
39
0
210
0
220
0
230
1
0
LINE
5
15D
100
AcDbEntity
8
2
62
256
6
ByLayer
370
-1
48
1
60
0
100
AcDbLine
10
25
20
35.75
30
0
11
28.174998
21
36.167997
31
0
39
0
210
0
220
0
230
1
0
LINE
5
15E
100
AcDbEntity
8
2
62
256
6
ByLayer
370
-1
48
1
60
0
100
AcDbLine
10
25
20
35.75
30
0
11
28.175002
21
35.332003
31
0
39
0
210
0
220
0
230
1
0
LINE
5
15F
100
AcDbEntity
8
2
62
256
6
ByLayer
370
-1
48
1
60
0
100
AcDbLine
10
28.174998
20
36.167997
30
0
11
28.175002
21
35.332003
31
0
39
0
210
0
220
0
230
1
0
ENDBLK
5
161
100
AcDbEntity
8
0
100
AcDbBlockEnd
0
BLOCK
5
164
100
AcDbEntity
8
0
100
AcDbBlockBegin
2
_CLOSED
70
0
10
0
20
0
30
0
3
_CLOSED
0
LINE
5
166
100
AcDbEntity
8
0
62
256
6
ByLayer
370
-2
48
1
60
0
100
AcDbLine
10
-1
20
0.166667
30
0
11
0
21
0
31
0
39
0
210
0
220
0
230
1
0
LINE
5
167
100
AcDbEntity
8
0
62
256
6
ByLayer
370
-2
48
1
60
0
100
AcDbLine
10
0
20
0
30
0
11
-1
21
-0.166667
31
0
39
0
210
0
220
0
230
1
0
LINE
5
168
100
AcDbEntity
8
0
62
256
6
ByLayer
370
-2
48
1
60
0
100
AcDbLine
10
-1
20
0.166667
30
0
11
-1
21
-0.166667
31
0
39
0
210
0
220
0
230
1
0
LINE
5
169
100
AcDbEntity
8
0
62
256
6
ByLayer
370
-2
48
1
60
0
100
AcDbLine
10
0
20
0
30
0
11
-1
21
0
31
0
39
0
210
0
220
0
230
1
0
ENDBLK
5
165
100
AcDbEntity
8
0
100
AcDbBlockEnd
0
BLOCK
5
175
100
AcDbEntity
8
0
100
AcDbBlockBegin
2
DimnDraft3D2
70
0
10
0
20
0
30
0
3
DimnDraft3D2
0
MTEXT
5
16B
100
AcDbEntity
8
2
62
256
6
ByLayer
370
-1
48
1
60
0
100
AcDbMText
10
23.496053
20
46.875
30
0
210
0
220
0
230
1
1
\W01.000;\fsimplex.shx,bigfont.shx;50\P
40
4.5
41
0
44
1.084337
50
0
71
7
72
5
7
DEFAULT
0
LINE
5
16C
100
AcDbEntity
8
2
62
256
6
ByLayer
370
-1
48
1
60
0
100
AcDbLine
10
50
20
12
30
0
11
50
21
47.75
31
0
39
0
210
0
220
0
230
1
0
LINE
5
16D
100
AcDbEntity
8
2
62
256
6
ByLayer
370
-1
48
1
60
0
100
AcDbLine
10
0
20
18
30
0
11
0
21
47.75
31
0
39
0
210
0
220
0
230
1
0
LINE
5
16E
100
AcDbEntity
8
2
62
256
6
ByLayer
370
-1
48
1
60
0
100
AcDbLine
10
50
20
45.75
30
0
11
0
21
45.75
31
0
39
0
210
0
220
0
230
1
0
LINE
5
16F
100
AcDbEntity
8
2
62
256
6
ByLayer
370
-1
48
1
60
0
100
AcDbLine
10
50
20
45.75
30
0
11
46.825002
21
45.332003
31
0
39
0
210
0
220
0
230
1
0
LINE
5
170
100
AcDbEntity
8
2
62
256
6
ByLayer
370
-1
48
1
60
0
100
AcDbLine
10
50
20
45.75
30
0
11
46.824998
21
46.167997
31
0
39
0
210
0
220
0
230
1
0
LINE
5
171
100
AcDbEntity
8
2
62
256
6
ByLayer
370
-1
48
1
60
0
100
AcDbLine
10
46.825002
20
45.332003
30
0
11
46.824998
21
46.167997
31
0
39
0
210
0
220
0
230
1
0
LINE
5
172
100
AcDbEntity
8
2
62
256
6
ByLayer
370
-1
48
1
60
0
100
AcDbLine
10
0
20
45.75
30
0
11
3.174998
21
46.167997
31
0
39
0
210
0
220
0
230
1
0
LINE
5
173
100
AcDbEntity
8
2
62
256
6
ByLayer
370
-1
48
1
60
0
100
AcDbLine
10
0
20
45.75
30
0
11
3.175002
21
45.332003
31
0
39
0
210
0
220
0
230
1
0
LINE
5
174
100
AcDbEntity
8
2
62
256
6
ByLayer
370
-1
48
1
60
0
100
AcDbLine
10
3.174998
20
46.167997
30
0
11
3.175002
21
45.332003
31
0
39
0
210
0
220
0
230
1
0
ENDBLK
5
176
100
AcDbEntity
8
0
100
AcDbBlockEnd
0
BLOCK
5
183
100
AcDbEntity
8
0
100
AcDbBlockBegin
2
DimnDraft3D3
70
0
10
0
20
0
30
0
3
DimnDraft3D3
0
MTEXT
5
179
100
AcDbEntity
8
2
62
256
6
ByLayer
370
-1
48
1
60
0
100
AcDbMText
10
56.125
20
20.875
30
0
210
0
220
0
230
1
1
\W01.000;\fsimplex.shx,bigfont.shx;10\P
40
4.5
41
0
44
1.084337
50
0
71
7
72
5
7
DEFAULT
0
LINE
5
17A
100
AcDbEntity
8
2
62
256
6
ByLayer
370
-1
48
1
60
0
100
AcDbLine
10
50
20
12
30
0
11
50
21
21.75
31
0
39
0
210
0
220
0
230
1
0
LINE
5
17B
100
AcDbEntity
8
2
62
256
6
ByLayer
370
-1
48
1
60
0
100
AcDbLine
10
39.8
20
12
30
0
11
39.8
21
21.75
31
0
39
0
210
0
220
0
230
1
0
LINE
5
17C
100
AcDbEntity
8
2
62
256
6
ByLayer
370
-1
48
1
60
0
100
AcDbLine
10
39.8
20
19.75
30
0
11
59.132895
21
19.75
31
0
39
0
210
0
220
0
230
1
0
LINE
5
17D
100
AcDbEntity
8
2
62
256
6
ByLayer
370
-1
48
1
60
0
100
AcDbLine
10
50
20
19.75
30
0
11
46.825002
21
19.332003
31
0
39
0
210
0
220
0
230
1
0
LINE
5
17E
100
AcDbEntity
8
2
62
256
6
ByLayer
370
-1
48
1
60
0
100
AcDbLine
10
50
20
19.75
30
0
11
46.824998
21
20.167997
31
0
39
0
210
0
220
0
230
1
0
LINE
5
17F
100
AcDbEntity
8
2
62
256
6
ByLayer
370
-1
48
1
60
0
100
AcDbLine
10
46.825002
20
19.332003
30
0
11
46.824998
21
20.167997
31
0
39
0
210
0
220
0
230
1
0
LINE
5
180
100
AcDbEntity
8
2
62
256
6
ByLayer
370
-1
48
1
60
0
100
AcDbLine
10
39.8
20
19.75
30
0
11
42.974998
21
20.167997
31
0
39
0
210
0
220
0
230
1
0
LINE
5
181
100
AcDbEntity
8
2
62
256
6
ByLayer
370
-1
48
1
60
0
100
AcDbLine
10
39.8
20
19.75
30
0
11
42.975002
21
19.332003
31
0
39
0
210
0
220
0
230
1
0
LINE
5
182
100
AcDbEntity
8
2
62
256
6
ByLayer
370
-1
48
1
60
0
100
AcDbLine
10
42.974998
20
20.167997
30
0
11
42.975002
21
19.332003
31
0
39
0
210
0
220
0
230
1
0
ENDBLK
5
184
100
AcDbEntity
8
0
100
AcDbBlockEnd
0
BLOCK
5
191
100
AcDbEntity
8
0
100
AcDbBlockBegin
2
DimnDraft3D4
70
0
10
0
20
0
30
0
3
DimnDraft3D4
0
MTEXT
5
187
100
AcDbEntity
8
2
62
256
6
ByLayer
370
-1
48
1
60
0
100
AcDbMText
10
63.125
20
-3.659211
30
0
210
0
220
0
230
1
1
\W01.000;\fsimplex.shx,bigfont.shx;%%c20\P
40
4.5
41
0
44
1.084337
50
90
71
7
72
5
7
DEFAULT
0
LINE
5
188
100
AcDbEntity
8
2
62
256
6
ByLayer
370
-1
48
1
60
0
100
AcDbLine
10
52
20
10
30
0
11
66.25
21
10
31
0
39
0
210
0
220
0
230
1
0
LINE
5
189
100
AcDbEntity
8
2
62
256
6
ByLayer
370
-1
48
1
60
0
100
AcDbLine
10
52
20
-10
30
0
11
66.25
21
-10
31
0
39
0
210
0
220
0
230
1
0
LINE
5
18A
100
AcDbEntity
8
2
62
256
6
ByLayer
370
-1
48
1
60
0
100
AcDbLine
10
64.25
20
10
30
0
11
64.25
21
-10
31
0
39
0
210
0
220
0
230
1
0
LINE
5
18B
100
AcDbEntity
8
2
62
256
6
ByLayer
370
-1
48
1
60
0
100
AcDbLine
10
64.25
20
10
30
0
11
64.667997
21
6.825002
31
0
39
0
210
0
220
0
230
1
0
LINE
5
18C
100
AcDbEntity
8
2
62
256
6
ByLayer
370
-1
48
1
60
0
100
AcDbLine
10
64.25
20
10
30
0
11
63.832003
21
6.824998
31
0
39
0
210
0
220
0
230
1
0
LINE
5
18D
100
AcDbEntity
8
2
62
256
6
ByLayer
370
-1
48
1
60
0
100
AcDbLine
10
64.667997
20
6.825002
30
0
11
63.832003
21
6.824998
31
0
39
0
210
0
220
0
230
1
0
LINE
5
18E
100
AcDbEntity
8
2
62
256
6
ByLayer
370
-1
48
1
60
0
100
AcDbLine
10
64.25
20
-10
30
0
11
63.832003
21
-6.825002
31
0
39
0
210
0
220
0
230
1
0
LINE
5
18F
100
AcDbEntity
8
2
62
256
6
ByLayer
370
-1
48
1
60
0
100
AcDbLine
10
64.25
20
-10
30
0
11
64.667997
21
-6.824998
31
0
39
0
210
0
220
0
230
1
0
LINE
5
190
100
AcDbEntity
8
2
62
256
6
ByLayer
370
-1
48
1
60
0
100
AcDbLine
10
63.832003
20
-6.825002
30
0
11
64.667997
21
-6.824998
31
0
39
0
210
0
220
0
230
1
0
ENDBLK
5
192
100
AcDbEntity
8
0
100
AcDbBlockEnd
0
BLOCK
5
19F
100
AcDbEntity
8
0
100
AcDbBlockBegin
2
DimnDraft3D5
70
0
10
0
20
0
30
0
3
DimnDraft3D5
0
MTEXT
5
195
100
AcDbEntity
8
SK2
62
256
6
ByLayer
370
-1
48
1
60
0
100
AcDbMText
10
-29.875
20
-3.659211
30
0
210
0
220
0
230
1
1
\W01.000;\fsimplex.shx,bigfont.shx;%%c32\P
40
4.5
41
0
44
1.084337
50
90
71
7
72
5
7
DEFAULT
0
LINE
5
196
100
AcDbEntity
8
SK2
62
256
6
ByLayer
370
-1
48
1
60
0
100
AcDbLine
10
-2
20
-16
30
0
11
-30.75
21
-16
31
0
39
0
210
0
220
0
230
1
0
LINE
5
197
100
AcDbEntity
8
SK2
62
256
6
ByLayer
370
-1
48
1
60
0
100
AcDbLine
10
-2
20
16
30
0
11
-30.75
21
16
31
0
39
0
210
0
220
0
230
1
0
LINE
5
198
100
AcDbEntity
8
SK2
62
256
6
ByLayer
370
-1
48
1
60
0
100
AcDbLine
10
-28.75
20
-16
30
0
11
-28.75
21
16
31
0
39
0
210
0
220
0
230
1
0
LINE
5
199
100
AcDbEntity
8
SK2
62
256
6
ByLayer
370
-1
48
1
60
0
100
AcDbLine
10
-28.75
20
-16
30
0
11
-29.167997
21
-12.825002
31
0
39
0
210
0
220
0
230
1
0
LINE
5
19A
100
AcDbEntity
8
SK2
62
256
6
ByLayer
370
-1
48
1
60
0
100
AcDbLine
10
-28.75
20
-16
30
0
11
-28.332003
21
-12.824998
31
0
39
0
210
0
220
0
230
1
0
LINE
5
19B
100
AcDbEntity
8
SK2
62
256
6
ByLayer
370
-1
48
1
60
0
100
AcDbLine
10
-29.167997
20
-12.825002
30
0
11
-28.332003
21
-12.824998
31
0
39
0
210
0
220
0
230
1
0
LINE
5
19C
100
AcDbEntity
8
SK2
62
256
6
ByLayer
370
-1
48
1
60
0
100
AcDbLine
10
-28.75
20
16
30
0
11
-28.332003
21
12.825002
31
0
39
0
210
0
220
0
230
1
0
LINE
5
19D
100
AcDbEntity
8
SK2
62
256
6
ByLayer
370
-1
48
1
60
0
100
AcDbLine
10
-28.75
20
16
30
0
11
-29.167997
21
12.824998
31
0
39
0
210
0
220
0
230
1
0
LINE
5
19E
100
AcDbEntity
8
SK2
62
256
6
ByLayer
370
-1
48
1
60
0
100
AcDbLine
10
-28.332003
20
12.825002
30
0
11
-29.167997
21
12.824998
31
0
39
0
210
0
220
0
230
1
0
ENDBLK
5
1A0
100
AcDbEntity
8
0
100
AcDbBlockEnd
0
ENDSEC
0
SECTION
2
ENTITIES
0
ARC
5
8B
100
AcDbEntity
8
1
62
256
6
ByLayer
370
-1
48
1
60
0
100
AcDbCircle
39
0
10
-25.472207
20
-10.511317
30
0
40
1.5
210
0
220
0
230
-1
100
AcDbArc
50
55.051521
51
90
0
ARC
5
8C
100
AcDbEntity
8
1
62
256
6
ByLayer
370
-1
48
1
60
0
100
AcDbCircle
39
0
10
-25.472207
20
10.511317
30
0
40
1.5
210
0
220
0
230
-1
100
AcDbArc
50
270
51
304.948479
0
ARC
5
8D
100
AcDbEntity
8
SK1
62
256
6
ByLayer
370
-1
48
1
60
0
100
AcDbCircle
39
0
10
0.6
20
11.8
30
0
40
1
210
0
220
0
230
-1
100
AcDbArc
50
233.130102
51
246.421822
0
ARC
5
8E
100
AcDbEntity
8
SK1
62
256
6
ByLayer
370
-1
48
1
60
0
100
AcDbCircle
39
0
10
0.6
20
-11.8
30
0
40
1
210
0
220
0
230
-1
100
AcDbArc
50
113.578178
51
126.869898
0
ELLIPSE
5
8F
100
AcDbEntity
8
1
62
256
6
ByLayer
370
-1
48
1
60
0
100
AcDbEllipse
10
44.818744
20
3.994496
30
0
11
0.243150457394472
21
-1.20036571721662
31
0
210
0
220
0
230
1
40
0.985025
41
-0.859636994956418
42
0.064490580083938
0
ELLIPSE
5
90
100
AcDbEntity
8
1
62
256
6
ByLayer
370
-1
48
1
60
0
100
AcDbEllipse
10
41.848422
20
16.769692
30
0
11
12.7586142235247
21
5.76348532532833
31
0
210
0
220
0
230
1
40
0.984387
41
-2.92115901310264
42
-2.27302384123137
0
ELLIPSE
5
91
100
AcDbEntity
8
1
62
256
6
ByLayer
370
-1
48
1
60
0
100
AcDbEllipse
10
44.7765
20
3.985939
30
0
11
0.248164396391989
21
-1.22511812996274
31
0
210
0
220
0
230
1
40
0.985025
41
-0.896906957785521
42
-2.55342223246868E-05
0
ELLIPSE
5
92
100
AcDbEntity
8
1
62
256
6
ByLayer
370
-1
48
1
60
0
100
AcDbEllipse
10
56.382415
20
0
30
0
11
124.032047561083
21
-1.45679751466454
31
0
210
0
220
0
230
-1
40
0.071697
41
1.71613481974343
42
1.77902805383237
0
ELLIPSE
5
93
100
AcDbEntity
8
1
62
256
6
ByLayer
370
-1
48
1
60
0
100
AcDbEllipse
10
40.871615
20
2.923031
30
0
11
0.788938456368066
21
0
31
0
210
0
220
0
230
1
40
0.157367
41
-2.2802326170408
42
-2.01150965941036
0
ELLIPSE
5
94
100
AcDbEntity
8
1
62
256
6
ByLayer
370
-1
48
1
60
0
100
AcDbEllipse
10
-0.928203
20
0
30
0
11
7.49393430382355
21
-15.7933993221975
31
0
210
0
220
0
230
-1
40
0.341999
41
-1.08757920120065
42
-0.161466571197732
0
ELLIPSE
5
95
100
AcDbEntity
8
1
62
256
6
ByLayer
370
-1
48
1
60
0
100
AcDbEllipse
10
45.448771
20
-5.112975
30
0
11
-1.5
21
1.83690953073357E-16
31
0
210
0
220
0
230
1
40
0.157367
41
-0.0309975667694711
42
0.645544077259903
0
ELLIPSE
5
96
100
AcDbEntity
8
1
62
256
6
ByLayer
370
-1
48
1
60
0
100
AcDbEllipse
10
40.863291
20
0.425854
30
0
11
2.91896478786534
21
9.33259721441393
31
0
210
0
220
0
230
-1
40
0.350055
41
2.67673252097924
42
2.70875152529891
0
ELLIPSE
5
97
100
AcDbEntity
8
1
62
256
6
ByLayer
370
-1
48
1
60
0
100
AcDbEllipse
10
40.871615
20
4.1829
30
0
11
-0.107727415330659
21
1.49612660025353
31
0
210
0
220
0
230
1
40
0.842226
41
2.63783489343206
42
2.73528169498456
0
ELLIPSE
5
98
100
AcDbEntity
8
1
62
256
6
ByLayer
370
-1
48
1
60
0
100
AcDbEllipse
10
39.377989
20
4.538487
30
0
11
1.62757494674692
21
0.616329681746688
31
0
210
0
220
0
230
-1
40
0.84849
41
2.72199440940355
42
-2.21175926519897
0
ELLIPSE
5
99
100
AcDbEntity
8
1
62
256
6
ByLayer
370
-1
48
1
60
0
100
AcDbEllipse
10
41.473003
20
3.739017
30
0
11
2.25952459521808
21
1.38261862465594
31
0
210
0
220
0
230
-1
40
0.138496
41
1.84129479122964
42
1.97071110003685
0
ELLIPSE
5
9A
100
AcDbEntity
8
1
62
256
6
ByLayer
370
-1
48
1
60
0
100
AcDbEllipse
10
45.448771
20
-5.112975
30
0
11
-1.5
21
1.83690953073357E-16
31
0
210
0
220
0
230
1
40
0.157367
41
2.15018103957068
42
2.96865888521018
0
ELLIPSE
5
9B
100
AcDbEntity
8
1
62
256
6
ByLayer
370
-1
48
1
60
0
100
AcDbEllipse
10
12.928203
20
0
30
0
11
7.4939343038251
21
-15.7933993221995
31
0
210
0
220
0
230
-1
40
0.341999
41
2.05401345238923
42
2.98012608239207
0
ELLIPSE
5
9C
100
AcDbEntity
8
1
62
256
6
ByLayer
370
-1
48
1
60
0
100
AcDbEllipse
10
18.941575
20
-0.6109
30
0
11
142.413879345976
21
9.15553410794801
31
0
210
0
220
0
230
-1
40
0.010742
41
-1.40040678427353
42
-1.35673553284712
0
ELLIPSE
5
9D
100
AcDbEntity
8
1
62
256
6
ByLayer
370
-1
48
1
60
0
100
AcDbEllipse
10
-0.928203
20
0
30
0
11
7.49393430382536
21
15.7933993221997
31
0
210
0
220
0
230
-1
40
0.341999
41
0.161466571197726
42
1.08757920120055
0
ELLIPSE
5
9E
100
AcDbEntity
8
1
62
256
6
ByLayer
370
-1
48
1
60
0
100
AcDbEllipse
10
45.260324
20
-5.282747
30
0
11
-0.686065425439646
21
0.761537413405486
31
0
210
0
220
0
230
1
40
0.97281
41
-2.31783216678607
42
0.823760486803719
0
ELLIPSE
5
9F
100
AcDbEntity
8
1
62
256
6
ByLayer
370
-1
48
1
60
0
100
AcDbEllipse
10
39.403399
20
9.081235
30
0
11
1.13008655533985
21
6.69832590055079
31
0
210
0
220
0
230
-1
40
0.1465
41
-2.19821300879479
42
-1.66918122191294
0
ELLIPSE
5
A0
100
AcDbEntity
8
1
62
256
6
ByLayer
370
-1
48
1
60
0
100
AcDbEllipse
10
37.793637
20
3.779837
30
0
11
0.533818482929478
21
1.92744333957781
31
0
210
0
220
0
230
1
40
0.113693
41
-2.01077833072209
42
-1.70646112548984
0
ELLIPSE
5
A1
100
AcDbEntity
8
1
62
256
6
ByLayer
370
-1
48
1
60
0
100
AcDbEllipse
10
39.905215
20
-9.383967
30
0
11
-0.413877926217623
21
-1.53232963184646
31
0
210
0
220
0
230
1
40
0.343906
41
-2.48175482546277
42
-2.1936414541656
0
ELLIPSE
5
A2
100
AcDbEntity
8
1
62
256
6
ByLayer
370
-1
48
1
60
0
100
AcDbEllipse
10
40.908473
20
3.107125
30
0
11
0.999999685284293
21
0.0255392549757146
31
0
210
0
220
0
230
-1
40
0.031065
41
0.731224573662516
42
1.08517036308992
0
ELLIPSE
5
A3
100
AcDbEntity
8
1
62
256
6
ByLayer
370
-1
48
1
60
0
100
AcDbEllipse
10
44.607522
20
3.95171
30
0
11
0.248164396391989
21
-1.22511812996274
31
0
210
0
220
0
230
1
40
0.985025
41
-0.852500879951493
42
-0.471520353135453
0
ELLIPSE
5
A4
100
AcDbEntity
8
1
62
256
6
ByLayer
370
-1
48
1
60
0
100
AcDbEllipse
10
45.721527
20
-0.488557
30
0
11
0.262317440162913
21
9.25900883404142
31
0
210
0
220
0
230
-1
40
0.172368
41
2.08802564817439
42
2.13821511338288
0
ELLIPSE
5
A5
100
AcDbEntity
8
1
62
256
6
ByLayer
370
-1
48
1
60
0
100
AcDbEllipse
10
40.126456
20
4.592379
30
0
11
2.39267982092923
21
-1.22510461777878
31
0
210
0
220
0
230
-1
40
0.241208
41
2.51770989969406
42
2.54090654477724
0
ELLIPSE
5
A6
100
AcDbEntity
8
1
62
256
6
ByLayer
370
-1
48
1
60
0
100
AcDbEllipse
10
38.272374
20
3.647248
30
0
11
0.533818482929478
21
1.92744333957781
31
0
210
0
220
0
230
1
40
0.113693
41
-1.99958634746842
42
-1.85304855118231
0
ELLIPSE
5
A7
100
AcDbEntity
8
1
62
256
6
ByLayer
370
-1
48
1
60
0
100
AcDbEllipse
10
12.928203
20
0
30
0
11
7.49393430383049
21
15.7933993222062
31
0
210
0
220
0
230
-1
40
0.341999
41
-2.98012608239212
42
-2.05401345238956
0
ELLIPSE
5
A8
100
AcDbEntity
8
1
62
256
6
ByLayer
370
-1
48
1
60
0
100
AcDbEllipse
10
43.437135
20
3.146871
30
0
11
-0.152269498856594
21
1.99419507564279
31
0
210
0
220
0
230
1
40
0.060878
41
-1.9125580110046
42
-1.73702127737844
0
ELLIPSE
5
A9
100
AcDbEntity
8
1
62
256
6
ByLayer
370
-1
48
1
60
0
100
AcDbEllipse
10
40.871615
20
4.1829
30
0
11
-0.107727415330659
21
1.49612660025353
31
0
210
0
220
0
230
1
40
0.842226
41
2.34362041138948
42
2.58581582813917
0
ELLIPSE
5
AA
100
AcDbEntity
8
1
62
256
6
ByLayer
370
-1
48
1
60
0
100
AcDbEllipse
10
56.382415
20
0
30
0
11
124.032047358233
21
1.45679751727071
31
0
210
0
220
0
230
-1
40
0.071697
41
-1.77902805359537
42
-1.71613481940693
0
ELLIPSE
5
AB
100
AcDbEntity
8
1
62
256
6
ByLayer
370
-1
48
1
60
0
100
AcDbEllipse
10
43.47745
20
3E-06
30
0
11
30.9810392617911
21
-8.93578495731492
31
0
210
0
220
0
230
-1
40
0.03758
41
-1.80420969589058
42
-1.7883772932618
0
ELLIPSE
5
AC
100
AcDbEntity
8
1
62
256
6
ByLayer
370
-1
48
1
60
0
100
AcDbEllipse
10
36.854525
20
3.893653
30
0
11
4.95483806026224
21
-1.09496000546867
31
0
210
0
220
0
230
-1
40
0.08052
41
0.767886591064154
42
0.860860396525965
0
ELLIPSE
5
AD
100
AcDbEntity
8
1
62
256
6
ByLayer
370
-1
48
1
60
0
100
AcDbEllipse
10
45.448771
20
-5.112975
30
0
11
1.00399818357021
21
-1.11444499522754
31
0
210
0
220
0
230
1
40
0.97281
41
0.823760486803719
42
3.14156438359443
0
ELLIPSE
5
AE
100
AcDbEntity
8
1
62
256
6
ByLayer
370
-1
48
1
60
0
100
AcDbEllipse
10
44.21263
20
6.49728
30
0
11
1.15459791110575
21
1.28161174451167
31
0
210
0
220
0
230
1
40
0.97281
41
1.85850963894083
42
3.01102673210725
0
ELLIPSE
5
AF
100
AcDbEntity
8
1
62
256
6
ByLayer
370
-1
48
1
60
0
100
AcDbEllipse
10
44.354775
20
7.523185
30
0
11
-0.28245815564442
21
-0.313530525324014
31
0
210
0
220
0
230
1
40
0.97281
41
0.81394916230732
42
1.52412203988313
0
ELLIPSE
5
B0
100
AcDbEntity
8
1
62
256
6
ByLayer
370
-1
48
1
60
0
100
AcDbEllipse
10
44.354775
20
6.369222
30
0
11
0.500660427540347
21
0.555736570953466
31
0
210
0
220
0
230
1
40
0.97281
41
-2.19200686146733
42
-1.76491539142682
0
ELLIPSE
5
B1
100
AcDbEntity
8
1
62
256
6
ByLayer
370
-1
48
1
60
0
100
AcDbEllipse
10
44.211215
20
6.498555
30
0
11
0.500660427540347
21
0.555736570953466
31
0
210
0
220
0
230
1
40
0.97281
41
-2.43228816551566
42
-2.35682546168157
0
ELLIPSE
5
B2
100
AcDbEntity
8
1
62
256
6
ByLayer
370
-1
48
1
60
0
100
AcDbEllipse
10
44.354775
20
6.369222
30
0
11
-0.500660427540346
21
-0.555736570953466
31
0
210
0
220
0
230
1
40
0.97281
41
-2.35682546168158
42
-1.34693027257207
0
ELLIPSE
5
B3
100
AcDbEntity
8
1
62
256
6
ByLayer
370
-1
48
1
60
0
100
AcDbEllipse
10
44.337568
20
6.384724
30
0
11
1.15459791110575
21
1.28161174451167
31
0
210
0
220
0
230
1
40
0.97281
41
-3.11844448803629
42
-0.878587100280045
0
ELLIPSE
5
B4
100
AcDbEntity
8
1
62
256
6
ByLayer
370
-1
48
1
60
0
100
AcDbEllipse
10
44.337568
20
6.384724
30
0
11
1.15459791110575
21
1.28161174451167
31
0
210
0
220
0
230
1
40
0.97281
41
3.14157124715059
42
-3.11844508394014
0
ELLIPSE
5
B5
100
AcDbEntity
8
1
62
256
6
ByLayer
370
-1
48
1
60
0
100
AcDbEllipse
10
44.337568
20
6.384724
30
0
11
1.15459791110575
21
1.28161174451167
31
0
210
0
220
0
230
1
40
0.97281
41
-0.0562757350875893
42
0
0
ELLIPSE
5
B6
100
AcDbEntity
8
1
62
256
6
ByLayer
370
-1
48
1
60
0
100
AcDbEllipse
10
44.354775
20
6.369222
30
0
11
-0.500660427540346
21
-0.555736570953466
31
0
210
0
220
0
230
1
40
0.97281
41
2.27838196825004
42
2.76483156941879
0
ELLIPSE
5
B7
100
AcDbEntity
8
1
62
256
6
ByLayer
370
-1
48
1
60
0
100
AcDbEllipse
10
44.182702
20
6.524242
30
0
11
0.692758746663448
21
0.768967046707001
31
0
210
0
220
0
230
1
40
0.97281
41
0.222579084732969
42
1.27149259524938
0
ELLIPSE
5
B8
100
AcDbEntity
8
1
62
256
6
ByLayer
370
-1
48
1
60
0
100
AcDbEllipse
10
44.354775
20
6.369222
30
0
11
0.500660427540347
21
0.555736570953466
31
0
210
0
220
0
230
1
40
0.97281
41
0.709304488074134
42
0.784767191908212
0
ELLIPSE
5
B9
100
AcDbEntity
8
1
62
256
6
ByLayer
370
-1
48
1
60
0
100
AcDbEllipse
10
44.182702
20
6.524242
30
0
11
0.692758746663448
21
0.768967046707001
31
0
210
0
220
0
230
1
40
0.97281
41
-2.91901356885682
42
-1.87010005834041
0
ELLIPSE
5
BA
100
AcDbEntity
8
1
62
256
6
ByLayer
370
-1
48
1
60
0
100
AcDbEllipse
10
44.182702
20
6.524242
30
0
11
0.692758746663448
21
0.768967046707001
31
0
210
0
220
0
230
1
40
0.97281
41
2.31783216678607
42
-2.91901356885682
0
ELLIPSE
5
BB
100
AcDbEntity
8
1
62
256
6
ByLayer
370
-1
48
1
60
0
100
AcDbEllipse
10
44.182702
20
6.524242
30
0
11
0.692758746663448
21
0.768967046707001
31
0
210
0
220
0
230
1
40
0.97281
41
1.27149259524938
42
2.31783216678607
0
ELLIPSE
5
BC
100
AcDbEntity
8
1
62
256
6
ByLayer
370
-1
48
1
60
0
100
AcDbEllipse
10
43.517454
20
6.346205
30
0
11
-0.123826442640326
21
-0.137448216078063
31
0
210
0
220
0
230
1
40
0.97281
41
-2.12183000042453
42
-0.59947610650732
0
ELLIPSE
5
BD
100
AcDbEntity
8
1
62
256
6
ByLayer
370
-1
48
1
60
0
100
AcDbEllipse
10
44.354775
20
6.369222
30
0
11
-0.500660427540346
21
-0.555736570953466
31
0
210
0
220
0
230
1
40
0.97281
41
-0.300590701035376
42
0.270820606244194
0
ELLIPSE
5
BE
100
AcDbEntity
8
1
62
256
6
ByLayer
370
-1
48
1
60
0
100
AcDbEllipse
10
43.356392
20
6.919059
30
0
11
-0.28245815564442
21
-0.313530525324014
31
0
210
0
220
0
230
1
40
0.97281
41
1.01976265316527
42
1.79466238101773
0
ELLIPSE
5
BF
100
AcDbEntity
8
1
62
256
6
ByLayer
370
-1
48
1
60
0
100
AcDbEllipse
10
43.935493
20
7.084286
30
0
11
-0.123826442640326
21
-0.137448216078063
31
0
210
0
220
0
230
1
40
0.97281
41
-3.08711271393286
42
-0.572030544719592
0
ELLIPSE
5
C0
100
AcDbEntity
8
1
62
256
6
ByLayer
370
-1
48
1
60
0
100
AcDbEllipse
10
43.356392
20
5.764496
30
0
11
-0.28245815564442
21
-0.313530525324014
31
0
210
0
220
0
230
1
40
0.97281
41
2.84100195255443
42
-3.14158202270911
0
ELLIPSE
5
C1
100
AcDbEntity
8
1
62
256
6
ByLayer
370
-1
48
1
60
0
100
AcDbEllipse
10
43.356392
20
5.764496
30
0
11
-0.28245815564442
21
-0.313530525324014
31
0
210
0
220
0
230
1
40
0.97281
41
2.06610222470197
42
2.84100195255443
0
ELLIPSE
5
C2
100
AcDbEntity
8
1
62
256
6
ByLayer
370
-1
48
1
60
0
100
AcDbEllipse
10
44.182702
20
6.524242
30
0
11
0.692758746663448
21
0.768967046707001
31
0
210
0
220
0
230
1
40
0.97281
41
-0.82376048680372
42
0.222579084732968
0
ELLIPSE
5
C3
100
AcDbEntity
8
1
62
256
6
ByLayer
370
-1
48
1
60
0
100
AcDbEllipse
10
43.356392
20
6.919059
30
0
11
-0.28245815564442
21
-0.313530525324014
31
0
210
0
220
0
230
1
40
0.97281
41
1.79466238101773
42
2.56956210887019
0
ELLIPSE
5
C4
100
AcDbEntity
8
1
62
256
6
ByLayer
370
-1
48
1
60
0
100
AcDbEllipse
10
45.353159
20
6.973948
30
0
11
-0.28245815564442
21
-0.313530525324014
31
0
210
0
220
0
230
1
40
0.97281
41
9.8113732274347E-06
42
0.353750552917858
0
ELLIPSE
5
C5
100
AcDbEntity
8
1
62
256
6
ByLayer
370
-1
48
1
60
0
100
AcDbEllipse
10
44.774058
20
7.107337
30
0
11
-0.123826442640326
21
-0.137448216078063
31
0
210
0
220
0
230
1
40
0.97281
41
-2.46904714292906
42
-1.61747061370667
0
ELLIPSE
5
C6
100
AcDbEntity
8
1
62
256
6
ByLayer
370
-1
48
1
60
0
100
AcDbEllipse
10
43.935493
20
5.631107
30
0
11
-0.123826442640326
21
-0.137448216078063
31
0
210
0
220
0
230
1
40
0.97281
41
-1.07549042888783
42
-0.698708108152891
0
ELLIPSE
5
C7
100
AcDbEntity
8
1
62
256
6
ByLayer
370
-1
48
1
60
0
100
AcDbEllipse
10
44.354775
20
7.523185
30
0
11
-0.28245815564442
21
-0.313530525324014
31
0
210
0
220
0
230
1
40
0.97281
41
1.0093737959017E-05
42
0.680122517675022
0
ELLIPSE
5
C8
100
AcDbEntity
8
1
62
256
6
ByLayer
370
-1
48
1
60
0
100
AcDbEllipse
10
44.182702
20
6.524242
30
0
11
0.692758746663448
21
0.768967046707001
31
0
210
0
220
0
230
1
40
0.97281
41
-1.87010005834041
42
-0.82376048680372
0
ELLIPSE
5
C9
100
AcDbEntity
8
1
62
256
6
ByLayer
370
-1
48
1
60
0
100
AcDbEllipse
10
44.211215
20
6.498555
30
0
11
0.500660427540347
21
0.555736570953466
31
0
210
0
220
0
230
1
40
0.97281
41
0.709304488074133
42
0.784767191908212
0
ELLIPSE
5
CA
100
AcDbEntity
8
1
62
256
6
ByLayer
370
-1
48
1
60
0
100
AcDbEllipse
10
44.21263
20
6.49728
30
0
11
1.15459791110575
21
1.28161174451167
31
0
210
0
220
0
230
1
40
0.97281
41
0
42
6.28318530717959
0
ELLIPSE
5
CB
100
AcDbEntity
8
1
62
256
6
ByLayer
370
-1
48
1
60
0
100
AcDbEllipse
10
44.182702
20
6.524242
30
0
11
0.870131759094187
21
0.9658523291972
31
0
210
0
220
0
230
1
40
0.97281
41
0
42
6.28318530717959
0
ELLIPSE
5
CC
100
AcDbEntity
8
1
62
256
6
ByLayer
370
-1
48
1
60
0
100
AcDbEllipse
10
44.354775
20
6.369222
30
0
11
-0.500660427540346
21
-0.555736570953466
31
0
210
0
220
0
230
1
40
0.97281
41
-3.08622718928057
42
-2.43228816551566
0
ELLIPSE
5
CD
100
AcDbEntity
8
1
62
256
6
ByLayer
370
-1
48
1
60
0
100
AcDbEllipse
10
44.354775
20
6.369222
30
0
11
-0.500660427540346
21
-0.555736570953466
31
0
210
0
220
0
230
1
40
0.97281
41
-1.34693027257207
42
-0.300590701035379
0
ELLIPSE
5
CE
100
AcDbEntity
8
1
62
256
6
ByLayer
370
-1
48
1
60
0
100
AcDbEllipse
10
44.991446
20
-5.795648
30
0
11
-0.635865516261135
21
0.705815163644108
31
0
210
0
220
0
230
1
40
0.97281
41
-2.31790760547583
42
0
0
ELLIPSE
5
CF
100
AcDbEntity
8
1
62
256
6
ByLayer
370
-1
48
1
60
0
100
AcDbEllipse
10
44.991446
20
-5.795648
30
0
11
-0.635865516261135
21
0.705815163644108
31
0
210
0
220
0
230
1
40
0.97281
41
0
42
0.16385281705125
0
POINT
5
42
100
AcDbEntity
8
80
62
256
6
ByLayer
370
-1
48
1
60
0
100
AcDbPoint
10
0
20
0
30
0
39
0
210
0
220
0
230
1
50
360
0
POINT
5
44
100
AcDbEntity
8
81
62
256
6
ByLayer
370
-1
48
1
60
0
100
AcDbPoint
10
50
20
9.935
30
0
39
0
210
0
220
0
230
1
50
360
0
POINT
5
46
100
AcDbEntity
8
SK2
62
256
6
ByLayer
370
-1
48
1
60
0
100
AcDbPoint
10
38.5
20
2.7382
30
0
39
0
210
0
220
0
230
1
50
360
0
POINT
5
48
100
AcDbEntity
8
2
62
256
6
ByLayer
370
-1
48
1
60
0
100
AcDbPoint
10
50
20
9.935
30
0
39
0
210
0
220
0
230
1
50
360
0
SPLINE
5
D0
100
AcDbEntity
8
1
62
256
6
ByLayer
370
-1
48
1
60
0
100
AcDbSpline
70
4
71
2
72
6
73
3
40
0
40
0
40
0
40
1
40
1
40
1
41
1
10
39.7623709540866
20
-9.52023555387029
30
-2E-16
41
1
10
39.8596588572777
20
-9.53394304248616
30
-2E-16
41
1
10
39.9573490275243
20
-9.53724423228343
30
-2E-16
0
SPLINE
5
D1
100
AcDbEntity
8
1
62
256
6
ByLayer
370
-1
48
1
60
0
100
AcDbSpline
70
4
71
2
72
6
73
3
40
0
40
0
40
0
40
1
40
1
40
1
41
1
10
39.9573490275243
20
9.53724423228309
30
-2E-16
41
1
10
39.8596588572777
20
9.53394304248582
30
-2E-16
41
1
10
39.7623709540866
20
9.52023555386995
30
-2E-16
0
SPLINE
5
D2
100
AcDbEntity
8
1
62
256
6
ByLayer
370
-1
48
1
60
0
100
AcDbSpline
70
4
71
2
72
6
73
3
40
0
40
0
40
0
40
1
40
1
40
1
41
1
10
48.7922392155329
20
3.18171621958061
30
0
41
1
10
48.8865222226065
20
3.18443315188384
30
0
41
1
10
48.9795718974135
20
3.19812320171451
30
0
0
SPLINE
5
D3
100
AcDbEntity
8
SK1
62
256
6
ByLayer
370
-1
48
1
60
0
100
AcDbSpline
70
4
71
2
72
6
73
3
40
0
40
0
40
0
40
1
40
1
40
1
41
1
10
-2.49999999999999
20
11.0000000216177
30
-1E-16
41
1
10
-10.2501577226355
20
10.8052890832069
30
-1E-16
41
1
10
-18.0003154452711
20
10.6105781447962
30
-2E-16
0
SPLINE
5
D4
100
AcDbEntity
8
SK1
62
256
6
ByLayer
370
-1
48
1
60
0
100
AcDbSpline
70
4
71
2
72
6
73
3
40
0
40
0
40
0
40
1
40
1
40
1
41
1
10
-18.0003154452711
20
-10.6105781038671
30
-2E-16
41
1
10
-10.2501577226356
20
-10.8052890415269
30
-1E-16
41
1
10
-2.50000000000001
20
-10.9999999791866
30
-1E-16
0
SPLINE
5
D5
100
AcDbEntity
8
SK1
62
256
6
ByLayer
370
-1
48
1
60
0
100
AcDbSpline
70
4
71
2
72
6
73
3
40
0
40
0
40
0
40
1
40
1
40
1
41
1
10
-2.50000000000001
20
-10.9999999791866
30
-1E-16
41
1
10
-2.0975125121336
20
-11.0101118658041
30
-1E-16
41
1
10
-1.69502502426722
20
-11.0202237524215
30
-1E-16
0
SPLINE
5
D6
100
AcDbEntity
8
SK1
62
256
6
ByLayer
370
-1
48
1
60
0
100
AcDbSpline
70
4
71
2
72
6
73
3
40
0
40
0
40
0
40
1
40
1
40
1
41
1
10
-1.6950250242672
20
11.0202237949306
30
-1E-16
41
1
10
-2.09751251213358
20
11.0101119082741
30
-1E-16
41
1
10
-2.49999999999999
20
11.0000000216177
30
-1E-16
0
SPLINE
5
D7
100
AcDbEntity
8
SK1
62
256
6
ByLayer
370
-1
48
1
60
0
100
AcDbSpline
70
4
71
2
72
6
73
3
40
0
40
0
40
0
40
1
40
1
40
1
41
1
10
-18.0002077056275
20
10.6083539004405
30
1E-16
41
1
10
-18.5001033313043
20
10.3025663640319
30
0
41
1
10
-19
20
9.99678531058692
30
0
0
SPLINE
5
D8
100
AcDbEntity
8
SK1
62
256
6
ByLayer
370
-1
48
1
60
0
100
AcDbSpline
70
4
71
2
72
6
73
3
40
0
40
0
40
0
40
1
40
1
40
1
41
1
10
-19
20
-9.9957080696918
30
0
41
1
10
-18.5001026802154
20
-10.3013830512381
30
0
41
1
10
-18.0002062662752
20
-10.6070648849159
30
1E-16
0
SPLINE
5
D9
100
AcDbEntity
8
SK1
62
256
6
ByLayer
370
-1
48
1
60
0
100
AcDbSpline
70
4
71
1
72
4
73
2
40
0
40
0
40
1
40
1
41
1
10
-1.49999999999999
20
10.8251483838206
30
0
41
1
10
-1.51178694779681
20
10.7821700278277
30
0
0
SPLINE
5
DA
100
AcDbEntity
8
SK1
62
256
6
ByLayer
370
-1
48
1
60
0
100
AcDbSpline
70
4
71
1
72
4
73
2
40
0
40
0
40
1
40
1
41
1
10
-1.5115236483059
20
-10.7863060745886
30
0
41
1
10
-1.50000000000001
20
-10.8251483415951
30
0
0
SPLINE
5
DB
100
AcDbEntity
8
SK1
62
256
6
ByLayer
370
-1
48
1
60
0
100
AcDbSpline
70
4
71
2
72
6
73
3
40
0
40
0
40
0
40
1
40
1
40
1
41
1
10
-1.52654596416585
20
-10.7078348838522
30
0
41
1
10
-1.52318353352135
20
-10.7380735567284
30
0
41
1
10
-1.52030211449407
20
-10.7567172851794
30
0
0
SPLINE
5
DC
100
AcDbEntity
8
SK1
62
256
6
ByLayer
370
-1
48
1
60
0
100
AcDbSpline
70
4
71
2
72
6
73
3
40
0
40
0
40
0
40
1
40
1
40
1
41
1
10
-0.894155188015631
20
10.7847407283834
30
0
41
1
10
-1.19707759400785
20
10.7847407283834
30
0
41
1
10
-1.49999999999999
20
10.7847407283834
30
0
0
SPLINE
5
DD
100
AcDbEntity
8
SK1
62
256
6
ByLayer
370
-1
48
1
60
0
100
AcDbSpline
70
4
71
2
72
6
73
3
40
0
40
0
40
0
40
1
40
1
40
1
41
1
10
-1.50000000000001
20
-10.7847407263989
30
0
41
1
10
-1.19260811024962
20
-10.7847407263989
30
0
41
1
10
-0.885216220499217
20
-10.7847407263989
30
0
0
SPLINE
5
DE
100
AcDbEntity
8
1
62
256
6
ByLayer
370
-1
48
1
60
0
100
AcDbSpline
70
4
71
3
72
8
73
4
40
0
40
0
40
0
40
0
40
1
40
1
40
1
40
1
41
1
10
45.3663041487752
20
2.96229114005794
30
-1E-16
41
1
10
45.3567129443759
20
2.95499570143591
30
-1E-16
41
1
10
45.3470187661901
20
2.9478339790069
30
-1E-16
41
1
10
45.337227481379
20
2.94080963089519
30
-1E-16
0
SPLINE
5
DF
100
AcDbEntity
8
1
62
256
6
ByLayer
370
-1
48
1
60
0
100
AcDbSpline
70
4
71
3
72
24
73
20
40
0
40
0
40
0
40
0
40
0.134269127631939
40
0.134269127631939
40
0.261691902513325
40
0.261691902513325
40
0.390239177820612
40
0.390239177820612
40
0.501741898169721
40
0.501741898169721
40
0.598917586829314
40
0.598917586829314
40
0.688191983295499
40
0.688191983295499
40
0.77639988710089
40
0.77639988710089
40
0.871236159801074
40
0.871236159801074
40
1
40
1
40
1
40
1
41
1
10
43.9946480357495
20
-4.80985122500482
30
-4E-16
41
1
10
44.0479175609219
20
-4.62242712323061
30
-4E-16
41
1
10
44.1309740712909
20
-4.43558584829009
30
-4E-16
41
1
10
44.3498350925884
20
-4.10147375862869
30
-3E-16
41
1
10
44.4858006611366
20
-3.94896921497602
30
-3E-16
41
1
10
44.8039070305231
20
-3.69777369007531
30
-3E-16
41
1
10
44.9918908836728
20
-3.5958445119027
30
-3E-16
41
1
10
45.3634850243567
20
-3.48259821775485
30
-3E-16
41
1
10
45.5502924080145
20
-3.45967255606706
30
-3E-16
41
1
10
45.8895527512377
20
-3.48397556910624
30
-3E-16
41
1
10
46.0482605171751
20
-3.52314460363149
30
-2E-16
41
1
10
46.3237115801605
20
-3.64612192195077
30
-2E-16
41
1
10
46.4464744338578
20
-3.72770180497619
30
-2E-16
41
1
10
46.6526537757091
20
-3.91893049255683
30
-2E-16
41
1
10
46.7391551074121
20
-4.03046733628167
30
-2E-16
41
1
10
46.8771127938162
20
-4.27539144216314
30
-2E-16
41
1
10
46.9272871876497
20
-4.41250033752425
30
-2E-16
41
1
10
46.9973925589555
20
-4.73507242651652
30
-2E-16
41
1
10
47.0019579271336
20
-4.92513664237029
30
-2E-16
41
1
10
46.9790104195929
20
-5.10619453062293
30
-2E-16
0
SPLINE
5
E0
100
AcDbEntity
8
1
62
256
6
ByLayer
370
-1
48
1
60
0
100
AcDbSpline
70
4
71
3
72
16
73
12
40
0
40
0
40
0
40
0
40
0.0824510846571592
40
0.0824510846571592
40
0.188383068428385
40
0.188383068428385
40
0.365472907848037
40
0.365472907848037
40
0.680803291610384
40
0.680803291610384
40
1
40
1
40
1
40
1
41
1
10
4.9232050807569
20
-4.75546271781775
30
8E-16
41
1
10
4.91089649083546
20
-4.75546271781775
30
8E-16
41
1
10
4.89849486249383
20
-4.75706222436509
30
8E-16
41
1
10
4.87125637552427
20
-4.76394233360975
30
8E-16
41
1
10
4.8564647845017
20
-4.77020840137916
30
8E-16
41
1
10
4.82023312564893
20
-4.79093881117964
30
8E-16
41
1
10
4.80022243273464
20
-4.80829129424865
30
8E-16
41
1
10
4.75215970503024
20
-4.86090601671935
30
8E-16
41
1
10
4.72849000125774
20
-4.90053819345565
30
8E-16
41
1
10
4.69009643205953
20
-4.9822327416876
30
8E-16
41
1
10
4.6752040304544
20
-5.02519567059616
30
8E-16
41
1
10
4.66339745962156
20
-5.06861858311188
30
8E-16
0
SPLINE
5
E1
100
AcDbEntity
8
1
62
256
6
ByLayer
370
-1
48
1
60
0
100
AcDbSpline
70
4
71
3
72
8
73
4
40
0
40
0
40
0
40
0
40
1
40
1
40
1
40
1
41
1
10
38.334160055913
20
3.05212734065316
30
0
41
1
10
38.2406964515507
20
3.15847177606787
30
-1E-16
41
1
10
38.1637842259118
20
3.28161273143738
30
-1E-16
41
1
10
38.1048551281608
20
3.41283628609963
30
-1E-16
0
SPLINE
5
E2
100
AcDbEntity
8
1
62
256
6
ByLayer
370
-1
48
1
60
0
100
AcDbSpline
70
4
71
3
72
8
73
4
40
0
40
0
40
0
40
0
40
1
40
1
40
1
40
1
41
1
10
40.4658452427723
20
2.83900210900884
30
3E-16
41
1
10
40.4066486652522
20
2.84566847466186
30
3E-16
41
1
10
40.3502336556658
20
2.85409777668269
30
3E-16
41
1
10
40.2983076730901
20
2.86408454550238
30
3E-16
0
SPLINE
5
E3
100
AcDbEntity
8
1
62
256
6
ByLayer
370
-1
48
1
60
0
100
AcDbSpline
70
4
71
3
72
8
73
4
40
0
40
0
40
0
40
0
40
1
40
1
40
1
40
1
41
1
10
41.2492550893283
20
-7.82128177943778
30
4E-16
41
1
10
41.2225531799606
20
-7.81899637918104
30
4E-16
41
1
10
41.1953634292098
20
-7.81612016123992
30
3E-16
41
1
10
41.1687559488424
20
-7.8127393750886
30
3E-16
0
SPLINE
5
E4
100
AcDbEntity
8
1
62
256
6
ByLayer
370
-1
48
1
60
0
100
AcDbSpline
70
4
71
3
72
18
73
14
40
0
40
0
40
0
40
0
40
0.0872973106983343
40
0.0872973106983343
40
0.542504713769336
40
0.542504713769336
40
0.70004923773436
40
0.70004923773436
40
0.859641035571757
40
0.859641035571757
40
0.970800525640324
40
0.970800525640324
40
1
40
1
40
1
40
1
41
1
10
7.33660254037845
20
-5.06861858311186
30
-8E-16
41
1
10
7.33335951275453
20
-5.05669118210832
30
-8E-16
41
1
10
7.32988124523558
20
-5.04481392106419
30
-8E-16
41
1
10
7.30679603866885
20
-4.97182102384338
30
-8E-16
41
1
10
7.28070949120794
20
-4.91100060572415
30
-8E-16
41
1
10
7.22892472751981
20
-4.83986869632059
30
-8E-16
41
1
10
7.21379801264521
20
-4.82232975779178
30
-8E-16
41
1
10
7.17940149560852
20
-4.79137868546468
30
-8E-16
41
1
10
7.15964797354843
20
-4.77770433946478
30
-8E-16
41
1
10
7.12286471883333
20
-4.76194246224063
30
-8E-16
41
1
10
7.1064633496582
20
-4.75754333105189
30
-9E-16
41
1
10
7.08557733679535
20
-4.75566124801028
30
-9E-16
41
1
10
7.08118372978325
20
-4.75546271781775
30
-9E-16
41
1
10
7.07679491924313
20
-4.75546271781775
30
-9E-16
0
SPLINE
5
E5
100
AcDbEntity
8
1
62
256
6
ByLayer
370
-1
48
1
60
0
100
AcDbSpline
70
4
71
3
72
10
73
6
40
0
40
0
40
0
40
0
40
0.835085621438447
40
0.835085621438447
40
1
40
1
40
1
40
1
41
1
10
38.5560466528685
20
5.60498605809383
30
2E-16
41
1
10
38.3894417400553
20
5.49723217295056
30
2E-16
41
1
10
38.2353319547138
20
5.38573347740984
30
2E-16
41
1
10
38.0667085890471
20
5.28070043879563
30
2E-16
41
1
10
38.0389964944671
20
5.26422999403238
30
2E-16
41
1
10
38.0118863726823
20
5.24953849142403
30
2E-16
0
SPLINE
5
E6
100
AcDbEntity
8
1
62
256
6
ByLayer
370
-1
48
1
60
0
100
AcDbSpline
70
4
71
3
72
18
73
14
40
0
40
0
40
0
40
0
40
0.0872973106983432
40
0.0872973106983432
40
0.542504713769246
40
0.542504713769246
40
0.700049237734311
40
0.700049237734311
40
0.859641035571735
40
0.859641035571735
40
0.97080052564028
40
0.97080052564028
40
1
40
1
40
1
40
1
41
1
10
4.66339745962152
20
-15.1759383782005
30
-1E-16
41
1
10
4.66664048724545
20
-15.1799220163037
30
-1E-16
41
1
10
4.6701187547644
20
-15.1838732610659
30
-1E-16
41
1
10
4.69320396133112
20
-15.2080620258528
30
-1E-16
41
1
10
4.71929050879201
20
-15.2277749876853
30
-1E-16
41
1
10
4.77107527248015
20
-15.2504441152009
30
-1E-16
41
1
10
4.78620198735474
20
-15.2559954463098
30
-1E-16
41
1
10
4.82059850439144
20
-15.2657445103486
30
-1E-16
41
1
10
4.84035202645153
20
-15.2700240892115
30
-1E-16
41
1
10
4.87713528116664
20
-15.2749451765725
30
-1E-16
41
1
10
4.89353665034177
20
-15.2763144731657
30
-1E-16
41
1
10
4.91442266320462
20
-15.2769004141623
30
-1E-16
41
1
10
4.91881627021672
20
-15.2769622091387
30
-1E-16
41
1
10
4.92320508075686
20
-15.2769622091387
30
-1E-16
0
SPLINE
5
E7
100
AcDbEntity
8
1
62
256
6
ByLayer
370
-1
48
1
60
0
100
AcDbSpline
70
4
71
3
72
10
73
6
40
0
40
0
40
0
40
0
40
0.636646669705853
40
0.636646669705853
40
1
40
1
40
1
40
1
41
1
10
43.9494918494861
20
-5.10565943045177
30
-4E-16
41
1
10
43.9508998182689
20
-5.04306041310875
30
-4E-16
41
1
10
43.9575360843859
20
-4.97995636888606
30
-4E-16
41
1
10
43.9760575135391
20
-4.88137891803547
30
-4E-16
41
1
10
43.984522856459
20
-4.84547577070433
30
-4E-16
41
1
10
43.9946480357498
20
-4.80985122500493
30
-4E-16
0
SPLINE
5
E8
100
AcDbEntity
8
1
62
256
6
ByLayer
370
-1
48
1
60
0
100
AcDbSpline
70
4
71
3
72
24
73
20
40
0
40
0
40
0
40
0
40
0.0458554543080236
40
0.0458554543080236
40
0.189527817777441
40
0.189527817777441
40
0.311515584935191
40
0.311515584935191
40
0.434336092482985
40
0.434336092482985
40
0.544528256467077
40
0.544528256467077
40
0.651845090780406
40
0.651845090780406
40
0.766075745905176
40
0.766075745905176
40
0.896526289178439
40
0.896526289178439
40
1
40
1
40
1
40
1
41
1
10
46.7741823842861
20
-6.02999898275138
30
-2E-16
41
1
10
46.75240191071
20
-6.0722449177556
30
-2E-16
41
1
10
46.7283341268554
20
-6.11352950104941
30
-2E-16
41
1
10
46.6195936424645
20
-6.27843668493176
30
-2E-16
41
1
10
46.5123867091527
20
-6.39324937791483
30
-2E-16
41
1
10
46.2724190688124
20
-6.56826213914999
30
-2E-16
41
1
10
46.1430946492253
20
-6.63587036000172
30
-2E-16
41
1
10
45.8619093963653
20
-6.73259383153876
30
-3E-16
41
1
10
45.7055992724659
20
-6.76277328404242
30
-3E-16
41
1
10
45.4085680777808
20
-6.77835794752835
30
-3E-16
41
1
10
45.2638991087495
20
-6.76824444015
30
-3E-16
41
1
10
44.9948640741766
20
-6.71584230231323
30
-3E-16
41
1
10
44.8666766457874
20
-6.67378879722099
30
-3E-16
41
1
10
44.6290453134463
20
-6.56120810613396
30
-3E-16
41
1
10
44.5184247392959
20
-6.48776513245801
30
-3E-16
41
1
10
44.3169916241076
20
-6.30941897872202
30
-3E-16
41
1
10
44.2287206142679
20
-6.19960365769282
30
-4E-16
41
1
10
44.1058086347451
20
-5.98918794069016
30
-4E-16
41
1
10
44.0629973004794
20
-5.89034737111683
30
-4E-16
41
1
10
44.0307208489963
20
-5.78832201212632
30
-4E-16
0
SPLINE
5
E9
100
AcDbEntity
8
1
62
256
6
ByLayer
370
-1
48
1
60
0
100
AcDbSpline
70
4
71
2
72
6
73
3
40
0
40
0
40
0
40
1
40
1
40
1
41
0.50000000614919
10
39.5838352206763
20
-8.47466415654783
30
-2E-16
41
0.49999999385081
10
39.550455970417
20
-8.46712187171175
30
-2E-16
41
0.50000000614919
10
39.5171204924668
20
-8.45958165524857
30
-2E-16
0
SPLINE
5
EA
100
AcDbEntity
8
1
62
256
6
ByLayer
370
-1
48
1
60
0
100
AcDbSpline
70
4
71
3
72
8
73
4
40
0
40
0
40
0
40
0
40
1
40
1
40
1
40
1
41
1
10
44.0307208489963
20
-5.78832201212632
30
-4E-16
41
1
10
43.1036494242141
20
-5.7063700795018
30
-4E-16
41
1
10
42.1764896473184
20
-5.62412756533575
30
4E-16
41
1
10
41.2492550893297
20
-5.54161015611143
30
4E-16
0
SPLINE
5
EB
100
AcDbEntity
8
1
62
256
6
ByLayer
370
-1
48
1
60
0
100
AcDbSpline
70
4
71
3
72
8
73
4
40
0
40
0
40
0
40
0
40
1
40
1
40
1
40
1
41
1
10
46.926397546831
20
-5.50300653358411
30
-2E-16
41
1
10
46.9009582206402
20
-5.68652737797763
30
-2E-16
41
1
10
46.8522375689418
20
-5.86537291027611
30
-2E-16
41
1
10
46.7741823842861
20
-6.02999898275141
30
-2E-16
0
SPLINE
5
EC
100
AcDbEntity
8
1
62
256
6
ByLayer
370
-1
48
1
60
0
100
AcDbSpline
70
4
71
3
72
18
73
14
40
0
40
0
40
0
40
0
40
0.0872973106982662
40
0.0872973106982662
40
0.542504713769248
40
0.542504713769248
40
0.700049237734308
40
0.700049237734308
40
0.859641035571714
40
0.859641035571714
40
0.970800525640277
40
0.970800525640277
40
1
40
1
40
1
40
1
41
1
10
7.33660254037846
20
15.1759383782002
30
1E-16
41
1
10
7.33335951275454
20
15.1799220163034
30
1E-16
41
1
10
7.3298812452356
20
15.1838732610657
30
1E-16
41
1
10
7.30679603866888
20
15.2080620258525
30
1E-16
41
1
10
7.28070949120797
20
15.2277749876851
30
0
41
1
10
7.22892472751984
20
15.2504441152007
30
0
41
1
10
7.21379801264526
20
15.2559954463096
30
0
41
1
10
7.17940149560856
20
15.2657445103484
30
0
41
1
10
7.15964797354847
20
15.2700240892112
30
0
41
1
10
7.12286471883336
20
15.2749451765723
30
0
41
1
10
7.10646334965823
20
15.2763144731654
30
0
41
1
10
7.08557733679537
20
15.276900414162
30
0
41
1
10
7.08118372978328
20
15.2769622091384
30
0
41
1
10
7.07679491924314
20
15.2769622091384
30
0
0
SPLINE
5
ED
100
AcDbEntity
8
1
62
256
6
ByLayer
370
-1
48
1
60
0
100
AcDbSpline
70
4
71
3
72
18
73
14
40
0
40
0
40
0
40
0
40
0.332460231495169
40
0.332460231495169
40
0.561102679796183
40
0.561102679796183
40
0.777619402754774
40
0.777619402754774
40
0.870901238639879
40
0.870901238639879
40
0.949746700031528
40
0.949746700031528
40
1
40
1
40
1
40
1
41
1
10
41.1687559488305
20
-5.42124315837955
30
3E-16
41
1
10
41.1739880563275
20
-5.4365477510955
30
3E-16
41
1
10
41.1796585097887
20
-5.45173267605631
30
3E-16
41
1
10
41.1906010417126
20
-5.47688254314838
30
3E-16
41
1
10
41.1954444476009
20
-5.48701793758053
30
3E-16
41
1
10
41.2062453251295
20
-5.50614748053437
30
3E-16
41
1
10
41.2121058255585
20
-5.51529038570041
30
4E-16
41
1
10
41.2225794728398
20
-5.52707365592377
30
4E-16
41
1
10
41.2260469630986
20
-5.53047639975898
30
4E-16
41
1
10
41.233267987438
20
-5.5359484771503
30
4E-16
41
1
10
41.236966558201
20
-5.5381867950297
30
4E-16
41
1
10
41.2436265612273
20
-5.54067752753409
30
4E-16
41
1
10
41.2464260236318
20
-5.54135838899396
30
4E-16
41
1
10
41.2492550893297
20
-5.54161015611146
30
4E-16
0
SPLINE
5
EE
100
AcDbEntity
8
1
62
256
6
ByLayer
370
-1
48
1
60
0
100
AcDbSpline
70
4
71
3
72
8
73
4
40
0
40
0
40
0
40
0
40
1
40
1
40
1
40
1
41
1
10
38.433424770411
20
8.47710824925622
30
2E-16
41
1
10
38.4699826623989
20
8.45499848225185
30
2E-16
41
1
10
38.5147696983373
20
8.4358105605501
30
2E-16
41
1
10
38.5656594504625
20
8.42442075990519
30
2E-16
0
SPLINE
5
EF
100
AcDbEntity
8
1
62
256
6
ByLayer
370
-1
48
1
60
0
100
AcDbSpline
70
4
71
3
72
10
73
6
40
0
40
0
40
0
40
0
40
0.527905940452969
40
0.527905940452969
40
1
40
1
40
1
40
1
41
1
10
44.0020926636164
20
2.85812490190167
30
1E-16
41
1
10
43.9752467757029
20
2.87284893039879
30
1E-16
41
1
10
43.9496186652611
20
2.88937496310197
30
1E-16
41
1
10
43.9032809411636
20
2.92413166813972
30
1E-16
41
1
10
43.8822874985262
20
2.94205071329853
30
1E-16
41
1
10
43.862225840937
20
2.96140537154724
30
1E-16
0
SPLINE
5
F0
100
AcDbEntity
8
1
62
256
6
ByLayer
370
-1
48
1
60
0
100
AcDbSpline
70
4
71
3
72
28
73
24
40
0
40
0
40
0
40
0
40
0.089373181677706
40
0.089373181677706
40
0.177630823340194
40
0.177630823340194
40
0.280641793095859
40
0.280641793095859
40
0.400158257488785
40
0.400158257488785
40
0.488178473312099
40
0.488178473312099
40
0.576356993858708
40
0.576356993858708
40
0.662715034095019
40
0.662715034095019
40
0.758894384475039
40
0.758894384475039
40
0.871841670482476
40
0.871841670482476
40
0.956731420774126
40
0.956731420774126
40
1
40
1
40
1
40
1
41
1
10
44.2506124448992
20
-5.25499113333586
30
-4E-16
41
1
10
44.2506124448992
20
-5.35253616807688
30
-4E-16
41
1
10
44.262834684248
20
-5.45402144421669
30
-4E-16
41
1
10
44.3081630085087
20
-5.64376366670962
30
-3E-16
41
1
10
44.3414305500501
20
-5.73486881747434
30
-3E-16
41
1
10
44.4327406352106
20
-5.91541125491349
30
-3E-16
41
1
10
44.4951703023005
20
-6.0045783934533
30
-3E-16
41
1
10
44.6545077109909
20
-6.16868468572576
30
-3E-16
41
1
10
44.7585345887987
20
-6.24190591741026
30
-3E-16
41
1
10
44.9597966081142
20
-6.32588007857137
30
-3E-16
41
1
10
45.0540237398976
20
-6.34868393943597
30
-3E-16
41
1
10
45.2453611573036
20
-6.36267061449871
30
-3E-16
41
1
10
45.3449529431799
20
-6.35393743280235
30
-3E-16
41
1
10
45.5330572416321
20
-6.30817422592432
30
-3E-16
41
1
10
45.6240314895922
20
-6.27135198726583
30
-3E-16
41
1
10
45.8000465351924
20
-6.17155639608572
30
-3E-16
41
1
10
45.8854664323499
20
-6.1050695263805
30
-3E-16
41
1
10
46.0460395274935
20
-5.94073912927203
30
-2E-16
41
1
10
46.1194600371612
20
-5.83702196787365
30
-2E-16
41
1
10
46.2133393634981
20
-5.63974381479952
30
-2E-16
41
1
10
46.2431283155163
20
-5.54780032402283
30
-2E-16
41
1
10
46.2660274921829
20
-5.40698829923374
30
-2E-16
41
1
10
46.270035022788
20
-5.35843384944198
30
-2E-16
41
1
10
46.270035022788
20
-5.31050234925388
30
-2E-16
0
SPLINE
5
F1
100
AcDbEntity
8
1
62
256
6
ByLayer
370
-1
48
1
60
0
100
AcDbSpline
70
4
71
3
72
10
73
6
40
0
40
0
40
0
40
0
40
0.695728223372038
40
0.695728223372038
40
1
40
1
40
1
40
1
41
1
10
39.9533811716685
20
-7.99153239813543
30
3E-16
41
1
10
39.9302176172753
20
-8.01339891834297
30
3E-16
41
1
10
39.9157090461023
20
-8.03567389259439
30
3E-16
41
1
10
39.9083654369977
20
-8.06705168764663
30
3E-16
41
1
10
39.9078881304151
20
-8.07660336170952
30
3E-16
41
1
10
39.9091856644672
20
-8.08603645675481
30
3E-16
0
SPLINE
5
F2
100
AcDbEntity
8
1
62
256
6
ByLayer
370
-1
48
1
60
0
100
AcDbSpline
70
4
71
3
72
16
73
12
40
0
40
0
40
0
40
0
40
0.0610306055873264
40
0.0610306055873264
40
0.250742806705029
40
0.250742806705029
40
0.529215481368264
40
0.529215481368264
40
0.811088131947553
40
0.811088131947553
40
1
40
1
40
1
40
1
41
1
10
28.1381693178446
20
8.765787082515
30
0
41
1
10
28.1649742996996
20
8.7532831608398
30
0
41
1
10
28.1945463156838
20
8.74064914968255
30
0
41
1
10
28.3260661464585
20
8.68883849629518
30
0
41
1
10
28.4508504034436
20
8.64913305282676
30
0
41
1
10
28.7930876041227
20
8.5593701860015
30
0
41
1
10
29.0320449442192
20
8.51164859146976
30
0
41
1
10
29.5373118651605
20
8.43947294938411
30
1E-16
41
1
10
29.8103448135983
20
8.41435609638125
30
1E-16
41
1
10
30.268348759827
20
8.39585760065793
30
1E-16
41
1
10
30.4547352932337
20
8.39455811186934
30
1E-16
41
1
10
30.6390585717797
20
8.39951629712553
30
1E-16
0
SPLINE
5
F3
100
AcDbEntity
8
1
62
256
6
ByLayer
370
-1
48
1
60
0
100
AcDbSpline
70
4
71
3
72
10
73
6
40
0
40
0
40
0
40
0
40
0.917969117149015
40
0.917969117149015
40
1
40
1
40
1
40
1
41
1
10
38.4334247704109
20
-8.47710824925653
30
2E-16
41
1
10
38.378783267704
20
-8.51015476337233
30
2E-16
41
1
10
38.3401530957037
20
-8.54527086533511
30
2E-16
41
1
10
38.3189058968904
20
-8.58197699098412
30
2E-16
41
1
10
38.3172938884572
20
-8.58501369126455
30
2E-16
41
1
10
38.3158329041208
20
-8.58804086796457
30
2E-16
0
SPLINE
5
F4
100
AcDbEntity
8
1
62
256
6
ByLayer
370
-1
48
1
60
0
100
AcDbSpline
70
4
71
3
72
10
73
6
40
0
40
0
40
0
40
0
40
0.178443368648798
40
0.178443368648798
40
1
40
1
40
1
40
1
41
1
10
44.0307208489963
20
-5.78832201212632
30
-4E-16
41
1
10
44.0194195241956
20
-5.74962557183949
30
-4E-16
41
1
10
44.009401600265
20
-5.71045521865344
30
-4E-16
41
1
10
43.960201589293
20
-5.48937684024244
30
-4E-16
41
1
10
43.9451494915793
20
-5.29872289978209
30
-4E-16
41
1
10
43.9494918494861
20
-5.10565943045177
30
-4E-16
0
SPLINE
5
F5
100
AcDbEntity
8
1
62
256
6
ByLayer
370
-1
48
1
60
0
100
AcDbSpline
70
4
71
3
72
18
73
14
40
0
40
0
40
0
40
0
40
0.0872973106983423
40
0.0872973106983423
40
0.542504713769244
40
0.542504713769244
40
0.7000492377343
40
0.7000492377343
40
0.859641035571737
40
0.859641035571737
40
0.970800525640296
40
0.970800525640296
40
1
40
1
40
1
40
1
41
1
10
4.66339745962154
20
5.06861858311157
30
8E-16
41
1
10
4.66664048724546
20
5.05669118210801
30
8E-16
41
1
10
4.67011875476442
20
5.04481392106391
30
8E-16
41
1
10
4.69320396133114
20
4.97182102384306
30
8E-16
41
1
10
4.71929050879203
20
4.91100060572387
30
8E-16
41
1
10
4.77107527248015
20
4.83986869632031
30
8E-16
41
1
10
4.78620198735476
20
4.82232975779147
30
8E-16
41
1
10
4.82059850439146
20
4.79137868546437
30
8E-16
41
1
10
4.84035202645154
20
4.77770433946446
30
8E-16
41
1
10
4.87713528116666
20
4.76194246224028
30
8E-16
41
1
10
4.89353665034179
20
4.75754333105158
30
8E-16
41
1
10
4.91442266320465
20
4.75566124800994
30
8E-16
41
1
10
4.91881627021674
20
4.75546271781741
30
8E-16
41
1
10
4.92320508075687
20
4.75546271781741
30
8E-16
0
SPLINE
5
F6
100
AcDbEntity
8
1
62
256
6
ByLayer
370
-1
48
1
60
0
100
AcDbSpline
70
4
71
3
72
8
73
4
40
0
40
0
40
0
40
0
40
1
40
1
40
1
40
1
41
1
10
38.4334247704109
20
2.75132331002985
30
-7E-16
41
1
10
37.9906005881917
20
2.83949285316754
30
-7E-16
41
1
10
37.5511715280111
20
2.94458190195473
30
-8E-16
41
1
10
37.1175148358117
20
3.06576713913122
30
-8E-16
0
SPLINE
5
F7
100
AcDbEntity
8
1
62
256
6
ByLayer
370
-1
48
1
60
0
100
AcDbSpline
70
4
71
3
72
14
73
10
40
0
40
0
40
0
40
0
40
0.178566336470652
40
0.178566336470652
40
0.475955269190287
40
0.475955269190287
40
0.770628548114927
40
0.770628548114927
40
1
40
1
40
1
40
1
41
1
10
44.0020926636164
20
2.85812490190167
30
1E-16
41
1
10
44.0749238369868
20
2.81786033769276
30
1E-16
41
1
10
44.1521819241355
20
2.78494181594587
30
1E-16
41
1
10
44.3637673172626
20
2.71928657045407
30
1E-16
41
1
10
44.5052223971658
20
2.70052988273412
30
1E-16
41
1
10
44.7824014375049
20
2.71015899534032
30
-1E-16
41
1
10
44.9219370574519
20
2.73824752034463
30
-1E-16
41
1
10
45.152447079178
20
2.82585965937253
30
-1E-16
41
1
10
45.2493789503111
20
2.87778637345167
30
-1E-16
41
1
10
45.3372274813804
20
2.94080963089257
30
-1E-16
0
SPLINE
5
F8
100
AcDbEntity
8
1
62
256
6
ByLayer
370
-1
48
1
60
0
100
AcDbSpline
70
4
71
3
72
10
73
6
40
0
40
0
40
0
40
0
40
0.432357485088922
40
0.432357485088922
40
1
40
1
40
1
40
1
41
1
10
49.0984152244758
20
2.8289210064431
30
-1E-16
41
1
10
49.1163588844601
20
2.82293704613954
30
-1E-16
41
1
10
49.1306710893171
20
2.81643822168971
30
-1E-16
41
1
10
49.154629368707
20
2.80056026773781
30
-1E-16
41
1
10
49.16156413
20
2.7908108921151
30
-1E-16
41
1
10
49.16156413
20
2.78067837407562
30
-1E-16
0
SPLINE
5
F9
100
AcDbEntity
8
1
62
256
6
ByLayer
370
-1
48
1
60
0
100
AcDbSpline
70
4
71
3
72
8
73
4
40
0
40
0
40
0
40
0
40
1
40
1
40
1
40
1
41
1
10
38.4334247704109
20
-8.47710824925656
30
2E-16
41
1
10
38.4699826623988
20
-8.45499848225217
30
2E-16
41
1
10
38.5147696983373
20
-8.43581056055041
30
2E-16
41
1
10
38.5656594504625
20
-8.4244207599055
30
2E-16
0
SPLINE
5
FA
100
AcDbEntity
8
1
62
256
6
ByLayer
370
-1
48
1
60
0
100
AcDbSpline
70
4
71
3
72
12
73
8
40
0
40
0
40
0
40
0
40
0.405780025071509
40
0.405780025071509
40
0.812675506212812
40
0.812675506212812
40
1
40
1
40
1
40
1
41
1
10
41.2492550893284
20
-7.82128177943602
30
4E-16
41
1
10
41.4230820241576
20
-7.83615952154844
30
4E-16
41
1
10
41.5950858036311
20
-7.8674095644464
30
4E-16
41
1
10
41.9080494505583
20
-7.9565682757293
30
4E-16
41
1
10
42.0532840474689
20
-8.01579379465963
30
4E-16
41
1
10
42.2289590368823
20
-8.11435965776084
30
4E-16
41
1
10
42.2797759769961
20
-8.1475196304518
30
4E-16
41
1
10
42.3246652810966
20
-8.18183458143446
30
4E-16
0
SPLINE
5
FB
100
AcDbEntity
8
1
62
256
6
ByLayer
370
-1
48
1
60
0
100
AcDbSpline
70
4
71
3
72
14
73
10
40
0
40
0
40
0
40
0
40
0.123327099102692
40
0.123327099102692
40
0.486216208453805
40
0.486216208453805
40
0.840606220223343
40
0.840606220223343
40
1
40
1
40
1
40
1
41
1
10
39.5171204924683
20
-8.4595816552463
30
-2E-16
41
1
10
39.4751242047689
20
-8.45008243341493
30
-2E-16
41
1
10
39.4326208552902
20
-8.44144172953662
30
-2E-16
41
1
10
39.2655311927858
20
-8.4113225512115
30
-2E-16
41
1
10
39.1377187144131
20
-8.39692434221089
30
-2E-16
41
1
10
38.9008599339619
20
-8.38713011191783
30
2E-16
41
1
10
38.7880250242601
20
-8.3911745003856
30
2E-16
41
1
10
38.6458363756491
20
-8.40869930499818
30
2E-16
41
1
10
38.6039651143205
20
-8.41584744491192
30
2E-16
41
1
10
38.5656594504625
20
-8.4244207599055
30
2E-16
0
SPLINE
5
FC
100
AcDbEntity
8
1
62
256
6
ByLayer
370
-1
48
1
60
0
100
AcDbSpline
70
4
71
3
72
10
73
6
40
0
40
0
40
0
40
0
40
0.436819482998397
40
0.436819482998397
40
1
40
1
40
1
40
1
41
1
10
40.0499721780363
20
2.64671958954858
30
1E-16
41
1
10
40.1611795120507
20
2.67153517481609
30
1E-16
41
1
10
40.2701519301017
20
2.70310000574307
30
1E-16
41
1
10
40.5119456742883
20
2.78795777911748
30
1E-16
41
1
10
40.64377194198
20
2.84521380399238
30
1E-16
41
1
10
40.7696572580413
20
2.9124653389398
30
1E-16
0
SPLINE
5
FD
100
AcDbEntity
8
1
62
256
6
ByLayer
370
-1
48
1
60
0
100
AcDbSpline
70
4
71
3
72
10
73
6
40
0
40
0
40
0
40
0
40
0.917969117152226
40
0.917969117152226
40
1
40
1
40
1
40
1
41
1
10
38.433424770411
20
8.47710824925622
30
2E-16
41
1
10
38.378783267704
20
8.51015476337199
30
2E-16
41
1
10
38.3401530957038
20
8.54527086533477
30
2E-16
41
1
10
38.3189058968905
20
8.58197699098366
30
2E-16
41
1
10
38.3172938884573
20
8.58501369126398
30
2E-16
41
1
10
38.315832904121
20
8.58804086796385
30
2E-16
0
SPLINE
5
FE
100
AcDbEntity
8
1
62
256
6
ByLayer
370
-1
48
1
60
0
100
AcDbSpline
70
4
71
3
72
8
73
4
40
0
40
0
40
0
40
0
40
1
40
1
40
1
40
1
41
1
10
28.1515060244956
20
-8.766901113476
30
0
41
1
10
28.069075019702
20
-8.86685522186571
30
0
41
1
10
28.010420065267
20
-8.93665924681048
30
0
41
1
10
27.9738500485368
20
-8.97481923941925
30
0
0
SPLINE
5
FF
100
AcDbEntity
8
1
62
256
6
ByLayer
370
-1
48
1
60
0
100
AcDbSpline
70
4
71
3
72
8
73
4
40
0
40
0
40
0
40
0
40
1
40
1
40
1
40
1
41
1
10
27.9326706699326
20
-9.00893225913174
30
0
41
1
10
27.9187552747195
20
-9.01106600501043
30
0
41
1
10
27.9327398209312
20
-8.97029581621203
30
0
41
1
10
27.9720580530638
20
-8.88435463231599
30
0
0
SPLINE
5
100
100
AcDbEntity
8
1
62
256
6
ByLayer
370
-1
48
1
60
0
100
AcDbSpline
70
4
71
3
72
8
73
4
40
0
40
0
40
0
40
0
40
1
40
1
40
1
40
1
41
1
10
38.433424770411
20
2.75132331002956
30
-7E-16
41
1
10
38.4770853332767
20
2.74263017167902
30
-7E-16
41
1
10
38.5208013275134
20
2.7346310154085
30
-7E-16
41
1
10
38.5637433524796
20
2.72746897364095
30
-7E-16
0
SPLINE
5
101
100
AcDbEntity
8
1
62
256
6
ByLayer
370
-1
48
1
60
0
100
AcDbSpline
70
4
71
3
72
16
73
12
40
0
40
0
40
0
40
0
40
0.082451084657159
40
0.082451084657159
40
0.188383068428376
40
0.188383068428376
40
0.365472907848032
40
0.365472907848032
40
0.680803291610382
40
0.680803291610382
40
1
40
1
40
1
40
1
41
1
10
4.92320508075692
20
15.2769622091384
30
-1E-16
41
1
10
4.91089649083547
20
15.2769622091384
30
-1E-16
41
1
10
4.89849486249385
20
15.2764645420422
30
-1E-16
41
1
10
4.87125637552428
20
15.2743206039303
30
-1E-16
41
1
10
4.85646478450171
20
15.2723664954751
30
-1E-16
41
1
10
4.82023312564895
20
15.2658799044771
30
-1E-16
41
1
10
4.80022243273466
20
15.2604302192602
30
-1E-16
41
1
10
4.75215970503025
20
15.2437803206193
30
-1E-16
41
1
10
4.72849000125775
20
15.2311047294618
30
-1E-16
41
1
10
4.69009643205955
20
15.204578913768
30
-1E-16
41
1
10
4.67520403045442
20
15.1904412165635
30
-1E-16
41
1
10
4.66339745962158
20
15.1759383782002
30
-1E-16
0
SPLINE
5
102
100
AcDbEntity
8
1
62
256
6
ByLayer
370
-1
48
1
60
0
100
AcDbSpline
70
4
71
3
72
16
73
12
40
0
40
0
40
0
40
0
40
0.221114122689047
40
0.221114122689047
40
0.442719676785113
40
0.442719676785113
40
0.660157946737927
40
0.660157946737927
40
0.86324974273021
40
0.86324974273021
40
1
40
1
40
1
40
1
41
1
10
41.1687559488426
20
-7.81273937508669
30
3E-16
41
1
10
40.9942041046471
20
-7.79056055734665
30
3E-16
41
1
10
40.8178465289775
20
-7.78494713435245
30
3E-16
41
1
10
40.4898750233452
20
-7.80705824637639
30
3E-16
41
1
10
40.3337221148129
20
-7.83517060241891
30
3E-16
41
1
10
40.0692475550302
20
-7.91793591493192
30
3E-16
41
1
10
39.9562594198287
20
-7.97329572282337
30
3E-16
41
1
10
39.7967764392986
20
-8.09561875606707
30
3E-16
41
1
10
39.744239716652
20
-8.16330278586338
30
3E-16
41
1
10
39.7076147117638
20
-8.27902586004242
30
3E-16
41
1
10
39.7063405686042
20
-8.32711805810521
30
-2E-16
41
1
10
39.7186278351036
20
-8.37447740604051
30
-2E-16
0
SPLINE
5
103
100
AcDbEntity
8
1
62
256
6
ByLayer
370
-1
48
1
60
0
100
AcDbSpline
70
4
71
3
72
10
73
6
40
0
40
0
40
0
40
0
40
0.72045492344495
40
0.72045492344495
40
1
40
1
40
1
40
1
41
1
10
45.3663041487754
20
2.96229114005803
30
-1E-16
41
1
10
45.4000509394262
20
2.9850922100774
30
-1E-16
41
1
10
45.4334111924854
20
3.00955753524158
30
-1E-16
41
1
10
45.4787175415472
20
3.04582522226556
30
-1E-16
41
1
10
45.4912577080344
20
3.05619837390316
30
-1E-16
41
1
10
45.503689544329
20
3.06683565833197
30
-1E-16
0
SPLINE
5
104
100
AcDbEntity
8
1
62
256
6
ByLayer
370
-1
48
1
60
0
100
AcDbSpline
70
4
71
3
72
8
73
4
40
0
40
0
40
0
40
0
40
1
40
1
40
1
40
1
41
1
10
38.1048551281608
20
3.41283628609963
30
-1E-16
41
1
10
38.1047860897318
20
3.41289739948982
30
-1E-16
41
1
10
38.1047170569977
20
3.41295851946575
30
-1E-16
41
1
10
38.1046480299598
20
3.41301964602576
30
-1E-16
0
SPLINE
5
105
100
AcDbEntity
8
1
62
256
6
ByLayer
370
-1
48
1
60
0
100
AcDbSpline
70
4
71
3
72
16
73
12
40
0
40
0
40
0
40
0
40
0.0824510846571644
40
0.0824510846571644
40
0.188383068428397
40
0.188383068428397
40
0.36547290784806
40
0.36547290784806
40
0.680803291610441
40
0.680803291610441
40
1
40
1
40
1
40
1
41
1
10
7.0767949192431
20
4.75546271781741
30
-9E-16
41
1
10
7.08910350916454
20
4.75546271781741
30
-9E-16
41
1
10
7.10150513750617
20
4.75706222436474
30
-9E-16
41
1
10
7.12874362447573
20
4.76394233360941
30
-8E-16
41
1
10
7.1435352154983
20
4.77020840137882
30
-8E-16
41
1
10
7.17976687435106
20
4.7909388111793
30
-8E-16
41
1
10
7.19977756726536
20
4.80829129424828
30
-8E-16
41
1
10
7.24784029496976
20
4.86090601671901
30
-8E-16
41
1
10
7.27150999874226
20
4.9005381934553
30
-8E-16
41
1
10
7.30990356794047
20
4.98223274168723
30
-8E-16
41
1
10
7.32479596954559
20
5.02519567059582
30
-8E-16
41
1
10
7.33660254037841
20
5.06861858311152
30
-8E-16
0
SPLINE
5
106
100
AcDbEntity
8
1
62
256
6
ByLayer
370
-1
48
1
60
0
100
AcDbSpline
70
4
71
3
72
18
73
14
40
0
40
0
40
0
40
0
40
0.079480984857844
40
0.079480984857844
40
0.223998591027689
40
0.223998591027689
40
0.380784250115827
40
0.380784250115827
40
0.610925071728158
40
0.610925071728158
40
0.843875767780518
40
0.843875767780518
40
1
40
1
40
1
40
1
41
1
10
27.9720580530638
20
-8.88435463231605
30
0
41
1
10
27.9792656822826
20
-8.86860030780684
30
0
41
1
10
27.9952266402999
20
-8.85141468236256
30
0
41
1
10
28.0630758995831
20
-8.80052249238864
30
0
41
1
10
28.1348731694913
20
-8.76415666695763
30
0
41
1
10
28.3260661464585
20
-8.6888384962954
30
0
41
1
10
28.4508504034436
20
-8.64913305282701
30
0
41
1
10
28.7930876041227
20
-8.55937018600176
30
0
41
1
10
29.0320449442192
20
-8.51164859146999
30
0
41
1
10
29.5373118651605
20
-8.43947294938434
30
1E-16
41
1
10
29.8103448135983
20
-8.41435609638148
30
1E-16
41
1
10
30.268348759827
20
-8.39585760065816
30
1E-16
41
1
10
30.4547352932336
20
-8.39455811186957
30
1E-16
41
1
10
30.6390585717796
20
-8.39951629712576
30
1E-16
0
SPLINE
5
107
100
AcDbEntity
8
1
62
256
6
ByLayer
370
-1
48
1
60
0
100
AcDbSpline
70
4
71
3
72
16
73
12
40
0
40
0
40
0
40
0
40
0.0824510846571626
40
0.0824510846571626
40
0.188383068428399
40
0.188383068428399
40
0.365472907848057
40
0.365472907848057
40
0.680803291610423
40
0.680803291610423
40
1
40
1
40
1
40
1
41
1
10
7.07679491924308
20
-15.2769622091387
30
0
41
1
10
7.08910350916453
20
-15.2769622091387
30
0
41
1
10
7.10150513750615
20
-15.2764645420424
30
0
41
1
10
7.12874362447572
20
-15.2743206039306
30
0
41
1
10
7.14353521549829
20
-15.2723664954753
30
0
41
1
10
7.17976687435105
20
-15.2658799044774
30
0
41
1
10
7.19977756726534
20
-15.2604302192605
30
0
41
1
10
7.24784029496975
20
-15.2437803206196
30
0
41
1
10
7.27150999874223
20
-15.2311047294621
30
0
41
1
10
7.30990356794044
20
-15.2045789137683
30
1E-16
41
1
10
7.32479596954558
20
-15.1904412165638
30
1E-16
41
1
10
7.33660254037839
20
-15.1759383782005
30
1E-16
0
SPLINE
5
108
100
AcDbEntity
8
1
62
256
6
ByLayer
370
-1
48
1
60
0
100
AcDbSpline
70
4
71
3
72
8
73
4
40
0
40
0
40
0
40
0
40
1
40
1
40
1
40
1
41
1
10
48.3581280747467
20
-6.16874181781768
30
-1E-16
41
1
10
47.8301798344793
20
-6.12259660554034
30
-1E-16
41
1
10
47.3021968783426
20
-6.07634775296114
30
-2E-16
41
1
10
46.7741823842864
20
-6.02999898275201
30
-2E-16
0
SPLINE
5
109
100
AcDbEntity
8
1
62
256
6
ByLayer
370
-1
48
1
60
0
100
AcDbSpline
70
4
71
3
72
18
73
14
40
0
40
0
40
0
40
0
40
0.108244825709385
40
0.108244825709385
40
0.33299620597737
40
0.33299620597737
40
0.545839635880957
40
0.545839635880957
40
0.750631074726019
40
0.750631074726019
40
0.953337575762593
40
0.953337575762593
40
1
40
1
40
1
40
1
41
1
10
49.16156413
20
-7.95063699904725
30
-1E-16
41
1
10
49.16156413
20
-7.99587805274996
30
-1E-16
41
1
10
49.1578621281973
20
-8.0411746827501
30
-1E-16
41
1
10
49.1350875855601
20
-8.17743241588192
30
-1E-16
41
1
10
49.1030442145334
20
-8.26754743170937
30
-1E-16
41
1
10
49.0124504255499
20
-8.42300058665589
30
-1E-16
41
1
10
48.9540704399582
20
-8.49157028473718
30
-1E-16
41
1
10
48.8211013105866
20
-8.59982386629434
30
-1E-16
41
1
10
48.7453817518304
20
-8.64197895438917
30
-1E-16
41
1
10
48.5865846856676
20
-8.69714708207599
30
-1E-16
41
1
10
48.5014736486499
20
-8.71121180303666
30
-1E-16
41
1
10
48.3974763573642
20
-8.7111378223295
30
-1E-16
41
1
10
48.3777772390306
20
-8.71037646332019
30
-1E-16
41
1
10
48.358128074746
20
-8.70887754643331
30
-1E-16
0
SPLINE
5
10A
100
AcDbEntity
8
1
62
256
6
ByLayer
370
-1
48
1
60
0
100
AcDbSpline
70
4
71
3
72
8
73
4
40
0
40
0
40
0
40
0
40
1
40
1
40
1
40
1
41
1
10
42.9932390223279
20
2.44924539717471
30
-4E-16
41
1
10
41.5067187961549
20
2.35643818271754
30
-5E-16
41
1
10
40.0300940536582
20
2.44884679510986
30
-6E-16
41
1
10
38.5637433524796
20
2.72746897364095
30
-7E-16
0
SPLINE
5
10B
100
AcDbEntity
8
1
62
256
6
ByLayer
370
-1
48
1
60
0
100
AcDbSpline
70
4
71
3
72
8
73
4
40
0
40
0
40
0
40
0
40
1
40
1
40
1
40
1
41
1
10
38.5656594504624
20
2.72111815752035
30
-7E-16
41
1
10
39.3735687483995
20
0.0235333453347266
30
-7E-16
41
1
10
40.3389398849406
20
-2.99392359470619
30
-6E-16
41
1
10
41.1687559488314
20
-5.42124315837927
30
3E-16
0
SPLINE
5
10C
100
AcDbEntity
8
1
62
256
6
ByLayer
370
-1
48
1
60
0
100
AcDbSpline
70
4
71
3
72
8
73
4
40
0
40
0
40
0
40
0
40
1
40
1
40
1
40
1
41
1
10
38.5656594504626
20
2.72111815752038
30
-7E-16
41
1
10
38.5650250177673
20
2.72323650918102
30
-7E-16
41
1
10
38.564386373714
20
2.72535347079511
30
-7E-16
41
1
10
38.5637433524796
20
2.72746897364092
30
-7E-16
0
SPLINE
5
10D
100
AcDbEntity
8
1
62
256
6
ByLayer
370
-1
48
1
60
0
100
AcDbSpline
70
4
71
3
72
10
73
6
40
0
40
0
40
0
40
0
40
0.363940738598384
40
0.363940738598384
40
1
40
1
40
1
40
1
41
1
10
40.0171491454506
20
2.87739781431219
30
-2E-16
41
1
10
40.041003873995
20
2.88300218768706
30
-2E-16
41
1
10
40.0690340555089
20
2.88610756520245
30
-2E-16
41
1
10
40.1558941395976
20
2.8868890615353
30
3E-16
41
1
10
40.2236204038865
20
2.87844892445696
30
3E-16
41
1
10
40.2983076730901
20
2.86408454550235
30
3E-16
0
SPLINE
5
10E
100
AcDbEntity
8
1
62
256
6
ByLayer
370
-1
48
1
60
0
100
AcDbSpline
70
4
71
3
72
8
73
4
40
0
40
0
40
0
40
0
40
1
40
1
40
1
40
1
41
1
10
45.3508981913029
20
2.94862644897739
30
2E-16
41
1
10
45.3564189673122
20
2.95650881169507
30
2E-16
41
1
10
45.3621472059056
20
2.96470854918456
30
2E-16
41
1
10
45.3680233394098
20
2.97319735599425
30
2E-16
0
SPLINE
5
10F
100
AcDbEntity
8
1
62
256
6
ByLayer
370
-1
48
1
60
0
100
AcDbSpline
70
4
71
3
72
10
73
6
40
0
40
0
40
0
40
0
40
0.661182725166316
40
0.661182725166316
40
1
40
1
40
1
40
1
41
1
10
40.047888200605
20
2.52273024806476
30
1E-16
41
1
10
40.8252042856239
20
2.61216800927988
30
1E-16
41
1
10
41.6054983237203
20
2.67366743107627
30
-1E-16
41
1
10
42.7835614492256
20
2.76522130197185
30
0
41
1
10
43.1828090436557
20
2.79556737793797
30
0
41
1
10
43.5820589925683
20
2.82605265512171
30
1E-16
0
SPLINE
5
110
100
AcDbEntity
8
1
62
256
6
ByLayer
370
-1
48
1
60
0
100
AcDbSpline
70
4
71
3
72
12
73
8
40
0
40
0
40
0
40
0
40
0.317437590808877
40
0.317437590808877
40
0.788245164357937
40
0.788245164357937
40
1
40
1
40
1
40
1
41
1
10
39.2617503079265
20
8.41363985391038
30
-2E-16
41
1
10
39.1791509291673
20
8.40258862103488
30
-2E-16
41
1
10
39.0967830018738
20
8.39523162980595
30
-1E-16
41
1
10
38.9008599339619
20
8.38713011191751
30
2E-16
41
1
10
38.7880250242601
20
8.39117450038529
30
2E-16
41
1
10
38.6458363756491
20
8.40869930499787
30
2E-16
41
1
10
38.6039651143205
20
8.41584744491161
30
2E-16
41
1
10
38.5656594504625
20
8.42442075990519
30
2E-16
0
SPLINE
5
111
100
AcDbEntity
8
1
62
256
6
ByLayer
370
-1
48
1
60
0
100
AcDbSpline
70
4
71
3
72
10
73
6
40
0
40
0
40
0
40
0
40
0.535118149049155
40
0.535118149049155
40
1
40
1
40
1
40
1
41
1
10
38.904585037933
20
2.67434654643759
30
0
41
1
10
38.7864450745996
20
2.71524624132292
30
0
41
1
10
38.6734380134269
20
2.7710073329234
30
0
41
1
10
38.4845601369098
20
2.90087678554019
30
0
41
1
10
38.4042196628027
20
2.97241236079552
30
0
41
1
10
38.3341600559139
20
3.05212734066248
30
0
0
SPLINE
5
112
100
AcDbEntity
8
1
62
256
6
ByLayer
370
-1
48
1
60
0
100
AcDbSpline
70
4
71
3
72
18
73
14
40
0
40
0
40
0
40
0
40
0.03125
40
0.03125
40
0.0625
40
0.0625
40
0.125
40
0.125
40
0.25
40
0.25
40
0.5
40
0.5
40
1
40
1
40
1
40
1
41
1
10
48.3581280747467
20
-6.16874181781776
30
-1E-16
41
1
10
48.4609562663683
20
-6.17772949571415
30
-1E-16
41
1
10
48.4728924394094
20
-6.04554922534345
30
-1E-16
41
1
10
48.5255093496561
20
-5.88901436722779
30
-1E-16
41
1
10
48.5456331971227
20
-5.80836487704119
30
-1E-16
41
1
10
48.6001100993194
20
-5.5639962361227
30
-1E-16
41
1
10
48.6279028076563
20
-5.3966165384108
30
-1E-16
41
1
10
48.7033697186744
20
-4.8830827950444
30
-1E-16
41
1
10
48.7416405043928
20
-4.52658202724004
30
-1E-16
41
1
10
48.8431391326752
20
-3.43594173414198
30
-1E-16
41
1
10
48.8926214649973
20
-2.66845902889381
30
-1E-16
41
1
10
49.018200707247
20
-0.294692496933152
30
-1E-16
41
1
10
49.0664413772835
20
1.32888510714503
30
-1E-16
41
1
10
49.098415224477
20
2.82892100642599
30
-1E-16
0
SPLINE
5
113
100
AcDbEntity
8
1
62
256
6
ByLayer
370
-1
48
1
60
0
100
AcDbSpline
70
4
71
3
72
14
73
10
40
0
40
0
40
0
40
0
40
0.27551662004667
40
0.27551662004667
40
0.55103324009334
40
0.55103324009334
40
0.826549860140011
40
0.826549860140011
40
1
40
1
40
1
40
1
41
1
10
36.6382448738376
20
3.19953750599313
30
-8E-16
41
1
10
35.3136717669994
20
3.56879493020298
30
9E-16
41
1
10
34.0708432964548
20
4.08894373552255
30
8E-16
41
1
10
31.7704928133646
20
5.37769267701918
30
-2E-16
41
1
10
30.740769514504
20
6.14422443151719
30
-3E-16
41
1
10
29.134474034766
20
7.59345429182164
30
-4E-16
41
1
10
28.5714893339495
20
8.25572891142957
30
0
41
1
10
28.0605449379789
20
8.87776948315525
30
0
41
1
10
27.9563206569385
20
9.00530388321332
30
0
41
1
10
27.932671292021
20
9.00893216371654
30
0
0
SPLINE
5
114
100
AcDbEntity
8
SK1
62
256
6
ByLayer
370
-1
48
1
60
0
100
AcDbSpline
70
4
71
3
72
8
73
4
40
0
40
0
40
0
40
0
40
1
40
1
40
1
40
1
41
1
10
-1.30710678118655
20
3.27410008506499
30
4E-16
41
1
10
-1.37418676031891
20
2.96137403161106
30
4E-16
41
1
10
-1.43992527842408
20
2.63918719547098
30
4E-16
41
1
10
-1.5
20
2.30830602436768
30
4E-16
0
SPLINE
5
115
100
AcDbEntity
8
SK1
62
256
6
ByLayer
370
-1
48
1
60
0
100
AcDbSpline
70
4
71
3
72
26
73
22
40
0
40
0
40
0
40
0
40
0.449738132477955
40
0.449738132477955
40
0.664402002683402
40
0.664402002683402
40
0.773761220759601
40
0.773761220759601
40
0.856245095717807
40
0.856245095717807
40
0.897662328372348
40
0.897662328372348
40
0.917064952376814
40
0.917064952376814
40
0.936734615560887
40
0.936734615560887
40
0.954124174419599
40
0.954124174419599
40
0.979939143819097
40
0.979939143819097
40
1
40
1
40
1
40
1
41
1
10
-0.200000000000031
20
-5.19704273475753
30
5E-16
41
1
10
-0.200000000000031
20
-5.07975410009715
30
5E-16
41
1
10
-0.203466682130625
20
-4.96017714586699
30
5E-16
41
1
10
-0.221693360550049
20
-4.78102610938959
30
5E-16
41
1
10
-0.229560955902429
20
-4.7225345621093
30
5E-16
41
1
10
-0.248699491321432
20
-4.63442555966759
30
5E-16
41
1
10
-0.256413494564128
20
-4.60458658946627
30
5E-16
41
1
10
-0.274681296242633
20
-4.55329063876366
30
5E-16
41
1
10
-0.284007523646267
20
-4.5311950823008
30
5E-16
41
1
10
-0.303744106160408
20
-4.5009859453867
30
5E-16
41
1
10
-0.311509525681416
20
-4.49116741345242
30
5E-16
41
1
10
-0.325471651806765
20
-4.47968016512078
30
5E-16
41
1
10
-0.330427279763057
20
-4.47641864212318
30
5E-16
41
1
10
-0.34100664207098
20
-4.47160789536801
30
5E-16
41
1
10
-0.346789289837659
20
-4.47005622337593
30
5E-16
41
1
10
-0.357501713211306
20
-4.46925266598632
30
5E-16
41
1
10
-0.362570628376432
20
-4.46973139878205
30
5E-16
41
1
10
-0.374383227259841
20
-4.47254618031192
30
5E-16
41
1
10
-0.380971575520647
20
-4.47565191427915
30
5E-16
41
1
10
-0.391577664442764
20
-4.4823482837036
30
5E-16
41
1
10
-0.395922839313982
20
-4.48572633284795
30
5E-16
41
1
10
-0.400000000000148
20
-4.48934893107329
30
5E-16
0
SPLINE
5
116
100
AcDbEntity
8
SK1
62
256
6
ByLayer
370
-1
48
1
60
0
100
AcDbSpline
70
4
71
3
72
24
73
20
40
0
40
0
40
0
40
0
40
0.394887530671275
40
0.394887530671275
40
0.583923275334675
40
0.583923275334675
40
0.775640263639323
40
0.775640263639323
40
0.824781731617119
40
0.824781731617119
40
0.862517656538363
40
0.862517656538363
40
0.89426261244368
40
0.89426261244368
40
0.925906833096297
40
0.925906833096297
40
0.974831011730868
40
0.974831011730868
40
1
40
1
40
1
40
1
41
1
10
-1.30710678118655
20
3.27410008506496
30
4E-16
41
1
10
-1.25832942599462
20
3.50149952651373
30
4E-16
41
1
10
-1.19991064580014
20
3.7234666411141
30
4E-16
41
1
10
-1.08384884657397
20
4.03707714370552
30
4E-16
41
1
10
-1.04153791965378
20
4.13675427692144
30
4E-16
41
1
10
-0.938254289261693
20
4.32801751486141
30
4E-16
41
1
10
-0.878155607060577
20
4.42371753851685
30
4E-16
41
1
10
-0.767111712667401
20
4.51729029260741
30
4E-16
41
1
10
-0.741708507810927
20
4.53512787407621
30
4E-16
41
1
10
-0.691958906630077
20
4.55987158851008
30
4E-16
41
1
10
-0.668248724766485
20
4.56845950218971
30
5E-16
41
1
10
-0.622857383271423
20
4.57708046005277
30
5E-16
41
1
10
-0.600993180994863
20
4.57825352233763
30
5E-16
41
1
10
-0.558658423255935
20
4.57453349365289
30
5E-16
41
1
10
-0.537724143555621
20
4.56966479399486
30
5E-16
41
1
10
-0.488248270422417
20
4.55200346897212
30
5E-16
41
1
10
-0.460806462020528
20
4.53627234602408
30
5E-16
41
1
10
-0.42357003405435
20
4.50937867037388
30
5E-16
41
1
10
-0.411500153524855
20
4.49956715918458
30
5E-16
41
1
10
-0.400000000000034
20
4.48934914533064
30
5E-16
0
SPLINE
5
117
100
AcDbEntity
8
SK1
62
256
6
ByLayer
370
-1
48
1
60
0
100
AcDbSpline
70
4
71
3
72
24
73
20
40
0
40
0
40
0
40
0
40
0.0288407257317729
40
0.0288407257317729
40
0.0509955919663402
40
0.0509955919663402
40
0.068389814586215
40
0.068389814586215
40
0.0857973114187237
40
0.0857973114187237
40
0.109377904005686
40
0.109377904005686
40
0.151277300634713
40
0.151277300634713
40
0.282099488990446
40
0.282099488990446
40
0.823874497013245
40
0.823874497013245
40
1
40
1
40
1
40
1
41
1
10
-0.400000000000034
20
4.48934914533064
30
5E-16
41
1
10
-0.394116473092879
20
4.48412156647115
30
5E-16
41
1
10
-0.387649558798643
20
4.47936666342227
30
5E-16
41
1
10
-0.375020695476763
20
4.47300024936555
30
5E-16
41
1
10
-0.369015733581691
20
4.47088976573122
30
5E-16
41
1
10
-0.357819037006692
20
4.46928378990077
30
5E-16
41
1
10
-0.352620795543132
20
4.46933783003249
30
5E-16
41
1
10
-0.342504208041206
20
4.47118331490225
30
5E-16
41
1
10
-0.337472714781057
20
4.47299443494006
30
5E-16
41
1
10
-0.326559027546438
20
4.47870654294005
30
5E-16
41
1
10
-0.320811012640007
20
4.48316238354079
30
5E-16
41
1
10
-0.3067126689985
20
4.4967705884205
30
5E-16
41
1
10
-0.299366502504768
20
4.50708193062843
30
5E-16
41
1
10
-0.273512837585713
20
4.55030240434641
30
5E-16
41
1
10
-0.261969797101401
20
4.58649632348275
30
5E-16
41
1
10
-0.213168679495283
20
4.7680249714864
30
5E-16
41
1
10
-0.206388298823157
20
4.91574806320784
30
5E-16
41
1
10
-0.200616563362615
20
5.10487240084439
30
5E-16
41
1
10
-0.200000000000358
20
5.15111693550293
30
5E-16
41
1
10
-0.200000000000031
20
5.19704283599538
30
5E-16
0
SPLINE
5
118
100
AcDbEntity
8
SK1
62
256
6
ByLayer
370
-1
48
1
60
0
100
AcDbSpline
70
4
71
3
72
8
73
4
40
0
40
0
40
0
40
0
40
1
40
1
40
1
40
1
41
1
10
-1.50000000000001
20
-2.30830715862393
30
4E-16
41
1
10
-1.4399256613476
20
-2.63918814774516
30
4E-16
41
1
10
-1.37418668570739
20
-2.96137434366074
30
4E-16
41
1
10
-1.30710678118675
20
-3.27410007766372
30
4E-16
0
SPLINE
5
119
100
AcDbEntity
8
SK1
62
256
6
ByLayer
370
-1
48
1
60
0
100
AcDbSpline
70
4
71
3
72
34
73
30
40
0
40
0
40
0
40
0
40
0.013869946113595
40
0.013869946113595
40
0.0615376971139902
40
0.0615376971139902
40
0.109189261114121
40
0.109189261114121
40
0.156830572311362
40
0.156830572311362
40
0.252358343228722
40
0.252358343228722
40
0.347829116957379
40
0.347829116957379
40
0.44327084923241
40
0.44327084923241
40
0.538699345849756
40
0.538699345849756
40
0.634126101529699
40
0.634126101529699
40
0.729562062531861
40
0.729562062531861
40
0.82502117525114
40
0.82502117525114
40
0.872655105311596
40
0.872655105311596
40
0.920293090025972
40
0.920293090025972
40
1
40
1
40
1
40
1
41
1
10
-1.69996579738208
20
-2.34399541728109
30
4E-16
41
1
10
-1.69996686313756
20
-2.41640598367133
30
4E-16
41
1
10
-1.69996789580708
20
-2.48843835386185
30
4E-16
41
1
10
-1.69997232375252
20
-2.80617464221743
30
4E-16
41
1
10
-1.6999753518283
20
-3.04785091887874
30
4E-16
41
1
10
-1.69998060299412
20
-3.52111771354703
30
4E-16
41
1
10
-1.69998283780743
20
-3.75308301404439
30
4E-16
41
1
10
-1.69998665823965
20
-4.20691759809472
30
4E-16
41
1
10
-1.69998824944769
20
-4.42906881485834
30
4E-16
41
1
10
-1.69999228100289
20
-5.08095958549058
30
4E-16
41
1
10
-1.69999399832388
20
-5.49674568755367
30
4E-16
41
1
10
-1.69999640677303
20
-6.28665686269235
30
4E-16
41
1
10
-1.69999709786963
20
-6.66206466504698
30
4E-16
41
1
10
-1.69999798189279
20
-7.37082826402681
30
4E-16
41
1
10
-1.69999817407844
20
-7.70515361426874
30
4E-16
41
1
10
-1.69999824533257
20
-8.33060082556548
30
4E-16
41
1
10
-1.69999812372994
20
-8.62251721821102
30
4E-16
41
1
10
-1.69999745591973
20
-9.1612893856327
30
4E-16
41
1
10
-1.69999690935444
20
-9.40881093991058
30
4E-16
41
1
10
-1.69999497540992
20
-9.85604515063568
30
-1E-16
41
1
10
-1.69999358833154
20
-10.0563309819065
30
-1E-16
41
1
10
-1.69998919708898
20
-10.405149635537
30
-1E-16
41
1
10
-1.69998618942941
20
-10.5541774341774
30
-1E-16
41
1
10
-1.69997952914251
20
-10.7345238916284
30
1E-16
41
1
10
-1.69997694129073
20
-10.7874883912929
30
0
41
1
10
-1.69997082738266
20
-10.8781161933102
30
0
41
1
10
-1.6999672899446
20
-10.9158197893437
30
1E-16
41
1
10
-1.69995622914708
20
-10.9944425651827
30
0
41
1
10
-1.69994759490554
20
-11.0208189246446
30
-1E-16
41
1
10
-1.69993649660591
20
-11.0201007972386
30
-1E-16
0
SPLINE
5
11A
100
AcDbEntity
8
SK1
62
256
6
ByLayer
370
-1
48
1
60
0
100
AcDbSpline
70
4
71
3
72
20
73
16
40
0
40
0
40
0
40
0
40
0.289591250207142
40
0.289591250207142
40
0.445641579471385
40
0.445641579471385
40
0.565150656188467
40
0.565150656188467
40
0.665669956959986
40
0.665669956959986
40
0.765874026691364
40
0.765874026691364
40
0.920609475720836
40
0.920609475720836
40
1
40
1
40
1
40
1
41
1
10
-0.899903122953759
20
-10.7840848927914
30
0
41
1
10
-0.868449172464409
20
-10.779726097951
30
0
41
1
10
-0.832767748820572
20
-10.7753004209351
30
0
41
1
10
-0.767668067718617
20
-10.7688851018167
30
0
41
1
10
-0.742170086684823
20
-10.766713932417
30
0
41
1
10
-0.692274786497379
20
-10.7636476309375
30
0
41
1
10
-0.668530490600389
20
-10.7625613907744
30
0
41
1
10
-0.623069166077144
20
-10.7614648455065
30
0
41
1
10
-0.60117031511497
20
-10.7613125350675
30
0
41
1
10
-0.558760887240553
20
-10.7617815137993
30
0
41
1
10
-0.5377858275683
20
-10.7623989525677
30
0
41
1
10
-0.488247839736019
20
-10.7646079926069
30
0
41
1
10
-0.460778861773306
20
-10.7665508551729
30
0
41
1
10
-0.423537546807509
20
-10.7697595930048
30
0
41
1
10
-0.411485089493141
20
-10.7709116409694
30
0
41
1
10
-0.40000000000002
20
-10.7720903270619
30
0
0
SPLINE
5
11B
100
AcDbEntity
8
SK1
62
256
6
ByLayer
370
-1
48
1
60
0
100
AcDbSpline
70
4
71
3
72
79
73
75
40
0
40
0
40
0
40
0
40
0.006402562031611
40
0.0205053431791328
40
0.0346081243266545
40
0.0487109054741763
40
0.062813686621698
40
0.0769164677692198
40
0.0910192489167415
40
0.105122030064263
40
0.119224811211785
40
0.133327592359307
40
0.147430373506828
40
0.16153315465435
40
0.175635935801872
40
0.189738716949394
40
0.203841498096916
40
0.217944279244437
40
0.232047060391959
40
0.246149841539481
40
0.260252622687002
40
0.274355403834524
40
0.288458184982046
40
0.302560966129568
40
0.31666374727709
40
0.330766528424611
40
0.344869309572133
40
0.358972090719655
40
0.373074871867176
40
0.387177653014698
40
0.40128043416222
40
0.415383215309742
40
0.429485996457263
40
0.443588777604785
40
0.457691558752307
40
0.471794339899829
40
0.48589712104735
40
0.499999902194872
40
0.514102683342394
40
0.528205464489916
40
0.542308245637437
40
0.556411026784959
40
0.570513807932481
40
0.584616589080003
40
0.598719370227524
40
0.612822151375046
40
0.626924932522568
40
0.64102771367009
40
0.655130494817611
40
0.669233275965133
40
0.683336057112655
40
0.697438838260177
40
0.711541619407698
40
0.72564440055522
40
0.739747181702742
40
0.753849962850264
40
0.767952743997785
40
0.782055525145307
40
0.796158306292829
40
0.810261087440351
40
0.824363868587872
40
0.838466649735394
40
0.852569430882916
40
0.866672212030438
40
0.880774993177959
40
0.894877774325481
40
0.908980555473003
40
0.923083336620525
40
0.937186117768046
40
0.951288898915568
40
0.96539168006309
40
0.979494461210612
40
0.993597242358133
40
1
40
1
40
1
40
1
41
1
10
-2.50000000000003
20
-10.8687930015268
30
-1E-16
41
1
10
-2.50000000000003
20
-10.8791624861706
30
-1E-16
41
1
10
-2.50000000000001
20
-10.9108648054226
30
-1E-16
41
1
10
-2.50000000000001
20
-10.9553895973622
30
-1E-16
41
1
10
-2.50000000000001
20
-10.9911639635894
30
-1E-16
41
1
10
-2.50000000000001
20
-11.0044183782411
30
-1E-16
41
1
10
-2.50000000000001
20
-10.9911623984964
30
-1E-16
41
1
10
-2.50000000000001
20
-10.9474686304739
30
0
41
1
10
-2.50000000000001
20
-10.8696664218332
30
0
41
1
10
-2.50000000000001
20
-10.7545189459149
30
0
41
1
10
-2.50000000000001
20
-10.5993939502379
30
-1E-16
41
1
10
-2.50000000000001
20
-10.4024076559293
30
-1E-16
41
1
10
-2.50000000000001
20
-10.162541663554
30
-1E-16
41
1
10
-2.50000000000001
20
-9.87972833820913
30
-1E-16
41
1
10
-2.50000000000001
20
-9.55489716738799
30
-1E-16
41
1
10
-2.50000000000001
20
-9.18998633548583
30
3E-16
41
1
10
-2.50000000000001
20
-8.78791023086691
30
3E-16
41
1
10
-2.50000000000001
20
-8.35249429791347
30
3E-16
41
1
10
-2.50000000000001
20
-7.88836739733665
30
3E-16
41
1
10
-2.50000000000001
20
-7.4008324972236
30
3E-16
41
1
10
-2.50000000000001
20
-6.89566660501015
30
3E-16
41
1
10
-2.50000000000001
20
-6.37905265294074
30
3E-16
41
1
10
-2.5
20
-5.85717357325993
30
3E-16
41
1
10
-2.5
20
-5.33621711079681
30
3E-16
41
1
10
-2.5
20
-4.8220479670336
30
3E-16
41
1
10
-2.5
20
-4.32005112408766
30
3E-16
41
1
10
-2.50000000000001
20
-3.83494636183192
30
3E-16
41
1
10
-2.50000000000001
20
-3.37063352515304
30
3E-16
41
1
10
-2.50000000000001
20
-2.93006538818378
30
3E-16
41
1
10
-2.50000000000001
20
-2.51515524052812
30
3E-16
41
1
10
-2.50000000000001
20
-2.12672322383341
30
3E-16
41
1
10
-2.50000000000001
20
-1.76448070218837
30
3E-16
41
1
10
-2.50000000000001
20
-1.42705867229631
30
3E-16
41
1
10
-2.50000000000001
20
-1.11207189529099
30
3E-16
41
1
10
-2.50000000000001
20
-0.816225686754706
30
3E-16
41
1
10
-2.50000000000001
20
-0.535450813753755
30
3E-16
41
1
10
-2.50000000000001
20
-0.265073199113118
30
3E-16
41
1
10
-2.50000000000001
20
5.52640813E-08
30
3E-16
41
1
10
-2.50000000000001
20
0.265072978056054
30
3E-16
41
1
10
-2.50000000000001
20
0.535450915490429
30
3E-16
41
1
10
-2.50000000000001
20
0.816225500863681
30
3E-16
41
1
10
-2.50000000000001
20
1.11207197195014
30
3E-16
41
1
10
-2.50000000000001
20
1.42705855154921
30
3E-16
41
1
10
-2.50000000000001
20
1.764480741174
30
3E-16
41
1
10
-2.50000000000001
20
2.12672318863648
30
3E-16
41
1
10
-2.50000000000001
20
2.51515523478008
30
3E-16
41
1
10
-2.50000000000001
20
2.93006544637134
30
3E-16
41
1
10
-2.50000000000001
20
3.37063347415653
30
3E-16
41
1
10
-2.50000000000001
20
3.83494650762881
30
3E-16
41
1
10
-2.50000000000001
20
4.32005103389784
30
3E-16
41
1
10
-2.5
20
4.82204818199452
30
3E-16
41
1
10
-2.5
20
5.33621699307881
30
3E-16
41
1
10
-2.5
20
5.85717382916957
30
3E-16
41
1
10
-2.49999999999999
20
6.37904809202507
30
3E-16
41
1
10
-2.49999999999999
20
6.89568136104151
30
3E-16
41
1
10
-2.49999999999999
20
7.40082874697157
30
3E-16
41
1
10
-2.49999999999999
20
7.88836763355832
30
3E-16
41
1
10
-2.49999999999999
20
8.35249419387404
30
3E-16
41
1
10
-2.49999999999999
20
8.78791041080146
30
3E-16
41
1
10
-2.49999999999999
20
9.18998626466606
30
3E-16
41
1
10
-2.49999999999999
20
9.55489727073103
30
-1E-16
41
1
10
-2.49999999999999
20
9.87972830774891
30
-1E-16
41
1
10
-2.49999999999999
20
10.1625416820506
30
-1E-16
41
1
10
-2.49999999999999
20
10.4024076666936
30
-1E-16
41
1
10
-2.49999999999999
20
10.5993938886827
30
-1E-16
41
1
10
-2.49999999999999
20
10.7545189924613
30
0
41
1
10
-2.49999999999999
20
10.8696662972012
30
0
41
1
10
-2.49999999999999
20
10.9474689380926
30
0
41
1
10
-2.49999999999999
20
10.9911617717029
30
-1E-16
41
1
10
-2.49999999999999
20
11.0044184915465
30
-1E-16
41
1
10
-2.49999999999999
20
10.9911643916232
30
-1E-16
41
1
10
-2.49999999999999
20
10.9553894530376
30
-1E-16
41
1
10
-2.49999999999997
20
10.9108644122167
30
-1E-16
41
1
10
-2.49999999999999
20
10.8791618100948
30
-1E-16
41
1
10
-2.49999999999999
20
10.8687920001196
30
-1E-16
0
SPLINE
5
11C
100
AcDbEntity
8
SK1
62
256
6
ByLayer
370
-1
48
1
60
0
100
AcDbSpline
70
4
71
3
72
33
73
29
40
0
40
0
40
0
40
0
40
0.0262485962659277
40
0.0662428359473786
40
0.10623707562883
40
0.14623131531028
40
0.186225554991731
40
0.226219794673182
40
0.266214034354633
40
0.306208274036084
40
0.346202513717535
40
0.386196753398986
40
0.426190993080436
40
0.466185232761887
40
0.506179472443338
40
0.546173712124789
40
0.58616795180624
40
0.626162191487691
40
0.666156431169142
40
0.706150670850592
40
0.746144910532043
40
0.786139150213494
40
0.826133389894945
40
0.866127629576396
40
0.906121869257847
40
0.946116108939298
40
0.986110348620749
40
1
40
1
40
1
40
1
41
1
10
-1.49999999999999
20
10.8197267433286
30
0
41
1
10
-1.49999999999997
20
10.823280799778
30
0
41
1
10
-1.49999999999999
20
10.8280006134137
30
0
41
1
10
-1.49999999999999
20
10.8164403957514
30
0
41
1
10
-1.49999999999999
20
10.7733485034927
30
0
41
1
10
-1.49999999999999
20
10.6965241329295
30
0
41
1
10
-1.49999999999999
20
10.5827105539547
30
0
41
1
10
-1.49999999999999
20
10.4292548370653
30
0
41
1
10
-1.49999999999999
20
10.2342567210011
30
0
41
1
10
-1.49999999999999
20
9.99668422428957
30
0
41
1
10
-1.49999999999999
20
9.71646045325267
30
0
41
1
10
-1.49999999999999
20
9.39451028305956
30
0
41
1
10
-1.49999999999999
20
9.03277100198548
30
4E-16
41
1
10
-1.49999999999999
20
8.6341616840821
30
4E-16
41
1
10
-1.49999999999999
20
8.20251470490498
30
4E-16
41
1
10
-1.5
20
7.74247141428026
30
4E-16
41
1
10
-1.5
20
7.25934377839374
30
4E-16
41
1
10
-1.5
20
6.75895136864696
30
4E-16
41
1
10
-1.5
20
6.24743323087401
30
4E-16
41
1
10
-1.50000000000001
20
5.73105035715898
30
4E-16
41
1
10
-1.50000000000001
20
5.21597569580987
30
4E-16
41
1
10
-1.50000000000001
20
4.7080917635632
30
4E-16
41
1
10
-1.50000000000001
20
4.21279029060327
30
4E-16
41
1
10
-1.50000000000001
20
3.73479561610887
30
4E-16
41
1
10
-1.50000000000001
20
3.27800425826305
30
4E-16
41
1
10
-1.50000000000001
20
2.84536147075801
30
4E-16
41
1
10
-1.50000000000001
20
2.52722557449186
30
4E-16
41
1
10
-1.5
20
2.35274458205808
30
4E-16
41
1
10
-1.5
20
2.30830602436791
30
4E-16
0
SPLINE
5
11D
100
AcDbEntity
8
SK1
62
256
6
ByLayer
370
-1
48
1
60
0
100
AcDbSpline
70
4
71
3
72
28
73
24
40
0
40
0
40
0
40
0
40
0.343154913050407
40
0.343154913050407
40
0.438240387752044
40
0.438240387752044
40
0.461906262757667
40
0.461906262757667
40
0.470082742892764
40
0.470082742892764
40
0.478403565799224
40
0.478403565799224
40
0.485616048076618
40
0.485616048076618
40
0.494984782081364
40
0.494984782081364
40
0.512255311898549
40
0.512255311898549
40
0.586224098711194
40
0.586224098711194
40
0.878018968214489
40
0.878018968214489
40
1
40
1
40
1
40
1
41
1
10
-1.69989009590067
20
10.9123173604779
30
-1E-16
41
1
10
-1.6992045182167
20
10.874026395111
30
-1E-16
41
1
10
-1.69726521816679
20
10.8323287812114
30
-1E-16
41
1
10
-1.67853907532425
20
10.7628347797172
30
-1E-16
41
1
10
-1.67397095661657
20
10.7468498525866
30
-1E-16
41
1
10
-1.66077432528928
20
10.721361453397
30
4E-16
41
1
10
-1.65762501801399
20
10.7157991042864
30
4E-16
41
1
10
-1.65185849839087
20
10.707622782904
30
4E-16
41
1
10
-1.65019504375893
20
10.7054125901192
30
4E-16
41
1
10
-1.646534220232
20
10.7009758910412
30
4E-16
41
1
10
-1.64447208533075
20
10.6986885686391
30
4E-16
41
1
10
-1.64056382056441
20
10.694801611545
30
4E-16
41
1
10
-1.63868158902146
20
10.6931071977884
30
4E-16
41
1
10
-1.63458346791263
20
10.689750630486
30
4E-16
41
1
10
-1.63236594562103
20
10.6881800310437
30
4E-16
41
1
10
-1.62660262215148
20
10.684531389102
30
4E-16
41
1
10
-1.62334000067362
20
10.6829911152333
30
4E-16
41
1
10
-1.60794500993576
20
10.6769624806515
30
-1E-16
41
1
10
-1.59958172790385
20
10.6775435877502
30
-1E-16
41
1
10
-1.5611327018196
20
10.681981379005
30
0
41
1
10
-1.54173525187012
20
10.6971947890521
30
0
41
1
10
-1.51479102134938
20
10.7170184942904
30
0
41
1
10
-1.50724986451142
20
10.7230716034656
30
0
41
1
10
-1.49999999999999
20
10.7291967921705
30
0
0
SPLINE
5
11E
100
AcDbEntity
8
SK1
62
256
6
ByLayer
370
-1
48
1
60
0
100
AcDbSpline
70
4
71
3
72
28
73
24
40
0
40
0
40
0
40
0
40
0.349178244038133
40
0.349178244038133
40
0.441485413895468
40
0.441485413895468
40
0.464418174627266
40
0.464418174627266
40
0.473297759398051
40
0.473297759398051
40
0.482336266147387
40
0.482336266147387
40
0.488860737631378
40
0.488860737631378
40
0.495351351029914
40
0.495351351029914
40
0.506128456733843
40
0.506128456733843
40
0.534013657527068
40
0.534013657527068
40
0.644941898339777
40
0.644941898339777
40
1
40
1
40
1
40
1
41
1
10
-1.69996579738208
20
-2.34399541728109
30
4E-16
41
1
10
-1.69957351800005
20
-2.22028726606041
30
4E-16
41
1
10
-1.6978568428512
20
-2.09468422296285
30
4E-16
41
1
10
-1.67915903600471
20
-1.93625518968202
30
4E-16
41
1
10
-1.67466133865747
20
-1.90240437328669
30
4E-16
41
1
10
-1.66257453306422
20
-1.86273523592706
30
4E-16
41
1
10
-1.65975033602419
20
-1.85482927921274
30
4E-16
41
1
10
-1.65455231119013
20
-1.84507122970746
30
4E-16
41
1
10
-1.65293210062902
20
-1.84245438467258
30
4E-16
41
1
10
-1.64928001329513
20
-1.83786290531634
30
4E-16
41
1
10
-1.64718169695362
20
-1.8358529003844
30
4E-16
41
1
10
-1.64332341703023
20
-1.83361873011975
30
4E-16
41
1
10
-1.64159303361367
20
-1.83304396936848
30
4E-16
41
1
10
-1.6382124463716
20
-1.832733248751
30
4E-16
41
1
10
-1.63652572409745
20
-1.83298094253615
30
4E-16
41
1
10
-1.63230470511539
20
-1.83441412291418
30
4E-16
41
1
10
-1.62985912301397
20
-1.83609472866016
30
4E-16
41
1
10
-1.62193294237828
20
-1.84325136454737
30
4E-16
41
1
10
-1.61733263266497
20
-1.85052711231816
30
4E-16
41
1
10
-1.59692149956968
20
-1.88783133301976
30
4E-16
41
1
10
-1.58631748354395
20
-1.92357606741413
30
4E-16
41
1
10
-1.54387296204187
20
-2.07163462791991
30
4E-16
41
1
10
-1.52142094847257
20
-2.19032359396874
30
4E-16
41
1
10
-1.50000000000001
20
-2.30830715862393
30
4E-16
0
SPLINE
5
11F
100
AcDbEntity
8
SK1
62
256
6
ByLayer
370
-1
48
1
60
0
100
AcDbSpline
70
4
71
3
72
77
73
73
40
0
40
0
40
0
40
0
40
0.013730720296421
40
0.0280335982062554
40
0.0423364761160897
40
0.0566393540259241
40
0.0709422319357584
40
0.0852451098455928
40
0.0995479877554271
40
0.113850865665261
40
0.128153743575096
40
0.14245662148493
40
0.156759499394765
40
0.171062377304599
40
0.185365255214433
40
0.199668133124268
40
0.213971011034102
40
0.228273888943936
40
0.242576766853771
40
0.256879644763605
40
0.271182522673439
40
0.285485400583274
40
0.299788278493108
40
0.314091156402942
40
0.328394034312777
40
0.342696912222611
40
0.356999790132445
40
0.37130266804228
40
0.385605545952114
40
0.399908423861949
40
0.414211301771783
40
0.428514179681617
40
0.442817057591452
40
0.457119935501286
40
0.47142281341112
40
0.485725691320955
40
0.500028569230789
40
0.514331447140623
40
0.528634325050458
40
0.542937202960292
40
0.557240080870126
40
0.571542958779961
40
0.585845836689795
40
0.600148714599629
40
0.614451592509464
40
0.628754470419298
40
0.643057348329133
40
0.657360226238967
40
0.671663104148801
40
0.685965982058635
40
0.70026885996847
40
0.714571737878304
40
0.728874615788139
40
0.743177493697973
40
0.757480371607807
40
0.771783249517642
40
0.786086127427476
40
0.80038900533731
40
0.814691883247145
40
0.828994761156979
40
0.843297639066813
40
0.857600516976648
40
0.871903394886482
40
0.886206272796316
40
0.900509150706151
40
0.914812028615985
40
0.92911490652582
40
0.943417784435654
40
0.957720662345488
40
0.972023540255323
40
0.986326418165157
40
1
40
1
40
1
40
1
41
1
10
-18.0003154452711
20
10.5149944987007
30
-2E-16
41
1
10
-18.0003154452711
20
10.5339393292833
30
-2E-16
41
1
10
-18.0003154452711
20
10.5680070257011
30
-2E-16
41
1
10
-18.0003154452711
20
10.6020553136751
30
-2E-16
41
1
10
-18.0003154452711
20
10.6148401921023
30
-2E-16
41
1
10
-18.0003154452711
20
10.6020527865053
30
1E-16
41
1
10
-18.0003154452711
20
10.5599067660981
30
1E-16
41
1
10
-18.0003154452711
20
10.4848584934229
30
0
41
1
10
-18.0003154452711
20
10.373787632268
30
0
41
1
10
-18.0003154452711
20
10.2241542656655
30
1E-16
41
1
10
-18.0003154452711
20
10.0341417476877
30
1E-16
41
1
10
-18.0003154452711
20
9.80276749593025
30
-2E-16
41
1
10
-18.0003154452711
20
9.52996627751898
30
-2E-16
41
1
10
-18.0003154452711
20
9.21663490521354
30
-2E-16
41
1
10
-18.0003154452711
20
8.86464247447361
30
3E-16
41
1
10
-18.0003154452711
20
8.47680090545708
30
3E-16
41
1
10
-18.0003154452711
20
8.05679928853522
30
3E-16
41
1
10
-18.0003154452711
20
7.6091037314782
30
3E-16
41
1
10
-18.0003154452711
20
7.13882469106099
30
3E-16
41
1
10
-18.0003154452711
20
6.65156052719584
30
3E-16
41
1
10
-18.0003154452711
20
6.15321710334788
30
-6E-16
41
1
10
-18.0003154452711
20
5.64981822726571
30
-6E-16
41
1
10
-18.0003154452711
20
5.1473042992163
30
-6E-16
41
1
10
-18.0003154452711
20
4.65133808658854
30
-6E-16
41
1
10
-18.0003154452711
20
4.16711263587248
30
-6E-16
41
1
10
-18.0003154452711
20
3.69918177457646
30
-6E-16
41
1
10
-18.0003154452711
20
3.25130634588348
30
-6E-16
41
1
10
-18.0003154452711
20
2.82633530245377
30
-6E-16
41
1
10
-18.0003154452711
20
2.42611373749821
30
-6E-16
41
1
10
-18.0003154452711
20
2.05143295827548
30
-6E-16
41
1
10
-18.0003154452711
20
1.70201461385648
30
-6E-16
41
1
10
-18.0003154452711
20
1.37653784078682
30
-6E-16
41
1
10
-18.0003154452711
20
1.07270241252959
30
-6E-16
41
1
10
-18.0003154452711
20
0.787329494879032
30
-6E-16
41
1
10
-18.0003154452711
20
0.516494888213515
30
-6E-16
41
1
10
-18.0003154452711
20
0.25568886747368
30
-6E-16
41
1
10
-18.0003154452711
20
5.33076445E-08
30
-6E-16
41
1
10
-18.0003154452711
20
-0.255689080704855
30
-6E-16
41
1
10
-18.0003154452711
20
-0.516494790078497
30
-6E-16
41
1
10
-18.0003154452711
20
-0.787329674189124
30
-6E-16
41
1
10
-18.0003154452711
20
-1.07270233858426
30
-6E-16
41
1
10
-18.0003154452711
20
-1.37653795725922
30
-6E-16
41
1
10
-18.0003154452711
20
-1.70201457625095
30
-6E-16
41
1
10
-18.0003154452711
20
-2.05143299222632
30
-6E-16
41
1
10
-18.0003154452711
20
-2.42611374304272
30
-6E-16
41
1
10
-18.0003154452711
20
-2.82633524632612
30
-6E-16
41
1
10
-18.0003154452711
20
-3.25130639507452
30
-6E-16
41
1
10
-18.0003154452711
20
-3.69918163394104
30
-6E-16
41
1
10
-18.0003154452711
20
-4.16711272286935
30
-6E-16
41
1
10
-18.0003154452711
20
-4.65133787923764
30
-6E-16
41
1
10
-18.0003154452711
20
-5.1473044127668
30
-6E-16
41
1
10
-18.0003154452711
20
-5.64981798041575
30
-6E-16
41
1
10
-18.0003154452711
20
-6.15322150279803
30
-6E-16
41
1
10
-18.0003154452711
20
-6.65154629355726
30
3E-16
41
1
10
-18.0003154452711
20
-7.13882830854658
30
3E-16
41
1
10
-18.0003154452711
20
-7.6091035036192
30
3E-16
41
1
10
-18.0003154452711
20
-8.05679938889139
30
3E-16
41
1
10
-18.0003154452711
20
-8.47680073189252
30
3E-16
41
1
10
-18.0003154452711
20
-8.86464254278616
30
3E-16
41
1
10
-18.0003154452711
20
-9.216634805529
30
-2E-16
41
1
10
-18.0003154452711
20
-9.5299663069008
30
-2E-16
41
1
10
-18.0003154452711
20
-9.8027674780885
30
-2E-16
41
1
10
-18.0003154452711
20
-10.0341417373044
30
1E-16
41
1
10
-18.0003154452711
20
-10.2241543250414
30
1E-16
41
1
10
-18.0003154452711
20
-10.3737875873693
30
0
41
1
10
-18.0003154452711
20
-10.4848586136427
30
0
41
1
10
-18.0003154452711
20
-10.5599064693697
30
1E-16
41
1
10
-18.0003154452711
20
-10.6020533911089
30
1E-16
41
1
10
-18.0003154452711
20
-10.6148400828081
30
-2E-16
41
1
10
-18.0003154452711
20
-10.6020549007946
30
-2E-16
41
1
10
-18.0003154452711
20
-10.5680531093165
30
-2E-16
41
1
10
-18.0003154452711
20
-10.534078292849
30
-2E-16
41
1
10
-18.0003154452711
20
-10.5152309987699
30
-2E-16
0
SPLINE
5
120
100
AcDbEntity
8
SK1
62
256
6
ByLayer
370
-1
48
1
60
0
100
AcDbSpline
70
4
71
3
72
34
73
30
40
0
40
0
40
0
40
0
40
0.0112669685424979
40
0.0112669685424979
40
0.0589394571067684
40
0.0589394571067684
40
0.154535986932122
40
0.154535986932122
40
0.250071361960428
40
0.250071361960428
40
0.345575677081597
40
0.345575677081597
40
0.441065554333937
40
0.441065554333937
40
0.536552664114954
40
0.536552664114954
40
0.632047854665057
40
0.632047854665057
40
0.727564602396772
40
0.727564602396772
40
0.8231245795276
40
0.8231245795276
40
0.870792997061148
40
0.870792997061148
40
0.918469321595608
40
0.918469321595608
40
0.966157775290003
40
0.966157775290003
40
1
40
1
40
1
40
1
41
1
10
-1.69993676286354
20
11.0201001927739
30
-1E-16
41
1
10
-1.69993832691928
20
11.0201347387082
30
-1E-16
41
1
10
-1.69993984120724
20
11.0196274515764
30
-1E-16
41
1
10
-1.69994751366467
20
11.0142188011047
30
-1E-16
41
1
10
-1.69995287995742
20
11.0004050241389
30
-1E-16
41
1
10
-1.69996695296892
20
10.9332843475553
30
1E-16
41
1
10
-1.69997367173839
20
10.8542029227333
30
0
41
1
10
-1.69998386152666
20
10.6377999041157
30
1E-16
41
1
10
-1.69998734498478
20
10.5001171728845
30
-1E-16
41
1
10
-1.69999246905711
20
10.1728975826323
30
-1E-16
41
1
10
-1.69999411792993
20
9.98292332235593
30
-1E-16
41
1
10
-1.69999643908518
20
9.55552993499305
30
-1E-16
41
1
10
-1.69999711688571
20
9.31759782738104
30
4E-16
41
1
10
-1.69999798411863
20
8.79743010432017
30
4E-16
41
1
10
-1.69999817542508
20
8.51459573987506
30
4E-16
41
1
10
-1.69999824461597
20
7.90689005466751
30
4E-16
41
1
10
-1.69999812267855
20
7.58130243438185
30
4E-16
41
1
10
-1.69999744438481
20
6.88971881869278
30
4E-16
41
1
10
-1.69999688682343
20
6.52282614529045
30
4E-16
41
1
10
-1.69999489291331
20
5.74978712553664
30
4E-16
41
1
10
-1.69999345206901
20
5.34244656677151
30
4E-16
41
1
10
-1.69999000494025
20
4.70303852615044
30
4E-16
41
1
10
-1.69998863813788
20
4.48501546085984
30
4E-16
41
1
10
-1.6999853268313
20
4.03938656106368
30
4E-16
41
1
10
-1.69998338085909
20
3.81152710629326
30
4E-16
41
1
10
-1.69997876258688
20
3.34638056322442
30
4E-16
41
1
10
-1.69997608351477
20
3.10876440414396
30
4E-16
41
1
10
-1.69997079701294
20
2.69478121630689
30
4E-16
41
1
10
-1.69996839509746
20
2.52048785703775
30
4E-16
41
1
10
-1.69996579751815
20
2.34399454350827
30
4E-16
0
SPLINE
5
121
100
AcDbEntity
8
SK1
62
256
6
ByLayer
370
-1
48
1
60
0
100
AcDbSpline
70
4
71
3
72
26
73
22
40
0
40
0
40
0
40
0
40
0.0008023794751561
40
0.0008023794751561
40
0.38995581805132
40
0.38995581805132
40
0.588411381898049
40
0.588411381898049
40
0.738873838915573
40
0.738873838915573
40
0.814437133741493
40
0.814437133741493
40
0.849669814042489
40
0.849669814042489
40
0.885379597279786
40
0.885379597279786
40
0.917015756722875
40
0.917015756722875
40
0.964291651362195
40
0.964291651362195
40
1
40
1
40
1
40
1
41
1
10
-0.215811086592097
20
10.8563923645233
30
0
41
1
10
-0.215823201815482
20
10.8563793708355
30
0
41
1
10
-0.215835325590845
20
10.8563663714649
30
0
41
1
10
-0.221736537161107
20
10.8500406644011
30
0
41
1
10
-0.229595996987698
20
10.8423759975269
30
0
41
1
10
-0.248697987408249
20
10.8277247348158
30
0
41
1
10
-0.256401529113859
20
10.8222273926602
30
0
41
1
10
-0.274672330728535
20
10.8111348764242
30
0
41
1
10
-0.284031111048876
20
10.8058441112872
30
0
41
1
10
-0.303862792072024
20
10.7967411489854
30
0
41
1
10
-0.311673384937635
20
10.7934195745428
30
0
41
1
10
-0.325697750675346
20
10.7883419491899
30
0
41
1
10
-0.330659077403325
20
10.7866628614952
30
0
41
1
10
-0.341238014585613
20
10.7834040520234
30
0
41
1
10
-0.347013203094093
20
10.7817865260972
30
0
41
1
10
-0.357712157030264
20
10.7791077838599
30
0
41
1
10
-0.362775636738405
20
10.7779724373212
30
0
41
1
10
-0.374620388322228
20
10.7755812023391
30
0
41
1
10
-0.381238297735322
20
10.7744865169401
30
0
41
1
10
-0.391758607838895
20
10.7730054855679
30
0
41
1
10
-0.396007428966897
20
10.7725001016587
30
0
41
1
10
-0.400000000000091
20
10.7720903551646
30
0
0
SPLINE
5
122
100
AcDbEntity
8
SK1
62
256
6
ByLayer
370
-1
48
1
60
0
100
AcDbSpline
70
4
71
3
72
32
73
28
40
0
40
0
40
0
40
0
40
0.365927089807645
40
0.365927089807645
40
0.434988381544097
40
0.434988381544097
40
0.459470391973521
40
0.459470391973521
40
0.484523297819608
40
0.484523297819608
40
0.495000485667548
40
0.495000485667548
40
0.505685328487505
40
0.505685328487505
40
0.512277836854412
40
0.512277836854412
40
0.51886144114029
40
0.51886144114029
40
0.528508909357719
40
0.528508909357719
40
0.546991571884289
40
0.546991571884289
40
0.628302439414129
40
0.628302439414129
40
0.950686415613842
40
0.950686415613842
40
1
40
1
40
1
40
1
41
1
10
-1.50000000000001
20
2.30830602436791
30
4E-16
41
1
10
-1.52221751736219
20
2.1859357832588
30
4E-16
41
1
10
-1.54522999334368
20
2.06251508992034
30
4E-16
41
1
10
-1.58645530727237
20
1.92421817182051
30
4E-16
41
1
10
-1.59351669828698
20
1.90246957270804
30
4E-16
41
1
10
-1.60499906250121
20
1.87469947052611
30
4E-16
41
1
10
-1.60820035401613
20
1.86757882120199
30
4E-16
41
1
10
-1.61534084307135
20
1.8539319743719
30
4E-16
41
1
10
-1.61929930659136
20
1.84729792851792
30
4E-16
41
1
10
-1.62596752666457
20
1.8395789292255
30
4E-16
41
1
10
-1.62809255235376
20
1.83750162516694
30
4E-16
41
1
10
-1.63273883786329
20
1.83425727265214
30
4E-16
41
1
10
-1.63534521763037
20
1.83307693987018
30
4E-16
41
1
10
-1.63973359946961
20
1.83275236286201
30
4E-16
41
1
10
-1.64148920088589
20
1.83301807905247
30
4E-16
41
1
10
-1.64485340276019
20
1.83436876713776
30
4E-16
41
1
10
-1.64649922195929
20
1.83546324657834
30
4E-16
41
1
10
-1.65020824529177
20
1.83881160526306
30
4E-16
41
1
10
-1.6521827913231
20
1.84139532031708
30
4E-16
41
1
10
-1.65723177402214
20
1.84948404569289
30
4E-16
41
1
10
-1.65984043101899
20
1.85563378259258
30
4E-16
41
1
10
-1.67182065388494
20
1.88894113408489
30
4E-16
41
1
10
-1.67632598434432
20
1.91870567173234
30
4E-16
41
1
10
-1.69605916878518
20
2.06239070530862
30
4E-16
41
1
10
-1.69829182976605
20
2.17797320288872
30
4E-16
41
1
10
-1.69978781832061
20
2.30916587313149
30
4E-16
41
1
10
-1.69991061150085
20
2.32659131405598
30
4E-16
41
1
10
-1.69996579751822
20
2.3439945435091
30
4E-16
0
SPLINE
5
123
100
AcDbEntity
8
SK1
62
256
6
ByLayer
370
-1
48
1
60
0
100
AcDbSpline
70
4
71
3
72
26
73
22
40
0
40
0
40
0
40
0
40
0.0042434309448905
40
0.0613301591488156
40
0.118416887352741
40
0.175503615556666
40
0.232590343760591
40
0.289677071964516
40
0.346763800168441
40
0.403850528372367
40
0.460937256576292
40
0.518023984780217
40
0.575110712984142
40
0.632197441188068
40
0.689284169391993
40
0.746370897595918
40
0.803457625799843
40
0.860544354003768
40
0.917631082207694
40
0.974717810411619
40
1
40
1
40
1
40
1
41
1
10
-0.399999999999991
20
10.772090355164
30
0
41
1
10
-0.399999999999991
20
10.7706666069311
30
0
41
1
10
-0.399999999999991
20
10.7496439100426
30
0
41
1
10
-0.399999999999991
20
10.6965241329295
30
0
41
1
10
-0.400000000000006
20
10.5827105539547
30
0
41
1
10
-0.400000000000006
20
10.4292548370653
30
0
41
1
10
-0.400000000000006
20
10.2342567210011
30
0
41
1
10
-0.400000000000006
20
9.99668422428957
30
0
41
1
10
-0.400000000000006
20
9.71646045325267
30
0
41
1
10
-0.400000000000006
20
9.39451028305956
30
0
41
1
10
-0.400000000000006
20
9.03277100198551
30
-4E-16
41
1
10
-0.400000000000006
20
8.6341616840821
30
-4E-16
41
1
10
-0.400000000000006
20
8.20251470490498
30
-4E-16
41
1
10
-0.40000000000002
20
7.74247141428026
30
-4E-16
41
1
10
-0.40000000000002
20
7.25934377839374
30
-4E-16
41
1
10
-0.40000000000002
20
6.75895136864696
30
-4E-16
41
1
10
-0.40000000000002
20
6.24743323087401
30
5E-16
41
1
10
-0.400000000000034
20
5.73105035715898
30
5E-16
41
1
10
-0.400000000000034
20
5.21597569580987
30
5E-16
41
1
10
-0.40000000000002
20
4.80241032436572
30
5E-16
41
1
10
-0.400000000000034
20
4.56250546597252
30
5E-16
41
1
10
-0.400000000000034
20
4.48934914533299
30
5E-16
0
SPLINE
5
124
100
AcDbEntity
8
SK1
62
256
6
ByLayer
370
-1
48
1
60
0
100
AcDbSpline
70
4
71
3
72
24
73
20
40
0
40
0
40
0
40
0
40
0.034889037114021
40
0.034889037114021
40
0.0617027213621459
40
0.0617027213621459
40
0.0827724763828934
40
0.0827724763828934
40
0.103857289987018
40
0.103857289987018
40
0.132456700829686
40
0.132456700829686
40
0.183303847887245
40
0.183303847887245
40
0.342147323917958
40
0.342147323917958
40
0.999994163615384
40
0.999994163615384
40
1
40
1
40
1
40
1
41
1
10
-0.40000000000002
20
-10.7720903270619
30
0
41
1
10
-0.394111355098616
20
-10.7726946640026
30
0
41
1
10
-0.387638990857894
20
-10.7735074107737
30
0
41
1
10
-0.374999497999269
20
-10.7755463299799
30
0
41
1
10
-0.368988434639931
20
-10.7766582562046
30
0
41
1
10
-0.357779191188456
20
-10.7790947211555
30
0
41
1
10
-0.352573525529351
20
-10.7803510360364
30
0
41
1
10
-0.342444927003171
20
-10.7830631767085
30
0
41
1
10
-0.337408731680895
20
-10.7845489216128
30
0
41
1
10
-0.326477488214366
20
-10.7880399886085
30
0
41
1
10
-0.320718590221404
20
-10.7900949336211
30
0
41
1
10
-0.306589885788867
20
-10.7955138573259
30
0
41
1
10
-0.299229318200901
20
-10.7987886768128
30
0
41
1
10
-0.273318263088029
20
-10.811174413295
30
0
41
1
10
-0.261761505197924
20
-10.8187552826325
30
0
41
1
10
-0.212916331686202
20
-10.8527221106267
30
0
41
1
10
-0.206214896622512
20
-10.866521936173
30
0
41
1
10
-0.201948096039859
20
-10.8745596594225
30
0
41
1
10
-0.2019476271185
20
-10.8745605427757
30
0
41
1
10
-0.201947158200235
20
-10.8745614261304
30
0
0
SPLINE
5
125
100
AcDbEntity
8
SK1
62
256
6
ByLayer
370
-1
48
1
60
0
100
AcDbSpline
70
4
71
3
72
28
73
24
40
0
40
0
40
0
40
0
40
0.0451243223523412
40
0.0451243223523412
40
0.158857617366363
40
0.158857617366363
40
0.272590912380385
40
0.272590912380385
40
0.386324207394406
40
0.386324207394406
40
0.500057502408428
40
0.500057502408428
40
0.556924149915439
40
0.556924149915439
40
0.61379079742245
40
0.61379079742245
40
0.727524092436471
40
0.727524092436471
40
0.841257387450493
40
0.841257387450493
40
0.954990682464515
40
0.954990682464515
40
1
40
1
40
1
40
1
41
1
10
-19
20
9.99705917780835
30
1E-16
41
1
10
-19
20
9.98532004296351
30
0
41
1
10
-19
20
9.93367783186036
30
0
41
1
10
-19
20
9.64867768984547
30
0
41
1
10
-19
20
9.23780993670161
30
2E-16
41
1
10
-19
20
8.14603193018385
30
2E-16
41
1
10
-19
20
7.43345411730712
30
2E-16
41
1
10
-19
20
5.77837410503312
30
2E-16
41
1
10
-19
20
4.80540193943577
30
-7E-16
41
1
10
-19
20
2.62104554533019
30
-7E-16
41
1
10
-19
20
1.38389479530082
30
-7E-16
41
1
10
-19
20
-0.605684496272318
30
-7E-16
41
1
10
-19
20
-1.25707690377649
30
-7E-16
41
1
10
-19
20
-2.49720593938537
30
-7E-16
41
1
10
-19
20
-3.08077873820483
30
-7E-16
41
1
10
-19
20
-4.74586814612979
30
-7E-16
41
1
10
-19
20
-5.70718288821732
30
2E-16
41
1
10
-19
20
-7.40302719902544
30
2E-16
41
1
10
-19
20
-8.10117106535415
30
2E-16
41
1
10
-19
20
-9.22362511721832
30
2E-16
41
1
10
-19
20
-9.63194777304716
30
0
41
1
10
-19
20
-9.92641396236704
30
0
41
1
10
-19
20
-9.98028270297525
30
0
41
1
10
-19
20
-9.9946318223605
30
1E-16
0
SPLINE
5
126
100
AcDbEntity
8
SK1
62
256
6
ByLayer
370
-1
48
1
60
0
100
AcDbSpline
70
4
71
3
72
10
73
6
40
0
40
0
40
0
40
0
40
0.5
40
0.5
40
1
40
1
40
1
40
1
41
1
10
-1.69996579751435
20
2.34399454350779
30
4E-16
41
1
10
-1.82597576019364
20
1.61001532399766
30
4E-16
41
1
10
-1.92804003196062
20
0.809037898581664
30
4E-16
41
1
10
-1.92909522738219
20
-0.795359530273402
30
4E-16
41
1
10
-1.82836818305549
20
-1.59607539008061
30
4E-16
41
1
10
-1.69996579738208
20
-2.34399541728115
30
4E-16
0
SPLINE
5
127
100
AcDbEntity
8
SK1
62
256
6
ByLayer
370
-1
48
1
60
0
100
AcDbSpline
70
4
71
3
72
22
73
18
40
0
40
0
40
0
40
0
40
0.0449734260287732
40
0.0449734260287732
40
0.0906738274120163
40
0.0906738274120163
40
0.122638717708354
40
0.122638717708354
40
0.154549770731827
40
0.154549770731827
40
0.201552050367308
40
0.201552050367308
40
0.290895290031139
40
0.290895290031139
40
0.598982552652836
40
0.598982552652836
40
1
40
1
40
1
40
1
41
1
10
-0.400000000000034
20
-4.48934893107545
30
5E-16
41
1
10
-0.420456941468217
20
-4.50752512906303
30
5E-16
41
1
10
-0.442793659570242
20
-4.52452287299636
30
5E-16
41
1
10
-0.492193632877786
20
-4.55328755706802
30
5E-16
41
1
10
-0.520039992485408
20
-4.56524258715405
30
5E-16
41
1
10
-0.570193326457115
20
-4.57628050315324
30
5E-16
41
1
10
-0.592133279247633
20
-4.57814021899085
30
5E-16
41
1
10
-0.634912844043129
20
-4.57562166953778
30
5E-16
41
1
10
-0.656221684239441
20
-4.5712589505051
30
5E-16
41
1
10
-0.705207801022823
20
-4.55499593975387
30
4E-16
41
1
10
-0.732067427106074
20
-4.54046143085245
30
4E-16
41
1
10
-0.801682679231504
20
-4.49257590710457
30
4E-16
41
1
10
-0.839313324772718
20
-4.45345948567513
30
4E-16
41
1
10
-0.98537712135321
20
-4.2733686971049
30
4E-16
41
1
10
-1.05621368439083
20
-4.11001095439897
30
4E-16
41
1
10
-1.19814354028304
20
-3.73039497896588
30
4E-16
41
1
10
-1.25757188978818
20
-3.5050311647318
30
4E-16
41
1
10
-1.30710678118656
20
-3.27410007766463
30
4E-16
0
SPLINE
5
128
100
AcDbEntity
8
SK1
62
256
6
ByLayer
370
-1
48
1
60
0
100
AcDbSpline
70
4
71
3
72
30
73
26
40
0
40
0
40
0
40
0
40
0.107434390804098
40
0.107434390804098
40
0.146840875167218
40
0.146840875167218
40
0.187919852288298
40
0.187919852288298
40
0.204302574556183
40
0.204302574556183
40
0.2209875377834
40
0.2209875377834
40
0.231986093424156
40
0.231986093424156
40
0.24295959516305
40
0.24295959516305
40
0.259493799987754
40
0.259493799987754
40
0.291668104051871
40
0.291668104051871
40
0.409391400030206
40
0.409391400030206
40
0.878322892923778
40
0.878322892923778
40
1
40
1
40
1
40
1
41
1
10
-1.58132804071084
20
-10.6803840997653
30
0
41
1
10
-1.58765426388197
20
-10.6787834338104
30
-1E-16
41
1
10
-1.59447926293866
20
-10.677654854021
30
-1E-16
41
1
10
-1.60562095811143
20
-10.6782121701822
30
-1E-16
41
1
10
-1.60880790601188
20
-10.6785812709993
30
-1E-16
41
1
10
-1.61598450313734
20
-10.6801894200946
30
-1E-16
41
1
10
-1.62001006403418
20
-10.6814211011702
30
-1E-16
41
1
10
-1.62671914901614
20
-10.6847303449781
30
4E-16
41
1
10
-1.62878476790776
20
-10.6858783555148
30
4E-16
41
1
10
-1.63327245942487
20
-10.6888012949567
30
4E-16
41
1
10
-1.63577098066598
20
-10.6906412359989
30
4E-16
41
1
10
-1.64004954599723
20
-10.694335034544
30
4E-16
41
1
10
-1.64182373236196
20
-10.6960107552648
30
4E-16
41
1
10
-1.64520857424041
20
-10.6995088711492
30
4E-16
41
1
10
-1.64685684987227
20
-10.7013674400398
30
4E-16
41
1
10
-1.65062968719055
20
-10.7059385864491
30
4E-16
41
1
10
-1.6526492905633
20
-10.7086849260756
30
4E-16
41
1
10
-1.6578575007466
20
-10.7163178808147
30
4E-16
41
1
10
-1.66053888902614
20
-10.7209957305571
30
4E-16
41
1
10
-1.67118601277632
20
-10.7411944588539
30
-1E-16
41
1
10
-1.67553327655524
20
-10.7541659981156
30
-1E-16
41
1
10
-1.69413704527001
20
-10.8147555719657
30
-1E-16
41
1
10
-1.69697811933359
20
-10.8517553017775
30
-1E-16
41
1
10
-1.69942780046681
20
-10.8951699712261
30
-1E-16
41
1
10
-1.69973873227128
20
-10.9038635732804
30
-1E-16
41
1
10
-1.69989009581765
20
-10.9123175561692
30
-1E-16
0
SPLINE
5
129
100
AcDbEntity
8
SK1
62
256
6
ByLayer
370
-1
48
1
60
0
100
AcDbSpline
70
4
71
3
72
26
73
22
40
0
40
0
40
0
40
0
40
0.0252822053743131
40
0.0823689313925979
40
0.139455657410883
40
0.196542383429167
40
0.253629109447452
40
0.310715835465737
40
0.367802561484022
40
0.424889287502306
40
0.481976013520591
40
0.539062739538876
40
0.596149465557161
40
0.653236191575446
40
0.71032291759373
40
0.767409643612015
40
0.8244963696303
40
0.881583095648585
40
0.938669821666869
40
0.995756547685154
40
1
40
1
40
1
40
1
41
1
10
-0.400000000000034
20
-4.48934893107784
30
5E-16
41
1
10
-0.400000000000034
20
-4.56250527649351
30
5E-16
41
1
10
-0.400000000000034
20
-4.80241012018325
30
5E-16
41
1
10
-0.400000000000034
20
-5.21597581842107
30
5E-16
41
1
10
-0.400000000000034
20
-5.73105048063857
30
5E-16
41
1
10
-0.400000000000048
20
-6.24743659384504
30
5E-16
41
1
10
-0.400000000000048
20
-6.75893656128315
30
-4E-16
41
1
10
-0.400000000000048
20
-7.25934857263897
30
-4E-16
41
1
10
-0.400000000000048
20
-7.74247092873696
30
-4E-16
41
1
10
-0.400000000000034
20
-8.2025148138909
30
-4E-16
41
1
10
-0.400000000000034
20
-8.63416150202514
30
-4E-16
41
1
10
-0.400000000000034
20
-9.03277107731498
30
-4E-16
41
1
10
-0.400000000000034
20
-9.39451017773425
30
0
41
1
10
-0.400000000000034
20
-9.7164604876865
30
0
41
1
10
-0.400000000000034
20
-9.99668420392314
30
0
41
1
10
-0.400000000000034
20
-10.2342567136416
30
0
41
1
10
-0.400000000000034
20
-10.4292548968258
30
0
41
1
10
-0.400000000000034
20
-10.5827105102704
30
0
41
1
10
-0.40000000000002
20
-10.6965242483832
30
0
41
1
10
-0.40000000000002
20
-10.7496437528318
30
0
41
1
10
-0.400000000000034
20
-10.7706665633894
30
0
41
1
10
-0.400000000000034
20
-10.7720903270619
30
0
0
SPLINE
5
12A
100
AcDbEntity
8
SK1
62
256
6
ByLayer
370
-1
48
1
60
0
100
AcDbSpline
70
4
71
3
72
20
73
16
40
0
40
0
40
0
40
0
40
0.140707173454194
40
0.140707173454194
40
0.283691473387466
40
0.283691473387466
40
0.383785559335947
40
0.383785559335947
40
0.483704950983048
40
0.483704950983048
40
0.631146492288154
40
0.631146492288154
40
0.911693191645988
40
0.911693191645988
40
1
40
1
40
1
40
1
41
1
10
-0.399999999999991
20
10.772090355164
30
0
41
1
10
-0.420485425404337
20
10.769987992759
30
0
41
1
10
-0.442853612204175
20
10.7679559042767
30
0
41
1
10
-0.492317942748428
20
10.7644479456744
30
0
41
1
10
-0.520199073627055
20
10.7629489681195
30
0
41
1
10
-0.570414744597741
20
10.7615601980509
30
0
41
1
10
-0.592388657551894
20
10.7613257206403
30
0
41
1
10
-0.635222276121866
20
10.7616521249957
30
0
41
1
10
-0.656551809000533
20
10.7622104061049
30
0
41
1
10
-0.705635225108949
20
10.7642598717252
30
0
41
1
10
-0.732559682028793
20
10.7660705901043
30
0
41
1
10
-0.80238316763986
20
10.7718500865203
30
0
41
1
10
-0.840123259759565
20
10.7763551487407
30
0
41
1
10
-0.883611309540285
20
10.7820351946192
30
0
41
1
10
-0.893604540075771
20
10.7833729587268
30
0
41
1
10
-0.903270323864874
20
10.7846942803542
30
0
0
SPLINE
5
12B
100
AcDbEntity
8
SK1
62
256
6
ByLayer
370
-1
48
1
60
0
100
AcDbSpline
70
4
71
3
72
33
73
29
40
0
40
0
40
0
40
0
40
0.0138895886221657
40
0.0538839363950323
40
0.0938782841678988
40
0.133872631940765
40
0.173866979713632
40
0.213861327486498
40
0.253855675259365
40
0.293850023032231
40
0.333844370805098
40
0.373838718577964
40
0.413833066350831
40
0.453827414123697
40
0.493821761896564
40
0.53381610966943
40
0.573810457442297
40
0.613804805215163
40
0.65379915298803
40
0.693793500760896
40
0.733787848533763
40
0.773782196306629
40
0.813776544079496
40
0.853770891852363
40
0.893765239625229
40
0.933759587398096
40
0.973753935170962
40
1
40
1
40
1
40
1
41
1
10
-1.50000000000003
20
-2.30830715862393
30
4E-16
41
1
10
-1.50000000000003
20
-2.35274536835033
30
4E-16
41
1
10
-1.50000000000003
20
-2.52722590203598
30
4E-16
41
1
10
-1.50000000000001
20
-2.84536131291179
30
4E-16
41
1
10
-1.50000000000001
20
-3.27800431136163
30
4E-16
41
1
10
-1.50000000000001
20
-3.73479546756551
30
4E-16
41
1
10
-1.50000000000001
20
-4.21279038475672
30
4E-16
41
1
10
-1.50000000000001
20
-4.70809154586763
30
4E-16
41
1
10
-1.50000000000001
20
-5.21597581842107
30
4E-16
41
1
10
-1.50000000000001
20
-5.73105048063857
30
4E-16
41
1
10
-1.50000000000003
20
-6.24743659384504
30
4E-16
41
1
10
-1.50000000000003
20
-6.75893656128315
30
4E-16
41
1
10
-1.50000000000003
20
-7.25934857263897
30
4E-16
41
1
10
-1.50000000000003
20
-7.74247092873696
30
4E-16
41
1
10
-1.50000000000001
20
-8.2025148138909
30
4E-16
41
1
10
-1.50000000000001
20
-8.63416150202514
30
4E-16
41
1
10
-1.50000000000001
20
-9.03277107731498
30
4E-16
41
1
10
-1.50000000000001
20
-9.39451017773422
30
0
41
1
10
-1.50000000000001
20
-9.7164604876865
30
0
41
1
10
-1.50000000000001
20
-9.99668420392314
30
0
41
1
10
-1.50000000000001
20
-10.2342567136416
30
0
41
1
10
-1.50000000000001
20
-10.4292548968258
30
0
41
1
10
-1.50000000000001
20
-10.5827105102704
30
0
41
1
10
-1.50000000000001
20
-10.6965242483832
30
0
41
1
10
-1.50000000000001
20
-10.7733482106366
30
0
41
1
10
-1.50000000000001
20
-10.816441019079
30
0
41
1
10
-1.50000000000003
20
-10.8280003028128
30
0
41
1
10
-1.50000000000001
20
-10.8232809284781
30
0
41
1
10
-1.50000000000003
20
-10.8197275246173
30
0
0
SPLINE
5
12C
100
AcDbEntity
8
1
62
256
6
ByLayer
370
-1
48
1
60
0
100
AcDbSpline
70
4
71
3
72
10
73
6
40
0
40
0
40
0
40
0
40
0.914349513760739
40
0.914349513760739
40
1
40
1
40
1
40
1
41
1
10
45.5168353296969
20
7.62514364773608
30
0
41
1
10
45.4029782137335
20
7.75951752674573
30
0
41
1
10
45.2658219496341
20
7.87440869287948
30
0
41
1
10
45.1008338710925
20
7.97039733418092
30
0
41
1
10
45.0865630452213
20
7.97839215532531
30
0
41
1
10
45.0721462640406
20
7.98616619521169
30
0
0
SPLINE
5
12D
100
AcDbEntity
8
1
62
256
6
ByLayer
370
-1
48
1
60
0
100
AcDbSpline
70
4
71
3
72
15
73
11
40
0
40
0
40
0
40
0
40
0.0625
40
0.125
40
0.25
40
0.5
40
0.75
40
0.875
40
0.9375
40
1
40
1
40
1
40
1
41
1
10
49.1877921953237
20
9.92883726333704
30
0
41
1
10
48.9855444234126
20
9.92792967914372
30
0
41
1
10
48.5802264366017
20
9.92658050215141
30
0
41
1
10
47.7888163383698
20
9.9177226903951
30
0
41
1
10
46.427430973154
20
9.88636415693648
30
0
41
1
10
44.464447580791
20
9.81398331341117
30
1E-16
41
1
10
42.5189757057075
20
9.67783611279771
30
0
41
1
10
41.1246751787972
20
9.59288784070637
30
-1E-16
41
1
10
40.3159154550553
20
9.54473795706483
30
-1E-16
41
1
10
39.9129505916114
20
9.54102534507965
30
-2E-16
41
1
10
39.7116006867883
20
9.51746789367695
30
-2E-16
0
SPLINE
5
12E
100
AcDbEntity
8
1
62
256
6
ByLayer
370
-1
48
1
60
0
100
AcDbSpline
70
4
71
3
72
10
73
6
40
0
40
0
40
0
40
0
40
0.80965377485664
40
0.80965377485664
40
1
40
1
40
1
40
1
41
1
10
42.9055371117454
20
5.37281238035845
30
0
41
1
10
43.0250695584132
20
5.23270766856615
30
0
41
1
10
43.1697318053127
20
5.11031855702936
30
0
41
1
10
43.3652822122028
20
4.99260941713641
30
0
41
1
10
43.4034517812565
20
4.97158590071803
30
0
41
1
10
43.4424327241041
20
4.95199687197135
30
0
0
SPLINE
5
12F
100
AcDbEntity
8
1
62
256
6
ByLayer
370
-1
48
1
60
0
100
AcDbSpline
70
4
71
3
72
25
73
21
40
0
40
0
40
0
40
0
40
0.0625
40
0.09375
40
0.125
40
0.1875
40
0.25
40
0.3125
40
0.375
40
0.4375
40
0.5
40
0.5625
40
0.625
40
0.6875
40
0.75
40
0.8125
40
0.875
40
0.90625
40
0.9375
40
1
40
1
40
1
40
1
41
1
10
49.022714153096
20
3.20015716564816
30
0
41
1
10
49.1789166828599
20
3.2079260049004
30
0
41
1
10
49.3872057342625
20
3.40667910561274
30
0
41
1
10
49.3751885677258
20
3.72682482913396
30
0
41
1
10
49.3603773167799
20
4.03758343616954
30
0
41
1
10
49.335608660606
20
4.4165246730108
30
0
41
1
10
49.3071619060267
20
4.86666463108006
30
0
41
1
10
49.2977013473035
20
5.3239144020516
30
0
41
1
10
49.3241576832948
20
5.78629638050782
30
0
41
1
10
49.4038750855102
20
6.25186099166194
30
0
41
1
10
49.5312703345324
20
6.71074957724963
30
0
41
1
10
49.7007966605613
20
7.15313605636189
30
0
41
1
10
49.9592807240979
20
7.56113337183956
30
0
41
1
10
49.9832914426786
20
8.03843334026323
30
0
41
1
10
49.9773360324744
20
8.50589760211165
30
0
41
1
10
49.98100180273
20
8.97331324415623
30
0
41
1
10
49.9698776591492
20
9.37061344261252
30
0
41
1
10
49.7983004778582
20
9.6364357070035
30
0
41
1
10
49.5692895927055
20
9.84782424733245
30
0
41
1
10
49.3437056902757
20
9.92743315032371
30
0
41
1
10
49.1877921953237
20
9.92883726333704
30
0
0
SPLINE
5
130
100
AcDbEntity
8
1
62
256
6
ByLayer
370
-1
48
1
60
0
100
AcDbSpline
70
4
71
3
72
14
73
10
40
0
40
0
40
0
40
0
40
0.301632841810063
40
0.301632841810063
40
0.602402032079644
40
0.602402032079644
40
0.899200904780735
40
0.899200904780735
40
1
40
1
40
1
40
1
41
1
10
42.6894843669685
20
7.21064468626668
30
0
41
1
10
42.6026763774352
20
7.03429428696211
30
0
41
1
10
42.5438623506013
20
6.83949485962304
30
0
41
1
10
42.4981181232106
20
6.44824271969492
30
0
41
1
10
42.5083731037497
20
6.24797814324745
30
0
41
1
10
42.5943419408328
20
5.87223692369093
30
0
41
1
10
42.6726785793655
20
5.68962005656132
30
0
41
1
10
42.819469488032
20
5.47525695010543
30
0
41
1
10
42.8609067733203
20
5.42255155666379
30
0
41
1
10
42.9055371117454
20
5.37281238035845
30
0
0
SPLINE
5
131
100
AcDbEntity
8
1
62
256
6
ByLayer
370
-1
48
1
60
0
100
AcDbSpline
70
4
71
3
72
14
73
10
40
0
40
0
40
0
40
0
40
0.258374536041622
40
0.258374536041622
40
0.520163709547353
40
0.520163709547353
40
0.808397479016398
40
0.808397479016398
40
1
40
1
40
1
40
1
41
1
10
45.7352702615377
20
5.78287544826901
30
0
41
1
10
45.8094450519782
20
5.93666591692534
30
0
41
1
10
45.8609138986702
20
6.1040660822928
30
0
41
1
10
45.913642109601
20
6.44150593717328
30
0
41
1
10
45.9145562582053
20
6.61683136671186
30
0
41
1
10
45.8598404262785
20
6.97197479588115
30
0
41
1
10
45.7989301054182
20
7.15410574809329
30
0
41
1
10
45.6592448692882
20
7.4275899637673
30
0
41
1
10
45.5923497151565
20
7.53091508870506
30
0
41
1
10
45.5168353296969
20
7.62514364773611
30
0
0
SPLINE
5
132
100
AcDbEntity
8
1
62
256
6
ByLayer
370
-1
48
1
60
0
100
AcDbSpline
70
4
71
3
72
15
73
11
40
0
40
0
40
0
40
0
40
0.0625
40
0.125
40
0.25
40
0.5
40
0.75
40
0.875
40
0.9375
40
1
40
1
40
1
40
1
41
1
10
39.2030298495502
20
3.09672725019791
30
0
41
1
10
39.4051308853458
20
3.09771796038757
30
0
41
1
10
39.8112305527944
20
3.09659771689846
30
0
41
1
10
40.6286979300936
20
3.08472613577175
30
0
41
1
10
42.0669983064747
20
3.04595509513925
30
0
41
1
10
44.1181269908208
20
3.03963481994424
30
0
41
1
10
46.1725626608913
20
3.07805110355179
30
0
41
1
10
47.6045048915033
20
3.12892476147658
30
0
41
1
10
48.4132266312648
20
3.17791809723789
30
0
41
1
10
48.8211380625732
20
3.17591497699141
30
0
41
1
10
49.022714153096
20
3.20015716564816
30
0
0
SPLINE
5
133
100
AcDbEntity
8
1
62
256
6
ByLayer
370
-1
48
1
60
0
100
AcDbSpline
70
4
71
3
72
25
73
21
40
0
40
0
40
0
40
0
40
0.0625
40
0.09375
40
0.125
40
0.1875
40
0.25
40
0.3125
40
0.375
40
0.4375
40
0.5
40
0.5625
40
0.625
40
0.6875
40
0.75
40
0.8125
40
0.875
40
0.90625
40
0.9375
40
1
40
1
40
1
40
1
41
1
10
39.7116006867883
20
9.51746789367695
30
-2E-16
41
1
10
39.5563535664313
20
9.50880648181871
30
-2E-16
41
1
10
39.3348498843604
20
9.32190973267063
30
-2E-16
41
1
10
39.3240154682202
20
9.02228914005062
30
-2E-16
41
1
10
39.3038276574778
20
8.74281561837543
30
-2E-16
41
1
10
39.2725721575938
20
8.4152073317438
30
-2E-16
41
1
10
39.2221774976288
20
8.03507107463784
30
0
41
1
10
39.1556398957852
20
7.64614840649602
30
0
41
1
10
39.0755585592933
20
7.2321350322857
30
0
41
1
10
38.9845326953837
20
6.77672665697412
30
0
41
1
10
38.8624373329044
20
6.31295813179071
30
0
41
1
10
38.6891475007037
20
5.87386430796496
30
0
41
1
10
38.4325405836751
20
5.4640936806766
30
0
41
1
10
38.4079096257531
20
4.98724564738868
30
0
41
1
10
38.4138781596776
20
4.51967965828712
30
0
41
1
10
38.4100865297027
20
4.05227872583919
30
0
41
1
10
38.4283129970197
20
3.65427404334344
30
0
41
1
10
38.5862751020223
20
3.3897619388562
30
0
41
1
10
38.8172305953194
20
3.17817155184821
30
0
41
1
10
39.0471466405936
20
3.09813389478853
30
0
41
1
10
39.2030298495502
20
3.09672725019791
30
0
0
SPLINE
5
134
100
AcDbEntity
8
1
62
256
6
ByLayer
370
-1
48
1
60
0
100
AcDbSpline
70
4
71
1
72
4
73
2
40
0
40
0
40
1
40
1
41
1
10
39.427745471333
20
3.0963149605667
30
0
41
1
10
39.2030298495502
20
3.09672725019791
30
0
0
SPLINE
5
135
100
AcDbEntity
8
1
62
256
6
ByLayer
370
-1
48
1
60
0
100
AcDbSpline
70
4
71
3
72
18
73
14
40
0
40
0
40
0
40
0
40
0.213394464779723
40
0.213394464779723
40
0.389004322610664
40
0.389004322610664
40
0.566252444177968
40
0.566252444177968
40
0.721175490823056
40
0.721175490823056
40
0.927416435499181
40
0.927416435499181
40
1
40
1
40
1
40
1
41
1
10
44.7901752120144
20
7.21116816813321
30
0
41
1
10
44.7833804180975
20
7.16594320037183
30
0
41
1
10
44.7824742338484
20
7.11800241947716
30
0
41
1
10
44.7931445875486
20
7.03111440975385
30
0
41
1
10
44.802736109974
20
6.99112515923593
30
0
41
1
10
44.8312345450511
20
6.91586015593739
30
0
41
1
10
44.8507188021705
20
6.87959432985366
30
0
41
1
10
44.893350580688
20
6.82163470820984
30
0
41
1
10
44.9162083958219
20
6.79794180918159
30
0
41
1
10
44.972207816901
20
6.75333016259847
30
0
41
1
10
45.0071619097997
20
6.73500432224157
30
0
41
1
10
45.0552207674556
20
6.71960539900042
30
0
41
1
10
45.0679812846935
20
6.7164026487485
30
0
41
1
10
45.080805135119
20
6.71401604613416
30
0
0
SPLINE
5
136
100
AcDbEntity
8
1
62
256
6
ByLayer
370
-1
48
1
60
0
100
AcDbSpline
70
4
71
3
72
14
73
10
40
0
40
0
40
0
40
0
40
0.284519249123238
40
0.284519249123238
40
0.571733062184451
40
0.571733062184451
40
0.831996244286524
40
0.831996244286524
40
1
40
1
40
1
40
1
41
1
10
43.3079859391579
20
6.66528362616017
30
0
41
1
10
43.2860340196488
20
6.66079283133067
30
0
41
1
10
43.2645261416938
20
6.65250862590051
30
0
41
1
10
43.2260755511586
20
6.62884831569883
30
0
41
1
10
43.2086075369026
20
6.61300841528478
30
0
41
1
10
43.1828527052584
20
6.57759568838782
30
0
41
1
10
43.1735026166347
20
6.55795869102633
30
0
41
1
10
43.1648884299199
20
6.52407056541713
30
0
41
1
10
43.1631402724949
20
6.51012731436205
30
0
41
1
10
43.1631402724949
20
6.49621520475287
30
0
0
SPLINE
5
137
100
AcDbEntity
8
1
62
256
6
ByLayer
370
-1
48
1
60
0
100
AcDbSpline
70
4
71
3
72
12
73
8
40
0
40
0
40
0
40
0
40
0.377026290846271
40
0.377026290846271
40
0.761056372063252
40
0.761056372063252
40
1
40
1
40
1
40
1
41
1
10
44.1834193485444
20
5.75963652461803
30
0
41
1
10
44.1441697763549
20
5.75632904637743
30
0
41
1
10
44.1042332287821
20
5.74814994169236
30
0
41
1
10
44.029092252514
20
5.72398754239609
30
0
41
1
10
43.9929674120039
20
5.70760297522506
30
0
41
1
10
43.9400159254406
20
5.67631720474051
30
0
41
1
10
43.9207900154182
20
5.66304029606417
30
0
41
1
10
43.9029577676951
20
5.64879973397126
30
0
0
SPLINE
5
138
100
AcDbEntity
8
1
62
256
6
ByLayer
370
-1
48
1
60
0
100
AcDbSpline
70
4
71
3
72
14
73
10
40
0
40
0
40
0
40
0
40
0.284519249123235
40
0.284519249123235
40
0.571733062184452
40
0.571733062184452
40
0.831996244286525
40
0.831996244286525
40
1
40
1
40
1
40
1
41
1
10
45.080805135119
20
6.36213099500429
30
0
41
1
10
45.0990048222519
20
6.37000215809431
30
0
41
1
10
45.1169464446857
20
6.38149918612299
30
0
41
1
10
45.1491515655063
20
6.41078601021803
30
0
41
1
10
45.1638545801009
20
6.4291168856461
30
0
41
1
10
45.185580011942
20
6.46815967961726
30
0
41
1
10
45.1934916293067
20
6.48909258887866
30
0
41
1
10
45.200783359669
20
6.52417210911165
30
0
41
1
10
45.2022645340704
20
6.53835588389995
30
0
41
1
10
45.2022645340704
20
6.55226799350913
30
0
0
SPLINE
5
139
100
AcDbEntity
8
1
62
256
6
ByLayer
370
-1
48
1
60
0
100
AcDbSpline
70
4
71
3
72
12
73
8
40
0
40
0
40
0
40
0
40
0.464390992171653
40
0.464390992171653
40
0.846401077318505
40
0.846401077318505
40
1
40
1
40
1
40
1
41
1
10
44.4859473347357
20
5.66482533460001
30
0
41
1
10
44.459314961596
20
5.69057377582482
30
0
41
1
10
44.4267254595321
20
5.71259744023283
30
0
41
1
10
44.358227350109
20
5.7423906649631
30
0
41
1
10
44.3230954429289
20
5.7522620645035
30
0
41
1
10
44.2705480877616
20
5.75938660002157
30
0
41
1
10
44.2548878003461
20
5.76068034617336
30
0
41
1
10
44.2390103187688
20
5.76116464576762
30
0
0
SPLINE
5
13A
100
AcDbEntity
8
1
62
256
6
ByLayer
370
-1
48
1
60
0
100
AcDbSpline
70
4
71
3
72
14
73
10
40
0
40
0
40
0
40
0
40
0.284523597312289
40
0.284523597312289
40
0.571736866218031
40
0.571736866218031
40
0.831999616286237
40
0.831999616286237
40
1
40
1
40
1
40
1
41
1
10
43.5986158622625
20
5.81624645303128
30
0
41
1
10
43.5915472516093
20
5.79755401570881
30
0
41
1
10
43.587958918339
20
5.77731308243347
30
0
41
1
10
43.5891661981279
20
5.73681901513606
30
0
41
1
10
43.5940995889807
20
5.71594592636381
30
0
41
1
10
43.6117779705184
20
5.67938707161622
30
0
41
1
10
43.6240470299788
20
5.66286393405787
30
0
41
1
10
43.6489893874196
20
5.64010447769917
30
0
41
1
10
43.6601518794144
20
5.63211433425553
30
0
41
1
10
43.6721639581399
20
5.62547828006569
30
0
0
SPLINE
5
13B
100
AcDbEntity
8
1
62
256
6
ByLayer
370
-1
48
1
60
0
100
AcDbSpline
70
4
71
3
72
18
73
14
40
0
40
0
40
0
40
0
40
0.213393079737798
40
0.213393079737798
40
0.389003177496045
40
0.389003177496045
40
0.566251555260787
40
0.566251555260787
40
0.721174645896042
40
0.721174645896042
40
0.927415342089921
40
0.927415342089921
40
1
40
1
40
1
40
1
41
1
10
43.3079859391579
20
6.66528362616017
30
0
41
1
10
43.3529635112257
20
6.67448487382339
30
0
41
1
10
43.3973209231172
20
6.69072497765652
30
0
41
1
10
43.470940445551
20
6.73374043783943
30
0
41
1
10
43.5022402211646
20
6.75872573644475
30
0
41
1
10
43.5551666231941
20
6.81803274579605
30
0
41
1
10
43.5773626866621
20
6.85340729571973
30
1E-16
41
1
10
43.6061981366087
20
6.92362958936428
30
1E-16
41
1
10
43.6148548918262
20
6.95878347883399
30
1E-16
41
1
10
43.6238209725247
20
7.0399228575703
30
1E-16
41
1
10
43.6207541614477
20
7.08699701343366
30
1E-16
41
1
10
43.6078199536411
20
7.14740873377408
30
1E-16
41
1
10
43.6035965409829
20
7.16306198849202
30
1E-16
41
1
10
43.5986158622625
20
7.17841380108419
30
1E-16
0
SPLINE
5
13C
100
AcDbEntity
8
1
62
256
6
ByLayer
370
-1
48
1
60
0
100
AcDbSpline
70
4
71
3
72
16
73
12
40
0
40
0
40
0
40
0
40
0.0650212293342919
40
0.0650212293342919
40
0.289691523269468
40
0.289691523269468
40
0.517236422326116
40
0.517236422326116
40
0.759263521180984
40
0.759263521180984
40
1
40
1
40
1
40
1
41
1
10
44.6932408484254
20
5.65354631314906
30
0
41
1
10
44.6979058246567
20
5.65637993987428
30
0
41
1
10
44.7024761910505
20
5.65940381742945
30
0
41
1
10
44.7221723004478
20
5.67355295137361
30
0
41
1
10
44.7361430325396
20
5.68673365973254
30
0
41
1
10
44.7596040772559
20
5.71544617046854
30
0
41
1
10
44.7693445475692
20
5.73136350256496
30
0
41
1
10
44.7841426125687
20
5.76462177203462
30
0
41
1
10
44.7890659876848
20
5.7823998428432
30
0
41
1
10
44.7934420414345
20
5.81660855153484
30
0
41
1
10
44.7929848892233
20
5.8334059361666
30
0
41
1
10
44.7901752120144
20
5.84900082008025
30
0
0
SPLINE
5
13D
100
AcDbEntity
8
1
62
256
6
ByLayer
370
-1
48
1
60
0
100
AcDbSpline
70
4
71
3
72
18
73
14
40
0
40
0
40
0
40
0
40
0.2133930797378
40
0.2133930797378
40
0.389003177496046
40
0.389003177496046
40
0.566251555260788
40
0.566251555260788
40
0.721174645896043
40
0.721174645896043
40
0.92741534208992
40
0.92741534208992
40
1
40
1
40
1
40
1
41
1
10
45.080805135119
20
6.36213099500429
30
0
41
1
10
45.0435155605424
20
6.3460036670505
30
0
41
1
10
45.0063993141447
20
6.32324003174304
30
0
41
1
10
44.9433260154103
20
6.2707235289038
30
0
41
1
10
44.9158780517149
20
6.24226815130319
30
0
41
1
10
44.8673374534896
20
6.17900999221206
30
0
41
1
10
44.8456466602191
20
6.14318024677624
30
0
41
1
10
44.8143114400537
20
6.07520998420517
30
0
41
1
10
44.8030874655317
20
6.04236889036881
30
0
41
1
10
44.7859928213095
20
5.96855249576154
30
0
41
1
10
44.7827180183435
20
5.92719146975875
30
0
41
1
10
44.7861950944875
20
5.87529963425033
30
0
41
1
10
44.7878384685198
20
5.86197072403127
30
0
41
1
10
44.7901752120144
20
5.84900082008028
30
0
0
SPLINE
5
13E
100
AcDbEntity
8
1
62
256
6
ByLayer
370
-1
48
1
60
0
100
AcDbSpline
70
4
71
3
72
16
73
12
40
0
40
0
40
0
40
0
40
0.0668638488454775
40
0.0668638488454775
40
0.290854271538574
40
0.290854271538574
40
0.51782497397127
40
0.51782497397127
40
0.759328674281164
40
0.759328674281164
40
1
40
1
40
1
40
1
41
1
10
44.6932408484254
20
7.42300491819631
30
0
41
1
10
44.6884307327746
20
7.42566225909857
30
0
41
1
10
44.6835079409864
20
7.42807923246582
30
0
41
1
10
44.6618745378385
20
7.43742423595165
30
0
41
1
10
44.6441013401485
20
7.44179210783389
30
0
41
1
10
44.6089502700717
20
7.44446382438676
30
0
41
1
10
44.5911345088406
20
7.44273553423736
30
0
41
1
10
44.5567739639043
20
7.43359333355616
30
0
41
1
10
44.5399489890839
20
7.42572810301891
30
0
41
1
10
44.5102153210979
20
7.40539345112396
30
0
41
1
10
44.4969718171676
20
7.39273945561771
30
0
41
1
10
44.4859473347357
20
7.37851215977295
30
0
0
SPLINE
5
13F
100
AcDbEntity
8
1
62
256
6
ByLayer
370
-1
48
1
60
0
100
AcDbSpline
70
4
71
3
72
16
73
12
40
0
40
0
40
0
40
0
40
0.0650212293342938
40
0.0650212293342938
40
0.28969152326947
40
0.28969152326947
40
0.517236422326116
40
0.517236422326116
40
0.759263521180992
40
0.759263521180992
40
1
40
1
40
1
40
1
41
1
10
43.6721639581399
20
7.39493688511291
30
-1E-16
41
1
10
43.6674989819086
20
7.39210325838772
30
-1E-16
41
1
10
43.6629683174613
20
7.38904361353829
30
-1E-16
41
1
10
43.6436227708552
20
7.37457865924665
30
1E-16
41
1
10
43.6304043090099
20
7.3607202342088
30
1E-16
41
1
10
43.6092913257447
20
7.32989236610473
30
1E-16
41
1
10
43.6011859035765
20
7.31250202692888
30
1E-16
41
1
10
43.5904351019832
20
7.27559759715012
30
1E-16
41
1
10
43.5880160229053
20
7.25556341797878
30
1E-16
41
1
10
43.5891299290264
20
7.21640883061062
30
1E-16
41
1
10
43.5926271435527
20
7.19687266833131
30
1E-16
41
1
10
43.5986158622625
20
7.17841380108422
30
1E-16
0
SPLINE
5
140
100
AcDbEntity
8
1
62
256
6
ByLayer
370
-1
48
1
60
0
100
AcDbSpline
70
4
71
3
72
12
73
8
40
0
40
0
40
0
40
0
40
0.464390992172111
40
0.464390992172111
40
0.846401077319347
40
0.846401077319347
40
1
40
1
40
1
40
1
41
1
10
43.9029577676951
20
7.3624865591442
30
0
41
1
10
43.9372991782461
20
7.329793082865
30
0
41
1
10
43.9771545980518
20
7.30122358780048
30
0
41
1
10
44.0562465444654
20
7.26188642582693
30
0
41
1
10
44.0952537702029
20
7.24852377027213
30
0
41
1
10
44.1509087589278
20
7.23859958249625
30
0
41
1
10
44.1672030248361
20
7.23673468814252
30
0
41
1
10
44.1834193485444
20
7.23594512728769
30
0
0
SPLINE
5
141
100
AcDbEntity
8
1
62
256
6
ByLayer
370
-1
48
1
60
0
100
AcDbSpline
70
4
71
3
72
16
73
12
40
0
40
0
40
0
40
0
40
0.0670553612811623
40
0.0670553612811623
40
0.291697905104274
40
0.291697905104274
40
0.519329228663784
40
0.519329228663784
40
0.761535715028726
40
0.761535715028726
40
1
40
1
40
1
40
1
41
1
10
45.2022645340704
20
6.55226799350913
30
0
41
1
10
45.2022645340704
20
6.55783858684103
30
0
41
1
10
45.2020307244191
20
6.56339025100391
30
0
41
1
10
45.2000171294556
20
6.58715792562938
30
0
41
1
10
45.1958052624311
20
6.60505047522264
30
0
41
1
10
45.1828821254807
20
6.63749718191639
30
0
41
1
10
45.1739601541507
20
6.65242352097641
30
0
41
1
10
45.1523185883108
20
6.67836142801227
30
0
41
1
10
45.1391357797218
20
6.68939995109036
30
0
41
1
10
45.1111440398729
20
6.70567155489024
30
0
41
1
10
45.0960816478394
20
6.71117298699147
30
0
41
1
10
45.080805135119
20
6.71401604613416
30
0
0
SPLINE
5
142
100
AcDbEntity
8
1
62
256
6
ByLayer
370
-1
48
1
60
0
100
AcDbSpline
70
4
71
3
72
14
73
10
40
0
40
0
40
0
40
0
40
0.284523597312289
40
0.284523597312289
40
0.571736866218036
40
0.571736866218036
40
0.83199961628624
40
0.83199961628624
40
1
40
1
40
1
40
1
41
1
10
44.7901752120144
20
7.21116816813321
30
0
41
1
10
44.7934915331197
20
7.23324102522193
30
0
41
1
10
44.7935135585976
20
7.25669482818668
30
0
41
1
10
44.7860607929827
20
7.30281542389213
30
0
41
1
10
44.7783624228994
20
7.32617946927229
30
0
41
1
10
44.75665467962
20
7.36636835680477
30
0
41
1
10
44.7429471674415
20
7.38418738955963
30
0
41
1
10
44.71668239132
20
7.4081382066037
30
0
41
1
10
44.7052529271509
20
7.41636886400644
30
0
41
1
10
44.6932408484254
20
7.42300491819631
30
0
0
SPLINE
5
143
100
AcDbEntity
8
1
62
256
6
ByLayer
370
-1
48
1
60
0
100
AcDbSpline
70
4
71
3
72
14
73
10
40
0
40
0
40
0
40
0
40
0.283738489034224
40
0.283738489034224
40
0.570489531030765
40
0.570489531030765
40
0.830294403552172
40
0.830294403552172
40
1
40
1
40
1
40
1
41
1
10
43.9029577676951
20
7.3624865591442
30
0
41
1
10
43.8862196987614
20
7.37842142177402
30
0
41
1
10
43.8665338730786
20
7.39203275669865
30
0
41
1
10
43.8237449671103
20
7.41179758360121
30
0
41
1
10
43.7999310200746
20
7.41813908683372
30
0
41
1
10
43.7544071748537
20
7.4211995181229
30
0
41
1
10
43.7320233111648
20
7.41877440466683
30
-1E-16
41
1
10
43.6975627146844
20
7.40823837681361
30
-1E-16
41
1
10
43.6843318488014
20
7.40232797532596
30
-1E-16
41
1
10
43.6721639581399
20
7.39493688511291
30
-1E-16
0
SPLINE
5
144
100
AcDbEntity
8
1
62
256
6
ByLayer
370
-1
48
1
60
0
100
AcDbSpline
70
4
71
3
72
12
73
8
40
0
40
0
40
0
40
0
40
0.377026290639699
40
0.377026290639699
40
0.76105637182305
40
0.76105637182305
40
1
40
1
40
1
40
1
41
1
10
44.2390103187688
20
7.23747324843725
30
0
41
1
10
44.2774397661716
20
7.24151957316758
30
0
41
1
10
44.3147598994433
20
7.25205579299652
30
0
41
1
10
44.3822078282653
20
7.2831488220304
30
0
41
1
10
44.4131571150782
20
7.30419602084976
30
0
41
1
10
44.4567559385177
20
7.34390756098358
30
0
41
1
10
44.4721181102473
20
7.36066529310017
30
0
41
1
10
44.4859473347357
20
7.37851215977295
30
0
0
SPLINE
5
145
100
AcDbEntity
8
1
62
256
6
ByLayer
370
-1
48
1
60
0
100
AcDbSpline
70
4
71
3
72
16
73
12
40
0
40
0
40
0
40
0
40
0.0668638488455235
40
0.0668638488455235
40
0.290854271538801
40
0.290854271538801
40
0.517824973971677
40
0.517824973971677
40
0.759328674281757
40
0.759328674281757
40
1
40
1
40
1
40
1
41
1
10
43.6721639581399
20
5.62547828006569
30
0
41
1
10
43.6769740737907
20
5.62282093916343
30
0
41
1
10
43.6819390832092
20
5.62036593213429
30
0
41
1
10
43.7039364204278
20
5.61069306217905
30
0
41
1
10
43.7224700519749
20
5.60564011905996
30
0
41
1
10
43.7599844763845
20
5.60083926785501
30
0
41
1
10
43.7794430037592
20
5.60108759781673
30
0
41
1
10
43.8178659947651
20
5.60656996019983
30
0
41
1
10
43.8372030901254
20
5.61217203331805
30
0
41
1
10
43.8724459006353
20
5.62754352497558
30
0
41
1
10
43.8887421258773
20
5.63744733840457
30
0
41
1
10
43.902957767695
20
5.64879973397115
30
0
0
SPLINE
5
146
100
AcDbEntity
8
1
62
256
6
ByLayer
370
-1
48
1
60
0
100
AcDbSpline
70
4
71
3
72
14
73
10
40
0
40
0
40
0
40
0
40
0.283738489034219
40
0.283738489034219
40
0.570489531030765
40
0.570489531030765
40
0.830294403552168
40
0.830294403552168
40
1
40
1
40
1
40
1
41
1
10
44.4859473347357
20
5.66482533460001
30
0
41
1
10
44.4989280041469
20
5.65227549528819
30
0
41
1
10
44.5150408157008
20
5.64188307175951
30
0
41
1
10
44.551563625462
20
5.62776334105902
30
0
41
1
10
44.5725993430733
20
5.62392473147108
30
0
41
1
10
44.6140691294322
20
5.62451658248466
30
0
41
1
10
44.635002505661
20
5.62824843317887
30
0
41
1
10
44.6681161513927
20
5.63999792254069
30
0
41
1
10
44.6810729577639
20
5.64615522293605
30
0
41
1
10
44.6932408484254
20
5.65354631314906
30
0
0
SPLINE
5
147
100
AcDbEntity
8
1
62
256
6
ByLayer
370
-1
48
1
60
0
100
AcDbSpline
70
4
71
3
72
18
73
14
40
0
40
0
40
0
40
0
40
0.213394464779721
40
0.213394464779721
40
0.389004322610665
40
0.389004322610665
40
0.566252444177969
40
0.566252444177969
40
0.721175490823057
40
0.721175490823057
40
0.927416435499181
40
0.927416435499181
40
1
40
1
40
1
40
1
41
1
10
43.5986158622625
20
5.81624645303128
30
0
41
1
10
43.6130987036828
20
5.85454529544629
30
0
41
1
10
43.6212460987892
20
5.89596250399887
30
0
41
1
10
43.6211219659416
20
5.97334947363061
30
0
41
1
10
43.6153822305752
20
6.00986866754883
30
0
41
1
10
43.591269550715
20
6.08118256487947
30
1E-16
41
1
10
43.5722905401333
20
6.11699321676596
30
1E-16
41
1
10
43.5271589600147
20
6.17720489775556
30
0
41
1
10
43.5017339126184
20
6.20321060409083
30
0
41
1
10
43.4376058991795
20
6.25514526078132
30
0
41
1
10
43.3963101736015
20
6.27918424778807
30
0
41
1
10
43.3387942026296
20
6.30310303933297
30
0
41
1
10
43.3234536848548
20
6.30863009976954
30
0
41
1
10
43.3079859391579
20
6.31339857503033
30
0
0
SPLINE
5
148
100
AcDbEntity
8
1
62
256
6
ByLayer
370
-1
48
1
60
0
100
AcDbSpline
70
4
71
3
72
16
73
12
40
0
40
0
40
0
40
0
40
0.0670553612811595
40
0.0670553612811595
40
0.29169790510427
40
0.29169790510427
40
0.519329228663783
40
0.519329228663783
40
0.761535715028722
40
0.761535715028722
40
1
40
1
40
1
40
1
41
1
10
43.1631402724949
20
6.49621520475287
30
0
41
1
10
43.1631402724949
20
6.49064461142098
30
0
41
1
10
43.1634162958385
20
6.48505491714391
30
0
41
1
10
43.165793804146
20
6.46095939472161
30
0
41
1
10
43.1707660924463
20
6.44238178522599
30
0
41
1
10
43.1860525601539
20
6.4078059651192
30
0
41
1
10
43.1966172857275
20
6.39139967659222
30
0
41
1
10
43.2223212742244
20
6.36180195235059
30
0
41
1
10
43.2380161912875
20
6.34850028272356
30
0
41
1
10
43.2714846005204
20
6.32729477358328
30
0
41
1
10
43.2895598653926
20
6.3190790587042
30
0
41
1
10
43.3079859391579
20
6.31339857503033
30
0
0
SPLINE
5
149
100
AcDbEntity
8
1
62
256
6
ByLayer
370
-1
48
1
60
0
100
AcDbSpline
70
4
71
3
72
25
73
21
40
0
40
0
40
0
40
0
40
0.0436723338936063
40
0.0755499227638195
40
0.107427511634033
40
0.171182689374459
40
0.234937867114885
40
0.298693044855311
40
0.362448222595738
40
0.426203400336164
40
0.48995857807659
40
0.553713755817016
40
0.617468933557442
40
0.681224111297869
40
0.744979289038295
40
0.808734466778721
40
0.872489644519147
40
0.904367233389361
40
0.936244822259574
40
1
40
1
40
1
40
1
41
1
10
49.1626861037683
20
-3.24130440324362
30
0
41
1
10
49.256814943156
20
-3.2932259541364
30
0
41
1
10
49.3853130340334
20
-3.45710196381512
30
0
41
1
10
49.3751885677258
20
-3.7268248291343
30
0
41
1
10
49.3603773167799
20
-4.03758343616988
30
0
41
1
10
49.335608660606
20
-4.41652467301114
30
0
41
1
10
49.3071619060267
20
-4.8666646310804
30
0
41
1
10
49.2977013473035
20
-5.32391440205194
30
0
41
1
10
49.3241576832948
20
-5.78629638050816
30
0
41
1
10
49.4038750855102
20
-6.25186099166228
30
0
41
1
10
49.5312703345324
20
-6.71074957724997
30
0
41
1
10
49.7007966605613
20
-7.15313605636223
30
0
41
1
10
49.9592807240979
20
-7.5611333718399
30
0
41
1
10
49.9832914426786
20
-8.03843334026357
30
0
41
1
10
49.9773360324744
20
-8.50589760211199
30
0
41
1
10
49.98100180273
20
-8.97331324415657
30
0
41
1
10
49.9698776591492
20
-9.37061344261286
30
0
41
1
10
49.7983004778582
20
-9.63643570700384
30
0
41
1
10
49.5692895927055
20
-9.8478242473328
30
0
41
1
10
49.3437056902757
20
-9.92743315032405
30
0
41
1
10
49.1877921953237
20
-9.92883726333739
30
0
0
SPLINE
5
14A
100
AcDbEntity
8
1
62
256
6
ByLayer
370
-1
48
1
60
0
100
AcDbSpline
70
4
71
3
72
15
73
11
40
0
40
0
40
0
40
0
40
0.0625
40
0.125
40
0.25
40
0.5
40
0.75
40
0.875
40
0.9375
40
1
40
1
40
1
40
1
41
1
10
49.1877921953237
20
-9.92883726333739
30
0
41
1
10
48.9855444234126
20
-9.92792967914406
30
0
41
1
10
48.5802264366017
20
-9.92658050215175
30
0
41
1
10
47.7888163383698
20
-9.91772269039544
30
0
41
1
10
46.427430973154
20
-9.88636415693682
30
0
41
1
10
44.464447580791
20
-9.81398331341151
30
1E-16
41
1
10
42.5189757057075
20
-9.67783611279805
30
0
41
1
10
41.1246751787972
20
-9.59288784070671
30
-1E-16
41
1
10
40.3159154550553
20
-9.54473795706517
30
-1E-16
41
1
10
39.9129505916114
20
-9.54102534507999
30
-2E-16
41
1
10
39.7116006867883
20
-9.51746789367729
30
-2E-16
0
SPLINE
5
14B
100
AcDbEntity
8
1
62
256
6
ByLayer
370
-1
48
1
60
0
100
AcDbSpline
70
4
71
3
72
9
73
5
40
0
40
0
40
0
40
0
40
0.276541294401345
40
1
40
1
40
1
40
1
41
1
10
40.698168720102
20
-7.8002920985889
30
3E-16
41
1
10
40.7097194601611
20
-7.84340889795897
30
3E-16
41
1
10
40.7718545610885
20
-7.99330972149289
30
3E-16
41
1
10
40.9229477135216
20
-8.10581397812513
30
3E-16
41
1
10
41.040819681641
20
-8.11773747849395
30
3E-16
0
SPLINE
5
14C
100
AcDbEntity
8
1
62
256
6
ByLayer
370
-1
48
1
60
0
100
AcDbSpline
70
4
71
3
72
14
73
10
40
0
40
0
40
0
40
0
40
0.194146454542173
40
0.291219681813259
40
0.388292909084346
40
0.582439363626519
40
0.776585818168691
40
0.970732272710864
40
1
40
1
40
1
40
1
41
1
10
48.3987318544734
20
-8.78859045069851
30
-1E-16
41
1
10
48.5167867644298
20
-8.79752229919833
30
-1E-16
41
1
10
48.6914017601583
20
-8.74419887292001
30
-1E-16
41
1
10
48.8844621105125
20
-8.61176247645952
30
-1E-16
41
1
10
49.0506670922332
20
-8.44666880545043
30
-1E-16
41
1
10
49.2132023977483
20
-8.19406256167488
30
0
41
1
10
49.2283806145662
20
-7.83507338643352
30
0
41
1
10
49.2272746273965
20
-7.5788604179458
30
0
41
1
10
49.2006410720839
20
-7.44521397127389
30
0
41
1
10
49.1968000986922
20
-7.42775116588678
30
0
0
SPLINE
5
14D
100
AcDbEntity
8
1
62
256
6
ByLayer
370
-1
48
1
60
0
100
AcDbSpline
70
4
71
1
72
4
73
2
40
0
40
0
40
1
40
1
41
1
10
39.7116006867883
20
-9.51746789367729
30
-2E-16
41
1
10
41.040819681641
20
-8.11773747849395
30
3E-16
0
SPLINE
5
14E
100
AcDbEntity
8
1
62
256
6
ByLayer
370
-1
48
1
60
0
100
AcDbSpline
70
4
71
1
72
4
73
2
40
0
40
0
40
1
40
1
41
1
10
49.1877921953237
20
-9.92883726333739
30
0
41
1
10
48.3987318544734
20
-8.78859045069851
30
-1E-16
0
SPLINE
5
14F
100
AcDbEntity
8
1
62
256
6
ByLayer
370
-1
48
1
60
0
100
AcDbSpline
70
4
71
3
72
8
73
4
40
0
40
0
40
0
40
0
40
1
40
1
40
1
40
1
41
1
10
41.040819681641
20
-8.11773747849395
30
3E-16
41
1
10
41.4479259449884
20
-8.15888496239566
30
2E-16
41
1
10
41.8550601886107
20
-8.19971509984441
30
1E-16
41
1
10
42.2622300992714
20
-8.24005447652004
30
0
0
SPLINE
5
150
100
AcDbEntity
8
1
62
256
6
ByLayer
370
-1
48
1
60
0
100
AcDbSpline
70
4
71
3
72
12
73
8
40
0
40
0
40
0
40
0
40
0.331400290864784
40
0.497100436297176
40
0.662800581729567
40
0.994200872594352
40
1
40
1
40
1
40
1
41
1
10
39.7116006867883
20
-9.51746789367729
30
-2E-16
41
1
10
39.5563535664313
20
-9.50880648181905
30
-2E-16
41
1
10
39.3348498843604
20
-9.32190973267097
30
-2E-16
41
1
10
39.3240154682202
20
-9.02228914005096
30
-2E-16
41
1
10
39.3038276574778
20
-8.74281561837577
30
-2E-16
41
1
10
39.2848555832965
20
-8.54395753773554
30
-2E-16
41
1
10
39.2699107658776
20
-8.41286318360048
30
-2E-16
41
1
10
39.2696530855079
20
-8.41060927753978
30
-2E-16
0
LINE
5
4A
100
AcDbEntity
8
1
62
256
6
ByLayer
370
-1
48
1
60
0
100
AcDbLine
10
45.492166
20
7.666335
30
0
11
45.367228
21
7.778891
31
0
39
0
210
0
220
0
230
1
0
LINE
5
4C
100
AcDbEntity
8
1
62
256
6
ByLayer
370
-1
48
1
60
0
100
AcDbLine
10
43.058033
20
5.215668
30
0
11
43.18297
21
5.103112
31
0
39
0
210
0
220
0
230
1
0
LINE
5
4D
100
AcDbEntity
8
1
62
256
6
ByLayer
370
-1
48
1
60
0
100
AcDbLine
10
44.923946
20
6.792628
30
0
11
45.070701
21
6.660417
31
0
39
0
210
0
220
0
230
1
0
LINE
5
4E
100
AcDbEntity
8
1
62
256
6
ByLayer
370
-1
48
1
60
0
100
AcDbLine
10
43.63885
20
6.078026
30
0
11
43.492095
21
6.210237
31
0
39
0
210
0
220
0
230
1
0
LINE
5
4F
100
AcDbEntity
8
1
62
256
6
ByLayer
370
-1
48
1
60
0
100
AcDbLine
10
43.912971
20
7.353209
30
0
11
44.072317
21
7.209655
31
0
39
0
210
0
220
0
230
1
0
LINE
5
50
100
AcDbEntity
8
1
62
256
6
ByLayer
370
-1
48
1
60
0
100
AcDbLine
10
15
20
-16
30
0
11
24.612947
21
-9.281816
31
0
39
0
210
0
220
0
230
1
0
LINE
5
51
100
AcDbEntity
8
1
62
256
6
ByLayer
370
-1
48
1
60
0
100
AcDbLine
10
24.612947
20
9.281816
30
0
11
15
21
16
31
0
39
0
210
0
220
0
230
1
0
LINE
5
52
100
AcDbEntity
8
1
62
256
6
ByLayer
370
-1
48
1
60
0
100
AcDbLine
10
15
20
16
30
0
11
0.3
21
16
31
0
39
0
210
0
220
0
230
1
0
LINE
5
53
100
AcDbEntity
8
1
62
256
6
ByLayer
370
-1
48
1
60
0
100
AcDbLine
10
0.3
20
-16
30
0
11
15
21
-16
31
0
39
0
210
0
220
0
230
1
0
LINE
5
54
100
AcDbEntity
8
1
62
256
6
ByLayer
370
-1
48
1
60
0
100
AcDbLine
10
0.3
20
16
30
0
11
0
21
15.7
31
0
39
0
210
0
220
0
230
1
0
LINE
5
55
100
AcDbEntity
8
1
62
256
6
ByLayer
370
-1
48
1
60
0
100
AcDbLine
10
0
20
-15.7
30
0
11
0.3
21
-16
31
0
39
0
210
0
220
0
230
1
0
LINE
5
56
100
AcDbEntity
8
1
62
256
6
ByLayer
370
-1
48
1
60
0
100
AcDbLine
10
27.945928
20
9.011317
30
0
11
25.472207
21
9.011317
31
0
39
0
210
0
220
0
230
1
0
LINE
5
57
100
AcDbEntity
8
1
62
256
6
ByLayer
370
-1
48
1
60
0
100
AcDbLine
10
25.472207
20
-9.011317
30
0
11
27.945928
21
-9.011317
31
0
39
0
210
0
220
0
230
1
0
LINE
5
58
100
AcDbEntity
8
4
62
256
6
ByLayer
370
-1
48
0.05
60
0
100
AcDbLine
10
0
20
0
30
0
11
50
21
0
31
0
39
0
210
0
220
0
230
1
0
LINE
5
5A
100
AcDbEntity
8
81
62
256
6
ByLayer
370
-1
48
1
60
0
100
AcDbLine
10
50
20
9.935
30
0
11
56.9
21
9.935
31
0
39
0
210
0
220
0
230
1
0
LINE
5
5B
100
AcDbEntity
8
80
62
256
6
ByLayer
370
-1
48
1
60
0
100
AcDbLine
10
0
20
0
30
0
11
-10
21
0
31
0
39
0
210
0
220
0
230
1
0
LINE
5
5C
100
AcDbEntity
8
SK4
62
256
6
ByLayer
370
-1
48
0.05
60
0
100
AcDbLine
10
60
20
0
30
0
11
-29
21
0
31
0
39
0
210
0
220
0
230
1
0
LINE
5
5E
100
AcDbEntity
8
SK1
62
256
6
ByLayer
370
-1
48
1
60
0
100
AcDbLine
10
-0.2
20
10.883485
30
0
11
-0.2
21
5.197043
31
0
39
0
210
0
220
0
230
1
0
LINE
5
60
100
AcDbEntity
8
1
62
256
6
ByLayer
370
-1
48
1
60
0
100
AcDbLine
10
4.663397
20
5.068619
30
0
11
4.663397
21
15.175938
31
0
39
0
210
0
220
0
230
1
0
LINE
5
61
100
AcDbEntity
8
1
62
256
6
ByLayer
370
-1
48
1
60
0
100
AcDbLine
10
48.358128
20
-8.708878
30
0
11
48.358128
21
-6.168742
31
0
39
0
210
0
220
0
230
1
0
LINE
5
62
100
AcDbEntity
8
1
62
256
6
ByLayer
370
-1
48
1
60
0
100
AcDbLine
10
46.97901
20
-5.106195
30
0
11
46.926398
21
-5.153593
31
0
39
0
210
0
220
0
230
1
0
LINE
5
63
100
AcDbEntity
8
1
62
256
6
ByLayer
370
-1
48
1
60
0
100
AcDbLine
10
25.472207
20
-9.011317
30
0
11
25.472207
21
9.011317
31
0
39
0
210
0
220
0
230
1
0
LINE
5
64
100
AcDbEntity
8
1
62
256
6
ByLayer
370
-1
48
1
60
0
100
AcDbLine
10
7.076795
20
-15.276962
30
0
11
7.076795
21
-4.755463
31
0
39
0
210
0
220
0
230
1
0
LINE
5
65
100
AcDbEntity
8
1
62
256
6
ByLayer
370
-1
48
1
60
0
100
AcDbLine
10
41.249255
20
-5.54161
30
0
11
41.249255
21
-7.821282
31
0
39
0
210
0
220
0
230
1
0
LINE
5
66
100
AcDbEntity
8
1
62
256
6
ByLayer
370
-1
48
1
60
0
100
AcDbLine
10
7.336603
20
5.068619
30
0
11
7.336603
21
15.175938
31
0
39
0
210
0
220
0
230
1
0
LINE
5
67
100
AcDbEntity
8
1
62
256
6
ByLayer
370
-1
48
1
60
0
100
AcDbLine
10
0
20
-15.7
30
0
11
0
21
15.7
31
0
39
0
210
0
220
0
230
1
0
LINE
5
68
100
AcDbEntity
8
1
62
256
6
ByLayer
370
-1
48
1
60
0
100
AcDbLine
10
0.3
20
-16
30
0
11
0.3
21
16
31
0
39
0
210
0
220
0
230
1
0
LINE
5
69
100
AcDbEntity
8
1
62
256
6
ByLayer
370
-1
48
1
60
0
100
AcDbLine
10
7.076795
20
4.755463
30
0
11
7.076795
21
15.276962
31
0
39
0
210
0
220
0
230
1
0
LINE
5
6A
100
AcDbEntity
8
1
62
256
6
ByLayer
370
-1
48
1
60
0
100
AcDbLine
10
4.923205
20
-4.755463
30
0
11
7.076795
21
-4.755463
31
0
39
0
210
0
220
0
230
1
0
LINE
5
6B
100
AcDbEntity
8
1
62
256
6
ByLayer
370
-1
48
1
60
0
100
AcDbLine
10
24.612947
20
-9.281816
30
0
11
24.612947
21
9.281816
31
0
39
0
210
0
220
0
230
1
0
LINE
5
6C
100
AcDbEntity
8
1
62
256
6
ByLayer
370
-1
48
1
60
0
100
AcDbLine
10
7.076795
20
-15.276962
30
0
11
4.923205
21
-15.276962
31
0
39
0
210
0
220
0
230
1
0
LINE
5
6D
100
AcDbEntity
8
1
62
256
6
ByLayer
370
-1
48
1
60
0
100
AcDbLine
10
38.433425
20
-8.477108
30
0
11
38.433425
21
2.751323
31
0
39
0
210
0
220
0
230
1
0
LINE
5
6E
100
AcDbEntity
8
1
62
256
6
ByLayer
370
-1
48
1
60
0
100
AcDbLine
10
4.663397
20
-15.175938
30
0
11
4.663397
21
-5.068619
31
0
39
0
210
0
220
0
230
1
0
LINE
5
6F
100
AcDbEntity
8
1
62
256
6
ByLayer
370
-1
48
1
60
0
100
AcDbLine
10
49.161564
20
2.794105
30
0
11
49.161564
21
3.260584
31
0
39
0
210
0
220
0
230
1
0
LINE
5
70
100
AcDbEntity
8
1
62
256
6
ByLayer
370
-1
48
1
60
0
100
AcDbLine
10
46.926398
20
-5.153593
30
0
11
46.926398
21
-5.503007
31
0
39
0
210
0
220
0
230
1
0
LINE
5
71
100
AcDbEntity
8
1
62
256
6
ByLayer
370
-1
48
1
60
0
100
AcDbLine
10
4.923205
20
4.755463
30
0
11
4.923205
21
15.276962
31
0
39
0
210
0
220
0
230
1
0
LINE
5
72
100
AcDbEntity
8
1
62
256
6
ByLayer
370
-1
48
1
60
0
100
AcDbLine
10
37.985597
20
5.276827
30
0
11
37.945561
21
5.282973
31
0
39
0
210
0
220
0
230
1
0
LINE
5
73
100
AcDbEntity
8
1
62
256
6
ByLayer
370
-1
48
1
60
0
100
AcDbLine
10
4.923205
20
-15.276962
30
0
11
4.923205
21
-4.755463
31
0
39
0
210
0
220
0
230
1
0
LINE
5
74
100
AcDbEntity
8
1
62
256
6
ByLayer
370
-1
48
1
60
0
100
AcDbLine
10
7.336603
20
-15.175938
30
0
11
7.336603
21
-5.068619
31
0
39
0
210
0
220
0
230
1
0
LINE
5
75
100
AcDbEntity
8
1
62
256
6
ByLayer
370
-1
48
1
60
0
100
AcDbLine
10
7.076795
20
4.755463
30
0
11
4.923205
21
4.755463
31
0
39
0
210
0
220
0
230
1
0
LINE
5
76
100
AcDbEntity
8
1
62
256
6
ByLayer
370
-1
48
1
60
0
100
AcDbLine
10
41.168756
20
-7.812739
30
0
11
41.168756
21
-5.421243
31
0
39
0
210
0
220
0
230
1
0
LINE
5
77
100
AcDbEntity
8
1
62
256
6
ByLayer
370
-1
48
1
60
0
100
AcDbLine
10
43.582059
20
2.826053
30
0
11
44.002093
21
2.858125
31
0
39
0
210
0
220
0
230
1
0
LINE
5
78
100
AcDbEntity
8
1
62
256
6
ByLayer
370
-1
48
1
60
0
100
AcDbLine
10
48.918468
20
3.206473
30
0
11
48.918468
21
2.817766
31
0
39
0
210
0
220
0
230
1
0
LINE
5
79
100
AcDbEntity
8
1
62
256
6
ByLayer
370
-1
48
1
60
0
100
AcDbLine
10
38.565659
20
2.721118
30
0
11
38.565659
21
-8.424421
31
0
39
0
210
0
220
0
230
1
0
LINE
5
7A
100
AcDbEntity
8
1
62
256
6
ByLayer
370
-1
48
1
60
0
100
AcDbLine
10
38.104855
20
3.412836
30
0
11
38.566147
21
3.446051
31
0
39
0
210
0
220
0
230
1
0
LINE
5
7B
100
AcDbEntity
8
1
62
256
6
ByLayer
370
-1
48
1
60
0
100
AcDbLine
10
48.918426
20
3.233518
30
0
11
48.918426
21
2.817745
31
0
39
0
210
0
220
0
230
1
0
LINE
5
7C
100
AcDbEntity
8
1
62
256
6
ByLayer
370
-1
48
1
60
0
100
AcDbLine
10
38.104648
20
3.41302
30
0
11
37.938562
21
3.459018
31
0
39
0
210
0
220
0
230
1
0
LINE
5
7D
100
AcDbEntity
8
1
62
256
6
ByLayer
370
-1
48
1
60
0
100
AcDbLine
10
45.366304
20
2.962291
30
0
11
48.918426
21
3.233518
31
0
39
0
210
0
220
0
230
1
0
LINE
5
7E
100
AcDbEntity
8
1
62
256
6
ByLayer
370
-1
48
1
60
0
100
AcDbLine
10
49.161564
20
2.780678
30
0
11
49.161564
21
-7.950637
31
0
39
0
210
0
220
0
230
1
0
LINE
5
7F
100
AcDbEntity
8
1
62
256
6
ByLayer
370
-1
48
1
60
0
100
AcDbLine
10
48.948121
20
2.819517
30
0
11
48.948121
21
3.235804
31
0
39
0
210
0
220
0
230
1
0
LINE
5
80
100
AcDbEntity
8
1
62
256
6
ByLayer
370
-1
48
1
60
0
100
AcDbLine
10
4.923205
20
15.276962
30
0
11
7.076795
21
15.276962
31
0
39
0
210
0
220
0
230
1
0
LINE
5
81
100
AcDbEntity
8
1
62
256
6
ByLayer
370
-1
48
1
60
0
100
AcDbLine
10
15
20
-16
30
0
11
15
21
16
31
0
39
0
210
0
220
0
230
1
0
LINE
5
82
100
AcDbEntity
8
SK1
62
256
6
ByLayer
370
-1
48
1
60
0
100
AcDbLine
10
-1.307107
20
3.2741
30
0
11
-1.307107
21
-3.2741
31
0
39
0
210
0
220
0
230
1
0
LINE
5
83
100
AcDbEntity
8
SK1
62
256
6
ByLayer
370
-1
48
1
60
0
100
AcDbLine
10
-0.2
20
-5.197043
30
0
11
-0.2
21
-10.883485
31
0
39
0
210
0
220
0
230
1
0
LINE
5
84
100
AcDbEntity
8
1
62
256
6
ByLayer
370
-1
48
1
60
0
100
AcDbLine
10
43.758996
20
5.671761
30
0
11
43.598616
21
5.816246
31
0
39
0
210
0
220
0
230
1
0
LINE
5
85
100
AcDbEntity
8
1
62
256
6
ByLayer
370
-1
48
1
60
0
100
AcDbLine
10
44.382571
20
7.10814
30
0
11
44.23901
21
7.237473
31
0
39
0
210
0
220
0
230
1
0
LINE
5
86
100
AcDbEntity
8
1
62
256
6
ByLayer
370
-1
48
1
60
0
100
AcDbLine
10
45.190851
20
6.614876
30
0
11
45.080805
21
6.714016
31
0
39
0
210
0
220
0
230
1
0
LINE
5
87
100
AcDbEntity
8
1
62
256
6
ByLayer
370
-1
48
1
60
0
100
AcDbLine
10
43.468366
20
6.520798
30
0
11
43.307986
21
6.665284
31
0
39
0
210
0
220
0
230
1
0
LINE
5
88
100
AcDbEntity
8
1
62
256
6
ByLayer
370
-1
48
1
60
0
100
AcDbLine
10
44.183419
20
7.235945
30
0
11
44.32698
21
7.106612
31
0
39
0
210
0
220
0
230
1
0
LINE
5
89
100
AcDbEntity
8
1
62
256
6
ByLayer
370
-1
48
1
60
0
100
AcDbLine
10
43.758996
20
7.033928
30
0
11
43.598616
21
7.178414
31
0
39
0
210
0
220
0
230
1
0
LINE
5
8A
100
AcDbEntity
8
1
62
256
6
ByLayer
370
-1
48
1
60
0
100
AcDbLine
10
44.64627
20
7.234078
30
0
11
44.485947
21
7.378512
31
0
39
0
210
0
220
0
230
1
0
MTEXT
5
151
100
AcDbEntity
8
SK6
62
256
6
ByLayer
370
-1
48
1
60
0
100
AcDbMText
10
0.851303
20
-26.841552
30
0
210
0
220
0
230
1
1
\W00.711;\fsimplex.shx,bigfont.shx;R390-020C3-11L050\P
40
3.5
41
0
44
1.084337
50
0
71
7
72
5
7
DEFAULT
0
DIMENSION
5
162
100
AcDbEntity
8
2
62
256
6
ByLayer
370
-3
48
1
60
0
100
AcDbDimension
2
DimnDraft3D1
10
25
20
35.75
30
0
11
34.871053
21
35.75
31
0
70
32
71
5
72
1
41
1
210
0
220
0
230
1
3
Standard
100
AcDbAlignedDimension
13
50
23
12
33
0
14
25
24
11.011317
34
0
50
0
100
AcDbRotatedDimension
1001
ACAD
1000
DSTYLE
1002
{
1070
   279
1070
     0
1070
   172
1070
     1
1070
   173
1070
     1
1070
   340
1005
152
1070
   271
1070
     2
1070
   272
1070
     2
1070
    77
1070
     1
1070
    73
1070
     0
1070
   171
1070
     4
1070
   274
1070
     4
1070
   177
1070
     2
1070
   176
1070
     2
1070
   178
1070
     7
1070
    78
1070
     8
1070
    41
1041
3.175
1070
   147
1041
2.25
1070
    42
1041
2.0
1070
    44
1041
2.0
1070
   140
1041
4.5
1070
   343
1005
163
1070
   344
1005
163
1002
}
0
DIMENSION
5
177
100
AcDbEntity
8
2
62
256
6
ByLayer
370
-3
48
1
60
0
100
AcDbDimension
2
DimnDraft3D2
10
0
20
45.75
30
0
11
22.371053
21
45.75
31
0
70
32
71
5
72
1
41
1
210
0
220
0
230
1
3
Standard
100
AcDbAlignedDimension
13
50
23
12
33
0
14
0
24
18
34
0
50
0
100
AcDbRotatedDimension
1001
ACAD
1000
DSTYLE
1002
{
1070
   279
1070
     0
1070
   172
1070
     1
1070
   173
1070
     1
1070
   340
1005
152
1070
   271
1070
     2
1070
   272
1070
     2
1070
    77
1070
     1
1070
    73
1070
     0
1070
   171
1070
     4
1070
   274
1070
     4
1070
   177
1070
     2
1070
   176
1070
     2
1070
   178
1070
     7
1070
    78
1070
     8
1070
    41
1041
3.175
1070
   147
1041
2.25
1070
    42
1041
2.0
1070
    44
1041
2.0
1070
   140
1041
4.5
1070
   343
1005
163
1070
   344
1005
163
1002
}
0
DIMENSION
5
185
100
AcDbEntity
8
2
62
256
6
ByLayer
370
-3
48
1
60
0
100
AcDbDimension
2
DimnDraft3D3
10
39.8
20
19.75
30
0
11
55
21
19.75
31
0
70
32
71
5
72
1
41
1
210
0
220
0
230
1
3
Standard
100
AcDbAlignedDimension
13
50
23
12
33
0
14
39.8
24
12
34
0
50
0
100
AcDbRotatedDimension
1001
ACAD
1000
DSTYLE
1002
{
1070
   279
1070
     0
1070
   172
1070
     1
1070
   173
1070
     1
1070
   340
1005
152
1070
   271
1070
     2
1070
   272
1070
     2
1070
    77
1070
     1
1070
    73
1070
     0
1070
   171
1070
     4
1070
   274
1070
     4
1070
   177
1070
     2
1070
   176
1070
     2
1070
   178
1070
     7
1070
    78
1070
     8
1070
    41
1041
3.175
1070
   147
1041
2.25
1070
    42
1041
2.0
1070
    44
1041
2.0
1070
   140
1041
4.5
1070
   343
1005
163
1070
   344
1005
163
1002
}
0
DIMENSION
5
193
100
AcDbEntity
8
2
62
256
6
ByLayer
370
-3
48
1
60
0
100
AcDbDimension
2
DimnDraft3D4
10
64.25
20
-10
30
0
11
64.25
21
-4.784211
31
0
70
32
71
5
72
1
41
1
210
0
220
0
230
1
3
Standard
100
AcDbAlignedDimension
13
52
23
10
33
0
14
52
24
-10
34
0
50
90
100
AcDbRotatedDimension
1001
ACAD
1000
DSTYLE
1002
{
1070
    74
1070
     0
1070
   279
1070
     0
1070
   172
1070
     1
1070
   173
1070
     1
1070
   340
1005
152
1070
   271
1070
     2
1070
   272
1070
     2
1070
    77
1070
     1
1070
    73
1070
     0
1070
   171
1070
     4
1070
   274
1070
     4
1070
   177
1070
     2
1070
   176
1070
     2
1070
   178
1070
     7
1070
    78
1070
     8
1070
    41
1041
3.175
1070
   147
1041
2.25
1070
    42
1041
2.0
1070
    44
1041
2.0
1070
   140
1041
4.5
1070
   343
1005
163
1070
   344
1005
163
1002
}
0
DIMENSION
5
1A1
100
AcDbEntity
8
SK2
62
256
6
ByLayer
370
-3
48
1
60
0
100
AcDbDimension
2
DimnDraft3D5
10
-28.75
20
16
30
0
11
-28.75
21
-4.784211
31
0
70
32
71
5
72
1
41
1
210
0
220
0
230
1
3
Standard
100
AcDbAlignedDimension
13
-2
23
-16
33
0
14
-2
24
16
34
0
50
90
100
AcDbRotatedDimension
1001
ACAD
1000
DSTYLE
1002
{
1070
    74
1070
     0
1070
   279
1070
     0
1070
   172
1070
     1
1070
   173
1070
     1
1070
   340
1005
152
1070
   271
1070
     2
1070
   272
1070
     2
1070
    77
1070
     1
1070
    73
1070
     0
1070
   171
1070
     4
1070
   274
1070
     4
1070
   177
1070
     2
1070
   176
1070
     2
1070
   178
1070
     7
1070
    78
1070
     8
1070
    41
1041
3.175
1070
   147
1041
2.25
1070
    42
1041
2.0
1070
    44
1041
2.0
1070
   140
1041
4.5
1070
   343
1005
163
1070
   344
1005
163
1002
}
0
ENDSEC
0
SECTION
2
OBJECTS
0
DICTIONARY
5
1f0
330
0
100
AcDbDictionary
280
0
281
1
3
ACAD_GROUP
350
1f1
3
ACAD_MLINESTYLE
350
1f2
0
DICTIONARY
5
1f1
330
0
100
AcDbDictionary
280
0
281
1
0
DICTIONARY
5
1f2
330
0
100
AcDbDictionary
280
0
281
1
3
Standard
350
18
0
MLINESTYLE
5
18
330
1f2
100
AcDbMlineStyle
2
Standard
70
0
3

62
256
51
90
52
90
71
2
49
-0.5
62
256
6
ByLayer
49
0.5
62
256
6
ByLayer
0
RASTERVARIABLES
5
1de
330

100
AcDbRasterVariables
90
0
70
1
71
1
72
1
0
ENDSEC
0
EOF
