0
SECTION
2
HEADER
9
$ACADVER
1
AC1015
9
$DWGCODEPAGE
3
ANSI_1252
9
$HANDSEED
5
27a
9
$ANGBASE
50
0
9
$ANGDIR
70
0
9
$ATTMODE
70
1
9
$AUNITS
70
0
9
$AUPREC
70
0
9
$CECOLOR
62
256
9
$CELTSCALE
40
1
9
$CELTYPE
6
ByLayer
9
$CELWEIGHT
370
18
9
$CLAYER
8
0
9
$CMLJUST
70
0
9
$CMLSCALE
40
1
9
$CMLSTYLE
2
Standard
9
$DIMSTYLE
2
Standard
9
$TEXTSIZE
40
0.2
9
$TEXTSTYLE
7
Standard
9
$LUNITS
70
2
9
$LUPREC
70
4
9
$EXTNAMES
290
1
9
$INSUNITS
70
4
9
$LTSCALE
40
1
9
$LWDISPLAY
290
1
9
$PDMODE
70
0
9
$PDSIZE
40
0
9
$PLINEGEN
70
0
0
ENDSEC
0
SECTION
2
CLASSES
0
CLASS
1
RASTERVARIABLES
2
AcDbRasterVariables
3
ISM
90
0
280
0
281
0
0
ENDSEC
0
SECTION
2
TABLES
0
TABLE
2
VPORT
5
270
100
AcDbSymbolTable
0
VPORT
5
1
100
AcDbSymbolTableRecord
100
AcDbViewportTableRecord
2
*Active
70
0
10
0
20
0
11
1
21
1
12
-1
22
1
13
0
23
0
14
0.5
24
0.5
15
10
25
10
16
0
26
0
36
1
17
0
27
0
37
0
0
ENDTAB
0
TABLE
2
LTYPE
5
271
100
AcDbSymbolTable
0
LTYPE
5
14
100
AcDbSymbolTableRecord
100
AcDbLinetypeTableRecord
70
0
2
ByBlock
3

72
65
73
0
40
0
0
LTYPE
5
15
100
AcDbSymbolTableRecord
100
AcDbLinetypeTableRecord
70
0
2
ByLayer
3

72
65
73
0
40
0
0
LTYPE
5
16
100
AcDbSymbolTableRecord
100
AcDbLinetypeTableRecord
70
0
2
CONTINUOUS
3
Solid line
72
65
73
0
40
0
0
LTYPE
5
6A
100
AcDbSymbolTableRecord
100
AcDbLinetypeTableRecord
70
0
2
CENTER
3
____ _ ____ _ ____ _ ____
72
65
73
4
40
47.5
49
22
74
0
49
-8.5
74
0
49
8.5
74
0
49
-8.5
74
0
0
LTYPE
5
6B
100
AcDbSymbolTableRecord
100
AcDbLinetypeTableRecord
70
0
2
DASHED
3
__ __ __ __ __ __ __ __ __
72
65
73
2
40
25.72
49
12.86
74
0
49
-12.86
74
0
0
ENDTAB
0
TABLE
2
LAYER
5
272
100
AcDbSymbolTable
0
LAYER
5
10
100
AcDbSymbolTableRecord
100
AcDbLayerTableRecord
2
0
70
0
62
7
6
CONTINUOUS
290
1
370
-3
390
0
0
LAYER
5
6D
100
AcDbSymbolTableRecord
100
AcDbLayerTableRecord
2
81
70
0
62
-3
6
CONTINUOUS
290
1
370
-3
390
0
0
LAYER
5
6F
100
AcDbSymbolTableRecord
100
AcDbLayerTableRecord
2
80
70
0
62
-6
6
CONTINUOUS
290
1
370
-3
390
0
0
LAYER
5
71
100
AcDbSymbolTableRecord
100
AcDbLayerTableRecord
2
2
70
0
62
7
6
CONTINUOUS
290
1
370
-3
390
0
0
LAYER
5
73
100
AcDbSymbolTableRecord
100
AcDbLayerTableRecord
2
4
70
0
62
-2
6
CENTER
290
1
370
-3
390
0
0
LAYER
5
75
100
AcDbSymbolTableRecord
100
AcDbLayerTableRecord
2
1
70
0
62
4
6
CONTINUOUS
290
1
370
-3
390
0
0
LAYER
5
25c
100
AcDbSymbolTableRecord
100
AcDbLayerTableRecord
2
SK1
70
0
62
4
6
CONTINUOUS
290
1
370
-3
390
0
0
LAYER
5
25d
100
AcDbSymbolTableRecord
100
AcDbLayerTableRecord
2
SK4
70
0
62
2
6
CENTER
290
1
370
-3
390
0
0
LAYER
5
25e
100
AcDbSymbolTableRecord
100
AcDbLayerTableRecord
2
SK6
70
0
62
5
6
CONTINUOUS
290
1
370
-3
390
0
0
LAYER
5
25f
100
AcDbSymbolTableRecord
100
AcDbLayerTableRecord
2
SK2
70
0
62
7
6
CONTINUOUS
290
1
370
-3
390
0
0
ENDTAB
0
TABLE
2
STYLE
5
273
100
AcDbSymbolTable
0
STYLE
5
11
100
AcDbSymbolTableRecord
100
AcDbTextStyleTableRecord
2
Standard
3
txt
70
0
71
0
40
0
41
1
42
0
50
0
0
STYLE
5
1B2
100
AcDbSymbolTableRecord
100
AcDbTextStyleTableRecord
2
iso_b_vert
3
simplex.shx
70
0
71
0
40
0
41
1
42
0
50
0
0
STYLE
5
1B3
100
AcDbSymbolTableRecord
100
AcDbTextStyleTableRecord
2
DWGDirectTextStyle
3
simplex
70
0
71
0
40
0
41
1
42
0
50
0
0
ENDTAB
0
TABLE
2
DIMSTYLE
5
274
100
AcDbSymbolTable
100
AcDbDimStyleTable
0
DIMSTYLE
105
27
100
AcDbSymbolTableRecord
100
AcDbDimStyleTableRecord
2
Standard
70
0
3
<>
41
0.18
42
0.0625
44
0.18
140
0.18
147
0.09
73
0
74
0
77
1
271
2
275
0
278
52
280
0
340
11
0
ENDTAB
0
TABLE
2
VIEW
5
275
100
AcDbSymbolTable
0
ENDTAB
0
TABLE
2
UCS
5
276
100
AcDbSymbolTable
0
ENDTAB
0
TABLE
2
APPID
5
277
100
AcDbSymbolTable
0
APPID
5
12
100
AcDbSymbolTableRecord
100
AcDbRegAppTableRecord
2
ACAD
70
0
0
ENDTAB
0
TABLE
2
BLOCK_RECORD
5
278
100
AcDbSymbolTable
0
BLOCK_RECORD
5
1F
100
AcDbSymbolTableRecord
100
AcDbBlockTableRecord
2
*Model_Space
340
0
70
0
0
BLOCK_RECORD
5
1B
100
AcDbSymbolTableRecord
100
AcDbBlockTableRecord
2
*Paper_Space
340
0
70
0
0
BLOCK_RECORD
5
23
100
AcDbSymbolTableRecord
100
AcDbBlockTableRecord
2
*Paper_Space0
340
0
70
0
0
BLOCK_RECORD
5
1B5
100
AcDbSymbolTableRecord
100
AcDbBlockTableRecord
2
DimnDraft3D1
340
0
70
0
0
BLOCK_RECORD
5
1C3
100
AcDbSymbolTableRecord
100
AcDbBlockTableRecord
2
_CLOSED
340
0
70
0
0
BLOCK_RECORD
5
1CA
100
AcDbSymbolTableRecord
100
AcDbBlockTableRecord
2
DimnDraft3D2
340
0
70
0
0
BLOCK_RECORD
5
1D9
100
AcDbSymbolTableRecord
100
AcDbBlockTableRecord
2
DimnDraft3D3
340
0
70
0
0
BLOCK_RECORD
5
1E7
100
AcDbSymbolTableRecord
100
AcDbBlockTableRecord
2
DimnDraft3D4
340
0
70
0
0
BLOCK_RECORD
5
1F5
100
AcDbSymbolTableRecord
100
AcDbBlockTableRecord
2
DimnDraft3D5
340
0
70
0
0
ENDTAB
0
ENDSEC
0
SECTION
2
BLOCKS
0
BLOCK
5
20
100
AcDbEntity
8
0
100
AcDbBlockBegin
2
*Model_Space
70
0
10
0
20
0
30
0
3
*Model_Space
0
ENDBLK
5
21
100
AcDbEntity
8
0
100
AcDbBlockEnd
0
BLOCK
5
1C
100
AcDbEntity
8
0
100
AcDbBlockBegin
2
*Paper_Space
70
0
10
0
20
0
30
0
3
*Paper_Space
0
ENDBLK
5
1D
100
AcDbEntity
8
0
100
AcDbBlockEnd
0
BLOCK
5
24
100
AcDbEntity
8
0
100
AcDbBlockBegin
2
*Paper_Space0
70
0
10
0
20
0
30
0
3
*Paper_Space0
0
ENDBLK
5
25
100
AcDbEntity
8
0
100
AcDbBlockEnd
0
BLOCK
5
1C0
100
AcDbEntity
8
0
100
AcDbBlockBegin
2
DimnDraft3D1
70
0
10
0
20
0
30
0
3
DimnDraft3D1
0
MTEXT
5
1B6
100
AcDbEntity
8
2
62
256
6
ByLayer
370
18
48
1
60
0
100
AcDbMText
10
31.120104
20
-27.388816
30
0
210
0
220
0
230
1
1
\W0.8547;%%c11.7
40
3.5
41
0
44
1.084337
50
90
71
7
72
5
7
iso_b_vert
0
LINE
5
1B7
100
AcDbEntity
8
2
62
256
6
ByLayer
370
13
48
1
60
0
100
AcDbLine
10
21.5875
20
-5.85
30
0
11
35.170104
21
-5.85
31
0
39
0
210
0
220
0
230
1
0
LINE
5
1B8
100
AcDbEntity
8
2
62
256
6
ByLayer
370
13
48
1
60
0
100
AcDbLine
10
21.5875
20
5.85
30
0
11
35.170104
21
5.85
31
0
39
0
210
0
220
0
230
1
0
LINE
5
1B9
100
AcDbEntity
8
2
62
256
6
ByLayer
370
13
48
1
60
0
100
AcDbLine
10
31.995104
20
5.85
30
0
11
31.995104
21
-28.526316
31
0
39
0
210
0
220
0
230
1
0
LINE
5
1BA
100
AcDbEntity
8
2
62
256
6
ByLayer
370
13
48
1
60
0
100
AcDbLine
10
31.995104
20
-5.85
30
0
11
31.577107
21
-2.675002
31
0
39
0
210
0
220
0
230
1
0
LINE
5
1BB
100
AcDbEntity
8
2
62
256
6
ByLayer
370
13
48
1
60
0
100
AcDbLine
10
31.995104
20
-5.85
30
0
11
32.413101
21
-2.674998
31
0
39
0
210
0
220
0
230
1
0
LINE
5
1BC
100
AcDbEntity
8
2
62
256
6
ByLayer
370
13
48
1
60
0
100
AcDbLine
10
31.577107
20
-2.675002
30
0
11
32.413101
21
-2.674998
31
0
39
0
210
0
220
0
230
1
0
LINE
5
1BD
100
AcDbEntity
8
2
62
256
6
ByLayer
370
13
48
1
60
0
100
AcDbLine
10
31.995104
20
5.85
30
0
11
32.413101
21
2.675002
31
0
39
0
210
0
220
0
230
1
0
LINE
5
1BE
100
AcDbEntity
8
2
62
256
6
ByLayer
370
13
48
1
60
0
100
AcDbLine
10
31.995104
20
5.85
30
0
11
31.577107
21
2.674998
31
0
39
0
210
0
220
0
230
1
0
LINE
5
1BF
100
AcDbEntity
8
2
62
256
6
ByLayer
370
13
48
1
60
0
100
AcDbLine
10
32.413101
20
2.675002
30
0
11
31.577107
21
2.674998
31
0
39
0
210
0
220
0
230
1
0
ENDBLK
5
1C1
100
AcDbEntity
8
0
100
AcDbBlockEnd
0
BLOCK
5
1C4
100
AcDbEntity
8
0
100
AcDbBlockBegin
2
_CLOSED
70
0
10
0
20
0
30
0
3
_CLOSED
0
LINE
5
1C6
100
AcDbEntity
8
0
62
256
6
ByLayer
370
-2
48
1
60
0
100
AcDbLine
10
-1
20
0.166667
30
0
11
0
21
0
31
0
39
0
210
0
220
0
230
1
0
LINE
5
1C7
100
AcDbEntity
8
0
62
256
6
ByLayer
370
-2
48
1
60
0
100
AcDbLine
10
0
20
0
30
0
11
-1
21
-0.166667
31
0
39
0
210
0
220
0
230
1
0
LINE
5
1C8
100
AcDbEntity
8
0
62
256
6
ByLayer
370
-2
48
1
60
0
100
AcDbLine
10
-1
20
0.166667
30
0
11
-1
21
-0.166667
31
0
39
0
210
0
220
0
230
1
0
LINE
5
1C9
100
AcDbEntity
8
0
62
256
6
ByLayer
370
-2
48
1
60
0
100
AcDbLine
10
0
20
0
30
0
11
-1
21
0
31
0
39
0
210
0
220
0
230
1
0
ENDBLK
5
1C5
100
AcDbEntity
8
0
100
AcDbBlockEnd
0
BLOCK
5
1D6
100
AcDbEntity
8
0
100
AcDbBlockBegin
2
DimnDraft3D2
70
0
10
0
20
0
30
0
3
DimnDraft3D2
0
MTEXT
5
1CB
100
AcDbEntity
8
SK2
62
256
6
ByLayer
370
18
48
1
60
0
100
AcDbMText
10
-37.525
20
18.1
30
0
210
0
220
0
230
1
1
\W0.8547;%%c11.7
40
3.5
41
0
44
1.084337
50
90
71
7
72
5
7
iso_b_vert
0
LINE
5
1CD
100
AcDbEntity
8
SK2
62
256
6
ByLayer
370
13
48
1
60
0
100
AcDbLine
10
-1.5875
20
5.85
30
0
11
-39.825
21
5.85
31
0
39
0
210
0
220
0
230
1
0
LINE
5
1CE
100
AcDbEntity
8
SK2
62
256
6
ByLayer
370
13
48
1
60
0
100
AcDbLine
10
-1.5875
20
-5.85
30
0
11
-39.825
21
-5.85
31
0
39
0
210
0
220
0
230
1
0
LINE
5
1CF
100
AcDbEntity
8
SK2
62
256
6
ByLayer
370
13
48
1
60
0
100
AcDbLine
10
-36.65
20
-5.85
30
0
11
-36.65
21
28.526316
31
0
39
0
210
0
220
0
230
1
0
LINE
5
1D0
100
AcDbEntity
8
SK2
62
256
6
ByLayer
370
13
48
1
60
0
100
AcDbLine
10
-36.65
20
5.85
30
0
11
-36.232003
21
2.675002
31
0
39
0
210
0
220
0
230
1
0
LINE
5
1D1
100
AcDbEntity
8
SK2
62
256
6
ByLayer
370
13
48
1
60
0
100
AcDbLine
10
-36.65
20
5.85
30
0
11
-37.067997
21
2.674998
31
0
39
0
210
0
220
0
230
1
0
LINE
5
1D2
100
AcDbEntity
8
SK2
62
256
6
ByLayer
370
13
48
1
60
0
100
AcDbLine
10
-36.232003
20
2.675002
30
0
11
-37.067997
21
2.674998
31
0
39
0
210
0
220
0
230
1
0
LINE
5
1D3
100
AcDbEntity
8
SK2
62
256
6
ByLayer
370
13
48
1
60
0
100
AcDbLine
10
-36.65
20
-5.85
30
0
11
-37.067997
21
-2.675002
31
0
39
0
210
0
220
0
230
1
0
LINE
5
1D4
100
AcDbEntity
8
SK2
62
256
6
ByLayer
370
13
48
1
60
0
100
AcDbLine
10
-36.65
20
-5.85
30
0
11
-36.232003
21
-2.674998
31
0
39
0
210
0
220
0
230
1
0
LINE
5
1D5
100
AcDbEntity
8
SK2
62
256
6
ByLayer
370
13
48
1
60
0
100
AcDbLine
10
-37.067997
20
-2.675002
30
0
11
-36.232003
21
-2.674998
31
0
39
0
210
0
220
0
230
1
0
ENDBLK
5
1D7
100
AcDbEntity
8
0
100
AcDbBlockEnd
0
BLOCK
5
1E4
100
AcDbEntity
8
0
100
AcDbBlockBegin
2
DimnDraft3D3
70
0
10
0
20
0
30
0
3
DimnDraft3D3
0
MTEXT
5
1DA
100
AcDbEntity
8
2
62
256
6
ByLayer
370
18
48
1
60
0
100
AcDbMText
10
8.576974
20
35.225
30
0
210
0
220
0
230
1
1
\W0.8247;20
40
3.5
41
0
44
1.084337
50
0
71
7
72
5
7
iso_b_vert
0
LINE
5
1DB
100
AcDbEntity
8
2
62
256
6
ByLayer
370
13
48
1
60
0
100
AcDbLine
10
0
20
7.4375
30
0
11
0
21
37.525
31
0
39
0
210
0
220
0
230
1
0
LINE
5
1DC
100
AcDbEntity
8
2
62
256
6
ByLayer
370
13
48
1
60
0
100
AcDbLine
10
20
20
7.4375
30
0
11
20
21
37.525
31
0
39
0
210
0
220
0
230
1
0
LINE
5
1DD
100
AcDbEntity
8
2
62
256
6
ByLayer
370
13
48
1
60
0
100
AcDbLine
10
0
20
34.35
30
0
11
20
21
34.35
31
0
39
0
210
0
220
0
230
1
0
LINE
5
1DE
100
AcDbEntity
8
2
62
256
6
ByLayer
370
13
48
1
60
0
100
AcDbLine
10
0
20
34.35
30
0
11
3.174998
21
34.767997
31
0
39
0
210
0
220
0
230
1
0
LINE
5
1DF
100
AcDbEntity
8
2
62
256
6
ByLayer
370
13
48
1
60
0
100
AcDbLine
10
0
20
34.35
30
0
11
3.175002
21
33.932003
31
0
39
0
210
0
220
0
230
1
0
LINE
5
1E0
100
AcDbEntity
8
2
62
256
6
ByLayer
370
13
48
1
60
0
100
AcDbLine
10
3.174998
20
34.767997
30
0
11
3.175002
21
33.932003
31
0
39
0
210
0
220
0
230
1
0
LINE
5
1E1
100
AcDbEntity
8
2
62
256
6
ByLayer
370
13
48
1
60
0
100
AcDbLine
10
20
20
34.35
30
0
11
16.825002
21
33.932003
31
0
39
0
210
0
220
0
230
1
0
LINE
5
1E2
100
AcDbEntity
8
2
62
256
6
ByLayer
370
13
48
1
60
0
100
AcDbLine
10
20
20
34.35
30
0
11
16.824998
21
34.767997
31
0
39
0
210
0
220
0
230
1
0
LINE
5
1E3
100
AcDbEntity
8
2
62
256
6
ByLayer
370
13
48
1
60
0
100
AcDbLine
10
16.825002
20
33.932003
30
0
11
16.824998
21
34.767997
31
0
39
0
210
0
220
0
230
1
0
ENDBLK
5
1E5
100
AcDbEntity
8
0
100
AcDbBlockEnd
0
BLOCK
5
1F2
100
AcDbEntity
8
0
100
AcDbBlockBegin
2
DimnDraft3D4
70
0
10
0
20
0
30
0
3
DimnDraft3D4
0
MTEXT
5
1E8
100
AcDbEntity
8
2
62
256
6
ByLayer
370
18
48
1
60
0
100
AcDbMText
10
11.457237
20
25.225
30
0
210
0
220
0
230
1
1
\W0.6761;11.9
40
3.5
41
0
44
1.084337
50
0
71
7
72
5
7
iso_b_vert
0
LINE
5
1E9
100
AcDbEntity
8
2
62
256
6
ByLayer
370
13
48
1
60
0
100
AcDbLine
10
8.1
20
7.0875
30
0
11
8.1
21
27.525
31
0
39
0
210
0
220
0
230
1
0
LINE
5
1EA
100
AcDbEntity
8
2
62
256
6
ByLayer
370
13
48
1
60
0
100
AcDbLine
10
20
20
7.4375
30
0
11
20
21
27.525
31
0
39
0
210
0
220
0
230
1
0
LINE
5
1EB
100
AcDbEntity
8
2
62
256
6
ByLayer
370
13
48
1
60
0
100
AcDbLine
10
-0.65
20
24.35
30
0
11
28.75
21
24.35
31
0
39
0
210
0
220
0
230
1
0
LINE
5
1EC
100
AcDbEntity
8
2
62
256
6
ByLayer
370
13
48
1
60
0
100
AcDbLine
10
8.1
20
24.35
30
0
11
4.925002
21
23.932003
31
0
39
0
210
0
220
0
230
1
0
LINE
5
1ED
100
AcDbEntity
8
2
62
256
6
ByLayer
370
13
48
1
60
0
100
AcDbLine
10
8.1
20
24.35
30
0
11
4.924998
21
24.767997
31
0
39
0
210
0
220
0
230
1
0
LINE
5
1EE
100
AcDbEntity
8
2
62
256
6
ByLayer
370
13
48
1
60
0
100
AcDbLine
10
4.925002
20
23.932003
30
0
11
4.924998
21
24.767997
31
0
39
0
210
0
220
0
230
1
0
LINE
5
1EF
100
AcDbEntity
8
2
62
256
6
ByLayer
370
13
48
1
60
0
100
AcDbLine
10
20
20
24.35
30
0
11
23.174998
21
24.767997
31
0
39
0
210
0
220
0
230
1
0
LINE
5
1F0
100
AcDbEntity
8
2
62
256
6
ByLayer
370
13
48
1
60
0
100
AcDbLine
10
20
20
24.35
30
0
11
23.175002
21
23.932003
31
0
39
0
210
0
220
0
230
1
0
LINE
5
1F1
100
AcDbEntity
8
2
62
256
6
ByLayer
370
13
48
1
60
0
100
AcDbLine
10
23.174998
20
24.767997
30
0
11
23.175002
21
23.932003
31
0
39
0
210
0
220
0
230
1
0
ENDBLK
5
1F3
100
AcDbEntity
8
0
100
AcDbBlockEnd
0
BLOCK
5
200
100
AcDbEntity
8
0
100
AcDbBlockBegin
2
DimnDraft3D5
70
0
10
0
20
0
30
0
3
DimnDraft3D5
0
MTEXT
5
1F6
100
AcDbEntity
8
SK2
62
256
6
ByLayer
370
18
48
1
60
0
100
AcDbMText
10
32.25
20
15.225
30
0
210
0
220
0
230
1
1
\W0.8447;5.8
40
3.5
41
0
44
1.084337
50
0
71
7
72
5
7
iso_b_vert
0
LINE
5
1F7
100
AcDbEntity
8
SK2
62
256
6
ByLayer
370
13
48
1
60
0
100
AcDbLine
10
14.2
20
7.4375
30
0
11
14.2
21
17.525
31
0
39
0
210
0
220
0
230
1
0
LINE
5
1F8
100
AcDbEntity
8
SK2
62
256
6
ByLayer
370
13
48
1
60
0
100
AcDbLine
10
20
20
7.4375
30
0
11
20
21
17.525
31
0
39
0
210
0
220
0
230
1
0
LINE
5
1F9
100
AcDbEntity
8
SK2
62
256
6
ByLayer
370
13
48
1
60
0
100
AcDbLine
10
37.7625
20
14.35
30
0
11
5.45
21
14.35
31
0
39
0
210
0
220
0
230
1
0
LINE
5
1FA
100
AcDbEntity
8
SK2
62
256
6
ByLayer
370
13
48
1
60
0
100
AcDbLine
10
14.2
20
14.35
30
0
11
11.025002
21
13.932003
31
0
39
0
210
0
220
0
230
1
0
LINE
5
1FB
100
AcDbEntity
8
SK2
62
256
6
ByLayer
370
13
48
1
60
0
100
AcDbLine
10
14.2
20
14.35
30
0
11
11.024998
21
14.767997
31
0
39
0
210
0
220
0
230
1
0
LINE
5
1FC
100
AcDbEntity
8
SK2
62
256
6
ByLayer
370
13
48
1
60
0
100
AcDbLine
10
11.025002
20
13.932003
30
0
11
11.024998
21
14.767997
31
0
39
0
210
0
220
0
230
1
0
LINE
5
1FD
100
AcDbEntity
8
SK2
62
256
6
ByLayer
370
13
48
1
60
0
100
AcDbLine
10
20
20
14.35
30
0
11
23.174998
21
14.767997
31
0
39
0
210
0
220
0
230
1
0
LINE
5
1FE
100
AcDbEntity
8
SK2
62
256
6
ByLayer
370
13
48
1
60
0
100
AcDbLine
10
20
20
14.35
30
0
11
23.175002
21
13.932003
31
0
39
0
210
0
220
0
230
1
0
LINE
5
1FF
100
AcDbEntity
8
SK2
62
256
6
ByLayer
370
13
48
1
60
0
100
AcDbLine
10
23.174998
20
14.767997
30
0
11
23.175002
21
13.932003
31
0
39
0
210
0
220
0
230
1
0
ENDBLK
5
201
100
AcDbEntity
8
0
100
AcDbBlockEnd
0
ENDSEC
0
SECTION
2
ENTITIES
0
ARC
5
C5
100
AcDbEntity
8
1
62
256
6
ByLayer
370
18
48
1
60
0
100
AcDbCircle
39
0
10
-8.080948
20
-6
30
0
40
0.6
210
0
220
0
230
-1
100
AcDbArc
50
14.477512
51
90
0
ARC
5
C6
100
AcDbEntity
8
1
62
256
6
ByLayer
370
18
48
1
60
0
100
AcDbCircle
39
0
10
-8.080948
20
6
30
0
40
0.6
210
0
220
0
230
-1
100
AcDbArc
50
270
51
345.522488
0
ARC
5
C7
100
AcDbEntity
8
SK1
62
256
6
ByLayer
370
18
48
1
60
0
100
AcDbCircle
39
0
10
0.3
20
4.903613
30
0
40
0.3
210
0
220
0
230
-1
100
AcDbArc
50
180
51
267.8
0
ARC
5
C8
100
AcDbEntity
8
SK1
62
256
6
ByLayer
370
18
48
1
60
0
100
AcDbCircle
39
0
10
0.3
20
-4.903613
30
0
40
0.3
210
0
220
0
230
-1
100
AcDbArc
50
92.2
51
180
0
ARC
5
C9
100
AcDbEntity
8
SK1
62
256
6
ByLayer
370
18
48
1
60
0
100
AcDbCircle
39
0
10
10.3
20
3.25
30
0
40
0.5
210
0
220
0
230
-1
100
AcDbArc
50
180
51
270
0
ARC
5
CA
100
AcDbEntity
8
SK1
62
256
6
ByLayer
370
18
48
1
60
0
100
AcDbCircle
39
0
10
10.3
20
-3.25
30
0
40
0.5
210
0
220
0
230
-1
100
AcDbArc
50
90
51
180
0
ELLIPSE
5
CB
100
AcDbEntity
8
1
62
256
6
ByLayer
370
18
48
1
60
0
100
AcDbEllipse
10
10.430757
20
0
30
0
11
1.99261579512814
21
5.39959782312016
31
0
210
0
220
0
230
-1
40
0.033074
41
2.97567568737249
42
3.12938942857897
0
ELLIPSE
5
CC
100
AcDbEntity
8
1
62
256
6
ByLayer
370
18
48
1
60
0
100
AcDbEllipse
10
17.209509
20
-2.298499
30
0
11
0.940783799172026
21
-0.466289441458271
31
0
210
0
220
0
230
1
40
0.949624
41
0.439910164665123
42
3.14158162805177
0
ELLIPSE
5
CD
100
AcDbEntity
8
1
62
256
6
ByLayer
370
18
48
1
60
0
100
AcDbEllipse
10
16.509354
20
0.186072
30
0
11
39.37224315377
21
1.5975872485575
31
0
210
0
220
0
230
-1
40
0.133605
41
-1.74627603167251
42
-1.65462495189519
0
ELLIPSE
5
CE
100
AcDbEntity
8
1
62
256
6
ByLayer
370
18
48
1
60
0
100
AcDbEllipse
10
22.468325
20
-0.460661
30
0
11
28.6054793044718
21
-5.4567600672236
31
0
210
0
220
0
230
-1
40
0.048638
41
-1.96549952828957
42
-1.95811408114062
0
ELLIPSE
5
CF
100
AcDbEntity
8
1
62
256
6
ByLayer
370
18
48
1
60
0
100
AcDbEllipse
10
11.840151
20
1E-06
30
0
11
38.9560640261088
21
1.58111067275608
31
0
210
0
220
0
230
-1
40
0.134555
41
-1.53555797997979
42
-1.51844009628287
0
ELLIPSE
5
D0
100
AcDbEntity
8
1
62
256
6
ByLayer
370
18
48
1
60
0
100
AcDbEllipse
10
-14.424943
20
1.876406
30
0
11
263.897924987423
21
-5.47322994358643
31
0
210
0
220
0
230
-1
40
0.005694
41
-1.45793054277407
42
-1.44510994770226
0
ELLIPSE
5
D1
100
AcDbEntity
8
1
62
256
6
ByLayer
370
18
48
1
60
0
100
AcDbEllipse
10
15.344146
20
-5.029548
30
0
11
6.0395714483215
21
4.49619609916938
31
0
210
0
220
0
230
-1
40
0.094394
41
-1.65989972008702
42
-1.62737541149278
0
ELLIPSE
5
D2
100
AcDbEntity
8
1
62
256
6
ByLayer
370
18
48
1
60
0
100
AcDbEllipse
10
10.443184
20
0.03337
30
0
11
2.00456670868921
21
5.43198057254778
31
0
210
0
220
0
230
-1
40
0.033074
41
2.89831737025062
42
2.95819461156278
0
ELLIPSE
5
D3
100
AcDbEntity
8
1
62
256
6
ByLayer
370
18
48
1
60
0
100
AcDbEllipse
10
13.242882
20
2.962022
30
0
11
0.772998503509864
21
0.305778148929219
31
0
210
0
220
0
230
-1
40
0.857234
41
-2.21732064188592
42
-1.78829654412797
0
ELLIPSE
5
D4
100
AcDbEntity
8
1
62
256
6
ByLayer
370
18
48
1
60
0
100
AcDbEllipse
10
13.121287
20
2.986841
30
0
11
-0.149994923495673
21
-0.734847959053795
31
0
210
0
220
0
230
1
40
0.839378
41
-1.84455696552712
42
-1.19153764352298
0
ELLIPSE
5
D5
100
AcDbEntity
8
1
62
256
6
ByLayer
370
18
48
1
60
0
100
AcDbEllipse
10
10.430757
20
0
30
0
11
1.99261579512447
21
-5.39959782311028
31
0
210
0
220
0
230
-1
40
0.033074
41
-3.12938942857895
42
-2.97567568737235
0
ELLIPSE
5
D6
100
AcDbEntity
8
1
62
256
6
ByLayer
370
18
48
1
60
0
100
AcDbEllipse
10
17.715145
20
-0.001613
30
0
11
0.221769333712573
21
5.46403964846233
31
0
210
0
220
0
230
-1
40
0.134555
41
1.98796181505138
42
2.07942957145892
0
ELLIPSE
5
D7
100
AcDbEntity
8
1
62
256
6
ByLayer
370
18
48
1
60
0
100
AcDbEllipse
10
144.402344
20
-1.417641
30
0
11
284.695872636756
21
-5.90462644291779
31
0
210
0
220
0
230
-1
40
0.005884
41
-2.04669813849416
42
-2.04151811809022
0
ELLIPSE
5
D8
100
AcDbEntity
8
1
62
256
6
ByLayer
370
18
48
1
60
0
100
AcDbEllipse
10
13.14994
20
2.92903
30
0
11
0.646173318517111
21
0.320268903484256
31
0
210
0
220
0
230
1
40
0.949624
41
2.08337198914233
42
2.79401588498704
0
ELLIPSE
5
D9
100
AcDbEntity
8
1
62
256
6
ByLayer
370
18
48
1
60
0
100
AcDbEllipse
10
17.11012
20
-2.499027
30
0
11
0.671988427980014
21
-0.333063886755905
31
0
210
0
220
0
230
1
40
0.949624
41
0.439910164665126
42
-2.70168248892469
0
ELLIPSE
5
DA
100
AcDbEntity
8
1
62
256
6
ByLayer
370
18
48
1
60
0
100
AcDbEllipse
10
17.070336
20
-2.579294
30
0
11
-0.671988427980014
21
0.333063886755905
31
0
210
0
220
0
230
1
40
0.949624
41
1.94399034304977
42
2.07742263987022
0
ELLIPSE
5
DB
100
AcDbEntity
8
1
62
256
6
ByLayer
370
18
48
1
60
0
100
AcDbEllipse
10
10.443184
20
-0.03337
30
0
11
2.00456672641831
21
-5.43198062166051
31
0
210
0
220
0
230
-1
40
0.033074
41
-2.95819461238085
42
-2.89831737134501
0
ELLIPSE
5
DC
100
AcDbEntity
8
1
62
256
6
ByLayer
370
18
48
1
60
0
100
AcDbEllipse
10
15.59451
20
-0.001637
30
0
11
0.222408251356258
21
5.47972137738059
31
0
210
0
220
0
230
-1
40
0.134555
41
1.98549793765207
42
2.00523400539506
0
ELLIPSE
5
DD
100
AcDbEntity
8
1
62
256
6
ByLayer
370
18
48
1
60
0
100
AcDbEllipse
10
13.356407
20
5.962894
30
0
11
3.58393828256006
21
1.77634072936479
31
0
210
0
220
0
230
1
40
0.949624
41
3.02893172367353
42
-2.85723475920193
0
ELLIPSE
5
DE
100
AcDbEntity
8
1
62
256
6
ByLayer
370
18
48
1
60
0
100
AcDbEllipse
10
9.501169
20
4.79103
30
0
11
0.706672445402044
21
0.251225108039461
31
0
210
0
220
0
230
1
40
0.311406
41
-2.84051584520167
42
-1.53371181153339
0
ELLIPSE
5
DF
100
AcDbEntity
8
1
62
256
6
ByLayer
370
18
48
1
60
0
100
AcDbEllipse
10
11.840151
20
-2E-06
30
0
11
38.9560607503477
21
-1.58111049471618
31
0
210
0
220
0
230
-1
40
0.134555
41
1.51468529335934
42
1.5355579856164
0
ELLIPSE
5
E0
100
AcDbEntity
8
1
62
256
6
ByLayer
370
18
48
1
60
0
100
AcDbEllipse
10
36.079176
20
0.081767
30
0
11
37.9251041836788
21
-1.53788424723743
31
0
210
0
220
0
230
-1
40
0.134388
41
2.08883887780175
42
2.09185633536152
0
ELLIPSE
5
E1
100
AcDbEntity
8
1
62
256
6
ByLayer
370
18
48
1
60
0
100
AcDbEllipse
10
171.874331
20
-1.141766
30
0
11
163.292610000854
21
4.07975527266925
31
0
210
0
220
0
230
-1
40
0.008389
41
-2.84607711052639
42
-2.78773319826458
0
ELLIPSE
5
E2
100
AcDbEntity
8
1
62
256
6
ByLayer
370
18
48
1
60
0
100
AcDbEllipse
10
65.208625
20
-5.868539
30
0
11
204.430905983203
21
-4.29858928032624
31
0
210
0
220
0
230
-1
40
0.000815
41
-1.81546822250603
42
-1.79991280555977
0
ELLIPSE
5
E3
100
AcDbEntity
8
1
62
256
6
ByLayer
370
18
48
1
60
0
100
AcDbEllipse
10
17.159996
20
-2.296526
30
0
11
1
21
0
31
0
210
0
220
0
230
1
40
0.283555
41
-3.14158953912719
42
-2.48582016356518
0
ELLIPSE
5
E4
100
AcDbEntity
8
1
62
256
6
ByLayer
370
18
48
1
60
0
100
AcDbEllipse
10
16.509354
20
-0.186072
30
0
11
39.3722431376199
21
-1.59758724845686
31
0
210
0
220
0
230
-1
40
0.133605
41
1.65462495182315
42
1.74627603163742
0
ELLIPSE
5
E5
100
AcDbEntity
8
1
62
256
6
ByLayer
370
18
48
1
60
0
100
AcDbEllipse
10
17.259022
20
-2.300472
30
0
11
-1
21
1.01063905508236E-15
31
0
210
0
220
0
230
1
40
0.283555
41
2.20656748324611
42
3.00196631343017
0
ELLIPSE
5
E6
100
AcDbEntity
8
1
62
256
6
ByLayer
370
18
48
1
60
0
100
AcDbEllipse
10
16.616497
20
3.773026
30
0
11
-1.07518148476802
21
-0.532902218809444
31
0
210
0
220
0
230
1
40
0.949624
41
-0.481039266893619
42
-3.89706180068869E-16
0
ELLIPSE
5
E7
100
AcDbEntity
8
1
62
256
6
ByLayer
370
18
48
1
60
0
100
AcDbEllipse
10
16.616497
20
3.773026
30
0
11
-1.07518148476802
21
-0.532902218809444
31
0
210
0
220
0
230
1
40
0.949624
41
0
42
0.636680932657937
0
ELLIPSE
5
E8
100
AcDbEntity
8
1
62
256
6
ByLayer
370
18
48
1
60
0
100
AcDbEllipse
10
16.616497
20
3.773026
30
0
11
-1.07518148476802
21
-0.532902218809444
31
0
210
0
220
0
230
1
40
0.949624
41
1.49885103214666
42
-0.481039266893619
0
ELLIPSE
5
E9
100
AcDbEntity
8
1
62
256
6
ByLayer
370
18
48
1
60
0
100
AcDbEllipse
10
16.705283
20
3.593892
30
0
11
-1.07518148476802
21
-0.532902218809444
31
0
210
0
220
0
230
1
40
0.949624
41
1.72049747393492E-05
42
0.352267894695466
0
ELLIPSE
5
EA
100
AcDbEntity
8
1
62
256
6
ByLayer
370
18
48
1
60
0
100
AcDbEllipse
10
16.705283
20
3.593892
30
0
11
-1.07518148476802
21
-0.532902218809444
31
0
210
0
220
0
230
1
40
0.949624
41
2.39283074566288
42
3.14151130815657
0
ELLIPSE
5
EB
100
AcDbEntity
8
1
62
256
6
ByLayer
370
18
48
1
60
0
100
AcDbEllipse
10
16.048376
20
3.182233
30
0
11
0.102488442154519
21
-0.166605163268494
31
0
210
0
220
0
230
-1
40
0.522277
41
2.26455980483773
42
-3.13539011367434
0
ELLIPSE
5
EC
100
AcDbEntity
8
1
62
256
6
ByLayer
370
18
48
1
60
0
100
AcDbEllipse
10
17.376108
20
3.977472
30
0
11
0.102488442154521
21
-0.166605163268491
31
0
210
0
220
0
230
-1
40
0.522277
41
-3.13542048987196
42
-1.99358612950999
0
ELLIPSE
5
ED
100
AcDbEntity
8
1
62
256
6
ByLayer
370
18
48
1
60
0
100
AcDbEllipse
10
15.939436
20
3.549056
30
0
11
0.00280224783121718
21
0.197485025653538
31
0
210
0
220
0
230
-1
40
0.512275
41
0.68429542201379
42
1.5431040681545
0
ELLIPSE
5
EE
100
AcDbEntity
8
1
62
256
6
ByLayer
370
18
48
1
60
0
100
AcDbEllipse
10
16.048376
20
3.924561
30
0
11
0.104608695837761
21
0.173568179031391
31
0
210
0
220
0
230
-1
40
0.48657
41
-2.29679933182284
42
-0.0309016334352646
0
ELLIPSE
5
EF
100
AcDbEntity
8
1
62
256
6
ByLayer
370
18
48
1
60
0
100
AcDbEllipse
10
16.712242
20
4.32218
30
0
11
0.203833302940015
21
0.0105569911482799
31
0
210
0
220
0
230
-1
40
0.479673
41
-3.11676960663862
42
-0.716322577040633
0
ELLIPSE
5
F0
100
AcDbEntity
8
1
62
256
6
ByLayer
370
18
48
1
60
0
100
AcDbEllipse
10
16.712242
20
3.579853
30
0
11
0.607656735808062
21
0.301178570663803
31
0
210
0
220
0
230
1
40
0.949624
41
2.70168248892467
42
-3.01618010633251
0
ELLIPSE
5
F1
100
AcDbEntity
8
1
62
256
6
ByLayer
370
18
48
1
60
0
100
AcDbEllipse
10
16.712242
20
3.579853
30
0
11
-0.607656735808061
21
-0.301178570663804
31
0
210
0
220
0
230
1
40
0.949624
41
3.14150554056694
42
-2.53430526705831
0
ELLIPSE
5
F2
100
AcDbEntity
8
1
62
256
6
ByLayer
370
18
48
1
60
0
100
AcDbEllipse
10
16.712242
20
3.579853
30
0
11
-0.607656735808061
21
-0.301178570663804
31
0
210
0
220
0
230
1
40
0.949624
41
2.18377715532146
42
2.59295379977855
0
ELLIPSE
5
F3
100
AcDbEntity
8
1
62
256
6
ByLayer
370
18
48
1
60
0
100
AcDbEllipse
10
19.313194
20
-3.300995
30
0
11
0.0820000000000005
21
0
31
0
210
0
220
0
230
1
40
0.283555
41
-1.95252337934548
42
-1.727875960731
0
ELLIPSE
5
F4
100
AcDbEntity
8
1
62
256
6
ByLayer
370
18
48
1
60
0
100
AcDbEllipse
10
17.143678
20
-2.709388
30
0
11
-0.627189199448013
21
0.310859627638845
31
0
210
0
220
0
230
1
40
0.949624
41
0.481038801090926
42
0.839082642333508
0
ELLIPSE
5
F5
100
AcDbEntity
8
1
62
256
6
ByLayer
370
18
48
1
60
0
100
AcDbEllipse
10
17.143678
20
-2.709388
30
0
11
-0.627189199448013
21
0.310859627638845
31
0
210
0
220
0
230
1
40
0.949624
41
-2.90824844814041
42
0
0
ELLIPSE
5
F6
100
AcDbEntity
8
1
62
256
6
ByLayer
370
18
48
1
60
0
100
AcDbEllipse
10
17.143678
20
-2.709388
30
0
11
-0.627189199448013
21
0.310859627638845
31
0
210
0
220
0
230
1
40
0.949624
41
0
42
0.481039019040672
0
ELLIPSE
5
F7
100
AcDbEntity
8
1
62
256
6
ByLayer
370
18
48
1
60
0
100
AcDbEllipse
10
16.680774
20
3.643341
30
0
11
-1.16323479294998
21
-0.576544900504061
31
0
210
0
220
0
230
1
40
0.949624
41
-0.481039070982234
42
-3.60206616797558E-16
0
ELLIPSE
5
F8
100
AcDbEntity
8
1
62
256
6
ByLayer
370
18
48
1
60
0
100
AcDbEllipse
10
16.680774
20
3.643341
30
0
11
-1.16323479294998
21
-0.576544900504061
31
0
210
0
220
0
230
1
40
0.949624
41
0
42
0.213547706159535
0
ELLIPSE
5
F9
100
AcDbEntity
8
1
62
256
6
ByLayer
370
18
48
1
60
0
100
AcDbEllipse
10
16.680774
20
3.643341
30
0
11
-1.16323479294998
21
-0.576544900504061
31
0
210
0
220
0
230
1
40
0.949624
41
3.03322529521716
42
-2.39515195768582
0
ELLIPSE
5
FA
100
AcDbEntity
8
1
62
256
6
ByLayer
370
18
48
1
60
0
100
AcDbEllipse
10
16.680774
20
3.643341
30
0
11
-1.16323479294998
21
-0.576544900504061
31
0
210
0
220
0
230
1
40
0.949624
41
-0.746503696824494
42
-0.481039070982225
0
ELLIPSE
5
FB
100
AcDbEntity
8
1
62
256
6
ByLayer
370
18
48
1
60
0
100
AcDbEllipse
10
16.706575
20
3.591286
30
0
11
-1.09023795094702
21
-0.540364795451516
31
0
210
0
220
0
230
1
40
0.949624
41
-0.166290873859479
42
-3.84324237608641E-16
0
ELLIPSE
5
FC
100
AcDbEntity
8
1
62
256
6
ByLayer
370
18
48
1
60
0
100
AcDbEllipse
10
16.706575
20
3.591286
30
0
11
-1.09023795094702
21
-0.540364795451516
31
0
210
0
220
0
230
1
40
0.949624
41
0
42
0.333222218489454
0
ELLIPSE
5
FD
100
AcDbEntity
8
1
62
256
6
ByLayer
370
18
48
1
60
0
100
AcDbEllipse
10
16.706575
20
3.591286
30
0
11
-1.09023795094702
21
-0.540364795451516
31
0
210
0
220
0
230
1
40
0.949624
41
2.7015901154853
42
-2.97526750444594
0
ELLIPSE
5
FE
100
AcDbEntity
8
1
62
256
6
ByLayer
370
18
48
1
60
0
100
AcDbEllipse
10
19.313194
20
-4.535088
30
0
11
0.0820000000000006
21
0
31
0
210
0
220
0
230
1
40
0.283555
41
-2.41101784598608
42
-1.72787596036586
0
ELLIPSE
5
FF
100
AcDbEntity
8
1
62
256
6
ByLayer
370
18
48
1
60
0
100
AcDbEllipse
10
19.059478
20
-4.778648
30
0
11
-0.00153484300958632
21
-0.081985634454678
31
0
210
0
220
0
230
1
40
0.139615
41
-2.23369588074481
42
-1.30096319149066
0
ELLIPSE
5
100
100
AcDbEntity
8
1
62
256
6
ByLayer
370
18
48
1
60
0
100
AcDbEllipse
10
16.943474
20
-4.739034
30
0
11
0.00153484276958988
21
0.0819856344591705
31
0
210
0
220
0
230
1
40
0.139615
41
0.907896783520391
42
1.84062946169048
0
ELLIPSE
5
101
100
AcDbEntity
8
1
62
256
6
ByLayer
370
18
48
1
60
0
100
AcDbEllipse
10
15.365015
20
-4.709484
30
0
11
-0.00153484249690013
21
-0.0819856344642748
31
0
210
0
220
0
230
1
40
0.139615
41
-2.15711420614068
42
-1.30096319540337
0
ELLIPSE
5
102
100
AcDbEntity
8
1
62
256
6
ByLayer
370
18
48
1
60
0
100
AcDbEllipse
10
17.098644
20
4.243358
30
0
11
0.1781442181115
21
-0.0887879328383696
31
0
210
0
220
0
230
-1
40
0.504381
41
0.279210189082568
42
1.60360613613744
0
ELLIPSE
5
103
100
AcDbEntity
8
1
62
256
6
ByLayer
370
18
48
1
60
0
100
AcDbEllipse
10
16.325839
20
4.212561
30
0
11
0.176841333539907
21
0.105326910580133
31
0
210
0
220
0
230
-1
40
0.471666
41
0.241174150059358
42
1.56557009711526
0
ELLIPSE
5
104
100
AcDbEntity
8
1
62
256
6
ByLayer
370
18
48
1
60
0
100
AcDbEllipse
10
17.098644
20
4.243358
30
0
11
0.178144218111728
21
-0.0887879328380088
31
0
210
0
220
0
230
-1
40
0.504381
41
1.6036061361421
42
2.92800208319683
0
ELLIPSE
5
105
100
AcDbEntity
8
1
62
256
6
ByLayer
370
18
48
1
60
0
100
AcDbEllipse
10
16.325839
20
4.212561
30
0
11
0.176841333539732
21
0.105326910580141
31
0
210
0
220
0
230
-1
40
0.471666
41
1.56557009711635
42
2.88996604417293
0
ELLIPSE
5
106
100
AcDbEntity
8
1
62
256
6
ByLayer
370
18
48
1
60
0
100
AcDbEllipse
10
15.939436
20
3.549056
30
0
11
0.00280224783072336
21
0.197485025652848
31
0
210
0
220
0
230
-1
40
0.512275
41
1.54310406815988
42
2.86750001521629
0
ELLIPSE
5
107
100
AcDbEntity
8
1
62
256
6
ByLayer
370
18
48
1
60
0
100
AcDbEllipse
10
16.712242
20
3.579853
30
0
11
-0.607656735808061
21
-0.301178570663804
31
0
210
0
220
0
230
1
40
0.949624
41
-1.48710771586172
42
-0.43991016466512
0
ELLIPSE
5
108
100
AcDbEntity
8
1
62
256
6
ByLayer
370
18
48
1
60
0
100
AcDbEllipse
10
16.712242
20
3.579853
30
0
11
-0.607656735808061
21
-0.301178570663804
31
0
210
0
220
0
230
1
40
0.949624
41
-2.53430526705832
42
-1.48710771586172
0
ELLIPSE
5
109
100
AcDbEntity
8
1
62
256
6
ByLayer
370
18
48
1
60
0
100
AcDbEllipse
10
16.61482
20
3.776409
30
0
11
0.78515127925185
21
0.389151845285595
31
0
210
0
220
0
230
1
40
0.949624
41
-3.05790404265663
42
-2.01070649146002
0
ELLIPSE
5
10A
100
AcDbEntity
8
1
62
256
6
ByLayer
370
18
48
1
60
0
100
AcDbEllipse
10
16.61482
20
3.776409
30
0
11
0.78515127925185
21
0.389151845285595
31
0
210
0
220
0
230
1
40
0.949624
41
2.17808371332637
42
-3.05790404265663
0
ELLIPSE
5
10B
100
AcDbEntity
8
1
62
256
6
ByLayer
370
18
48
1
60
0
100
AcDbEllipse
10
16.61482
20
3.776409
30
0
11
0.78515127925185
21
0.389151845285595
31
0
210
0
220
0
230
1
40
0.949624
41
1.13088616212978
42
2.17808371332637
0
ELLIPSE
5
10C
100
AcDbEntity
8
1
62
256
6
ByLayer
370
18
48
1
60
0
100
AcDbEllipse
10
16.61482
20
3.776409
30
0
11
0.78515127925185
21
0.389151845285595
31
0
210
0
220
0
230
1
40
0.949624
41
-0.963508940263417
42
0.0836886109331806
0
ELLIPSE
5
10D
100
AcDbEntity
8
1
62
256
6
ByLayer
370
18
48
1
60
0
100
AcDbEllipse
10
16.61482
20
3.776409
30
0
11
0.78515127925185
21
0.389151845285595
31
0
210
0
220
0
230
1
40
0.949624
41
-2.01070649146002
42
-0.963508940263417
0
ELLIPSE
5
10E
100
AcDbEntity
8
1
62
256
6
ByLayer
370
18
48
1
60
0
100
AcDbEllipse
10
16.61482
20
3.776409
30
0
11
0.78515127925185
21
0.389151845285595
31
0
210
0
220
0
230
1
40
0.949624
41
0.0836886109331811
42
1.13088616212978
0
ELLIPSE
5
10F
100
AcDbEntity
8
1
62
256
6
ByLayer
370
18
48
1
60
0
100
AcDbEllipse
10
16.61482
20
3.776409
30
0
11
-0.851185342108019
21
-0.421880923224144
31
0
210
0
220
0
230
1
40
0.949624
41
0
42
6.28318530717959
0
POINT
5
6C
100
AcDbEntity
8
81
62
256
6
ByLayer
370
18
48
1
60
0
100
AcDbPoint
10
20
20
5.85
30
0
39
0
210
0
220
0
230
1
50
360
0
POINT
5
6E
100
AcDbEntity
8
80
62
256
6
ByLayer
370
18
48
1
60
0
100
AcDbPoint
10
0
20
0
30
0
39
0
210
0
220
0
230
1
50
360
0
POINT
5
70
100
AcDbEntity
8
2
62
256
6
ByLayer
370
18
48
1
60
0
100
AcDbPoint
10
16.571989
20
3.862826
30
0
39
0
210
0
220
0
230
1
50
360
0
SPLINE
5
110
100
AcDbEntity
8
1
62
256
6
ByLayer
370
18
48
1
60
0
100
AcDbSpline
70
4
71
3
72
14
73
10
40
0
40
0
40
0
40
0
40
0.124999999999999
40
0.124999999999999
40
0.249999999999998
40
0.249999999999998
40
0.499999999999998
40
0.499999999999998
40
1
40
1
40
1
40
1
41
1
10
5.39999999999998
20
3.03685692781207
30
0
41
1
10
5.42061824258292
20
3.03685692781207
30
0
41
1
10
5.44119009981449
20
3.03127463972805
30
0
41
1
10
5.47689352317161
20
3.01299071409272
30
0
41
1
10
5.4921217701505
20
3.00070117144378
30
0
41
1
10
5.53156683774347
20
2.95958230820884
30
0
41
1
10
5.54968066574003
20
2.9269014991412
30
0
41
1
10
5.59030168846584
20
2.82609477340867
30
0
41
1
10
5.60000000000002
20
2.75327370047356
30
0
41
1
10
5.60000000000002
20
2.68001865665147
30
0
0
SPLINE
5
111
100
AcDbEntity
8
1
62
256
6
ByLayer
370
18
48
1
60
0
100
AcDbSpline
70
4
71
3
72
8
73
4
40
0
40
0
40
0
40
0
40
1
40
1
40
1
40
1
41
1
10
15.3278730642579
20
2.75305276157852
30
0
41
1
10
15.3236746723049
20
2.75314254687086
30
0
41
1
10
15.3194761293842
20
2.75322469162683
30
0
41
1
10
15.3152779651833
20
2.75329918676201
30
0
0
SPLINE
5
112
100
AcDbEntity
8
1
62
256
6
ByLayer
370
18
48
1
60
0
100
AcDbSpline
70
4
71
3
72
10
73
6
40
0
40
0
40
0
40
0
40
0.5
40
0.5
40
1
40
1
40
1
40
1
41
1
10
15.6501411163144
20
-4.64572306253018
30
0
41
1
10
15.6075838926685
20
-4.61901397640145
30
0
41
1
10
15.5586269984012
20
-4.59518647879614
30
0
41
1
10
15.4501924713135
20
-4.55459921249423
30
0
41
1
10
15.3905452747669
20
-4.53786533988321
30
0
41
1
10
15.327873064259
20
-4.52568479942187
30
0
0
SPLINE
5
113
100
AcDbEntity
8
1
62
256
6
ByLayer
370
18
48
1
60
0
100
AcDbSpline
70
4
71
3
72
18
73
14
40
0
40
0
40
0
40
0
40
0.124999999999998
40
0.124999999999998
40
0.249999999999997
40
0.249999999999997
40
0.374999999999995
40
0.374999999999995
40
0.499999999999994
40
0.499999999999994
40
0.749999999999997
40
0.749999999999997
40
1
40
1
40
1
40
1
41
1
10
18.6870925294645
20
-4.49406308623807
30
0
41
1
10
18.7256094623149
20
-4.49222503053068
30
0
41
1
10
18.7632150994677
20
-4.49534146428147
30
0
41
1
10
18.8278378267996
20
-4.50744604899739
30
0
41
1
10
18.8544633175105
20
-4.51590683536406
30
0
41
1
10
18.901030847449
20
-4.53473685979949
30
0
41
1
10
18.9204661833637
20
-4.54496790952351
30
0
41
1
10
18.9550449086754
20
-4.56634009183492
30
0
41
1
10
18.9701667906869
20
-4.57755615200281
30
0
41
1
10
19.0103970255937
20
-4.61164865416109
30
0
41
1
10
19.0306890381315
20
-4.63499552923426
30
0
41
1
10
19.06437878026
20
-4.68234251126484
30
0
41
1
10
19.077615557217
20
-4.70635786845099
30
0
41
1
10
19.0884583215591
20
-4.73060005783759
30
0
0
SPLINE
5
114
100
AcDbEntity
8
1
62
256
6
ByLayer
370
18
48
1
60
0
100
AcDbSpline
70
4
71
2
72
6
73
3
40
0
40
0
40
0
40
1
40
1
40
1
41
0.500000519437704
10
13.9974063461373
20
2.77666288145507
30
0
41
0.499999480562295
10
13.4984451361137
20
2.78624671042162
30
0
41
0.500000519437704
10
13.0000000000356
20
2.79580755207542
30
0
0
SPLINE
5
115
100
AcDbEntity
8
1
62
256
6
ByLayer
370
18
48
1
60
0
100
AcDbSpline
70
4
71
3
72
22
73
18
40
0
40
0
40
0
40
0
40
0.125
40
0.125
40
0.25
40
0.25
40
0.375
40
0.375
40
0.5
40
0.5
40
0.625
40
0.625
40
0.75
40
0.75
40
0.875
40
0.875
40
1
40
1
40
1
40
1
41
1
10
9.4255594371416
20
5.08672578857355
30
0
41
1
10
9.37581027317026
20
5.0835255738958
30
0
41
1
10
9.3246398049439
20
5.08185771699985
30
0
41
1
10
9.22396317002631
20
5.08177783023078
30
0
41
1
10
9.17424819010967
20
5.08331769725086
30
0
41
1
10
9.07607238271942
20
5.08947572026574
30
0
41
1
10
9.027392966989
20
5.09415559967431
30
0
41
1
10
8.93535587771231
20
5.10610699379731
30
0
41
1
10
8.89148543731324
20
5.11339382770274
30
0
41
1
10
8.80827342236734
20
5.13040993765767
30
0
41
1
10
8.76922813148354
20
5.14012283529206
30
0
41
1
10
8.69958897553215
20
5.16084050102458
30
0
41
1
10
8.66849795646584
20
5.17193969923733
30
0
41
1
10
8.61447787476004
20
5.19536980198527
30
0
41
1
10
8.59247702470066
20
5.20731186415685
30
0
41
1
10
8.55879650037667
20
5.2311046801299
30
0
41
1
10
8.54698669490034
20
5.24314649865261
30
0
41
1
10
8.54091952216157
20
5.254631542205
30
0
0
SPLINE
5
116
100
AcDbEntity
8
1
62
256
6
ByLayer
370
18
48
1
60
0
100
AcDbSpline
70
4
71
2
72
6
73
3
40
0
40
0
40
0
40
1
40
1
40
1
41
0.499998894830525
10
12.9092333661724
20
2.79711008758841
30
0
41
0.500001105169475
10
12.954607839108
20
2.79645902386866
30
0
41
0.499998894830525
10
12.9999999998971
20
2.79580755207938
30
0
0
SPLINE
5
117
100
AcDbEntity
8
1
62
256
6
ByLayer
370
18
48
1
60
0
100
AcDbSpline
70
4
71
3
72
8
73
4
40
0
40
0
40
0
40
0
40
1
40
1
40
1
40
1
41
1
10
8.50499895857445
20
5.31960511809081
30
0
41
1
10
8.50155982006845
20
5.32547500945191
30
0
41
1
10
8.4982259653562
20
5.33105285653295
30
0
41
1
10
8.49500034717403
20
5.33633141728592
30
0
0
SPLINE
5
118
100
AcDbEntity
8
1
62
256
6
ByLayer
370
18
48
1
60
0
100
AcDbSpline
70
4
71
3
72
14
73
10
40
0
40
0
40
0
40
0
40
0.270468520690097
40
0.270468520690097
40
0.540937041380194
40
0.540937041380194
40
0.81140556207029
40
0.81140556207029
40
1
40
1
40
1
40
1
41
1
10
14.5830616165067
20
-4.69600760197903
30
0
41
1
10
14.5621941845819
20
-4.69453146504
30
0
41
1
10
14.5434996553594
20
-4.69233416888315
30
0
41
1
10
14.510397491333
20
-4.6863856152296
30
0
41
1
10
14.4958977735598
20
-4.68258238532155
30
0
41
1
10
14.4723185965734
20
-4.67352908316238
30
0
41
1
10
14.4631087691658
20
-4.66828021414582
30
0
41
1
10
14.4518586596233
20
-4.65806970274622
30
0
41
1
10
14.4485172330036
20
-4.65347915484762
30
0
41
1
10
14.4465090211436
20
-4.64858809362852
30
0
0
SPLINE
5
119
100
AcDbEntity
8
1
62
256
6
ByLayer
370
18
48
1
60
0
100
AcDbSpline
70
4
71
3
72
10
73
6
40
0
40
0
40
0
40
0
40
0.5
40
0.5
40
1
40
1
40
1
40
1
41
1
10
18.7822679659345
20
-4.72992142126668
30
0
41
1
10
18.8330066233825
20
-4.73097865555224
30
0
41
1
10
18.8840104004283
20
-4.7311817997693
30
0
41
1
10
18.9862367768505
20
-4.73088314605457
30
0
41
1
10
19.0374417654488
20
-4.73043808172778
30
0
41
1
10
19.0884583215591
20
-4.73060005783759
30
0
0
SPLINE
5
11A
100
AcDbEntity
8
1
62
256
6
ByLayer
370
18
48
1
60
0
100
AcDbSpline
70
4
71
3
72
12
73
8
40
0
40
0
40
0
40
0
40
0.249999999999998
40
0.249999999999998
40
0.499999999999996
40
0.499999999999996
40
1
40
1
40
1
40
1
41
1
10
19.2826478337179
20
-4.31594183106734
30
0
41
1
10
19.2826478337179
20
-4.35584080662406
30
0
41
1
10
19.2784682971639
20
-4.3950329108655
30
0
41
1
10
19.2616794020476
20
-4.47203163485389
30
0
41
1
10
19.2488878463616
20
-4.50997834560462
30
0
41
1
10
19.1992116602715
20
-4.61639809698647
30
0
41
1
10
19.1495700685039
20
-4.68035935095125
30
0
41
1
10
19.0884583215591
20
-4.73060005783759
30
0
0
SPLINE
5
11B
100
AcDbEntity
8
1
62
256
6
ByLayer
370
18
48
1
60
0
100
AcDbSpline
70
4
71
3
72
28
73
24
40
0
40
0
40
0
40
0
40
0.124999999999999
40
0.124999999999999
40
0.187499999999999
40
0.187499999999999
40
0.249999999999998
40
0.249999999999998
40
0.374999999999998
40
0.374999999999998
40
0.437499999999998
40
0.437499999999998
40
0.499999999999997
40
0.499999999999997
40
0.624999999999998
40
0.624999999999998
40
0.687499999999998
40
0.687499999999998
40
0.749999999999998
40
0.749999999999998
40
0.874999999999999
40
0.874999999999999
40
1
40
1
40
1
40
1
41
1
10
8.50499895857428
20
5.06572935670718
30
0
41
1
10
8.53437467216708
20
4.99257160642205
30
0
41
1
10
8.57483027473853
20
4.90929873408203
30
0
41
1
10
8.65599230598696
20
4.77147875182817
30
0
41
1
10
8.68646905225557
20
4.72338445239652
30
0
41
1
10
8.75505806774612
20
4.62325733834916
30
0
41
1
10
8.79335149832355
20
4.57099605175273
30
0
41
1
10
8.91977947918974
20
4.41050308568578
30
0
41
1
10
9.0182764842408
20
4.29995339194411
30
0
41
1
10
9.18879027202962
20
4.13278560858609
30
0
41
1
10
9.24942739759945
20
4.07683577767958
30
0
41
1
10
9.37861562118167
20
3.96513559888572
30
0
41
1
10
9.44755192123245
20
3.90910315399989
30
0
41
1
10
9.66336496132953
20
3.74486536461112
30
0
41
1
10
9.81904156586296
20
3.64047212838131
30
0
41
1
10
10.0695604083666
20
3.49428060394712
30
0
41
1
10
10.1559091948049
20
3.44728056206995
30
0
41
1
10
10.3342826284058
20
3.35719887135855
30
0
41
1
10
10.4262427172065
20
3.31418504284133
30
0
41
1
10
10.7060097730338
20
3.19354175831003
30
0
41
1
10
10.8991256449582
20
3.12352678886757
30
0
41
1
10
11.2978181183511
20
3.00556331236177
30
0
41
1
10
11.5046039486004
20
2.95747045826306
30
0
41
1
10
11.7135382409809
20
2.92198463202118
30
0
0
SPLINE
5
11C
100
AcDbEntity
8
1
62
256
6
ByLayer
370
18
48
1
60
0
100
AcDbSpline
70
4
71
3
72
22
73
18
40
0
40
0
40
0
40
0
40
0.125
40
0.125
40
0.25
40
0.25
40
0.375
40
0.375
40
0.5
40
0.5
40
0.625
40
0.625
40
0.75
40
0.75
40
0.875
40
0.875
40
1
40
1
40
1
40
1
41
1
10
9.42555943714154
20
-5.08672578857357
30
0
41
1
10
9.37581027317026
20
-5.08352557389583
30
0
41
1
10
9.3246398049439
20
-5.08185771699988
30
0
41
1
10
9.22396317002631
20
-5.08177783023081
30
0
41
1
10
9.17424819010961
20
-5.08331769725089
30
0
41
1
10
9.07607238271942
20
-5.08947572026577
30
0
41
1
10
9.027392966989
20
-5.09415559967434
30
0
41
1
10
8.93535587771231
20
-5.10610699379731
30
0
41
1
10
8.89148543731318
20
-5.11339382770277
30
0
41
1
10
8.80827342236734
20
-5.1304099376577
30
0
41
1
10
8.76922813148354
20
-5.14012283529209
30
0
41
1
10
8.69958897553215
20
-5.16084050102461
30
0
41
1
10
8.66849795646584
20
-5.17193969923733
30
0
41
1
10
8.61447787476004
20
-5.19536980198527
30
0
41
1
10
8.59247702470066
20
-5.20731186415688
30
0
41
1
10
8.55879650037667
20
-5.23110468012993
30
0
41
1
10
8.54698669490034
20
-5.24314649865264
30
0
41
1
10
8.54091952216152
20
-5.254631542205
30
0
0
SPLINE
5
11D
100
AcDbEntity
8
1
62
256
6
ByLayer
370
18
48
1
60
0
100
AcDbSpline
70
4
71
3
72
20
73
16
40
0
40
0
40
0
40
0
40
0.125000000000003
40
0.125000000000003
40
0.250000000000005
40
0.250000000000005
40
0.500000000000003
40
0.500000000000003
40
0.625000000000003
40
0.625000000000003
40
0.750000000000002
40
0.750000000000002
40
0.875000000000001
40
0.875000000000001
40
1
40
1
40
1
40
1
41
1
10
17.0208225464851
20
-3.29493796021188
30
0
41
1
10
16.972082349977
20
-3.28984199539269
30
0
41
1
10
16.9252547138228
20
-3.27925177529462
30
0
41
1
10
16.8350453828379
20
-3.24798116846628
30
0
41
1
10
16.7913040524681
20
-3.22697218730309
30
0
41
1
10
16.6704080127803
20
-3.15225867473757
30
0
41
1
10
16.6009736478904
20
-3.08571829886489
30
0
41
1
10
16.5167468768179
20
-2.97154997163096
30
0
41
1
10
16.4915441162482
20
-2.93049573243778
30
0
41
1
10
16.4480099068256
20
-2.84502728034423
30
0
41
1
10
16.4296552808588
20
-2.80076116128393
30
0
41
1
10
16.3994501279329
20
-2.70900358946597
30
0
41
1
10
16.3874940079318
20
-2.6607830634035
30
0
41
1
10
16.3715363844473
20
-2.56465081081657
30
0
41
1
10
16.3674185253576
20
-2.51685069632808
30
0
41
1
10
16.3674185253576
20
-2.46942942147692
30
0
0
SPLINE
5
11E
100
AcDbEntity
8
1
62
256
6
ByLayer
370
18
48
1
60
0
100
AcDbSpline
70
4
71
3
72
8
73
4
40
0
40
0
40
0
40
0
40
1
40
1
40
1
40
1
41
1
10
14.3407033386755
20
-4.90907558204191
30
0
41
1
10
14.2196784160571
20
-5.01504531862929
30
0
41
1
10
14.1073293683264
20
-5.10839817903877
30
0
41
1
10
14.0025936189675
20
-5.18740317348056
30
0
0
SPLINE
5
11F
100
AcDbEntity
8
1
62
256
6
ByLayer
370
18
48
1
60
0
100
AcDbSpline
70
4
71
3
72
8
73
4
40
0
40
0
40
0
40
0
40
1
40
1
40
1
40
1
41
1
10
11.909603811565
20
2.88864201920217
30
0
41
1
10
12.236753210939
20
2.83293689101097
30
0
41
1
10
12.5699506426009
20
2.80197834627421
30
0
41
1
10
12.9092333661722
20
2.79711008758662
30
0
0
SPLINE
5
120
100
AcDbEntity
8
1
62
256
6
ByLayer
370
18
48
1
60
0
100
AcDbSpline
70
4
71
3
72
14
73
10
40
0
40
0
40
0
40
0
40
0.25
40
0.25
40
0.5
40
0.5
40
0.75
40
0.75
40
1
40
1
40
1
40
1
41
1
10
14.5788817372223
20
-4.71461719419594
30
0
41
1
10
14.5512764657114
20
-4.7248574441723
30
0
41
1
10
14.5255024277904
20
-4.73666632546022
30
0
41
1
10
14.4778125743449
20
-4.76305088258059
30
0
41
1
10
14.4557279033937
20
-4.77777284396043
30
0
41
1
10
14.4166951294104
20
-4.80899329884127
30
0
41
1
10
14.3997970881315
20
-4.82539276059293
30
0
41
1
10
14.371242287402
20
-4.85912132314996
30
0
41
1
10
14.3595259739132
20
-4.87662421193784
30
0
41
1
10
14.350858314135
20
-4.89359231006975
30
0
0
SPLINE
5
121
100
AcDbEntity
8
1
62
256
6
ByLayer
370
18
48
1
60
0
100
AcDbSpline
70
4
71
3
72
22
73
18
40
0
40
0
40
0
40
0
40
0.125
40
0.125
40
0.25
40
0.25
40
0.375
40
0.375
40
0.5
40
0.5
40
0.625
40
0.625
40
0.75
40
0.75
40
0.875
40
0.875
40
1
40
1
40
1
40
1
41
1
10
15.3152779651854
20
-4.52325300410072
30
0
41
1
10
15.2565268919662
20
-4.51198288525532
30
0
41
1
10
15.1964465463218
20
-4.50479194521859
30
0
41
1
10
15.0736889303005
20
-4.49861020297112
30
0
41
1
10
15.0118520170086
20
-4.49975517356339
30
0
41
1
10
14.891321850564
20
-4.51027311671871
30
0
41
1
10
14.8312490075111
20
-4.51984576619282
30
0
41
1
10
14.7188162986221
20
-4.54638968453122
30
0
41
1
10
14.665983121475
20
-4.56329474732456
30
0
41
1
10
14.5678037109943
20
-4.60420013467117
30
0
41
1
10
14.5245705300499
20
-4.62730651800854
30
0
41
1
10
14.4496512109486
20
-4.67810102584872
30
0
41
1
10
14.4181862576083
20
-4.70588890668108
30
0
41
1
10
14.371005521361
20
-4.76231403074948
30
0
41
1
10
14.3545846048427
20
-4.79178323887948
30
0
41
1
10
14.3381362955326
20
-4.84933706323397
30
0
41
1
10
14.3378029712413
20
-4.87759078877323
30
0
41
1
10
14.3455098732437
20
-4.90494610389536
30
0
0
SPLINE
5
122
100
AcDbEntity
8
1
62
256
6
ByLayer
370
18
48
1
60
0
100
AcDbSpline
70
4
71
3
72
42
73
38
40
0
40
0
40
0
40
0
40
0.0624999999999985
40
0.0624999999999985
40
0.124999999999997
40
0.124999999999997
40
0.187499999999995
40
0.187499999999995
40
0.249999999999994
40
0.249999999999994
40
0.312499999999993
40
0.312499999999993
40
0.374999999999991
40
0.374999999999991
40
0.437499999999989
40
0.437499999999989
40
0.468749999999989
40
0.468749999999989
40
0.499999999999988
40
0.499999999999988
40
0.562499999999989
40
0.562499999999989
40
0.59374999999999
40
0.59374999999999
40
0.624999999999991
40
0.624999999999991
40
0.687499999999992
40
0.687499999999992
40
0.749999999999994
40
0.749999999999994
40
0.812499999999995
40
0.812499999999995
40
0.874999999999997
40
0.874999999999997
40
0.937499999999998
40
0.937499999999998
40
1
40
1
40
1
40
1
41
1
10
16.1797214805875
20
-2.2368989853519
30
0
41
1
10
16.1866970615817
20
-2.16718734240945
30
0
41
1
10
16.1982457068643
20
-2.09759798894512
30
0
41
1
10
16.2312560256404
20
-1.9588697900648
30
0
41
1
10
16.2528859400174
20
-1.88929565926563
30
0
41
1
10
16.3068326193917
20
-1.75298557183797
30
0
41
1
10
16.3388190533041
20
-1.68690133334604
30
0
41
1
10
16.4136579245137
20
-1.5594869370646
30
0
41
1
10
16.4568936507651
20
-1.49768633252307
30
0
41
1
10
16.5542279097055
20
-1.38209787022328
30
0
41
1
10
16.6075176205315
20
-1.32910914300192
30
0
41
1
10
16.7238498864153
20
-1.23352158915009
30
0
41
1
10
16.7874547785296
20
-1.19059805416703
30
0
41
1
10
16.9234525129695
20
-1.11846037974669
30
0
41
1
10
16.99414479457
20
-1.09000048328235
30
0
41
1
10
17.1043536546599
20
-1.0591985755982
30
0
41
1
10
17.1417901217588
20
-1.05092662669912
30
0
41
1
10
17.2181627010594
20
-1.03866769712633
30
0
41
1
10
17.256926210335
20
-1.03474779404743
30
0
41
1
10
17.3720491264775
20
-1.02994717619049
30
0
41
1
10
17.4483319727822
20
-1.03573534367234
30
0
41
1
10
17.5620126172665
20
-1.05871898137153
30
0
41
1
10
17.5996310404359
20
-1.06880068093596
30
0
41
1
10
17.6723558817341
20
-1.09321892610979
30
0
41
1
10
17.7077439586076
20
-1.10760569020559
30
0
41
1
10
17.8109985386078
20
-1.15723303702597
30
0
41
1
10
17.8765557912562
20
-1.19958489045746
30
0
41
1
10
17.9931370704302
20
-1.29691349272162
30
0
41
1
10
18.0454206807201
20
-1.3526757980078
30
0
41
1
10
18.1355327109366
20
-1.47406244860269
30
0
41
1
10
18.1728054387452
20
-1.53863779337271
30
0
41
1
10
18.2335840464915
20
-1.67433569699784
30
0
41
1
10
18.2566778202386
20
-1.74488346696109
30
0
41
1
10
18.2892221816335
20
-1.88656014937763
30
0
41
1
10
18.2989345791622
20
-1.95877037911336
30
0
41
1
10
18.3065216341566
20
-2.10198180213408
30
0
41
1
10
18.3044851174502
20
-2.1727656988252
30
0
41
1
10
18.2974530867716
20
-2.24276271729224
30
0
0
SPLINE
5
123
100
AcDbEntity
8
1
62
256
6
ByLayer
370
18
48
1
60
0
100
AcDbSpline
70
4
71
3
72
8
73
4
40
0
40
0
40
0
40
0
40
1
40
1
40
1
40
1
41
1
10
13.9974063461373
20
2.77666288145508
30
0
41
1
10
13.9991354746761
20
2.77662966910941
30
0
41
1
10
14.0008645656182
20
2.77659775551817
30
0
41
1
10
14.0025936189675
20
2.77656714054297
30
0
0
SPLINE
5
124
100
AcDbEntity
8
1
62
256
6
ByLayer
370
18
48
1
60
0
100
AcDbSpline
70
4
71
3
72
24
73
20
40
0
40
0
40
0
40
0
40
0.125000000000001
40
0.125000000000001
40
0.187499999999999
40
0.187499999999999
40
0.249999999999996
40
0.249999999999996
40
0.374999999999997
40
0.374999999999997
40
0.499999999999998
40
0.499999999999998
40
0.624999999999998
40
0.624999999999998
40
0.749999999999999
40
0.749999999999999
40
0.874999999999999
40
0.874999999999999
40
1
40
1
40
1
40
1
41
1
10
17.1198493533592
20
-3.58463517906529
30
0
41
1
10
17.1932990935275
20
-3.593266396872
30
0
41
1
10
17.2666472897109
20
-3.59449464726052
30
0
41
1
10
17.3765221510891
20
-3.58559452546928
30
0
41
1
10
17.4133824511359
20
-3.58075609615989
30
0
41
1
10
17.4853037032052
20
-3.56761404953173
30
0
41
1
10
17.5204492688922
20
-3.55933372059818
30
0
41
1
10
17.6235439140377
20
-3.52950670757244
30
0
41
1
10
17.6899008218575
20
-3.50255400342118
30
0
41
1
10
17.8112695361606
20
-3.43760600700745
30
0
41
1
10
17.8668267026421
20
-3.39956077529556
30
0
41
1
10
17.9675845684384
20
-3.31318814758956
30
0
41
1
10
18.0115246326628
20
-3.2659958031476
30
0
41
1
10
18.0883729854568
20
-3.16414342266313
30
0
41
1
10
18.121273274906
20
-3.10918918198823
30
0
41
1
10
18.175222564561
20
-2.99593601619588
30
0
41
1
10
18.1966548269858
20
-2.93719711995084
30
0
41
1
10
18.2299736518209
20
-2.81569319777913
30
0
41
1
10
18.2418567219359
20
-2.75268021864358
30
0
41
1
10
18.2492905230609
20
-2.68857548644436
30
0
0
SPLINE
5
125
100
AcDbEntity
8
1
62
256
6
ByLayer
370
18
48
1
60
0
100
AcDbSpline
70
4
71
3
72
8
73
4
40
0
40
0
40
0
40
0
40
1
40
1
40
1
40
1
41
1
10
14.3508583141357
20
-4.89359231006935
30
0
41
1
10
14.3489380283361
20
-4.89735152521209
30
0
41
1
10
14.3471506513315
20
-4.9011447515912
30
0
41
1
10
14.3455098732435
20
-4.90494610389666
30
0
0
SPLINE
5
126
100
AcDbEntity
8
1
62
256
6
ByLayer
370
18
48
1
60
0
100
AcDbSpline
70
4
71
3
72
8
73
4
40
0
40
0
40
0
40
0
40
1
40
1
40
1
40
1
41
1
10
8.50499895857439
20
-5.31960511809083
30
0
41
1
10
8.50155982006845
20
-5.32547500945191
30
0
41
1
10
8.4982259653562
20
-5.33105285653298
30
0
41
1
10
8.49500034717403
20
-5.33633141728595
30
0
0
SPLINE
5
127
100
AcDbEntity
8
1
62
256
6
ByLayer
370
18
48
1
60
0
100
AcDbSpline
70
4
71
3
72
8
73
4
40
0
40
0
40
0
40
0
40
1
40
1
40
1
40
1
41
1
10
14.5788817372223
20
-4.71461719419602
30
0
41
1
10
14.5801892147151
20
-4.70831722322245
30
0
41
1
10
14.5815829737294
20
-4.70211455123047
30
0
41
1
10
14.5830616165068
20
-4.69600760197906
30
0
0
SPLINE
5
128
100
AcDbEntity
8
1
62
256
6
ByLayer
370
18
48
1
60
0
100
AcDbSpline
70
4
71
3
72
20
73
16
40
0
40
0
40
0
40
0
40
0.125000000000002
40
0.125000000000002
40
0.250000000000004
40
0.250000000000004
40
0.375000000000005
40
0.375000000000005
40
0.500000000000007
40
0.500000000000007
40
0.750000000000003
40
0.750000000000003
40
0.875000000000001
40
0.875000000000001
40
1
40
1
40
1
40
1
41
1
10
19.2826478337179
20
2.49620149962428
30
0
41
1
10
19.2826478337179
20
2.50728510872034
30
0
41
1
10
19.2789146868646
20
2.5186170953952
30
0
41
1
10
19.2642308689331
20
2.54072339975548
30
0
41
1
10
19.2533476265557
20
2.55157214694918
30
0
41
1
10
19.2243579353268
20
2.57285271944588
30
0
41
1
10
19.2061103576658
20
2.58329899491781
30
0
41
1
10
19.1637411027919
20
2.60284574481062
30
0
41
1
10
19.1394866392253
20
2.61206957414728
30
0
41
1
10
19.0571005914873
20
2.63801846567139
30
0
41
1
10
18.9915585782879
20
2.65229176921329
30
0
41
1
10
18.8818629966738
20
2.66792340769265
30
0
41
1
10
18.84425763652
20
2.67205458114842
30
0
41
1
10
18.7670155606115
20
2.67820900567784
30
0
41
1
10
18.7270887751574
20
2.68023106367198
30
0
41
1
10
18.6870925294645
20
2.6810893720062
30
0
0
SPLINE
5
129
100
AcDbEntity
8
1
62
256
6
ByLayer
370
18
48
1
60
0
100
AcDbSpline
70
4
71
3
72
8
73
4
40
0
40
0
40
0
40
0
40
1
40
1
40
1
40
1
41
1
10
13.9974063461373
20
-5.19131605713355
30
0
41
1
10
13.9991353028456
20
-5.19001186943069
30
0
41
1
10
14.0008643943922
20
-5.18870757411545
30
0
41
1
10
14.0025936189675
20
-5.18740317348056
30
0
0
SPLINE
5
12A
100
AcDbEntity
8
1
62
256
6
ByLayer
370
18
48
1
60
0
100
AcDbSpline
70
4
71
3
72
20
73
16
40
0
40
0
40
0
40
0
40
0.124999999999999
40
0.124999999999999
40
0.249999999999997
40
0.249999999999997
40
0.499999999999994
40
0.499999999999994
40
0.624999999999995
40
0.624999999999995
40
0.749999999999997
40
0.749999999999997
40
0.874999999999998
40
0.874999999999998
40
1
40
1
40
1
40
1
41
1
10
17.8528206284699
20
-2.52862419184018
30
0
41
1
10
17.8528206284699
20
-2.57600280064625
30
0
41
1
10
17.8473728359151
20
-2.62325009400459
30
0
41
1
10
17.8267348127733
20
-2.71735679220257
30
0
41
1
10
17.8113037494708
20
-2.76455266481958
30
0
41
1
10
17.7534916177294
20
-2.89897399148163
30
0
41
1
10
17.6988912382983
20
-2.98202312625256
30
0
41
1
10
17.5997743811761
20
-3.08883841599894
30
0
41
1
10
17.5632340119549
20
-3.12205431204527
30
0
41
1
10
17.485555975837
20
-3.18074455838908
30
0
41
1
10
17.444523388382
20
-3.20627707133488
30
0
41
1
10
17.3577270181996
20
-3.24915586283737
30
0
41
1
10
17.3112775767329
20
-3.26665113898366
30
0
41
1
10
17.2166914886637
20
-3.29083108809795
30
0
41
1
10
17.1686574811947
20
-3.29767131708721
30
0
41
1
10
17.1198493533592
20
-3.2988842782361
30
0
0
SPLINE
5
12B
100
AcDbEntity
8
1
62
256
6
ByLayer
370
18
48
1
60
0
100
AcDbSpline
70
4
71
3
72
8
73
4
40
0
40
0
40
0
40
0
40
1
40
1
40
1
40
1
41
1
10
15.6501411163144
20
-4.64572306253018
30
0
41
1
10
15.6648799139864
20
-4.65206074050226
30
0
41
1
10
15.6785307823294
20
-4.65866340939587
30
0
41
1
10
15.6910910549553
20
-4.66553171867287
30
0
0
SPLINE
5
12C
100
AcDbEntity
8
1
62
256
6
ByLayer
370
18
48
1
60
0
100
AcDbSpline
70
4
71
3
72
8
73
4
40
0
40
0
40
0
40
0
40
1
40
1
40
1
40
1
41
1
10
14.3455098732442
20
-4.90494610389553
30
0
41
1
10
14.343881806769
20
-4.90631887917644
30
0
41
1
10
14.3422795058621
20
-4.90769548595952
30
0
41
1
10
14.3407033386755
20
-4.90907558204191
30
0
0
SPLINE
5
12D
100
AcDbEntity
8
1
62
256
6
ByLayer
370
18
48
1
60
0
100
AcDbSpline
70
4
71
3
72
16
73
12
40
0
40
0
40
0
40
0
40
0.250000000000001
40
0.250000000000001
40
0.500000000000002
40
0.500000000000002
40
0.750000000000002
40
0.750000000000002
40
0.875000000000001
40
0.875000000000001
40
1
40
1
40
1
40
1
41
1
10
5.60000000000002
20
-2.6800186566515
30
0
41
1
10
5.60000000000002
20
-2.71669013080799
30
0
41
1
10
5.59737994874314
20
-2.75276791032604
30
0
41
1
10
5.58591651195195
20
-2.82362112107012
30
0
41
1
10
5.57717369418327
20
-2.85841047571444
30
0
41
1
10
5.55005413828115
20
-2.92623041866844
30
0
41
1
10
5.53215768279085
20
-2.95874241477421
30
0
41
1
10
5.49271360781842
20
-3.00019247607645
30
0
41
1
10
5.47722852506502
20
-3.01277679156422
30
0
41
1
10
5.44134234255824
20
-3.0312384702921
30
0
41
1
10
5.42082863727006
20
-3.03685692781207
30
0
41
1
10
5.39999999999998
20
-3.03685692781207
30
0
0
SPLINE
5
12E
100
AcDbEntity
8
1
62
256
6
ByLayer
370
18
48
1
60
0
100
AcDbSpline
70
4
71
3
72
16
73
12
40
0
40
0
40
0
40
0
40
0.125000000000001
40
0.125000000000001
40
0.250000000000003
40
0.250000000000003
40
0.500000000000002
40
0.500000000000002
40
0.750000000000001
40
0.750000000000001
40
1
40
1
40
1
40
1
41
1
10
2.10000000000002
20
-3.03685692781207
30
0
41
1
10
2.07928573160183
20
-3.03685692781207
30
0
41
1
10
2.05855457829011
20
-3.03117106583605
30
0
41
1
10
2.02304228610569
20
-3.01293041817542
30
0
41
1
10
2.00764611430105
20
-3.00049295089153
30
0
41
1
10
1.9683495045046
20
-2.95942690108552
30
0
41
1
10
1.95014777256631
20
-2.92657611619342
30
0
41
1
10
1.92310228615781
20
-2.85925708389911
30
0
41
1
10
1.91408764774883
20
-2.82371392658865
30
0
41
1
10
1.90255940491846
20
-2.75232564290613
30
0
41
1
10
1.89999999999998
20
-2.71631850332574
30
0
41
1
10
1.89999999999998
20
-2.68001865665147
30
0
0
SPLINE
5
12F
100
AcDbEntity
8
1
62
256
6
ByLayer
370
18
48
1
60
0
100
AcDbSpline
70
4
71
3
72
16
73
12
40
0
40
0
40
0
40
0
40
0.249999999999999
40
0.249999999999999
40
0.499999999999999
40
0.499999999999999
40
0.749999999999998
40
0.749999999999998
40
0.874999999999999
40
0.874999999999999
40
1
40
1
40
1
40
1
41
1
10
1.89999999999998
20
2.68001865665147
30
0
41
1
10
1.89999999999998
20
2.71633893006163
30
0
41
1
10
1.90256142528648
20
2.75238692779848
30
0
41
1
10
1.91412650257735
20
2.82390558728028
30
0
41
1
10
1.92313504910317
20
2.85937256971212
30
0
41
1
10
1.95021837992994
20
2.92671780003144
30
0
41
1
10
1.96832652018941
20
2.95949209719925
30
0
41
1
10
2.00801539472889
20
3.00083364530863
30
0
41
1
10
2.02304517536641
20
3.01293332017838
30
0
41
1
10
2.05856827583648
20
3.03117668288581
30
0
41
1
10
2.07931748782727
20
3.03685692781207
30
0
41
1
10
2.10000000000002
20
3.03685692781207
30
0
0
SPLINE
5
130
100
AcDbEntity
8
1
62
256
6
ByLayer
370
18
48
1
60
0
100
AcDbSpline
70
4
71
3
72
8
73
4
40
0
40
0
40
0
40
0
40
1
40
1
40
1
40
1
41
1
10
13.9974063461373
20
-5.19131605713355
30
0
41
1
10
13.9315534789714
20
-5.24099023297958
30
0
41
1
10
13.8692766734819
20
-5.28467494561534
30
0
41
1
10
13.8124578642066
20
-5.32214982602665
30
0
0
SPLINE
5
131
100
AcDbEntity
8
1
62
256
6
ByLayer
370
18
48
1
60
0
100
AcDbSpline
70
4
71
3
72
22
73
18
40
0
40
0
40
0
40
0
40
0.250000000000006
40
0.250000000000006
40
0.375000000000008
40
0.375000000000008
40
0.500000000000011
40
0.500000000000011
40
0.625000000000013
40
0.625000000000013
40
0.687500000000013
40
0.687500000000013
40
0.750000000000012
40
0.750000000000012
40
0.875000000000006
40
0.875000000000006
40
1
40
1
40
1
40
1
41
1
10
16.1697275787035
20
-2.33520043248518
30
0
41
1
10
16.1551246707983
20
-2.4765878331321
30
0
41
1
10
16.1560739565843
20
-2.61445095465928
30
0
41
1
10
16.1881981265566
20
-2.81585401363989
30
0
41
1
10
16.2043184224022
20
-2.88244324402317
30
0
41
1
10
16.248011021258
20
-3.00937863099276
30
0
41
1
10
16.2755798616242
20
-3.07021514326982
30
0
41
1
10
16.3443523279906
20
-3.18625825186999
30
0
41
1
10
16.3856763563849
20
-3.24127078432338
30
0
41
1
10
16.4569605391971
20
-3.31568928963202
30
0
41
1
10
16.4823613002231
20
-3.3392969916838
30
0
41
1
10
16.5367205545217
20
-3.38401987407033
30
0
41
1
10
16.5659136418044
20
-3.40527203328239
30
0
41
1
10
16.657209176203
20
-3.46364537678809
30
0
41
1
10
16.7230332570211
20
-3.49569402890077
30
0
41
1
10
16.8653788798206
20
-3.54581684813925
30
0
41
1
10
16.9421716805138
20
-3.56368644302796
30
0
41
1
10
17.0208225464851
20
-3.57297151765232
30
0
0
SPLINE
5
132
100
AcDbEntity
8
1
62
256
6
ByLayer
370
18
48
1
60
0
100
AcDbSpline
70
4
71
3
72
8
73
4
40
0
40
0
40
0
40
0
40
1
40
1
40
1
40
1
41
1
10
15.327873064258
20
-4.52568479942303
30
0
41
1
10
15.3236900375335
20
-4.52487181507391
30
0
41
1
10
15.3194910781448
20
-4.52406119842911
30
0
41
1
10
15.3152779651833
20
-4.52325300410715
30
0
0
SPLINE
5
133
100
AcDbEntity
8
1
62
256
6
ByLayer
370
18
48
1
60
0
100
AcDbSpline
70
4
71
3
72
17
73
13
40
0
40
0
40
0
40
0
40
0.0006451947737886
40
0.0119135634281668
40
0.0907921440088301
40
0.180939093243881
40
0.361232991713973
40
0.451379940949019
40
0.541526890184065
40
0.721820788654156
40
0.902114687124248
40
1
40
1
40
1
40
1
41
1
10
15.5634980715087
20
-4.60783874536625
30
0
41
1
10
15.5634350005926
20
-4.60783740550318
30
0
41
1
10
15.5622703690278
20
-4.60781256129724
30
0
41
1
10
15.5533913647225
20
-4.60760783666848
30
0
41
1
10
15.5357457637273
20
-4.60675751014753
30
0
41
1
10
15.5016113480069
20
-4.60346821687713
30
0
41
1
10
15.4666351939333
20
-4.59733435843955
30
0
41
1
10
15.4321946308249
20
-4.58853873049506
30
0
41
1
10
15.3982121278334
20
-4.57799124579506
30
0
41
1
10
15.3567765595853
20
-4.56157605161195
30
0
41
1
10
15.3165239587073
20
-4.54068729068288
30
0
41
1
10
15.2932021927489
20
-4.52616247633244
30
0
41
1
10
15.2851457631555
20
-4.52083129302409
30
0
0
SPLINE
5
134
100
AcDbEntity
8
1
62
256
6
ByLayer
370
18
48
1
60
0
100
AcDbSpline
70
4
71
3
72
8
73
4
40
0
40
0
40
0
40
0
40
1
40
1
40
1
40
1
41
1
10
14.1440868126823
20
-5.16534836541592
30
0
41
1
10
14.1310241451137
20
-5.13351887257093
30
0
41
1
10
14.1179614775451
20
-5.10168937972594
30
0
41
1
10
14.1048988099764
20
-5.06985988688095
30
0
0
SPLINE
5
135
100
AcDbEntity
8
1
62
256
6
ByLayer
370
18
48
1
60
0
100
AcDbSpline
70
4
71
3
72
16
73
12
40
0
40
0
40
0
40
0
40
0.0725917829535734
40
0.281450793185542
40
0.49030980341751
40
0.699168813649479
40
0.803598318765463
40
0.908027823881447
40
0.960242576439439
40
0.986349952718436
40
1
40
1
40
1
40
1
41
1
10
19.0959716547068
20
-4.72490077231089
30
0
41
1
10
19.1022625559071
20
-4.72382960861125
30
0
41
1
10
19.1263558598452
20
-4.71858949565609
30
0
41
1
10
19.1654515531045
20
-4.70219168307787
30
0
41
1
10
19.2072642624167
20
-4.6693939436889
30
0
41
1
10
19.2328132407609
20
-4.6333357268002
30
0
41
1
10
19.2457701237851
20
-4.60050762136945
30
0
41
1
10
19.2503675315974
20
-4.57874536704705
30
0
41
1
10
19.251798522692
20
-4.56313825133023
30
0
41
1
10
19.2520940214578
20
-4.5552164995589
30
0
41
1
10
19.2521195153253
20
-4.55178316825538
30
0
41
1
10
19.252122715288
20
-4.55060389499928
30
0
0
SPLINE
5
136
100
AcDbEntity
8
1
62
256
6
ByLayer
370
18
48
1
60
0
100
AcDbSpline
70
4
71
3
72
9
73
5
40
0
40
0
40
0
40
0
40
0.342186564855614
40
1
40
1
40
1
40
1
41
1
10
19.2826538935489
20
-2.50540604351761
30
0
41
1
10
19.3244857593212
20
-2.60733676060067
30
0
41
1
10
19.4467344682682
20
-2.90521729581701
30
0
41
1
10
19.5689831772168
20
-3.20309783103278
30
0
41
1
10
19.6494000203929
20
-3.39904764916548
30
0
0
SPLINE
5
137
100
AcDbEntity
8
1
62
256
6
ByLayer
370
18
48
1
60
0
100
AcDbSpline
70
4
71
3
72
10
73
6
40
0
40
0
40
0
40
0
40
0.300009221639319
40
0.966201251498451
40
1
40
1
40
1
40
1
41
1
10
13.7017412713461
20
-5.41281495402211
30
0
41
1
10
13.6990442801946
20
-5.40560674143706
30
0
41
1
10
13.6870006202095
20
-5.37289148341094
30
0
41
1
10
13.6753875537538
20
-5.3415958626677
30
0
41
1
10
13.6671909255907
20
-5.31948602372685
30
0
41
1
10
13.666795001981
20
-5.31841799976834
30
0
0
SPLINE
5
138
100
AcDbEntity
8
1
62
256
6
ByLayer
370
18
48
1
60
0
100
AcDbSpline
70
4
71
3
72
21
73
17
40
0
40
0
40
0
40
0
40
0.0695240140885767
40
0.139048028177153
40
0.20857204226573
40
0.278096056354307
40
0.347620070442883
40
0.41714408453146
40
0.486668098620037
40
0.556192112708613
40
0.62571612679719
40
0.695240140885767
40
0.764764154974343
40
0.83428816906292
40
0.973336197240073
40
1
40
1
40
1
40
1
41
1
10
19.4422218731298
20
-2.31283982225591
30
0
41
1
10
19.4400638991434
20
-2.30701207020326
30
0
41
1
10
19.4355207884249
20
-2.29542759608088
30
0
41
1
10
19.4280362364173
20
-2.27828876671958
30
0
41
1
10
19.4198931797189
20
-2.26141271223011
30
0
41
1
10
19.4111030596414
20
-2.24482429804345
30
0
41
1
10
19.401677301776
20
-2.22854839708768
30
0
41
1
10
19.3916310476581
20
-2.21260807119117
30
0
41
1
10
19.3809794377261
20
-2.19702638246065
30
0
41
1
10
19.3697376126415
20
-2.18182639288798
30
0
41
1
10
19.3579207131359
20
-2.16703116467829
30
0
41
1
10
19.3455472365919
20
-2.15266139536334
30
0
41
1
10
19.3326356802389
20
-2.13873778229782
30
0
41
1
10
19.31472749496
20
-2.12079543635096
30
0
41
1
10
19.2987316065331
20
-2.10644318721816
30
0
41
1
10
19.2870294118771
20
-2.09682820261747
30
0
41
1
10
19.2851354421464
20
-2.09529410227188
30
0
0
SPLINE
5
139
100
AcDbEntity
8
1
62
256
6
ByLayer
370
18
48
1
60
0
100
AcDbSpline
70
4
71
3
72
8
73
4
40
0
40
0
40
0
40
0
40
1
40
1
40
1
40
1
41
1
10
17.2637202314404
20
2.70744443831296
30
0
41
1
10
17.3607732928276
20
2.7651512705898
30
0
41
1
10
17.4508176222974
20
2.83443828041993
30
0
41
1
10
17.5308342448769
20
2.913311489731
30
0
0
SPLINE
5
13A
100
AcDbEntity
8
1
62
256
6
ByLayer
370
18
48
1
60
0
100
AcDbSpline
70
4
71
3
72
21
73
17
40
0
40
0
40
0
40
0
40
0.0695240140885745
40
0.139048028177149
40
0.208572042265723
40
0.278096056354298
40
0.347620070442872
40
0.417144084531447
40
0.486668098620021
40
0.556192112708596
40
0.62571612679717
40
0.695240140885745
40
0.764764154974319
40
0.834288169062894
40
0.973336197240043
40
1
40
1
40
1
40
1
41
1
10
19.4422218731298
20
2.31283982225588
30
0
41
1
10
19.4400638991434
20
2.3070120702032
30
0
41
1
10
19.4355207884249
20
2.29542759608083
30
0
41
1
10
19.4280362364173
20
2.27828876671955
30
0
41
1
10
19.4198931797189
20
2.26141271223005
30
0
41
1
10
19.4111030596414
20
2.2448242980434
30
0
41
1
10
19.401677301776
20
2.22854839708765
30
0
41
1
10
19.3916310476581
20
2.21260807119111
30
0
41
1
10
19.3809794377261
20
2.19702638246059
30
0
41
1
10
19.3697376126415
20
2.18182639288793
30
0
41
1
10
19.3579207131359
20
2.16703116467824
30
0
41
1
10
19.3455472365919
20
2.15266139536331
30
0
41
1
10
19.3326356802389
20
2.13873778229777
30
0
41
1
10
19.31472749496
20
2.12079543635093
30
0
41
1
10
19.2987316065331
20
2.10644318721816
30
0
41
1
10
19.2870294118771
20
2.09682820261747
30
0
41
1
10
19.2851354421464
20
2.09529410227188
30
0
0
SPLINE
5
13B
100
AcDbEntity
8
1
62
256
6
ByLayer
370
18
48
1
60
0
100
AcDbSpline
70
4
71
3
72
17
73
13
40
0
40
0
40
0
40
0
40
0.0129686961123387
40
0.0950653257211709
40
0.259258584938835
40
0.423451844156499
40
0.587645103374164
40
0.751838362591828
40
0.792886677396244
40
0.83393499220066
40
0.916031621809492
40
1
40
1
40
1
40
1
41
1
10
13.1863772745071
20
3.71499697685482
30
0
41
1
10
13.1862475251863
20
3.71247636052507
30
0
41
1
10
13.1852625625649
20
3.69331433705548
30
0
41
1
10
13.1818417601845
20
3.62633059624346
30
0
41
1
10
13.1750119552468
20
3.49350312031157
30
0
41
1
10
13.1671398035729
20
3.3413426397783
30
0
41
1
10
13.1590485206302
20
3.18641439338955
30
0
41
1
10
13.1531186413198
20
3.07101736379761
30
0
41
1
10
13.1490383064898
20
2.99394698961638
30
0
41
1
10
13.1475207916857
20
2.94258524434596
30
0
41
1
10
13.1463063505386
20
2.87780391318128
30
0
41
1
10
13.145532548855
20
2.82586223927595
30
0
41
1
10
13.1452022622315
20
2.79960529500286
30
0
0
SPLINE
5
13C
100
AcDbEntity
8
1
62
256
6
ByLayer
370
18
48
1
60
0
100
AcDbSpline
70
4
71
3
72
8
73
4
40
0
40
0
40
0
40
0
40
1
40
1
40
1
40
1
41
1
10
13.8916676163596
20
-5.20045432963073
30
0
41
1
10
13.9056698425495
20
-5.23405533912222
30
0
41
1
10
13.9197276236557
20
-5.26763651793468
30
0
41
1
10
13.9338467189688
20
-5.30119572134663
30
0
0
SPLINE
5
13D
100
AcDbEntity
8
1
62
256
6
ByLayer
370
18
48
1
60
0
100
AcDbSpline
70
4
71
3
72
14
73
10
40
0
40
0
40
0
40
0
40
0.314088774891928
40
0.314088774891928
40
0.628177549783857
40
0.628177549783857
40
0.942266324675786
40
0.942266324675786
40
1
40
1
40
1
40
1
41
1
10
15.2846411138314
20
3.7678752049529
30
0
41
1
10
15.2817977424396
20
3.64157238811219
30
0
41
1
10
15.2983588189543
20
3.5156488554685
30
0
41
1
10
15.3688607365794
20
3.27542687751111
30
0
41
1
10
15.4227926338491
20
3.16115890664611
30
0
41
1
10
15.5633642746333
20
2.95416970821796
30
0
41
1
10
15.6499861852947
20
2.86147473920849
30
0
41
1
10
15.7674447269022
20
2.76926065760677
30
0
41
1
10
15.786107590319
20
2.75544306965492
30
0
41
1
10
15.8051653183189
20
2.74214307609014
30
0
0
SPLINE
5
13E
100
AcDbEntity
8
1
62
256
6
ByLayer
370
18
48
1
60
0
100
AcDbSpline
70
4
71
3
72
10
73
6
40
0
40
0
40
0
40
0
40
0.5
40
0.5
40
1
40
1
40
1
40
1
41
1
10
19.9576005880728
20
4.01065427354166
30
0
41
1
10
19.9530288065422
20
3.9213059100907
30
0
41
1
10
19.9480506903949
20
3.83186148261888
30
0
41
1
10
19.9246024365585
20
3.65382401563355
30
0
41
1
10
19.9059356917598
20
3.56506186351342
30
0
41
1
10
19.8744043731527
20
3.47991295708195
30
0
0
SPLINE
5
13F
100
AcDbEntity
8
1
62
256
6
ByLayer
370
18
48
1
60
0
100
AcDbSpline
70
4
71
3
72
21
73
17
40
0
40
0
40
0
40
0
40
0.0084859884802261
40
0.0622054254297567
40
0.169644299328818
40
0.27708317322788
40
0.384522047126941
40
0.491960921026002
40
0.518820639500768
40
0.545680357975533
40
0.599399794925064
40
0.706838668824125
40
0.814277542723187
40
0.921716416622248
40
0.975435853571779
40
1
40
1
40
1
40
1
41
1
10
19.9576007767595
20
4.01065427358475
30
0
41
1
10
19.9577305261033
20
4.01317488986822
30
0
41
1
10
19.958715489085
20
4.03233691261079
30
0
41
1
10
19.9621362977438
20
4.09932064075562
30
0
41
1
10
19.968966187507
20
4.23214794554411
30
0
41
1
10
19.9768379976176
20
4.38430911521399
30
0
41
1
10
19.9849284525354
20
4.53923903222261
30
0
41
1
10
19.990857888956
20
4.65463695538722
30
0
41
1
10
19.994940216485
20
4.73170330910662
30
0
41
1
10
19.9964572872323
20
4.78306595030452
30
0
41
1
10
19.9981420970369
20
4.87294027035406
30
0
41
1
10
19.9998160532309
20
5.00133023850918
30
0
41
1
10
20.0002097693131
20
5.15510440625502
30
0
41
1
10
19.9992479672236
20
5.28437683333232
30
0
41
1
10
19.9978713542634
20
5.37134487009388
30
0
41
1
10
19.9971921373199
20
5.41079579623258
30
0
41
1
10
19.9969899423182
20
5.41919757138365
30
0
0
SPLINE
5
140
100
AcDbEntity
8
1
62
256
6
ByLayer
370
18
48
1
60
0
100
AcDbSpline
70
4
71
3
72
8
73
4
40
0
40
0
40
0
40
0
40
1
40
1
40
1
40
1
41
1
10
14.1678416039344
20
5.74687169621049
30
0
41
1
10
14.9906344082709
20
5.77834525338776
30
0
41
1
10
15.8131828168501
20
5.80012201386978
30
0
41
1
10
16.6354815594859
20
5.81199403834418
30
0
0
SPLINE
5
141
100
AcDbEntity
8
1
62
256
6
ByLayer
370
18
48
1
60
0
100
AcDbSpline
70
4
71
3
72
14
73
10
40
0
40
0
40
0
40
0
40
0.0327618042001991
40
0.105511744094441
40
0.251011623882924
40
0.396511503671407
40
0.542011383459891
40
0.833011143036858
40
1
40
1
40
1
40
1
41
1
10
19.4422357853917
20
2.31283830297497
30
0
41
1
10
19.4449328086929
20
2.32004645069512
30
0
41
1
10
19.4569766618974
20
2.35276131888253
30
0
41
1
10
19.4836706082834
20
2.4246963225294
30
0
41
1
10
19.5232718705513
20
2.53170082956885
30
0
41
1
10
19.5705820940419
20
2.65950047879562
30
0
41
1
10
19.6335231478256
20
2.82948281231958
30
0
41
1
10
19.6987931823941
20
3.00569979006193
30
0
41
1
10
19.7486836604645
20
3.14036532824133
30
0
41
1
10
19.7667808469102
20
3.18923558526916
30
0
0
SPLINE
5
142
100
AcDbEntity
8
1
62
256
6
ByLayer
370
18
48
1
60
0
100
AcDbSpline
70
4
71
3
72
8
73
4
40
0
40
0
40
0
40
0
40
1
40
1
40
1
40
1
41
1
10
19.5998196118325
20
5.81111789575056
30
0
41
1
10
19.6082883207001
20
5.81098806512355
30
0
41
1
10
19.6167413001782
20
5.8105923808456
30
0
41
1
10
19.6251621092312
20
5.80993554757379
30
0
0
SPLINE
5
143
100
AcDbEntity
8
1
62
256
6
ByLayer
370
18
48
1
60
0
100
AcDbSpline
70
4
71
3
72
12
73
8
40
0
40
0
40
0
40
0
40
0.0894630037273951
40
0.338476115890853
40
0.587489228054311
40
0.836502340217769
40
1
40
1
40
1
40
1
41
1
10
19.6251621561342
20
5.8099354480679
30
0
41
1
10
19.6298838866587
20
5.8095671466788
30
0
41
1
10
19.6477099081841
20
5.80786306042125
30
0
41
1
10
19.6783270217146
20
5.8028859317393
30
0
41
1
10
19.7162791842586
20
5.79288625040115
30
0
41
1
10
19.7487248624405
20
5.78091538402006
30
0
41
1
10
19.7682050674938
20
5.77191088842375
30
0
41
1
10
19.7757943061355
20
5.76810917429287
30
0
0
SPLINE
5
144
100
AcDbEntity
8
1
62
256
6
ByLayer
370
18
48
1
60
0
100
AcDbSpline
70
4
71
3
72
10
73
6
40
0
40
0
40
0
40
0
40
0.5
40
0.5
40
1
40
1
40
1
40
1
41
1
10
13.1863774648019
20
3.71499697365366
30
0
41
1
10
13.1909492587826
20
3.80434531198532
30
0
41
1
10
13.1959273864509
20
3.89378971621241
30
0
41
1
10
13.2193756511546
20
4.07182716127173
30
0
41
1
10
13.2380423960538
20
4.16058931318921
30
0
41
1
10
13.2695736981085
20
4.24573825301678
30
0
0
SPLINE
5
145
100
AcDbEntity
8
1
62
256
6
ByLayer
370
18
48
1
60
0
100
AcDbSpline
70
4
71
3
72
10
73
6
40
0
40
0
40
0
40
0
40
0.470321334188279
40
0.940642668376558
40
1
40
1
40
1
40
1
41
1
10
13.7017499755807
20
5.41281105967772
30
0
41
1
10
13.7039079003561
20
5.41863895384367
30
0
41
1
10
13.7084509102911
20
5.43022372658379
30
0
41
1
10
13.7137553854305
20
5.44237092436995
30
0
41
1
10
13.7167042569478
20
5.44874948739894
30
0
41
1
10
13.7170364603725
20
5.44946358180547
30
0
0
SPLINE
5
146
100
AcDbEntity
8
1
62
256
6
ByLayer
370
18
48
1
60
0
100
AcDbSpline
70
4
71
3
72
14
73
10
40
0
40
0
40
0
40
0
40
0.0327618042002312
40
0.105511744094542
40
0.251011623883163
40
0.396511503671785
40
0.542011383460406
40
0.833011143037649
40
1
40
1
40
1
40
1
41
1
10
13.7017412713461
20
5.41281495402208
30
0
41
1
10
13.6990442801946
20
5.40560674143703
30
0
41
1
10
13.6870006202095
20
5.37289148341091
30
0
41
1
10
13.6603069962363
20
5.30095582926509
30
0
41
1
10
13.6207060447577
20
5.19395069517827
30
0
41
1
10
13.5733959958852
20
5.06615069364264
30
0
41
1
10
13.5104549924195
20
4.89616825859744
30
0
41
1
10
13.4451848535962
20
4.71995149119962
30
0
41
1
10
13.3952943747927
20
4.58528595449979
30
0
41
1
10
13.377197190959
20
4.53641569220247
30
0
0
SPLINE
5
147
100
AcDbEntity
8
1
62
256
6
ByLayer
370
18
48
1
60
0
100
AcDbSpline
70
4
71
3
72
9
73
5
40
0
40
0
40
0
40
0
40
0.457192471264526
40
1
40
1
40
1
40
1
41
1
10
19.9648649196624
20
5.56787685931903
30
0
41
1
10
19.9601721396787
20
5.57798302541636
30
0
41
1
10
19.9499077974623
20
5.60008786469638
30
0
41
1
10
19.937011146338
20
5.62082812163305
30
0
41
1
10
19.9300107470123
20
5.6320860892462
30
0
0
SPLINE
5
148
100
AcDbEntity
8
1
62
256
6
ByLayer
370
18
48
1
60
0
100
AcDbSpline
70
4
71
3
72
8
73
4
40
0
40
0
40
0
40
0
40
1
40
1
40
1
40
1
41
1
10
19.8862727072974
20
5.68659883822562
30
0
41
1
10
19.8546105361083
20
5.71961132789366
30
0
41
1
10
19.8172187859834
20
5.74733753798202
30
0
41
1
10
19.7757761944477
20
5.76807315569246
30
0
0
SPLINE
5
149
100
AcDbEntity
8
1
62
256
6
ByLayer
370
18
48
1
60
0
100
AcDbSpline
70
4
71
3
72
8
73
4
40
0
40
0
40
0
40
0
40
1
40
1
40
1
40
1
41
1
10
16.6354815626212
20
5.81199403048745
30
0
41
1
10
16.6858138432918
20
5.81272070810033
30
0
41
1
10
16.7361451885713
20
5.81341027691653
30
0
41
1
10
16.7864755972511
20
5.81406268925045
30
0
0
SPLINE
5
14A
100
AcDbEntity
8
1
62
256
6
ByLayer
370
18
48
1
60
0
100
AcDbSpline
70
4
71
3
72
27
73
23
40
0
40
0
40
0
40
0
40
0.0292495184271114
40
0.0627236729641076
40
0.0961978275011037
40
0.1296719820381
40
0.163146136575096
40
0.196620291112092
40
0.230094445649088
40
0.263568600186085
40
0.297042754723081
40
0.330516909260077
40
0.397465218334069
40
0.464413527408062
40
0.531361836482054
40
0.598310145556046
40
0.665258454630038
40
0.732206763704031
40
0.799155072778023
40
0.866103381852015
40
0.933051690926008
40
1
40
1
40
1
40
1
41
1
10
13.7170451814956
20
5.44945913865632
30
0
41
1
10
13.7193451979284
20
5.45440318435371
30
0
41
1
10
13.724456733715
20
5.464932803062
30
0
41
1
10
13.7328769046545
20
5.48082367952804
30
0
41
1
10
13.7423024939648
20
5.49709990895235
30
0
41
1
10
13.7523485789545
20
5.51304056356264
30
0
41
1
10
13.7630000191651
20
5.52862258141855
30
0
41
1
10
13.7742416739598
20
5.54382290060255
30
0
41
1
10
13.7860584026198
20
5.5586184590025
30
0
41
1
10
13.7984317077855
20
5.5729885591609
30
0
41
1
10
13.8113430922477
20
5.58691250379795
30
0
41
1
10
13.829251047683
20
5.60485529290224
30
0
41
1
10
13.852888703751
20
5.62606490349987
30
0
41
1
10
13.8830868733335
20
5.64942340312479
30
0
41
1
10
13.9149466684125
20
5.67054603749344
30
0
41
1
10
13.948277331396
20
5.68931607966937
30
0
41
1
10
13.9828881046291
20
5.705616802626
30
0
41
1
10
14.0185732992107
20
5.71936028072298
30
0
41
1
10
14.0551272260924
20
5.73045858829079
30
0
41
1
10
14.0923340383293
20
5.73885468278238
30
0
41
1
10
14.1299778889896
20
5.74449152216573
30
0
41
1
10
14.1552179289596
20
5.74639334137893
30
0
41
1
10
14.1678371789735
20
5.7468760900247
30
0
0
SPLINE
5
14B
100
AcDbEntity
8
1
62
256
6
ByLayer
370
18
48
1
60
0
100
AcDbSpline
70
4
71
3
72
10
73
6
40
0
40
0
40
0
40
0
40
0.36901068560743
40
0.801964637755752
40
1
40
1
40
1
40
1
41
1
10
13.377197190959
20
4.53641569220247
30
0
41
1
10
13.3637576828216
20
4.50012317874521
30
0
41
1
10
13.3346619674111
20
4.42152568721227
30
0
41
1
10
13.2990254175173
20
4.32512443161798
30
0
41
1
10
13.2746765172722
20
4.25968751822427
30
0
41
1
10
13.2695636996476
20
4.24574063353577
30
0
0
SPLINE
5
14C
100
AcDbEntity
8
1
62
256
6
ByLayer
370
18
48
1
60
0
100
AcDbSpline
70
4
71
3
72
10
73
6
40
0
40
0
40
0
40
0
40
0.369010685605647
40
0.80196463775519
40
1
40
1
40
1
40
1
41
1
10
19.7667808469102
20
3.18923558526916
30
0
41
1
10
19.7802203569872
20
3.22552809481266
30
0
41
1
10
19.8093160800639
20
3.30412557087763
30
0
41
1
10
19.8449526306779
20
3.40052682501852
30
0
41
1
10
19.8693015314863
20
3.46596373727576
30
0
41
1
10
19.874414347713
20
3.47991062478482
30
0
0
SPLINE
5
14D
100
AcDbEntity
8
1
62
256
6
ByLayer
370
18
48
1
60
0
100
AcDbSpline
70
4
71
3
72
16
73
12
40
0
40
0
40
0
40
0
40
0.0010332454567829
40
0.125904089774685
40
0.250774934092587
40
0.375645778410489
40
0.500516622728391
40
0.625387467046294
40
0.750258311364196
40
0.875129155682098
40
1
40
1
40
1
40
1
41
1
10
19.9648649921942
20
5.56787669597838
30
0
41
1
10
19.9648856737369
20
5.56782854661623
30
0
41
1
10
19.9674046249587
20
5.56196089071128
30
0
41
1
10
19.9721409014505
20
5.55014995286007
30
0
41
1
10
19.9783665141772
20
5.53215309723927
30
0
41
1
10
19.9837286210485
20
5.51384521152207
30
0
41
1
10
19.9882142951492
20
5.49527069619273
30
0
41
1
10
19.9918106098128
20
5.47647395179285
30
0
41
1
10
19.9945052334705
20
5.45750038995382
30
0
41
1
10
19.9962858341089
20
5.43839542375832
30
0
41
1
10
19.9968553315099
20
5.42560145119185
30
0
41
1
10
19.9969836321749
20
5.41919770308147
30
0
0
SPLINE
5
14E
100
AcDbEntity
8
1
62
256
6
ByLayer
370
18
48
1
60
0
100
AcDbSpline
70
4
71
3
72
10
73
6
40
0
40
0
40
0
40
0
40
0.419283533798398
40
0.971757813421327
40
1
40
1
40
1
40
1
41
1
10
19.8862751716442
20
5.68659973869262
30
0
41
1
10
19.8929709297741
20
5.67960773594768
30
0
41
1
10
19.9078895093745
20
5.66285274829806
30
0
41
1
10
19.9217186528206
20
5.64439653630401
30
0
41
1
10
19.9291869590409
20
5.63331647785765
30
0
41
1
10
19.9295488337079
20
5.63277676823813
30
0
0
SPLINE
5
14F
100
AcDbEntity
8
1
62
256
6
ByLayer
370
18
48
1
60
0
100
AcDbSpline
70
4
71
3
72
9
73
5
40
0
40
0
40
0
40
0
40
0.0349179901732569
40
1
40
1
40
1
40
1
41
1
10
16.7864756138085
20
5.81406264813964
30
0
41
1
10
16.8192326196421
20
5.81448726378011
30
0
41
1
10
17.757333837244
20
5.82619688565526
30
0
41
1
10
18.6951093925041
20
5.82498699295667
30
0
41
1
10
19.5998196261816
20
5.81111788243962
30
0
0
SPLINE
5
150
100
AcDbEntity
8
1
62
256
6
ByLayer
370
18
48
1
60
0
100
AcDbSpline
70
4
71
3
72
8
73
4
40
0
40
0
40
0
40
0
40
1
40
1
40
1
40
1
41
1
10
16.6356315250236
20
5.07411197931103
30
0
41
1
10
16.4492514894696
20
5.07062278206524
30
0
41
1
10
16.2620974433424
20
5.02837759894641
30
0
41
1
10
16.090468315151
20
4.95105549131463
30
0
0
SPLINE
5
151
100
AcDbEntity
8
1
62
256
6
ByLayer
370
18
48
1
60
0
100
AcDbSpline
70
4
71
3
72
10
73
6
40
0
40
0
40
0
40
0
40
0.499999999999998
40
0.499999999999998
40
1
40
1
40
1
40
1
41
1
10
16.090468315151
20
4.95105549131463
30
0
41
1
10
15.9494546350951
20
4.8875262112808
30
0
41
1
10
15.8189676465239
20
4.80047047179863
30
0
41
1
10
15.5945209381115
20
4.58962963632717
30
0
41
1
10
15.5006154328993
20
4.46589546849708
30
0
41
1
10
15.4305956998736
20
4.33118409959803
30
0
0
SPLINE
5
152
100
AcDbEntity
8
1
62
256
6
ByLayer
370
18
48
1
60
0
100
AcDbSpline
70
4
71
3
72
8
73
4
40
0
40
0
40
0
40
0
40
1
40
1
40
1
40
1
41
1
10
15.4305956998736
20
4.33118409959803
30
0
41
1
10
15.3393178373062
20
4.15557409245736
30
0
41
1
10
15.2889969440431
20
3.96136158067404
30
0
41
1
10
15.2846411138314
20
3.7678752049529
30
0
0
SPLINE
5
153
100
AcDbEntity
8
1
62
256
6
ByLayer
370
18
48
1
60
0
100
AcDbSpline
70
4
71
3
72
8
73
4
40
0
40
0
40
0
40
0
40
1
40
1
40
1
40
1
41
1
10
17.5308342448769
20
2.913311489731
30
0
41
1
10
17.6134720566986
20
2.99476843228484
30
0
41
1
10
17.6854674783332
20
3.08633998843075
30
0
41
1
10
17.7443737400927
20
3.18491409211256
30
0
0
SPLINE
5
154
100
AcDbEntity
8
1
62
256
6
ByLayer
370
18
48
1
60
0
100
AcDbSpline
70
4
71
3
72
10
73
6
40
0
40
0
40
0
40
0
40
0.5
40
0.5
40
1
40
1
40
1
40
1
41
1
10
17.7443737400927
20
3.18491409211256
30
0
41
1
10
17.8045177412641
20
3.28555943660103
30
0
41
1
10
17.851003562236
20
3.39348981617459
30
0
41
1
10
17.9133664448565
20
3.61627638196868
30
0
41
1
10
17.9292381982147
20
3.731113604733
30
0
41
1
10
17.9292381982147
20
3.84532804399828
30
0
0
SPLINE
5
155
100
AcDbEntity
8
1
62
256
6
ByLayer
370
18
48
1
60
0
100
AcDbSpline
70
4
71
3
72
8
73
4
40
0
40
0
40
0
40
0
40
1
40
1
40
1
40
1
41
1
10
17.9292381982147
20
3.84532804399828
30
0
41
1
10
17.9292381982147
20
3.92384848355744
30
0
41
1
10
17.9217599087976
20
4.00206941006766
30
0
41
1
10
17.9069292014886
20
4.0786742407164
30
0
0
SPLINE
5
156
100
AcDbEntity
8
1
62
256
6
ByLayer
370
18
48
1
60
0
100
AcDbSpline
70
4
71
3
72
8
73
4
40
0
40
0
40
0
40
0
40
1
40
1
40
1
40
1
41
1
10
17.9069292014886
20
4.0786742407164
30
0
41
1
10
17.872114406482
20
4.25850258065825
30
0
41
1
10
17.7963018872395
20
4.42920327956895
30
0
41
1
10
17.6863669344388
20
4.57529582135945
30
0
0
SPLINE
5
157
100
AcDbEntity
8
1
62
256
6
ByLayer
370
18
48
1
60
0
100
AcDbSpline
70
4
71
3
72
8
73
4
40
0
40
0
40
0
40
0
40
1
40
1
40
1
40
1
41
1
10
17.6863669344388
20
4.57529582135945
30
0
41
1
10
17.6512849792623
20
4.6219162261728
30
0
41
1
10
17.6127815153653
20
4.66605569933259
30
0
41
1
10
17.5712210350181
20
4.70729639539974
30
0
0
SPLINE
5
158
100
AcDbEntity
8
1
62
256
6
ByLayer
370
18
48
1
60
0
100
AcDbSpline
70
4
71
3
72
8
73
4
40
0
40
0
40
0
40
0
40
1
40
1
40
1
40
1
41
1
10
17.5712210350181
20
4.70729639539974
30
0
41
1
10
17.4482039667396
20
4.82936691724078
30
0
41
1
10
17.2981395599956
20
4.92567662056729
30
0
41
1
10
17.1332056081836
20
4.98840993008915
30
0
0
SPLINE
5
159
100
AcDbEntity
8
1
62
256
6
ByLayer
370
18
48
1
60
0
100
AcDbSpline
70
4
71
3
72
8
73
4
40
0
40
0
40
0
40
0
40
1
40
1
40
1
40
1
41
1
10
17.1332056081836
20
4.98840993008915
30
0
41
1
10
16.9764688553927
20
5.04802540112019
30
0
41
1
10
16.8064476977305
20
5.07730980743449
30
0
41
1
10
16.6356315250236
20
5.07411197931103
30
0
0
SPLINE
5
15A
100
AcDbEntity
8
1
62
256
6
ByLayer
370
18
48
1
60
0
100
AcDbSpline
70
4
71
3
72
8
73
4
40
0
40
0
40
0
40
0
40
1
40
1
40
1
40
1
41
1
10
16.9327998238447
20
-4.79925646369398
30
0
41
1
10
17.6381654709889
20
-4.81246152541482
30
0
41
1
10
18.3435311181292
20
-4.82566658713725
30
0
41
1
10
19.0488967652735
20
-4.83887164885803
30
0
0
SPLINE
5
15B
100
AcDbEntity
8
1
62
256
6
ByLayer
370
18
48
1
60
0
100
AcDbSpline
70
4
71
3
72
8
73
4
40
0
40
0
40
0
40
0
40
1
40
1
40
1
40
1
41
1
10
19.2823494061207
20
-3.04569362587844
30
0
41
1
10
19.3186440357194
20
-3.13550670555722
30
0
41
1
10
19.3398490233073
20
-3.23059829435601
30
0
41
1
10
19.3398741425406
20
-3.32573460491153
30
0
0
SPLINE
5
15C
100
AcDbEntity
8
1
62
256
6
ByLayer
370
18
48
1
60
0
100
AcDbSpline
70
4
71
3
72
10
73
6
40
0
40
0
40
0
40
0
40
0.5
40
0.5
40
1
40
1
40
1
40
1
41
1
10
19.9576005880728
20
-4.01065427354169
30
0
41
1
10
19.9530288065422
20
-3.92130591009072
30
0
41
1
10
19.9480506903949
20
-3.8318614826189
30
0
41
1
10
19.9246024365585
20
-3.6538240156336
30
0
41
1
10
19.9059356917598
20
-3.56506186351348
30
0
41
1
10
19.8744043731527
20
-3.47991295708198
30
0
0
SPLINE
5
15D
100
AcDbEntity
8
1
62
256
6
ByLayer
370
18
48
1
60
0
100
AcDbSpline
70
4
71
3
72
21
73
17
40
0
40
0
40
0
40
0
40
0.0084859884802253
40
0.062205425429756
40
0.169644299328817
40
0.277083173227879
40
0.38452204712694
40
0.491960921026002
40
0.518820639500767
40
0.545680357975533
40
0.599399794925063
40
0.706838668824125
40
0.814277542723186
40
0.921716416622248
40
0.975435853571779
40
1
40
1
40
1
40
1
41
1
10
19.9576007767595
20
-4.01065427358478
30
0
41
1
10
19.9577305261033
20
-4.01317488986828
30
0
41
1
10
19.958715489085
20
-4.03233691261084
30
0
41
1
10
19.9621362977438
20
-4.09932064075565
30
0
41
1
10
19.9689661875069
20
-4.23214794554414
30
0
41
1
10
19.9768379976176
20
-4.38430911521405
30
0
41
1
10
19.9849284525354
20
-4.53923903222264
30
0
41
1
10
19.990857888956
20
-4.65463695538728
30
0
41
1
10
19.994940216485
20
-4.73170330910668
30
0
41
1
10
19.9964572872322
20
-4.78306595030455
30
0
41
1
10
19.9981420970369
20
-4.87294027035412
30
0
41
1
10
19.9998160532309
20
-5.00133023850921
30
0
41
1
10
20.0002097693131
20
-5.15510440625505
30
0
41
1
10
19.9992479672236
20
-5.28437683333237
30
0
41
1
10
19.9978713542633
20
-5.37134487009394
30
0
41
1
10
19.9971921373198
20
-5.41079579623263
30
0
41
1
10
19.9969899423182
20
-5.41919757138368
30
0
0
SPLINE
5
15E
100
AcDbEntity
8
1
62
256
6
ByLayer
370
18
48
1
60
0
100
AcDbSpline
70
4
71
3
72
8
73
4
40
0
40
0
40
0
40
0
40
1
40
1
40
1
40
1
41
1
10
14.1678416039343
20
-5.74687169621055
30
0
41
1
10
14.9906344082709
20
-5.77834525338778
30
0
41
1
10
15.8131828168501
20
-5.80012201386984
30
0
41
1
10
16.6354815594859
20
-5.81199403834421
30
0
0
SPLINE
5
15F
100
AcDbEntity
8
1
62
256
6
ByLayer
370
18
48
1
60
0
100
AcDbSpline
70
4
71
3
72
9
73
5
40
0
40
0
40
0
40
0
40
0.851909887563049
40
1
40
1
40
1
40
1
41
1
10
19.2936351944815
20
-2.25597845514139
30
0
41
1
10
19.3361431074546
20
-2.27191281044895
30
0
41
1
10
19.3858029012467
20
-2.29085975752639
30
0
41
1
10
19.4349593375277
20
-2.31000297354524
30
0
41
1
10
19.4422278540353
20
-2.31284215847992
30
0
0
SPLINE
5
160
100
AcDbEntity
8
1
62
256
6
ByLayer
370
18
48
1
60
0
100
AcDbSpline
70
4
71
3
72
9
73
5
40
0
40
0
40
0
40
0
40
0.116266583175393
40
1
40
1
40
1
40
1
41
1
10
19.8744044005464
20
-3.47991296209207
30
0
41
1
10
19.8704684851822
20
-3.47837021613333
30
0
41
1
10
19.8366039488795
20
-3.46509667783462
30
0
41
1
10
19.8026360929941
20
-3.45178451265858
30
0
41
1
10
19.7726171075858
20
-3.44002141141246
30
0
0
SPLINE
5
161
100
AcDbEntity
8
1
62
256
6
ByLayer
370
18
48
1
60
0
100
AcDbSpline
70
4
71
3
72
9
73
5
40
0
40
0
40
0
40
0
40
0.883761874774362
40
1
40
1
40
1
40
1
41
1
10
19.8971853824192
20
-3.92725660611347
30
0
41
1
10
19.9149629173708
20
-3.95179686765104
30
0
41
1
10
19.93507729406
20
-3.97956292554181
30
0
41
1
10
19.9552543904948
20
-4.00741556230645
30
0
41
1
10
19.9576005880728
20
-4.01065427354169
30
0
0
SPLINE
5
162
100
AcDbEntity
8
1
62
256
6
ByLayer
370
18
48
1
60
0
100
AcDbSpline
70
4
71
3
72
9
73
5
40
0
40
0
40
0
40
0
40
0.0948294874479813
40
1
40
1
40
1
40
1
41
1
10
19.9969833663503
20
-5.41919726667081
30
0
41
1
10
19.9952511381616
20
-5.4163534259099
30
0
41
1
10
19.9769862582913
20
-5.38636753247673
30
0
41
1
10
19.9587412964335
20
-5.35641433892465
30
0
41
1
10
19.9422261488614
20
-5.32930102317087
30
0
0
SPLINE
5
163
100
AcDbEntity
8
1
62
256
6
ByLayer
370
18
48
1
60
0
100
AcDbSpline
70
4
71
3
72
8
73
4
40
0
40
0
40
0
40
0
40
1
40
1
40
1
40
1
41
1
10
19.5998198918529
20
-5.81111790496783
30
0
41
1
10
19.5962760110995
20
-5.78317801079521
30
0
41
1
10
19.592732130346
20
-5.75523811662259
30
0
41
1
10
19.5891882495925
20
-5.72729822244997
30
0
0
SPLINE
5
164
100
AcDbEntity
8
1
62
256
6
ByLayer
370
18
48
1
60
0
100
AcDbSpline
70
4
71
3
72
18
73
14
40
0
40
0
40
0
40
0
40
0.0897325450292683
40
0.179693872334374
40
0.26988619923614
40
0.360311725241504
40
0.450972631044184
40
0.541871076626751
40
0.633009176814484
40
0.724389016914894
40
0.816012693050542
40
0.907882313842742
40
1
40
1
40
1
40
1
41
1
10
19.5891882495925
20
-5.72729822244997
30
0
41
1
10
19.4307853719679
20
-5.72837398620908
30
0
41
1
10
19.1135757524258
20
-5.73052825649674
30
0
41
1
10
18.6370145993284
20
-5.73085677594028
30
0
41
1
10
18.1591448069006
20
-5.72906746221054
30
0
41
1
10
17.6799555645014
20
-5.72494987247083
30
0
41
1
10
17.1994497290331
20
-5.71855989208703
30
0
41
1
10
16.7176265889763
20
-5.70988469048589
30
0
41
1
10
16.2344863177652
20
-5.69891960841832
30
0
41
1
10
15.7500286664935
20
-5.68566491044297
30
0
41
1
10
15.2642539022687
20
-5.67005411390235
30
0
41
1
10
14.7771612039204
20
-5.65228193382373
30
0
41
1
10
14.451997204503
20
-5.63848719040755
30
0
41
1
10
14.2891959996558
20
-5.63158051915016
30
0
0
SPLINE
5
165
100
AcDbEntity
8
1
62
256
6
ByLayer
370
18
48
1
60
0
100
AcDbSpline
70
4
71
3
72
27
73
23
40
0
40
0
40
0
40
0
40
0.03125
40
0.0625
40
0.09375
40
0.125
40
0.15625
40
0.1875
40
0.21875
40
0.25
40
0.28125
40
0.3125
40
0.375
40
0.4375
40
0.5
40
0.5625
40
0.625
40
0.75
40
0.8125
40
0.875
40
0.9375
40
1
40
1
40
1
40
1
41
1
10
19.9422261488614
20
-5.32930102317087
30
0
41
1
10
19.9421283291566
20
-5.33543838330155
30
0
41
1
10
19.9417002572333
20
-5.34770046085063
30
0
41
1
10
19.9403599033053
20
-5.36603039087899
30
0
41
1
10
19.9383203548658
20
-5.38427187412788
30
0
41
1
10
19.9355806632781
20
-5.40239965113568
30
0
41
1
10
19.9321398805554
20
-5.42038845910508
30
0
41
1
10
19.9279971495848
20
-5.43821084664381
30
0
41
1
10
19.9231516139168
20
-5.45583935862979
30
0
41
1
10
19.9176024162397
20
-5.47324654218511
30
0
41
1
10
19.9113487023413
20
-5.49040493771412
30
0
41
1
10
19.9020703036924
20
-5.51290758799379
30
0
41
1
10
19.8887081952287
20
-5.54025083182353
30
0
41
1
10
19.8698464761305
20
-5.57154556887409
30
0
41
1
10
19.8481675769874
20
-5.6010141253573
30
0
41
1
10
19.8237004334175
20
-5.62831884188913
30
0
41
1
10
19.7874584234399
20
-5.66134704087654
30
0
41
1
10
19.7459894547083
20
-5.68850144572255
30
0
41
1
10
19.7002940297108
20
-5.70823143632424
30
0
41
1
10
19.6643242609949
20
-5.71902084146376
30
0
41
1
10
19.6271282974659
20
-5.72561653942546
30
0
41
1
10
19.6018577470419
20
-5.72719448407454
30
0
41
1
10
19.5891882495925
20
-5.72729822244997
30
0
0
SPLINE
5
166
100
AcDbEntity
8
1
62
256
6
ByLayer
370
18
48
1
60
0
100
AcDbSpline
70
4
71
3
72
19
73
15
40
0
40
0
40
0
40
0
40
0.25
40
0.375
40
0.4375
40
0.5
40
0.53125
40
0.5625
40
0.59375
40
0.625
40
0.6875
40
0.75
40
0.875
40
1
40
1
40
1
40
1
41
1
10
19.5891882495925
20
-5.72729822244997
30
0
41
1
10
19.5824512429139
20
-5.72012920666234
30
0
41
1
10
19.572258810679
20
-5.70588985288589
30
0
41
1
10
19.5604868129663
20
-5.6835204914054
30
0
41
1
10
19.5538309393288
20
-5.66918589967449
30
0
41
1
10
19.5497064638306
20
-5.65962064098653
30
0
41
1
10
19.5464407960339
20
-5.65152280375094
30
0
41
1
10
19.5440023445353
20
-5.64531228494531
30
0
41
1
10
19.5415583170903
20
-5.63916934266905
30
0
41
1
10
19.5382878843212
20
-5.63113101233751
30
0
41
1
10
19.5341697975665
20
-5.6214851307376
30
0
41
1
10
19.5275285202739
20
-5.60688429359192
30
0
41
1
10
19.5191508375124
20
-5.59014727220483
30
0
41
1
10
19.512396772745
20
-5.57846776958738
30
0
41
1
10
19.5090148775149
20
-5.57307135846955
30
0
0
SPLINE
5
167
100
AcDbEntity
8
1
62
256
6
ByLayer
370
18
48
1
60
0
100
AcDbSpline
70
4
71
3
72
19
73
15
40
0
40
0
40
0
40
0
40
0.125
40
0.25
40
0.375
40
0.4375
40
0.46875
40
0.5
40
0.53125
40
0.5625
40
0.625
40
0.75
40
0.875
40
1
40
1
40
1
40
1
41
1
10
19.9422261488614
20
-5.32930102317087
30
0
41
1
10
19.9431561020038
20
-5.27095431942215
30
0
41
1
10
19.9443300205381
20
-5.15422336852816
30
0
41
1
10
19.9440523234037
20
-4.97903756096957
30
0
41
1
10
19.9420849956867
20
-4.8329921504843
30
0
41
1
10
19.9399169105755
20
-4.73074447339559
30
0
41
1
10
19.9382926418067
20
-4.67230765146275
30
0
41
1
10
19.93645473766
20
-4.62847824639252
30
0
41
1
10
19.9338603976243
20
-4.58465277459661
30
0
41
1
10
19.9305937173815
20
-4.52621769758966
30
0
41
1
10
19.9248505751021
20
-4.42395651623104
30
0
41
1
10
19.9166815686019
20
-4.27786872345072
30
0
41
1
10
19.9069003870822
20
-4.1025630717906
30
0
41
1
10
19.9004157071775
20
-3.98569219228392
30
0
41
1
10
19.8971853824192
20
-3.92725660611347
30
0
0
SPLINE
5
168
100
AcDbEntity
8
1
62
256
6
ByLayer
370
18
48
1
60
0
100
AcDbSpline
70
4
71
3
72
18
73
14
40
0
40
0
40
0
40
0
40
0.125
40
0.1875
40
0.25
40
0.375
40
0.5
40
0.625
40
0.75
40
0.8125
40
0.84375
40
0.875
40
1
40
1
40
1
40
1
41
1
10
19.8100754107668
20
-5.2141394323923
30
0
41
1
10
19.8137149193985
20
-5.21920391567645
30
0
41
1
10
19.8196384916723
20
-5.22675232343539
30
0
41
1
10
19.8284507784896
20
-5.23670622739894
30
0
41
1
10
19.8378677162085
20
-5.24658170309226
30
0
41
1
10
19.8507635911724
20
-5.25877024133942
30
0
41
1
10
19.8680152735419
20
-5.27311790134078
30
0
41
1
10
19.8870206962325
20
-5.28715767974279
30
0
41
1
10
19.904243143166
20
-5.2985888975918
30
0
41
1
10
19.9170858127651
20
-5.30641956842828
30
0
41
1
10
19.9245359239154
20
-5.31087112137541
30
0
41
1
10
19.93425201203
20
-5.31785492318443
30
0
41
1
10
19.9397186534795
20
-5.32413598612814
30
0
41
1
10
19.9422261488614
20
-5.32930102317087
30
0
0
SPLINE
5
169
100
AcDbEntity
8
1
62
256
6
ByLayer
370
18
48
1
60
0
100
AcDbSpline
70
4
71
3
72
14
73
10
40
0
40
0
40
0
40
0
40
0.125
40
0.25
40
0.375
40
0.5
40
0.625
40
0.75
40
1
40
1
40
1
40
1
41
1
10
19.8971853824192
20
-3.92725660611347
30
0
41
1
10
19.8960345278431
20
-3.90643799907426
30
0
41
1
10
19.8923545620226
20
-3.86482503938603
30
0
41
1
10
19.8831046815765
20
-3.80266141887697
30
0
41
1
10
19.870529707705
20
-3.74093667324374
30
0
41
1
10
19.8550735885585
20
-3.67971506238845
30
0
41
1
10
19.8371802722873
20
-3.6190608462131
30
0
41
1
10
19.8105922465687
20
-3.53887443027122
30
0
41
1
10
19.788163913913
20
-3.47942673895156
30
0
41
1
10
19.7726171075858
20
-3.44002141141246
30
0
0
SPLINE
5
16A
100
AcDbEntity
8
1
62
256
6
ByLayer
370
18
48
1
60
0
100
AcDbSpline
70
4
71
3
72
17
73
13
40
0
40
0
40
0
40
0
40
0.125
40
0.1875
40
0.25
40
0.375
40
0.4375
40
0.46875
40
0.5
40
0.625
40
0.75
40
1
40
1
40
1
40
1
41
1
10
19.8100754107668
20
-3.83840774281146
30
0
41
1
10
19.8134898804804
20
-3.84212940477386
30
0
41
1
10
19.8195402676204
20
-3.84764146011656
30
0
41
1
10
19.8286957709536
20
-3.85488446788071
30
0
41
1
10
19.8373551825086
20
-3.86217557883973
30
0
41
1
10
19.8456367274639
20
-3.86950159960782
30
0
41
1
10
19.8525229261667
20
-3.87594295349021
30
0
41
1
10
19.8563541896251
20
-3.87963234165869
30
0
41
1
10
19.861996974417
20
-3.88517490487777
30
0
41
1
10
19.870069225745
20
-3.8935200524989
30
0
41
1
10
19.8833035695998
20
-3.90843787507646
30
0
41
1
10
19.8919717586033
20
-3.91971058338865
30
0
41
1
10
19.8971853824192
20
-3.92725660611347
30
0
0
SPLINE
5
16B
100
AcDbEntity
8
1
62
256
6
ByLayer
370
18
48
1
60
0
100
AcDbSpline
70
4
71
3
72
8
73
4
40
0
40
0
40
0
40
0
40
1
40
1
40
1
40
1
41
1
10
19.5090148775149
20
-5.57307135846955
30
0
41
1
10
17.8212195638507
20
-5.54147435431088
30
0
41
1
10
16.1334242501863
20
-5.50987735014562
30
0
41
1
10
14.4456289365222
20
-5.47828034599257
30
0
0
SPLINE
5
16C
100
AcDbEntity
8
1
62
256
6
ByLayer
370
18
48
1
60
0
100
AcDbSpline
70
4
71
3
72
15
73
11
40
0
40
0
40
0
40
0
40
0.125
40
0.25
40
0.375
40
0.5
40
0.625
40
0.75
40
0.875
40
1
40
1
40
1
40
1
41
1
10
19.8100754107668
20
-5.2141394323923
30
0
41
1
10
19.8100754107668
20
-5.23591153756743
30
0
41
1
10
19.8070363973102
20
-5.27935045391629
30
0
41
1
10
19.7931593462708
20
-5.34286825957852
30
0
41
1
10
19.7697625381861
20
-5.40340294598494
30
0
41
1
10
19.7364173905005
20
-5.45912796396806
30
0
41
1
10
19.69274236536
20
-5.50759029219566
30
0
41
1
10
19.6388562208542
20
-5.5454627000002
30
0
41
1
10
19.5763622231
20
-5.5689795253349
30
0
41
1
10
19.5314925386855
20
-5.57349215994248
30
0
41
1
10
19.5090148775139
20
-5.57307135846955
30
0
0
SPLINE
5
16D
100
AcDbEntity
8
1
62
256
6
ByLayer
370
18
48
1
60
0
100
AcDbSpline
70
4
71
3
72
8
73
4
40
0
40
0
40
0
40
0
40
1
40
1
40
1
40
1
41
1
10
19.5090148775142
20
-5.57307135847469
30
0
41
1
10
19.3556421734602
20
-5.32833812192345
30
0
41
1
10
19.2022694694052
20
-5.08360488537264
30
0
41
1
10
19.0488967653501
20
-4.83887164882194
30
0
0
SPLINE
5
16E
100
AcDbEntity
8
1
62
256
6
ByLayer
370
18
48
1
60
0
100
AcDbSpline
70
4
71
3
72
19
73
15
40
0
40
0
40
0
40
0
40
0.125
40
0.25
40
0.375
40
0.4375
40
0.46875
40
0.5
40
0.53125
40
0.5625
40
0.625
40
0.75
40
0.875
40
1
40
1
40
1
40
1
41
1
10
19.8100754107668
20
-3.83840774281146
30
0
41
1
10
19.8100754107668
20
-3.895729896544
30
0
41
1
10
19.8100754107668
20
-4.01037420400905
30
0
41
1
10
19.8100754107668
20
-4.18234066520665
30
0
41
1
10
19.8100754107668
20
-4.32564604953799
30
0
41
1
10
19.8100754107668
20
-4.42595981856994
30
0
41
1
10
19.8100754107668
20
-4.48328197230248
30
0
41
1
10
19.8100754107668
20
-4.52627358760188
30
0
41
1
10
19.8100754107668
20
-4.56926520290128
30
0
41
1
10
19.8100754107668
20
-4.62658735663382
30
0
41
1
10
19.8100754107668
20
-4.72690112566573
30
0
41
1
10
19.8100754107668
20
-4.87020650999708
30
0
41
1
10
19.8100754107668
20
-5.04217297119467
30
0
41
1
10
19.8100754107668
20
-5.15681727865976
30
0
41
1
10
19.8100754107668
20
-5.2141394323923
30
0
0
SPLINE
5
16F
100
AcDbEntity
8
1
62
256
6
ByLayer
370
18
48
1
60
0
100
AcDbSpline
70
4
71
3
72
8
73
4
40
0
40
0
40
0
40
0
40
1
40
1
40
1
40
1
41
1
10
19.8100754107668
20
-5.21413943239227
30
0
41
1
10
19.6533416621993
20
-4.99603981235987
30
0
41
1
10
19.4966079140189
20
-4.77794019231172
30
0
41
1
10
19.3398741656416
20
-4.55984057227158
30
0
0
SPLINE
5
170
100
AcDbEntity
8
1
62
256
6
ByLayer
370
18
48
1
60
0
100
AcDbSpline
70
4
71
3
72
14
73
10
40
0
40
0
40
0
40
0
40
0.25
40
0.375
40
0.5
40
0.625
40
0.75
40
0.875
40
1
40
1
40
1
40
1
41
1
10
19.6494000203923
20
-3.39904764916403
30
0
41
1
10
19.6643541387483
20
-3.43548599536385
30
0
41
1
10
19.690133046261
20
-3.48888614867758
30
0
41
1
10
19.7255823201093
20
-3.55958830207112
30
0
41
1
10
19.7512705047911
20
-3.61297147101285
30
0
41
1
10
19.7746518649393
20
-3.66736227826803
30
0
41
1
10
19.7938397079972
20
-3.7230712217395
30
0
41
1
10
19.8068782961939
20
-3.78030877387405
30
0
41
1
10
19.8100754107664
20
-3.8190791008486
30
0
41
1
10
19.8100754107668
20
-3.83840774281146
30
0
0
SPLINE
5
171
100
AcDbEntity
8
1
62
256
6
ByLayer
370
18
48
1
60
0
100
AcDbSpline
70
4
71
3
72
8
73
4
40
0
40
0
40
0
40
0
40
1
40
1
40
1
40
1
41
1
10
19.8100754107668
20
-3.83840774281146
30
0
41
1
10
19.6533416861773
20
-3.6675730334818
30
0
41
1
10
19.4966079615879
20
-3.49673832415215
30
0
41
1
10
19.3398742369984
20
-3.32590361482252
30
0
0
SPLINE
5
172
100
AcDbEntity
8
1
62
256
6
ByLayer
370
18
48
1
60
0
100
AcDbSpline
70
4
71
3
72
8
73
4
40
0
40
0
40
0
40
0
40
1
40
1
40
1
40
1
41
1
10
19.6494000203923
20
-3.39904764916403
30
0
41
1
10
19.5264514167884
20
-3.27979362108894
30
0
41
1
10
19.4035028131873
20
-3.16053959301254
30
0
41
1
10
19.2805542095857
20
-3.04128556493637
30
0
0
SPLINE
5
173
100
AcDbEntity
8
1
62
256
6
ByLayer
370
18
48
1
60
0
100
AcDbSpline
70
4
71
3
72
9
73
5
40
0
40
0
40
0
40
0
40
0.5
40
1
40
1
40
1
40
1
41
1
10
19.7726171075858
20
-3.44002141141246
30
0
41
1
10
19.6945238488951
20
-3.24208426776119
30
0
41
1
10
19.5372771502737
20
-2.84656647123199
30
0
41
1
10
19.3762486300579
20
-2.45233955530941
30
0
41
1
10
19.2936351944819
20
-2.25597845514227
30
0
0
SPLINE
5
174
100
AcDbEntity
8
1
62
256
6
ByLayer
370
18
48
1
60
0
100
AcDbSpline
70
4
71
3
72
17
73
13
40
0
40
0
40
0
40
0
40
0.125
40
0.25
40
0.3125
40
0.375
40
0.4375
40
0.46875
40
0.5
40
0.625
40
0.75
40
1
40
1
40
1
40
1
41
1
10
19.6494000203929
20
-3.39904764916548
30
0
41
1
10
19.6522934425531
20
-3.40185412469702
30
0
41
1
10
19.6591200064382
20
-3.40699143772892
30
0
41
1
10
19.670192748314
20
-3.41218669509993
30
0
41
1
10
19.6805200564364
20
-3.41559509122459
30
0
41
1
10
19.6890066748753
20
-3.4177631122827
30
0
41
1
10
19.696701954727
20
-3.41923425717721
30
0
41
1
10
19.7031191372926
20
-3.42026692028244
30
0
41
1
10
19.7126602818442
20
-3.42186259216035
30
0
41
1
10
19.7262437012498
20
-3.42465700717341
30
0
41
1
10
19.7487298938636
20
-3.43051471695972
30
0
41
1
10
19.7636134884557
20
-3.43594397615683
30
0
41
1
10
19.7726171075858
20
-3.44002141141246
30
0
0
SPLINE
5
175
100
AcDbEntity
8
1
62
256
6
ByLayer
370
18
48
1
60
0
100
AcDbSpline
70
4
71
3
72
14
73
10
40
0
40
0
40
0
40
0
40
0.0327618042001971
40
0.105511744094439
40
0.251011623882923
40
0.396511503671407
40
0.542011383459891
40
0.833011143036858
40
1
40
1
40
1
40
1
41
1
10
19.4422357853917
20
-2.312838302975
30
0
41
1
10
19.4449328086929
20
-2.32004645069517
30
0
41
1
10
19.4569766618974
20
-2.35276131888258
30
0
41
1
10
19.4836706082834
20
-2.42469632252946
30
0
41
1
10
19.5232718705513
20
-2.53170082956891
30
0
41
1
10
19.5705820940419
20
-2.65950047879568
30
0
41
1
10
19.6335231478256
20
-2.82948281231961
30
0
41
1
10
19.6987931823941
20
-3.00569979006198
30
0
41
1
10
19.7486836604645
20
-3.14036532824136
30
0
41
1
10
19.7667808469102
20
-3.18923558526922
30
0
0
SPLINE
5
176
100
AcDbEntity
8
1
62
256
6
ByLayer
370
18
48
1
60
0
100
AcDbSpline
70
4
71
3
72
8
73
4
40
0
40
0
40
0
40
0
40
1
40
1
40
1
40
1
41
1
10
19.5998196118325
20
-5.81111789575061
30
0
41
1
10
19.6082883207001
20
-5.81098806512358
30
0
41
1
10
19.6167413001782
20
-5.81059238084563
30
0
41
1
10
19.6251621092312
20
-5.80993554757382
30
0
0
SPLINE
5
177
100
AcDbEntity
8
1
62
256
6
ByLayer
370
18
48
1
60
0
100
AcDbSpline
70
4
71
3
72
12
73
8
40
0
40
0
40
0
40
0
40
0.0894630037273967
40
0.338476115890853
40
0.587489228054308
40
0.836502340217765
40
1
40
1
40
1
40
1
41
1
10
19.6251621561342
20
-5.80993544806796
30
0
41
1
10
19.6298838866587
20
-5.80956714667883
30
0
41
1
10
19.6477099081841
20
-5.80786306042128
30
0
41
1
10
19.6783270217146
20
-5.80288593173935
30
0
41
1
10
19.7162791842586
20
-5.79288625040118
30
0
41
1
10
19.7487248624405
20
-5.78091538402012
30
0
41
1
10
19.7682050674938
20
-5.7719108884238
30
0
41
1
10
19.7757943061355
20
-5.76810917429293
30
0
0
SPLINE
5
178
100
AcDbEntity
8
1
62
256
6
ByLayer
370
18
48
1
60
0
100
AcDbSpline
70
4
71
3
72
14
73
10
40
0
40
0
40
0
40
0
40
0.25
40
0.25
40
0.5
40
0.5
40
0.75
40
0.75
40
1
40
1
40
1
40
1
41
1
10
19.339874165684
20
-4.55984057235483
30
0
41
1
10
19.3398741722814
20
-4.59753176653871
30
0
41
1
10
19.3324305678285
20
-4.63421781193122
30
0
41
1
10
19.3035661259538
20
-4.70248892593432
30
0
41
1
10
19.2822253915388
20
-4.73352522634985
30
0
41
1
10
19.2288266088276
20
-4.78501820476293
30
0
41
1
10
19.1964818834471
20
-4.80561771671202
30
0
41
1
10
19.1262602680166
20
-4.83276775424912
30
0
41
1
10
19.0878040263922
20
-4.83960011939467
30
0
41
1
10
19.0488967653504
20
-4.83887164882916
30
0
0
SPLINE
5
179
100
AcDbEntity
8
1
62
256
6
ByLayer
370
18
48
1
60
0
100
AcDbSpline
70
4
71
3
72
11
73
7
40
0
40
0
40
0
40
0
40
0.25
40
0.5
40
0.75
40
1
40
1
40
1
40
1
41
1
10
19.0480363894942
20
-4.80029617091554
30
0
41
1
10
19.0827145789446
20
-4.80094537716016
30
0
41
1
10
19.1480366406162
20
-4.78954181448495
30
0
41
1
10
19.2319420883889
20
-4.7361201383232
30
0
41
1
10
19.2876161979508
20
-4.65503135325818
30
0
41
1
10
19.3003666315615
20
-4.59173843047591
30
0
41
1
10
19.3003666314808
20
-4.55805333551439
30
0
0
SPLINE
5
17A
100
AcDbEntity
8
1
62
256
6
ByLayer
370
18
48
1
60
0
100
AcDbSpline
70
4
71
3
72
27
73
23
40
0
40
0
40
0
40
0
40
0.0026173238532003
40
0.0135878069629557
40
0.024558290072711
40
0.112322154950753
40
0.134263121170264
40
0.145233604280021
40
0.156204087389775
40
0.178145053609285
40
0.200086019828796
40
0.375613749584882
40
0.551141479340966
40
0.726669209097051
40
0.770551141536072
40
0.814433073975094
40
0.836374040194604
40
0.858315006414114
40
0.902196938853136
40
0.946078871292157
40
0.989960803731178
40
1
40
1
40
1
40
1
41
1
10
19.252122715288
20
-4.55060389499928
30
0
41
1
10
19.2521256356433
20
-4.54952766466644
30
0
41
1
10
19.252116786437
20
-4.54393828120379
30
0
41
1
10
19.2521161469265
20
-4.5338366786338
30
0
41
1
10
19.2521319032172
20
-4.48870963051897
30
0
41
1
10
19.2521251063868
20
-4.43906732990919
30
0
41
1
10
19.2521225575768
20
-4.38942547084358
30
0
41
1
10
19.2521219749281
20
-4.37137392177968
30
0
41
1
10
19.252121581997
20
-4.35332239271054
30
0
41
1
10
19.2521213720357
20
-4.33075801129075
30
0
41
1
10
19.252121237076
20
-4.24050056438335
30
0
41
1
10
19.2521203193278
20
-4.0870628892487
30
0
41
1
10
19.2521187887335
20
-3.87044499945244
30
0
41
1
10
19.2521185840179
20
-3.70798161784586
30
0
41
1
10
19.2521193069877
20
-3.59967272514874
30
0
41
1
10
19.2521197709011
20
-3.55454402514903
30
0
41
1
10
19.2521202512982
20
-3.51844106866076
30
0
41
1
10
19.2521208084265
20
-3.48233811462583
30
0
41
1
10
19.252121655996
20
-3.43720942689288
30
0
41
1
10
19.2521229382556
20
-3.38305500998453
30
0
41
1
10
19.252109132954
20
-3.34282233476102
30
0
41
1
10
19.2521290099133
20
-3.32064082674421
30
0
41
1
10
19.2521148602262
20
-3.31651050421201
30
0
0
SPLINE
5
17B
100
AcDbEntity
8
1
62
256
6
ByLayer
370
18
48
1
60
0
100
AcDbSpline
70
4
71
3
72
20
73
16
40
0
40
0
40
0
40
0
40
0.42275485951707
40
0.845509719034141
40
0.898354076473775
40
0.904959621153729
40
0.911565165833684
40
0.91486793817366
40
0.918170710513637
40
0.924776255193592
40
0.951198433913408
40
0.977620612633225
40
0.990831701993134
40
0.997437246673088
40
1
40
1
40
1
40
1
41
1
10
16.9353967404223
20
-4.68841104575677
30
0
41
1
10
17.2335802728479
20
-4.69399330222041
30
0
41
1
10
17.829947396
20
-4.70515889097061
30
0
41
1
10
18.4635869095632
20
-4.71701523067924
30
0
41
1
10
18.8037031176294
20
-4.72338878719751
30
0
41
1
10
18.8502943083393
20
-4.72426115429403
30
0
41
1
10
18.8619421014952
20
-4.72447919976213
30
0
41
1
10
18.8712603329497
20
-4.72465360466396
30
0
41
1
10
18.8805785622383
20
-4.72482798735433
30
0
41
1
10
18.906203683356
20
-4.72530744305823
30
0
41
1
10
18.9481356429577
20
-4.72609142417639
30
0
41
1
10
18.9947265701396
20
-4.72696108479107
30
0
41
1
10
19.0273409904731
20
-4.72757769487771
30
0
41
1
10
19.043125017541
20
-4.72786381273372
30
0
41
1
10
19.0495926611024
20
-4.72799412250492
30
0
41
1
10
19.051400008495
20
-4.72802157801789
30
0
0
SPLINE
5
17C
100
AcDbEntity
8
1
62
256
6
ByLayer
370
18
48
1
60
0
100
AcDbSpline
70
4
71
3
72
8
73
4
40
0
40
0
40
0
40
0
40
1
40
1
40
1
40
1
41
1
10
15.3543402200617
20
-4.76970631969471
30
0
41
1
10
15.8804934213272
20
-4.77955636771321
30
0
41
1
10
16.4066466225873
20
-4.78940641573399
30
0
41
1
10
16.9327998238453
20
-4.79925646375568
30
0
0
SPLINE
5
17D
100
AcDbEntity
8
1
62
256
6
ByLayer
370
18
48
1
60
0
100
AcDbSpline
70
4
71
3
72
9
73
5
40
0
40
0
40
0
40
0
40
0.148023059562568
40
1
40
1
40
1
40
1
41
1
10
14.1678416034493
20
-5.74687186944161
30
0
41
1
10
14.1738500561002
20
-5.74114030450247
30
0
41
1
10
14.2144132880754
20
-5.70246970610748
30
0
41
1
10
14.2547880720947
20
-5.66413592958884
30
0
41
1
10
14.2891959996558
20
-5.63158051915019
30
0
0
SPLINE
5
17E
100
AcDbEntity
8
1
62
256
6
ByLayer
370
18
48
1
60
0
100
AcDbSpline
70
4
71
3
72
9
73
5
40
0
40
0
40
0
40
0
40
0.851909887563048
40
1
40
1
40
1
40
1
41
1
10
13.9338467189691
20
-5.30119572134757
30
0
41
1
10
13.8676336165185
20
-5.33308886594435
30
0
41
1
10
13.7900977059171
20
-5.3703846658525
30
0
41
1
10
13.7131339515642
20
-5.40734538874901
30
0
41
1
10
13.7017489866117
20
-5.41281153450123
30
0
0
SPLINE
5
17F
100
AcDbEntity
8
1
62
256
6
ByLayer
370
18
48
1
60
0
100
AcDbSpline
70
4
71
3
72
29
73
25
40
0
40
0
40
0
40
0
40
0.0625
40
0.125
40
0.1875
40
0.25
40
0.3125
40
0.375
40
0.4375
40
0.5
40
0.5625
40
0.625
40
0.65625
40
0.6875
40
0.71875
40
0.75
40
0.78125
40
0.8125
40
0.84375
40
0.875
40
0.90625
40
0.9375
40
0.96875
40
1
40
1
40
1
40
1
41
1
10
14.2891959996558
20
-5.63158051915019
30
0
41
1
10
14.2785333352261
20
-5.63111378313999
30
0
41
1
10
14.2572111219305
20
-5.62898037994907
30
0
41
1
10
14.2256995325353
20
-5.62207125434111
30
0
41
1
10
14.1951282698992
20
-5.61154894339745
30
0
41
1
10
14.1658881140184
20
-5.59770087459836
30
0
41
1
10
14.1382408854229
20
-5.58093649620992
30
0
41
1
10
14.1123119729373
20
-5.56170579373588
30
0
41
1
10
14.0881180429876
20
-5.54043787329908
30
0
41
1
10
14.0656039092816
20
-5.51750752880901
30
0
41
1
10
14.0446749908097
20
-5.49322653113828
30
0
41
1
10
14.0284630214335
20
-5.47207658334318
30
0
41
1
10
14.0161742918686
20
-5.45470741230389
30
0
41
1
10
14.007284823161
20
-5.44147573209381
30
0
41
1
10
13.9987090841823
20
-5.42805904813991
30
0
41
1
10
13.990434678583
20
-5.41447350749874
30
0
41
1
10
13.9824492053126
20
-5.4007352496476
30
0
41
1
10
13.9747423581088
20
-5.38685585055407
30
0
41
1
10
13.9673038279989
20
-5.37284688165687
30
0
41
1
10
13.9601235460877
20
-5.3587194716192
30
0
41
1
10
13.9531914415024
20
-5.3444847450763
30
0
41
1
10
13.9465001241111
20
-5.3301499166439
30
0
41
1
10
13.940042202
20
-5.31572219741966
30
0
41
1
10
13.9358875898691
20
-5.30604659892757
30
0
41
1
10
13.9338467189691
20
-5.30119572134757
30
0
0
SPLINE
5
180
100
AcDbEntity
8
1
62
256
6
ByLayer
370
18
48
1
60
0
100
AcDbSpline
70
4
71
3
72
16
73
12
40
0
40
0
40
0
40
0
40
0.25
40
0.5
40
0.5625
40
0.59375
40
0.625
40
0.6875
40
0.75
40
0.875
40
1
40
1
40
1
40
1
41
1
10
14.2891959996558
20
-5.63158051915019
30
0
41
1
10
14.3026126908397
20
-5.62192350515909
30
0
41
1
10
14.3292557873955
20
-5.60010806852566
30
0
41
1
10
14.3585123316298
20
-5.57015554697455
30
0
41
1
10
14.3760263419145
20
-5.5499556464041
30
0
41
1
10
14.3823372055359
20
-5.54233880634348
30
0
41
1
10
14.3886276727985
20
-5.53462768879353
30
0
41
1
10
14.3965447718758
20
-5.52523261122388
30
0
41
1
10
14.4093709162562
20
-5.51099733010682
30
0
41
1
10
14.4256794752254
20
-5.49476805885112
30
0
41
1
10
14.4389524269632
20
-5.4834864013672
30
0
41
1
10
14.4456289365244
20
-5.4782803459926
30
0
0
SPLINE
5
181
100
AcDbEntity
8
1
62
256
6
ByLayer
370
18
48
1
60
0
100
AcDbSpline
70
4
71
3
72
15
73
11
40
0
40
0
40
0
40
0
40
0.125
40
0.25
40
0.375
40
0.5
40
0.625
40
0.75
40
0.875
40
1
40
1
40
1
40
1
41
1
10
14.4456289365244
20
-5.4782803459926
30
0
41
1
10
14.4264217137114
20
-5.47792076998562
30
0
41
1
10
14.3878357570688
20
-5.47206000805707
30
0
41
1
10
14.3345699588148
20
-5.44715203715387
30
0
41
1
10
14.2891440006853
20
-5.41045874925592
30
0
41
1
10
14.2510958076807
20
-5.36681172091224
30
0
41
1
10
14.2188370602128
20
-5.31918398106245
30
0
41
1
10
14.1909253610897
20
-5.26919599963335
30
0
41
1
10
14.1661938875994
20
-5.21779002669788
30
0
41
1
10
14.151283677649
20
-5.18288479591513
30
0
41
1
10
14.1440868126827
20
-5.16534836541689
30
0
0
SPLINE
5
182
100
AcDbEntity
8
1
62
256
6
ByLayer
370
18
48
1
60
0
100
AcDbSpline
70
4
71
3
72
8
73
4
40
0
40
0
40
0
40
0
40
1
40
1
40
1
40
1
41
1
10
14.4456289365244
20
-5.4782803459926
30
0
41
1
10
14.7485326977043
20
-5.24208900390218
30
0
41
1
10
15.0514364588836
20
-5.00589766180636
30
0
41
1
10
15.3543402200629
20
-4.76970631971005
30
0
0
SPLINE
5
183
100
AcDbEntity
8
1
62
256
6
ByLayer
370
18
48
1
60
0
100
AcDbSpline
70
4
71
3
72
8
73
4
40
0
40
0
40
0
40
0
40
1
40
1
40
1
40
1
41
1
10
14.1440868126878
20
-5.16534836541507
30
0
41
1
10
14.4230979736769
20
-4.94784141064468
30
0
41
1
10
14.7021091346662
20
-4.73033445587424
30
0
41
1
10
14.9811202956557
20
-4.51282750110371
30
0
0
SPLINE
5
184
100
AcDbEntity
8
1
62
256
6
ByLayer
370
18
48
1
60
0
100
AcDbSpline
70
4
71
3
72
17
73
13
40
0
40
0
40
0
40
0
40
0.25
40
0.375
40
0.5
40
0.53125
40
0.5625
40
0.625
40
0.6875
40
0.75
40
0.875
40
1
40
1
40
1
40
1
41
1
10
13.9338467189688
20
-5.30119572134663
30
0
41
1
10
13.9520182919144
20
-5.28973017659877
30
0
41
1
10
13.9793648699257
20
-5.27251490680771
30
0
41
1
10
14.0160169574702
20
-5.24952549669655
30
0
41
1
10
14.0366882014225
20
-5.23658387315106
30
0
41
1
10
14.0504847163881
20
-5.22795330461253
30
0
41
1
10
14.059692307503
20
-5.2221977369891
30
0
41
1
10
14.0712311328315
20
-5.21499772997259
30
0
41
1
10
14.085159051286
20
-5.20634222520005
30
0
41
1
10
14.1028145114792
20
-5.19497513286652
30
0
41
1
10
14.1231537969698
20
-5.18112646283876
30
0
41
1
10
14.1374587635863
20
-5.17051535145987
30
0
41
1
10
14.1440868126823
20
-5.16534836541592
30
0
0
SPLINE
5
185
100
AcDbEntity
8
1
62
256
6
ByLayer
370
18
48
1
60
0
100
AcDbSpline
70
4
71
3
72
10
73
6
40
0
40
0
40
0
40
0
40
0.470321334188272
40
0.940642668376545
40
1
40
1
40
1
40
1
41
1
10
13.7017499755807
20
-5.41281105967778
30
0
41
1
10
13.7039079003561
20
-5.4186389538437
30
0
41
1
10
13.7084509102911
20
-5.43022372658382
30
0
41
1
10
13.7137553854305
20
-5.44237092437001
30
0
41
1
10
13.7167042569478
20
-5.448749487399
30
0
41
1
10
13.7170364603725
20
-5.44946358180553
30
0
0
SPLINE
5
186
100
AcDbEntity
8
1
62
256
6
ByLayer
370
18
48
1
60
0
100
AcDbSpline
70
4
71
3
72
12
73
8
40
0
40
0
40
0
40
0
40
0.250000000000001
40
0.250000000000001
40
0.500000000000002
40
0.500000000000002
40
1
40
1
40
1
40
1
41
1
10
15.3543402200617
20
-4.76970631971093
30
0
41
1
10
15.3142189027516
20
-4.76895521425962
30
0
41
1
10
15.2747247371261
20
-4.76220445923235
30
0
41
1
10
15.1979809057344
20
-4.73700514179879
30
0
41
1
10
15.1622363798869
20
-4.71912690129594
30
0
41
1
10
15.0626709273975
20
-4.65008646687042
30
0
41
1
10
15.011173782634
20
-4.58605813289446
30
0
41
1
10
14.9811202954091
20
-4.5128275011308
30
0
0
SPLINE
5
187
100
AcDbEntity
8
1
62
256
6
ByLayer
370
18
48
1
60
0
100
AcDbSpline
70
4
71
3
72
10
73
6
40
0
40
0
40
0
40
0
40
0.5
40
0.750000000000001
40
1
40
1
40
1
40
1
41
1
10
15.0179372923283
20
-4.49972536973809
30
0
41
1
10
15.0455634654878
20
-4.56704141440565
30
0
41
1
10
15.1143693162957
20
-4.65252846398644
30
0
41
1
10
15.2462008106448
20
-4.71838578047618
30
0
41
1
10
15.316874116317
20
-4.730445550865
30
0
41
1
10
15.3535739120287
20
-4.73113260288858
30
0
0
SPLINE
5
188
100
AcDbEntity
8
1
62
256
6
ByLayer
370
18
48
1
60
0
100
AcDbSpline
70
4
71
3
72
11
73
7
40
0
40
0
40
0
40
0
40
0.0195339883904313
40
0.0711374626856717
40
0.174344411276153
40
1
40
1
40
1
40
1
41
1
10
15.8519532064398
20
-4.66813281202053
30
0
41
1
10
15.8590087136402
20
-4.66825849467665
30
0
41
1
10
15.8846994869787
20
-4.66874404852086
30
0
41
1
10
15.9476639318164
20
-4.66991797570412
30
0
41
1
10
16.3017563543476
20
-4.67655367103336
30
0
41
1
10
16.6372132081162
20
-4.68282878900703
30
0
41
1
10
16.93539674053
20
-4.68841104547661
30
0
0
SPLINE
5
189
100
AcDbEntity
8
1
62
256
6
ByLayer
370
18
48
1
60
0
100
AcDbSpline
70
4
71
3
72
21
73
17
40
0
40
0
40
0
40
0
40
0.0265748455393827
40
0.139482076409468
40
0.195935691844513
40
0.245332605350174
40
0.252389307279553
40
0.259446009208934
40
0.308842922714597
40
0.365296538149639
40
0.478203769019723
40
0.704018230759893
40
0.816925461629978
40
0.929832692500063
40
0.986286307935106
40
1
40
1
40
1
40
1
41
1
10
15.3563268620337
20
-4.66398355403462
30
0
41
1
10
15.3606917836716
20
-4.66425250501416
30
0
41
1
10
15.3836024296062
20
-4.66547997525458
30
0
41
1
10
15.4158226817197
20
-4.66707118686219
30
0
41
1
10
15.4518944723305
20
-4.66806993561229
30
0
41
1
10
15.4705352512648
20
-4.66838102815154
30
0
41
1
10
15.4810253222484
20
-4.66850691029029
30
0
41
1
10
15.4915164696069
20
-4.66862095163935
30
0
41
1
10
15.5101748511542
20
-4.66874170224366
30
0
41
1
10
15.5463474211309
20
-4.66873404407229
30
0
41
1
10
15.6117379674591
20
-4.66820764631171
30
0
41
1
10
15.6864991142894
20
-4.66728372888431
30
0
41
1
10
15.7612131711288
20
-4.66713764823791
30
0
41
1
10
15.8078734609085
20
-4.66743448783163
30
0
41
1
10
15.8381056290897
20
-4.66789017707239
30
0
41
1
10
15.849689349945
20
-4.66809248501224
30
0
41
1
10
15.8519532064398
20
-4.66813281202053
30
0
0
SPLINE
5
18A
100
AcDbEntity
8
1
62
256
6
ByLayer
370
18
48
1
60
0
100
AcDbSpline
70
4
71
3
72
16
73
12
40
0
40
0
40
0
40
0
40
0.0329788589971791
40
0.110159870813162
40
0.264521894445127
40
0.418883918077092
40
0.573245941709057
40
0.727607965341023
40
0.881969988972988
40
0.95915100078897
40
1
40
1
40
1
40
1
41
1
10
15.0678582456684
20
-4.47770674745215
30
0
41
1
10
15.0693746358102
20
-4.48133271070887
30
0
41
1
10
15.0745364899948
20
-4.49340635683308
30
0
41
1
10
15.0891014967927
20
-4.52147583558209
30
0
41
1
10
15.1160688380443
20
-4.55939136983039
30
0
41
1
10
15.1577058119103
20
-4.5972651630548
30
0
41
1
10
15.206039520376
20
-4.62652984602755
30
0
41
1
10
15.2586774751429
20
-4.64742407477502
30
0
41
1
10
15.3044964706166
20
-4.65864585888411
30
0
41
1
10
15.3372396511286
20
-4.66267928122079
30
0
41
1
10
15.3514192704152
20
-4.66368116565687
30
0
41
1
10
15.3563268620337
20
-4.66398355403462
30
0
0
SPLINE
5
18B
100
AcDbEntity
8
1
62
256
6
ByLayer
370
18
48
1
60
0
100
AcDbSpline
70
4
71
3
72
10
73
6
40
0
40
0
40
0
40
0
40
0.482119196791583
40
0.742135783910898
40
1
40
1
40
1
40
1
41
1
10
19.9300107469982
20
-5.63208608923921
30
0
41
1
10
19.9365530022691
20
-5.62228490981832
30
0
41
1
10
19.9459474073448
20
-5.60676939112153
30
0
41
1
10
19.9571341385828
20
-5.58511681665098
30
0
41
1
10
19.9623863332927
20
-5.57364779135969
30
0
41
1
10
19.9648650726826
20
-5.56787696397092
30
0
0
SPLINE
5
18C
100
AcDbEntity
8
1
62
256
6
ByLayer
370
18
48
1
60
0
100
AcDbSpline
70
4
71
3
72
8
73
4
40
0
40
0
40
0
40
0
40
1
40
1
40
1
40
1
41
1
10
19.8862727072974
20
-5.68659883822568
30
0
41
1
10
19.8546105361083
20
-5.71961132789369
30
0
41
1
10
19.8172187859834
20
-5.74733753798208
30
0
41
1
10
19.7757761944477
20
-5.76807315569249
30
0
0
SPLINE
5
18D
100
AcDbEntity
8
1
62
256
6
ByLayer
370
18
48
1
60
0
100
AcDbSpline
70
4
71
3
72
8
73
4
40
0
40
0
40
0
40
0
40
1
40
1
40
1
40
1
41
1
10
16.6354815626211
20
-5.81199403048751
30
0
41
1
10
16.6858138432918
20
-5.81272070810036
30
0
41
1
10
16.7361451885713
20
-5.81341027691656
30
0
41
1
10
16.7864755972511
20
-5.81406268925051
30
0
0
SPLINE
5
18E
100
AcDbEntity
8
1
62
256
6
ByLayer
370
18
48
1
60
0
100
AcDbSpline
70
4
71
3
72
27
73
23
40
0
40
0
40
0
40
0
40
0.0292495184271126
40
0.0627236729641087
40
0.0961978275011048
40
0.129671982038101
40
0.163146136575097
40
0.196620291112093
40
0.230094445649089
40
0.263568600186085
40
0.297042754723082
40
0.330516909260078
40
0.39746521833407
40
0.464413527408062
40
0.531361836482054
40
0.598310145556047
40
0.665258454630039
40
0.732206763704031
40
0.799155072778023
40
0.866103381852016
40
0.933051690926008
40
1
40
1
40
1
40
1
41
1
10
13.7170451814956
20
-5.44945913865635
30
0
41
1
10
13.7193451979284
20
-5.45440318435374
30
0
41
1
10
13.724456733715
20
-5.46493280306203
30
0
41
1
10
13.7328769046545
20
-5.48082367952807
30
0
41
1
10
13.7423024939647
20
-5.49709990895238
30
0
41
1
10
13.7523485789544
20
-5.5130405635627
30
0
41
1
10
13.7630000191651
20
-5.52862258141857
30
0
41
1
10
13.7742416739598
20
-5.54382290060261
30
0
41
1
10
13.7860584026197
20
-5.55861845900256
30
0
41
1
10
13.7984317077854
20
-5.57298855916093
30
0
41
1
10
13.8113430922477
20
-5.58691250379798
30
0
41
1
10
13.829251047683
20
-5.60485529290227
30
0
41
1
10
13.852888703751
20
-5.62606490349992
30
0
41
1
10
13.8830868733335
20
-5.64942340312481
30
0
41
1
10
13.9149466684125
20
-5.67054603749347
30
0
41
1
10
13.948277331396
20
-5.6893160796694
30
0
41
1
10
13.9828881046291
20
-5.70561680262603
30
0
41
1
10
14.0185732992107
20
-5.71936028072301
30
0
41
1
10
14.0551272260924
20
-5.73045858829084
30
0
41
1
10
14.0923340383293
20
-5.7388546827824
30
0
41
1
10
14.1299778889896
20
-5.74449152216576
30
0
41
1
10
14.1552179289596
20
-5.74639334137899
30
0
41
1
10
14.1678371789735
20
-5.74687609002473
30
0
0
SPLINE
5
18F
100
AcDbEntity
8
1
62
256
6
ByLayer
370
18
48
1
60
0
100
AcDbSpline
70
4
71
3
72
10
73
6
40
0
40
0
40
0
40
0
40
0.369010685605647
40
0.801964637755188
40
1
40
1
40
1
40
1
41
1
10
19.7667808469102
20
-3.18923558526922
30
0
41
1
10
19.7802203569872
20
-3.22552809481272
30
0
41
1
10
19.8093160800639
20
-3.30412557087766
30
0
41
1
10
19.8449526306779
20
-3.40052682501857
30
0
41
1
10
19.8693015314863
20
-3.46596373727581
30
0
41
1
10
19.874414347713
20
-3.47991062478485
30
0
0
SPLINE
5
190
100
AcDbEntity
8
1
62
256
6
ByLayer
370
18
48
1
60
0
100
AcDbSpline
70
4
71
3
72
16
73
12
40
0
40
0
40
0
40
0
40
0.0010332454567785
40
0.125904089774681
40
0.250774934092584
40
0.375645778410487
40
0.500516622728389
40
0.625387467046292
40
0.750258311364195
40
0.875129155682097
40
1
40
1
40
1
40
1
41
1
10
19.9648649921942
20
-5.56787669597844
30
0
41
1
10
19.9648856737369
20
-5.56782854661625
30
0
41
1
10
19.9674046249586
20
-5.56196089071133
30
0
41
1
10
19.9721409014505
20
-5.5501499528601
30
0
41
1
10
19.9783665141772
20
-5.53215309723933
30
0
41
1
10
19.9837286210485
20
-5.5138452115221
30
0
41
1
10
19.9882142951492
20
-5.49527069619279
30
0
41
1
10
19.9918106098128
20
-5.47647395179288
30
0
41
1
10
19.9945052334705
20
-5.45750038995388
30
0
41
1
10
19.9962858341089
20
-5.43839542375838
30
0
41
1
10
19.9968553315099
20
-5.42560145119188
30
0
41
1
10
19.9969836321749
20
-5.41919770308149
30
0
0
SPLINE
5
191
100
AcDbEntity
8
1
62
256
6
ByLayer
370
18
48
1
60
0
100
AcDbSpline
70
4
71
3
72
9
73
5
40
0
40
0
40
0
40
0
40
0.867034889269193
40
1
40
1
40
1
40
1
41
1
10
19.929554793002
20
-5.63278028067015
30
0
41
1
10
19.9184305594262
20
-5.6493795744322
30
0
41
1
10
19.9042108489244
20
-5.66749655539755
30
0
41
1
10
19.8884025875768
20
-5.6843763853615
30
0
41
1
10
19.8862734435722
20
-5.6865980699516
30
0
0
SPLINE
5
192
100
AcDbEntity
8
1
62
256
6
ByLayer
370
18
48
1
60
0
100
AcDbSpline
70
4
71
3
72
9
73
5
40
0
40
0
40
0
40
0
40
0.0349179901732569
40
1
40
1
40
1
40
1
41
1
10
16.7864756138085
20
-5.8140626481397
30
0
41
1
10
16.8192326196421
20
-5.81448726378014
30
0
41
1
10
17.757333837244
20
-5.82619688565529
30
0
41
1
10
18.6951093925041
20
-5.8249869929567
30
0
41
1
10
19.5998196261816
20
-5.81111788243965
30
0
0
SPLINE
5
193
100
AcDbEntity
8
1
62
256
6
ByLayer
370
18
48
1
60
0
100
AcDbSpline
70
4
71
3
72
14
73
10
40
0
40
0
40
0
40
0
40
0.5
40
0.5
40
0.75
40
0.75
40
0.875
40
0.875
40
1
40
1
40
1
40
1
41
1
10
16.6148204181073
20
2.93607596007669
30
0
41
1
10
16.5726261060796
20
2.93439447423128
30
0
41
1
10
16.5302943537358
20
2.93802185331032
30
0
41
1
10
16.472712438931
20
2.95503837681068
30
0
41
1
10
16.4543333782502
20
2.96277165003752
30
0
41
1
10
16.4326793518083
20
2.97889652178608
30
0
41
1
10
16.4266245676966
20
2.98490749611486
30
0
41
1
10
16.4182257003467
20
2.99873756195737
30
0
41
1
10
16.4162442436823
20
3.00621965650387
30
0
41
1
10
16.4169735859909
20
3.01375211877905
30
0
0
SPLINE
5
194
100
AcDbEntity
8
1
62
256
6
ByLayer
370
18
48
1
60
0
100
AcDbSpline
70
4
71
3
72
8
73
4
40
0
40
0
40
0
40
0
40
1
40
1
40
1
40
1
41
1
10
16.4169735859909
20
3.01375211877905
30
0
41
1
10
16.4178594528205
20
3.0190991848682
30
0
41
1
10
16.4187451548087
20
3.02444750051566
30
0
41
1
10
16.4196306789373
20
3.02979716230786
30
0
0
SPLINE
5
195
100
AcDbEntity
8
1
62
256
6
ByLayer
370
18
48
1
60
0
100
AcDbSpline
70
4
71
3
72
12
73
8
40
0
40
0
40
0
40
0
40
0.25
40
0.25
40
0.5
40
0.5
40
1
40
1
40
1
40
1
41
1
10
16.8247659766517
20
3.03000305640091
30
0
41
1
10
16.8233074246931
20
3.01492778656711
30
0
41
1
10
16.8108876051392
20
2.99951811745851
30
0
41
1
10
16.7789883073975
20
2.97574191337554
30
0
41
1
10
16.7596157506893
20
2.96648597610263
30
0
41
1
10
16.6997929909308
20
2.9447716535544
30
0
41
1
10
16.6570339400426
20
2.93775821145624
30
0
41
1
10
16.6148204181073
20
2.93607596007669
30
0
0
SPLINE
5
196
100
AcDbEntity
8
1
62
256
6
ByLayer
370
18
48
1
60
0
100
AcDbSpline
70
4
71
3
72
18
73
14
40
0
40
0
40
0
40
0
40
0.125
40
0.125
40
0.250000000000001
40
0.250000000000001
40
0.500000000000001
40
0.500000000000001
40
0.75
40
0.75
40
0.875
40
0.875
40
1
40
1
40
1
40
1
41
1
10
16.4196306789373
20
3.02979716230786
30
0
41
1
10
16.4218972545551
20
3.04349008448736
30
0
41
1
10
16.4177419894072
20
3.05715836754561
30
0
41
1
10
16.4036122940752
20
3.08315117809971
30
0
41
1
10
16.3935727581893
20
3.09538846065661
30
0
41
1
10
16.3583658166123
20
3.13003713288831
30
0
41
1
10
16.3281100648667
20
3.15048796302085
30
0
41
1
10
16.2611200327935
20
3.18520737685876
30
0
41
1
10
16.2247483298818
20
3.19936318545601
30
0
41
1
10
16.1682002614121
20
3.21243966288756
30
0
41
1
10
16.1490093538352
20
3.21539598762908
30
0
41
1
10
16.1113508181734
20
3.21637631685024
30
0
41
1
10
16.0927061898539
20
3.21446871430817
30
0
41
1
10
16.0771386623325
20
3.20763395428813
30
0
0
SPLINE
5
197
100
AcDbEntity
8
1
62
256
6
ByLayer
370
18
48
1
60
0
100
AcDbSpline
70
4
71
3
72
8
73
4
40
0
40
0
40
0
40
0
40
1
40
1
40
1
40
1
41
1
10
16.8252583845695
20
3.04596183505038
30
0
41
1
10
16.8250945195872
20
3.04064093210224
30
0
41
1
10
16.8249303769048
20
3.03532137132009
30
0
41
1
10
16.8247659766517
20
3.03000305640091
30
0
0
SPLINE
5
198
100
AcDbEntity
8
1
62
256
6
ByLayer
370
18
48
1
60
0
100
AcDbSpline
70
4
71
3
72
18
73
14
40
0
40
0
40
0
40
0
40
0.125
40
0.125
40
0.25
40
0.25
40
0.5
40
0.5
40
0.75
40
0.75
40
0.875
40
0.875
40
1
40
1
40
1
40
1
41
1
10
17.1677504011743
20
3.25109593088084
30
0
41
1
10
17.1548531392673
20
3.25680814666074
30
0
41
1
10
17.1386152534172
20
3.2573065953579
30
0
41
1
10
17.1052693999958
20
3.25351705771777
30
0
41
1
10
17.0876633050553
20
3.24907279352641
30
0
41
1
10
17.0354767005081
20
3.2317289160458
30
0
41
1
10
17.000206206813
20
3.21459404063435
30
0
41
1
10
16.9332333927095
20
3.17451162849241
30
0
41
1
10
16.9016215701821
20
3.1516285629985
30
0
41
1
10
16.8622740899323
20
3.11403527141152
30
0
41
1
10
16.8504666883824
20
3.10087870595606
30
0
41
1
10
16.8322211771199
20
3.07363252112947
30
0
41
1
10
16.8256785938582
20
3.05960656140806
30
0
41
1
10
16.8252583845695
20
3.04596183505038
30
0
0
SPLINE
5
199
100
AcDbEntity
8
1
62
256
6
ByLayer
370
18
48
1
60
0
100
AcDbSpline
70
4
71
3
72
8
73
4
40
0
40
0
40
0
40
0
40
1
40
1
40
1
40
1
41
1
10
15.8550569417454
20
3.93385289256986
30
0
41
1
10
15.861479003766
20
3.93013481077406
30
0
41
1
10
15.8679016125064
20
3.92641681340285
30
0
41
1
10
15.8743248095164
20
3.92269890769137
30
0
0
SPLINE
5
19A
100
AcDbEntity
8
1
62
256
6
ByLayer
370
18
48
1
60
0
100
AcDbSpline
70
4
71
3
72
18
73
14
40
0
40
0
40
0
40
0
40
0.125
40
0.125
40
0.25
40
0.25
40
0.5
40
0.5
40
0.750000000000001
40
0.750000000000001
40
0.875
40
0.875
40
1
40
1
40
1
40
1
41
1
10
15.8743248095164
20
3.92269890769137
30
0
41
1
10
15.890745375977
20
3.91319427662756
30
0
41
1
10
15.9038447795337
20
3.89861277901284
30
0
41
1
10
15.9253821443529
20
3.86622813819136
30
0
41
1
10
15.933689166101
20
3.84844607592294
30
0
41
1
10
15.9532247294294
20
3.79353927359699
30
0
41
1
10
15.9591476740632
20
3.75483195417095
30
0
41
1
10
15.9591288468538
20
3.68005618512001
30
0
41
1
10
15.9531980558528
20
3.64389059149039
30
0
41
1
10
15.9336662685465
20
3.59608536299916
30
0
41
1
10
15.9253212571832
20
3.58115720554176
30
0
41
1
10
15.9038016978645
20
3.55566401356552
30
0
41
1
10
15.8907750217382
20
3.54503143015143
30
0
41
1
10
15.8743248095164
20
3.53972801988061
30
0
0
SPLINE
5
19B
100
AcDbEntity
8
1
62
256
6
ByLayer
370
18
48
1
60
0
100
AcDbSpline
70
4
71
3
72
12
73
8
40
0
40
0
40
0
40
0
40
0.25
40
0.25
40
0.499999999999999
40
0.499999999999999
40
1
40
1
40
1
40
1
41
1
10
17.1827864255669
20
3.24443783886696
30
0
41
1
10
17.1974416533806
20
3.23901384697177
30
0
41
1
10
17.2173888284832
20
3.24299024779097
30
0
41
1
10
17.2540044935004
20
3.26025078107708
30
0
41
1
10
17.2714492265043
20
3.273046398497
30
0
41
1
10
17.3190220011237
20
3.31565616168723
30
0
41
1
10
17.3452261747109
20
3.34994794135324
30
0
41
1
10
17.3663329356786
20
3.38619109655625
30
0
0
SPLINE
5
19C
100
AcDbEntity
8
1
62
256
6
ByLayer
370
18
48
1
60
0
100
AcDbSpline
70
4
71
3
72
18
73
14
40
0
40
0
40
0
40
0
40
0.125
40
0.125
40
0.25
40
0.25
40
0.5
40
0.5
40
0.750000000000001
40
0.750000000000001
40
0.875
40
0.875
40
1
40
1
40
1
40
1
41
1
10
17.3705642539904
20
3.59935466921584
30
0
41
1
10
17.3568263957843
20
3.60344667833437
30
0
41
1
10
17.3461324333714
20
3.613174967069
30
0
41
1
10
17.3287523792754
20
3.63717183362681
30
0
41
1
10
17.3221770360406
20
3.65146006792952
30
0
41
1
10
17.3068249780942
20
3.69792624574791
30
0
41
1
10
17.3023306517212
20
3.73375119041828
30
0
41
1
10
17.302345124272
20
3.80853574541175
30
0
41
1
10
17.3068456667029
20
3.84758700310289
30
0
41
1
10
17.3221951669404
20
3.9038303980376
30
0
41
1
10
17.328801074958
20
3.92226736377421
30
0
41
1
10
17.3461676397728
20
3.95613962162673
30
0
41
1
10
17.3568015933961
20
3.97159975283958
30
0
41
1
10
17.3705642539904
20
3.9823255570266
30
0
0
SPLINE
5
19D
100
AcDbEntity
8
1
62
256
6
ByLayer
370
18
48
1
60
0
100
AcDbSpline
70
4
71
3
72
8
73
4
40
0
40
0
40
0
40
0
40
1
40
1
40
1
40
1
41
1
10
15.8743248095164
20
3.53972801988061
30
0
41
1
10
15.8679016125064
20
3.53765723510685
30
0
41
1
10
15.861479003766
20
3.53558734284985
30
0
41
1
10
15.8550569417454
20
3.53351827883307
30
0
0
SPLINE
5
19E
100
AcDbEntity
8
1
62
256
6
ByLayer
370
18
48
1
60
0
100
AcDbSpline
70
4
71
3
72
12
73
8
40
0
40
0
40
0
40
0
40
0.25
40
0.25
40
0.500000000000001
40
0.500000000000001
40
1
40
1
40
1
40
1
41
1
10
16.0589531370758
20
4.28397015897502
30
0
41
1
10
16.0413796665941
20
4.29528198615017
30
0
41
1
10
16.0190854188
20
4.2960410302442
30
0
41
1
10
15.9792946345211
20
4.28518660547408
30
0
41
1
10
15.9608424443412
20
4.27442362981122
30
0
41
1
10
15.9110682145726
20
4.23625551413596
30
0
41
1
10
15.8844146615038
20
4.20287040079856
30
0
41
1
10
15.8633079005361
20
4.16662724559555
30
0
0
SPLINE
5
19F
100
AcDbEntity
8
1
62
256
6
ByLayer
370
18
48
1
60
0
100
AcDbSpline
70
4
71
3
72
8
73
4
40
0
40
0
40
0
40
0
40
1
40
1
40
1
40
1
41
1
10
17.3866826208972
20
3.59455510527212
30
0
41
1
10
17.3813108259593
20
3.5961541722067
30
0
41
1
10
17.3759380618895
20
3.59775400697328
30
0
41
1
10
17.3705642539904
20
3.59935466921584
30
0
0
SPLINE
5
1A0
100
AcDbEntity
8
1
62
256
6
ByLayer
370
18
48
1
60
0
100
AcDbSpline
70
4
71
3
72
8
73
4
40
0
40
0
40
0
40
0
40
1
40
1
40
1
40
1
41
1
10
16.4169735859909
20
4.49840494144107
30
0
41
1
10
16.4178594528205
20
4.49096761166066
30
0
41
1
10
16.4187451548087
20
4.48352988827389
30
0
41
1
10
16.4196306789373
20
4.47609174185681
30
0
0
SPLINE
5
1A1
100
AcDbEntity
8
1
62
256
6
ByLayer
370
18
48
1
60
0
100
AcDbSpline
70
4
71
3
72
8
73
4
40
0
40
0
40
0
40
0
40
1
40
1
40
1
40
1
41
1
10
17.1677504011743
20
3.25109593088084
30
0
41
1
10
17.1727633795002
20
3.24887567559688
30
0
41
1
10
17.1777753639171
20
3.24665633350875
30
0
41
1
10
17.1827864255669
20
3.24443783886696
30
0
0
SPLINE
5
1A2
100
AcDbEntity
8
1
62
256
6
ByLayer
370
18
48
1
60
0
100
AcDbSpline
70
4
71
3
72
12
73
8
40
0
40
0
40
0
40
0
40
0.5
40
0.5
40
0.75
40
0.75
40
1
40
1
40
1
40
1
41
1
10
15.8633079005361
20
3.32629403459634
30
0
41
1
10
15.8844176603353
20
3.29172822038763
30
0
41
1
10
15.9110727755788
20
3.25952950807314
30
0
41
1
10
15.9609280353614
20
3.2207581809181
30
0
41
1
10
15.9793383111696
20
3.20940277292917
30
0
41
1
10
16.0194473132217
20
3.19514163602347
30
0
41
1
10
16.0413981675485
20
3.19295067444418
30
0
41
1
10
16.0589531370758
20
3.19965195004977
30
0
0
SPLINE
5
1A3
100
AcDbEntity
8
1
62
256
6
ByLayer
370
18
48
1
60
0
100
AcDbSpline
70
4
71
3
72
12
73
8
40
0
40
0
40
0
40
0
40
0.25
40
0.25
40
0.5
40
0.5
40
1
40
1
40
1
40
1
41
1
10
15.8550569417454
20
3.53351827883307
30
0
41
1
10
15.8374829018884
20
3.52681087315409
30
0
41
1
10
15.8264349373024
20
3.510688877116
30
0
41
1
10
15.8169558911345
20
3.47527110061103
30
0
41
1
10
15.8173725290746
20
3.45573975041887
30
0
41
1
10
15.8263203314899
20
3.39831675272879
30
0
41
1
10
15.8422011395685
20
3.36085493841978
30
0
41
1
10
15.8633079005361
20
3.32629403459634
30
0
0
SPLINE
5
1A4
100
AcDbEntity
8
1
62
256
6
ByLayer
370
18
48
1
60
0
100
AcDbSpline
70
4
71
3
72
12
73
8
40
0
40
0
40
0
40
0
40
0.5
40
0.5
40
0.75
40
0.75
40
1
40
1
40
1
40
1
41
1
10
16.6148204181073
20
4.6167423820751
30
0
41
1
10
16.572600898509
20
4.61505989168262
30
0
41
1
10
16.5302770793537
20
4.60714553708536
30
0
41
1
10
16.4725842877638
20
4.58093510853004
30
0
41
1
10
16.4542432706324
20
4.56968169280321
30
0
41
1
10
16.4253617844094
20
4.53921910847163
30
0
41
1
10
16.4155154320112
20
4.51934597706938
30
0
41
1
10
16.4169735859909
20
4.49840494144107
30
0
0
SPLINE
5
1A5
100
AcDbEntity
8
1
62
256
6
ByLayer
370
18
48
1
60
0
100
AcDbSpline
70
4
71
3
72
12
73
8
40
0
40
0
40
0
40
0
40
0.25
40
0.25
40
0.5
40
0.5
40
1
40
1
40
1
40
1
41
1
10
16.8247659766517
20
4.51465587906293
30
0
41
1
10
16.8233074246931
20
4.53561902955707
30
0
41
1
10
16.8108876051392
20
4.55486779214576
30
0
41
1
10
16.7789883073975
20
4.58263419813863
30
0
41
1
10
16.7596157506892
20
4.59241889354649
30
0
41
1
10
16.6997929909309
20
4.61389459931877
30
0
41
1
10
16.6570339400426
20
4.61842463345468
30
0
41
1
10
16.6148204181073
20
4.6167423820751
30
0
0
SPLINE
5
1A6
100
AcDbEntity
8
1
62
256
6
ByLayer
370
18
48
1
60
0
100
AcDbSpline
70
4
71
3
72
12
73
8
40
0
40
0
40
0
40
0
40
0.25
40
0.25
40
0.5
40
0.5
40
1
40
1
40
1
40
1
41
1
10
17.3866826208972
20
3.99488971900891
30
0
41
1
10
17.4013384180863
20
4.00748495996788
30
0
41
1
10
17.4100393099808
20
4.02834240091914
30
0
41
1
10
17.416343236887
20
4.07016628594013
30
0
41
1
10
17.4149191417708
20
4.09173027788938
30
0
41
1
10
17.4037698842064
20
4.15359492309443
30
0
41
1
10
17.3874396966463
20
4.19196340373202
30
0
41
1
10
17.3663329356786
20
4.22652430755545
30
0
0
SPLINE
5
1A7
100
AcDbEntity
8
1
62
256
6
ByLayer
370
18
48
1
60
0
100
AcDbSpline
70
4
71
3
72
18
73
14
40
0
40
0
40
0
40
0
40
0.125
40
0.125
40
0.25
40
0.25
40
0.5
40
0.5
40
0.750000000000001
40
0.750000000000001
40
0.875000000000001
40
0.875000000000001
40
1
40
1
40
1
40
1
41
1
10
16.4196306789373
20
4.47609174185681
30
0
41
1
10
16.4218944749541
20
4.45707651043929
30
0
41
1
10
16.4177513950933
20
4.43814531929678
30
0
41
1
10
16.4036548428558
20
4.40250484275509
30
0
41
1
10
16.3936357966479
20
4.38591782402037
30
0
41
1
10
16.3584986963646
20
4.33989397169503
30
0
41
1
10
16.3283044793785
20
4.31411601756864
30
0
41
1
10
16.2614184467235
20
4.27407923555288
30
0
41
1
10
16.2246480414183
20
4.25975901706713
30
0
41
1
10
16.1679326425283
20
4.25076308159052
30
0
41
1
10
16.1486725129876
20
4.24986150811844
30
0
41
1
10
16.1110220634272
20
4.25448520066428
30
0
41
1
10
16.0926647672842
20
4.25984903844574
30
0
41
1
10
16.0771386623325
20
4.27095764602635
30
0
0
SPLINE
5
1A8
100
AcDbEntity
8
1
62
256
6
ByLayer
370
18
48
1
60
0
100
AcDbSpline
70
4
71
3
72
8
73
4
40
0
40
0
40
0
40
0
40
1
40
1
40
1
40
1
41
1
10
16.0771386623325
20
4.27095764602635
30
0
41
1
10
16.0710762948957
20
4.27529514477925
30
0
41
1
10
16.0650144658081
20
4.27963264947203
30
0
41
1
10
16.0589531370758
20
4.28397015897502
30
0
0
SPLINE
5
1A9
100
AcDbEntity
8
1
62
256
6
ByLayer
370
18
48
1
60
0
100
AcDbSpline
70
4
71
3
72
8
73
4
40
0
40
0
40
0
40
0
40
1
40
1
40
1
40
1
41
1
10
17.1827864255669
20
4.32875604779221
30
0
41
1
10
17.1777753639171
20
4.32397729237698
30
0
41
1
10
17.1727633795002
20
4.31919848505908
30
0
41
1
10
17.1677504011743
20
4.31441962261906
30
0
0
SPLINE
5
1AA
100
AcDbEntity
8
1
62
256
6
ByLayer
370
18
48
1
60
0
100
AcDbSpline
70
4
71
3
72
18
73
14
40
0
40
0
40
0
40
0
40
0.125
40
0.125
40
0.25
40
0.25
40
0.5
40
0.5
40
0.75
40
0.75
40
0.875
40
0.875
40
1
40
1
40
1
40
1
41
1
10
17.1677504011743
20
4.31441962261906
30
0
41
1
10
17.1549349848578
20
4.30220271129269
30
0
41
1
10
17.1388952220121
20
4.29542641332486
30
0
41
1
10
17.1053399603171
20
4.28797669047282
30
0
41
1
10
17.0878797316177
20
4.28742482002366
30
0
41
1
10
17.0352988206969
20
4.29208745777052
30
0
41
1
10
16.9998959682075
20
4.30357563569231
30
0
41
1
10
16.9330265854326
20
4.33831901569874
30
0
41
1
10
16.9014718468434
20
4.36160722287337
30
0
41
1
10
16.8621970917253
20
4.40463559910972
30
0
41
1
10
16.850412421875
20
4.42041658723466
30
0
41
1
10
16.8322050343814
20
4.4547230046949
30
0
41
1
10
16.8256780531131
20
4.4731331997898
30
0
41
1
10
16.8252583845695
20
4.49225641459935
30
0
0
SPLINE
5
1AB
100
AcDbEntity
8
1
62
256
6
ByLayer
370
18
48
1
60
0
100
AcDbSpline
70
4
71
3
72
8
73
4
40
0
40
0
40
0
40
0
40
1
40
1
40
1
40
1
41
1
10
17.3705642539904
20
3.9823255570266
30
0
41
1
10
17.3759380618895
20
3.98651358526931
30
0
41
1
10
17.3813108259593
20
3.99070164013091
30
0
41
1
10
17.3866826208972
20
3.99488971900891
30
0
0
SPLINE
5
1AC
100
AcDbEntity
8
1
62
256
6
ByLayer
370
18
48
1
60
0
100
AcDbSpline
70
4
71
3
72
8
73
4
40
0
40
0
40
0
40
0
40
1
40
1
40
1
40
1
41
1
10
16.0589531370758
20
3.19965195004977
30
0
41
1
10
16.0650144658081
20
3.20231169060378
30
0
41
1
10
16.0710762948957
20
3.20497233531705
30
0
41
1
10
16.0771386623325
20
3.20763395428813
30
0
0
SPLINE
5
1AD
100
AcDbEntity
8
1
62
256
6
ByLayer
370
18
48
1
60
0
100
AcDbSpline
70
4
71
3
72
12
73
8
40
0
40
0
40
0
40
0
40
0.5
40
0.5
40
0.75
40
0.75
40
1
40
1
40
1
40
1
41
1
10
17.3663329356786
20
3.38619109655625
30
0
41
1
10
17.3874426954778
20
3.42243940115745
30
0
41
1
10
17.4037842493335
20
3.46119492858779
30
0
41
1
10
17.4149316244704
20
3.51949875701661
30
0
41
1
10
17.4163672405619
20
3.53907135113778
30
0
41
1
10
17.4099507387705
20
3.57408838879664
30
0
41
1
10
17.4013229887927
20
3.58913780029857
30
0
41
1
10
17.3866826208972
20
3.59455510527212
30
0
0
SPLINE
5
1AE
100
AcDbEntity
8
1
62
256
6
ByLayer
370
18
48
1
60
0
100
AcDbSpline
70
4
71
3
72
8
73
4
40
0
40
0
40
0
40
0
40
1
40
1
40
1
40
1
41
1
10
16.8252583845695
20
4.49225641459935
30
0
41
1
10
16.8250945195872
20
4.49972331986046
30
0
41
1
10
16.8249303769048
20
4.50718979811256
30
0
41
1
10
16.8247659766517
20
4.51465587906293
30
0
0
SPLINE
5
1AF
100
AcDbEntity
8
1
62
256
6
ByLayer
370
18
48
1
60
0
100
AcDbSpline
70
4
71
3
72
12
73
8
40
0
40
0
40
0
40
0
40
0.5
40
0.5
40
0.75
40
0.75
40
1
40
1
40
1
40
1
41
1
10
17.3663329356786
20
4.22652430755545
30
0
41
1
10
17.3452231758794
20
4.26109012176417
30
0
41
1
10
17.3190166272652
20
4.29238380775772
30
0
41
1
10
17.2713679297023
20
4.32670318339174
30
0
41
1
10
17.2539609037397
20
4.3360344383176
30
0
41
1
10
17.2170592443793
20
4.34382445283768
30
0
41
1
10
17.1974262246864
20
4.34133896009726
30
0
41
1
10
17.1827864255669
20
4.32875604779221
30
0
0
SPLINE
5
1B0
100
AcDbEntity
8
1
62
256
6
ByLayer
370
18
48
1
60
0
100
AcDbSpline
70
4
71
3
72
12
73
8
40
0
40
0
40
0
40
0
40
0.5
40
0.5
40
0.75
40
0.75
40
1
40
1
40
1
40
1
41
1
10
15.8633079005361
20
4.16662724559555
30
0
41
1
10
15.842198140737
20
4.13037894099432
30
0
41
1
10
15.8263051535105
20
4.09071838724307
30
0
41
1
10
15.8173643405933
20
4.02796260729323
30
0
41
1
10
15.8169319743474
20
4.00636586010899
30
0
41
1
10
15.8265558188306
20
3.96487770006451
30
0
41
1
10
15.8375014034422
20
3.94515183424284
30
0
41
1
10
15.8550569417454
20
3.93385289256986
30
0
0
LINE
5
72
100
AcDbEntity
8
4
62
256
6
ByLayer
370
18
48
0.05
60
0
100
AcDbLine
10
0
20
0
30
0
11
25
21
0
31
0
39
0
210
0
220
0
230
1
0
LINE
5
74
100
AcDbEntity
8
1
62
256
6
ByLayer
370
18
48
1
60
0
100
AcDbLine
10
17.326682
20
3.643209
30
0
11
17.406635
21
3.481897
31
0
39
0
210
0
220
0
230
1
0
LINE
5
76
100
AcDbEntity
8
1
62
256
6
ByLayer
370
18
48
1
60
0
100
AcDbLine
10
16.465784
20
2.959138
30
0
11
16.412431
21
3.066782
31
0
39
0
210
0
220
0
230
1
0
LINE
5
77
100
AcDbEntity
8
1
62
256
6
ByLayer
370
18
48
1
60
0
100
AcDbLine
10
16.012874
20
3.687843
30
0
11
15.927948
21
3.85919
31
0
39
0
210
0
220
0
230
1
0
LINE
5
78
100
AcDbEntity
8
1
62
256
6
ByLayer
370
18
48
1
60
0
100
AcDbLine
10
16.83903
20
4.442012
30
0
11
16.925544
21
4.267462
31
0
39
0
210
0
220
0
230
1
0
LINE
5
79
100
AcDbEntity
8
1
62
256
6
ByLayer
370
18
48
1
60
0
100
AcDbLine
10
17.780464
20
4.126795
30
0
11
17.691679
21
4.305929
31
0
39
0
210
0
220
0
230
1
0
LINE
5
7A
100
AcDbEntity
8
1
62
256
6
ByLayer
370
18
48
1
60
0
100
AcDbLine
10
8.080948
20
-5.4
30
0
11
8.440469
21
-5.4
31
0
39
0
210
0
220
0
230
1
0
LINE
5
7B
100
AcDbEntity
8
SK1
62
256
6
ByLayer
370
18
48
1
60
0
100
AcDbLine
10
-0.288484
20
4.603834
30
0
11
-2.5
21
4.518876
31
0
39
0
210
0
220
0
230
1
0
LINE
5
7D
100
AcDbEntity
8
SK1
62
256
6
ByLayer
370
18
48
1
60
0
100
AcDbLine
10
-2.5
20
-4.518876
30
0
11
-0.288484
21
-4.603834
31
0
39
0
210
0
220
0
230
1
0
LINE
5
7E
100
AcDbEntity
8
SK1
62
256
6
ByLayer
370
18
48
1
60
0
100
AcDbLine
10
-2.5
20
4.518876
30
0
11
-9.8
21
3.751615
31
0
39
0
210
0
220
0
230
1
0
LINE
5
7F
100
AcDbEntity
8
SK1
62
256
6
ByLayer
370
18
48
1
60
0
100
AcDbLine
10
-9.8
20
-3.751615
30
0
11
-2.5
21
-4.518876
31
0
39
0
210
0
220
0
230
1
0
LINE
5
80
100
AcDbEntity
8
SK1
62
256
6
ByLayer
370
18
48
1
60
0
100
AcDbLine
10
-13.6
20
2.75
30
0
11
-13.8
21
2.55
31
0
39
0
210
0
220
0
230
1
0
LINE
5
81
100
AcDbEntity
8
SK1
62
256
6
ByLayer
370
18
48
1
60
0
100
AcDbLine
10
-10.3
20
2.75
30
0
11
-13.6
21
2.75
31
0
39
0
210
0
220
0
230
1
0
LINE
5
82
100
AcDbEntity
8
SK1
62
256
6
ByLayer
370
18
48
1
60
0
100
AcDbLine
10
-13.6
20
-2.75
30
0
11
-10.3
21
-2.75
31
0
39
0
210
0
220
0
230
1
0
LINE
5
83
100
AcDbEntity
8
SK1
62
256
6
ByLayer
370
18
48
1
60
0
100
AcDbLine
10
-13.8
20
-2.55
30
0
11
-13.6
21
-2.75
31
0
39
0
210
0
220
0
230
1
0
LINE
5
84
100
AcDbEntity
8
1
62
256
6
ByLayer
370
18
48
1
60
0
100
AcDbLine
10
7.5
20
5.85
30
0
11
0
21
5.85
31
0
39
0
210
0
220
0
230
1
0
LINE
5
85
100
AcDbEntity
8
1
62
256
6
ByLayer
370
18
48
1
60
0
100
AcDbLine
10
0
20
-5.85
30
0
11
7.5
21
-5.85
31
0
39
0
210
0
220
0
230
1
0
LINE
5
86
100
AcDbEntity
8
1
62
256
6
ByLayer
370
18
48
1
60
0
100
AcDbLine
10
8.440469
20
5.4
30
0
11
8.080948
21
5.4
31
0
39
0
210
0
220
0
230
1
0
LINE
5
87
100
AcDbEntity
8
1
62
256
6
ByLayer
370
18
48
1
60
0
100
AcDbLine
10
15.541316
20
3.240124
30
0
11
15.630101
21
3.06099
31
0
39
0
210
0
220
0
230
1
0
LINE
5
88
100
AcDbEntity
8
80
62
256
6
ByLayer
370
18
48
1
60
0
100
AcDbLine
10
0
20
0
30
0
11
-5
21
0
31
0
39
0
210
0
220
0
230
1
0
LINE
5
89
100
AcDbEntity
8
SK4
62
256
6
ByLayer
370
18
48
0.05
60
0
100
AcDbLine
10
-37
20
0
30
0
11
25
21
0
31
0
39
0
210
0
220
0
230
1
0
LINE
5
8B
100
AcDbEntity
8
81
62
256
6
ByLayer
370
18
48
1
60
0
100
AcDbLine
10
20
20
5.85
30
0
11
25
21
5.85
31
0
39
0
210
0
220
0
230
1
0
LINE
5
8C
100
AcDbEntity
8
SK1
62
256
6
ByLayer
370
18
48
1
60
0
100
AcDbLine
10
-2.5
20
4.518876
30
0
11
-2.5
21
-4.518876
31
0
39
0
210
0
220
0
230
1
0
LINE
5
8D
100
AcDbEntity
8
SK1
62
256
6
ByLayer
370
18
48
1
60
0
100
AcDbLine
10
-9.8
20
3.751615
30
0
11
-9.8
21
-3.751615
31
0
39
0
210
0
220
0
230
1
0
LINE
5
8E
100
AcDbEntity
8
SK1
62
256
6
ByLayer
370
18
48
1
60
0
100
AcDbLine
10
-10.3
20
2.75
30
0
11
-10.3
21
-2.75
31
0
39
0
210
0
220
0
230
1
0
LINE
5
8F
100
AcDbEntity
8
SK1
62
256
6
ByLayer
370
18
48
1
60
0
100
AcDbLine
10
-0.288484
20
4.603834
30
0
11
-0.288484
21
-4.603834
31
0
39
0
210
0
220
0
230
1
0
LINE
5
90
100
AcDbEntity
8
SK1
62
256
6
ByLayer
370
18
48
1
60
0
100
AcDbLine
10
-13.6
20
2.75
30
0
11
-13.6
21
-2.75
31
0
39
0
210
0
220
0
230
1
0
LINE
5
91
100
AcDbEntity
8
SK1
62
256
6
ByLayer
370
18
48
1
60
0
100
AcDbLine
10
-13.8
20
2.55
30
0
11
-13.8
21
-2.55
31
0
39
0
210
0
220
0
230
1
0
LINE
5
92
100
AcDbEntity
8
1
62
256
6
ByLayer
370
18
48
1
60
0
100
AcDbLine
10
0
20
5.85
30
0
11
0
21
-5.85
31
0
39
0
210
0
220
0
230
1
0
LINE
5
93
100
AcDbEntity
8
1
62
256
6
ByLayer
370
18
48
1
60
0
100
AcDbLine
10
8.770062
20
4.610074
30
0
11
8.54092
21
5.254632
31
0
39
0
210
0
220
0
230
1
0
LINE
5
94
100
AcDbEntity
8
1
62
256
6
ByLayer
370
18
48
1
60
0
100
AcDbLine
10
13.997406
20
-5.191316
30
0
11
13.997406
21
2.776663
31
0
39
0
210
0
220
0
230
1
0
LINE
5
95
100
AcDbEntity
8
1
62
256
6
ByLayer
370
18
48
1
60
0
100
AcDbLine
10
2.1
20
-3.036857
30
0
11
5.4
21
-3.036857
31
0
39
0
210
0
220
0
230
1
0
LINE
5
96
100
AcDbEntity
8
1
62
256
6
ByLayer
370
18
48
1
60
0
100
AcDbLine
10
9.605549
20
4.580434
30
0
11
9.425559
21
5.086726
31
0
39
0
210
0
220
0
230
1
0
LINE
5
97
100
AcDbEntity
8
1
62
256
6
ByLayer
370
18
48
1
60
0
100
AcDbLine
10
13.173845
20
3.470868
30
0
11
12.820129
21
3.543067
31
0
39
0
210
0
220
0
230
1
0
LINE
5
98
100
AcDbEntity
8
1
62
256
6
ByLayer
370
18
48
1
60
0
100
AcDbLine
10
5.4
20
-3.036857
30
0
11
5.4
21
3.036857
31
0
39
0
210
0
220
0
230
1
0
LINE
5
99
100
AcDbEntity
8
1
62
256
6
ByLayer
370
18
48
1
60
0
100
AcDbLine
10
17.020823
20
-3.294938
30
0
11
17.020823
21
-3.572972
31
0
39
0
210
0
220
0
230
1
0
LINE
5
9A
100
AcDbEntity
8
1
62
256
6
ByLayer
370
18
48
1
60
0
100
AcDbLine
10
2.1
20
3.036857
30
0
11
2.1
21
-3.036857
31
0
39
0
210
0
220
0
230
1
0
LINE
5
9B
100
AcDbEntity
8
1
62
256
6
ByLayer
370
18
48
1
60
0
100
AcDbLine
10
18.249291
20
-2.339935
30
0
11
18.297453
21
-2.242763
31
0
39
0
210
0
220
0
230
1
0
LINE
5
9C
100
AcDbEntity
8
1
62
256
6
ByLayer
370
18
48
1
60
0
100
AcDbLine
10
8.495
20
-5.336331
30
0
11
8.495
21
-5.278808
31
0
39
0
210
0
220
0
230
1
0
LINE
5
9D
100
AcDbEntity
8
1
62
256
6
ByLayer
370
18
48
1
60
0
100
AcDbLine
10
1.9
20
2.680019
30
0
11
1.9
21
-2.680019
31
0
39
0
210
0
220
0
230
1
0
LINE
5
9E
100
AcDbEntity
8
1
62
256
6
ByLayer
370
18
48
1
60
0
100
AcDbLine
10
5.4
20
3.036857
30
0
11
2.1
21
3.036857
31
0
39
0
210
0
220
0
230
1
0
LINE
5
9F
100
AcDbEntity
8
1
62
256
6
ByLayer
370
18
48
1
60
0
100
AcDbLine
10
17.119849
20
-3.584635
30
0
11
17.119849
21
-3.298884
31
0
39
0
210
0
220
0
230
1
0
LINE
5
A0
100
AcDbEntity
8
1
62
256
6
ByLayer
370
18
48
1
60
0
100
AcDbLine
10
5.6
20
-2.680019
30
0
11
5.6
21
2.680019
31
0
39
0
210
0
220
0
230
1
0
LINE
5
A1
100
AcDbEntity
8
1
62
256
6
ByLayer
370
18
48
1
60
0
100
AcDbLine
10
7.5
20
-5.85
30
0
11
7.5
21
5.85
31
0
39
0
210
0
220
0
230
1
0
LINE
5
A2
100
AcDbEntity
8
1
62
256
6
ByLayer
370
18
48
1
60
0
100
AcDbLine
10
14.583062
20
-4.696008
30
0
11
14.55233
21
-4.621124
31
0
39
0
210
0
220
0
230
1
0
LINE
5
A3
100
AcDbEntity
8
1
62
256
6
ByLayer
370
18
48
1
60
0
100
AcDbLine
10
15.315278
20
-4.523253
30
0
11
15.315278
21
2.753299
31
0
39
0
210
0
220
0
230
1
0
LINE
5
A4
100
AcDbEntity
8
1
62
256
6
ByLayer
370
18
48
1
60
0
100
AcDbLine
10
18.249291
20
-2.339935
30
0
11
18.249291
21
-2.688575
31
0
39
0
210
0
220
0
230
1
0
LINE
5
A5
100
AcDbEntity
8
1
62
256
6
ByLayer
370
18
48
1
60
0
100
AcDbLine
10
19.282648
20
2.496201
30
0
11
19.282648
21
-4.315942
31
0
39
0
210
0
220
0
230
1
0
LINE
5
A6
100
AcDbEntity
8
1
62
256
6
ByLayer
370
18
48
1
60
0
100
AcDbLine
10
8.080948
20
-5.4
30
0
11
8.080948
21
5.4
31
0
39
0
210
0
220
0
230
1
0
LINE
5
A7
100
AcDbEntity
8
1
62
256
6
ByLayer
370
18
48
1
60
0
100
AcDbLine
10
13
20
-5.294178
30
0
11
13
21
2.795808
31
0
39
0
210
0
220
0
230
1
0
LINE
5
A8
100
AcDbEntity
8
1
62
256
6
ByLayer
370
18
48
1
60
0
100
AcDbLine
10
14.002594
20
2.776567
30
0
11
14.002594
21
-5.187403
31
0
39
0
210
0
220
0
230
1
0
LINE
5
A9
100
AcDbEntity
8
1
62
256
6
ByLayer
370
18
48
1
60
0
100
AcDbLine
10
13.191366
20
3.777842
30
0
11
12.820129
21
3.543067
31
0
39
0
210
0
220
0
230
1
0
LINE
5
AA
100
AcDbEntity
8
1
62
256
6
ByLayer
370
18
48
1
60
0
100
AcDbLine
10
18.687093
20
-4.494063
30
0
11
18.687093
21
2.681089
31
0
39
0
210
0
220
0
230
1
0
LINE
5
AB
100
AcDbEntity
8
1
62
256
6
ByLayer
370
18
48
1
60
0
100
AcDbLine
10
8.504999
20
5.065729
30
0
11
8.504999
21
-5.319605
31
0
39
0
210
0
220
0
230
1
0
LINE
5
AC
100
AcDbEntity
8
1
62
256
6
ByLayer
370
18
48
1
60
0
100
AcDbLine
10
15.327873
20
2.753053
30
0
11
15.327873
21
-4.525685
31
0
39
0
210
0
220
0
230
1
0
LINE
5
AD
100
AcDbEntity
8
1
62
256
6
ByLayer
370
18
48
1
60
0
100
AcDbLine
10
16.433335
20
2.980742
30
0
11
16.416974
21
3.013752
31
0
39
0
210
0
220
0
230
1
0
LINE
5
AE
100
AcDbEntity
8
1
62
256
6
ByLayer
370
18
48
1
60
0
100
AcDbLine
10
17.414605
20
3.538218
30
0
11
17.386683
21
3.594555
31
0
39
0
210
0
220
0
230
1
0
LINE
5
AF
100
AcDbEntity
8
1
62
256
6
ByLayer
370
18
48
1
60
0
100
AcDbLine
10
16.450849
20
2.966811
30
0
11
16.419631
21
3.029797
31
0
39
0
210
0
220
0
230
1
0
LINE
5
B0
100
AcDbEntity
8
1
62
256
6
ByLayer
370
18
48
1
60
0
100
AcDbLine
10
17.413037
20
3.513662
30
0
11
17.370564
21
3.599355
31
0
39
0
210
0
220
0
230
1
0
LINE
5
B1
100
AcDbEntity
8
1
62
256
6
ByLayer
370
18
48
1
60
0
100
AcDbLine
10
19.339874
20
-4.559828
30
0
11
19.339874
21
-3.325904
31
0
39
0
210
0
220
0
230
1
0
LINE
5
B2
100
AcDbEntity
8
1
62
256
6
ByLayer
370
18
48
1
60
0
100
AcDbLine
10
19.300367
20
-4.558053
30
0
11
19.300367
21
-3.32396
31
0
39
0
210
0
220
0
230
1
0
LINE
5
B3
100
AcDbEntity
8
1
62
256
6
ByLayer
370
18
48
1
60
0
100
AcDbLine
10
19.339874
20
-3.325735
30
0
11
19.300367
21
-3.32396
31
0
39
0
210
0
220
0
230
1
0
LINE
5
B4
100
AcDbEntity
8
1
62
256
6
ByLayer
370
18
48
1
60
0
100
AcDbLine
10
19.300367
20
-4.558053
30
0
11
19.339874
21
-4.559828
31
0
39
0
210
0
220
0
230
1
0
LINE
5
B5
100
AcDbEntity
8
1
62
256
6
ByLayer
370
18
48
1
60
0
100
AcDbLine
10
16.932033
20
-4.760683
30
0
11
19.048036
21
-4.800296
31
0
39
0
210
0
220
0
230
1
0
LINE
5
B6
100
AcDbEntity
8
1
62
256
6
ByLayer
370
18
48
1
60
0
100
AcDbLine
10
19.048803
20
-4.83887
30
0
11
19.048036
21
-4.800296
31
0
39
0
210
0
220
0
230
1
0
LINE
5
B7
100
AcDbEntity
8
1
62
256
6
ByLayer
370
18
48
1
60
0
100
AcDbLine
10
15.353574
20
-4.731133
30
0
11
16.932033
21
-4.760683
31
0
39
0
210
0
220
0
230
1
0
LINE
5
B8
100
AcDbEntity
8
1
62
256
6
ByLayer
370
18
48
1
60
0
100
AcDbLine
10
15.353574
20
-4.731133
30
0
11
15.354341
21
-4.769706
31
0
39
0
210
0
220
0
230
1
0
LINE
5
B9
100
AcDbEntity
8
1
62
256
6
ByLayer
370
18
48
1
60
0
100
AcDbLine
10
17.257547
20
4.133245
30
0
11
17.16775
21
4.31442
31
0
39
0
210
0
220
0
230
1
0
LINE
5
BA
100
AcDbEntity
8
1
62
256
6
ByLayer
370
18
48
1
60
0
100
AcDbLine
10
16.508345
20
4.314054
30
0
11
16.416974
21
4.498405
31
0
39
0
210
0
220
0
230
1
0
LINE
5
BB
100
AcDbEntity
8
1
62
256
6
ByLayer
370
18
48
1
60
0
100
AcDbLine
10
17.274158
20
4.144405
30
0
11
17.182786
21
4.328756
31
0
39
0
210
0
220
0
230
1
0
LINE
5
BC
100
AcDbEntity
8
1
62
256
6
ByLayer
370
18
48
1
60
0
100
AcDbLine
10
15.946429
20
3.349167
30
0
11
15.855057
21
3.533518
31
0
39
0
210
0
220
0
230
1
0
LINE
5
BD
100
AcDbEntity
8
1
62
256
6
ByLayer
370
18
48
1
60
0
100
AcDbLine
10
16.150325
20
4.099619
30
0
11
16.166936
21
4.089783
31
0
39
0
210
0
220
0
230
1
0
LINE
5
BE
100
AcDbEntity
8
1
62
256
6
ByLayer
370
18
48
1
60
0
100
AcDbLine
10
16.150325
20
4.099619
30
0
11
16.058953
21
4.28397
31
0
39
0
210
0
220
0
230
1
0
LINE
5
BF
100
AcDbEntity
8
1
62
256
6
ByLayer
370
18
48
1
60
0
100
AcDbLine
10
17.257547
20
4.133245
30
0
11
17.274158
21
4.144405
31
0
39
0
210
0
220
0
230
1
0
LINE
5
C0
100
AcDbEntity
8
1
62
256
6
ByLayer
370
18
48
1
60
0
100
AcDbLine
10
16.509428
20
4.294918
30
0
11
16.508345
21
4.314054
31
0
39
0
210
0
220
0
230
1
0
LINE
5
C1
100
AcDbEntity
8
1
62
256
6
ByLayer
370
18
48
1
60
0
100
AcDbLine
10
15.946429
20
3.349167
30
0
11
15.964122
21
3.358554
31
0
39
0
210
0
220
0
230
1
0
LINE
5
C2
100
AcDbEntity
8
1
62
256
6
ByLayer
370
18
48
1
60
0
100
AcDbLine
10
16.166936
20
4.089783
30
0
11
16.077139
21
4.270958
31
0
39
0
210
0
220
0
230
1
0
LINE
5
C3
100
AcDbEntity
8
1
62
256
6
ByLayer
370
18
48
1
60
0
100
AcDbLine
10
16.509428
20
4.294918
30
0
11
16.419631
21
4.476092
31
0
39
0
210
0
220
0
230
1
0
LINE
5
C4
100
AcDbEntity
8
1
62
256
6
ByLayer
370
18
48
1
60
0
100
AcDbLine
10
15.964122
20
3.358554
30
0
11
15.874325
21
3.539728
31
0
39
0
210
0
220
0
230
1
0
MTEXT
5
1B1
100
AcDbEntity
8
SK6
62
256
6
ByLayer
370
18
48
1
60
0
100
AcDbMText
10
-25.952448
20
-16.725
30
0
210
0
220
0
230
1
1
\W0.7116;R390-0117EH12-07L
40
3.5
41
0
44
1.084337
50
0
71
7
72
5
7
iso_b_vert
0
DIMENSION
5
1C2
100
AcDbEntity
8
2
62
256
6
ByLayer
370
13
48
1
60
0
100
AcDbDimension
2
DimnDraft3D1
10
31.995104
20
5.85
30
0
11
31.995104
21
-22.744408
31
0
70
32
71
5
72
1
41
1
210
0
220
0
230
1
3
Standard
100
AcDbAlignedDimension
13
21.5875
23
-5.85
33
0
14
21.5875
24
5.85
34
0
50
90
100
AcDbRotatedDimension
1001
ACAD
1000
DSTYLE
1002
{
1070
    74
1070
     0
1070
   279
1070
     0
1070
   172
1070
     1
1070
   173
1070
     1
1070
   340
1005
1B2
1070
   271
1070
     2
1070
   272
1070
     2
1070
    77
1070
     1
1070
    73
1070
     0
1070
   171
1070
     3
1070
   274
1070
     4
1070
   177
1070
   150
1070
   176
1070
     9
1070
   178
1070
    43
1070
    78
1070
     8
1070
    48
1040
-0.005
1070
    41
1041
3.175
1070
   147
1041
1.75
1070
    42
1041
1.5875
1070
    44
1041
3.175
1070
   140
1041
3.5
1070
   343
1005
1C3
1070
   344
1005
1C3
1002
}
0
DIMENSION
5
1D8
100
AcDbEntity
8
SK2
62
256
6
ByLayer
370
13
48
1
60
0
100
AcDbDimension
2
DimnDraft3D2
10
-36.65
20
-5.85
30
0
11
-36.65
21
22.744408
31
0
70
32
71
5
72
1
41
1
210
0
220
0
230
1
3
Standard
100
AcDbAlignedDimension
13
-1.5875
23
5.85
33
0
14
-1.5875
24
-5.85
34
0
50
90
100
AcDbRotatedDimension
1001
ACAD
1000
DSTYLE
1002
{
1070
    74
1070
     0
1070
   279
1070
     0
1070
   172
1070
     1
1070
   173
1070
     1
1070
   340
1005
1B2
1070
   271
1070
     2
1070
   272
1070
     2
1070
    77
1070
     1
1070
    73
1070
     0
1070
   171
1070
     3
1070
   274
1070
     4
1070
   177
1070
   150
1070
   176
1070
     9
1070
   178
1070
    43
1070
    78
1070
     8
1070
    48
1040
-0.005
1070
    41
1041
3.175
1070
   147
1041
1.75
1070
    42
1041
1.5875
1070
    44
1041
3.175
1070
   140
1041
3.5
1070
   343
1005
1C3
1070
   344
1005
1C3
1002
}
0
DIMENSION
5
1E6
100
AcDbEntity
8
2
62
256
6
ByLayer
370
13
48
1
60
0
100
AcDbDimension
2
DimnDraft3D3
10
20
20
34.35
30
0
11
10
21
34.35
31
0
70
32
71
5
72
1
41
1
210
0
220
0
230
1
3
Standard
100
AcDbAlignedDimension
13
0
23
7.4375
33
0
14
20
24
7.4375
34
0
50
0
100
AcDbRotatedDimension
1001
ACAD
1000
DSTYLE
1002
{
1070
   279
1070
     0
1070
   172
1070
     1
1070
   173
1070
     1
1070
   340
1005
1B2
1070
   271
1070
     2
1070
   272
1070
     2
1070
    77
1070
     1
1070
    73
1070
     0
1070
   171
1070
     3
1070
   274
1070
     4
1070
   177
1070
   150
1070
   176
1070
     9
1070
   178
1070
    43
1070
    78
1070
     8
1070
    48
1040
-0.005
1070
    41
1041
3.175
1070
   147
1041
1.75
1070
    42
1041
1.5875
1070
    44
1041
3.175
1070
   140
1041
3.5
1070
   343
1005
1C3
1070
   344
1005
1C3
1002
}
0
DIMENSION
5
1F4
100
AcDbEntity
8
2
62
256
6
ByLayer
370
13
48
1
60
0
100
AcDbDimension
2
DimnDraft3D4
10
20
20
24.35
30
0
11
14.05
21
24.35
31
0
70
32
71
5
72
1
41
1
210
0
220
0
230
1
3
Standard
100
AcDbAlignedDimension
13
8.1
23
7.0875
33
0
14
20
24
7.4375
34
0
50
0
100
AcDbRotatedDimension
1001
ACAD
1000
DSTYLE
1002
{
1070
   279
1070
     0
1070
   172
1070
     1
1070
   173
1070
     1
1070
   340
1005
1B2
1070
   271
1070
     2
1070
   272
1070
     2
1070
    77
1070
     1
1070
    73
1070
     0
1070
   171
1070
     3
1070
   274
1070
     4
1070
   177
1070
   150
1070
   176
1070
     9
1070
   178
1070
    43
1070
    78
1070
     8
1070
    48
1040
-0.005
1070
    41
1041
3.175
1070
   147
1041
1.75
1070
    42
1041
1.5875
1070
    44
1041
3.175
1070
   140
1041
3.5
1070
   343
1005
1C3
1070
   344
1005
1C3
1002
}
0
DIMENSION
5
202
100
AcDbEntity
8
SK2
62
256
6
ByLayer
370
13
48
1
60
0
100
AcDbDimension
2
DimnDraft3D5
10
20
20
14.35
30
0
11
34.4375
21
14.35
31
0
70
32
71
5
72
1
41
1
210
0
220
0
230
1
3
Standard
100
AcDbAlignedDimension
13
14.2
23
7.4375
33
0
14
20
24
7.4375
34
0
50
0
100
AcDbRotatedDimension
1001
ACAD
1000
DSTYLE
1002
{
1070
   279
1070
     0
1070
   172
1070
     1
1070
   173
1070
     1
1070
   340
1005
1B2
1070
   271
1070
     2
1070
   272
1070
     2
1070
    77
1070
     1
1070
    73
1070
     0
1070
   171
1070
     3
1070
   274
1070
     4
1070
   177
1070
   150
1070
   176
1070
     9
1070
   178
1070
    43
1070
    78
1070
     8
1070
    48
1040
-0.005
1070
    41
1041
3.175
1070
   147
1041
1.75
1070
    42
1041
1.5875
1070
    44
1041
3.175
1070
   140
1041
3.5
1070
   343
1005
1C3
1070
   344
1005
1C3
1002
}
0
ENDSEC
0
SECTION
2
OBJECTS
0
DICTIONARY
5
26d
330
0
100
AcDbDictionary
280
0
281
1
3
ACAD_GROUP
350
26e
3
ACAD_MLINESTYLE
350
26f
0
DICTIONARY
5
26e
330
0
100
AcDbDictionary
280
0
281
1
0
DICTIONARY
5
26f
330
0
100
AcDbDictionary
280
0
281
1
3
Standard
350
18
0
MLINESTYLE
5
18
330
26f
100
AcDbMlineStyle
2
Standard
70
0
3

62
256
51
90
52
90
71
2
49
-0.5
62
256
6
ByLayer
49
0.5
62
256
6
ByLayer
0
RASTERVARIABLES
5
25b
330

100
AcDbRasterVariables
90
0
70
1
71
1
72
1
0
ENDSEC
0
EOF
