0
SECTION
2
HEADER
9
$ACADVER
1
AC1015
9
$DWGCODEPAGE
3
ANSI_1252
9
$HANDSEED
5
259
9
$ANGBASE
50
0
9
$ANGDIR
70
0
9
$ATTMODE
70
1
9
$AUNITS
70
0
9
$AUPREC
70
0
9
$CECOLOR
62
256
9
$CELTSCALE
40
1
9
$CELTYPE
6
ByLayer
9
$CELWEIGHT
370
18
9
$CLAYER
8
0
9
$CMLJUST
70
0
9
$CMLSCALE
40
1
9
$CMLSTYLE
2
Standard
9
$DIMSTYLE
2
Standard
9
$TEXTSIZE
40
0.2
9
$TEXTSTYLE
7
Standard
9
$LUNITS
70
2
9
$LUPREC
70
4
9
$EXTNAMES
290
1
9
$INSUNITS
70
4
9
$LTSCALE
40
1
9
$LWDISPLAY
290
1
9
$PDMODE
70
0
9
$PDSIZE
40
0
9
$PLINEGEN
70
0
0
ENDSEC
0
SECTION
2
CLASSES
0
CLASS
1
RASTERVARIABLES
2
AcDbRasterVariables
3
ISM
90
0
280
0
281
0
0
ENDSEC
0
SECTION
2
TABLES
0
TABLE
2
VPORT
5
24f
100
AcDbSymbolTable
0
VPORT
5
1
100
AcDbSymbolTableRecord
100
AcDbViewportTableRecord
2
*Active
70
0
10
0
20
0
11
1
21
1
12
-1
22
1
13
0
23
0
14
0.5
24
0.5
15
10
25
10
16
0
26
0
36
1
17
0
27
0
37
0
0
ENDTAB
0
TABLE
2
LTYPE
5
250
100
AcDbSymbolTable
0
LTYPE
5
14
100
AcDbSymbolTableRecord
100
AcDbLinetypeTableRecord
70
0
2
ByBlock
3

72
65
73
0
40
0
0
LTYPE
5
15
100
AcDbSymbolTableRecord
100
AcDbLinetypeTableRecord
70
0
2
ByLayer
3

72
65
73
0
40
0
0
LTYPE
5
16
100
AcDbSymbolTableRecord
100
AcDbLinetypeTableRecord
70
0
2
CONTINUOUS
3
Solid line
72
65
73
0
40
0
0
LTYPE
5
6A
100
AcDbSymbolTableRecord
100
AcDbLinetypeTableRecord
70
0
2
CENTER
3
____ _ ____ _ ____ _ ____
72
65
73
4
40
47.5
49
22
74
0
49
-8.5
74
0
49
8.5
74
0
49
-8.5
74
0
0
LTYPE
5
6B
100
AcDbSymbolTableRecord
100
AcDbLinetypeTableRecord
70
0
2
DASHED
3
__ __ __ __ __ __ __ __ __
72
65
73
2
40
25.72
49
12.86
74
0
49
-12.86
74
0
0
ENDTAB
0
TABLE
2
LAYER
5
251
100
AcDbSymbolTable
0
LAYER
5
10
100
AcDbSymbolTableRecord
100
AcDbLayerTableRecord
2
0
70
0
62
7
6
CONTINUOUS
290
1
370
-3
390
0
0
LAYER
5
6D
100
AcDbSymbolTableRecord
100
AcDbLayerTableRecord
2
81
70
0
62
-3
6
CONTINUOUS
290
1
370
-3
390
0
0
LAYER
5
6F
100
AcDbSymbolTableRecord
100
AcDbLayerTableRecord
2
80
70
0
62
-6
6
CONTINUOUS
290
1
370
-3
390
0
0
LAYER
5
71
100
AcDbSymbolTableRecord
100
AcDbLayerTableRecord
2
2
70
0
62
7
6
CONTINUOUS
290
1
370
-3
390
0
0
LAYER
5
73
100
AcDbSymbolTableRecord
100
AcDbLayerTableRecord
2
4
70
0
62
-2
6
CENTER
290
1
370
-3
390
0
0
LAYER
5
75
100
AcDbSymbolTableRecord
100
AcDbLayerTableRecord
2
1
70
0
62
4
6
CONTINUOUS
290
1
370
-3
390
0
0
LAYER
5
23b
100
AcDbSymbolTableRecord
100
AcDbLayerTableRecord
2
SK1
70
0
62
4
6
CONTINUOUS
290
1
370
-3
390
0
0
LAYER
5
23c
100
AcDbSymbolTableRecord
100
AcDbLayerTableRecord
2
SK4
70
0
62
2
6
CENTER
290
1
370
-3
390
0
0
LAYER
5
23d
100
AcDbSymbolTableRecord
100
AcDbLayerTableRecord
2
SK6
70
0
62
5
6
CONTINUOUS
290
1
370
-3
390
0
0
LAYER
5
23e
100
AcDbSymbolTableRecord
100
AcDbLayerTableRecord
2
SK2
70
0
62
7
6
CONTINUOUS
290
1
370
-3
390
0
0
ENDTAB
0
TABLE
2
STYLE
5
252
100
AcDbSymbolTable
0
STYLE
5
11
100
AcDbSymbolTableRecord
100
AcDbTextStyleTableRecord
2
Standard
3
txt
70
0
71
0
40
0
41
1
42
0
50
0
0
STYLE
5
191
100
AcDbSymbolTableRecord
100
AcDbTextStyleTableRecord
2
iso_b_vert
3
simplex.shx
70
0
71
0
40
0
41
1
42
0
50
0
0
STYLE
5
192
100
AcDbSymbolTableRecord
100
AcDbTextStyleTableRecord
2
DWGDirectTextStyle
3
simplex
70
0
71
0
40
0
41
1
42
0
50
0
0
ENDTAB
0
TABLE
2
DIMSTYLE
5
253
100
AcDbSymbolTable
100
AcDbDimStyleTable
0
DIMSTYLE
105
27
100
AcDbSymbolTableRecord
100
AcDbDimStyleTableRecord
2
Standard
70
0
3
<>
41
0.18
42
0.0625
44
0.18
140
0.18
147
0.09
73
0
74
0
77
1
271
2
275
0
278
52
280
0
340
11
0
ENDTAB
0
TABLE
2
VIEW
5
254
100
AcDbSymbolTable
0
ENDTAB
0
TABLE
2
UCS
5
255
100
AcDbSymbolTable
0
ENDTAB
0
TABLE
2
APPID
5
256
100
AcDbSymbolTable
0
APPID
5
12
100
AcDbSymbolTableRecord
100
AcDbRegAppTableRecord
2
ACAD
70
0
0
ENDTAB
0
TABLE
2
BLOCK_RECORD
5
257
100
AcDbSymbolTable
0
BLOCK_RECORD
5
1F
100
AcDbSymbolTableRecord
100
AcDbBlockTableRecord
2
*Model_Space
340
0
70
0
0
BLOCK_RECORD
5
1B
100
AcDbSymbolTableRecord
100
AcDbBlockTableRecord
2
*Paper_Space
340
0
70
0
0
BLOCK_RECORD
5
23
100
AcDbSymbolTableRecord
100
AcDbBlockTableRecord
2
*Paper_Space0
340
0
70
0
0
BLOCK_RECORD
5
194
100
AcDbSymbolTableRecord
100
AcDbBlockTableRecord
2
DimnDraft3D1
340
0
70
0
0
BLOCK_RECORD
5
1A2
100
AcDbSymbolTableRecord
100
AcDbBlockTableRecord
2
_CLOSED
340
0
70
0
0
BLOCK_RECORD
5
1A9
100
AcDbSymbolTableRecord
100
AcDbBlockTableRecord
2
DimnDraft3D2
340
0
70
0
0
BLOCK_RECORD
5
1B8
100
AcDbSymbolTableRecord
100
AcDbBlockTableRecord
2
DimnDraft3D3
340
0
70
0
0
BLOCK_RECORD
5
1C6
100
AcDbSymbolTableRecord
100
AcDbBlockTableRecord
2
DimnDraft3D4
340
0
70
0
0
BLOCK_RECORD
5
1D4
100
AcDbSymbolTableRecord
100
AcDbBlockTableRecord
2
DimnDraft3D5
340
0
70
0
0
ENDTAB
0
ENDSEC
0
SECTION
2
BLOCKS
0
BLOCK
5
20
100
AcDbEntity
8
0
100
AcDbBlockBegin
2
*Model_Space
70
0
10
0
20
0
30
0
3
*Model_Space
0
ENDBLK
5
21
100
AcDbEntity
8
0
100
AcDbBlockEnd
0
BLOCK
5
1C
100
AcDbEntity
8
0
100
AcDbBlockBegin
2
*Paper_Space
70
0
10
0
20
0
30
0
3
*Paper_Space
0
ENDBLK
5
1D
100
AcDbEntity
8
0
100
AcDbBlockEnd
0
BLOCK
5
24
100
AcDbEntity
8
0
100
AcDbBlockBegin
2
*Paper_Space0
70
0
10
0
20
0
30
0
3
*Paper_Space0
0
ENDBLK
5
25
100
AcDbEntity
8
0
100
AcDbBlockEnd
0
BLOCK
5
19F
100
AcDbEntity
8
0
100
AcDbBlockBegin
2
DimnDraft3D1
70
0
10
0
20
0
30
0
3
DimnDraft3D1
0
MTEXT
5
195
100
AcDbEntity
8
2
62
256
6
ByLayer
370
18
48
1
60
0
100
AcDbMText
10
31.120104
20
-23.061842
30
0
210
0
220
0
230
1
1
\W0.9458;%%c10
40
3.5
41
0
44
1.084337
50
90
71
7
72
5
7
iso_b_vert
0
LINE
5
196
100
AcDbEntity
8
2
62
256
6
ByLayer
370
13
48
1
60
0
100
AcDbLine
10
21.5875
20
-5
30
0
11
35.170104
21
-5
31
0
39
0
210
0
220
0
230
1
0
LINE
5
197
100
AcDbEntity
8
2
62
256
6
ByLayer
370
13
48
1
60
0
100
AcDbLine
10
21.5875
20
5
30
0
11
35.170104
21
5
31
0
39
0
210
0
220
0
230
1
0
LINE
5
198
100
AcDbEntity
8
2
62
256
6
ByLayer
370
13
48
1
60
0
100
AcDbLine
10
31.995104
20
5
30
0
11
31.995104
21
-24.199342
31
0
39
0
210
0
220
0
230
1
0
LINE
5
199
100
AcDbEntity
8
2
62
256
6
ByLayer
370
13
48
1
60
0
100
AcDbLine
10
31.995104
20
-5
30
0
11
31.577107
21
-1.825002
31
0
39
0
210
0
220
0
230
1
0
LINE
5
19A
100
AcDbEntity
8
2
62
256
6
ByLayer
370
13
48
1
60
0
100
AcDbLine
10
31.995104
20
-5
30
0
11
32.413101
21
-1.824998
31
0
39
0
210
0
220
0
230
1
0
LINE
5
19B
100
AcDbEntity
8
2
62
256
6
ByLayer
370
13
48
1
60
0
100
AcDbLine
10
31.577107
20
-1.825002
30
0
11
32.413101
21
-1.824998
31
0
39
0
210
0
220
0
230
1
0
LINE
5
19C
100
AcDbEntity
8
2
62
256
6
ByLayer
370
13
48
1
60
0
100
AcDbLine
10
31.995104
20
5
30
0
11
32.413101
21
1.825002
31
0
39
0
210
0
220
0
230
1
0
LINE
5
19D
100
AcDbEntity
8
2
62
256
6
ByLayer
370
13
48
1
60
0
100
AcDbLine
10
31.995104
20
5
30
0
11
31.577107
21
1.824998
31
0
39
0
210
0
220
0
230
1
0
LINE
5
19E
100
AcDbEntity
8
2
62
256
6
ByLayer
370
13
48
1
60
0
100
AcDbLine
10
32.413101
20
1.825002
30
0
11
31.577107
21
1.824998
31
0
39
0
210
0
220
0
230
1
0
ENDBLK
5
1A0
100
AcDbEntity
8
0
100
AcDbBlockEnd
0
BLOCK
5
1A3
100
AcDbEntity
8
0
100
AcDbBlockBegin
2
_CLOSED
70
0
10
0
20
0
30
0
3
_CLOSED
0
LINE
5
1A5
100
AcDbEntity
8
0
62
256
6
ByLayer
370
-2
48
1
60
0
100
AcDbLine
10
-1
20
0.166667
30
0
11
0
21
0
31
0
39
0
210
0
220
0
230
1
0
LINE
5
1A6
100
AcDbEntity
8
0
62
256
6
ByLayer
370
-2
48
1
60
0
100
AcDbLine
10
0
20
0
30
0
11
-1
21
-0.166667
31
0
39
0
210
0
220
0
230
1
0
LINE
5
1A7
100
AcDbEntity
8
0
62
256
6
ByLayer
370
-2
48
1
60
0
100
AcDbLine
10
-1
20
0.166667
30
0
11
-1
21
-0.166667
31
0
39
0
210
0
220
0
230
1
0
LINE
5
1A8
100
AcDbEntity
8
0
62
256
6
ByLayer
370
-2
48
1
60
0
100
AcDbLine
10
0
20
0
30
0
11
-1
21
0
31
0
39
0
210
0
220
0
230
1
0
ENDBLK
5
1A4
100
AcDbEntity
8
0
100
AcDbBlockEnd
0
BLOCK
5
1B5
100
AcDbEntity
8
0
100
AcDbBlockBegin
2
DimnDraft3D2
70
0
10
0
20
0
30
0
3
DimnDraft3D2
0
MTEXT
5
1AA
100
AcDbEntity
8
SK2
62
256
6
ByLayer
370
18
48
1
60
0
100
AcDbMText
10
-34.925
20
17.1
30
0
210
0
220
0
230
1
1
\W1.0543;%%c9.7
40
3.5
41
0
44
1.084337
50
90
71
7
72
5
7
iso_b_vert
0
LINE
5
1AC
100
AcDbEntity
8
SK2
62
256
6
ByLayer
370
13
48
1
60
0
100
AcDbLine
10
-1.5875
20
4.85
30
0
11
-37.225
21
4.85
31
0
39
0
210
0
220
0
230
1
0
LINE
5
1AD
100
AcDbEntity
8
SK2
62
256
6
ByLayer
370
13
48
1
60
0
100
AcDbLine
10
-1.5875
20
-4.85
30
0
11
-37.225
21
-4.85
31
0
39
0
210
0
220
0
230
1
0
LINE
5
1AE
100
AcDbEntity
8
SK2
62
256
6
ByLayer
370
13
48
1
60
0
100
AcDbLine
10
-34.05
20
-4.85
30
0
11
-34.05
21
26.715789
31
0
39
0
210
0
220
0
230
1
0
LINE
5
1AF
100
AcDbEntity
8
SK2
62
256
6
ByLayer
370
13
48
1
60
0
100
AcDbLine
10
-34.05
20
4.85
30
0
11
-33.632003
21
1.675002
31
0
39
0
210
0
220
0
230
1
0
LINE
5
1B0
100
AcDbEntity
8
SK2
62
256
6
ByLayer
370
13
48
1
60
0
100
AcDbLine
10
-34.05
20
4.85
30
0
11
-34.467997
21
1.674998
31
0
39
0
210
0
220
0
230
1
0
LINE
5
1B1
100
AcDbEntity
8
SK2
62
256
6
ByLayer
370
13
48
1
60
0
100
AcDbLine
10
-33.632003
20
1.675002
30
0
11
-34.467997
21
1.674998
31
0
39
0
210
0
220
0
230
1
0
LINE
5
1B2
100
AcDbEntity
8
SK2
62
256
6
ByLayer
370
13
48
1
60
0
100
AcDbLine
10
-34.05
20
-4.85
30
0
11
-34.467997
21
-1.675002
31
0
39
0
210
0
220
0
230
1
0
LINE
5
1B3
100
AcDbEntity
8
SK2
62
256
6
ByLayer
370
13
48
1
60
0
100
AcDbLine
10
-34.05
20
-4.85
30
0
11
-33.632003
21
-1.674998
31
0
39
0
210
0
220
0
230
1
0
LINE
5
1B4
100
AcDbEntity
8
SK2
62
256
6
ByLayer
370
13
48
1
60
0
100
AcDbLine
10
-34.467997
20
-1.675002
30
0
11
-33.632003
21
-1.674998
31
0
39
0
210
0
220
0
230
1
0
ENDBLK
5
1B6
100
AcDbEntity
8
0
100
AcDbBlockEnd
0
BLOCK
5
1C3
100
AcDbEntity
8
0
100
AcDbBlockBegin
2
DimnDraft3D3
70
0
10
0
20
0
30
0
3
DimnDraft3D3
0
MTEXT
5
1B9
100
AcDbEntity
8
2
62
256
6
ByLayer
370
18
48
1
60
0
100
AcDbMText
10
8.576974
20
34.375
30
0
210
0
220
0
230
1
1
\W0.8247;20
40
3.5
41
0
44
1.084337
50
0
71
7
72
5
7
iso_b_vert
0
LINE
5
1BA
100
AcDbEntity
8
2
62
256
6
ByLayer
370
13
48
1
60
0
100
AcDbLine
10
0
20
6.4375
30
0
11
0
21
36.675
31
0
39
0
210
0
220
0
230
1
0
LINE
5
1BB
100
AcDbEntity
8
2
62
256
6
ByLayer
370
13
48
1
60
0
100
AcDbLine
10
20
20
6.5875
30
0
11
20
21
36.675
31
0
39
0
210
0
220
0
230
1
0
LINE
5
1BC
100
AcDbEntity
8
2
62
256
6
ByLayer
370
13
48
1
60
0
100
AcDbLine
10
0
20
33.5
30
0
11
20
21
33.5
31
0
39
0
210
0
220
0
230
1
0
LINE
5
1BD
100
AcDbEntity
8
2
62
256
6
ByLayer
370
13
48
1
60
0
100
AcDbLine
10
0
20
33.5
30
0
11
3.174998
21
33.917997
31
0
39
0
210
0
220
0
230
1
0
LINE
5
1BE
100
AcDbEntity
8
2
62
256
6
ByLayer
370
13
48
1
60
0
100
AcDbLine
10
0
20
33.5
30
0
11
3.175002
21
33.082003
31
0
39
0
210
0
220
0
230
1
0
LINE
5
1BF
100
AcDbEntity
8
2
62
256
6
ByLayer
370
13
48
1
60
0
100
AcDbLine
10
3.174998
20
33.917997
30
0
11
3.175002
21
33.082003
31
0
39
0
210
0
220
0
230
1
0
LINE
5
1C0
100
AcDbEntity
8
2
62
256
6
ByLayer
370
13
48
1
60
0
100
AcDbLine
10
20
20
33.5
30
0
11
16.825002
21
33.082003
31
0
39
0
210
0
220
0
230
1
0
LINE
5
1C1
100
AcDbEntity
8
2
62
256
6
ByLayer
370
13
48
1
60
0
100
AcDbLine
10
20
20
33.5
30
0
11
16.824998
21
33.917997
31
0
39
0
210
0
220
0
230
1
0
LINE
5
1C2
100
AcDbEntity
8
2
62
256
6
ByLayer
370
13
48
1
60
0
100
AcDbLine
10
16.825002
20
33.082003
30
0
11
16.824998
21
33.917997
31
0
39
0
210
0
220
0
230
1
0
ENDBLK
5
1C4
100
AcDbEntity
8
0
100
AcDbBlockEnd
0
BLOCK
5
1D1
100
AcDbEntity
8
0
100
AcDbBlockBegin
2
DimnDraft3D4
70
0
10
0
20
0
30
0
3
DimnDraft3D4
0
MTEXT
5
1C7
100
AcDbEntity
8
2
62
256
6
ByLayer
370
18
48
1
60
0
100
AcDbMText
10
10.588487
20
24.375
30
0
210
0
220
0
230
1
1
\W0.7689;12.5
40
3.5
41
0
44
1.084337
50
0
71
7
72
5
7
iso_b_vert
0
LINE
5
1C8
100
AcDbEntity
8
2
62
256
6
ByLayer
370
13
48
1
60
0
100
AcDbLine
10
7.5
20
6.2375
30
0
11
7.5
21
26.675
31
0
39
0
210
0
220
0
230
1
0
LINE
5
1C9
100
AcDbEntity
8
2
62
256
6
ByLayer
370
13
48
1
60
0
100
AcDbLine
10
20
20
6.5875
30
0
11
20
21
26.675
31
0
39
0
210
0
220
0
230
1
0
LINE
5
1CA
100
AcDbEntity
8
2
62
256
6
ByLayer
370
13
48
1
60
0
100
AcDbLine
10
-1.25
20
23.5
30
0
11
28.75
21
23.5
31
0
39
0
210
0
220
0
230
1
0
LINE
5
1CB
100
AcDbEntity
8
2
62
256
6
ByLayer
370
13
48
1
60
0
100
AcDbLine
10
7.5
20
23.5
30
0
11
4.325002
21
23.082003
31
0
39
0
210
0
220
0
230
1
0
LINE
5
1CC
100
AcDbEntity
8
2
62
256
6
ByLayer
370
13
48
1
60
0
100
AcDbLine
10
7.5
20
23.5
30
0
11
4.324998
21
23.917997
31
0
39
0
210
0
220
0
230
1
0
LINE
5
1CD
100
AcDbEntity
8
2
62
256
6
ByLayer
370
13
48
1
60
0
100
AcDbLine
10
4.325002
20
23.082003
30
0
11
4.324998
21
23.917997
31
0
39
0
210
0
220
0
230
1
0
LINE
5
1CE
100
AcDbEntity
8
2
62
256
6
ByLayer
370
13
48
1
60
0
100
AcDbLine
10
20
20
23.5
30
0
11
23.174998
21
23.917997
31
0
39
0
210
0
220
0
230
1
0
LINE
5
1CF
100
AcDbEntity
8
2
62
256
6
ByLayer
370
13
48
1
60
0
100
AcDbLine
10
20
20
23.5
30
0
11
23.175002
21
23.082003
31
0
39
0
210
0
220
0
230
1
0
LINE
5
1D0
100
AcDbEntity
8
2
62
256
6
ByLayer
370
13
48
1
60
0
100
AcDbLine
10
23.174998
20
23.917997
30
0
11
23.175002
21
23.082003
31
0
39
0
210
0
220
0
230
1
0
ENDBLK
5
1D2
100
AcDbEntity
8
0
100
AcDbBlockEnd
0
BLOCK
5
1DF
100
AcDbEntity
8
0
100
AcDbBlockBegin
2
DimnDraft3D5
70
0
10
0
20
0
30
0
3
DimnDraft3D5
0
MTEXT
5
1D5
100
AcDbEntity
8
SK2
62
256
6
ByLayer
370
18
48
1
60
0
100
AcDbMText
10
32.25
20
14.375
30
0
210
0
220
0
230
1
1
\W0.8447;5.8
40
3.5
41
0
44
1.084337
50
0
71
7
72
5
7
iso_b_vert
0
LINE
5
1D6
100
AcDbEntity
8
SK2
62
256
6
ByLayer
370
13
48
1
60
0
100
AcDbLine
10
14.2
20
6.5875
30
0
11
14.2
21
16.675
31
0
39
0
210
0
220
0
230
1
0
LINE
5
1D7
100
AcDbEntity
8
SK2
62
256
6
ByLayer
370
13
48
1
60
0
100
AcDbLine
10
20
20
6.5875
30
0
11
20
21
16.675
31
0
39
0
210
0
220
0
230
1
0
LINE
5
1D8
100
AcDbEntity
8
SK2
62
256
6
ByLayer
370
13
48
1
60
0
100
AcDbLine
10
37.7625
20
13.5
30
0
11
5.45
21
13.5
31
0
39
0
210
0
220
0
230
1
0
LINE
5
1D9
100
AcDbEntity
8
SK2
62
256
6
ByLayer
370
13
48
1
60
0
100
AcDbLine
10
14.2
20
13.5
30
0
11
11.025002
21
13.082003
31
0
39
0
210
0
220
0
230
1
0
LINE
5
1DA
100
AcDbEntity
8
SK2
62
256
6
ByLayer
370
13
48
1
60
0
100
AcDbLine
10
14.2
20
13.5
30
0
11
11.024998
21
13.917997
31
0
39
0
210
0
220
0
230
1
0
LINE
5
1DB
100
AcDbEntity
8
SK2
62
256
6
ByLayer
370
13
48
1
60
0
100
AcDbLine
10
11.025002
20
13.082003
30
0
11
11.024998
21
13.917997
31
0
39
0
210
0
220
0
230
1
0
LINE
5
1DC
100
AcDbEntity
8
SK2
62
256
6
ByLayer
370
13
48
1
60
0
100
AcDbLine
10
20
20
13.5
30
0
11
23.174998
21
13.917997
31
0
39
0
210
0
220
0
230
1
0
LINE
5
1DD
100
AcDbEntity
8
SK2
62
256
6
ByLayer
370
13
48
1
60
0
100
AcDbLine
10
20
20
13.5
30
0
11
23.175002
21
13.082003
31
0
39
0
210
0
220
0
230
1
0
LINE
5
1DE
100
AcDbEntity
8
SK2
62
256
6
ByLayer
370
13
48
1
60
0
100
AcDbLine
10
23.174998
20
13.917997
30
0
11
23.175002
21
13.082003
31
0
39
0
210
0
220
0
230
1
0
ENDBLK
5
1E0
100
AcDbEntity
8
0
100
AcDbBlockEnd
0
ENDSEC
0
SECTION
2
ENTITIES
0
ARC
5
C0
100
AcDbEntity
8
1
62
256
6
ByLayer
370
18
48
1
60
0
100
AcDbCircle
39
0
10
-7.419615
20
-5.15
30
0
40
0.6
210
0
220
0
230
-1
100
AcDbArc
50
30
51
90
0
ARC
5
C1
100
AcDbEntity
8
1
62
256
6
ByLayer
370
18
48
1
60
0
100
AcDbCircle
39
0
10
-7.419615
20
5.15
30
0
40
0.6
210
0
220
0
230
-1
100
AcDbArc
50
270
51
330
0
ARC
5
C2
100
AcDbEntity
8
1
62
256
6
ByLayer
370
18
48
1
60
0
100
AcDbCircle
39
0
10
-7.895588
20
-5.15
30
0
40
0.6
210
0
220
0
230
-1
100
AcDbArc
50
90
51
90.842524
0
ARC
5
C3
100
AcDbEntity
8
1
62
256
6
ByLayer
370
18
48
1
60
0
100
AcDbCircle
39
0
10
-7.895588
20
5.15
30
0
40
0.6
210
0
220
0
230
-1
100
AcDbArc
50
269.157476
51
270
0
ARC
5
C4
100
AcDbEntity
8
SK1
62
256
6
ByLayer
370
18
48
1
60
0
100
AcDbCircle
39
0
10
0.3
20
3.913613
30
0
40
0.3
210
0
220
0
230
-1
100
AcDbArc
50
180
51
267.8
0
ARC
5
C5
100
AcDbEntity
8
SK1
62
256
6
ByLayer
370
18
48
1
60
0
100
AcDbCircle
39
0
10
0.3
20
-3.913613
30
0
40
0.3
210
0
220
0
230
-1
100
AcDbArc
50
92.2
51
180
0
ARC
5
C6
100
AcDbEntity
8
SK1
62
256
6
ByLayer
370
18
48
1
60
0
100
AcDbCircle
39
0
10
8.2
20
2.7
30
0
40
0.5
210
0
220
0
230
-1
100
AcDbArc
50
180
51
270
0
ARC
5
C7
100
AcDbEntity
8
SK1
62
256
6
ByLayer
370
18
48
1
60
0
100
AcDbCircle
39
0
10
8.2
20
-2.7
30
0
40
0.5
210
0
220
0
230
-1
100
AcDbArc
50
90
51
180
0
ELLIPSE
5
C8
100
AcDbEntity
8
1
62
256
6
ByLayer
370
18
48
1
60
0
100
AcDbEllipse
10
16.611974
20
0.144695
30
0
11
33.2860049819138
21
1.40785505047286
31
0
210
0
220
0
230
-1
40
0.133289
41
-1.79420228761983
42
-1.67388447023882
0
ELLIPSE
5
C9
100
AcDbEntity
8
1
62
256
6
ByLayer
370
18
48
1
60
0
100
AcDbEllipse
10
17.688838
20
-0.003477
30
0
11
0.200784382308569
21
4.74616896335549
31
0
210
0
220
0
230
-1
40
0.134025
41
1.87762512619414
42
1.89355149419374
0
ELLIPSE
5
CA
100
AcDbEntity
8
1
62
256
6
ByLayer
370
18
48
1
60
0
100
AcDbEllipse
10
13.242882
20
2.103818
30
0
11
0.774032648281289
21
0.303421451041099
31
0
210
0
220
0
230
-1
40
0.853775
41
-2.09229408773812
42
-1.79226503431647
0
ELLIPSE
5
CB
100
AcDbEntity
8
1
62
256
6
ByLayer
370
18
48
1
60
0
100
AcDbEllipse
10
13.509678
20
6.42818
30
0
11
4.51559432626533
21
2.1469531621811
31
0
210
0
220
0
230
1
40
0.946017
41
-3.1128137162657
42
-2.96305206258837
0
ELLIPSE
5
CC
100
AcDbEntity
8
1
62
256
6
ByLayer
370
18
48
1
60
0
100
AcDbEllipse
10
17.238146
20
-1.434504
30
0
11
-1
21
1.01063905508236E-15
31
0
210
0
220
0
230
1
40
0.295593
41
2.2065674832461
42
3.00196631343032
0
ELLIPSE
5
CD
100
AcDbEntity
8
1
62
256
6
ByLayer
370
18
48
1
60
0
100
AcDbEllipse
10
13.128945
20
-1E-06
30
0
11
32.9080598455302
21
1.3921488502994
31
0
210
0
220
0
230
-1
40
0.134025
41
-1.56904483812018
42
-1.5489971737795
0
ELLIPSE
5
CE
100
AcDbEntity
8
1
62
256
6
ByLayer
370
18
48
1
60
0
100
AcDbEllipse
10
106.36143
20
-1.869717
30
0
11
112.916032509984
21
2.99201505120332
31
0
210
0
220
0
230
-1
40
0.007522
41
-2.50386902940356
42
-2.45953328274466
0
ELLIPSE
5
CF
100
AcDbEntity
8
1
62
256
6
ByLayer
370
18
48
1
60
0
100
AcDbEllipse
10
-55.245691
20
2.927254
30
0
11
179.137899710673
21
-5.59394372616536
31
0
210
0
220
0
230
-1
40
0.010725
41
-1.16580423397153
42
-1.1456616519819
0
ELLIPSE
5
D0
100
AcDbEntity
8
1
62
256
6
ByLayer
370
18
48
1
60
0
100
AcDbEllipse
10
17.089244
20
-1.641488
30
0
11
0.67733914893981
21
-0.322042974327176
31
0
210
0
220
0
230
1
40
0.946017
41
0.422676424048723
42
-2.71891622954108
0
ELLIPSE
5
D1
100
AcDbEntity
8
1
62
256
6
ByLayer
370
18
48
1
60
0
100
AcDbEllipse
10
38.506479
20
-3.3E-05
30
0
11
137.3669183351
21
-4.28975080162761
31
0
210
0
220
0
230
-1
40
0.012586
41
-1.75781591039947
42
-1.75100559285411
0
ELLIPSE
5
D2
100
AcDbEntity
8
1
62
256
6
ByLayer
370
18
48
1
60
0
100
AcDbEllipse
10
17.188633
20
-1.432447
30
0
11
0.948274808515732
21
-0.450860164058046
31
0
210
0
220
0
230
1
40
0.946017
41
0.42267642404872
42
3.14155575449883
0
ELLIPSE
5
D3
100
AcDbEntity
8
1
62
256
6
ByLayer
370
18
48
1
60
0
100
AcDbEllipse
10
18.804221
20
-0.310111
30
0
11
22.5346723047756
21
-4.42999407806092
31
0
210
0
220
0
230
-1
40
0.070849
41
-1.89926483866338
42
-1.88787095592685
0
ELLIPSE
5
D4
100
AcDbEntity
8
1
62
256
6
ByLayer
370
18
48
1
60
0
100
AcDbEllipse
10
17.13912
20
-1.43039
30
0
11
1
21
0
31
0
210
0
220
0
230
1
40
0.295593
41
-3.07745632163922
42
-2.48582016356519
0
ELLIPSE
5
D5
100
AcDbEntity
8
1
62
256
6
ByLayer
370
18
48
1
60
0
100
AcDbEllipse
10
15.344146
20
-4.139522
30
0
11
6.03917088181764
21
4.63522142845201
31
0
210
0
220
0
230
-1
40
0.092784
41
-1.65484856153585
42
-1.62643759081793
0
ELLIPSE
5
D6
100
AcDbEntity
8
1
62
256
6
ByLayer
370
18
48
1
60
0
100
AcDbEllipse
10
13.128945
20
-1E-06
30
0
11
32.9080525277516
21
-1.39214851375413
31
0
210
0
220
0
230
-1
40
0.134025
41
1.54412881905351
42
1.56904484383556
0
ELLIPSE
5
D7
100
AcDbEntity
8
1
62
256
6
ByLayer
370
18
48
1
60
0
100
AcDbEllipse
10
16.611974
20
-0.144695
30
0
11
33.2860049861439
21
-1.40785505048861
31
0
210
0
220
0
230
-1
40
0.133289
41
1.67388447026293
42
1.79420228762898
0
ELLIPSE
5
D8
100
AcDbEntity
8
1
62
256
6
ByLayer
370
18
48
1
60
0
100
AcDbEllipse
10
16.616497
20
2.920348
30
0
11
-1.0837426383037
21
-0.515268758923476
31
0
210
0
220
0
230
1
40
0.946017
41
-0.465712908437882
42
-0.0766459395976272
0
ELLIPSE
5
D9
100
AcDbEntity
8
1
62
256
6
ByLayer
370
18
48
1
60
0
100
AcDbEllipse
10
16.616497
20
2.920348
30
0
11
-1.0837426383037
21
-0.515268758923476
31
0
210
0
220
0
230
1
40
0.946017
41
2.21269123816084
42
-0.465712908437886
0
ELLIPSE
5
DA
100
AcDbEntity
8
1
62
256
6
ByLayer
370
18
48
1
60
0
100
AcDbEllipse
10
16.61482
20
2.923874
30
0
11
-0.857962921990428
21
-0.407921100814419
31
0
210
0
220
0
230
1
40
0.946017
41
-0.465712862614606
42
-9.88274684615522E-16
0
ELLIPSE
5
DB
100
AcDbEntity
8
1
62
256
6
ByLayer
370
18
48
1
60
0
100
AcDbEllipse
10
16.61482
20
2.923874
30
0
11
-0.857962921990428
21
-0.407921100814419
31
0
210
0
220
0
230
1
40
0.946017
41
0
42
0.0510791638527999
0
ELLIPSE
5
DC
100
AcDbEntity
8
1
62
256
6
ByLayer
370
18
48
1
60
0
100
AcDbEllipse
10
16.61482
20
2.923874
30
0
11
-0.857962921990428
21
-0.407921100814419
31
0
210
0
220
0
230
1
40
0.946017
41
2.08506401040977
42
-0.46571286261461
0
ELLIPSE
5
DD
100
AcDbEntity
8
1
62
256
6
ByLayer
370
18
48
1
60
0
100
AcDbEllipse
10
16.705283
20
2.733608
30
0
11
-1.0837426383037
21
-0.515268758923476
31
0
210
0
220
0
230
1
40
0.946017
41
2.54854745966379
42
3.14152298136742
0
ELLIPSE
5
DE
100
AcDbEntity
8
1
62
256
6
ByLayer
370
18
48
1
60
0
100
AcDbEllipse
10
16.61482
20
2.923874
30
0
11
0.791403061621276
21
0.376275011203867
31
0
210
0
220
0
230
1
40
0.946017
41
-1.10949061421799
42
-0.946275199647022
0
ELLIPSE
5
DF
100
AcDbEntity
8
1
62
256
6
ByLayer
370
18
48
1
60
0
100
AcDbEllipse
10
17.376108
20
3.116305
30
0
11
0.102649617663626
21
-0.165683990946226
31
0
210
0
220
0
230
-1
40
0.524032
41
-3.13356616943773
42
-1.98633497311915
0
ELLIPSE
5
E0
100
AcDbEntity
8
1
62
256
6
ByLayer
370
18
48
1
60
0
100
AcDbEllipse
10
15.939436
20
2.686868
30
0
11
0.00294018633276207
21
0.196738233866099
31
0
210
0
220
0
230
-1
40
0.514199
41
0.705448338771247
42
1.54174056322777
0
ELLIPSE
5
E1
100
AcDbEntity
8
1
62
256
6
ByLayer
370
18
48
1
60
0
100
AcDbEllipse
10
16.048376
20
3.061147
30
0
11
0.104835956949669
21
0.172964880136075
31
0
210
0
220
0
230
-1
40
0.486636
41
-2.28515862029176
42
-0.0335971090720306
0
ELLIPSE
5
E2
100
AcDbEntity
8
1
62
256
6
ByLayer
370
18
48
1
60
0
100
AcDbEllipse
10
16.712242
20
3.458481
30
0
11
0.203828707122172
21
0.0109794496334529
31
0
210
0
220
0
230
-1
40
0.477768
41
-3.1158780398662
42
-0.68818721429985
0
ELLIPSE
5
E3
100
AcDbEntity
8
1
62
256
6
ByLayer
370
18
48
1
60
0
100
AcDbEllipse
10
16.712242
20
2.718972
30
0
11
0.612495214414641
21
0.29121272691825
31
0
210
0
220
0
230
1
40
0.946017
41
2.71891622954107
42
3.07975828132509
0
ELLIPSE
5
E4
100
AcDbEntity
8
1
62
256
6
ByLayer
370
18
48
1
60
0
100
AcDbEllipse
10
16.712242
20
2.718972
30
0
11
-0.61249521441464
21
-0.291212726918251
31
0
210
0
220
0
230
1
40
0.946017
41
-3.12032216244632
42
-2.51707152644192
0
ELLIPSE
5
E5
100
AcDbEntity
8
1
62
256
6
ByLayer
370
18
48
1
60
0
100
AcDbEllipse
10
16.712242
20
2.718972
30
0
11
-0.61249521441464
21
-0.291212726918251
31
0
210
0
220
0
230
1
40
0.946017
41
2.22930173206211
42
2.61386915486538
0
ELLIPSE
5
E6
100
AcDbEntity
8
1
62
256
6
ByLayer
370
18
48
1
60
0
100
AcDbEllipse
10
16.943474
20
-3.855503
30
0
11
0.00168007976227174
21
0.0819827868030387
31
0
210
0
220
0
230
1
40
0.139371
41
1.24007380798825
42
1.85332904599076
0
ELLIPSE
5
E7
100
AcDbEntity
8
1
62
256
6
ByLayer
370
18
48
1
60
0
100
AcDbEllipse
10
19.313194
20
-2.427294
30
0
11
0.0820000000000005
21
0
31
0
210
0
220
0
230
1
40
0.295593
41
-1.95252350053789
42
-1.72787596071898
0
ELLIPSE
5
E8
100
AcDbEntity
8
1
62
256
6
ByLayer
370
18
48
1
60
0
100
AcDbEllipse
10
16.680774
20
2.785156
30
0
11
-1.17249707266886
21
-0.557467326764153
31
0
210
0
220
0
230
1
40
0.946017
41
-0.465713126439968
42
-0.223908441922732
0
ELLIPSE
5
E9
100
AcDbEntity
8
1
62
256
6
ByLayer
370
18
48
1
60
0
100
AcDbEllipse
10
16.680774
20
2.785156
30
0
11
-1.17249707266886
21
-0.557467326764153
31
0
210
0
220
0
230
1
40
0.946017
41
3.053165288857
42
-2.4228266933584
0
ELLIPSE
5
EA
100
AcDbEntity
8
1
62
256
6
ByLayer
370
18
48
1
60
0
100
AcDbEllipse
10
16.680774
20
2.785156
30
0
11
-1.17249707266886
21
-0.557467326764153
31
0
210
0
220
0
230
1
40
0.946017
41
-0.718905924426149
42
-0.465713126439971
0
ELLIPSE
5
EB
100
AcDbEntity
8
1
62
256
6
ByLayer
370
18
48
1
60
0
100
AcDbEllipse
10
16.706575
20
2.730891
30
0
11
-1.09891899188821
21
-0.522484402748947
31
0
210
0
220
0
230
1
40
0.946017
41
2.71888052074614
42
-2.97525658482231
0
ELLIPSE
5
EC
100
AcDbEntity
8
1
62
256
6
ByLayer
370
18
48
1
60
0
100
AcDbEllipse
10
19.313194
20
-3.6567
30
0
11
0.0820000000000006
21
0
31
0
210
0
220
0
230
1
40
0.295594
41
-2.41101784608177
42
-1.72787596037007
0
ELLIPSE
5
ED
100
AcDbEntity
8
1
62
256
6
ByLayer
370
18
48
1
60
0
100
AcDbEllipse
10
19.059478
20
-3.898867
30
0
11
-0.00168008000896896
21
-0.0819827867979835
31
0
210
0
220
0
230
1
40
0.139371
41
-2.22099629643382
42
-1.2882636071797
0
ELLIPSE
5
EE
100
AcDbEntity
8
1
62
256
6
ByLayer
370
18
48
1
60
0
100
AcDbEllipse
10
15.365015
20
-3.823156
30
0
11
-0.00168007948396784
21
-0.0819827868087413
31
0
210
0
220
0
230
1
40
0.139371
41
-2.14441462184921
42
-1.28826361111187
0
ELLIPSE
5
EF
100
AcDbEntity
8
1
62
256
6
ByLayer
370
18
48
1
60
0
100
AcDbEllipse
10
17.098644
20
3.38067
30
0
11
0.178269052679197
21
-0.0878708340531602
31
0
210
0
220
0
230
-1
40
0.50396
41
0.28201336717659
42
1.60640931423226
0
ELLIPSE
5
F0
100
AcDbEntity
8
1
62
256
6
ByLayer
370
18
48
1
60
0
100
AcDbEllipse
10
16.325839
20
3.348565
30
0
11
0.176915160375236
21
0.105129044622108
31
0
210
0
220
0
230
-1
40
0.470047
41
0.239684125649924
42
1.56408007270795
0
ELLIPSE
5
F1
100
AcDbEntity
8
1
62
256
6
ByLayer
370
18
48
1
60
0
100
AcDbEllipse
10
17.098644
20
3.38067
30
0
11
0.178269052679261
21
-0.0878708340529604
31
0
210
0
220
0
230
-1
40
0.50396
41
1.60640931423449
42
2.93080526129036
0
ELLIPSE
5
F2
100
AcDbEntity
8
1
62
256
6
ByLayer
370
18
48
1
60
0
100
AcDbEllipse
10
16.325839
20
3.348565
30
0
11
0.176915160375516
21
0.105129044622152
31
0
210
0
220
0
230
-1
40
0.470047
41
1.56408007270677
42
2.88847601976342
0
ELLIPSE
5
F3
100
AcDbEntity
8
1
62
256
6
ByLayer
370
18
48
1
60
0
100
AcDbEllipse
10
15.939436
20
2.686868
30
0
11
0.0029401863324581
21
0.196738233866
31
0
210
0
220
0
230
-1
40
0.514199
41
1.54174056323103
42
2.86613651028672
0
ELLIPSE
5
F4
100
AcDbEntity
8
1
62
256
6
ByLayer
370
18
48
1
60
0
100
AcDbEllipse
10
16.712242
20
2.718972
30
0
11
-0.61249521441464
21
-0.291212726918251
31
0
210
0
220
0
230
1
40
0.946017
41
-1.46987397524532
42
-0.422676424048726
0
ELLIPSE
5
F5
100
AcDbEntity
8
1
62
256
6
ByLayer
370
18
48
1
60
0
100
AcDbEllipse
10
16.712242
20
2.718972
30
0
11
-0.61249521441464
21
-0.291212726918251
31
0
210
0
220
0
230
1
40
0.946017
41
-2.51707152644192
42
-1.46987397524532
0
ELLIPSE
5
F6
100
AcDbEntity
8
1
62
256
6
ByLayer
370
18
48
1
60
0
100
AcDbEllipse
10
16.61482
20
2.923874
30
0
11
0.791403061621276
21
0.376275011203867
31
0
210
0
220
0
230
1
40
0.946017
41
2.19531745394277
42
-3.04067030204023
0
ELLIPSE
5
F7
100
AcDbEntity
8
1
62
256
6
ByLayer
370
18
48
1
60
0
100
AcDbEllipse
10
16.61482
20
2.923874
30
0
11
0.791403061621276
21
0.376275011203867
31
0
210
0
220
0
230
1
40
0.946017
41
1.14811990274617
42
2.19531745394277
0
ELLIPSE
5
F8
100
AcDbEntity
8
1
62
256
6
ByLayer
370
18
48
1
60
0
100
AcDbEllipse
10
16.61482
20
2.923874
30
0
11
0.791403061621276
21
0.376275011203867
31
0
210
0
220
0
230
1
40
0.946017
41
-0.946275199647022
42
0.100922351549577
0
ELLIPSE
5
F9
100
AcDbEntity
8
1
62
256
6
ByLayer
370
18
48
1
60
0
100
AcDbEllipse
10
16.61482
20
2.923874
30
0
11
0.791403061621276
21
0.376275011203867
31
0
210
0
220
0
230
1
40
0.946017
41
0.100922351549578
42
1.14811990274617
0
ELLIPSE
5
FA
100
AcDbEntity
8
1
62
256
6
ByLayer
370
18
48
1
60
0
100
AcDbEllipse
10
17.143678
20
-1.81155
30
0
11
-0.632183205677156
21
0.300573442705365
31
0
210
0
220
0
230
1
40
0.946017
41
0
42
6.28318530717959
0
POINT
5
6C
100
AcDbEntity
8
81
62
256
6
ByLayer
370
18
48
1
60
0
100
AcDbPoint
10
20
20
5
30
0
39
0
210
0
220
0
230
1
50
360
0
POINT
5
6E
100
AcDbEntity
8
80
62
256
6
ByLayer
370
18
48
1
60
0
100
AcDbPoint
10
0
20
0
30
0
39
0
210
0
220
0
230
1
50
360
0
POINT
5
70
100
AcDbEntity
8
2
62
256
6
ByLayer
370
18
48
1
60
0
100
AcDbPoint
10
16.571989
20
3.013959
30
0
39
0
210
0
220
0
230
1
50
360
0
SPLINE
5
FB
100
AcDbEntity
8
1
62
256
6
ByLayer
370
18
48
1
60
0
100
AcDbSpline
70
4
71
2
72
6
73
3
40
0
40
0
40
0
40
1
40
1
40
1
41
1
10
16.2451818139399
20
-0.992101972042803
30
0
41
1
10
16.1742950071425
20
-1.10380599052306
30
0
41
1
10
16.1654913467595
20
-1.2351354328286
30
0
0
SPLINE
5
FC
100
AcDbEntity
8
1
62
256
6
ByLayer
370
18
48
1
60
0
100
AcDbSpline
70
4
71
3
72
18
73
14
40
0
40
0
40
0
40
0
40
0.125000000000001
40
0.125000000000001
40
0.250000000000002
40
0.250000000000002
40
0.375000000000004
40
0.375000000000004
40
0.500000000000005
40
0.500000000000005
40
0.750000000000002
40
0.750000000000002
40
1
40
1
40
1
40
1
41
1
10
18.6932186534285
20
-3.65692137870923
30
0
41
1
10
18.7286396433065
20
-3.65565439936989
30
0
41
1
10
18.7633557581405
20
-3.65776996325704
30
0
41
1
10
18.8259973163779
20
-3.6668144332329
30
0
41
1
10
18.8540288388254
20
-3.67363848869991
30
0
41
1
10
18.9030135153835
20
-3.6892704447844
30
0
41
1
10
18.9246581969404
20
-3.69827910470047
30
0
41
1
10
18.9628879628459
20
-3.71718995358447
30
0
41
1
10
18.9796256569209
20
-3.72714192224098
30
0
41
1
10
19.0250193739519
20
-3.75800449113362
30
0
41
1
10
19.0489386340752
20
-3.77997499071282
30
0
41
1
10
19.088582792164
20
-3.82439635119061
30
0
41
1
10
19.1044256912187
20
-3.84702594203213
30
0
41
1
10
19.1177209277205
20
-3.86992373960422
30
0
0
SPLINE
5
FD
100
AcDbEntity
8
1
62
256
6
ByLayer
370
18
48
1
60
0
100
AcDbSpline
70
4
71
3
72
12
73
8
40
0
40
0
40
0
40
0
40
0.249999999999997
40
0.249999999999997
40
0.499999999999994
40
0.499999999999994
40
1
40
1
40
1
40
1
41
1
10
19.2826478337109
20
-3.47956238314103
30
0
41
1
10
19.282647833711
20
-3.51593953708624
30
0
41
1
10
19.2791964363626
20
-3.55197011851575
30
0
41
1
10
19.2650655963195
20
-3.62336358976589
30
0
41
1
10
19.25438424587
20
-3.65834373405229
30
0
41
1
10
19.2125697045315
20
-3.75793187232065
30
0
41
1
10
19.1704077350918
20
-3.81947487887919
30
0
41
1
10
19.1177209277213
20
-3.86992373960547
30
0
0
SPLINE
5
FE
100
AcDbEntity
8
1
62
256
6
ByLayer
370
18
48
1
60
0
100
AcDbSpline
70
4
71
3
72
8
73
4
40
0
40
0
40
0
40
0
40
1
40
1
40
1
40
1
41
1
10
13.938572475726
20
-4.35527092271349
30
0
41
1
10
13.8970054118179
20
-4.38829224485031
30
0
41
1
10
13.8572901605825
20
-4.41858410944403
30
0
41
1
10
13.8198999245308
20
-4.44605672416438
30
0
0
SPLINE
5
FF
100
AcDbEntity
8
1
62
256
6
ByLayer
370
18
48
1
60
0
100
AcDbSpline
70
4
71
3
72
22
73
18
40
0
40
0
40
0
40
0
40
0.124999999999999
40
0.124999999999999
40
0.249999999999998
40
0.249999999999998
40
0.374999999999997
40
0.374999999999997
40
0.499999999999996
40
0.499999999999996
40
0.624999999999997
40
0.624999999999997
40
0.749999999999998
40
0.749999999999998
40
0.874999999999999
40
0.874999999999999
40
1
40
1
40
1
40
1
41
1
10
19.2826478337109
20
2.12595107515389
30
0
41
1
10
19.2826478337109
20
2.14047563866532
30
0
41
1
10
19.2789036364073
20
2.15532843921383
30
0
41
1
10
19.2640795328318
20
2.18445935196965
30
0
41
1
10
19.253111517537
20
2.19872239915372
30
0
41
1
10
19.224071983971
20
2.22664439153826
30
0
41
1
10
19.2057854427249
20
2.24038666233847
30
0
41
1
10
19.1634277673765
20
2.26609630735348
30
0
41
1
10
19.1392609170203
20
2.27820708140644
30
0
41
1
10
19.0848037026579
20
2.3009038063766
30
0
41
1
10
19.0546966111381
20
2.31136662915895
30
0
41
1
10
18.9908602496781
20
2.3298492087948
30
0
41
1
10
18.9567589737665
20
2.33800646098751
30
0
41
1
10
18.8846230008616
20
2.35191289883588
30
0
41
1
10
18.8475980166972
20
2.35747660714884
30
0
41
1
10
18.7717013578061
20
2.36592272569018
30
0
41
1
10
18.732557719825
20
2.36880967400634
30
0
41
1
10
18.6932186534286
20
2.37022934226812
30
0
0
SPLINE
5
100
100
AcDbEntity
8
1
62
256
6
ByLayer
370
18
48
1
60
0
100
AcDbSpline
70
4
71
3
72
10
73
6
40
0
40
0
40
0
40
0
40
0.5
40
0.5
40
1
40
1
40
1
40
1
41
1
10
12.0763888666471
20
2.58808773112892
30
0
41
1
10
12.2270533036356
20
2.56209085498989
30
0
41
1
10
12.3795385839975
20
2.54132404217503
30
0
41
1
10
12.6881652203456
20
2.5107200885295
30
0
41
1
10
12.8441348813915
20
2.50094324124103
30
0
41
1
10
13
20
2.49686792841533
30
0
0
SPLINE
5
101
100
AcDbEntity
8
1
62
256
6
ByLayer
370
18
48
1
60
0
100
AcDbSpline
70
4
71
3
72
10
73
6
40
0
40
0
40
0
40
0
40
0.5
40
0.5
40
1
40
1
40
1
40
1
41
1
10
18.7834740092547
20
-3.8676842708654
30
0
41
1
10
18.8389017161148
20
-3.86885334217314
30
0
41
1
10
18.8946373390818
20
-3.86914759544558
30
0
41
1
10
19.0062838454566
20
-3.86923817092773
30
0
41
1
10
19.0621690123237
20
-3.86910755619905
30
0
41
1
10
19.1177209277213
20
-3.8699237396055
30
0
0
SPLINE
5
102
100
AcDbEntity
8
1
62
256
6
ByLayer
370
18
48
1
60
0
100
AcDbSpline
70
4
71
3
72
16
73
12
40
0
40
0
40
0
40
0
40
0.250000000000001
40
0.250000000000001
40
0.500000000000003
40
0.500000000000003
40
0.750000000000004
40
0.750000000000004
40
0.875000000000002
40
0.875000000000002
40
1
40
1
40
1
40
1
41
1
10
5.30000000000001
20
-2.42538656712699
30
0
41
1
10
5.30000000000001
20
-2.45894171650548
30
0
41
1
10
5.29725009355042
20
-2.4919117878276
30
0
41
1
10
5.28515733429344
20
-2.55657835614042
30
0
41
1
10
5.27576431480111
20
-2.58861121409552
30
0
41
1
10
5.24734116501173
20
-2.64931587747202
30
0
41
1
10
5.22840749913274
20
-2.67818518428493
30
0
41
1
10
5.18856398249977
20
-2.71333330012254
30
0
41
1
10
5.17328148729302
20
-2.72362641994442
30
0
41
1
10
5.13858136178322
20
-2.73845970992363
30
0
41
1
10
5.11951351490313
20
-2.7427176303805
30
0
41
1
10
5.10000000000002
20
-2.7427176303805
30
0
0
SPLINE
5
103
100
AcDbEntity
8
1
62
256
6
ByLayer
370
18
48
1
60
0
100
AcDbSpline
70
4
71
3
72
8
73
4
40
0
40
0
40
0
40
0
40
1
40
1
40
1
40
1
41
1
10
13.938572475726
20
-4.35527092271349
30
0
41
1
10
13.9790927593167
20
-4.32308117410668
30
0
41
1
10
14.0199300932546
20
-4.29045667936478
30
0
41
1
10
14.0609656929613
20
-4.25754610029043
30
0
0
SPLINE
5
104
100
AcDbEntity
8
1
62
256
6
ByLayer
370
18
48
1
60
0
100
AcDbSpline
70
4
71
3
72
18
73
14
40
0
40
0
40
0
40
0
40
0.128962895338968
40
0.128962895338968
40
0.419308596892646
40
0.419308596892646
40
0.564481447669484
40
0.564481447669484
40
0.709654298446323
40
0.709654298446323
40
0.854827149223161
40
0.854827149223161
40
1
40
1
40
1
40
1
41
1
10
16.8442188528201
20
-2.40092388514532
30
0
41
1
10
16.8044440535358
20
-2.38588029683851
30
0
41
1
10
16.7659283492406
20
-2.36671094216976
30
0
41
1
10
16.6495320476363
20
-2.29436724888004
30
0
41
1
10
16.5800976827464
20
-2.22749975637723
30
0
41
1
10
16.4958709116739
20
-2.11290307029745
30
0
41
1
10
16.4706681511042
20
-2.07171462411878
30
0
41
1
10
16.4271339416816
20
-1.98602614876367
30
0
41
1
10
16.4087793157148
20
-1.94167398887939
30
0
41
1
10
16.3785741627889
20
-1.84982188355161
30
0
41
1
10
16.3666180427878
20
-1.80159381795994
30
0
41
1
10
16.3506604193033
20
-1.70556540171651
30
0
41
1
10
16.3465425602136
20
-1.65787538855474
30
0
41
1
10
16.3465425602136
20
-1.61063422704115
30
0
0
SPLINE
5
105
100
AcDbEntity
8
1
62
256
6
ByLayer
370
18
48
1
60
0
100
AcDbSpline
70
4
71
3
72
8
73
4
40
0
40
0
40
0
40
0
40
1
40
1
40
1
40
1
41
1
10
13.0187205797608
20
2.49630083790106
30
0
41
1
10
13.0124804877265
20
2.49648083105288
30
0
41
1
10
13.006240294504
20
2.49666985928974
30
0
41
1
10
13
20
2.49686792841533
30
0
0
SPLINE
5
106
100
AcDbEntity
8
1
62
256
6
ByLayer
370
18
48
1
60
0
100
AcDbSpline
70
4
71
3
72
16
73
12
40
0
40
0
40
0
40
0
40
0.499999999999998
40
0.499999999999998
40
0.624999999999999
40
0.624999999999999
40
0.749999999999999
40
0.749999999999999
40
0.875
40
0.875
40
1
40
1
40
1
40
1
41
1
10
1.60000000000002
20
2.42538656712699
30
0
41
1
10
1.60000000000002
20
2.49164766549475
30
0
41
1
10
1.61011470772684
20
2.5585585270297
30
0
41
1
10
1.64564603882889
20
2.63431156325586
30
0
41
1
10
1.65389699770788
20
2.64890481547784
30
0
41
1
10
1.67347015478407
20
2.67665923292975
30
0
41
1
10
1.68493261263262
20
2.68996023225284
30
0
41
1
10
1.7114645709002
20
2.71335144982129
30
0
41
1
10
1.72685568797641
20
2.72367865222151
30
0
41
1
10
1.76119263201747
20
2.7383694884721
30
0
41
1
10
1.78040904749878
20
2.7427176303805
30
0
41
1
10
1.80000000000001
20
2.7427176303805
30
0
0
SPLINE
5
107
100
AcDbEntity
8
1
62
256
6
ByLayer
370
18
48
1
60
0
100
AcDbSpline
70
4
71
3
72
26
73
22
40
0
40
0
40
0
40
0
40
0.125000000000007
40
0.125000000000007
40
0.187500000000008
40
0.187500000000008
40
0.250000000000008
40
0.250000000000008
40
0.312500000000009
40
0.312500000000009
40
0.37500000000001
40
0.37500000000001
40
0.500000000000008
40
0.500000000000008
40
0.625000000000006
40
0.625000000000006
40
0.750000000000004
40
0.750000000000004
40
0.875000000000002
40
0.875000000000002
40
1
40
1
40
1
40
1
41
1
10
17.0989733882153
20
-2.66471426245326
30
0
41
1
10
17.1782067204725
20
-2.67482974275924
30
0
41
1
10
17.257333943338
20
-2.67477011611388
30
0
41
1
10
17.3758700056954
20
-2.65980174280978
30
0
41
1
10
17.4152151477819
20
-2.65226166031269
30
0
41
1
10
17.4912588682916
20
-2.63270297044159
30
0
41
1
10
17.5282935036746
20
-2.6206489688627
30
0
41
1
10
17.6004617570441
20
-2.59208726266536
30
0
41
1
10
17.6357917124087
20
-2.57544607889076
30
0
41
1
10
17.702861914149
20
-2.5386073988565
30
0
41
1
10
17.7347791802574
20
-2.51837054941163
30
0
41
1
10
17.8260578785289
20
-2.45248267692449
30
0
41
1
10
17.8811259386847
20
-2.4012378327624
30
0
41
1
10
17.976361322255
20
-2.29070658909393
30
0
41
1
10
18.0172966790092
20
-2.23094307890057
30
0
41
1
10
18.0879455784137
20
-2.10317709255275
30
0
41
1
10
18.1169389507371
20
-2.03638223919577
30
0
41
1
10
18.1643823803324
20
-1.89930625231992
30
0
41
1
10
18.1829573044872
20
-1.82874224358659
30
0
41
1
10
18.2117106427664
20
-1.683892389639
30
0
41
1
10
18.22185561075
20
-1.60952680972937
30
0
41
1
10
18.2284145579169
20
-1.53439120807528
30
0
0
SPLINE
5
108
100
AcDbEntity
8
1
62
256
6
ByLayer
370
18
48
1
60
0
100
AcDbSpline
70
4
71
3
72
18
73
14
40
0
40
0
40
0
40
0
40
0.146278994251154
40
0.146278994251154
40
0.292557988502309
40
0.292557988502309
40
0.585115977004617
40
0.585115977004617
40
0.731394971255771
40
0.731394971255771
40
0.877673965506925
40
0.877673965506925
40
1
40
1
40
1
40
1
41
1
10
8.122483465031
20
-4.3837009726403
30
0
41
1
10
8.11714829887649
20
-4.42523690541398
30
0
41
1
10
8.11494828638939
20
-4.45937875341181
30
0
41
1
10
8.11749954092454
20
-4.51253239348927
30
0
41
1
10
8.12232187983068
20
-4.53146683987771
30
0
41
1
10
8.14844102199726
20
-4.56410918154307
30
0
41
1
10
8.18096145182346
20
-4.55468708136914
30
0
41
1
10
8.26225148911834
20
-4.4956002462946
30
0
41
1
10
8.29510810154329
20
-4.46811777733009
30
0
41
1
10
8.37214700448692
20
-4.40029196381468
30
0
41
1
10
8.41646170462349
20
-4.35987721150147
30
0
41
1
10
8.51006886446078
20
-4.27513197968594
30
0
41
1
10
8.55735660983515
20
-4.23252239581657
30
0
41
1
10
8.60993756296591
20
-4.18632110356282
30
0
0
SPLINE
5
109
100
AcDbEntity
8
1
62
256
6
ByLayer
370
18
48
1
60
0
100
AcDbSpline
70
4
71
3
72
22
73
18
40
0
40
0
40
0
40
0
40
0.125
40
0.125
40
0.25
40
0.25
40
0.375
40
0.375
40
0.5
40
0.5
40
0.625
40
0.625
40
0.75
40
0.75
40
0.875
40
0.875
40
1
40
1
40
1
40
1
41
1
10
15.2518286556647
20
-3.63268689964158
30
0
41
1
10
15.1944636086662
20
-3.61932002601375
30
0
41
1
10
15.1366556534974
20
-3.61029087062147
30
0
41
1
10
15.0201749271241
20
-3.60064187719883
30
0
41
1
10
14.9618141580916
20
-3.60016174200143
30
0
41
1
10
14.8494892241138
20
-3.60761013929476
30
0
41
1
10
14.7942307063975
20
-3.61563050146637
30
0
41
1
10
14.6903793880212
20
-3.63957556437279
30
0
41
1
10
14.6421497385301
20
-3.65528647821935
30
0
41
1
10
14.5533913972422
20
-3.69388486235465
30
0
41
1
10
14.5132689092177
20
-3.71676895303253
30
0
41
1
10
14.4456851771911
20
-3.76691816021952
30
0
41
1
10
14.4172957789857
20
-3.79487627724072
30
0
41
1
10
14.3747642579049
20
-3.85327931432212
30
0
41
1
10
14.3604950274205
20
-3.88351397047663
30
0
41
1
10
14.3462551525889
20
-3.94576467988716
30
0
41
1
10
14.3466012217076
20
-3.97690606158287
30
0
41
1
10
14.3540787823699
20
-4.0073098240093
30
0
0
SPLINE
5
10A
100
AcDbEntity
8
1
62
256
6
ByLayer
370
18
48
1
60
0
100
AcDbSpline
70
4
71
2
72
6
73
3
40
0
40
0
40
0
40
1
40
1
40
1
41
0.500010754738723
10
18.7834740092549
20
-3.86768427086539
30
0
41
0.499989245261277
10
17.2414469453876
20
-3.83516011104978
30
0
41
0.500010754738723
10
15.7006883546038
20
-3.80266433210665
30
0
0
SPLINE
5
10B
100
AcDbEntity
8
1
62
256
6
ByLayer
370
18
48
1
60
0
100
AcDbSpline
70
4
71
3
72
12
73
8
40
0
40
0
40
0
40
0
40
0.378606739857132
40
0.378606739857132
40
0.757213479714264
40
0.757213479714264
40
1
40
1
40
1
40
1
41
1
10
9.05439695788954
20
4.15919443543004
30
0
41
1
10
9.00072057707007
20
4.15529366968036
30
0
41
1
10
8.94586390946426
20
4.15337476704494
30
0
41
1
10
8.83659036666256
20
4.15374135236374
30
0
41
1
10
8.78284031062532
20
4.15598827948111
30
0
41
1
10
8.69606475459784
20
4.16292612335405
30
0
41
1
10
8.66230882453686
20
4.16649062454951
30
0
41
1
10
8.62927486482397
20
4.17083171309372
30
0
0
SPLINE
5
10C
100
AcDbEntity
8
1
62
256
6
ByLayer
370
18
48
1
60
0
100
AcDbSpline
70
4
71
3
72
8
73
4
40
0
40
0
40
0
40
0
40
1
40
1
40
1
40
1
41
1
10
14.35407878237
20
-4.00730982400933
30
0
41
1
10
14.249239780473
20
-4.10066948170598
30
0
41
1
10
14.1518633133786
20
-4.18464614645049
30
0
41
1
10
14.0609656929613
20
-4.25754610029043
30
0
0
SPLINE
5
10D
100
AcDbEntity
8
1
62
256
6
ByLayer
370
18
48
1
60
0
100
AcDbSpline
70
4
71
3
72
16
73
12
40
0
40
0
40
0
40
0
40
0.124999999999998
40
0.124999999999998
40
0.249999999999995
40
0.249999999999995
40
0.499999999999997
40
0.499999999999997
40
0.749999999999999
40
0.749999999999999
40
1
40
1
40
1
40
1
41
1
10
5.10000000000002
20
2.7427176303805
30
0
41
1
10
5.11962610890549
20
2.7427176303805
30
0
41
1
10
5.13891224302893
20
2.73834334905149
30
0
41
1
10
5.17329998729622
20
2.72359317445577
30
0
41
1
10
5.18870080656137
20
2.71322651458254
30
0
41
1
10
5.22839505926351
20
2.6781681916315
30
0
41
1
10
5.24739814004329
20
2.64917679221094
30
0
41
1
10
5.27564653260657
20
2.58888013065737
30
0
41
1
10
5.28512715844016
20
2.55671213665869
30
0
41
1
10
5.29725355554382
20
2.49192080013705
30
0
41
1
10
5.30000000000001
20
2.45883146913371
30
0
41
1
10
5.30000000000001
20
2.42538656712696
30
0
0
SPLINE
5
10E
100
AcDbEntity
8
1
62
256
6
ByLayer
370
18
48
1
60
0
100
AcDbSpline
70
4
71
3
72
8
73
4
40
0
40
0
40
0
40
0
40
1
40
1
40
1
40
1
41
1
10
13.938572475726
20
2.46972720816518
30
0
41
1
10
13.9795444185642
20
2.46854175159433
30
0
41
1
10
14.0203419485098
20
2.46831514351376
30
0
41
1
10
14.0609656929613
20
2.46904393475248
30
0
0
SPLINE
5
10F
100
AcDbEntity
8
1
62
256
6
ByLayer
370
18
48
1
60
0
100
AcDbSpline
70
4
71
3
72
8
73
4
40
0
40
0
40
0
40
0
40
1
40
1
40
1
40
1
41
1
10
14.5788817372223
20
-3.83782395673055
30
0
41
1
10
14.580187489662
20
-3.83147640139606
30
0
41
1
10
14.5815810283175
20
-3.82521629430431
30
0
41
1
10
14.5830616165067
20
-3.81904290160927
30
0
0
SPLINE
5
110
100
AcDbEntity
8
1
62
256
6
ByLayer
370
18
48
1
60
0
100
AcDbSpline
70
4
71
3
72
22
73
18
40
0
40
0
40
0
40
0
40
0.125
40
0.125
40
0.25
40
0.25
40
0.375
40
0.375
40
0.5
40
0.5
40
0.625
40
0.625
40
0.75
40
0.75
40
0.875
40
0.875
40
1
40
1
40
1
40
1
41
1
10
9.05439695788954
20
-4.15919443543009
30
0
41
1
10
9.00032128841303
20
-4.15526465260635
30
0
41
1
10
8.94612538041389
20
-4.15338869707961
30
0
41
1
10
8.83749638727232
20
-4.15372366398051
30
0
41
1
10
8.78256490846184
20
-4.15599880524988
30
0
41
1
10
8.67648948122104
20
-4.16450278685932
30
0
41
1
10
8.62499709550406
20
-4.17069405981655
30
0
41
1
10
8.52522794490318
20
-4.18681013358221
30
0
41
1
10
8.47679708629181
20
-4.19683030042745
30
0
41
1
10
8.38794365593401
20
-4.21950649021767
30
0
41
1
10
8.3469089662529
20
-4.23223764220728
30
0
41
1
10
8.27231181832661
20
-4.26023264374007
30
0
41
1
10
8.23939087592709
20
-4.2753239441916
30
0
41
1
10
8.18528365191486
20
-4.30604380706336
30
0
41
1
10
8.16345408625563
20
-4.32203435589528
30
0
41
1
10
8.13294591370885
20
-4.35363294288322
30
0
41
1
10
8.12437739850992
20
-4.36895610970961
30
0
41
1
10
8.12248346503094
20
-4.3837009726403
30
0
0
SPLINE
5
111
100
AcDbEntity
8
1
62
256
6
ByLayer
370
18
48
1
60
0
100
AcDbSpline
70
4
71
3
72
20
73
16
40
0
40
0
40
0
40
0
40
0.249999999999999
40
0.249999999999999
40
0.374999999999999
40
0.374999999999999
40
0.5
40
0.5
40
0.625
40
0.625
40
0.75
40
0.75
40
0.875
40
0.875
40
1
40
1
40
1
40
1
41
1
10
16.1411757119097
20
-1.44933497010541
30
0
41
1
10
16.1464704602616
20
-1.5865778110159
30
0
41
1
10
16.1620534155085
20
-1.71973029129407
30
0
41
1
10
16.2082310525845
20
-1.91245118776493
30
0
41
1
10
16.2274593665893
20
-1.97551804710113
30
0
41
1
10
16.2758066857608
20
-2.09901442757729
30
0
41
1
10
16.3046008989476
20
-2.15845099554943
30
0
41
1
10
16.3724022745822
20
-2.27059899328162
30
0
41
1
10
16.4117998427618
20
-2.32392021039962
30
0
41
1
10
16.5022706312079
20
-2.42185391024202
30
0
41
1
10
16.5525276468084
20
-2.46572542018379
30
0
41
1
10
16.66464355758
20
-2.54245372746971
30
0
41
1
10
16.7268540324391
20
-2.57519979989041
30
0
41
1
10
16.8576591512259
20
-2.62502191493138
30
0
41
1
10
16.9277322389762
20
-2.64276658930251
30
0
41
1
10
16.9999465813411
20
-2.65203692118527
30
0
0
SPLINE
5
112
100
AcDbEntity
8
1
62
256
6
ByLayer
370
18
48
1
60
0
100
AcDbSpline
70
4
71
3
72
10
73
6
40
0
40
0
40
0
40
0
40
0.5
40
0.5
40
1
40
1
40
1
40
1
41
1
10
15.6252916339777
20
-3.76798381673291
30
0
41
1
10
15.591913628218
20
-3.7471301931424
30
0
41
1
10
15.5556675429353
20
-3.72832083277945
30
0
41
1
10
15.4777352240477
20
-3.69488243946384
30
0
41
1
10
15.4357638170621
20
-3.68018865641523
30
0
41
1
10
15.3918399057471
20
-3.66806590356012
30
0
0
SPLINE
5
113
100
AcDbEntity
8
1
62
256
6
ByLayer
370
18
48
1
60
0
100
AcDbSpline
70
4
71
3
72
8
73
4
40
0
40
0
40
0
40
0
40
1
40
1
40
1
40
1
41
1
10
15.6252916339765
20
-3.7679838167293
30
0
41
1
10
15.6533914976222
20
-3.77859018664805
30
0
41
1
10
15.6786648007763
20
-3.79018329384294
30
0
41
1
10
15.7006883546043
20
-3.80266433210664
30
0
0
SPLINE
5
114
100
AcDbEntity
8
1
62
256
6
ByLayer
370
18
48
1
60
0
100
AcDbSpline
70
4
71
3
72
8
73
4
40
0
40
0
40
0
40
0
40
1
40
1
40
1
40
1
41
1
10
15.2518286556649
20
2.49022856602886
30
0
41
1
10
14.8548544746702
20
2.48322452150347
30
0
41
1
10
14.4578994151475
20
2.47616493807195
30
0
41
1
10
14.0609656929613
20
2.46904393475259
30
0
0
SPLINE
5
115
100
AcDbEntity
8
1
62
256
6
ByLayer
370
18
48
1
60
0
100
AcDbSpline
70
4
71
3
72
18
73
14
40
0
40
0
40
0
40
0
40
0.125000000000001
40
0.125000000000001
40
0.250000000000001
40
0.250000000000001
40
0.375000000000002
40
0.375000000000002
40
0.500000000000003
40
0.500000000000003
40
0.750000000000001
40
0.750000000000001
40
1
40
1
40
1
40
1
41
1
10
1.80000000000001
20
-2.7427176303805
30
0
41
1
10
1.78048624890971
20
-2.7427176303805
30
0
41
1
10
1.76122747911586
20
-2.73839321422886
30
0
41
1
10
1.72669892378991
20
-2.72360273385067
30
0
41
1
10
1.71136649208319
20
-2.71328079064006
30
0
41
1
10
1.68483319013575
20
-2.68985665139118
30
0
41
1
10
1.67337170435536
20
-2.67653782292464
30
0
41
1
10
1.65381335792188
20
-2.64876785442854
30
0
41
1
10
1.64555460872572
20
-2.63414552411695
30
0
41
1
10
1.62420675437136
20
-2.58854446427085
30
0
41
1
10
1.61489969792365
20
-2.55680683316291
30
0
41
1
10
1.60276692356564
20
-2.49207882692039
30
0
41
1
10
1.59999999999985
20
-2.45867245246995
30
0
41
1
10
1.59999999999985
20
-2.42538656712696
30
0
0
SPLINE
5
116
100
AcDbEntity
8
1
62
256
6
ByLayer
370
18
48
1
60
0
100
AcDbSpline
70
4
71
3
72
10
73
6
40
0
40
0
40
0
40
0
40
0.5
40
0.5
40
1
40
1
40
1
40
1
41
1
10
16.1947912726835
20
-1.09629503477365
30
0
41
1
10
16.1747548888725
20
-1.15387285570299
30
0
41
1
10
16.1602135319588
20
-1.2126767005918
30
0
41
1
10
16.1423353164593
20
-1.33039934875296
30
0
41
1
10
16.1388795055648
20
-1.38981601639017
30
0
41
1
10
16.1411757119097
20
-1.44933497010541
30
0
0
SPLINE
5
117
100
AcDbEntity
8
1
62
256
6
ByLayer
370
18
48
1
60
0
100
AcDbSpline
70
4
71
3
72
20
73
16
40
0
40
0
40
0
40
0
40
0.124999999999999
40
0.124999999999999
40
0.249999999999998
40
0.249999999999998
40
0.499999999999995
40
0.499999999999995
40
0.624999999999996
40
0.624999999999996
40
0.749999999999998
40
0.749999999999998
40
0.874999999999999
40
0.874999999999999
40
1
40
1
40
1
40
1
41
1
10
17.8319446633259
20
-1.67234222270406
30
0
41
1
10
17.8319446633259
20
-1.71954088022477
30
0
41
1
10
17.8264968707711
20
-1.76666237729725
30
0
41
1
10
17.8058588476293
20
-1.86060338576209
30
0
41
1
10
17.7904277843268
20
-1.90775961623746
30
0
41
1
10
17.7326156525854
20
-2.04214805611176
30
0
41
1
10
17.6780152731543
20
-2.12528173047801
30
0
41
1
10
17.5788984160322
20
-2.23221522358472
30
0
41
1
10
17.5423580468109
20
-2.26547058778371
30
0
41
1
10
17.464680010693
20
-2.32421833835974
30
0
41
1
10
17.423647423238
20
-2.34976910587702
30
0
41
1
10
17.3368510530557
20
-2.39264846627964
30
0
41
1
10
17.290401611589
20
-2.41012543923907
30
0
41
1
10
17.1958155235197
20
-2.43421970507285
30
0
41
1
10
17.1477815160508
20
-2.44099336347037
30
0
41
1
10
17.0989733882153
20
-2.44211174910677
30
0
0
SPLINE
5
118
100
AcDbEntity
8
1
62
256
6
ByLayer
370
18
48
1
60
0
100
AcDbSpline
70
4
71
3
72
8
73
4
40
0
40
0
40
0
40
0
40
1
40
1
40
1
40
1
41
1
10
15.3918399057629
20
2.48894121711038
30
0
41
1
10
15.3449739774064
20
2.49062040882001
30
0
41
1
10
15.2983037128603
20
2.49104855227881
30
0
41
1
10
15.2518286556649
20
2.49022856602906
30
0
0
SPLINE
5
119
100
AcDbEntity
8
1
62
256
6
ByLayer
370
18
48
1
60
0
100
AcDbSpline
70
4
71
3
72
8
73
4
40
0
40
0
40
0
40
0
40
1
40
1
40
1
40
1
41
1
10
15.3918399057495
20
-3.66806590355884
30
0
41
1
10
15.3466414344761
20
-3.65559137931251
30
0
41
1
10
15.2999779394564
20
-3.64390636908775
30
0
41
1
10
15.2518286556663
20
-3.63268689964824
30
0
0
SPLINE
5
11A
100
AcDbEntity
8
1
62
256
6
ByLayer
370
18
48
1
60
0
100
AcDbSpline
70
4
71
3
72
30
73
26
40
0
40
0
40
0
40
0
40
0.098491249299655
40
0.098491249299655
40
0.173616978524684
40
0.173616978524684
40
0.248742707749713
40
0.248742707749713
40
0.323868436974741
40
0.323868436974741
40
0.361431301587256
40
0.361431301587256
40
0.39899416619977
40
0.39899416619977
40
0.549245624649827
40
0.549245624649827
40
0.699497083099885
40
0.699497083099885
40
0.774622812324913
40
0.774622812324913
40
0.849748541549942
40
0.849748541549942
40
0.924874270774971
40
0.924874270774971
40
1
40
1
40
1
40
1
41
1
10
8.15467090808568
20
4.55378518459204
30
0
41
1
10
8.17341899180377
20
4.55406098427588
30
0
41
1
10
8.19963055216874
20
4.54111717674371
30
0
41
1
10
8.26225148911834
20
4.4956002462946
30
0
41
1
10
8.29510810154335
20
4.46811777733006
30
0
41
1
10
8.37214700448692
20
4.40029196381468
30
0
41
1
10
8.41646170462349
20
4.35987721150144
30
0
41
1
10
8.51841631999105
20
4.26757479009473
30
0
41
1
10
8.57605426313705
20
4.21568145555267
30
0
41
1
10
8.6741316869244
20
4.13031543716221
30
0
41
1
10
8.70890719718244
20
4.10048673541263
30
0
41
1
10
8.78190118961624
20
4.03913955126626
30
0
41
1
10
8.82003959375368
20
4.00768487483768
30
0
41
1
10
9.01910625872665
20
3.84729597295564
30
0
41
1
10
9.20509160632298
20
3.70910156617632
30
0
41
1
10
9.63578363841651
20
3.43111727670436
30
0
41
1
10
9.8724593305447
20
3.29663591314156
30
0
41
1
10
10.2569370649592
20
3.11209988726068
30
0
41
1
10
10.3907606519986
20
3.05313530383481
30
0
41
1
10
10.6641762771031
20
2.94385509558603
30
0
41
1
10
10.803761935425
20
2.8934697772213
30
0
41
1
10
11.0883957567979
20
2.8018327064992
30
0
41
1
10
11.2334443614849
20
2.7605787526729
30
0
41
1
10
11.5288689476476
20
2.68783699804976
30
0
41
1
10
11.6797971694984
20
2.65626578756687
30
0
41
1
10
11.8317574206848
20
2.63018567581989
30
0
0
SPLINE
5
11B
100
AcDbEntity
8
1
62
256
6
ByLayer
370
18
48
1
60
0
100
AcDbSpline
70
4
71
3
72
38
73
34
40
0
40
0
40
0
40
0
40
0.0625
40
0.0625
40
0.125
40
0.125
40
0.1875
40
0.1875
40
0.25
40
0.25
40
0.3125
40
0.3125
40
0.375
40
0.375
40
0.4375
40
0.4375
40
0.5
40
0.5
40
0.5625
40
0.5625
40
0.625
40
0.625
40
0.6875
40
0.6875
40
0.75
40
0.75
40
0.8125
40
0.8125
40
0.875
40
0.875
40
0.9375
40
0.9375
40
1
40
1
40
1
40
1
41
1
10
16.1947912726818
20
-1.09629503477305
30
0
41
1
10
16.2159481843356
20
-1.03549719409921
30
0
41
1
10
16.241374767892
20
-0.975999730519618
30
0
41
1
10
16.3016045277406
20
-0.859996808021492
30
0
41
1
10
16.3365884883664
20
-0.803432258259278
30
0
41
1
10
16.4140257263986
20
-0.697985198395401
30
0
41
1
10
16.4567278835503
20
-0.648531107186159
30
0
41
1
10
16.5505966768617
20
-0.556671272284547
30
0
41
1
10
16.6024171420661
20
-0.51386512221805
30
0
41
1
10
16.7115630268431
20
-0.439072320436367
30
0
41
1
10
16.7688954365804
20
-0.406860459060539
30
0
41
1
10
16.889229046556
20
-0.353125328340184
30
0
41
1
10
16.9530225478885
20
-0.331456917985349
30
0
41
1
10
17.0820780181589
20
-0.30116546375146
30
0
41
1
10
17.1473644135353
20
-0.292328017217528
30
0
41
1
10
17.2794895443585
20
-0.28754357130444
30
0
41
1
10
17.3469019586042
20
-0.291809174971576
30
0
41
1
10
17.4772802520451
20
-0.313521297366265
30
0
41
1
10
17.5409049886448
20
-0.330834047992937
30
0
41
1
10
17.6648966652816
20
-0.378842747621434
30
0
41
1
10
17.7245288439241
20
-0.409434354317256
30
0
41
1
10
17.8349197539098
20
-0.481330040920398
30
0
41
1
10
17.8867172548255
20
-0.52325999661096
30
0
41
1
10
17.980731065339
20
-0.616990105010757
30
0
41
1
10
18.022225500841
20
-0.667907767050224
30
0
41
1
10
18.0948867611271
20
-0.777200095164488
30
0
41
1
10
18.1261216491303
20
-0.836030263510565
30
0
41
1
10
18.1764430732973
20
-0.956230163092556
30
0
41
1
10
18.1959178737898
20
-1.01805697540237
30
0
41
1
10
18.2244057704235
20
-1.14475395245989
30
0
41
1
10
18.2331806941698
20
-1.2088236388355
30
0
41
1
10
18.2409233766344
20
-1.33596202175391
30
0
41
1
10
18.2399638675561
20
-1.39939049471155
30
0
41
1
10
18.2345918288774
20
-1.46264982368496
30
0
0
SPLINE
5
11C
100
AcDbEntity
8
1
62
256
6
ByLayer
370
18
48
1
60
0
100
AcDbSpline
70
4
71
3
72
12
73
8
40
0
40
0
40
0
40
0
40
0.499999999999996
40
0.499999999999996
40
0.749999999999998
40
0.749999999999998
40
1
40
1
40
1
40
1
41
1
10
14.5788817372223
20
-3.83782395673043
30
0
41
1
10
14.5253138513547
20
-3.85725998066607
30
0
41
1
10
14.4782035084557
20
-3.88276842274507
30
0
41
1
10
14.4204834653041
20
-3.92706888933597
30
0
41
1
10
14.4037140888907
20
-3.94258211943273
30
0
41
1
10
14.3750973441147
20
-3.97450951234384
30
0
41
1
10
14.3631735555177
20
-3.99108755970457
30
0
41
1
10
14.3540787823697
20
-4.0073098240097
30
0
0
SPLINE
5
11D
100
AcDbEntity
8
1
62
256
6
ByLayer
370
18
48
1
60
0
100
AcDbSpline
70
4
71
3
72
14
73
10
40
0
40
0
40
0
40
0
40
0.272462643354728
40
0.272462643354728
40
0.544925286709456
40
0.544925286709456
40
0.817387930064185
40
0.817387930064185
40
1
40
1
40
1
40
1
41
1
10
14.5830616165067
20
-3.81904290160929
30
0
41
1
10
14.5621750696486
20
-3.81728665714556
30
0
41
1
10
14.5434794445605
20
-3.8147896791815
30
0
41
1
10
14.5103934557385
20
-3.80820936045887
30
0
41
1
10
14.4959004748613
20
-3.80406966438323
30
0
41
1
10
14.4723062177134
20
-3.79431502439891
30
0
41
1
10
14.4631004672094
20
-3.78870890465501
30
0
41
1
10
14.4520383961923
20
-3.77805878493018
30
0
41
1
10
14.4487783660982
20
-3.77341175460907
30
0
41
1
10
14.4467482079908
20
-3.76848265749618
30
0
0
SPLINE
5
11E
100
AcDbEntity
8
1
62
256
6
ByLayer
370
18
48
1
60
0
100
AcDbSpline
70
4
71
3
72
10
73
6
40
0
40
0
40
0
40
0
40
0.172265475658079
40
0.172265475658079
40
1
40
1
40
1
40
1
41
1
10
17.2667327227744
20
2.42089007490154
30
0
41
1
10
17.2738309190937
20
2.42612866866725
30
0
41
1
10
17.2807063550477
20
2.43180460258662
30
0
41
1
10
17.3190220011238
20
2.46614763414831
30
0
41
1
10
17.3452261747109
20
2.5003788538537
30
0
41
1
10
17.3663329356786
20
2.53652325824521
30
0
0
SPLINE
5
11F
100
AcDbEntity
8
1
62
256
6
ByLayer
370
18
48
1
60
0
100
AcDbSpline
70
4
71
3
72
12
73
8
40
0
40
0
40
0
40
0
40
0.0032293730813733
40
0.059630583818988
40
0.454439058982371
40
0.905648744883414
40
1
40
1
40
1
40
1
41
1
10
15.5634980715087
20
-3.72249651943557
30
0
41
1
10
15.5634350005926
20
-3.72249506840228
30
0
41
1
10
15.5622703690278
20
-3.72246817178174
30
0
41
1
10
15.5533913647225
20
-3.72224785797351
30
0
41
1
10
15.5357457637273
20
-3.72136823481569
30
0
41
1
10
15.5173871092262
20
-3.71957201916862
30
0
41
1
10
15.5067678248666
20
-3.71819763729971
30
0
41
1
10
15.5049323382888
20
-3.71795003727854
30
0
0
SPLINE
5
120
100
AcDbEntity
8
1
62
256
6
ByLayer
370
18
48
1
60
0
100
AcDbSpline
70
4
71
3
72
17
73
13
40
0
40
0
40
0
40
0
40
0.0434717264777877
40
0.228167899047255
40
0.320515985331993
40
0.401320560831133
40
0.412864071616722
40
0.424407582402314
40
0.505212157901458
40
0.59756024418619
40
0.782256416755656
40
1
40
1
40
1
40
1
41
1
10
15.3563268620337
20
-3.77850980568653
30
0
41
1
10
15.3606917836716
20
-3.77878768815404
30
0
41
1
10
15.3836024296062
20
-3.78006315471185
30
0
41
1
10
15.4158226817197
20
-3.78171891421184
30
0
41
1
10
15.4518944723305
20
-3.78278413841986
30
0
41
1
10
15.4705352512648
20
-3.78312800681883
30
0
41
1
10
15.4810253222485
20
-3.78327193588788
30
0
41
1
10
15.4915164696069
20
-3.78340392932051
30
0
41
1
10
15.5101748511542
20
-3.78355593638651
30
0
41
1
10
15.546347421131
20
-3.78360685567074
30
0
41
1
10
15.5963978779143
20
-3.78328159133574
30
0
41
1
10
15.6371183389036
20
-3.78288800240531
30
0
41
1
10
15.6591486722695
20
-3.78271302812357
30
0
0
SPLINE
5
121
100
AcDbEntity
8
1
62
256
6
ByLayer
370
18
48
1
60
0
100
AcDbSpline
70
4
71
3
72
8
73
4
40
0
40
0
40
0
40
0
40
1
40
1
40
1
40
1
41
1
10
14.1440868126824
20
-4.29911272609536
30
0
41
1
10
14.1309486941123
20
-4.26719675758613
30
0
41
1
10
14.1178105755422
20
-4.23528078907691
30
0
41
1
10
14.1046724569721
20
-4.20336482056766
30
0
0
SPLINE
5
122
100
AcDbEntity
8
1
62
256
6
ByLayer
370
18
48
1
60
0
100
AcDbSpline
70
4
71
3
72
15
73
11
40
0
40
0
40
0
40
0
40
0.0437039481546596
40
0.321668275417122
40
0.599632602679585
40
0.738614766310816
40
0.877596929942047
40
0.947088011757663
40
0.981833552665471
40
1
40
1
40
1
40
1
41
1
10
19.1567797554315
20
-3.82566484321006
30
0
41
1
10
19.1592500712218
20
-3.82436746226645
30
0
41
1
10
19.1771977379855
20
-3.81445141734713
30
0
41
1
10
19.2072642624167
20
-3.79105421274633
30
0
41
1
10
19.232813240761
20
-3.75521908935752
30
0
41
1
10
19.2457701237851
20
-3.72256275521201
30
0
41
1
10
19.2503675315975
20
-3.70090153237354
30
0
41
1
10
19.2517985226921
20
-3.68535970053847
30
0
41
1
10
19.2520940214578
20
-3.67746930993602
30
0
41
1
10
19.2521195153254
20
-3.67404912928296
30
0
41
1
10
19.252122715288
20
-3.67287434905202
30
0
0
SPLINE
5
123
100
AcDbEntity
8
1
62
256
6
ByLayer
370
18
48
1
60
0
100
AcDbSpline
70
4
71
3
72
9
73
5
40
0
40
0
40
0
40
0
40
0.342186621743452
40
1
40
1
40
1
40
1
41
1
10
19.2826538618326
20
-1.65874517041459
30
0
41
1
10
19.3244857381771
20
-1.76036587363518
30
0
41
1
10
19.4467344576961
20
-2.0573403804197
30
0
41
1
10
19.5689831772168
20
-2.35431488720369
30
0
41
1
10
19.6494000203929
20
-2.54966869076705
30
0
0
SPLINE
5
124
100
AcDbEntity
8
1
62
256
6
ByLayer
370
18
48
1
60
0
100
AcDbSpline
70
4
71
3
72
8
73
4
40
0
40
0
40
0
40
0
40
1
40
1
40
1
40
1
41
1
10
13.9085463897776
20
-4.37789990515304
30
0
41
1
10
13.9169586698287
20
-4.39795077352119
30
0
41
1
10
13.9253917006328
20
-4.4179942884187
30
0
41
1
10
13.9338467189688
20
-4.43802999330643
30
0
0
SPLINE
5
125
100
AcDbEntity
8
1
62
256
6
ByLayer
370
18
48
1
60
0
100
AcDbSpline
70
4
71
3
72
10
73
6
40
0
40
0
40
0
40
0
40
0.252864898336613
40
0.814369571368015
40
1
40
1
40
1
40
1
41
1
10
13.7017412713461
20
-4.55277090220181
30
0
41
1
10
13.6990442801946
20
-4.5455850946033
30
0
41
1
10
13.6870006202095
20
-4.51297188479788
30
0
41
1
10
13.6732224048418
20
-4.47595710636838
30
0
41
1
10
13.662819828782
20
-4.44797725721992
30
0
41
1
10
13.6602298171877
20
-4.44100920574908
30
0
0
SPLINE
5
126
100
AcDbEntity
8
1
62
256
6
ByLayer
370
18
48
1
60
0
100
AcDbSpline
70
4
71
3
72
21
73
17
40
0
40
0
40
0
40
0
40
0.0695240683917945
40
0.139048136783589
40
0.208572205175383
40
0.278096273567178
40
0.347620341958972
40
0.417144410350767
40
0.486668478742561
40
0.556192547134356
40
0.62571661552615
40
0.695240683917945
40
0.764764752309739
40
0.834288820701534
40
0.973336957485123
40
1
40
1
40
1
40
1
41
1
10
19.4422218731298
20
-1.47515128855588
30
0
41
1
10
19.4400638991435
20
-1.46934169590693
30
0
41
1
10
19.4355207884249
20
-1.45779285245115
30
0
41
1
10
19.4280362364173
20
-1.44070533045235
30
0
41
1
10
19.4198931797189
20
-1.42387837151469
30
0
41
1
10
19.4111030596415
20
-1.40733676761295
30
0
41
1
10
19.4016773017761
20
-1.39110531829286
30
0
41
1
10
19.3916310476582
20
-1.37520702569594
30
0
41
1
10
19.3809794377261
20
-1.3596648922474
30
0
41
1
10
19.3697376126415
20
-1.34450192025622
30
0
41
1
10
19.3579207131359
20
-1.32974111224456
30
0
41
1
10
19.3455472365919
20
-1.31540312122979
30
0
41
1
10
19.3326356802389
20
-1.30150860005264
30
0
41
1
10
19.31472749496
20
-1.28360140205589
30
0
41
1
10
19.2987316596455
20
-1.26927423605903
30
0
41
1
10
19.2870295221921
20
-1.25967424908131
30
0
41
1
10
19.2851356085883
20
-1.25814252943519
30
0
0
SPLINE
5
127
100
AcDbEntity
8
1
62
256
6
ByLayer
370
18
48
1
60
0
100
AcDbSpline
70
4
71
3
72
21
73
17
40
0
40
0
40
0
40
0
40
0.0695240683917681
40
0.139048136783536
40
0.208572205175304
40
0.278096273567072
40
0.347620341958841
40
0.417144410350609
40
0.486668478742377
40
0.556192547134145
40
0.625716615525913
40
0.695240683917681
40
0.764764752309449
40
0.834288820701217
40
0.973336957484753
40
1
40
1
40
1
40
1
41
1
10
19.4422218731298
20
1.47515128855585
30
0
41
1
10
19.4400638991435
20
1.46934169590691
30
0
41
1
10
19.4355207884249
20
1.45779285245109
30
0
41
1
10
19.4280362364173
20
1.44070533045229
30
0
41
1
10
19.4198931797189
20
1.42387837151466
30
0
41
1
10
19.4111030596415
20
1.40733676761292
30
0
41
1
10
19.4016773017761
20
1.3911053182928
30
0
41
1
10
19.3916310476582
20
1.37520702569589
30
0
41
1
10
19.3809794377261
20
1.35966489224734
30
0
41
1
10
19.3697376126415
20
1.34450192025619
30
0
41
1
10
19.3579207131359
20
1.32974111224451
30
0
41
1
10
19.3455472365919
20
1.31540312122976
30
0
41
1
10
19.3326356802389
20
1.30150860005261
30
0
41
1
10
19.31472749496
20
1.28360140205587
30
0
41
1
10
19.2987316596455
20
1.26927423605898
30
0
41
1
10
19.287029522192
20
1.25967424908123
30
0
41
1
10
19.2851356085882
20
1.2581425294351
30
0
0
SPLINE
5
128
100
AcDbEntity
8
1
62
256
6
ByLayer
370
18
48
1
60
0
100
AcDbSpline
70
4
71
3
72
11
73
7
40
0
40
0
40
0
40
0
40
0.0323313967495283
40
0.237001062897143
40
0.646340395192373
40
1
40
1
40
1
40
1
41
1
10
13.1863772745071
20
2.86045147754257
30
0
41
1
10
13.1862475251863
20
2.85794019573427
30
0
41
1
10
13.185262562565
20
2.83884913698566
30
0
41
1
10
13.1818417601845
20
2.77211350488599
30
0
41
1
10
13.1753835605607
20
2.64697822841612
30
0
41
1
10
13.1704787166232
20
2.55248262132508
30
0
41
1
10
13.1681871824524
20
2.5085082477579
30
0
0
SPLINE
5
129
100
AcDbEntity
8
1
62
256
6
ByLayer
370
18
48
1
60
0
100
AcDbSpline
70
4
71
3
72
10
73
6
40
0
40
0
40
0
40
0
40
0.862486488949857
40
0.862486488949857
40
1
40
1
40
1
40
1
41
1
10
15.2846411138314
20
2.91368543428055
30
0
41
1
10
15.2817977424396
20
2.78785709386204
30
0
41
1
10
15.2983588189544
20
2.66244236546868
30
0
41
1
10
15.339230136087
20
2.52378534074074
30
0
41
1
10
15.3453253754471
20
2.50486697078344
30
0
41
1
10
15.3518860643974
20
2.48611733473075
30
0
0
SPLINE
5
12A
100
AcDbEntity
8
1
62
256
6
ByLayer
370
18
48
1
60
0
100
AcDbSpline
70
4
71
3
72
27
73
23
40
0
40
0
40
0
40
0
40
0.0026173238532003
40
0.0135878069629557
40
0.024558290072711
40
0.112322154950753
40
0.134263121170264
40
0.14523360428002
40
0.156204087389774
40
0.178145053609285
40
0.200086019828796
40
0.375613749584882
40
0.551141479340965
40
0.72666920909705
40
0.770551141536071
40
0.814433073975094
40
0.836374040194604
40
0.858315006414114
40
0.902196938853135
40
0.946078871292156
40
0.989960803731177
40
1
40
1
40
1
40
1
41
1
10
19.252122715288
20
-3.67287434905202
30
0
41
1
10
19.2521256356433
20
-3.67180221915132
30
0
41
1
10
19.2521167864371
20
-3.66623402777625
30
0
41
1
10
19.2521161469266
20
-3.65617078998292
30
0
41
1
10
19.2521319032172
20
-3.61121520776021
30
0
41
1
10
19.2521251063868
20
-3.56176142765176
30
0
41
1
10
19.2521225575769
20
-3.51230810530765
30
0
41
1
10
19.2521219749281
20
-3.49432511637278
30
0
41
1
10
19.2521215819971
20
-3.47634214816401
30
0
41
1
10
19.2521213720358
20
-3.45386346891075
30
0
41
1
10
19.252121237076
20
-3.36394883349999
30
0
41
1
10
19.2521203193278
20
-3.21109393669928
30
0
41
1
10
19.2521187887335
20
-2.99529879233606
30
0
41
1
10
19.2521185840179
20
-2.83345247140716
30
0
41
1
10
19.2521193069878
20
-2.72555495397162
30
0
41
1
10
19.2521197709011
20
-2.68059766061066
30
0
41
1
10
19.2521202512982
20
-2.64463182962146
30
0
41
1
10
19.2521208084265
20
-2.60866600121773
30
0
41
1
10
19.252121655996
20
-2.56370872078415
30
0
41
1
10
19.2521229382556
20
-2.50975999309202
30
0
41
1
10
19.252109132954
20
-2.46968010234522
30
0
41
1
10
19.2521290099134
20
-2.44758287976651
30
0
41
1
10
19.2521148602262
20
-2.44346821875595
30
0
0
SPLINE
5
12B
100
AcDbEntity
8
1
62
256
6
ByLayer
370
18
48
1
60
0
100
AcDbSpline
70
4
71
3
72
10
73
6
40
0
40
0
40
0
40
0
40
0.5
40
0.5
40
1
40
1
40
1
40
1
41
1
10
19.9576005880728
20
3.16746728402634
30
0
41
1
10
19.9530288065421
20
3.07844985167932
30
0
41
1
10
19.9480506903949
20
2.98933597122112
30
0
41
1
10
19.9246024365585
20
2.8119314951642
30
0
41
1
10
19.9059356917598
20
2.72347206683099
30
0
41
1
10
19.8744043731527
20
2.63858844791829
30
0
0
SPLINE
5
12C
100
AcDbEntity
8
1
62
256
6
ByLayer
370
18
48
1
60
0
100
AcDbSpline
70
4
71
3
72
21
73
17
40
0
40
0
40
0
40
0
40
0.0084859884802245
40
0.0622054254297553
40
0.169644299328817
40
0.277083173227878
40
0.384522047126939
40
0.491960921026001
40
0.518820639500766
40
0.545680357975531
40
0.599399794925062
40
0.706838668824124
40
0.814277542723185
40
0.921716416622246
40
0.975435853571777
40
1
40
1
40
1
40
1
41
1
10
19.9576007767596
20
3.1674672844936
30
0
41
1
10
19.9577305261033
20
3.16997856625366
30
0
41
1
10
19.9587154890851
20
3.18906962424435
30
0
41
1
10
19.9621362977439
20
3.25580524313904
30
0
41
1
10
19.968966187507
20
3.38814063484273
30
0
41
1
10
19.9768379976176
20
3.53973839928929
30
0
41
1
10
19.9849284525355
20
3.69409482112158
30
0
41
1
10
19.990857888956
20
3.80906539598516
30
0
41
1
10
19.994940216485
20
3.88584646994588
30
0
41
1
10
19.9964572872323
20
3.93701684544823
30
0
41
1
10
19.9981420970369
20
4.02655291657115
30
0
41
1
10
19.999816053231
20
4.15445832462015
30
0
41
1
10
20.0002097693131
20
4.30764916504742
30
0
41
1
10
19.9992479672236
20
4.43642880252622
30
0
41
1
10
19.9978713542634
20
4.52306402029726
30
0
41
1
10
19.9971921373199
20
4.56236380729467
30
0
41
1
10
19.9969899423182
20
4.57073331909973
30
0
0
SPLINE
5
12D
100
AcDbEntity
8
1
62
256
6
ByLayer
370
18
48
1
60
0
100
AcDbSpline
70
4
71
3
72
8
73
4
40
0
40
0
40
0
40
0
40
1
40
1
40
1
40
1
41
1
10
14.1678416039344
20
4.88641796573282
30
0
41
1
10
14.990634408271
20
4.91928864380614
30
0
41
1
10
15.8131828168501
20
4.9424989035025
30
0
41
1
10
16.6354815594859
20
4.95584158781878
30
0
0
SPLINE
5
12E
100
AcDbEntity
8
1
62
256
6
ByLayer
370
18
48
1
60
0
100
AcDbSpline
70
4
71
3
72
14
73
10
40
0
40
0
40
0
40
0
40
0.0327618042001991
40
0.105511744094441
40
0.251011623882924
40
0.396511503671407
40
0.542011383459891
40
0.833011143036857
40
1
40
1
40
1
40
1
41
1
10
19.4422357853918
20
1.475149951584
30
0
41
1
10
19.4449328086929
20
1.48233569156366
30
0
41
1
10
19.4569766618974
20
1.51494849497905
30
0
41
1
10
19.4836706082834
20
1.58665946822458
30
0
41
1
10
19.5232718705514
20
1.6933305381983
30
0
41
1
10
19.570582094042
20
1.82073198367542
30
0
41
1
10
19.6335231478257
20
1.99018471546611
30
0
41
1
10
19.6987931823941
20
2.16585271172019
30
0
41
1
10
19.7486836604646
20
2.30009873299389
30
0
41
1
10
19.7667808469103
20
2.34881673182181
30
0
0
SPLINE
5
12F
100
AcDbEntity
8
1
62
256
6
ByLayer
370
18
48
1
60
0
100
AcDbSpline
70
4
71
3
72
8
73
4
40
0
40
0
40
0
40
0
40
1
40
1
40
1
40
1
41
1
10
19.5998196118326
20
4.96043296567132
30
0
41
1
10
19.6082883207001
20
4.9603192390768
30
0
41
1
10
19.6167413001783
20
4.95994061005203
30
0
41
1
10
19.6251621092313
20
4.95930174259701
30
0
0
SPLINE
5
130
100
AcDbEntity
8
1
62
256
6
ByLayer
370
18
48
1
60
0
100
AcDbSpline
70
4
71
3
72
12
73
8
40
0
40
0
40
0
40
0
40
0.0894630037273587
40
0.338476115890821
40
0.587489228054284
40
0.836502340217747
40
1
40
1
40
1
40
1
41
1
10
19.6251621561343
20
4.95930163903401
30
0
41
1
10
19.6298838866588
20
4.95894341147124
30
0
41
1
10
19.6477099081842
20
4.95727852188213
30
0
41
1
10
19.6783270217146
20
4.95237636122997
30
0
41
1
10
19.7162791842586
20
4.94248405516225
30
0
41
1
10
19.7487248624406
20
4.93061807045501
30
0
41
1
10
19.7682050674938
20
4.9216835876835
30
0
41
1
10
19.7757943061355
20
4.91791028948836
30
0
0
SPLINE
5
131
100
AcDbEntity
8
1
62
256
6
ByLayer
370
18
48
1
60
0
100
AcDbSpline
70
4
71
3
72
10
73
6
40
0
40
0
40
0
40
0
40
0.5
40
0.5
40
1
40
1
40
1
40
1
41
1
10
13.1863774648019
20
2.86045147462781
30
0
41
1
10
13.1909492587826
20
2.94946888078903
30
0
41
1
10
13.1959273864509
20
3.03858273701562
30
0
41
1
10
13.2193756511547
20
3.21598719021563
30
0
41
1
10
13.2380423960538
20
3.30444661833758
30
0
41
1
10
13.2695736981085
20
3.38933027206426
30
0
0
SPLINE
5
132
100
AcDbEntity
8
1
62
256
6
ByLayer
370
18
48
1
60
0
100
AcDbSpline
70
4
71
3
72
10
73
6
40
0
40
0
40
0
40
0
40
0.470321334188268
40
0.940642668376537
40
1
40
1
40
1
40
1
41
1
10
13.7017499755807
20
4.55276703196077
30
0
41
1
10
13.7039079003562
20
4.55857677111052
30
0
41
1
10
13.7084509102911
20
4.57012592264911
30
0
41
1
10
13.7137553854305
20
4.58223676679253
30
0
41
1
10
13.7167042569478
20
4.58859654166895
30
0
41
1
10
13.7170364603725
20
4.58930853651714
30
0
0
SPLINE
5
133
100
AcDbEntity
8
1
62
256
6
ByLayer
370
18
48
1
60
0
100
AcDbSpline
70
4
71
3
72
14
73
10
40
0
40
0
40
0
40
0
40
0.0327618042002293
40
0.10551174409454
40
0.251011623883162
40
0.396511503671783
40
0.542011383460405
40
0.833011143037648
40
1
40
1
40
1
40
1
41
1
10
13.7017412713461
20
4.55277090220179
30
0
41
1
10
13.6990442801946
20
4.54558509460327
30
0
41
1
10
13.6870006202095
20
4.51297188479785
30
0
41
1
10
13.6603069962363
20
4.4412602334352
30
0
41
1
10
13.6207060447577
20
4.33458850979164
30
0
41
1
10
13.5733959958853
20
4.20718669704775
30
0
41
1
10
13.5104549924195
20
4.03773385942549
30
0
41
1
10
13.4451848535962
20
3.86206608244655
30
0
41
1
10
13.3952943747927
20
3.72782006271521
30
0
41
1
10
13.3771971909591
20
3.67910205839408
30
0
0
SPLINE
5
134
100
AcDbEntity
8
1
62
256
6
ByLayer
370
18
48
1
60
0
100
AcDbSpline
70
4
71
3
72
9
73
5
40
0
40
0
40
0
40
0
40
0.45719247126455
40
1
40
1
40
1
40
1
41
1
10
19.9648649196624
20
4.71878960596956
30
0
41
1
10
19.9601721396787
20
4.72884779482203
30
0
41
1
10
19.9499077974624
20
4.75084769526794
30
0
41
1
10
19.9370111463381
20
4.77148486046522
30
0
41
1
10
19.9300107470123
20
4.78268686910607
30
0
0
SPLINE
5
135
100
AcDbEntity
8
1
62
256
6
ByLayer
370
18
48
1
60
0
100
AcDbSpline
70
4
71
3
72
8
73
4
40
0
40
0
40
0
40
0
40
1
40
1
40
1
40
1
41
1
10
19.8862727072974
20
4.83691393578587
30
0
41
1
10
19.8546105361083
20
4.86974346438501
30
0
41
1
10
19.8172187859835
20
4.89729374874025
30
0
41
1
10
19.7757761944477
20
4.91787427663238
30
0
0
SPLINE
5
136
100
AcDbEntity
8
1
62
256
6
ByLayer
370
18
48
1
60
0
100
AcDbSpline
70
4
71
3
72
8
73
4
40
0
40
0
40
0
40
0
40
1
40
1
40
1
40
1
41
1
10
16.6354815626212
20
4.95584157969554
30
0
41
1
10
16.6858138432918
20
4.95665827527876
30
0
41
1
10
16.7361451885714
20
4.95743800129026
30
0
41
1
10
16.7864755972511
20
4.95818071022381
30
0
0
SPLINE
5
137
100
AcDbEntity
8
1
62
256
6
ByLayer
370
18
48
1
60
0
100
AcDbSpline
70
4
71
3
72
27
73
23
40
0
40
0
40
0
40
0
40
0.0292495184271096
40
0.0627236729641059
40
0.0961978275011021
40
0.129671982038098
40
0.163146136575094
40
0.196620291112091
40
0.230094445649087
40
0.263568600186083
40
0.297042754723079
40
0.330516909260076
40
0.397465218334068
40
0.464413527408061
40
0.531361836482053
40
0.598310145556045
40
0.665258454630038
40
0.73220676370403
40
0.799155072778023
40
0.866103381852015
40
0.933051690926007
40
1
40
1
40
1
40
1
41
1
10
13.7170451814956
20
4.58930397525469
30
0
41
1
10
13.7193451979285
20
4.59423348462599
30
0
41
1
10
13.7244567337151
20
4.60473253726741
30
0
41
1
10
13.7328769046545
20
4.62057858621606
30
0
41
1
10
13.7423024939648
20
4.63681037812117
30
0
41
1
10
13.7523485789545
20
4.65270901353941
30
0
41
1
10
13.7630000191651
20
4.66825149021798
30
0
41
1
10
13.7742416739598
20
4.68341480592466
30
0
41
1
10
13.7860584026198
20
4.69817595823346
30
0
41
1
10
13.7984317077855
20
4.71251429420442
30
0
41
1
10
13.8113430922477
20
4.72640916107486
30
0
41
1
10
13.829251047683
20
4.74431682107434
30
0
41
1
10
13.8528887037511
20
4.76548945892992
30
0
41
1
10
13.8830868733336
20
4.78881491973453
30
0
41
1
10
13.9149466684125
20
4.80991607040164
30
0
41
1
10
13.948277331396
20
4.82867627572995
30
0
41
1
10
13.9828881046292
20
4.84497890042826
30
0
41
1
10
14.0185732992107
20
4.85873597367655
30
0
41
1
10
14.0551272260924
20
4.8698595246255
30
0
41
1
10
14.0923340383293
20
4.87829232952527
30
0
41
1
10
14.1299778889897
20
4.88397716513859
30
0
41
1
10
14.1552179289596
20
4.88591829729478
30
0
41
1
10
14.1678371789735
20
4.88642247916974
30
0
0
SPLINE
5
138
100
AcDbEntity
8
1
62
256
6
ByLayer
370
18
48
1
60
0
100
AcDbSpline
70
4
71
3
72
10
73
6
40
0
40
0
40
0
40
0
40
0.369010685607432
40
0.801964637755757
40
1
40
1
40
1
40
1
41
1
10
13.3771971909591
20
3.67910205839408
30
0
41
1
10
13.3637576828216
20
3.64292261624828
30
0
41
1
10
13.3346619674112
20
3.56457001736561
30
0
41
1
10
13.2990254175173
20
3.4684692194181
30
0
41
1
10
13.2746765172723
20
3.40323596295175
30
0
41
1
10
13.2695636996476
20
3.38933262624869
30
0
0
SPLINE
5
139
100
AcDbEntity
8
1
62
256
6
ByLayer
370
18
48
1
60
0
100
AcDbSpline
70
4
71
3
72
10
73
6
40
0
40
0
40
0
40
0
40
0.369010685605644
40
0.801964637755187
40
1
40
1
40
1
40
1
41
1
10
19.7667808469103
20
2.34881673182181
30
0
41
1
10
19.7802203569872
20
2.3849961698877
30
0
41
1
10
19.809316080064
20
2.46334875264566
30
0
41
1
10
19.8449526306779
20
2.5594495490781
30
0
41
1
10
19.8693015314863
20
2.62468280435971
30
0
41
1
10
19.874414347713
20
2.63858614400309
30
0
0
SPLINE
5
13A
100
AcDbEntity
8
1
62
256
6
ByLayer
370
18
48
1
60
0
100
AcDbSpline
70
4
71
3
72
16
73
12
40
0
40
0
40
0
40
0
40
0.0010332454567785
40
0.125904089774681
40
0.250774934092584
40
0.375645778410487
40
0.500516622728389
40
0.625387467046292
40
0.750258311364195
40
0.875129155682097
40
1
40
1
40
1
40
1
41
1
10
19.9648649921942
20
4.71878944339676
30
0
41
1
10
19.964885673737
20
4.71874152041698
30
0
41
1
10
19.9674046249587
20
4.71290144949668
30
0
41
1
10
19.9721409014505
20
4.70114535679596
30
0
41
1
10
19.9783665141772
20
4.68322917691438
30
0
41
1
10
19.9837286210486
20
4.66500068830288
30
0
41
1
10
19.9882142951492
20
4.64650436964723
30
0
41
1
10
19.9918106098129
20
4.62778469969044
30
0
41
1
10
19.9945052334705
20
4.60888715646792
30
0
41
1
10
19.996285834109
20
4.58985721946033
30
0
41
1
10
19.9968553315099
20
4.57711265100156
30
0
41
1
10
19.996983632175
20
4.57073346216879
30
0
0
SPLINE
5
13B
100
AcDbEntity
8
1
62
256
6
ByLayer
370
18
48
1
60
0
100
AcDbSpline
70
4
71
3
72
10
73
6
40
0
40
0
40
0
40
0
40
0.419283533798406
40
0.971757813421359
40
1
40
1
40
1
40
1
41
1
10
19.8862751716443
20
4.83691484074359
30
0
41
1
10
19.8929709297741
20
4.82996157961867
30
0
41
1
10
19.9078895093745
20
4.81329713049817
30
0
41
1
10
19.9217186528206
20
4.79493556580408
30
0
41
1
10
19.929186959041
20
4.78391109835309
30
0
41
1
10
19.9295488337079
20
4.78337409381675
30
0
0
SPLINE
5
13C
100
AcDbEntity
8
1
62
256
6
ByLayer
370
18
48
1
60
0
100
AcDbSpline
70
4
71
3
72
9
73
5
40
0
40
0
40
0
40
0
40
0.0349179901732568
40
1
40
1
40
1
40
1
41
1
10
16.7864756138085
20
4.95818066770408
30
0
41
1
10
16.8192326196422
20
4.95866405191603
30
0
41
1
10
17.7573338372441
20
4.97205841056265
30
0
41
1
10
18.6951093925041
20
4.97258172640676
30
0
41
1
10
19.5998196261817
20
4.96043295121672
30
0
0
SPLINE
5
13D
100
AcDbEntity
8
1
62
256
6
ByLayer
370
18
48
1
60
0
100
AcDbSpline
70
4
71
3
72
8
73
4
40
0
40
0
40
0
40
0
40
1
40
1
40
1
40
1
41
1
10
16.6356315250236
20
4.21745121311565
30
0
41
1
10
16.4492514894696
20
4.21363171224212
30
0
41
1
10
16.2620974433424
20
4.17120199998388
30
0
41
1
10
16.090468315151
20
4.09385720803093
30
0
0
SPLINE
5
13E
100
AcDbEntity
8
1
62
256
6
ByLayer
370
18
48
1
60
0
100
AcDbSpline
70
4
71
3
72
10
73
6
40
0
40
0
40
0
40
0
40
0.499999999999998
40
0.499999999999998
40
1
40
1
40
1
40
1
41
1
10
16.090468315151
20
4.09385720803093
30
0
41
1
10
15.9494546350951
20
4.03030929013738
30
0
41
1
10
15.818967646524
20
3.94334367388103
30
0
41
1
10
15.5945209381115
20
3.73288991970986
30
0
41
1
10
15.5006154328994
20
3.60945261645566
30
0
41
1
10
15.4305956998736
20
3.4751238341172
30
0
0
SPLINE
5
13F
100
AcDbEntity
8
1
62
256
6
ByLayer
370
18
48
1
60
0
100
AcDbSpline
70
4
71
3
72
8
73
4
40
0
40
0
40
0
40
0
40
1
40
1
40
1
40
1
41
1
10
15.4305956998736
20
3.4751238341172
30
0
41
1
10
15.3393178373062
20
3.30001256757421
30
0
41
1
10
15.2889969440432
20
3.10644494796014
30
0
41
1
10
15.2846411138314
20
2.91368543428055
30
0
0
SPLINE
5
140
100
AcDbEntity
8
1
62
256
6
ByLayer
370
18
48
1
60
0
100
AcDbSpline
70
4
71
3
72
10
73
6
40
0
40
0
40
0
40
0
40
0.5
40
0.5
40
1
40
1
40
1
40
1
41
1
10
17.7443737400927
20
2.33747254708379
30
0
41
1
10
17.8045177412642
20
2.43784648900919
30
0
41
1
10
17.8510035622361
20
2.54545262007267
30
0
41
1
10
17.9133664448566
20
2.76750796213668
30
0
41
1
10
17.9292381982148
20
2.88193827192237
30
0
41
1
10
17.9292381982148
20
2.99571890707921
30
0
0
SPLINE
5
141
100
AcDbEntity
8
1
62
256
6
ByLayer
370
18
48
1
60
0
100
AcDbSpline
70
4
71
3
72
8
73
4
40
0
40
0
40
0
40
0
40
1
40
1
40
1
40
1
41
1
10
17.9292381982148
20
2.99571890707921
30
0
41
1
10
17.9292381982148
20
3.07394111386242
30
0
41
1
10
17.9217599087977
20
3.1518511603897
30
0
41
1
10
17.9069292014887
20
3.22813769645393
30
0
0
SPLINE
5
142
100
AcDbEntity
8
1
62
256
6
ByLayer
370
18
48
1
60
0
100
AcDbSpline
70
4
71
3
72
8
73
4
40
0
40
0
40
0
40
0
40
1
40
1
40
1
40
1
41
1
10
17.9069292014887
20
3.22813769645393
30
0
41
1
10
17.872114406482
20
3.40721884609116
30
0
41
1
10
17.7963018872396
20
3.57713145138464
30
0
41
1
10
17.6863669344388
20
3.72246646693054
30
0
0
SPLINE
5
143
100
AcDbEntity
8
1
62
256
6
ByLayer
370
18
48
1
60
0
100
AcDbSpline
70
4
71
3
72
8
73
4
40
0
40
0
40
0
40
0
40
1
40
1
40
1
40
1
41
1
10
17.6863669344388
20
3.72246646693054
30
0
41
1
10
17.6512849792623
20
3.76884513332422
30
0
41
1
10
17.6127815153654
20
3.81274598412611
30
0
41
1
10
17.5712210350181
20
3.85375343281092
30
0
0
SPLINE
5
144
100
AcDbEntity
8
1
62
256
6
ByLayer
370
18
48
1
60
0
100
AcDbSpline
70
4
71
3
72
8
73
4
40
0
40
0
40
0
40
0
40
1
40
1
40
1
40
1
41
1
10
17.5712210350181
20
3.85375343281092
30
0
41
1
10
17.4482039667396
20
3.975133553364
30
0
41
1
10
17.2981395599956
20
4.07080084235329
30
0
41
1
10
17.1332056081836
20
4.13299185669806
30
0
0
SPLINE
5
145
100
AcDbEntity
8
1
62
256
6
ByLayer
370
18
48
1
60
0
100
AcDbSpline
70
4
71
3
72
8
73
4
40
0
40
0
40
0
40
0
40
1
40
1
40
1
40
1
41
1
10
17.1332056081836
20
4.13299185669806
30
0
41
1
10
16.9764688553927
20
4.19209198456184
30
0
41
1
10
16.8064476977305
20
4.22095176251153
30
0
41
1
10
16.6356315250236
20
4.21745121311565
30
0
0
SPLINE
5
146
100
AcDbEntity
8
1
62
256
6
ByLayer
370
18
48
1
60
0
100
AcDbSpline
70
4
71
3
72
8
73
4
40
0
40
0
40
0
40
0
40
1
40
1
40
1
40
1
41
1
10
16.9327998238447
20
-3.91657215821104
30
0
41
1
10
17.638165470989
20
-3.93102727244659
30
0
41
1
10
18.3435311181292
20
-3.94548238668378
30
0
41
1
10
19.0488967652736
20
-3.95993750091927
30
0
0
SPLINE
5
147
100
AcDbEntity
8
1
62
256
6
ByLayer
370
18
48
1
60
0
100
AcDbSpline
70
4
71
3
72
8
73
4
40
0
40
0
40
0
40
0
40
1
40
1
40
1
40
1
41
1
10
19.2823494061207
20
-2.17400056793449
30
0
41
1
10
19.3186440357195
20
-2.26353930120828
30
0
41
1
10
19.3398490233073
20
-2.35830892664367
30
0
41
1
10
19.3398741425407
20
-2.45308394696022
30
0
0
SPLINE
5
148
100
AcDbEntity
8
1
62
256
6
ByLayer
370
18
48
1
60
0
100
AcDbSpline
70
4
71
3
72
10
73
6
40
0
40
0
40
0
40
0
40
0.5
40
0.5
40
1
40
1
40
1
40
1
41
1
10
19.9576005880728
20
-3.16746728402637
30
0
41
1
10
19.9530288065421
20
-3.07844985167938
30
0
41
1
10
19.9480506903949
20
-2.98933597122118
30
0
41
1
10
19.9246024365585
20
-2.81193149516423
30
0
41
1
10
19.9059356917598
20
-2.72347206683102
30
0
41
1
10
19.8744043731527
20
-2.63858844791835
30
0
0
SPLINE
5
149
100
AcDbEntity
8
1
62
256
6
ByLayer
370
18
48
1
60
0
100
AcDbSpline
70
4
71
3
72
21
73
17
40
0
40
0
40
0
40
0
40
0.0084859884802241
40
0.0622054254297548
40
0.169644299328816
40
0.277083173227878
40
0.384522047126939
40
0.491960921026001
40
0.518820639500766
40
0.545680357975532
40
0.599399794925062
40
0.706838668824124
40
0.814277542723185
40
0.921716416622247
40
0.975435853571777
40
1
40
1
40
1
40
1
41
1
10
19.9576007767596
20
-3.16746728449362
30
0
41
1
10
19.9577305261033
20
-3.16997856625369
30
0
41
1
10
19.958715489085
20
-3.18906962424438
30
0
41
1
10
19.9621362977439
20
-3.25580524313909
30
0
41
1
10
19.968966187507
20
-3.38814063484278
30
0
41
1
10
19.9768379976176
20
-3.53973839928935
30
0
41
1
10
19.9849284525354
20
-3.69409482112161
30
0
41
1
10
19.990857888956
20
-3.80906539598522
30
0
41
1
10
19.994940216485
20
-3.88584646994593
30
0
41
1
10
19.9964572872323
20
-3.93701684544828
30
0
41
1
10
19.9981420970369
20
-4.02655291657118
30
0
41
1
10
19.9998160532309
20
-4.15445832462018
30
0
41
1
10
20.0002097693131
20
-4.30764916504748
30
0
41
1
10
19.9992479672236
20
-4.43642880252625
30
0
41
1
10
19.9978713542634
20
-4.52306402029731
30
0
41
1
10
19.9971921373199
20
-4.56236380729473
30
0
41
1
10
19.9969899423182
20
-4.57073331909979
30
0
0
SPLINE
5
14A
100
AcDbEntity
8
1
62
256
6
ByLayer
370
18
48
1
60
0
100
AcDbSpline
70
4
71
3
72
8
73
4
40
0
40
0
40
0
40
0
40
1
40
1
40
1
40
1
41
1
10
14.1678416039344
20
-4.88641796573285
30
0
41
1
10
14.990634408271
20
-4.91928864380617
30
0
41
1
10
15.8131828168501
20
-4.94249890350255
30
0
41
1
10
16.6354815594859
20
-4.95584158781881
30
0
0
SPLINE
5
14B
100
AcDbEntity
8
1
62
256
6
ByLayer
370
18
48
1
60
0
100
AcDbSpline
70
4
71
3
72
9
73
5
40
0
40
0
40
0
40
0
40
0.851909887563053
40
1
40
1
40
1
40
1
41
1
10
19.2936351944815
20
-1.41425868375944
30
0
41
1
10
19.3361431074546
20
-1.43133885252396
30
0
41
1
10
19.3858029012467
20
-1.45163182183151
30
0
41
1
10
19.4349593375278
20
-1.47211611308211
30
0
41
1
10
19.4422278540353
20
-1.4751537881076
30
0
0
SPLINE
5
14C
100
AcDbEntity
8
1
62
256
6
ByLayer
370
18
48
1
60
0
100
AcDbSpline
70
4
71
3
72
9
73
5
40
0
40
0
40
0
40
0
40
0.116266583175395
40
1
40
1
40
1
40
1
41
1
10
19.8744044005465
20
-2.63858845412622
30
0
41
1
10
19.8704684851823
20
-2.6368906520714
30
0
41
1
10
19.8366039488795
20
-2.62228302961367
30
0
41
1
10
19.8026360929942
20
-2.60763284255492
30
0
41
1
10
19.7726171075859
20
-2.59468737375556
30
0
0
SPLINE
5
14D
100
AcDbEntity
8
1
62
256
6
ByLayer
370
18
48
1
60
0
100
AcDbSpline
70
4
71
3
72
9
73
5
40
0
40
0
40
0
40
0
40
0.883761874774363
40
1
40
1
40
1
40
1
41
1
10
19.8971853824192
20
-3.08030159173234
30
0
41
1
10
19.9149629173708
20
-3.10595061708236
30
0
41
1
10
19.9350772940601
20
-3.13497118483878
30
0
41
1
10
19.9552543904948
20
-3.1640822432253
30
0
41
1
10
19.9576005880728
20
-3.16746728402637
30
0
0
SPLINE
5
14E
100
AcDbEntity
8
1
62
256
6
ByLayer
370
18
48
1
60
0
100
AcDbSpline
70
4
71
3
72
9
73
5
40
0
40
0
40
0
40
0
40
0.0948294874479827
40
1
40
1
40
1
40
1
41
1
10
19.9969833663503
20
-4.57073300763633
30
0
41
1
10
19.9952511381616
20
-4.56777107729471
30
0
41
1
10
19.9769862582913
20
-4.5365400291991
30
0
41
1
10
19.9587412964335
20
-4.50534303883671
30
0
41
1
10
19.9422261488615
20
-4.47710385129258
30
0
0
SPLINE
5
14F
100
AcDbEntity
8
1
62
256
6
ByLayer
370
18
48
1
60
0
100
AcDbSpline
70
4
71
3
72
8
73
4
40
0
40
0
40
0
40
0
40
1
40
1
40
1
40
1
41
1
10
19.5998198918529
20
-4.96043297541306
30
0
41
1
10
19.5962760110995
20
-4.93126819608747
30
0
41
1
10
19.592732130346
20
-4.90210341676186
30
0
41
1
10
19.5891882495926
20
-4.87293863743628
30
0
0
SPLINE
5
150
100
AcDbEntity
8
1
62
256
6
ByLayer
370
18
48
1
60
0
100
AcDbSpline
70
4
71
3
72
18
73
14
40
0
40
0
40
0
40
0
40
0.089732545029269
40
0.179693872334373
40
0.26988619923614
40
0.360311725241503
40
0.450972631044183
40
0.54187107662675
40
0.633009176814484
40
0.724389016914894
40
0.816012693050541
40
0.907882313842741
40
1
40
1
40
1
40
1
41
1
10
19.5891882495926
20
-4.87293863743628
30
0
41
1
10
19.4307853719679
20
-4.87371833112127
30
0
41
1
10
19.1135757524258
20
-4.87527970639982
30
0
41
1
10
18.6370145993284
20
-4.87472854573213
30
0
41
1
10
18.1591448069006
20
-4.87206518633795
30
0
41
1
10
17.6799555645015
20
-4.86707996081091
30
0
41
1
10
17.1994497290331
20
-4.85982854229985
30
0
41
1
10
16.7176265889763
20
-4.85029814193266
30
0
41
1
10
16.2344863177652
20
-4.83848411764367
30
0
41
1
10
15.7500286664935
20
-4.82438673839715
30
0
41
1
10
15.2642539022688
20
-4.80793977990581
30
0
41
1
10
14.7771612039204
20
-4.78933722034637
30
0
41
1
10
14.451997204503
20
-4.77499549053573
30
0
41
1
10
14.2891959996558
20
-4.76781495733724
30
0
0
SPLINE
5
151
100
AcDbEntity
8
1
62
256
6
ByLayer
370
18
48
1
60
0
100
AcDbSpline
70
4
71
3
72
27
73
23
40
0
40
0
40
0
40
0
40
0.03125
40
0.0625
40
0.09375
40
0.125
40
0.15625
40
0.1875
40
0.21875
40
0.25
40
0.28125
40
0.3125
40
0.375
40
0.4375
40
0.5
40
0.5625
40
0.625
40
0.75
40
0.8125
40
0.875
40
0.9375
40
1
40
1
40
1
40
1
41
1
10
19.9422261488615
20
-4.47710385129258
30
0
41
1
10
19.9421283291566
20
-4.48321772046808
30
0
41
1
10
19.9417002572333
20
-4.49543243568061
30
0
41
1
10
19.9403599033054
20
-4.51369027511177
30
0
41
1
10
19.9383203548659
20
-4.5318587148659
30
0
41
1
10
19.9355806632782
20
-4.54991258967218
30
0
41
1
10
19.9321398805555
20
-4.56782673093784
30
0
41
1
10
19.9279971495848
20
-4.58557378995528
30
0
41
1
10
19.9231516139169
20
-4.60312641430255
30
0
41
1
10
19.9176024162397
20
-4.62045725379176
30
0
41
1
10
19.9113487023413
20
-4.63753895154844
30
0
41
1
10
19.9020703036925
20
-4.65993903031861
30
0
41
1
10
19.8887081952287
20
-4.68715378977356
30
0
41
1
10
19.8698464761305
20
-4.71829489658086
30
0
41
1
10
19.8481675769875
20
-4.74761156600164
30
0
41
1
10
19.8237004334175
20
-4.77476747447176
30
0
41
1
10
19.7874584234399
20
-4.80760342199949
30
0
41
1
10
19.7459894547083
20
-4.8345782500605
30
0
41
1
10
19.7002940297108
20
-4.85414907228289
30
0
41
1
10
19.664324260995
20
-4.86483119416684
30
0
41
1
10
19.6271282974659
20
-4.87133327696469
30
0
41
1
10
19.601857747042
20
-4.8728586468836
30
0
41
1
10
19.5891882495926
20
-4.87293863743628
30
0
0
SPLINE
5
152
100
AcDbEntity
8
1
62
256
6
ByLayer
370
18
48
1
60
0
100
AcDbSpline
70
4
71
3
72
19
73
15
40
0
40
0
40
0
40
0
40
0.25
40
0.375
40
0.4375
40
0.5
40
0.53125
40
0.5625
40
0.59375
40
0.625
40
0.6875
40
0.75
40
0.875
40
1
40
1
40
1
40
1
41
1
10
19.5891882495926
20
-4.87293863743628
30
0
41
1
10
19.5824512429139
20
-4.86544379076878
30
0
41
1
10
19.572258810679
20
-4.8507283325298
30
0
41
1
10
19.5604868129663
20
-4.82783848797854
30
0
41
1
10
19.5538309393288
20
-4.81321799054459
30
0
41
1
10
19.5497064638307
20
-4.80347895144277
30
0
41
1
10
19.5464407960339
20
-4.7952461214646
30
0
41
1
10
19.5440023445354
20
-4.78893561827454
30
0
41
1
10
19.5415583170904
20
-4.78269205700525
30
0
41
1
10
19.5382878843212
20
-4.77451818288958
30
0
41
1
10
19.5341697975665
20
-4.76469926385573
30
0
41
1
10
19.527528520274
20
-4.74981462580087
30
0
41
1
10
19.5191508375125
20
-4.73271125528677
30
0
41
1
10
19.5123967727451
20
-4.72072739843497
30
0
41
1
10
19.5090148775149
20
-4.71517634841427
30
0
0
SPLINE
5
153
100
AcDbEntity
8
1
62
256
6
ByLayer
370
18
48
1
60
0
100
AcDbSpline
70
4
71
3
72
19
73
15
40
0
40
0
40
0
40
0
40
0.125
40
0.25
40
0.375
40
0.4375
40
0.46875
40
0.5
40
0.53125
40
0.5625
40
0.625
40
0.75
40
0.875
40
1
40
1
40
1
40
1
41
1
10
19.9422261488615
20
-4.47710385129258
30
0
41
1
10
19.9431561020039
20
-4.4189804715422
30
0
41
1
10
19.9443300205382
20
-4.3026950467526
30
0
41
1
10
19.9440523234038
20
-4.12817411010917
30
0
41
1
10
19.9420849956867
20
-3.98267977629067
30
0
41
1
10
19.9399169105755
20
-3.880816455244
30
0
41
1
10
19.9382926418068
20
-3.82259859137011
30
0
41
1
10
19.9364547376601
20
-3.77893226933378
30
0
41
1
10
19.9338603976244
20
-3.7352684712869
30
0
41
1
10
19.9305937173815
20
-3.67704931823829
30
0
41
1
10
19.9248505751021
20
-3.57516595427532
30
0
41
1
10
19.916681568602
20
-3.42961796752121
30
0
41
1
10
19.9069003870822
20
-3.25496012409715
30
0
41
1
10
19.9004157071775
20
-3.13852118499614
30
0
41
1
10
19.8971853824192
20
-3.08030159173234
30
0
0
SPLINE
5
154
100
AcDbEntity
8
1
62
256
6
ByLayer
370
18
48
1
60
0
100
AcDbSpline
70
4
71
3
72
18
73
14
40
0
40
0
40
0
40
0
40
0.125
40
0.1875
40
0.25
40
0.375
40
0.5
40
0.625
40
0.75
40
0.8125
40
0.84375
40
0.875
40
1
40
1
40
1
40
1
41
1
10
19.8100754107668
20
-4.35816264913564
30
0
41
1
10
19.8137149193985
20
-4.3633924749673
30
0
41
1
10
19.8196384916723
20
-4.37118751994487
30
0
41
1
10
19.8284507784896
20
-4.38146706133168
30
0
41
1
10
19.8378677162085
20
-4.39166587998182
30
0
41
1
10
19.8507635911724
20
-4.40425400792782
30
0
41
1
10
19.8680152735419
20
-4.41907287600154
30
0
41
1
10
19.8870206962325
20
-4.43357460573898
30
0
41
1
10
19.9042431431661
20
-4.44538264890369
30
0
41
1
10
19.9170858127652
20
-4.45347187502381
30
0
41
1
10
19.9245359239154
20
-4.45807047069954
30
0
41
1
10
19.93425201203
20
-4.46528416632248
30
0
41
1
10
19.9397186534795
20
-4.47177067352541
30
0
41
1
10
19.9422261488615
20
-4.47710385129258
30
0
0
SPLINE
5
155
100
AcDbEntity
8
1
62
256
6
ByLayer
370
18
48
1
60
0
100
AcDbSpline
70
4
71
3
72
14
73
10
40
0
40
0
40
0
40
0
40
0.125
40
0.25
40
0.375
40
0.5
40
0.625
40
0.75
40
1
40
1
40
1
40
1
41
1
10
19.8971853824192
20
-3.08030159173234
30
0
41
1
10
19.8960345278431
20
-3.05955993560167
30
0
41
1
10
19.8923545620226
20
-3.01809824505463
30
0
41
1
10
19.8831046815765
20
-2.95615368119758
30
0
41
1
10
19.870529707705
20
-2.89464019612456
30
0
41
1
10
19.8550735885585
20
-2.83362262400252
30
0
41
1
10
19.8371802722874
20
-2.77316579899846
30
0
41
1
10
19.8105922465687
20
-2.6932349335012
30
0
41
1
10
19.7881639139131
20
-2.63397169134481
30
0
41
1
10
19.7726171075859
20
-2.59468737375556
30
0
0
SPLINE
5
156
100
AcDbEntity
8
1
62
256
6
ByLayer
370
18
48
1
60
0
100
AcDbSpline
70
4
71
3
72
17
73
13
40
0
40
0
40
0
40
0
40
0.125
40
0.1875
40
0.25
40
0.375
40
0.4375
40
0.46875
40
0.5
40
0.625
40
0.75
40
1
40
1
40
1
40
1
41
1
10
19.8100754107668
20
-2.98765620132699
30
0
41
1
10
19.8134898804804
20
-2.99153689319678
30
0
41
1
10
19.8195402676205
20
-2.99728447228171
30
0
41
1
10
19.8286957709536
20
-3.00483695172238
30
0
41
1
10
19.8373551825086
20
-3.01243959597269
30
0
41
1
10
19.845636727464
20
-3.02007864640478
30
0
41
1
10
19.8525229261667
20
-3.02679523396813
30
0
41
1
10
19.8563541896251
20
-3.03064226789681
30
0
41
1
10
19.861996974417
20
-3.03642166342357
30
0
41
1
10
19.870069225745
20
-3.04512340186966
30
0
41
1
10
19.8833035695998
20
-3.06067868132479
30
0
41
1
10
19.8919717586034
20
-3.07243310140683
30
0
41
1
10
19.8971853824192
20
-3.08030159173234
30
0
0
SPLINE
5
157
100
AcDbEntity
8
1
62
256
6
ByLayer
370
18
48
1
60
0
100
AcDbSpline
70
4
71
3
72
8
73
4
40
0
40
0
40
0
40
0
40
1
40
1
40
1
40
1
41
1
10
19.5090148775149
20
-4.71517634841427
30
0
41
1
10
17.8212195638507
20
-4.68058822499034
30
0
41
1
10
16.1334242501864
20
-4.64600010155985
30
0
41
1
10
14.4456289365222
20
-4.61141197814158
30
0
0
SPLINE
5
158
100
AcDbEntity
8
1
62
256
6
ByLayer
370
18
48
1
60
0
100
AcDbSpline
70
4
71
3
72
15
73
11
40
0
40
0
40
0
40
0
40
0.125
40
0.25
40
0.375
40
0.5
40
0.625
40
0.75
40
0.875
40
1
40
1
40
1
40
1
41
1
10
19.8100754107668
20
-4.35816264913564
30
0
41
1
10
19.8100754107668
20
-4.37985206048734
30
0
41
1
10
19.8070363973102
20
-4.42312038726905
30
0
41
1
10
19.7931593462709
20
-4.48637136277603
30
0
41
1
10
19.7697625381861
20
-4.54663300151455
30
0
41
1
10
19.7364173905005
20
-4.60208490182293
30
0
41
1
10
19.69274236536
20
-4.65028265603104
30
0
41
1
10
19.6388562208542
20
-4.68791188971611
30
0
41
1
10
19.5763622231001
20
-4.71122419871426
30
0
41
1
10
19.5314925386856
20
-4.71563698491033
30
0
41
1
10
19.509014877514
20
-4.71517634841425
30
0
0
SPLINE
5
159
100
AcDbEntity
8
1
62
256
6
ByLayer
370
18
48
1
60
0
100
AcDbSpline
70
4
71
3
72
8
73
4
40
0
40
0
40
0
40
0
40
1
40
1
40
1
40
1
41
1
10
19.5090148775142
20
-4.71517634841936
30
0
41
1
10
19.3556421734602
20
-4.46343006590669
30
0
41
1
10
19.2022694694053
20
-4.21168378339442
30
0
41
1
10
19.0488967653502
20
-3.95993750088226
30
0
0
SPLINE
5
15A
100
AcDbEntity
8
1
62
256
6
ByLayer
370
18
48
1
60
0
100
AcDbSpline
70
4
71
3
72
19
73
15
40
0
40
0
40
0
40
0
40
0.125
40
0.25
40
0.375
40
0.4375
40
0.46875
40
0.5
40
0.53125
40
0.5625
40
0.625
40
0.75
40
0.875
40
1
40
1
40
1
40
1
41
1
10
19.8100754107668
20
-2.98765620132699
30
0
41
1
10
19.8100754107668
20
-3.04476063665237
30
0
41
1
10
19.8100754107668
20
-3.15896950730308
30
0
41
1
10
19.8100754107668
20
-3.33028281327916
30
0
41
1
10
19.8100754107668
20
-3.47304390159255
30
0
41
1
10
19.8100754107668
20
-3.57297666341194
30
0
41
1
10
19.8100754107668
20
-3.63008109873729
30
0
41
1
10
19.8100754107668
20
-3.6729094252313
30
0
41
1
10
19.8100754107668
20
-3.71573775172533
30
0
41
1
10
19.8100754107668
20
-3.77284218705069
30
0
41
1
10
19.8100754107668
20
-3.87277494887007
30
0
41
1
10
19.8100754107668
20
-4.01553603718347
30
0
41
1
10
19.8100754107668
20
-4.18684934315954
30
0
41
1
10
19.8100754107668
20
-4.30105821381025
30
0
41
1
10
19.8100754107668
20
-4.35816264913564
30
0
0
SPLINE
5
15B
100
AcDbEntity
8
1
62
256
6
ByLayer
370
18
48
1
60
0
100
AcDbSpline
70
4
71
3
72
8
73
4
40
0
40
0
40
0
40
0
40
1
40
1
40
1
40
1
41
1
10
19.8100754107668
20
-4.35816264913561
30
0
41
1
10
19.6533416621994
20
-4.13294262910054
30
0
41
1
10
19.4966079140189
20
-3.90772260904976
30
0
41
1
10
19.3398741656416
20
-3.68250258900699
30
0
0
SPLINE
5
15C
100
AcDbEntity
8
1
62
256
6
ByLayer
370
18
48
1
60
0
100
AcDbSpline
70
4
71
3
72
14
73
10
40
0
40
0
40
0
40
0
40
0.25
40
0.375
40
0.5
40
0.625
40
0.75
40
0.875
40
1
40
1
40
1
40
1
41
1
10
19.6494000203923
20
-2.54966869076563
30
0
41
1
10
19.6643541387483
20
-2.58599620356216
30
0
41
1
10
19.6901330462611
20
-2.63924105334482
30
0
41
1
10
19.7255823201093
20
-2.70974001301516
30
0
41
1
10
19.7512705047911
20
-2.76296777570482
30
0
41
1
10
19.7746518649394
20
-2.81719509734958
30
0
41
1
10
19.7938397079973
20
-2.87272781877437
30
0
41
1
10
19.806878296194
20
-2.92977200798859
30
0
41
1
10
19.8100754107664
20
-2.9684009725363
30
0
41
1
10
19.8100754107668
20
-2.98765620132699
30
0
0
SPLINE
5
15D
100
AcDbEntity
8
1
62
256
6
ByLayer
370
18
48
1
60
0
100
AcDbSpline
70
4
71
3
72
8
73
4
40
0
40
0
40
0
40
0
40
1
40
1
40
1
40
1
41
1
10
19.8100754107668
20
-2.98765620132699
30
0
41
1
10
19.6533416861773
20
-2.80952157376837
30
0
41
1
10
19.4966079615879
20
-2.63138694620972
30
0
41
1
10
19.3398742369984
20
-2.4532523186511
30
0
0
SPLINE
5
15E
100
AcDbEntity
8
1
62
256
6
ByLayer
370
18
48
1
60
0
100
AcDbSpline
70
4
71
3
72
8
73
4
40
0
40
0
40
0
40
0
40
1
40
1
40
1
40
1
41
1
10
19.6494000203923
20
-2.54966869076563
30
0
41
1
10
19.5264514167884
20
-2.42298110832661
30
0
41
1
10
19.4035028131873
20
-2.29629352588628
30
0
41
1
10
19.2805542095857
20
-2.16960594344619
30
0
0
SPLINE
5
15F
100
AcDbEntity
8
1
62
256
6
ByLayer
370
18
48
1
60
0
100
AcDbSpline
70
4
71
3
72
9
73
5
40
0
40
0
40
0
40
0
40
0.5
40
1
40
1
40
1
40
1
41
1
10
19.7726171075859
20
-2.59468737375556
30
0
41
1
10
19.6945238488951
20
-2.39735807592928
30
0
41
1
10
19.5372771502737
20
-2.0030526628006
30
0
41
1
10
19.3762486300579
20
-1.61002625624556
30
0
41
1
10
19.2936351944819
20
-1.41425868376032
30
0
0
SPLINE
5
160
100
AcDbEntity
8
1
62
256
6
ByLayer
370
18
48
1
60
0
100
AcDbSpline
70
4
71
3
72
17
73
13
40
0
40
0
40
0
40
0
40
0.125
40
0.25
40
0.3125
40
0.375
40
0.4375
40
0.46875
40
0.5
40
0.625
40
0.75
40
1
40
1
40
1
40
1
41
1
10
19.6494000203929
20
-2.54966869076705
30
0
41
1
10
19.6522934425532
20
-2.55265010452729
30
0
41
1
10
19.6591200064382
20
-2.55813581738471
30
0
41
1
10
19.6701927483141
20
-2.56376016610565
30
0
41
1
10
19.6805200564365
20
-2.56750646550265
30
0
41
1
10
19.6890066748753
20
-2.56992472724843
30
0
41
1
10
19.6967019547271
20
-2.57160133219162
30
0
41
1
10
19.7031191372926
20
-2.57279691444632
30
0
41
1
10
19.7126602818443
20
-2.57463743040884
30
0
41
1
10
19.7262437012499
20
-2.57780308230224
30
0
41
1
10
19.7487298938637
20
-2.58432874336373
30
0
41
1
10
19.7636134884558
20
-2.59026740271597
30
0
41
1
10
19.7726171075859
20
-2.59468737375556
30
0
0
SPLINE
5
161
100
AcDbEntity
8
1
62
256
6
ByLayer
370
18
48
1
60
0
100
AcDbSpline
70
4
71
3
72
14
73
10
40
0
40
0
40
0
40
0
40
0.0327618042001991
40
0.105511744094441
40
0.251011623882924
40
0.396511503671407
40
0.542011383459891
40
0.833011143036857
40
1
40
1
40
1
40
1
41
1
10
19.4422357853918
20
-1.47514995158406
30
0
41
1
10
19.4449328086929
20
-1.48233569156369
30
0
41
1
10
19.4569766618974
20
-1.51494849497908
30
0
41
1
10
19.4836706082834
20
-1.58665946822464
30
0
41
1
10
19.5232718705513
20
-1.69333053819833
30
0
41
1
10
19.570582094042
20
-1.82073198367544
30
0
41
1
10
19.6335231478257
20
-1.99018471546617
30
0
41
1
10
19.6987931823941
20
-2.16585271172022
30
0
41
1
10
19.7486836604646
20
-2.30009873299394
30
0
41
1
10
19.7667808469102
20
-2.34881673182187
30
0
0
SPLINE
5
162
100
AcDbEntity
8
1
62
256
6
ByLayer
370
18
48
1
60
0
100
AcDbSpline
70
4
71
3
72
8
73
4
40
0
40
0
40
0
40
0
40
1
40
1
40
1
40
1
41
1
10
19.5998196118325
20
-4.96043296567137
30
0
41
1
10
19.6082883207001
20
-4.96031923907685
30
0
41
1
10
19.6167413001782
20
-4.95994061005209
30
0
41
1
10
19.6251621092313
20
-4.95930174259706
30
0
0
SPLINE
5
163
100
AcDbEntity
8
1
62
256
6
ByLayer
370
18
48
1
60
0
100
AcDbSpline
70
4
71
3
72
12
73
8
40
0
40
0
40
0
40
0
40
0.0894630037273394
40
0.338476115890807
40
0.587489228054275
40
0.836502340217744
40
1
40
1
40
1
40
1
41
1
10
19.6251621561343
20
-4.95930163903407
30
0
41
1
10
19.6298838866588
20
-4.9589434114713
30
0
41
1
10
19.6477099081841
20
-4.95727852188219
30
0
41
1
10
19.6783270217146
20
-4.95237636122999
30
0
41
1
10
19.7162791842586
20
-4.94248405516231
30
0
41
1
10
19.7487248624406
20
-4.93061807045504
30
0
41
1
10
19.7682050674938
20
-4.92168358768353
30
0
41
1
10
19.7757943061355
20
-4.91791028948842
30
0
0
SPLINE
5
164
100
AcDbEntity
8
1
62
256
6
ByLayer
370
18
48
1
60
0
100
AcDbSpline
70
4
71
3
72
14
73
10
40
0
40
0
40
0
40
0
40
0.250000000000001
40
0.250000000000001
40
0.500000000000002
40
0.500000000000002
40
0.750000000000001
40
0.750000000000001
40
1
40
1
40
1
40
1
41
1
10
19.339874165684
20
-3.68250258909293
30
0
41
1
10
19.3398741722814
20
-3.72005062670453
30
0
41
1
10
19.3324305678286
20
-3.75658361273327
30
0
41
1
10
19.3035661259538
20
-3.82454221798787
30
0
41
1
10
19.2822253915389
20
-3.855421300948
30
0
41
1
10
19.2288266088276
20
-3.9066202729866
30
0
41
1
10
19.1964818834471
20
-3.9270819228949
30
0
41
1
10
19.1262602680167
20
-3.95399940039312
30
0
41
1
10
19.0878040263923
20
-3.9607349256778
30
0
41
1
10
19.0488967653505
20
-3.95993750088945
30
0
0
SPLINE
5
165
100
AcDbEntity
8
1
62
256
6
ByLayer
370
18
48
1
60
0
100
AcDbSpline
70
4
71
3
72
11
73
7
40
0
40
0
40
0
40
0
40
0.25
40
0.5
40
0.75
40
1
40
1
40
1
40
1
41
1
10
19.0480363894943
20
-3.92149770657102
30
0
41
1
10
19.0827145789446
20
-3.92220836968175
30
0
41
1
10
19.1480366406162
20
-3.91096852830191
30
0
41
1
10
19.2319420883889
20
-3.8579044196585
30
0
41
1
10
19.2876161979509
20
-3.77722624696509
30
0
41
1
10
19.3003666315615
20
-3.71419722349017
30
0
41
1
10
19.3003666314808
20
-3.68064006973586
30
0
0
SPLINE
5
166
100
AcDbEntity
8
1
62
256
6
ByLayer
370
18
48
1
60
0
100
AcDbSpline
70
4
71
3
72
20
73
16
40
0
40
0
40
0
40
0
40
0.42275485951707
40
0.845509719034141
40
0.898354076473775
40
0.904959621153729
40
0.911565165833683
40
0.91486793817366
40
0.918170710513637
40
0.924776255193591
40
0.951198433913408
40
0.977620612633225
40
0.990831701993134
40
0.997437246673088
40
1
40
1
40
1
40
1
41
1
10
16.9353967404223
20
-3.80568896979685
30
0
41
1
10
17.2335802728479
20
-3.81179966860256
30
0
41
1
10
17.829947396
20
-3.82402213623357
30
0
41
1
10
18.4635869095632
20
-3.83700144936873
30
0
41
1
10
18.8037031176294
20
-3.8439777248604
30
0
41
1
10
18.8502943083394
20
-3.84493266028511
30
0
41
1
10
18.8619421014953
20
-3.84517134809698
30
0
41
1
10
18.8712603329498
20
-3.84536226705166
30
0
41
1
10
18.8805785622383
20
-3.84555316392041
30
0
41
1
10
18.9062036833561
20
-3.84607803416125
30
0
41
1
10
18.9481356429577
20
-3.84693633326938
30
0
41
1
10
18.9947265701396
20
-3.84788857750593
30
0
41
1
10
19.0273409904732
20
-3.84856295179375
30
0
41
1
10
19.0431250175411
20
-3.84887709680928
30
0
41
1
10
19.0495926611025
20
-3.84901881469176
30
0
41
1
10
19.051400008495
20
-3.84904950791665
30
0
0
SPLINE
5
167
100
AcDbEntity
8
1
62
256
6
ByLayer
370
18
48
1
60
0
100
AcDbSpline
70
4
71
3
72
8
73
4
40
0
40
0
40
0
40
0
40
1
40
1
40
1
40
1
41
1
10
15.3543402200618
20
-3.88422466023809
30
0
41
1
10
15.8804934213273
20
-3.89500715958175
30
0
41
1
10
16.4066466225874
20
-3.90578965892766
30
0
41
1
10
16.9327998238454
20
-3.91657215827445
30
0
0
SPLINE
5
168
100
AcDbEntity
8
1
62
256
6
ByLayer
370
18
48
1
60
0
100
AcDbSpline
70
4
71
3
72
9
73
5
40
0
40
0
40
0
40
0
40
0.148023059562568
40
1
40
1
40
1
40
1
41
1
10
14.1678416034493
20
-4.88641813790537
30
0
41
1
10
14.1738500561003
20
-4.8805226873971
30
0
41
1
10
14.2144132880755
20
-4.84074560422604
30
0
41
1
10
14.2547880720948
20
-4.80130988647565
30
0
41
1
10
14.2891959996558
20
-4.76781495733727
30
0
0
SPLINE
5
169
100
AcDbEntity
8
1
62
256
6
ByLayer
370
18
48
1
60
0
100
AcDbSpline
70
4
71
3
72
9
73
5
40
0
40
0
40
0
40
0
40
0.851909887563054
40
1
40
1
40
1
40
1
41
1
10
13.9338467189692
20
-4.43802999330734
30
0
41
1
10
13.8676336165186
20
-4.47080793090177
30
0
41
1
10
13.7900977059172
20
-4.50914560017523
30
0
41
1
10
13.7131339515643
20
-4.5471472460778
30
0
41
1
10
13.7017489866117
20
-4.55276752017284
30
0
0
SPLINE
5
16A
100
AcDbEntity
8
1
62
256
6
ByLayer
370
18
48
1
60
0
100
AcDbSpline
70
4
71
3
72
29
73
25
40
0
40
0
40
0
40
0
40
0.0625
40
0.125
40
0.1875
40
0.25
40
0.3125
40
0.375
40
0.4375
40
0.5
40
0.5625
40
0.625
40
0.65625
40
0.6875
40
0.71875
40
0.75
40
0.78125
40
0.8125
40
0.84375
40
0.875
40
0.90625
40
0.9375
40
0.96875
40
1
40
1
40
1
40
1
41
1
10
14.2891959996558
20
-4.76781495733727
30
0
41
1
10
14.2785333352261
20
-4.76733033945314
30
0
41
1
10
14.2572111219306
20
-4.76516573578542
30
0
41
1
10
14.2256995325353
20
-4.75822476645334
30
0
41
1
10
14.1951282698993
20
-4.74768606854556
30
0
41
1
10
14.1658881140184
20
-4.73383669817576
30
0
41
1
10
14.138240885423
20
-4.71708503107746
30
0
41
1
10
14.1123119729373
20
-4.69787957476922
30
0
41
1
10
14.0881180429877
20
-4.67664783628277
30
0
41
1
10
14.0656039092816
20
-4.65376308427577
30
0
41
1
10
14.0446749908097
20
-4.62953573112372
30
0
41
1
10
14.0284630214335
20
-4.60843623043334
30
0
41
1
10
14.0161742918686
20
-4.59111037826804
30
0
41
1
10
14.0072848231611
20
-4.57791256798987
30
0
41
1
10
13.9987090841823
20
-4.56453103494178
30
0
41
1
10
13.990434678583
20
-4.55098184200082
30
0
41
1
10
13.9824492053126
20
-4.53728104448498
30
0
41
1
10
13.9747423581088
20
-4.52344015539674
30
0
41
1
10
13.9673038279989
20
-4.50947068322193
30
0
41
1
10
13.9601235460877
20
-4.49538369579517
30
0
41
1
10
13.9531914415024
20
-4.48119025693472
30
0
41
1
10
13.9465001241111
20
-4.46689754023166
30
0
41
1
10
13.940042202
20
-4.45251271576899
30
0
41
1
10
13.9358875898691
20
-4.4428662084608
30
0
41
1
10
13.9338467189692
20
-4.43802999330734
30
0
0
SPLINE
5
16B
100
AcDbEntity
8
1
62
256
6
ByLayer
370
18
48
1
60
0
100
AcDbSpline
70
4
71
3
72
16
73
12
40
0
40
0
40
0
40
0
40
0.25
40
0.5
40
0.5625
40
0.59375
40
0.625
40
0.6875
40
0.75
40
0.875
40
1
40
1
40
1
40
1
41
1
10
14.2891959996558
20
-4.76781495733727
30
0
41
1
10
14.3026126908397
20
-4.75788052060813
30
0
41
1
10
14.3292557873955
20
-4.73552271796584
30
0
41
1
10
14.3585123316298
20
-4.70499405216464
30
0
41
1
10
14.3760263419145
20
-4.68445660049653
30
0
41
1
10
14.382337205536
20
-4.67671922507571
30
0
41
1
10
14.3886276727985
20
-4.66888834679114
30
0
41
1
10
14.3965447718758
20
-4.65934153584274
30
0
41
1
10
14.4093709162563
20
-4.64485724716562
30
0
41
1
10
14.4256794752255
20
-4.62830530090753
30
0
41
1
10
14.4389524269632
20
-4.61675478962525
30
0
41
1
10
14.4456289365244
20
-4.6114119781416
30
0
0
SPLINE
5
16C
100
AcDbEntity
8
1
62
256
6
ByLayer
370
18
48
1
60
0
100
AcDbSpline
70
4
71
3
72
15
73
11
40
0
40
0
40
0
40
0
40
0.125
40
0.25
40
0.375
40
0.5
40
0.625
40
0.75
40
0.875
40
1
40
1
40
1
40
1
41
1
10
14.4456289365244
20
-4.6114119781416
30
0
41
1
10
14.4264217137114
20
-4.61101836299864
30
0
41
1
10
14.3878357570689
20
-4.60510873528003
30
0
41
1
10
14.3345699588148
20
-4.58019718333759
30
0
41
1
10
14.2891440006854
20
-4.54355952811127
30
0
41
1
10
14.2510958076808
20
-4.50000814332756
30
0
41
1
10
14.2188370602128
20
-4.45250183813732
30
0
41
1
10
14.1909253610897
20
-4.40265226888704
30
0
41
1
10
14.1661938875994
20
-4.3513959560224
30
0
41
1
10
14.151283677649
20
-4.31659581657021
30
0
41
1
10
14.1440868126828
20
-4.29911272609633
30
0
0
SPLINE
5
16D
100
AcDbEntity
8
1
62
256
6
ByLayer
370
18
48
1
60
0
100
AcDbSpline
70
4
71
3
72
8
73
4
40
0
40
0
40
0
40
0
40
1
40
1
40
1
40
1
41
1
10
14.4456289365244
20
-4.6114119781416
30
0
41
1
10
14.7485326977043
20
-4.36901620551595
30
0
41
1
10
15.0514364588836
20
-4.12662043288489
30
0
41
1
10
15.354340220063
20
-3.88422466025338
30
0
0
SPLINE
5
16E
100
AcDbEntity
8
1
62
256
6
ByLayer
370
18
48
1
60
0
100
AcDbSpline
70
4
71
3
72
8
73
4
40
0
40
0
40
0
40
0
40
1
40
1
40
1
40
1
41
1
10
14.1440868126878
20
-4.29911272609453
30
0
41
1
10
14.4230979736769
20
-4.0752863331341
30
0
41
1
10
14.7021091346663
20
-3.85145994017361
30
0
41
1
10
14.9811202956558
20
-3.62763354721304
30
0
0
SPLINE
5
16F
100
AcDbEntity
8
1
62
256
6
ByLayer
370
18
48
1
60
0
100
AcDbSpline
70
4
71
3
72
17
73
13
40
0
40
0
40
0
40
0
40
0.25
40
0.375
40
0.5
40
0.53125
40
0.5625
40
0.625
40
0.6875
40
0.75
40
0.875
40
1
40
1
40
1
40
1
41
1
10
13.9338467189688
20
-4.43802999330643
30
0
41
1
10
13.9520182919144
20
-4.42631576197496
30
0
41
1
10
13.9793648699257
20
-4.4087286143949
30
0
41
1
10
14.0160169574702
20
-4.38524584356003
30
0
41
1
10
14.0366882014225
20
-4.37202742363095
30
0
41
1
10
14.0504847163881
20
-4.36321253642996
30
0
41
1
10
14.059692307503
20
-4.35733421945045
30
0
41
1
10
14.0712311328315
20
-4.3499811561795
30
0
41
1
10
14.085159051286
20
-4.34114303150406
30
0
41
1
10
14.1028145114792
20
-4.329520611173
30
0
41
1
10
14.1231537969699
20
-4.31533233907425
30
0
41
1
10
14.1374587635863
20
-4.30442983354101
30
0
41
1
10
14.1440868126824
20
-4.29911272609536
30
0
0
SPLINE
5
170
100
AcDbEntity
8
1
62
256
6
ByLayer
370
18
48
1
60
0
100
AcDbSpline
70
4
71
3
72
10
73
6
40
0
40
0
40
0
40
0
40
0.470321334188272
40
0.940642668376545
40
1
40
1
40
1
40
1
41
1
10
13.7017499755807
20
-4.5527670319608
30
0
41
1
10
13.7039079003562
20
-4.55857677111055
30
0
41
1
10
13.7084509102911
20
-4.57012592264914
30
0
41
1
10
13.7137553854305
20
-4.58223676679256
30
0
41
1
10
13.7167042569478
20
-4.58859654166898
30
0
41
1
10
13.7170364603725
20
-4.58930853651717
30
0
0
SPLINE
5
171
100
AcDbEntity
8
1
62
256
6
ByLayer
370
18
48
1
60
0
100
AcDbSpline
70
4
71
3
72
12
73
8
40
0
40
0
40
0
40
0
40
0.250000000000002
40
0.250000000000002
40
0.500000000000004
40
0.500000000000004
40
1
40
1
40
1
40
1
41
1
10
15.3543402200617
20
-3.88422466025426
30
0
41
1
10
15.3142189027516
20
-3.88340245162098
30
0
41
1
10
15.2747247371261
20
-3.87660453922032
30
0
41
1
10
15.1979809057344
20
-3.85135946013011
30
0
41
1
10
15.162236379887
20
-3.83348323024305
30
0
41
1
10
15.0626709273975
20
-3.76452152297332
30
0
41
1
10
15.0111737826341
20
-3.70064143574805
30
0
41
1
10
14.9811202954091
20
-3.62763354724095
30
0
0
SPLINE
5
172
100
AcDbEntity
8
1
62
256
6
ByLayer
370
18
48
1
60
0
100
AcDbSpline
70
4
71
3
72
10
73
6
40
0
40
0
40
0
40
0
40
0.5
40
0.750000000000001
40
1
40
1
40
1
40
1
41
1
10
15.0179372923284
20
-3.6146397988033
30
0
41
1
10
15.0455634654878
20
-3.68175109031398
30
0
41
1
10
15.1143693162957
20
-3.76704027734553
30
0
41
1
10
15.2462008106448
20
-3.83289046383203
30
0
41
1
10
15.316874116317
20
-3.84503470215691
30
0
41
1
10
15.3535739120288
20
-3.84578679373629
30
0
0
SPLINE
5
173
100
AcDbEntity
8
1
62
256
6
ByLayer
370
18
48
1
60
0
100
AcDbSpline
70
4
71
3
72
16
73
12
40
0
40
0
40
0
40
0
40
0.0329788589971752
40
0.110159870813159
40
0.264521894445126
40
0.418883918077093
40
0.57324594170906
40
0.727607965341028
40
0.881969988972995
40
0.959151000788979
40
1
40
1
40
1
40
1
41
1
10
15.0678582456684
20
-3.59254115513053
30
0
41
1
10
15.0693746358103
20
-3.59615609430531
30
0
41
1
10
15.0745364899948
20
-3.6081930562591
30
0
41
1
10
15.0891014967927
20
-3.63617795261214
30
0
41
1
10
15.1160688380443
20
-3.67398295269021
30
0
41
1
10
15.1577058119103
20
-3.71175848963796
30
0
41
1
10
15.206039520376
20
-3.74095930082277
30
0
41
1
10
15.258677475143
20
-3.76183049754488
30
0
41
1
10
15.3044964706166
20
-3.77308172058795
30
0
41
1
10
15.3372396511286
20
-3.77716725375043
30
0
41
1
10
15.3514192704152
20
-3.77819737541137
30
0
41
1
10
15.3563268620337
20
-3.77850980568653
30
0
0
SPLINE
5
174
100
AcDbEntity
8
1
62
256
6
ByLayer
370
18
48
1
60
0
100
AcDbSpline
70
4
71
3
72
10
73
6
40
0
40
0
40
0
40
0
40
0.482119196791571
40
0.742135783910875
40
1
40
1
40
1
40
1
41
1
10
19.9300107469983
20
-4.78268686909908
30
0
41
1
10
19.9365530022692
20
-4.77293477193794
30
0
41
1
10
19.9459474073448
20
-4.75749557427383
30
0
41
1
10
19.9571341385828
20
-4.73594785390873
30
0
41
1
10
19.9623863332927
20
-4.72453341421394
30
0
41
1
10
19.9648650726826
20
-4.71878971935618
30
0
0
SPLINE
5
175
100
AcDbEntity
8
1
62
256
6
ByLayer
370
18
48
1
60
0
100
AcDbSpline
70
4
71
3
72
8
73
4
40
0
40
0
40
0
40
0
40
1
40
1
40
1
40
1
41
1
10
19.8862727072974
20
-4.8369139357859
30
0
41
1
10
19.8546105361083
20
-4.86974346438507
30
0
41
1
10
19.8172187859835
20
-4.89729374874031
30
0
41
1
10
19.7757761944477
20
-4.9178742766324
30
0
0
SPLINE
5
176
100
AcDbEntity
8
1
62
256
6
ByLayer
370
18
48
1
60
0
100
AcDbSpline
70
4
71
3
72
8
73
4
40
0
40
0
40
0
40
0
40
1
40
1
40
1
40
1
41
1
10
16.6354815626212
20
-4.9558415796956
30
0
41
1
10
16.6858138432918
20
-4.95665827527881
30
0
41
1
10
16.7361451885713
20
-4.95743800129031
30
0
41
1
10
16.7864755972511
20
-4.95818071022384
30
0
0
SPLINE
5
177
100
AcDbEntity
8
1
62
256
6
ByLayer
370
18
48
1
60
0
100
AcDbSpline
70
4
71
3
72
27
73
23
40
0
40
0
40
0
40
0
40
0.0292495184271076
40
0.0627236729641039
40
0.0961978275011002
40
0.129671982038096
40
0.163146136575093
40
0.196620291112089
40
0.230094445649085
40
0.263568600186082
40
0.297042754723078
40
0.330516909260074
40
0.397465218334067
40
0.464413527408059
40
0.531361836482052
40
0.598310145556045
40
0.665258454630037
40
0.73220676370403
40
0.799155072778022
40
0.866103381852015
40
0.933051690926007
40
1
40
1
40
1
40
1
41
1
10
13.7170451814956
20
-4.58930397525472
30
0
41
1
10
13.7193451979284
20
-4.59423348462605
30
0
41
1
10
13.7244567337151
20
-4.60473253726747
30
0
41
1
10
13.7328769046545
20
-4.62057858621608
30
0
41
1
10
13.7423024939648
20
-4.6368103781212
30
0
41
1
10
13.7523485789545
20
-4.65270901353944
30
0
41
1
10
13.7630000191651
20
-4.66825149021801
30
0
41
1
10
13.7742416739598
20
-4.68341480592468
30
0
41
1
10
13.7860584026198
20
-4.69817595823349
30
0
41
1
10
13.7984317077855
20
-4.71251429420448
30
0
41
1
10
13.8113430922477
20
-4.72640916107488
30
0
41
1
10
13.829251047683
20
-4.74431682107436
30
0
41
1
10
13.8528887037511
20
-4.76548945892995
30
0
41
1
10
13.8830868733336
20
-4.78881491973459
30
0
41
1
10
13.9149466684125
20
-4.80991607040167
30
0
41
1
10
13.948277331396
20
-4.82867627572997
30
0
41
1
10
13.9828881046291
20
-4.84497890042829
30
0
41
1
10
14.0185732992107
20
-4.85873597367657
30
0
41
1
10
14.0551272260924
20
-4.86985952462553
30
0
41
1
10
14.0923340383293
20
-4.87829232952529
30
0
41
1
10
14.1299778889897
20
-4.88397716513862
30
0
41
1
10
14.1552179289596
20
-4.88591829729481
30
0
41
1
10
14.1678371789735
20
-4.88642247916977
30
0
0
SPLINE
5
178
100
AcDbEntity
8
1
62
256
6
ByLayer
370
18
48
1
60
0
100
AcDbSpline
70
4
71
3
72
10
73
6
40
0
40
0
40
0
40
0
40
0.369010685605637
40
0.801964637755172
40
1
40
1
40
1
40
1
41
1
10
19.7667808469102
20
-2.34881673182187
30
0
41
1
10
19.7802203569872
20
-2.38499616988773
30
0
41
1
10
19.8093160800639
20
-2.46334875264572
30
0
41
1
10
19.8449526306779
20
-2.55944954907812
30
0
41
1
10
19.8693015314863
20
-2.62468280435974
30
0
41
1
10
19.874414347713
20
-2.63858614400314
30
0
0
SPLINE
5
179
100
AcDbEntity
8
1
62
256
6
ByLayer
370
18
48
1
60
0
100
AcDbSpline
70
4
71
3
72
16
73
12
40
0
40
0
40
0
40
0
40
0.0010332454567785
40
0.125904089774681
40
0.250774934092584
40
0.375645778410487
40
0.500516622728389
40
0.625387467046292
40
0.750258311364195
40
0.875129155682097
40
1
40
1
40
1
40
1
41
1
10
19.9648649921942
20
-4.71878944339679
30
0
41
1
10
19.964885673737
20
-4.71874152041704
30
0
41
1
10
19.9674046249587
20
-4.71290144949674
30
0
41
1
10
19.9721409014505
20
-4.70114535679599
30
0
41
1
10
19.9783665141772
20
-4.68322917691441
30
0
41
1
10
19.9837286210486
20
-4.66500068830294
30
0
41
1
10
19.9882142951492
20
-4.64650436964729
30
0
41
1
10
19.9918106098129
20
-4.62778469969047
30
0
41
1
10
19.9945052334705
20
-4.60888715646797
30
0
41
1
10
19.996285834109
20
-4.58985721946038
30
0
41
1
10
19.9968553315099
20
-4.57711265100161
30
0
41
1
10
19.996983632175
20
-4.57073346216885
30
0
0
SPLINE
5
17A
100
AcDbEntity
8
1
62
256
6
ByLayer
370
18
48
1
60
0
100
AcDbSpline
70
4
71
3
72
9
73
5
40
0
40
0
40
0
40
0
40
0.867034889269211
40
1
40
1
40
1
40
1
41
1
10
19.929554793002
20
-4.78337759198365
30
0
41
1
10
19.9184305594263
20
-4.7998933384107
30
0
41
1
10
19.9042108489244
20
-4.81791670220272
30
0
41
1
10
19.8884025875768
20
-4.8347037954085
30
0
41
1
10
19.8862734435722
20
-4.83691317176812
30
0
0
SPLINE
5
17B
100
AcDbEntity
8
1
62
256
6
ByLayer
370
18
48
1
60
0
100
AcDbSpline
70
4
71
3
72
9
73
5
40
0
40
0
40
0
40
0
40
0.0349179901732568
40
1
40
1
40
1
40
1
41
1
10
16.7864756138085
20
-4.95818066770411
30
0
41
1
10
16.8192326196421
20
-4.95866405191609
30
0
41
1
10
17.757333837244
20
-4.97205841056271
30
0
41
1
10
18.6951093925041
20
-4.97258172640679
30
0
41
1
10
19.5998196261817
20
-4.96043295121675
30
0
0
SPLINE
5
17C
100
AcDbEntity
8
1
62
256
6
ByLayer
370
18
48
1
60
0
100
AcDbSpline
70
4
71
3
72
8
73
4
40
0
40
0
40
0
40
0
40
1
40
1
40
1
40
1
41
1
10
15.8550569417455
20
3.07874349872907
30
0
41
1
10
15.861479003766
20
3.07500140109528
30
0
41
1
10
15.8679016125064
20
3.07125940867309
30
0
41
1
10
15.8743248095165
20
3.06751753032404
30
0
0
SPLINE
5
17D
100
AcDbEntity
8
1
62
256
6
ByLayer
370
18
48
1
60
0
100
AcDbSpline
70
4
71
3
72
18
73
14
40
0
40
0
40
0
40
0
40
0.125
40
0.125
40
0.25
40
0.25
40
0.5
40
0.5
40
0.750000000000001
40
0.750000000000001
40
0.875
40
0.875
40
1
40
1
40
1
40
1
41
1
10
15.8743248095165
20
3.06751753032404
30
0
41
1
10
15.890745375977
20
3.05795161446892
30
0
41
1
10
15.9038447795338
20
3.04333518623554
30
0
41
1
10
15.9253821443529
20
3.01091542732118
30
0
41
1
10
15.933689166101
20
2.99313381691232
30
0
41
1
10
15.9532247294295
20
2.93827250276925
30
0
41
1
10
15.9591476740632
20
2.89965513868572
30
0
41
1
10
15.9591288468538
20
2.82516355207903
30
0
41
1
10
15.9531980558528
20
2.78919244512573
30
0
41
1
10
15.9336662685465
20
2.74173179362202
30
0
41
1
10
15.9253212571832
20
2.72692770605357
30
0
41
1
10
15.9038016978645
20
2.70168928857203
30
0
41
1
10
15.8907750217383
20
2.69118693161667
30
0
41
1
10
15.8743248095165
20
2.68600122518785
30
0
0
SPLINE
5
17E
100
AcDbEntity
8
1
62
256
6
ByLayer
370
18
48
1
60
0
100
AcDbSpline
70
4
71
3
72
18
73
14
40
0
40
0
40
0
40
0
40
0.125
40
0.125
40
0.25
40
0.25
40
0.5
40
0.5
40
0.750000000000001
40
0.750000000000001
40
0.875
40
0.875
40
1
40
1
40
1
40
1
41
1
10
17.3705642539904
20
2.74815943605665
30
0
41
1
10
17.3568263957843
20
2.75208292692264
30
0
41
1
10
17.3461324333714
20
2.76164009416581
30
0
41
1
10
17.3287523792754
20
2.7853159600858
30
0
41
1
10
17.3221770360407
20
2.79945540549201
30
0
41
1
10
17.3068249780943
20
2.84551773254032
30
0
41
1
10
17.3023306517213
20
2.88113034522723
30
0
41
1
10
17.3023451242721
20
2.95563109080015
30
0
41
1
10
17.306845666703
20
2.99461037810957
30
0
41
1
10
17.3221951669404
20
3.05086745428227
30
0
41
1
10
17.328801074958
20
3.06932932318424
30
0
41
1
10
17.3461676397728
20
3.10330255554177
30
0
41
1
10
17.3568015933961
20
3.11883742291658
30
0
41
1
10
17.3705642539904
20
3.12967574119284
30
0
0
SPLINE
5
17F
100
AcDbEntity
8
1
62
256
6
ByLayer
370
18
48
1
60
0
100
AcDbSpline
70
4
71
3
72
8
73
4
40
0
40
0
40
0
40
0
40
1
40
1
40
1
40
1
41
1
10
15.8743248095165
20
2.68600122518785
30
0
41
1
10
15.8679016125064
20
2.68397639939357
30
0
41
1
10
15.861479003766
20
2.6819524854877
30
0
41
1
10
15.8550569417455
20
2.67992941778394
30
0
0
SPLINE
5
180
100
AcDbEntity
8
1
62
256
6
ByLayer
370
18
48
1
60
0
100
AcDbSpline
70
4
71
3
72
12
73
8
40
0
40
0
40
0
40
0
40
0.25
40
0.25
40
0.500000000000001
40
0.500000000000001
40
1
40
1
40
1
40
1
41
1
10
16.0589531370758
20
3.42790680944284
30
0
41
1
10
16.0413796665941
20
3.43928213982593
30
0
41
1
10
16.0190854188
20
3.44010888802538
30
0
41
1
10
15.9792946345212
20
3.42937342705065
30
0
41
1
10
15.9608424443412
20
3.41866525621802
30
0
41
1
10
15.9110682145726
20
3.38065511289011
30
0
41
1
10
15.8844146615038
20
3.3473690537374
30
0
41
1
10
15.8633079005361
20
3.31122464934589
30
0
0
SPLINE
5
181
100
AcDbEntity
8
1
62
256
6
ByLayer
370
18
48
1
60
0
100
AcDbSpline
70
4
71
3
72
8
73
4
40
0
40
0
40
0
40
0
40
1
40
1
40
1
40
1
41
1
10
17.3866826208973
20
2.74355767747755
30
0
41
1
10
17.3813108259593
20
2.74509079348911
30
0
41
1
10
17.3759380618895
20
2.7466246927298
30
0
41
1
10
17.3705642539904
20
2.74815943605665
30
0
0
SPLINE
5
182
100
AcDbEntity
8
1
62
256
6
ByLayer
370
18
48
1
60
0
100
AcDbSpline
70
4
71
3
72
8
73
4
40
0
40
0
40
0
40
0
40
1
40
1
40
1
40
1
41
1
10
16.416973585991
20
3.64218707802152
30
0
41
1
10
16.4178594528205
20
3.63472965375965
30
0
41
1
10
16.4187451548087
20
3.62727185718248
30
0
41
1
10
16.4196306789374
20
3.61981366053107
30
0
0
SPLINE
5
183
100
AcDbEntity
8
1
62
256
6
ByLayer
370
18
48
1
60
0
100
AcDbSpline
70
4
71
3
72
12
73
8
40
0
40
0
40
0
40
0
40
0.25
40
0.25
40
0.5
40
0.5
40
1
40
1
40
1
40
1
41
1
10
15.8550569417455
20
2.67992941778394
30
0
41
1
10
15.8374829018884
20
2.67335395409717
30
0
41
1
10
15.8264349373024
20
2.65738450934992
30
0
41
1
10
15.8169558911345
20
2.62223486597267
30
0
41
1
10
15.8173725290747
20
2.60282640534862
30
0
41
1
10
15.8263203314899
20
2.54574275592145
30
0
41
1
10
15.8422011395685
20
2.50847388374109
30
0
41
1
10
15.8633079005361
20
2.4740831538752
30
0
0
SPLINE
5
184
100
AcDbEntity
8
1
62
256
6
ByLayer
370
18
48
1
60
0
100
AcDbSpline
70
4
71
3
72
12
73
8
40
0
40
0
40
0
40
0
40
0.5
40
0.5
40
0.75
40
0.75
40
1
40
1
40
1
40
1
41
1
10
16.6148204181074
20
3.76101544926627
30
0
41
1
10
16.572600898509
20
3.75926152558
30
0
41
1
10
16.5302770793537
20
3.75127787058102
30
0
41
1
10
16.4725842877638
20
3.72495565132579
30
0
41
1
10
16.4542432706324
20
3.71366343135097
30
0
41
1
10
16.4253617844094
20
3.68311069404123
30
0
41
1
10
16.4155154320112
20
3.66318460296532
30
0
41
1
10
16.416973585991
20
3.64218707802152
30
0
0
SPLINE
5
185
100
AcDbEntity
8
1
62
256
6
ByLayer
370
18
48
1
60
0
100
AcDbSpline
70
4
71
3
72
12
73
8
40
0
40
0
40
0
40
0
40
0.25
40
0.25
40
0.5
40
0.5
40
1
40
1
40
1
40
1
41
1
10
16.8247659766518
20
3.65912797976222
30
0
41
1
10
16.8233074246931
20
3.68014768103191
30
0
41
1
10
16.8108876051392
20
3.69941212254494
30
0
41
1
10
16.7789883073975
20
3.72716535089774
30
0
41
1
10
16.7596157506893
20
3.73692511138194
30
0
41
1
10
16.6997929909309
20
3.75831373048789
30
0
41
1
10
16.6570339400427
20
3.76276912379186
30
0
41
1
10
16.6148204181074
20
3.76101544926627
30
0
0
SPLINE
5
186
100
AcDbEntity
8
1
62
256
6
ByLayer
370
18
48
1
60
0
100
AcDbSpline
70
4
71
3
72
12
73
8
40
0
40
0
40
0
40
0
40
0.25
40
0.25
40
0.5
40
0.5
40
1
40
1
40
1
40
1
41
1
10
17.3866826208973
20
3.14237175842268
30
0
41
1
10
17.4013384180863
20
3.15508503650912
30
0
41
1
10
17.4100393099808
20
3.17599097838902
30
0
41
1
10
17.4163432368871
20
3.21781871366687
30
0
41
1
10
17.4149191417708
20
3.23934611567645
30
0
41
1
10
17.4037698842064
20
3.30105999111697
30
0
41
1
10
17.3874396966463
20
3.33927402385001
30
0
41
1
10
17.3663329356786
20
3.3736647537159
30
0
0
SPLINE
5
187
100
AcDbEntity
8
1
62
256
6
ByLayer
370
18
48
1
60
0
100
AcDbSpline
70
4
71
3
72
18
73
14
40
0
40
0
40
0
40
0
40
0.125
40
0.125
40
0.25
40
0.25
40
0.5
40
0.5
40
0.750000000000001
40
0.750000000000001
40
0.875000000000001
40
0.875000000000001
40
1
40
1
40
1
40
1
41
1
10
16.4196306789374
20
3.61981366053107
30
0
41
1
10
16.4218944749542
20
3.60074717174047
30
0
41
1
10
16.4177513950933
20
3.58176578755018
30
0
41
1
10
16.4036548428558
20
3.54603687473625
30
0
41
1
10
16.3936357966479
20
3.52941198828094
30
0
41
1
10
16.3584986963646
20
3.48329910666584
30
0
41
1
10
16.3283044793785
20
3.45749542503592
30
0
41
1
10
16.2614184467236
20
3.41748762444536
30
0
41
1
10
16.2246480414183
20
3.40322207355979
30
0
41
1
10
16.1679326425283
20
3.39435477045817
30
0
41
1
10
16.1486725129876
20
3.39350387179539
30
0
41
1
10
16.1110220634272
20
3.39823821602224
30
0
41
1
10
16.0926647672842
20
3.4036616973963
30
0
41
1
10
16.0771386623325
20
3.41482737685226
30
0
0
SPLINE
5
188
100
AcDbEntity
8
1
62
256
6
ByLayer
370
18
48
1
60
0
100
AcDbSpline
70
4
71
3
72
8
73
4
40
0
40
0
40
0
40
0
40
1
40
1
40
1
40
1
41
1
10
16.0771386623325
20
3.41482737685226
30
0
41
1
10
16.0710762948957
20
3.41918716005316
30
0
41
1
10
16.0650144658081
20
3.42354697184092
30
0
41
1
10
16.0589531370758
20
3.42790680944284
30
0
0
SPLINE
5
189
100
AcDbEntity
8
1
62
256
6
ByLayer
370
18
48
1
60
0
100
AcDbSpline
70
4
71
3
72
8
73
4
40
0
40
0
40
0
40
0
40
1
40
1
40
1
40
1
41
1
10
17.1827864255669
20
3.47459416739577
30
0
41
1
10
17.1777753639171
20
3.46977434995657
30
0
41
1
10
17.1727633795003
20
3.46495449921082
30
0
41
1
10
17.1677504011744
20
3.46013461339737
30
0
0
SPLINE
5
18A
100
AcDbEntity
8
1
62
256
6
ByLayer
370
18
48
1
60
0
100
AcDbSpline
70
4
71
3
72
18
73
14
40
0
40
0
40
0
40
0
40
0.125
40
0.125
40
0.25
40
0.25
40
0.5
40
0.5
40
0.75
40
0.75
40
0.875
40
0.875
40
1
40
1
40
1
40
1
41
1
10
17.1677504011744
20
3.46013461339737
30
0
41
1
10
17.1549349848578
20
3.44781282796731
30
0
41
1
10
17.1388952220121
20
3.44091824151533
30
0
41
1
10
17.1053399603171
20
3.43323714111855
30
0
41
1
10
17.0878797316178
20
3.43257278257079
30
0
41
1
10
17.035298820697
20
3.43692172155136
30
0
41
1
10
16.9998959682075
20
3.44823302830667
30
0
41
1
10
16.9330265854326
20
3.48272139380592
30
0
41
1
10
16.9014718468434
20
3.50593104005171
30
0
41
1
10
16.8621970917253
20
3.5489226007883
30
0
41
1
10
16.850412421875
20
3.56470468036071
30
0
41
1
10
16.8322050343814
20
3.59904484950712
30
0
41
1
10
16.8256780531132
20
3.61748694304626
30
0
41
1
10
16.8252583845695
20
3.63666463485475
30
0
0
SPLINE
5
18B
100
AcDbEntity
8
1
62
256
6
ByLayer
370
18
48
1
60
0
100
AcDbSpline
70
4
71
3
72
8
73
4
40
0
40
0
40
0
40
0
40
1
40
1
40
1
40
1
41
1
10
17.3705642539904
20
3.12967574119284
30
0
41
1
10
17.3759380618895
20
3.13390770200931
30
0
41
1
10
17.3813108259593
20
3.13813970909666
30
0
41
1
10
17.3866826208973
20
3.14237175842268
30
0
0
SPLINE
5
18C
100
AcDbEntity
8
1
62
256
6
ByLayer
370
18
48
1
60
0
100
AcDbSpline
70
4
71
3
72
12
73
8
40
0
40
0
40
0
40
0
40
0.5
40
0.5
40
0.75
40
0.75
40
1
40
1
40
1
40
1
41
1
10
17.3663329356786
20
2.53652325824521
30
0
41
1
10
17.3874426954778
20
2.57267279800448
30
0
41
1
10
17.4037842493335
20
2.61128990405632
30
0
41
1
10
17.4149316244704
20
2.66928783731473
30
0
41
1
10
17.416367240562
20
2.688740999695
30
0
41
1
10
17.4099507387705
20
2.72346059256728
30
0
41
1
10
17.4013229887927
20
2.73832664943706
30
0
41
1
10
17.3866826208973
20
2.74355767747755
30
0
0
SPLINE
5
18D
100
AcDbEntity
8
1
62
256
6
ByLayer
370
18
48
1
60
0
100
AcDbSpline
70
4
71
3
72
8
73
4
40
0
40
0
40
0
40
0
40
1
40
1
40
1
40
1
41
1
10
16.8252583845695
20
3.63666463485475
30
0
41
1
10
16.8250945195872
20
3.64415281136101
30
0
41
1
10
16.8249303769048
20
3.65164058364542
30
0
41
1
10
16.8247659766518
20
3.65912797976222
30
0
0
SPLINE
5
18E
100
AcDbEntity
8
1
62
256
6
ByLayer
370
18
48
1
60
0
100
AcDbSpline
70
4
71
3
72
12
73
8
40
0
40
0
40
0
40
0
40
0.5
40
0.5
40
0.75
40
0.75
40
1
40
1
40
1
40
1
41
1
10
17.3663329356786
20
3.3736647537159
30
0
41
1
10
17.3452231758794
20
3.40806036978893
30
0
41
1
10
17.3190166272652
20
3.43916554629948
30
0
41
1
10
17.2713679297023
20
3.47316174405034
30
0
41
1
10
17.2539609037397
20
3.48237773259984
30
0
41
1
10
17.2170592443793
20
3.48991752119053
30
0
41
1
10
17.1974262246864
20
3.4872949879757
30
0
41
1
10
17.1827864255669
20
3.47459416739577
30
0
0
SPLINE
5
18F
100
AcDbEntity
8
1
62
256
6
ByLayer
370
18
48
1
60
0
100
AcDbSpline
70
4
71
3
72
12
73
8
40
0
40
0
40
0
40
0
40
0.5
40
0.5
40
0.75
40
0.75
40
1
40
1
40
1
40
1
41
1
10
15.8633079005361
20
3.31122464934589
30
0
41
1
10
15.842198140737
20
3.2750751095866
30
0
41
1
10
15.8263051535105
20
3.23551455261938
30
0
41
1
10
15.8173643405934
20
3.17287565186561
30
0
41
1
10
15.8169319743474
20
3.15131239719727
30
0
41
1
10
15.8265558188306
20
3.10984693826867
30
0
41
1
10
15.8375014034422
20
3.09010587941631
30
0
41
1
10
15.8550569417455
20
3.07874349872907
30
0
0
LINE
5
72
100
AcDbEntity
8
4
62
256
6
ByLayer
370
18
48
0.05
60
0
100
AcDbLine
10
0
20
0
30
0
11
25
21
0
31
0
39
0
210
0
220
0
230
1
0
LINE
5
74
100
AcDbEntity
8
1
62
256
6
ByLayer
370
18
48
1
60
0
100
AcDbLine
10
17.789026
20
3.248877
30
0
11
17.70024
21
3.435616
31
0
39
0
210
0
220
0
230
1
0
LINE
5
76
100
AcDbEntity
8
1
62
256
6
ByLayer
370
18
48
1
60
0
100
AcDbLine
10
8.158023
20
4.553794
30
0
11
7.904411
21
4.550065
31
0
39
0
210
0
220
0
230
1
0
LINE
5
77
100
AcDbEntity
8
1
62
256
6
ByLayer
370
18
48
1
60
0
100
AcDbLine
10
7.904411
20
-4.550065
30
0
11
8.158023
21
-4.553794
31
0
39
0
210
0
220
0
230
1
0
LINE
5
78
100
AcDbEntity
8
1
62
256
6
ByLayer
370
18
48
1
60
0
100
AcDbLine
10
7.419615
20
-4.55
30
0
11
7.895588
21
-4.55
31
0
39
0
210
0
220
0
230
1
0
LINE
5
79
100
AcDbEntity
8
1
62
256
6
ByLayer
370
18
48
1
60
0
100
AcDbLine
10
7.895588
20
4.55
30
0
11
7.419615
21
4.55
31
0
39
0
210
0
220
0
230
1
0
LINE
5
7A
100
AcDbEntity
8
SK1
62
256
6
ByLayer
370
18
48
1
60
0
100
AcDbLine
10
-0.288484
20
3.613834
30
0
11
-2.1
21
3.544242
31
0
39
0
210
0
220
0
230
1
0
LINE
5
7C
100
AcDbEntity
8
SK1
62
256
6
ByLayer
370
18
48
1
60
0
100
AcDbLine
10
-2.1
20
-3.544242
30
0
11
-0.288484
21
-3.613834
31
0
39
0
210
0
220
0
230
1
0
LINE
5
7D
100
AcDbEntity
8
SK1
62
256
6
ByLayer
370
18
48
1
60
0
100
AcDbLine
10
-2.1
20
3.544242
30
0
11
-7.7
21
2.955659
31
0
39
0
210
0
220
0
230
1
0
LINE
5
7E
100
AcDbEntity
8
SK1
62
256
6
ByLayer
370
18
48
1
60
0
100
AcDbLine
10
-7.7
20
-2.955659
30
0
11
-2.1
21
-3.544242
31
0
39
0
210
0
220
0
230
1
0
LINE
5
7F
100
AcDbEntity
8
SK1
62
256
6
ByLayer
370
18
48
1
60
0
100
AcDbLine
10
-11.2
20
-2
30
0
11
-11
21
-2.2
31
0
39
0
210
0
220
0
230
1
0
LINE
5
80
100
AcDbEntity
8
1
62
256
6
ByLayer
370
18
48
1
60
0
100
AcDbLine
10
17.325317
20
2.794101
30
0
11
17.405198
21
2.626089
31
0
39
0
210
0
220
0
230
1
0
LINE
5
81
100
AcDbEntity
8
1
62
256
6
ByLayer
370
18
48
1
60
0
100
AcDbLine
10
16.014431
20
2.822064
30
0
11
15.929696
21
3.000285
31
0
39
0
210
0
220
0
230
1
0
LINE
5
82
100
AcDbEntity
8
1
62
256
6
ByLayer
370
18
48
1
60
0
100
AcDbLine
10
16.83785
20
3.588755
30
0
11
16.924514
21
3.40648
31
0
39
0
210
0
220
0
230
1
0
LINE
5
83
100
AcDbEntity
8
SK1
62
256
6
ByLayer
370
18
48
1
60
0
100
AcDbLine
10
-11
20
2.2
30
0
11
-11.2
21
2
31
0
39
0
210
0
220
0
230
1
0
LINE
5
84
100
AcDbEntity
8
SK1
62
256
6
ByLayer
370
18
48
1
60
0
100
AcDbLine
10
-8.2
20
2.2
30
0
11
-11
21
2.2
31
0
39
0
210
0
220
0
230
1
0
LINE
5
85
100
AcDbEntity
8
SK1
62
256
6
ByLayer
370
18
48
1
60
0
100
AcDbLine
10
-11
20
-2.2
30
0
11
-8.2
21
-2.2
31
0
39
0
210
0
220
0
230
1
0
LINE
5
86
100
AcDbEntity
8
1
62
256
6
ByLayer
370
18
48
1
60
0
100
AcDbLine
10
6.9
20
4.85
30
0
11
0
21
4.85
31
0
39
0
210
0
220
0
230
1
0
LINE
5
87
100
AcDbEntity
8
1
62
256
6
ByLayer
370
18
48
1
60
0
100
AcDbLine
10
0
20
-4.85
30
0
11
6.9
21
-4.85
31
0
39
0
210
0
220
0
230
1
0
LINE
5
88
100
AcDbEntity
8
80
62
256
6
ByLayer
370
18
48
1
60
0
100
AcDbLine
10
0
20
0
30
0
11
-5
21
0
31
0
39
0
210
0
220
0
230
1
0
LINE
5
89
100
AcDbEntity
8
SK4
62
256
6
ByLayer
370
18
48
0.05
60
0
100
AcDbLine
10
-37
20
0
30
0
11
25
21
0
31
0
39
0
210
0
220
0
230
1
0
LINE
5
8B
100
AcDbEntity
8
81
62
256
6
ByLayer
370
18
48
1
60
0
100
AcDbLine
10
20
20
5
30
0
11
25
21
5
31
0
39
0
210
0
220
0
230
1
0
LINE
5
8C
100
AcDbEntity
8
SK1
62
256
6
ByLayer
370
18
48
1
60
0
100
AcDbLine
10
-2.1
20
3.544242
30
0
11
-2.1
21
-3.544242
31
0
39
0
210
0
220
0
230
1
0
LINE
5
8D
100
AcDbEntity
8
SK1
62
256
6
ByLayer
370
18
48
1
60
0
100
AcDbLine
10
-0.288484
20
3.613834
30
0
11
-0.288484
21
-3.613834
31
0
39
0
210
0
220
0
230
1
0
LINE
5
8E
100
AcDbEntity
8
SK1
62
256
6
ByLayer
370
18
48
1
60
0
100
AcDbLine
10
-11
20
2.2
30
0
11
-11
21
-2.2
31
0
39
0
210
0
220
0
230
1
0
LINE
5
8F
100
AcDbEntity
8
SK1
62
256
6
ByLayer
370
18
48
1
60
0
100
AcDbLine
10
-7.7
20
2.955659
30
0
11
-7.7
21
-2.955659
31
0
39
0
210
0
220
0
230
1
0
LINE
5
90
100
AcDbEntity
8
SK1
62
256
6
ByLayer
370
18
48
1
60
0
100
AcDbLine
10
-11.2
20
2
30
0
11
-11.2
21
-2
31
0
39
0
210
0
220
0
230
1
0
LINE
5
91
100
AcDbEntity
8
SK1
62
256
6
ByLayer
370
18
48
1
60
0
100
AcDbLine
10
-8.2
20
2.2
30
0
11
-8.2
21
-2.2
31
0
39
0
210
0
220
0
230
1
0
LINE
5
92
100
AcDbEntity
8
1
62
256
6
ByLayer
370
18
48
1
60
0
100
AcDbLine
10
18.228415
20
-1.475642
30
0
11
18.228415
21
-1.534391
31
0
39
0
210
0
220
0
230
1
0
LINE
5
93
100
AcDbEntity
8
1
62
256
6
ByLayer
370
18
48
1
60
0
100
AcDbLine
10
5.3
20
-2.425387
30
0
11
5.3
21
2.425387
31
0
39
0
210
0
220
0
230
1
0
LINE
5
94
100
AcDbEntity
8
1
62
256
6
ByLayer
370
18
48
1
60
0
100
AcDbLine
10
5.1
20
-2.742718
30
0
11
5.1
21
2.742718
31
0
39
0
210
0
220
0
230
1
0
LINE
5
95
100
AcDbEntity
8
1
62
256
6
ByLayer
370
18
48
1
60
0
100
AcDbLine
10
13.19081
20
2.916093
30
0
11
12.820129
21
2.681877
31
0
39
0
210
0
220
0
230
1
0
LINE
5
96
100
AcDbEntity
8
1
62
256
6
ByLayer
370
18
48
1
60
0
100
AcDbLine
10
1.6
20
2.425387
30
0
11
1.6
21
-2.425387
31
0
39
0
210
0
220
0
230
1
0
LINE
5
97
100
AcDbEntity
8
1
62
256
6
ByLayer
370
18
48
1
60
0
100
AcDbLine
10
7.419615
20
-4.55
30
0
11
7.419615
21
4.55
31
0
39
0
210
0
220
0
230
1
0
LINE
5
98
100
AcDbEntity
8
1
62
256
6
ByLayer
370
18
48
1
60
0
100
AcDbLine
10
0
20
4.85
30
0
11
0
21
-4.85
31
0
39
0
210
0
220
0
230
1
0
LINE
5
99
100
AcDbEntity
8
1
62
256
6
ByLayer
370
18
48
1
60
0
100
AcDbLine
10
19.282648
20
2.125951
30
0
11
19.282648
21
-3.479562
31
0
39
0
210
0
220
0
230
1
0
LINE
5
9A
100
AcDbEntity
8
1
62
256
6
ByLayer
370
18
48
1
60
0
100
AcDbLine
10
6.9
20
-4.85
30
0
11
6.9
21
4.85
31
0
39
0
210
0
220
0
230
1
0
LINE
5
9B
100
AcDbEntity
8
1
62
256
6
ByLayer
370
18
48
1
60
0
100
AcDbLine
10
15.251829
20
-3.632687
30
0
11
15.251829
21
2.490229
31
0
39
0
210
0
220
0
230
1
0
LINE
5
9C
100
AcDbEntity
8
1
62
256
6
ByLayer
370
18
48
1
60
0
100
AcDbLine
10
13.938572
20
-4.355271
30
0
11
13.938572
21
2.469727
31
0
39
0
210
0
220
0
230
1
0
LINE
5
9D
100
AcDbEntity
8
1
62
256
6
ByLayer
370
18
48
1
60
0
100
AcDbLine
10
15.39184
20
2.488941
30
0
11
15.39184
21
-3.668066
31
0
39
0
210
0
220
0
230
1
0
LINE
5
9E
100
AcDbEntity
8
1
62
256
6
ByLayer
370
18
48
1
60
0
100
AcDbLine
10
7.895588
20
-4.55
30
0
11
7.895588
21
4.55
31
0
39
0
210
0
220
0
230
1
0
LINE
5
9F
100
AcDbEntity
8
1
62
256
6
ByLayer
370
18
48
1
60
0
100
AcDbLine
10
18.693219
20
-3.656921
30
0
11
18.693219
21
2.370229
31
0
39
0
210
0
220
0
230
1
0
LINE
5
A0
100
AcDbEntity
8
1
62
256
6
ByLayer
370
18
48
1
60
0
100
AcDbLine
10
14.060966
20
2.469044
30
0
11
14.060966
21
-4.257546
31
0
39
0
210
0
220
0
230
1
0
LINE
5
A1
100
AcDbEntity
8
1
62
256
6
ByLayer
370
18
48
1
60
0
100
AcDbLine
10
14.583062
20
-3.819043
30
0
11
14.537908
21
-3.709352
31
0
39
0
210
0
220
0
230
1
0
LINE
5
A2
100
AcDbEntity
8
1
62
256
6
ByLayer
370
18
48
1
60
0
100
AcDbLine
10
1.8
20
-2.742718
30
0
11
5.1
21
-2.742718
31
0
39
0
210
0
220
0
230
1
0
LINE
5
A3
100
AcDbEntity
8
1
62
256
6
ByLayer
370
18
48
1
60
0
100
AcDbLine
10
5.1
20
2.742718
30
0
11
1.8
21
2.742718
31
0
39
0
210
0
220
0
230
1
0
LINE
5
A4
100
AcDbEntity
8
1
62
256
6
ByLayer
370
18
48
1
60
0
100
AcDbLine
10
17.098973
20
-2.664714
30
0
11
17.098973
21
-2.442112
31
0
39
0
210
0
220
0
230
1
0
LINE
5
A5
100
AcDbEntity
8
1
62
256
6
ByLayer
370
18
48
1
60
0
100
AcDbLine
10
7.904411
20
4.550065
30
0
11
7.904411
21
-4.550065
31
0
39
0
210
0
220
0
230
1
0
LINE
5
A6
100
AcDbEntity
8
1
62
256
6
ByLayer
370
18
48
1
60
0
100
AcDbLine
10
1.8
20
2.742718
30
0
11
1.8
21
-2.742718
31
0
39
0
210
0
220
0
230
1
0
LINE
5
A7
100
AcDbEntity
8
1
62
256
6
ByLayer
370
18
48
1
60
0
100
AcDbLine
10
13.1731
20
2.602838
30
0
11
12.820129
21
2.681877
31
0
39
0
210
0
220
0
230
1
0
LINE
5
A8
100
AcDbEntity
8
1
62
256
6
ByLayer
370
18
48
1
60
0
100
AcDbLine
10
18.228415
20
-1.475642
30
0
11
18.234592
21
-1.46265
31
0
39
0
210
0
220
0
230
1
0
LINE
5
A9
100
AcDbEntity
8
1
62
256
6
ByLayer
370
18
48
1
60
0
100
AcDbLine
10
13
20
-4.412936
30
0
11
13
21
2.496868
31
0
39
0
210
0
220
0
230
1
0
LINE
5
AA
100
AcDbEntity
8
1
62
256
6
ByLayer
370
18
48
1
60
0
100
AcDbLine
10
17.414597
20
2.684847
30
0
11
17.386683
21
2.743558
31
0
39
0
210
0
220
0
230
1
0
LINE
5
AB
100
AcDbEntity
8
1
62
256
6
ByLayer
370
18
48
1
60
0
100
AcDbLine
10
17.412568
20
2.659814
30
0
11
17.370564
21
2.748159
31
0
39
0
210
0
220
0
230
1
0
LINE
5
AC
100
AcDbEntity
8
1
62
256
6
ByLayer
370
18
48
1
60
0
100
AcDbLine
10
19.339874
20
-3.68249
30
0
11
19.339874
21
-2.453252
31
0
39
0
210
0
220
0
230
1
0
LINE
5
AD
100
AcDbEntity
8
1
62
256
6
ByLayer
370
18
48
1
60
0
100
AcDbLine
10
19.300367
20
-3.68064
30
0
11
19.300367
21
-2.451234
31
0
39
0
210
0
220
0
230
1
0
LINE
5
AE
100
AcDbEntity
8
1
62
256
6
ByLayer
370
18
48
1
60
0
100
AcDbLine
10
19.339874
20
-2.453084
30
0
11
19.300367
21
-2.451234
31
0
39
0
210
0
220
0
230
1
0
LINE
5
AF
100
AcDbEntity
8
1
62
256
6
ByLayer
370
18
48
1
60
0
100
AcDbLine
10
19.300367
20
-3.68064
30
0
11
19.339874
21
-3.68249
31
0
39
0
210
0
220
0
230
1
0
LINE
5
B0
100
AcDbEntity
8
1
62
256
6
ByLayer
370
18
48
1
60
0
100
AcDbLine
10
16.932033
20
-3.878134
30
0
11
19.048036
21
-3.921498
31
0
39
0
210
0
220
0
230
1
0
LINE
5
B1
100
AcDbEntity
8
1
62
256
6
ByLayer
370
18
48
1
60
0
100
AcDbLine
10
19.048803
20
-3.959936
30
0
11
19.048036
21
-3.921498
31
0
39
0
210
0
220
0
230
1
0
LINE
5
B2
100
AcDbEntity
8
1
62
256
6
ByLayer
370
18
48
1
60
0
100
AcDbLine
10
15.353574
20
-3.845787
30
0
11
16.932033
21
-3.878134
31
0
39
0
210
0
220
0
230
1
0
LINE
5
B3
100
AcDbEntity
8
1
62
256
6
ByLayer
370
18
48
1
60
0
100
AcDbLine
10
15.353574
20
-3.845787
30
0
11
15.354341
21
-3.884225
31
0
39
0
210
0
220
0
230
1
0
LINE
5
B4
100
AcDbEntity
8
1
62
256
6
ByLayer
370
18
48
1
60
0
100
AcDbLine
10
17.257547
20
3.271268
30
0
11
17.16775
21
3.460135
31
0
39
0
210
0
220
0
230
1
0
LINE
5
B5
100
AcDbEntity
8
1
62
256
6
ByLayer
370
18
48
1
60
0
100
AcDbLine
10
16.508345
20
3.450009
30
0
11
16.416974
21
3.642187
31
0
39
0
210
0
220
0
230
1
0
LINE
5
B6
100
AcDbEntity
8
1
62
256
6
ByLayer
370
18
48
1
60
0
100
AcDbLine
10
17.274158
20
3.282416
30
0
11
17.182786
21
3.474594
31
0
39
0
210
0
220
0
230
1
0
LINE
5
B7
100
AcDbEntity
8
1
62
256
6
ByLayer
370
18
48
1
60
0
100
AcDbLine
10
15.946429
20
2.487751
30
0
11
15.855057
21
2.679929
31
0
39
0
210
0
220
0
230
1
0
LINE
5
B8
100
AcDbEntity
8
1
62
256
6
ByLayer
370
18
48
1
60
0
100
AcDbLine
10
16.150325
20
3.235728
30
0
11
16.166936
21
3.225961
31
0
39
0
210
0
220
0
230
1
0
LINE
5
B9
100
AcDbEntity
8
1
62
256
6
ByLayer
370
18
48
1
60
0
100
AcDbLine
10
16.150325
20
3.235728
30
0
11
16.058953
21
3.427907
31
0
39
0
210
0
220
0
230
1
0
LINE
5
BA
100
AcDbEntity
8
1
62
256
6
ByLayer
370
18
48
1
60
0
100
AcDbLine
10
17.257547
20
3.271268
30
0
11
17.274158
21
3.282416
31
0
39
0
210
0
220
0
230
1
0
LINE
5
BB
100
AcDbEntity
8
1
62
256
6
ByLayer
370
18
48
1
60
0
100
AcDbLine
10
16.509428
20
3.430947
30
0
11
16.508345
21
3.450009
31
0
39
0
210
0
220
0
230
1
0
LINE
5
BC
100
AcDbEntity
8
1
62
256
6
ByLayer
370
18
48
1
60
0
100
AcDbLine
10
15.946429
20
2.487751
30
0
11
15.964122
21
2.497135
31
0
39
0
210
0
220
0
230
1
0
LINE
5
BD
100
AcDbEntity
8
1
62
256
6
ByLayer
370
18
48
1
60
0
100
AcDbLine
10
16.166936
20
3.225961
30
0
11
16.077139
21
3.414827
31
0
39
0
210
0
220
0
230
1
0
LINE
5
BE
100
AcDbEntity
8
1
62
256
6
ByLayer
370
18
48
1
60
0
100
AcDbLine
10
16.509428
20
3.430947
30
0
11
16.419631
21
3.619814
31
0
39
0
210
0
220
0
230
1
0
LINE
5
BF
100
AcDbEntity
8
1
62
256
6
ByLayer
370
18
48
1
60
0
100
AcDbLine
10
15.964122
20
2.497135
30
0
11
15.874325
21
2.686001
31
0
39
0
210
0
220
0
230
1
0
MTEXT
5
190
100
AcDbEntity
8
SK6
62
256
6
ByLayer
370
18
48
1
60
0
100
AcDbMText
10
-24.652448
20
-15.875
30
0
210
0
220
0
230
1
1
\W0.7229;R390-010EH10-07L
40
3.5
41
0
44
1.084337
50
0
71
7
72
5
7
iso_b_vert
0
DIMENSION
5
1A1
100
AcDbEntity
8
2
62
256
6
ByLayer
370
13
48
1
60
0
100
AcDbDimension
2
DimnDraft3D1
10
31.995104
20
5
30
0
11
31.995104
21
-20.155921
31
0
70
32
71
5
72
1
41
1
210
0
220
0
230
1
3
Standard
100
AcDbAlignedDimension
13
21.5875
23
-5
33
0
14
21.5875
24
5
34
0
50
90
100
AcDbRotatedDimension
1001
ACAD
1000
DSTYLE
1002
{
1070
    74
1070
     0
1070
   279
1070
     0
1070
   172
1070
     1
1070
   173
1070
     1
1070
   340
1005
191
1070
   271
1070
     2
1070
   272
1070
     2
1070
    77
1070
     1
1070
    73
1070
     0
1070
   171
1070
     3
1070
   274
1070
     4
1070
   177
1070
   150
1070
   176
1070
     9
1070
   178
1070
    43
1070
    78
1070
     8
1070
    48
1040
-0.005
1070
    41
1041
3.175
1070
   147
1041
1.75
1070
    42
1041
1.5875
1070
    44
1041
3.175
1070
   140
1041
3.5
1070
   343
1005
1A2
1070
   344
1005
1A2
1002
}
0
DIMENSION
5
1B7
100
AcDbEntity
8
SK2
62
256
6
ByLayer
370
13
48
1
60
0
100
AcDbDimension
2
DimnDraft3D2
10
-34.05
20
-4.85
30
0
11
-34.05
21
21.339145
31
0
70
32
71
5
72
1
41
1
210
0
220
0
230
1
3
Standard
100
AcDbAlignedDimension
13
-1.5875
23
4.85
33
0
14
-1.5875
24
-4.85
34
0
50
90
100
AcDbRotatedDimension
1001
ACAD
1000
DSTYLE
1002
{
1070
    74
1070
     0
1070
   279
1070
     0
1070
   172
1070
     1
1070
   173
1070
     1
1070
   340
1005
191
1070
   271
1070
     2
1070
   272
1070
     2
1070
    77
1070
     1
1070
    73
1070
     0
1070
   171
1070
     3
1070
   274
1070
     4
1070
   177
1070
   150
1070
   176
1070
     9
1070
   178
1070
    43
1070
    78
1070
     8
1070
    48
1040
-0.005
1070
    41
1041
3.175
1070
   147
1041
1.75
1070
    42
1041
1.5875
1070
    44
1041
3.175
1070
   140
1041
3.5
1070
   343
1005
1A2
1070
   344
1005
1A2
1002
}
0
DIMENSION
5
1C5
100
AcDbEntity
8
2
62
256
6
ByLayer
370
13
48
1
60
0
100
AcDbDimension
2
DimnDraft3D3
10
20
20
33.5
30
0
11
10
21
33.5
31
0
70
32
71
5
72
1
41
1
210
0
220
0
230
1
3
Standard
100
AcDbAlignedDimension
13
0
23
6.4375
33
0
14
20
24
6.5875
34
0
50
0
100
AcDbRotatedDimension
1001
ACAD
1000
DSTYLE
1002
{
1070
   279
1070
     0
1070
   172
1070
     1
1070
   173
1070
     1
1070
   340
1005
191
1070
   271
1070
     2
1070
   272
1070
     2
1070
    77
1070
     1
1070
    73
1070
     0
1070
   171
1070
     3
1070
   274
1070
     4
1070
   177
1070
   150
1070
   176
1070
     9
1070
   178
1070
    43
1070
    78
1070
     8
1070
    48
1040
-0.005
1070
    41
1041
3.175
1070
   147
1041
1.75
1070
    42
1041
1.5875
1070
    44
1041
3.175
1070
   140
1041
3.5
1070
   343
1005
1A2
1070
   344
1005
1A2
1002
}
0
DIMENSION
5
1D3
100
AcDbEntity
8
2
62
256
6
ByLayer
370
13
48
1
60
0
100
AcDbDimension
2
DimnDraft3D4
10
20
20
23.5
30
0
11
13.75
21
23.5
31
0
70
32
71
5
72
1
41
1
210
0
220
0
230
1
3
Standard
100
AcDbAlignedDimension
13
7.5
23
6.2375
33
0
14
20
24
6.5875
34
0
50
0
100
AcDbRotatedDimension
1001
ACAD
1000
DSTYLE
1002
{
1070
   279
1070
     0
1070
   172
1070
     1
1070
   173
1070
     1
1070
   340
1005
191
1070
   271
1070
     2
1070
   272
1070
     2
1070
    77
1070
     1
1070
    73
1070
     0
1070
   171
1070
     3
1070
   274
1070
     4
1070
   177
1070
   150
1070
   176
1070
     9
1070
   178
1070
    43
1070
    78
1070
     8
1070
    48
1040
-0.005
1070
    41
1041
3.175
1070
   147
1041
1.75
1070
    42
1041
1.5875
1070
    44
1041
3.175
1070
   140
1041
3.5
1070
   343
1005
1A2
1070
   344
1005
1A2
1002
}
0
DIMENSION
5
1E1
100
AcDbEntity
8
SK2
62
256
6
ByLayer
370
13
48
1
60
0
100
AcDbDimension
2
DimnDraft3D5
10
20
20
13.5
30
0
11
34.4375
21
13.5
31
0
70
32
71
5
72
1
41
1
210
0
220
0
230
1
3
Standard
100
AcDbAlignedDimension
13
14.2
23
6.5875
33
0
14
20
24
6.5875
34
0
50
0
100
AcDbRotatedDimension
1001
ACAD
1000
DSTYLE
1002
{
1070
   279
1070
     0
1070
   172
1070
     1
1070
   173
1070
     1
1070
   340
1005
191
1070
   271
1070
     2
1070
   272
1070
     2
1070
    77
1070
     1
1070
    73
1070
     0
1070
   171
1070
     3
1070
   274
1070
     4
1070
   177
1070
   150
1070
   176
1070
     9
1070
   178
1070
    43
1070
    78
1070
     8
1070
    48
1040
-0.005
1070
    41
1041
3.175
1070
   147
1041
1.75
1070
    42
1041
1.5875
1070
    44
1041
3.175
1070
   140
1041
3.5
1070
   343
1005
1A2
1070
   344
1005
1A2
1002
}
0
ENDSEC
0
SECTION
2
OBJECTS
0
DICTIONARY
5
24c
330
0
100
AcDbDictionary
280
0
281
1
3
ACAD_GROUP
350
24d
3
ACAD_MLINESTYLE
350
24e
0
DICTIONARY
5
24d
330
0
100
AcDbDictionary
280
0
281
1
0
DICTIONARY
5
24e
330
0
100
AcDbDictionary
280
0
281
1
3
Standard
350
18
0
MLINESTYLE
5
18
330
24e
100
AcDbMlineStyle
2
Standard
70
0
3

62
256
51
90
52
90
71
2
49
-0.5
62
256
6
ByLayer
49
0.5
62
256
6
ByLayer
0
RASTERVARIABLES
5
23a
330

100
AcDbRasterVariables
90
0
70
1
71
1
72
1
0
ENDSEC
0
EOF
