0
SECTION
2
HEADER
9
$ACADVER
1
AC1015
9
$DWGCODEPAGE
3
ANSI_1252
9
$HANDSEED
5
167
9
$ANGBASE
50
0
9
$ANGDIR
70
0
9
$ATTMODE
70
1
9
$AUNITS
70
0
9
$AUPREC
70
0
9
$CECOLOR
62
256
9
$CELTSCALE
40
1
9
$CELTYPE
6
ByLayer
9
$CELWEIGHT
370
-1
9
$CLAYER
8
0
9
$CMLJUST
70
0
9
$CMLSCALE
40
1
9
$CMLSTYLE
2
Standard
9
$DIMSTYLE
2
Standard
9
$TEXTSIZE
40
0.2
9
$TEXTSTYLE
7
Standard
9
$LUNITS
70
2
9
$LUPREC
70
4
9
$EXTNAMES
290
1
9
$INSUNITS
70
4
9
$LTSCALE
40
1
9
$LWDISPLAY
290
0
9
$PDMODE
70
0
9
$PDSIZE
40
0
9
$PLINEGEN
70
0
0
ENDSEC
0
SECTION
2
CLASSES
0
CLASS
1
RASTERVARIABLES
2
AcDbRasterVariables
3
ISM
90
0
280
0
281
0
0
ENDSEC
0
SECTION
2
TABLES
0
TABLE
2
VPORT
5
15d
100
AcDbSymbolTable
0
VPORT
5
1
100
AcDbSymbolTableRecord
100
AcDbViewportTableRecord
2
*Active
70
0
10
0
20
0
11
1
21
1
12
-1
22
1
13
0
23
0
14
0.5
24
0.5
15
10
25
10
16
0
26
0
36
1
17
0
27
0
37
0
0
ENDTAB
0
TABLE
2
LTYPE
5
15e
100
AcDbSymbolTable
0
LTYPE
5
14
100
AcDbSymbolTableRecord
100
AcDbLinetypeTableRecord
70
0
2
ByBlock
3

72
65
73
0
40
0
0
LTYPE
5
15
100
AcDbSymbolTableRecord
100
AcDbLinetypeTableRecord
70
0
2
ByLayer
3

72
65
73
0
40
0
0
LTYPE
5
16
100
AcDbSymbolTableRecord
100
AcDbLinetypeTableRecord
70
0
2
CONTINUOUS
3
Solid line
72
65
73
0
40
0
0
LTYPE
5
3C
100
AcDbSymbolTableRecord
100
AcDbLinetypeTableRecord
70
0
2
DASHED
3
__ __ __ __ __ __ __ __ __
72
65
73
2
40
25.72
49
12.86
74
0
49
-12.86
74
0
0
LTYPE
5
3D
100
AcDbSymbolTableRecord
100
AcDbLinetypeTableRecord
70
0
2
HIDDEN
3
_ _ _ _ _ _ _ _ _ _ _ _ _ _ _
72
65
73
2
40
0.5
49
0.25
74
0
49
-0.25
74
0
0
LTYPE
5
3E
100
AcDbSymbolTableRecord
100
AcDbLinetypeTableRecord
70
0
2
PHANTOM
3
____ _ _ ____ _ _ _____ _ _ ____
72
65
73
6
40
50.5
49
18
74
0
49
-6.5
74
0
49
6.5
74
0
49
-6.5
74
0
49
6.5
74
0
49
-6.5
74
0
0
LTYPE
5
3F
100
AcDbSymbolTableRecord
100
AcDbLinetypeTableRecord
70
0
2
CENTER
3
____ _ ____ _ ____ _ ____
72
65
73
4
40
47.5
49
22
74
0
49
-8.5
74
0
49
8.5
74
0
49
-8.5
74
0
0
LTYPE
5
40
100
AcDbSymbolTableRecord
100
AcDbLinetypeTableRecord
70
0
2
DOT
3
.........................
72
65
73
2
40
10
49
0
74
0
49
-10
74
0
0
LTYPE
5
41
100
AcDbSymbolTableRecord
100
AcDbLinetypeTableRecord
70
0
2
DASHDOT
3
_._._._._._._._._._._._._._._._.
72
65
73
4
40
70
49
31
74
0
49
-13
74
0
49
13
74
0
49
-13
74
0
0
ENDTAB
0
TABLE
2
LAYER
5
15f
100
AcDbSymbolTable
0
LAYER
5
10
100
AcDbSymbolTableRecord
100
AcDbLayerTableRecord
2
0
70
0
62
7
6
CONTINUOUS
290
1
370
-3
390
0
0
LAYER
5
43
100
AcDbSymbolTableRecord
100
AcDbLayerTableRecord
2
81
70
0
62
-3
6
CONTINUOUS
290
1
370
-3
390
0
0
LAYER
5
45
100
AcDbSymbolTableRecord
100
AcDbLayerTableRecord
2
80
70
0
62
-6
6
CONTINUOUS
290
1
370
-3
390
0
0
LAYER
5
49
100
AcDbSymbolTableRecord
100
AcDbLayerTableRecord
2
4
70
0
62
-2
6
CENTER
290
1
370
-3
390
0
0
LAYER
5
4B
100
AcDbSymbolTableRecord
100
AcDbLayerTableRecord
2
1
70
0
62
4
6
CONTINUOUS
290
1
370
-3
390
0
0
LAYER
5
73
100
AcDbSymbolTableRecord
100
AcDbLayerTableRecord
2
3
70
0
62
1
6
DASHED
290
1
370
-3
390
0
0
LAYER
5
B0
100
AcDbSymbolTableRecord
100
AcDbLayerTableRecord
2
2
70
0
62
7
6
CONTINUOUS
290
1
370
-3
390
0
0
LAYER
5
149
100
AcDbSymbolTableRecord
100
AcDbLayerTableRecord
2
SK4
70
0
62
2
6
CENTER
290
1
370
-3
390
0
0
LAYER
5
14a
100
AcDbSymbolTableRecord
100
AcDbLayerTableRecord
2
SK1
70
0
62
4
6
CONTINUOUS
290
1
370
-3
390
0
0
LAYER
5
14b
100
AcDbSymbolTableRecord
100
AcDbLayerTableRecord
2
SK2
70
0
62
7
6
CONTINUOUS
290
1
370
-3
390
0
0
LAYER
5
14c
100
AcDbSymbolTableRecord
100
AcDbLayerTableRecord
2
SK6
70
0
62
5
6
CONTINUOUS
290
1
370
-3
390
0
0
ENDTAB
0
TABLE
2
STYLE
5
160
100
AcDbSymbolTable
0
STYLE
5
11
100
AcDbSymbolTableRecord
100
AcDbTextStyleTableRecord
2
Standard
3
txt
70
0
71
0
40
0
41
1
42
0
50
0
0
STYLE
5
BC
100
AcDbSymbolTableRecord
100
AcDbTextStyleTableRecord
2
DEFAULT
3
simplex.shx
70
0
71
0
40
0
41
1
42
0
50
0
0
STYLE
5
BD
100
AcDbSymbolTableRecord
100
AcDbTextStyleTableRecord
2
DWGDirectTextStyle
3
SIMPLEX
70
0
71
0
40
0
41
1
42
0
50
0
0
ENDTAB
0
TABLE
2
DIMSTYLE
5
161
100
AcDbSymbolTable
100
AcDbDimStyleTable
0
DIMSTYLE
105
27
100
AcDbSymbolTableRecord
100
AcDbDimStyleTableRecord
2
Standard
70
0
3
<>
41
0.18
42
0.0625
44
0.18
140
0.18
147
0.09
73
0
74
0
77
1
271
2
275
0
278
52
280
0
340
11
0
ENDTAB
0
TABLE
2
VIEW
5
162
100
AcDbSymbolTable
0
ENDTAB
0
TABLE
2
UCS
5
163
100
AcDbSymbolTable
0
ENDTAB
0
TABLE
2
APPID
5
164
100
AcDbSymbolTable
0
APPID
5
12
100
AcDbSymbolTableRecord
100
AcDbRegAppTableRecord
2
ACAD
70
0
0
ENDTAB
0
TABLE
2
BLOCK_RECORD
5
165
100
AcDbSymbolTable
0
BLOCK_RECORD
5
1F
100
AcDbSymbolTableRecord
100
AcDbBlockTableRecord
2
*Model_Space
340
0
70
0
0
BLOCK_RECORD
5
1B
100
AcDbSymbolTableRecord
100
AcDbBlockTableRecord
2
*Paper_Space
340
0
70
0
0
BLOCK_RECORD
5
23
100
AcDbSymbolTableRecord
100
AcDbBlockTableRecord
2
*Paper_Space0
340
0
70
0
0
BLOCK_RECORD
5
BF
100
AcDbSymbolTableRecord
100
AcDbBlockTableRecord
2
DimnDraft3D1
340
0
70
0
0
BLOCK_RECORD
5
CD
100
AcDbSymbolTableRecord
100
AcDbBlockTableRecord
2
_CLOSED
340
0
70
0
0
BLOCK_RECORD
5
D4
100
AcDbSymbolTableRecord
100
AcDbBlockTableRecord
2
DimnDraft3D2
340
0
70
0
0
BLOCK_RECORD
5
E2
100
AcDbSymbolTableRecord
100
AcDbBlockTableRecord
2
DimnDraft3D3
340
0
70
0
0
BLOCK_RECORD
5
F0
100
AcDbSymbolTableRecord
100
AcDbBlockTableRecord
2
DimnDraft3D4
340
0
70
0
0
BLOCK_RECORD
5
FE
100
AcDbSymbolTableRecord
100
AcDbBlockTableRecord
2
DimnDraft3D5
340
0
70
0
0
ENDTAB
0
ENDSEC
0
SECTION
2
BLOCKS
0
BLOCK
5
20
100
AcDbEntity
8
0
100
AcDbBlockBegin
2
*Model_Space
70
0
10
0
20
0
30
0
3
*Model_Space
0
ENDBLK
5
21
100
AcDbEntity
8
0
100
AcDbBlockEnd
0
BLOCK
5
1C
100
AcDbEntity
8
0
100
AcDbBlockBegin
2
*Paper_Space
70
0
10
0
20
0
30
0
3
*Paper_Space
0
ENDBLK
5
1D
100
AcDbEntity
8
0
100
AcDbBlockEnd
0
BLOCK
5
24
100
AcDbEntity
8
0
100
AcDbBlockBegin
2
*Paper_Space0
70
0
10
0
20
0
30
0
3
*Paper_Space0
0
ENDBLK
5
25
100
AcDbEntity
8
0
100
AcDbBlockEnd
0
BLOCK
5
CA
100
AcDbEntity
8
0
100
AcDbBlockBegin
2
DimnDraft3D1
70
0
10
0
20
0
30
0
3
DimnDraft3D1
0
MTEXT
5
C0
100
AcDbEntity
8
2
62
256
6
ByLayer
370
-1
48
1
60
0
100
AcDbMText
10
88.140976
20
-4.747675
30
0
210
0
220
0
230
1
1
\W01.000;\fsimplex.shx,bigfont.shx;%%c200\P
40
4.022556
41
0
44
1.084337
50
90
71
7
72
5
7
DEFAULT
0
LINE
5
C1
100
AcDbEntity
8
2
62
256
6
ByLayer
370
-1
48
1
60
0
100
AcDbLine
10
64.499997
20
-100
30
0
11
92.146609
21
-100
31
0
39
0
210
0
220
0
230
1
0
LINE
5
C2
100
AcDbEntity
8
2
62
256
6
ByLayer
370
-1
48
1
60
0
100
AcDbLine
10
64.499997
20
100
30
0
11
92.146609
21
100
31
0
39
0
210
0
220
0
230
1
0
LINE
5
C3
100
AcDbEntity
8
2
62
256
6
ByLayer
370
-1
48
1
60
0
100
AcDbLine
10
89.146615
20
-100
30
0
11
89.146615
21
100
31
0
39
0
210
0
220
0
230
1
0
LINE
5
C4
100
AcDbEntity
8
2
62
256
6
ByLayer
370
-1
48
1
60
0
100
AcDbLine
10
89.146615
20
-100
30
0
11
88.646616
21
-97.000008
31
0
39
0
210
0
220
0
230
1
0
LINE
5
C5
100
AcDbEntity
8
2
62
256
6
ByLayer
370
-1
48
1
60
0
100
AcDbLine
10
89.146615
20
-100
30
0
11
89.646614
21
-97.000004
31
0
39
0
210
0
220
0
230
1
0
LINE
5
C6
100
AcDbEntity
8
2
62
256
6
ByLayer
370
-1
48
1
60
0
100
AcDbLine
10
88.646616
20
-97.000008
30
0
11
89.646614
21
-97.000004
31
0
39
0
210
0
220
0
230
1
0
LINE
5
C7
100
AcDbEntity
8
2
62
256
6
ByLayer
370
-1
48
1
60
0
100
AcDbLine
10
89.146615
20
100
30
0
11
89.646614
21
97.000008
31
0
39
0
210
0
220
0
230
1
0
LINE
5
C8
100
AcDbEntity
8
2
62
256
6
ByLayer
370
-1
48
1
60
0
100
AcDbLine
10
89.146615
20
100
30
0
11
88.646616
21
97.000004
31
0
39
0
210
0
220
0
230
1
0
LINE
5
C9
100
AcDbEntity
8
2
62
256
6
ByLayer
370
-1
48
1
60
0
100
AcDbLine
10
89.646614
20
97.000008
30
0
11
88.646616
21
97.000004
31
0
39
0
210
0
220
0
230
1
0
ENDBLK
5
CB
100
AcDbEntity
8
0
100
AcDbBlockEnd
0
BLOCK
5
CE
100
AcDbEntity
8
0
100
AcDbBlockBegin
2
_CLOSED
70
0
10
0
20
0
30
0
3
_CLOSED
0
LINE
5
D0
100
AcDbEntity
8
0
62
256
6
ByLayer
370
-2
48
1
60
0
100
AcDbLine
10
-1
20
0.166667
30
0
11
0
21
0
31
0
39
0
210
0
220
0
230
1
0
LINE
5
D1
100
AcDbEntity
8
0
62
256
6
ByLayer
370
-2
48
1
60
0
100
AcDbLine
10
0
20
0
30
0
11
-1
21
-0.166667
31
0
39
0
210
0
220
0
230
1
0
LINE
5
D2
100
AcDbEntity
8
0
62
256
6
ByLayer
370
-2
48
1
60
0
100
AcDbLine
10
-1
20
0.166667
30
0
11
-1
21
-0.166667
31
0
39
0
210
0
220
0
230
1
0
LINE
5
D3
100
AcDbEntity
8
0
62
256
6
ByLayer
370
-2
48
1
60
0
100
AcDbLine
10
0
20
0
30
0
11
-1
21
0
31
0
39
0
210
0
220
0
230
1
0
ENDBLK
5
CF
100
AcDbEntity
8
0
100
AcDbBlockEnd
0
BLOCK
5
DF
100
AcDbEntity
8
0
100
AcDbBlockBegin
2
DimnDraft3D2
70
0
10
0
20
0
30
0
3
DimnDraft3D2
0
MTEXT
5
D5
100
AcDbEntity
8
SK2
62
256
6
ByLayer
370
-1
48
1
60
0
100
AcDbMText
10
-10.487379
20
-4.668282
30
0
210
0
220
0
230
1
1
\W01.000;\fsimplex.shx,bigfont.shx;%%c40 \P
40
4.022556
41
0
44
1.084337
50
90
71
7
72
5
7
DEFAULT
0
LINE
5
D6
100
AcDbEntity
8
SK2
62
256
6
ByLayer
370
-1
48
1
60
0
100
AcDbLine
10
-1.499997
20
-20
30
0
11
-12.481734
21
-20
31
0
39
0
210
0
220
0
230
1
0
LINE
5
D7
100
AcDbEntity
8
SK2
62
256
6
ByLayer
370
-1
48
1
60
0
100
AcDbLine
10
-1.499997
20
20
30
0
11
-12.481734
21
20
31
0
39
0
210
0
220
0
230
1
0
LINE
5
D8
100
AcDbEntity
8
SK2
62
256
6
ByLayer
370
-1
48
1
60
0
100
AcDbLine
10
-9.48174
20
-20
30
0
11
-9.48174
21
20
31
0
39
0
210
0
220
0
230
1
0
LINE
5
D9
100
AcDbEntity
8
SK2
62
256
6
ByLayer
370
-1
48
1
60
0
100
AcDbLine
10
-9.48174
20
-20
30
0
11
-9.981739
21
-17.000008
31
0
39
0
210
0
220
0
230
1
0
LINE
5
DA
100
AcDbEntity
8
SK2
62
256
6
ByLayer
370
-1
48
1
60
0
100
AcDbLine
10
-9.48174
20
-20
30
0
11
-8.981741
21
-17.000004
31
0
39
0
210
0
220
0
230
1
0
LINE
5
DB
100
AcDbEntity
8
SK2
62
256
6
ByLayer
370
-1
48
1
60
0
100
AcDbLine
10
-9.981739
20
-17.000008
30
0
11
-8.981741
21
-17.000004
31
0
39
0
210
0
220
0
230
1
0
LINE
5
DC
100
AcDbEntity
8
SK2
62
256
6
ByLayer
370
-1
48
1
60
0
100
AcDbLine
10
-9.48174
20
20
30
0
11
-8.981741
21
17.000008
31
0
39
0
210
0
220
0
230
1
0
LINE
5
DD
100
AcDbEntity
8
SK2
62
256
6
ByLayer
370
-1
48
1
60
0
100
AcDbLine
10
-9.48174
20
20
30
0
11
-9.981739
21
17.000004
31
0
39
0
210
0
220
0
230
1
0
LINE
5
DE
100
AcDbEntity
8
SK2
62
256
6
ByLayer
370
-1
48
1
60
0
100
AcDbLine
10
-8.981741
20
17.000008
30
0
11
-9.981739
21
17.000004
31
0
39
0
210
0
220
0
230
1
0
ENDBLK
5
E0
100
AcDbEntity
8
0
100
AcDbBlockEnd
0
BLOCK
5
ED
100
AcDbEntity
8
0
100
AcDbBlockBegin
2
DimnDraft3D3
70
0
10
0
20
0
30
0
3
DimnDraft3D3
0
MTEXT
5
E3
100
AcDbEntity
8
SK2
62
256
6
ByLayer
370
-1
48
1
60
0
100
AcDbMText
10
-21.980396
20
-3.270973
30
0
210
0
220
0
230
1
1
\W01.000;\fsimplex.shx,bigfont.shx;%%c96\P
40
4.022556
41
0
44
1.084337
50
90
71
7
72
5
7
DEFAULT
0
LINE
5
E4
100
AcDbEntity
8
SK2
62
256
6
ByLayer
370
-1
48
1
60
0
100
AcDbLine
10
-1.499997
20
-48
30
0
11
-23.974751
21
-48
31
0
39
0
210
0
220
0
230
1
0
LINE
5
E5
100
AcDbEntity
8
SK2
62
256
6
ByLayer
370
-1
48
1
60
0
100
AcDbLine
10
-1.499997
20
48
30
0
11
-23.974751
21
48
31
0
39
0
210
0
220
0
230
1
0
LINE
5
E6
100
AcDbEntity
8
SK2
62
256
6
ByLayer
370
-1
48
1
60
0
100
AcDbLine
10
-20.974757
20
-48
30
0
11
-20.974757
21
48
31
0
39
0
210
0
220
0
230
1
0
LINE
5
E7
100
AcDbEntity
8
SK2
62
256
6
ByLayer
370
-1
48
1
60
0
100
AcDbLine
10
-20.974757
20
-48
30
0
11
-21.474756
21
-45.000008
31
0
39
0
210
0
220
0
230
1
0
LINE
5
E8
100
AcDbEntity
8
SK2
62
256
6
ByLayer
370
-1
48
1
60
0
100
AcDbLine
10
-20.974757
20
-48
30
0
11
-20.474758
21
-45.000004
31
0
39
0
210
0
220
0
230
1
0
LINE
5
E9
100
AcDbEntity
8
SK2
62
256
6
ByLayer
370
-1
48
1
60
0
100
AcDbLine
10
-21.474756
20
-45.000008
30
0
11
-20.474758
21
-45.000004
31
0
39
0
210
0
220
0
230
1
0
LINE
5
EA
100
AcDbEntity
8
SK2
62
256
6
ByLayer
370
-1
48
1
60
0
100
AcDbLine
10
-20.974757
20
48
30
0
11
-20.474758
21
45.000008
31
0
39
0
210
0
220
0
230
1
0
LINE
5
EB
100
AcDbEntity
8
SK2
62
256
6
ByLayer
370
-1
48
1
60
0
100
AcDbLine
10
-20.974757
20
48
30
0
11
-21.474756
21
45.000004
31
0
39
0
210
0
220
0
230
1
0
LINE
5
EC
100
AcDbEntity
8
SK2
62
256
6
ByLayer
370
-1
48
1
60
0
100
AcDbLine
10
-20.474758
20
45.000008
30
0
11
-21.474756
21
45.000004
31
0
39
0
210
0
220
0
230
1
0
ENDBLK
5
EE
100
AcDbEntity
8
0
100
AcDbBlockEnd
0
BLOCK
5
FB
100
AcDbEntity
8
0
100
AcDbBlockBegin
2
DimnDraft3D4
70
0
10
0
20
0
30
0
3
DimnDraft3D4
0
MTEXT
5
F1
100
AcDbEntity
8
2
62
256
6
ByLayer
370
-1
48
1
60
0
100
AcDbMText
10
53.893105
20
111.63668
30
0
210
0
220
0
230
1
1
\W01.000;\fsimplex.shx,bigfont.shx;12.0\P
40
4.022556
41
0
44
1.084337
50
0
71
7
72
5
7
DEFAULT
0
LINE
5
F2
100
AcDbEntity
8
2
62
256
6
ByLayer
370
-1
48
1
60
0
100
AcDbLine
10
63
20
101.499997
30
0
11
63
21
113.631035
31
0
39
0
210
0
220
0
230
1
0
LINE
5
F3
100
AcDbEntity
8
2
62
256
6
ByLayer
370
-1
48
1
60
0
100
AcDbLine
10
51
20
101.499997
30
0
11
51
21
113.631035
31
0
39
0
210
0
220
0
230
1
0
LINE
5
F4
100
AcDbEntity
8
2
62
256
6
ByLayer
370
-1
48
1
60
0
100
AcDbLine
10
63
20
110.631041
30
0
11
51
21
110.631041
31
0
39
0
210
0
220
0
230
1
0
LINE
5
F5
100
AcDbEntity
8
2
62
256
6
ByLayer
370
-1
48
1
60
0
100
AcDbLine
10
63
20
110.631041
30
0
11
60.000008
21
110.131042
31
0
39
0
210
0
220
0
230
1
0
LINE
5
F6
100
AcDbEntity
8
2
62
256
6
ByLayer
370
-1
48
1
60
0
100
AcDbLine
10
63
20
110.631041
30
0
11
60.000004
21
111.13104
31
0
39
0
210
0
220
0
230
1
0
LINE
5
F7
100
AcDbEntity
8
2
62
256
6
ByLayer
370
-1
48
1
60
0
100
AcDbLine
10
60.000008
20
110.131042
30
0
11
60.000004
21
111.13104
31
0
39
0
210
0
220
0
230
1
0
LINE
5
F8
100
AcDbEntity
8
2
62
256
6
ByLayer
370
-1
48
1
60
0
100
AcDbLine
10
51
20
110.631041
30
0
11
53.999992
21
111.13104
31
0
39
0
210
0
220
0
230
1
0
LINE
5
F9
100
AcDbEntity
8
2
62
256
6
ByLayer
370
-1
48
1
60
0
100
AcDbLine
10
51
20
110.631041
30
0
11
53.999996
21
110.131042
31
0
39
0
210
0
220
0
230
1
0
LINE
5
FA
100
AcDbEntity
8
2
62
256
6
ByLayer
370
-1
48
1
60
0
100
AcDbLine
10
53.999992
20
111.13104
30
0
11
53.999996
21
110.131042
31
0
39
0
210
0
220
0
230
1
0
ENDBLK
5
FC
100
AcDbEntity
8
0
100
AcDbBlockEnd
0
BLOCK
5
109
100
AcDbEntity
8
0
100
AcDbBlockBegin
2
DimnDraft3D5
70
0
10
0
20
0
30
0
3
DimnDraft3D5
0
MTEXT
5
FF
100
AcDbEntity
8
2
62
256
6
ByLayer
370
-1
48
1
60
0
100
AcDbMText
10
30.155619
20
-134.33539
30
0
210
0
220
0
230
1
1
\W01.000;\fsimplex.shx,bigfont.shx;63\P
40
4.022556
41
0
44
1.084337
50
0
71
7
72
5
7
DEFAULT
0
LINE
5
100
100
AcDbEntity
8
2
62
256
6
ByLayer
370
-1
48
1
60
0
100
AcDbLine
10
63
20
-101.499997
30
0
11
63
21
-138.341023
31
0
39
0
210
0
220
0
230
1
0
LINE
5
101
100
AcDbEntity
8
2
62
256
6
ByLayer
370
-1
48
1
60
0
100
AcDbLine
10
0
20
-49.499997
30
0
11
0
21
-138.341023
31
0
39
0
210
0
220
0
230
1
0
LINE
5
102
100
AcDbEntity
8
2
62
256
6
ByLayer
370
-1
48
1
60
0
100
AcDbLine
10
63
20
-135.341029
30
0
11
0
21
-135.341029
31
0
39
0
210
0
220
0
230
1
0
LINE
5
103
100
AcDbEntity
8
2
62
256
6
ByLayer
370
-1
48
1
60
0
100
AcDbLine
10
63
20
-135.341029
30
0
11
60.000008
21
-135.841028
31
0
39
0
210
0
220
0
230
1
0
LINE
5
104
100
AcDbEntity
8
2
62
256
6
ByLayer
370
-1
48
1
60
0
100
AcDbLine
10
63
20
-135.341029
30
0
11
60.000004
21
-134.84103
31
0
39
0
210
0
220
0
230
1
0
LINE
5
105
100
AcDbEntity
8
2
62
256
6
ByLayer
370
-1
48
1
60
0
100
AcDbLine
10
60.000008
20
-135.841028
30
0
11
60.000004
21
-134.84103
31
0
39
0
210
0
220
0
230
1
0
LINE
5
106
100
AcDbEntity
8
2
62
256
6
ByLayer
370
-1
48
1
60
0
100
AcDbLine
10
0
20
-135.341029
30
0
11
2.999992
21
-134.84103
31
0
39
0
210
0
220
0
230
1
0
LINE
5
107
100
AcDbEntity
8
2
62
256
6
ByLayer
370
-1
48
1
60
0
100
AcDbLine
10
0
20
-135.341029
30
0
11
2.999996
21
-135.841028
31
0
39
0
210
0
220
0
230
1
0
LINE
5
108
100
AcDbEntity
8
2
62
256
6
ByLayer
370
-1
48
1
60
0
100
AcDbLine
10
2.999992
20
-134.84103
30
0
11
2.999996
21
-135.841028
31
0
39
0
210
0
220
0
230
1
0
ENDBLK
5
10A
100
AcDbEntity
8
0
100
AcDbBlockEnd
0
ENDSEC
0
SECTION
2
ENTITIES
0
ARC
5
A1
100
AcDbEntity
8
1
62
256
6
ByLayer
370
-1
48
1
60
0
100
AcDbCircle
39
0
10
61.5
20
-96.69065
30
0
40
1
210
0
220
0
230
1
100
AcDbArc
50
270
51
360
0
ARC
5
A2
100
AcDbEntity
8
1
62
256
6
ByLayer
370
-1
48
1
60
0
100
AcDbCircle
39
0
10
52.5
20
-96.69065
30
0
40
1
210
0
220
0
230
1
100
AcDbArc
50
180
51
270
0
ARC
5
A3
100
AcDbEntity
8
1
62
256
6
ByLayer
370
-1
48
1
60
0
100
AcDbCircle
39
0
10
50.7
20
-48.8
30
0
40
0.8
210
0
220
0
230
1
100
AcDbArc
50
0
51
90
0
ARC
5
A4
100
AcDbEntity
8
1
62
256
6
ByLayer
370
-1
48
1
60
0
100
AcDbCircle
39
0
10
-61.5
20
96.69065
30
0
40
1
210
0
220
0
230
-1
100
AcDbArc
50
90
51
180
0
ARC
5
A5
100
AcDbEntity
8
1
62
256
6
ByLayer
370
-1
48
1
60
0
100
AcDbCircle
39
0
10
-52.5
20
96.69065
30
0
40
1
210
0
220
0
230
-1
100
AcDbArc
50
0
51
90
0
ARC
5
A6
100
AcDbEntity
8
1
62
256
6
ByLayer
370
-1
48
1
60
0
100
AcDbCircle
39
0
10
-50.7
20
48.8
30
0
40
0.8
210
0
220
0
230
-1
100
AcDbArc
50
180
51
270
0
ARC
5
A7
100
AcDbEntity
8
1
62
256
6
ByLayer
370
-1
48
1
60
0
100
AcDbCircle
39
0
10
62.2
20
-99.2
30
0
40
0.8
210
0
220
0
230
1
100
AcDbArc
50
270
51
0
0
ARC
5
A8
100
AcDbEntity
8
1
62
256
6
ByLayer
370
-1
48
1
60
0
100
AcDbCircle
39
0
10
-51.8
20
-99.2
30
0
40
0.8
210
0
220
0
230
-1
100
AcDbArc
50
270
51
0
0
ARC
5
A9
100
AcDbEntity
8
1
62
256
6
ByLayer
370
-1
48
1
60
0
100
AcDbCircle
39
0
10
-62.2
20
99.2
30
0
40
0.8
210
0
220
0
230
-1
100
AcDbArc
50
90
51
180
0
ARC
5
AA
100
AcDbEntity
8
1
62
256
6
ByLayer
370
-1
48
1
60
0
100
AcDbCircle
39
0
10
51.8
20
99.2
30
0
40
0.8
210
0
220
0
230
1
100
AcDbArc
50
90
51
180
0
ARC
5
AB
100
AcDbEntity
8
1
62
256
6
ByLayer
370
-1
48
1
60
0
100
AcDbCircle
39
0
10
28.4
20
-42.95
30
0
40
0.4
210
0
220
0
230
1
100
AcDbArc
50
180
51
270
0
ARC
5
AC
100
AcDbEntity
8
1
62
256
6
ByLayer
370
-1
48
1
60
0
100
AcDbCircle
39
0
10
28.4
20
-23.75
30
0
40
0.4
210
0
220
0
230
1
100
AcDbArc
50
90
51
180
0
ARC
5
AD
100
AcDbEntity
8
SK1
62
256
6
ByLayer
370
-1
48
1
60
0
100
AcDbCircle
39
0
10
28.8
20
-28.2
30
0
40
0.8
210
0
220
0
230
1
100
AcDbArc
50
180
51
270
0
ARC
5
AE
100
AcDbEntity
8
SK1
62
256
6
ByLayer
370
-1
48
1
60
0
100
AcDbCircle
39
0
10
-28.8
20
28.2
30
0
40
0.8
210
0
220
0
230
-1
100
AcDbArc
50
0
51
90
0
CIRCLE
5
AF
100
AcDbEntity
8
2
62
256
6
ByLayer
370
-1
48
1
60
1
100
AcDbCircle
10
63
20
-100
30
0
40
0.5
39
0
210
0
220
0
230
1
0
CIRCLE
5
B1
100
AcDbEntity
8
2
62
256
6
ByLayer
370
-1
48
1
60
1
100
AcDbCircle
10
63
20
100
30
0
40
0.5
39
0
210
0
220
0
230
1
0
CIRCLE
5
B2
100
AcDbEntity
8
SK2
62
256
6
ByLayer
370
-1
48
1
60
1
100
AcDbCircle
10
0
20
-20
30
0
40
0.5
39
0
210
0
220
0
230
1
0
CIRCLE
5
B4
100
AcDbEntity
8
SK2
62
256
6
ByLayer
370
-1
48
1
60
1
100
AcDbCircle
10
0
20
20
30
0
40
0.5
39
0
210
0
220
0
230
1
0
CIRCLE
5
B5
100
AcDbEntity
8
SK2
62
256
6
ByLayer
370
-1
48
1
60
1
100
AcDbCircle
10
0
20
-48
30
0
40
0.5
39
0
210
0
220
0
230
1
0
CIRCLE
5
B6
100
AcDbEntity
8
SK2
62
256
6
ByLayer
370
-1
48
1
60
1
100
AcDbCircle
10
0
20
48
30
0
40
0.5
39
0
210
0
220
0
230
1
0
CIRCLE
5
B7
100
AcDbEntity
8
2
62
256
6
ByLayer
370
-1
48
1
60
1
100
AcDbCircle
10
63
20
100
30
0
40
0.5
39
0
210
0
220
0
230
1
0
CIRCLE
5
B8
100
AcDbEntity
8
2
62
256
6
ByLayer
370
-1
48
1
60
1
100
AcDbCircle
10
51
20
100
30
0
40
0.5
39
0
210
0
220
0
230
1
0
CIRCLE
5
B9
100
AcDbEntity
8
2
62
256
6
ByLayer
370
-1
48
1
60
1
100
AcDbCircle
10
63
20
-100
30
0
40
0.5
39
0
210
0
220
0
230
1
0
CIRCLE
5
BA
100
AcDbEntity
8
2
62
256
6
ByLayer
370
-1
48
1
60
1
100
AcDbCircle
10
0
20
-48
30
0
40
0.5
39
0
210
0
220
0
230
1
0
POINT
5
42
100
AcDbEntity
8
81
62
256
6
ByLayer
370
-1
48
1
60
0
100
AcDbPoint
10
63
20
100
30
0
39
0
210
0
220
0
230
1
50
360
0
POINT
5
44
100
AcDbEntity
8
80
62
256
6
ByLayer
370
-1
48
1
60
0
100
AcDbPoint
10
0
20
0
30
0
39
0
210
0
220
0
230
1
50
360
0
LINE
5
46
100
AcDbEntity
8
SK4
62
256
6
ByLayer
370
-1
48
0.05
60
0
100
AcDbLine
10
63
20
0
30
0
11
-3
21
0
31
0
39
0
210
0
220
0
230
1
0
LINE
5
48
100
AcDbEntity
8
4
62
256
6
ByLayer
370
-1
48
0.05
60
0
100
AcDbLine
10
63
20
0
30
0
11
17
21
0
31
0
39
0
210
0
220
0
230
1
0
LINE
5
4A
100
AcDbEntity
8
1
62
256
6
ByLayer
370
-1
48
1
60
0
100
AcDbLine
10
62.5
20
0
30
0
11
62.5
21
-96.69065
31
0
39
0
210
0
220
0
230
1
0
LINE
5
4C
100
AcDbEntity
8
1
62
256
6
ByLayer
370
-1
48
1
60
0
100
AcDbLine
10
61.5
20
-97.69065
30
0
11
52.5
21
-97.69065
31
0
39
0
210
0
220
0
230
1
0
LINE
5
4D
100
AcDbEntity
8
1
62
256
6
ByLayer
370
-1
48
1
60
0
100
AcDbLine
10
51.5
20
-96.69065
30
0
11
51.5
21
-48.8
31
0
39
0
210
0
220
0
230
1
0
LINE
5
4E
100
AcDbEntity
8
1
62
256
6
ByLayer
370
-1
48
1
60
0
100
AcDbLine
10
50.7
20
-48
30
0
11
20
21
-48
31
0
39
0
210
0
220
0
230
1
0
LINE
5
4F
100
AcDbEntity
8
1
62
256
6
ByLayer
370
-1
48
1
60
0
100
AcDbLine
10
62.5
20
0
30
0
11
62.5
21
96.69065
31
0
39
0
210
0
220
0
230
1
0
LINE
5
50
100
AcDbEntity
8
1
62
256
6
ByLayer
370
-1
48
1
60
0
100
AcDbLine
10
61.5
20
97.69065
30
0
11
52.5
21
97.69065
31
0
39
0
210
0
220
0
230
1
0
LINE
5
51
100
AcDbEntity
8
1
62
256
6
ByLayer
370
-1
48
1
60
0
100
AcDbLine
10
51.5
20
96.69065
30
0
11
51.5
21
48.8
31
0
39
0
210
0
220
0
230
1
0
LINE
5
52
100
AcDbEntity
8
1
62
256
6
ByLayer
370
-1
48
1
60
0
100
AcDbLine
10
50.7
20
48
30
0
11
20
21
48
31
0
39
0
210
0
220
0
230
1
0
LINE
5
53
100
AcDbEntity
8
1
62
256
6
ByLayer
370
-1
48
1
60
0
100
AcDbLine
10
51.5
20
-50
30
0
11
51.5
21
50
31
0
39
0
210
0
220
0
230
1
0
LINE
5
54
100
AcDbEntity
8
1
62
256
6
ByLayer
370
-1
48
1
60
0
100
AcDbLine
10
51.8
20
-100
30
0
11
62.2
21
-100
31
0
39
0
210
0
220
0
230
1
0
LINE
5
55
100
AcDbEntity
8
1
62
256
6
ByLayer
370
-1
48
1
60
0
100
AcDbLine
10
63
20
-99.2
30
0
11
63
21
-92
31
0
39
0
210
0
220
0
230
1
0
LINE
5
56
100
AcDbEntity
8
1
62
256
6
ByLayer
370
-1
48
1
60
0
100
AcDbLine
10
62.2
20
-100
30
0
11
51.8
21
-100
31
0
39
0
210
0
220
0
230
1
0
LINE
5
57
100
AcDbEntity
8
1
62
256
6
ByLayer
370
-1
48
1
60
0
100
AcDbLine
10
51
20
-99.2
30
0
11
51
21
-92
31
0
39
0
210
0
220
0
230
1
0
LINE
5
58
100
AcDbEntity
8
1
62
256
6
ByLayer
370
-1
48
1
60
0
100
AcDbLine
10
56
20
-100
30
0
11
58
21
-100
31
0
39
0
210
0
220
0
230
1
0
LINE
5
59
100
AcDbEntity
8
1
62
256
6
ByLayer
370
-1
48
1
60
0
100
AcDbLine
10
51.8
20
100
30
0
11
62.2
21
100
31
0
39
0
210
0
220
0
230
1
0
LINE
5
5A
100
AcDbEntity
8
1
62
256
6
ByLayer
370
-1
48
1
60
0
100
AcDbLine
10
63
20
99.2
30
0
11
63
21
92
31
0
39
0
210
0
220
0
230
1
0
LINE
5
5B
100
AcDbEntity
8
1
62
256
6
ByLayer
370
-1
48
1
60
0
100
AcDbLine
10
62.2
20
100
30
0
11
51.8
21
100
31
0
39
0
210
0
220
0
230
1
0
LINE
5
5C
100
AcDbEntity
8
1
62
256
6
ByLayer
370
-1
48
1
60
0
100
AcDbLine
10
51
20
99.2
30
0
11
51
21
92
31
0
39
0
210
0
220
0
230
1
0
LINE
5
5D
100
AcDbEntity
8
1
62
256
6
ByLayer
370
-1
48
1
60
0
100
AcDbLine
10
56
20
100
30
0
11
58
21
100
31
0
39
0
210
0
220
0
230
1
0
LINE
5
5E
100
AcDbEntity
8
81
62
256
6
ByLayer
370
-1
48
1
60
0
100
AcDbLine
10
63
20
100
30
0
11
73
21
100
31
0
39
0
210
0
220
0
230
1
0
LINE
5
5F
100
AcDbEntity
8
80
62
256
6
ByLayer
370
-1
48
1
60
0
100
AcDbLine
10
0
20
0
30
0
11
-10
21
0
31
0
39
0
210
0
220
0
230
1
0
LINE
5
60
100
AcDbEntity
8
1
62
256
6
ByLayer
370
-1
48
1
60
0
100
AcDbLine
10
20
20
-48
30
0
11
1.39
21
-48
31
0
39
0
210
0
220
0
230
1
0
LINE
5
61
100
AcDbEntity
8
1
62
256
6
ByLayer
370
-1
48
1
60
0
100
AcDbLine
10
0
20
-9.5275
30
0
11
1.3
21
-8.2275
31
0
39
0
210
0
220
0
230
1
0
LINE
5
62
100
AcDbEntity
8
1
62
256
6
ByLayer
370
-1
48
1
60
0
100
AcDbLine
10
1.3
20
-8.2275
30
0
11
8.7
21
-8.2275
31
0
39
0
210
0
220
0
230
1
0
LINE
5
63
100
AcDbEntity
8
1
62
256
6
ByLayer
370
-1
48
1
60
0
100
AcDbLine
10
8.7
20
-8.2275
30
0
11
9.5
21
-7.4275
31
0
39
0
210
0
220
0
230
1
0
LINE
5
64
100
AcDbEntity
8
1
62
256
6
ByLayer
370
-1
48
1
60
0
100
AcDbLine
10
9.5
20
-7.4275
30
0
11
9.5
21
0
31
0
39
0
210
0
220
0
230
1
0
LINE
5
65
100
AcDbEntity
8
SK1
62
256
6
ByLayer
370
-1
48
1
60
0
100
AcDbLine
10
0
20
-41.6
30
0
11
1
21
-40.6
31
0
39
0
210
0
220
0
230
1
0
LINE
5
67
100
AcDbEntity
8
SK1
62
256
6
ByLayer
370
-1
48
1
60
0
100
AcDbLine
10
0
20
-25.1
30
0
11
1
21
-26.1
31
0
39
0
210
0
220
0
230
1
0
LINE
5
68
100
AcDbEntity
8
SK1
62
256
6
ByLayer
370
-1
48
1
60
0
100
AcDbLine
10
1
20
-40.6
30
0
11
27.5
21
-40.6
31
0
39
0
210
0
220
0
230
1
0
LINE
5
69
100
AcDbEntity
8
SK1
62
256
6
ByLayer
370
-1
48
1
60
0
100
AcDbLine
10
1
20
-26.1
30
0
11
27.5
21
-26.1
31
0
39
0
210
0
220
0
230
1
0
LINE
5
6A
100
AcDbEntity
8
SK1
62
256
6
ByLayer
370
-1
48
1
60
0
100
AcDbLine
10
27.5
20
-40.6
30
0
11
28
21
-41.1
31
0
39
0
210
0
220
0
230
1
0
LINE
5
6B
100
AcDbEntity
8
SK1
62
256
6
ByLayer
370
-1
48
1
60
0
100
AcDbLine
10
27.5
20
-26.1
30
0
11
28
21
-25.6
31
0
39
0
210
0
220
0
230
1
0
LINE
5
6C
100
AcDbEntity
8
SK1
62
256
6
ByLayer
370
-1
48
1
60
0
100
AcDbLine
10
1
20
-40.6
30
0
11
1
21
-26.1
31
0
39
0
210
0
220
0
230
1
0
LINE
5
6D
100
AcDbEntity
8
SK1
62
256
6
ByLayer
370
-1
48
1
60
0
100
AcDbLine
10
27.5
20
-40.6
30
0
11
27.5
21
-26.1
31
0
39
0
210
0
220
0
230
1
0
LINE
5
6E
100
AcDbEntity
8
SK1
62
256
6
ByLayer
370
-1
48
1
60
0
100
AcDbLine
10
28
20
-42.95
30
0
11
28
21
-23.75
31
0
39
0
210
0
220
0
230
1
0
LINE
5
6F
100
AcDbEntity
8
SK1
62
256
6
ByLayer
370
-1
48
1
60
0
100
AcDbLine
10
28.4
20
-43.35
30
0
11
62
21
-43.35
31
0
39
0
210
0
220
0
230
1
0
LINE
5
70
100
AcDbEntity
8
SK1
62
256
6
ByLayer
370
-1
48
1
60
0
100
AcDbLine
10
62
20
-43.35
30
0
11
62.5
21
-43.85
31
0
39
0
210
0
220
0
230
1
0
LINE
5
71
100
AcDbEntity
8
SK1
62
256
6
ByLayer
370
-1
48
1
60
0
100
AcDbLine
10
62
20
-43.35
30
0
11
62
21
-29
31
0
39
0
210
0
220
0
230
1
0
LINE
5
72
100
AcDbEntity
8
3
62
256
6
ByLayer
370
-1
48
0.05
60
0
100
AcDbLine
10
-1
20
-33.35
30
0
11
63.5
21
-33.35
31
0
39
0
210
0
220
0
230
1
0
LINE
5
74
100
AcDbEntity
8
1
62
256
6
ByLayer
370
-1
48
1
60
0
100
AcDbLine
10
0
20
9.5275
30
0
11
1.3
21
8.2275
31
0
39
0
210
0
220
0
230
1
0
LINE
5
75
100
AcDbEntity
8
1
62
256
6
ByLayer
370
-1
48
1
60
0
100
AcDbLine
10
1.3
20
8.2275
30
0
11
8.7
21
8.2275
31
0
39
0
210
0
220
0
230
1
0
LINE
5
76
100
AcDbEntity
8
1
62
256
6
ByLayer
370
-1
48
1
60
0
100
AcDbLine
10
8.7
20
8.2275
30
0
11
9.5
21
7.4275
31
0
39
0
210
0
220
0
230
1
0
LINE
5
77
100
AcDbEntity
8
1
62
256
6
ByLayer
370
-1
48
1
60
0
100
AcDbLine
10
9.5
20
7.4275
30
0
11
9.5
21
0
31
0
39
0
210
0
220
0
230
1
0
LINE
5
78
100
AcDbEntity
8
1
62
256
6
ByLayer
370
-1
48
1
60
0
100
AcDbLine
10
0.4
20
-47.01
30
0
11
0.4
21
-45.01
31
0
39
0
210
0
220
0
230
1
0
LINE
5
79
100
AcDbEntity
8
1
62
256
6
ByLayer
370
-1
48
1
60
0
100
AcDbLine
10
0
20
-45.01
30
0
11
0
21
-9.5275
31
0
39
0
210
0
220
0
230
1
0
LINE
5
7A
100
AcDbEntity
8
1
62
256
6
ByLayer
370
-1
48
1
60
0
100
AcDbLine
10
0.4
20
-45.01
30
0
11
0
21
-45.01
31
0
39
0
210
0
220
0
230
1
0
LINE
5
7B
100
AcDbEntity
8
1
62
256
6
ByLayer
370
-1
48
1
60
0
100
AcDbLine
10
0.4
20
-45.01
30
0
11
0.4
21
-9.1275
31
0
39
0
210
0
220
0
230
1
0
LINE
5
7C
100
AcDbEntity
8
1
62
256
6
ByLayer
370
-1
48
1
60
0
100
AcDbLine
10
1.39
20
-48
30
0
11
0.4
21
-47.01
31
0
39
0
210
0
220
0
230
1
0
LINE
5
7D
100
AcDbEntity
8
1
62
256
6
ByLayer
370
-1
48
1
60
0
100
AcDbLine
10
1.39
20
-48
30
0
11
1.39
21
-8.2275
31
0
39
0
210
0
220
0
230
1
0
LINE
5
7E
100
AcDbEntity
8
1
62
256
6
ByLayer
370
-1
48
1
60
0
100
AcDbLine
10
20
20
48
30
0
11
1.39
21
48
31
0
39
0
210
0
220
0
230
1
0
LINE
5
7F
100
AcDbEntity
8
1
62
256
6
ByLayer
370
-1
48
1
60
0
100
AcDbLine
10
0
20
45.01
30
0
11
0
21
9.5275
31
0
39
0
210
0
220
0
230
1
0
LINE
5
80
100
AcDbEntity
8
1
62
256
6
ByLayer
370
-1
48
1
60
0
100
AcDbLine
10
0.4
20
45.01
30
0
11
0
21
45.01
31
0
39
0
210
0
220
0
230
1
0
LINE
5
81
100
AcDbEntity
8
1
62
256
6
ByLayer
370
-1
48
1
60
0
100
AcDbLine
10
0.4
20
47.01
30
0
11
0.4
21
45.01
31
0
39
0
210
0
220
0
230
1
0
LINE
5
82
100
AcDbEntity
8
1
62
256
6
ByLayer
370
-1
48
1
60
0
100
AcDbLine
10
1.39
20
48
30
0
11
0.4
21
47.01
31
0
39
0
210
0
220
0
230
1
0
LINE
5
83
100
AcDbEntity
8
1
62
256
6
ByLayer
370
-1
48
1
60
0
100
AcDbLine
10
0.4
20
45.01
30
0
11
0.4
21
9.1275
31
0
39
0
210
0
220
0
230
1
0
LINE
5
84
100
AcDbEntity
8
1
62
256
6
ByLayer
370
-1
48
1
60
0
100
AcDbLine
10
1.39
20
48
30
0
11
1.39
21
8.2275
31
0
39
0
210
0
220
0
230
1
0
LINE
5
85
100
AcDbEntity
8
SK1
62
256
6
ByLayer
370
-1
48
1
60
0
100
AcDbLine
10
0
20
-23.00625
30
0
11
3
21
-20.00625
31
0
39
0
210
0
220
0
230
1
0
LINE
5
86
100
AcDbEntity
8
SK1
62
256
6
ByLayer
370
-1
48
1
60
0
100
AcDbLine
10
3
20
-20.00625
30
0
11
25
21
-20.00625
31
0
39
0
210
0
220
0
230
1
0
LINE
5
87
100
AcDbEntity
8
SK1
62
256
6
ByLayer
370
-1
48
1
60
0
100
AcDbLine
10
25
20
-20.00625
30
0
11
25.14375
21
-20.15
31
0
39
0
210
0
220
0
230
1
0
LINE
5
88
100
AcDbEntity
8
SK1
62
256
6
ByLayer
370
-1
48
1
60
0
100
AcDbLine
10
25.14375
20
-20.15
30
0
11
27
21
-20.15
31
0
39
0
210
0
220
0
230
1
0
LINE
5
89
100
AcDbEntity
8
SK1
62
256
6
ByLayer
370
-1
48
1
60
0
100
AcDbLine
10
27
20
-20.15
30
0
11
28
21
-21.15
31
0
39
0
210
0
220
0
230
1
0
LINE
5
8A
100
AcDbEntity
8
SK1
62
256
6
ByLayer
370
-1
48
1
60
0
100
AcDbLine
10
28
20
-21.15
30
0
11
28
21
-28.2
31
0
39
0
210
0
220
0
230
1
0
LINE
5
8B
100
AcDbEntity
8
SK1
62
256
6
ByLayer
370
-1
48
1
60
0
100
AcDbLine
10
28.8
20
-29
30
0
11
61.5
21
-29
31
0
39
0
210
0
220
0
230
1
0
LINE
5
8C
100
AcDbEntity
8
SK1
62
256
6
ByLayer
370
-1
48
1
60
0
100
AcDbLine
10
61.5
20
-29
30
0
11
62.5
21
-30
31
0
39
0
210
0
220
0
230
1
0
LINE
5
8D
100
AcDbEntity
8
SK1
62
256
6
ByLayer
370
-1
48
1
60
0
100
AcDbLine
10
61.5
20
-29
30
0
11
61.5
21
0
31
0
39
0
210
0
220
0
230
1
0
LINE
5
8E
100
AcDbEntity
8
SK1
62
256
6
ByLayer
370
-1
48
1
60
0
100
AcDbLine
10
28
20
-21.15
30
0
11
28
21
0
31
0
39
0
210
0
220
0
230
1
0
LINE
5
8F
100
AcDbEntity
8
SK1
62
256
6
ByLayer
370
-1
48
1
60
0
100
AcDbLine
10
27
20
-20.15
30
0
11
27
21
0
31
0
39
0
210
0
220
0
230
1
0
LINE
5
90
100
AcDbEntity
8
SK1
62
256
6
ByLayer
370
-1
48
1
60
0
100
AcDbLine
10
25.14375
20
-20.15
30
0
11
25.14375
21
0
31
0
39
0
210
0
220
0
230
1
0
LINE
5
91
100
AcDbEntity
8
SK1
62
256
6
ByLayer
370
-1
48
1
60
0
100
AcDbLine
10
25
20
-20.00625
30
0
11
25
21
0
31
0
39
0
210
0
220
0
230
1
0
LINE
5
92
100
AcDbEntity
8
SK1
62
256
6
ByLayer
370
-1
48
1
60
0
100
AcDbLine
10
3
20
-20.00625
30
0
11
3
21
-8.2275
31
0
39
0
210
0
220
0
230
1
0
LINE
5
93
100
AcDbEntity
8
SK1
62
256
6
ByLayer
370
-1
48
1
60
0
100
AcDbLine
10
0
20
23.00625
30
0
11
3
21
20.00625
31
0
39
0
210
0
220
0
230
1
0
LINE
5
94
100
AcDbEntity
8
SK1
62
256
6
ByLayer
370
-1
48
1
60
0
100
AcDbLine
10
3
20
20.00625
30
0
11
25
21
20.00625
31
0
39
0
210
0
220
0
230
1
0
LINE
5
95
100
AcDbEntity
8
SK1
62
256
6
ByLayer
370
-1
48
1
60
0
100
AcDbLine
10
25
20
20.00625
30
0
11
25.14375
21
20.15
31
0
39
0
210
0
220
0
230
1
0
LINE
5
96
100
AcDbEntity
8
SK1
62
256
6
ByLayer
370
-1
48
1
60
0
100
AcDbLine
10
25.14375
20
20.15
30
0
11
27
21
20.15
31
0
39
0
210
0
220
0
230
1
0
LINE
5
97
100
AcDbEntity
8
SK1
62
256
6
ByLayer
370
-1
48
1
60
0
100
AcDbLine
10
27
20
20.15
30
0
11
28
21
21.15
31
0
39
0
210
0
220
0
230
1
0
LINE
5
98
100
AcDbEntity
8
SK1
62
256
6
ByLayer
370
-1
48
1
60
0
100
AcDbLine
10
28
20
21.15
30
0
11
28
21
28.2
31
0
39
0
210
0
220
0
230
1
0
LINE
5
99
100
AcDbEntity
8
SK1
62
256
6
ByLayer
370
-1
48
1
60
0
100
AcDbLine
10
28.8
20
29
30
0
11
61.5
21
29
31
0
39
0
210
0
220
0
230
1
0
LINE
5
9A
100
AcDbEntity
8
SK1
62
256
6
ByLayer
370
-1
48
1
60
0
100
AcDbLine
10
61.5
20
29
30
0
11
62.5
21
30
31
0
39
0
210
0
220
0
230
1
0
LINE
5
9B
100
AcDbEntity
8
SK1
62
256
6
ByLayer
370
-1
48
1
60
0
100
AcDbLine
10
61.5
20
29
30
0
11
61.5
21
0
31
0
39
0
210
0
220
0
230
1
0
LINE
5
9C
100
AcDbEntity
8
SK1
62
256
6
ByLayer
370
-1
48
1
60
0
100
AcDbLine
10
28
20
21.15
30
0
11
28
21
0
31
0
39
0
210
0
220
0
230
1
0
LINE
5
9D
100
AcDbEntity
8
SK1
62
256
6
ByLayer
370
-1
48
1
60
0
100
AcDbLine
10
27
20
20.15
30
0
11
27
21
0
31
0
39
0
210
0
220
0
230
1
0
LINE
5
9E
100
AcDbEntity
8
SK1
62
256
6
ByLayer
370
-1
48
1
60
0
100
AcDbLine
10
25.14375
20
20.15
30
0
11
25.14375
21
0
31
0
39
0
210
0
220
0
230
1
0
LINE
5
9F
100
AcDbEntity
8
SK1
62
256
6
ByLayer
370
-1
48
1
60
0
100
AcDbLine
10
25
20
20.00625
30
0
11
25
21
0
31
0
39
0
210
0
220
0
230
1
0
LINE
5
A0
100
AcDbEntity
8
SK1
62
256
6
ByLayer
370
-1
48
1
60
0
100
AcDbLine
10
3
20
20.00625
30
0
11
3
21
8.2275
31
0
39
0
210
0
220
0
230
1
0
MTEXT
5
BB
100
AcDbEntity
8
SK6
62
256
6
ByLayer
370
-1
48
1
60
0
100
AcDbMText
10
-12.385505
20
58.487379
30
0
210
0
220
0
230
1
1
\W00.750;\fsimplex.shx,bigfont.shx;R331.32-200Q40FM12.00\P
40
4.022556
41
0
44
1.084337
50
0
71
7
72
5
7
DEFAULT
0
DIMENSION
5
CC
100
AcDbEntity
8
2
62
256
6
ByLayer
370
-3
48
1
60
0
100
AcDbDimension
2
DimnDraft3D1
10
89.146615
20
100
30
0
11
89.146615
21
0
31
0
70
32
71
5
72
1
41
1
210
0
220
0
230
1
3
Standard
100
AcDbAlignedDimension
13
64.499997
23
-100
33
0
14
64.499997
24
100
34
0
50
90
100
AcDbRotatedDimension
1001
ACAD
1000
DSTYLE
1002
{
1070
    74
1070
     0
1070
   279
1070
     0
1070
   173
1070
     1
1070
   340
1005
BC
1070
    77
1070
     1
1070
    73
1070
     0
1070
   171
1070
     4
1070
   274
1070
     4
1070
   177
1070
     7
1070
   176
1070
     7
1070
   178
1070
     7
1070
    41
1041
2.999994
1070
   147
1041
2.011278
1070
    42
1041
1.499997
1070
    44
1041
2.999994
1070
   140
1041
4.022556
1070
   343
1005
CD
1070
   344
1005
CD
1002
}
0
DIMENSION
5
E1
100
AcDbEntity
8
SK2
62
256
6
ByLayer
370
-3
48
1
60
0
100
AcDbDimension
2
DimnDraft3D2
10
-9.48174
20
20
30
0
11
-9.48174
21
0
31
0
70
32
71
5
72
1
41
1
210
0
220
0
230
1
3
Standard
100
AcDbAlignedDimension
13
-1.499997
23
-20
33
0
14
-1.499997
24
20
34
0
50
90
100
AcDbRotatedDimension
1001
ACAD
1000
DSTYLE
1002
{
1070
    74
1070
     0
1070
   279
1070
     0
1070
   173
1070
     1
1070
   340
1005
BC
1070
    77
1070
     1
1070
    73
1070
     0
1070
   171
1070
     4
1070
   274
1070
     4
1070
   177
1070
     7
1070
   176
1070
     7
1070
   178
1070
     7
1070
    41
1041
2.999994
1070
   147
1041
2.011278
1070
    42
1041
1.499997
1070
    44
1041
2.999994
1070
   140
1041
4.022556
1070
   343
1005
CD
1070
   344
1005
CD
1002
}
0
DIMENSION
5
EF
100
AcDbEntity
8
SK2
62
256
6
ByLayer
370
-3
48
1
60
0
100
AcDbDimension
2
DimnDraft3D3
10
-20.974757
20
48
30
0
11
-20.974757
21
0
31
0
70
32
71
5
72
1
41
1
210
0
220
0
230
1
3
Standard
100
AcDbAlignedDimension
13
-1.499997
23
-48
33
0
14
-1.499997
24
48
34
0
50
90
100
AcDbRotatedDimension
1001
ACAD
1000
DSTYLE
1002
{
1070
    74
1070
     0
1070
   279
1070
     0
1070
   173
1070
     1
1070
   340
1005
BC
1070
    77
1070
     1
1070
    73
1070
     0
1070
   171
1070
     4
1070
   274
1070
     4
1070
   177
1070
     7
1070
   176
1070
     7
1070
   178
1070
     7
1070
    41
1041
2.999994
1070
   147
1041
2.011278
1070
    42
1041
1.499997
1070
    44
1041
2.999994
1070
   140
1041
4.022556
1070
   343
1005
CD
1070
   344
1005
CD
1002
}
0
DIMENSION
5
FD
100
AcDbEntity
8
2
62
256
6
ByLayer
370
-3
48
1
60
0
100
AcDbDimension
2
DimnDraft3D4
10
51
20
110.631041
30
0
11
57
21
110.631041
31
0
70
32
71
5
72
1
41
1
210
0
220
0
230
1
3
Standard
100
AcDbAlignedDimension
13
63
23
101.499997
33
0
14
51
24
101.499997
34
0
50
0
100
AcDbRotatedDimension
1001
ACAD
1000
DSTYLE
1002
{
1070
   279
1070
     0
1070
   173
1070
     1
1070
   340
1005
BC
1070
    77
1070
     1
1070
    73
1070
     0
1070
   171
1070
     4
1070
   274
1070
     4
1070
   177
1070
     7
1070
   176
1070
     7
1070
   178
1070
     7
1070
    41
1041
2.999994
1070
   147
1041
2.011278
1070
    42
1041
1.499997
1070
    44
1041
2.999994
1070
   140
1041
4.022556
1070
   343
1005
CD
1070
   344
1005
CD
1002
}
0
DIMENSION
5
10B
100
AcDbEntity
8
2
62
256
6
ByLayer
370
-3
48
1
60
0
100
AcDbDimension
2
DimnDraft3D5
10
0
20
-135.341029
30
0
11
31.5
21
-135.341029
31
0
70
32
71
5
72
1
41
1
210
0
220
0
230
1
3
Standard
100
AcDbAlignedDimension
13
63
23
-101.499997
33
0
14
0
24
-49.499997
34
0
50
0
100
AcDbRotatedDimension
1001
ACAD
1000
DSTYLE
1002
{
1070
   279
1070
     0
1070
   173
1070
     1
1070
   340
1005
BC
1070
    77
1070
     1
1070
    73
1070
     0
1070
   171
1070
     4
1070
   274
1070
     4
1070
   177
1070
     7
1070
   176
1070
     7
1070
   178
1070
     7
1070
    41
1041
2.999994
1070
   147
1041
2.011278
1070
    42
1041
1.499997
1070
    44
1041
2.999994
1070
   140
1041
4.022556
1070
   343
1005
CD
1070
   344
1005
CD
1002
}
0
ENDSEC
0
SECTION
2
OBJECTS
0
DICTIONARY
5
15a
330
0
100
AcDbDictionary
280
0
281
1
3
ACAD_GROUP
350
15b
3
ACAD_MLINESTYLE
350
15c
0
DICTIONARY
5
15b
330
0
100
AcDbDictionary
280
0
281
1
0
DICTIONARY
5
15c
330
0
100
AcDbDictionary
280
0
281
1
3
Standard
350
18
0
MLINESTYLE
5
18
330
15c
100
AcDbMlineStyle
2
Standard
70
0
3

62
256
51
90
52
90
71
2
49
-0.5
62
256
6
ByLayer
49
0.5
62
256
6
ByLayer
0
RASTERVARIABLES
5
148
330

100
AcDbRasterVariables
90
0
70
1
71
1
72
1
0
ENDSEC
0
EOF
