0
SECTION
2
HEADER
9
$ACADVER
1
AC1015
9
$DWGCODEPAGE
3
ANSI_1252
9
$HANDSEED
5
1eb
9
$ANGBASE
50
0
9
$ANGDIR
70
0
9
$ATTMODE
70
1
9
$AUNITS
70
0
9
$AUPREC
70
0
9
$CECOLOR
62
256
9
$CELTSCALE
40
1
9
$CELTYPE
6
ByLayer
9
$CELWEIGHT
370
18
9
$CLAYER
8
0
9
$CMLJUST
70
0
9
$CMLSCALE
40
1
9
$CMLSTYLE
2
Standard
9
$DIMSTYLE
2
Standard
9
$TEXTSIZE
40
0.2
9
$TEXTSTYLE
7
Standard
9
$LUNITS
70
2
9
$LUPREC
70
4
9
$EXTNAMES
290
1
9
$INSUNITS
70
4
9
$LTSCALE
40
1
9
$LWDISPLAY
290
1
9
$PDMODE
70
0
9
$PDSIZE
40
0
9
$PLINEGEN
70
0
0
ENDSEC
0
SECTION
2
CLASSES
0
CLASS
1
RASTERVARIABLES
2
AcDbRasterVariables
3
ISM
90
0
280
0
281
0
0
ENDSEC
0
SECTION
2
TABLES
0
TABLE
2
VPORT
5
1e1
100
AcDbSymbolTable
0
VPORT
5
1
100
AcDbSymbolTableRecord
100
AcDbViewportTableRecord
2
*Active
70
0
10
0
20
0
11
1
21
1
12
-1
22
1
13
0
23
0
14
0.5
24
0.5
15
10
25
10
16
0
26
0
36
1
17
0
27
0
37
0
0
ENDTAB
0
TABLE
2
LTYPE
5
1e2
100
AcDbSymbolTable
0
LTYPE
5
14
100
AcDbSymbolTableRecord
100
AcDbLinetypeTableRecord
70
0
2
ByBlock
3

72
65
73
0
40
0
0
LTYPE
5
15
100
AcDbSymbolTableRecord
100
AcDbLinetypeTableRecord
70
0
2
ByLayer
3

72
65
73
0
40
0
0
LTYPE
5
16
100
AcDbSymbolTableRecord
100
AcDbLinetypeTableRecord
70
0
2
CONTINUOUS
3
Solid line
72
65
73
0
40
0
0
LTYPE
5
6A
100
AcDbSymbolTableRecord
100
AcDbLinetypeTableRecord
70
0
2
CENTER
3
____ _ ____ _ ____ _ ____
72
65
73
4
40
47.5
49
22
74
0
49
-8.5
74
0
49
8.5
74
0
49
-8.5
74
0
0
LTYPE
5
6B
100
AcDbSymbolTableRecord
100
AcDbLinetypeTableRecord
70
0
2
DASHED
3
__ __ __ __ __ __ __ __ __
72
65
73
2
40
25.72
49
12.86
74
0
49
-12.86
74
0
0
ENDTAB
0
TABLE
2
LAYER
5
1e3
100
AcDbSymbolTable
0
LAYER
5
10
100
AcDbSymbolTableRecord
100
AcDbLayerTableRecord
2
0
70
0
62
7
6
CONTINUOUS
290
1
370
-3
390
0
0
LAYER
5
6D
100
AcDbSymbolTableRecord
100
AcDbLayerTableRecord
2
81
70
0
62
-3
6
CONTINUOUS
290
1
370
-3
390
0
0
LAYER
5
6F
100
AcDbSymbolTableRecord
100
AcDbLayerTableRecord
2
80
70
0
62
-6
6
CONTINUOUS
290
1
370
-3
390
0
0
LAYER
5
73
100
AcDbSymbolTableRecord
100
AcDbLayerTableRecord
2
1
70
0
62
4
6
CONTINUOUS
290
1
370
-3
390
0
0
LAYER
5
141
100
AcDbSymbolTableRecord
100
AcDbLayerTableRecord
2
2
70
0
62
7
6
CONTINUOUS
290
1
370
-3
390
0
0
LAYER
5
1ce
100
AcDbSymbolTableRecord
100
AcDbLayerTableRecord
2
SK4
70
0
62
2
6
CENTER
290
1
370
-3
390
0
0
LAYER
5
1cf
100
AcDbSymbolTableRecord
100
AcDbLayerTableRecord
2
SK6
70
0
62
5
6
CONTINUOUS
290
1
370
-3
390
0
0
LAYER
5
1d0
100
AcDbSymbolTableRecord
100
AcDbLayerTableRecord
2
SK2
70
0
62
7
6
CONTINUOUS
290
1
370
-3
390
0
0
ENDTAB
0
TABLE
2
STYLE
5
1e4
100
AcDbSymbolTable
0
STYLE
5
11
100
AcDbSymbolTableRecord
100
AcDbTextStyleTableRecord
2
Standard
3
txt
70
0
71
0
40
0
41
1
42
0
50
0
0
STYLE
5
13C
100
AcDbSymbolTableRecord
100
AcDbTextStyleTableRecord
2
iso_b_vert
3
simplex.shx
70
0
71
0
40
0
41
1
42
0
50
0
0
STYLE
5
13D
100
AcDbSymbolTableRecord
100
AcDbTextStyleTableRecord
2
DWGDirectTextStyle
3
simplex
70
0
71
0
40
0
41
1
42
0
50
0
0
ENDTAB
0
TABLE
2
DIMSTYLE
5
1e5
100
AcDbSymbolTable
100
AcDbDimStyleTable
0
DIMSTYLE
105
27
100
AcDbSymbolTableRecord
100
AcDbDimStyleTableRecord
2
Standard
70
0
3
<>
41
0.18
42
0.0625
44
0.18
140
0.18
147
0.09
73
0
74
0
77
1
271
2
275
0
278
52
280
0
340
11
0
ENDTAB
0
TABLE
2
VIEW
5
1e6
100
AcDbSymbolTable
0
ENDTAB
0
TABLE
2
UCS
5
1e7
100
AcDbSymbolTable
0
ENDTAB
0
TABLE
2
APPID
5
1e8
100
AcDbSymbolTable
0
APPID
5
12
100
AcDbSymbolTableRecord
100
AcDbRegAppTableRecord
2
ACAD
70
0
0
ENDTAB
0
TABLE
2
BLOCK_RECORD
5
1e9
100
AcDbSymbolTable
0
BLOCK_RECORD
5
1F
100
AcDbSymbolTableRecord
100
AcDbBlockTableRecord
2
*Model_Space
340
0
70
0
0
BLOCK_RECORD
5
1B
100
AcDbSymbolTableRecord
100
AcDbBlockTableRecord
2
*Paper_Space
340
0
70
0
0
BLOCK_RECORD
5
23
100
AcDbSymbolTableRecord
100
AcDbBlockTableRecord
2
*Paper_Space0
340
0
70
0
0
BLOCK_RECORD
5
13F
100
AcDbSymbolTableRecord
100
AcDbBlockTableRecord
2
DimnDraft3D1
340
0
70
0
0
BLOCK_RECORD
5
14A
100
AcDbSymbolTableRecord
100
AcDbBlockTableRecord
2
DimnDraft3D2
340
0
70
0
0
BLOCK_RECORD
5
154
100
AcDbSymbolTableRecord
100
AcDbBlockTableRecord
2
DimnDraft3D3
340
0
70
0
0
BLOCK_RECORD
5
15F
100
AcDbSymbolTableRecord
100
AcDbBlockTableRecord
2
DimnDraft3D4
340
0
70
0
0
BLOCK_RECORD
5
16A
100
AcDbSymbolTableRecord
100
AcDbBlockTableRecord
2
DimnDraft3D5
340
0
70
0
0
ENDTAB
0
ENDSEC
0
SECTION
2
BLOCKS
0
BLOCK
5
20
100
AcDbEntity
8
0
100
AcDbBlockBegin
2
*Model_Space
70
0
10
0
20
0
30
0
3
*Model_Space
0
ENDBLK
5
21
100
AcDbEntity
8
0
100
AcDbBlockEnd
0
BLOCK
5
1C
100
AcDbEntity
8
0
100
AcDbBlockBegin
2
*Paper_Space
70
0
10
0
20
0
30
0
3
*Paper_Space
0
ENDBLK
5
1D
100
AcDbEntity
8
0
100
AcDbBlockEnd
0
BLOCK
5
24
100
AcDbEntity
8
0
100
AcDbBlockBegin
2
*Paper_Space0
70
0
10
0
20
0
30
0
3
*Paper_Space0
0
ENDBLK
5
25
100
AcDbEntity
8
0
100
AcDbBlockEnd
0
BLOCK
5
147
100
AcDbEntity
8
0
100
AcDbBlockBegin
2
DimnDraft3D1
70
0
10
0
20
0
30
0
3
DimnDraft3D1
0
MTEXT
5
140
100
AcDbEntity
8
2
62
256
6
ByLayer
370
18
48
1
60
0
100
AcDbMText
10
24.155
20
31.725
30
0
210
0
220
0
230
1
1
\W0.7121;6.0
40
3.5
41
0
44
1.084337
50
0
71
7
72
5
7
iso_b_vert
0
LINE
5
142
100
AcDbEntity
8
2
62
256
6
ByLayer
370
13
48
1
60
0
100
AcDbLine
10
38.88
20
16
30
0
11
38.88
21
32.85
31
0
39
0
210
0
220
0
230
1
0
LINE
5
143
100
AcDbEntity
8
2
62
256
6
ByLayer
370
13
48
1
60
0
100
AcDbLine
10
44.88
20
10
30
0
11
44.88
21
32.85
31
0
39
0
210
0
220
0
230
1
0
LINE
5
144
100
AcDbEntity
8
2
62
256
6
ByLayer
370
13
48
1
60
0
100
AcDbLine
10
53.63
20
30.85
30
0
11
23.28
21
30.85
31
0
39
0
210
0
220
0
230
1
0
SOLID
5
145
100
AcDbEntity
8
2
62
256
6
ByLayer
370
13
48
1
60
0
100
AcDbTrace
10
38.88
20
30.85
30
0
11
35.380003
21
29.912178
31
0
12
35.379997
22
31.787822
32
0
13
38.88
23
30.85
33
0
39
0
210
0
220
0
230
1
0
SOLID
5
146
100
AcDbEntity
8
2
62
256
6
ByLayer
370
13
48
1
60
0
100
AcDbTrace
10
44.88
20
30.85
30
0
11
48.379997
21
31.787822
31
0
12
48.380003
22
29.912178
32
0
13
44.88
23
30.85
33
0
39
0
210
0
220
0
230
1
0
ENDBLK
5
148
100
AcDbEntity
8
0
100
AcDbBlockEnd
0
BLOCK
5
151
100
AcDbEntity
8
0
100
AcDbBlockBegin
2
DimnDraft3D2
70
0
10
0
20
0
30
0
3
DimnDraft3D2
0
MTEXT
5
14B
100
AcDbEntity
8
2
62
256
6
ByLayer
370
18
48
1
60
0
100
AcDbMText
10
18.838684
20
41.725
30
0
210
0
220
0
230
1
1
\W0.8104;44.9
40
3.5
41
0
44
1.084337
50
0
71
7
72
5
7
iso_b_vert
0
LINE
5
14C
100
AcDbEntity
8
2
62
256
6
ByLayer
370
13
48
1
60
0
100
AcDbLine
10
44.88
20
10
30
0
11
44.88
21
42.85
31
0
39
0
210
0
220
0
230
1
0
LINE
5
14D
100
AcDbEntity
8
2
62
256
6
ByLayer
370
13
48
1
60
0
100
AcDbLine
10
0
20
14.4
30
0
11
0
21
42.85
31
0
39
0
210
0
220
0
230
1
0
LINE
5
14E
100
AcDbEntity
8
2
62
256
6
ByLayer
370
13
48
1
60
0
100
AcDbLine
10
44.88
20
40.85
30
0
11
0
21
40.85
31
0
39
0
210
0
220
0
230
1
0
SOLID
5
14F
100
AcDbEntity
8
2
62
256
6
ByLayer
370
13
48
1
60
0
100
AcDbTrace
10
44.88
20
40.85
30
0
11
41.380003
21
39.912178
31
0
12
41.379997
22
41.787822
32
0
13
44.88
23
40.85
33
0
39
0
210
0
220
0
230
1
0
SOLID
5
150
100
AcDbEntity
8
2
62
256
6
ByLayer
370
13
48
1
60
0
100
AcDbTrace
10
0
20
40.85
30
0
11
3.499997
21
41.787822
31
0
12
3.500003
22
39.912178
32
0
13
0
23
40.85
33
0
39
0
210
0
220
0
230
1
0
ENDBLK
5
152
100
AcDbEntity
8
0
100
AcDbBlockEnd
0
BLOCK
5
15C
100
AcDbEntity
8
0
100
AcDbBlockBegin
2
DimnDraft3D3
70
0
10
0
20
0
30
0
3
DimnDraft3D3
0
MTEXT
5
155
100
AcDbEntity
8
SK2
62
256
6
ByLayer
370
18
48
1
60
0
100
AcDbMText
10
7.207105
20
51.725
30
0
210
0
220
0
230
1
1
\W0.7457;68.9
40
3.5
41
0
44
1.084337
50
0
71
7
72
5
7
iso_b_vert
0
LINE
5
157
100
AcDbEntity
8
SK2
62
256
6
ByLayer
370
13
48
1
60
0
100
AcDbLine
10
44.88
20
10
30
0
11
44.88
21
52.85
31
0
39
0
210
0
220
0
230
1
0
LINE
5
158
100
AcDbEntity
8
SK2
62
256
6
ByLayer
370
13
48
1
60
0
100
AcDbLine
10
-24
20
0
30
0
11
-24
21
52.85
31
0
39
0
210
0
220
0
230
1
0
LINE
5
159
100
AcDbEntity
8
SK2
62
256
6
ByLayer
370
13
48
1
60
0
100
AcDbLine
10
44.88
20
50.85
30
0
11
-24
21
50.85
31
0
39
0
210
0
220
0
230
1
0
SOLID
5
15A
100
AcDbEntity
8
SK2
62
256
6
ByLayer
370
13
48
1
60
0
100
AcDbTrace
10
44.88
20
50.85
30
0
11
41.380003
21
49.912178
31
0
12
41.379997
22
51.787822
32
0
13
44.88
23
50.85
33
0
39
0
210
0
220
0
230
1
0
SOLID
5
15B
100
AcDbEntity
8
SK2
62
256
6
ByLayer
370
13
48
1
60
0
100
AcDbTrace
10
-24
20
50.85
30
0
11
-20.500003
21
51.787822
31
0
12
-20.499997
22
49.912178
32
0
13
-24
23
50.85
33
0
39
0
210
0
220
0
230
1
0
ENDBLK
5
15D
100
AcDbEntity
8
0
100
AcDbBlockEnd
0
BLOCK
5
167
100
AcDbEntity
8
0
100
AcDbBlockBegin
2
DimnDraft3D4
70
0
10
0
20
0
30
0
3
DimnDraft3D4
0
MTEXT
5
160
100
AcDbEntity
8
2
62
256
6
ByLayer
370
18
48
1
60
0
100
AcDbMText
10
70.855
20
2.017105
30
0
210
0
220
0
230
1
1
\W0.7346;32.0
40
3.5
41
0
44
1.084337
50
90
71
7
72
5
7
iso_b_vert
0
MTEXT
5
161
100
AcDbEntity
8
2
62
256
6
ByLayer
370
18
48
1
60
0
100
AcDbMText
10
70.855
20
-6.705551
30
0
210
0
220
0
230
1
1
%%c
40
3.5
41
0
44
1.084337
50
90
71
7
72
5
7
iso_b_vert
0
LINE
5
162
100
AcDbEntity
8
2
62
256
6
ByLayer
370
13
48
1
60
0
100
AcDbLine
10
38.88
20
-16
30
0
11
74.605
21
-16
31
0
39
0
210
0
220
0
230
1
0
LINE
5
163
100
AcDbEntity
8
2
62
256
6
ByLayer
370
13
48
1
60
0
100
AcDbLine
10
38.88
20
16
30
0
11
74.605
21
16
31
0
39
0
210
0
220
0
230
1
0
LINE
5
164
100
AcDbEntity
8
2
62
256
6
ByLayer
370
13
48
1
60
0
100
AcDbLine
10
72.605
20
-16
30
0
11
72.605
21
16
31
0
39
0
210
0
220
0
230
1
0
SOLID
5
165
100
AcDbEntity
8
2
62
256
6
ByLayer
370
13
48
1
60
0
100
AcDbTrace
10
72.605
20
-16
30
0
11
71.667178
21
-12.500003
31
0
12
73.542822
22
-12.499997
32
0
13
72.605
23
-16
33
0
39
0
210
0
220
0
230
1
0
SOLID
5
166
100
AcDbEntity
8
2
62
256
6
ByLayer
370
13
48
1
60
0
100
AcDbTrace
10
72.605
20
16
30
0
11
73.542822
21
12.500003
31
0
12
71.667178
22
12.499997
32
0
13
72.605
23
16
33
0
39
0
210
0
220
0
230
1
0
ENDBLK
5
168
100
AcDbEntity
8
0
100
AcDbBlockEnd
0
BLOCK
5
172
100
AcDbEntity
8
0
100
AcDbBlockBegin
2
DimnDraft3D5
70
0
10
0
20
0
30
0
3
DimnDraft3D5
0
MTEXT
5
16B
100
AcDbEntity
8
SK2
62
256
6
ByLayer
370
18
48
1
60
0
100
AcDbMText
10
-44.725
20
2.017105
30
0
210
0
220
0
230
1
1
\W0.7346;28.8
40
3.5
41
0
44
1.084337
50
90
71
7
72
5
7
iso_b_vert
0
MTEXT
5
16C
100
AcDbEntity
8
SK2
62
256
6
ByLayer
370
18
48
1
60
0
100
AcDbMText
10
-44.725
20
-6.705551
30
0
210
0
220
0
230
1
1
%%c
40
3.5
41
0
44
1.084337
50
90
71
7
72
5
7
iso_b_vert
0
LINE
5
16D
100
AcDbEntity
8
SK2
62
256
6
ByLayer
370
13
48
1
60
0
100
AcDbLine
10
0
20
14.4
30
0
11
-44.975
21
14.4
31
0
39
0
210
0
220
0
230
1
0
LINE
5
16E
100
AcDbEntity
8
SK2
62
256
6
ByLayer
370
13
48
1
60
0
100
AcDbLine
10
0
20
-14.4
30
0
11
-44.975
21
-14.4
31
0
39
0
210
0
220
0
230
1
0
LINE
5
16F
100
AcDbEntity
8
SK2
62
256
6
ByLayer
370
13
48
1
60
0
100
AcDbLine
10
-42.975
20
14.4
30
0
11
-42.975
21
-14.4
31
0
39
0
210
0
220
0
230
1
0
SOLID
5
170
100
AcDbEntity
8
SK2
62
256
6
ByLayer
370
13
48
1
60
0
100
AcDbTrace
10
-42.975
20
14.4
30
0
11
-42.037178
21
10.900003
31
0
12
-43.912822
22
10.899997
32
0
13
-42.975
23
14.4
33
0
39
0
210
0
220
0
230
1
0
SOLID
5
171
100
AcDbEntity
8
SK2
62
256
6
ByLayer
370
13
48
1
60
0
100
AcDbTrace
10
-42.975
20
-14.4
30
0
11
-43.912822
21
-10.900003
31
0
12
-42.037178
22
-10.899997
32
0
13
-42.975
23
-14.4
33
0
39
0
210
0
220
0
230
1
0
ENDBLK
5
173
100
AcDbEntity
8
0
100
AcDbBlockEnd
0
ENDSEC
0
SECTION
2
ENTITIES
0
ARC
5
C4
100
AcDbEntity
8
1
62
256
6
ByLayer
370
18
48
1
60
0
100
AcDbCircle
39
0
10
0.38
20
8.8
30
0
40
0.499999999999999
210
0
220
0
230
-1
100
AcDbArc
50
220.536554
51
270
0
ARC
5
C5
100
AcDbEntity
8
1
62
256
6
ByLayer
370
18
48
1
60
0
100
AcDbCircle
39
0
10
0.38
20
-8.8
30
0
40
0.499999999999999
210
0
220
0
230
-1
100
AcDbArc
50
90
51
139.463446
0
ARC
5
C6
100
AcDbEntity
8
1
62
256
6
ByLayer
370
18
48
1
60
0
100
AcDbCircle
39
0
10
7
20
7.5
30
0
40
1
210
0
220
0
230
-1
100
AcDbArc
50
180
51
270
0
ARC
5
C7
100
AcDbEntity
8
1
62
256
6
ByLayer
370
18
48
1
60
0
100
AcDbCircle
39
0
10
7
20
-7.5
30
0
40
1
210
0
220
0
230
-1
100
AcDbArc
50
90
51
180
0
ARC
5
C8
100
AcDbEntity
8
1
62
256
6
ByLayer
370
18
48
1
60
0
100
AcDbCircle
39
0
10
8.133975
20
7.5
30
0
40
1
210
0
220
0
230
-1
100
AcDbArc
50
270
51
300
0
ARC
5
C9
100
AcDbEntity
8
1
62
256
6
ByLayer
370
18
48
1
60
0
100
AcDbCircle
39
0
10
8.133975
20
-7.5
30
0
40
1
210
0
220
0
230
-1
100
AcDbArc
50
60
51
90
0
ARC
5
CA
100
AcDbEntity
8
1
62
256
6
ByLayer
370
18
48
1
60
0
100
AcDbCircle
39
0
10
-38.61837
20
-15.291508
30
0
40
2.00000000000001
210
0
220
0
230
-1
100
AcDbArc
50
12.769798
51
164.739065
0
ARC
5
CB
100
AcDbEntity
8
1
62
256
6
ByLayer
370
18
48
1
60
0
100
AcDbCircle
39
0
10
36.73
20
8.728697
30
0
40
3.69869692124216
210
0
220
0
230
1
100
AcDbArc
50
181.611731
51
238.388275
0
ARC
5
CC
100
AcDbEntity
8
1
62
256
6
ByLayer
370
18
48
1
60
0
100
AcDbCircle
39
0
10
-38.88
20
9.97
30
0
40
1.6764
210
0
220
0
230
-1
100
AcDbArc
50
315
51
15
0
ARC
5
CD
100
AcDbEntity
8
1
62
256
6
ByLayer
370
18
48
1
60
0
100
AcDbCircle
39
0
10
-38.88
20
9.97
30
0
40
1.6764
210
0
220
0
230
-1
100
AcDbArc
50
15
51
75
0
ARC
5
CE
100
AcDbEntity
8
1
62
256
6
ByLayer
370
18
48
1
60
0
100
AcDbCircle
39
0
10
38.88
20
9.97
30
0
40
1.2903
210
0
220
0
230
1
100
AcDbArc
50
255
51
315
0
ARC
5
CF
100
AcDbEntity
8
1
62
256
6
ByLayer
370
18
48
1
60
0
100
AcDbCircle
39
0
10
-38.88
20
9.97
30
0
40
1.6764
210
0
220
0
230
-1
100
AcDbArc
50
255
51
315
0
ARC
5
D0
100
AcDbEntity
8
1
62
256
6
ByLayer
370
18
48
1
60
0
100
AcDbCircle
39
0
10
38.88
20
9.97
30
0
40
1.2903
210
0
220
0
230
1
100
AcDbArc
50
75
51
135
0
ARC
5
D1
100
AcDbEntity
8
1
62
256
6
ByLayer
370
18
48
1
60
0
100
AcDbCircle
39
0
10
38.88
20
9.97
30
0
40
1.2903
210
0
220
0
230
1
100
AcDbArc
50
15
51
75
0
ARC
5
D2
100
AcDbEntity
8
1
62
256
6
ByLayer
370
18
48
1
60
0
100
AcDbCircle
39
0
10
38.88
20
9.97
30
0
40
1.2903
210
0
220
0
230
1
100
AcDbArc
50
195
51
255
0
ARC
5
D4
100
AcDbEntity
8
1
62
256
6
ByLayer
370
18
48
1
60
0
100
AcDbCircle
39
0
10
-38.88
20
9.97
30
0
40
1.6764
210
0
220
0
230
-1
100
AcDbArc
50
195
51
255
0
ARC
5
D5
100
AcDbEntity
8
1
62
256
6
ByLayer
370
18
48
1
60
0
100
AcDbCircle
39
0
10
-38.88
20
9.97
30
0
40
1.2903
210
0
220
0
230
-1
100
AcDbArc
50
345
51
45
0
ARC
5
D6
100
AcDbEntity
8
1
62
256
6
ByLayer
370
18
48
1
60
0
100
AcDbCircle
39
0
10
-38.88
20
9.97
30
0
40
1.6764
210
0
220
0
230
-1
100
AcDbArc
50
75
51
135
0
ARC
5
D7
100
AcDbEntity
8
1
62
256
6
ByLayer
370
18
48
1
60
0
100
AcDbCircle
39
0
10
-38.88
20
9.97
30
0
40
1.6764
210
0
220
0
230
-1
100
AcDbArc
50
135
51
195
0
ARC
5
D9
100
AcDbEntity
8
1
62
256
6
ByLayer
370
18
48
1
60
0
100
AcDbCircle
39
0
10
38.88
20
9.97
30
0
40
1.2903
210
0
220
0
230
1
100
AcDbArc
50
315
51
15
0
ARC
5
DD
100
AcDbEntity
8
1
62
256
6
ByLayer
370
18
48
1
60
0
100
AcDbCircle
39
0
10
-38.88
20
9.97
30
0
40
6
210
0
220
0
230
-1
100
AcDbArc
50
179.999999
51
234.956248
0
ARC
5
DE
100
AcDbEntity
8
1
62
256
6
ByLayer
370
18
48
1
60
0
100
AcDbCircle
39
0
10
-38.88
20
9.97
30
0
40
6
210
0
220
0
230
-1
100
AcDbArc
50
311.405625
51
90
0
ARC
5
DF
100
AcDbEntity
8
1
62
256
6
ByLayer
370
18
48
1
60
0
100
AcDbCircle
39
0
10
-38.88
20
9.97
30
0
40
6
210
0
220
0
230
-1
100
AcDbArc
50
90
51
180
0
CIRCLE
5
D3
100
AcDbEntity
8
1
62
256
6
ByLayer
370
18
48
1
60
0
100
AcDbCircle
10
38.88
20
9.97
30
0
40
2.45
39
0
210
0
220
0
230
1
0
CIRCLE
5
D8
100
AcDbEntity
8
1
62
256
6
ByLayer
370
13
48
1
60
0
100
AcDbCircle
10
38.88
20
9.97
30
0
40
1.8
39
0
210
0
220
0
230
1
0
CIRCLE
5
DA
100
AcDbEntity
8
1
62
256
6
ByLayer
370
13
48
1
60
0
100
AcDbCircle
10
-38.88
20
9.97
30
0
40
2.92351163619053
39
0
210
0
220
0
230
-1
0
CIRCLE
5
DB
100
AcDbEntity
8
1
62
256
6
ByLayer
370
18
48
1
60
0
100
AcDbCircle
10
-38.88
20
9.97
30
0
40
3.10498639623111
39
0
210
0
220
0
230
-1
0
CIRCLE
5
DC
100
AcDbEntity
8
1
62
256
6
ByLayer
370
13
48
1
60
0
100
AcDbCircle
10
38.88
20
9.97
30
0
40
3.01204793976021
39
0
210
0
220
0
230
1
0
ELLIPSE
5
E0
100
AcDbEntity
8
1
62
256
6
ByLayer
370
18
48
1
60
0
100
AcDbEllipse
10
38.88
20
2.501955
30
0
11
1.3
21
0
31
0
210
0
220
0
230
1
40
0.5
41
2.94838496104539
42
-0.785397741360415
0
ELLIPSE
5
E1
100
AcDbEntity
8
1
62
256
6
ByLayer
370
18
48
1
60
0
100
AcDbEllipse
10
38.88
20
2.501955
30
0
11
1.3
21
0
31
0
210
0
220
0
230
1
40
0.5
41
0.725511318043271
42
2.94838496104539
0
ELLIPSE
5
E2
100
AcDbEntity
8
1
62
256
6
ByLayer
370
18
48
1
60
0
100
AcDbEllipse
10
38.88
20
-1.546879
30
0
11
-4.93624170604844
21
6.04495295722993E-16
31
0
210
0
220
0
230
1
40
0.5
41
1.15509021457388
42
1.33621192586721
0
ELLIPSE
5
E3
100
AcDbEntity
8
1
62
256
6
ByLayer
370
18
48
1
60
0
100
AcDbEllipse
10
38.88
20
-1.546879
30
0
11
-4.93624170604844
21
6.04495295722993E-16
31
0
210
0
220
0
230
1
40
0.5
41
1.80538072772258
42
2.38340947706381
0
ELLIPSE
5
E4
100
AcDbEntity
8
1
62
256
6
ByLayer
370
18
48
1
60
0
100
AcDbEllipse
10
38.88
20
-4.985
30
0
11
-6
21
7.34763812293426E-16
31
0
210
0
220
0
230
1
40
0.5
41
0.857949264772898
42
1.57079624283355
0
ELLIPSE
5
E5
100
AcDbEntity
8
1
62
256
6
ByLayer
370
18
48
1
60
0
100
AcDbEllipse
10
38.88
20
-4.985
30
0
11
-6
21
7.34763812293426E-16
31
0
210
0
220
0
230
1
40
0.5
41
0
42
6.28318530717959
0
ELLIPSE
5
E6
100
AcDbEntity
8
1
62
256
6
ByLayer
370
18
48
1
60
0
100
AcDbEllipse
10
38.88
20
-4.985
30
0
11
-6
21
7.34763812293426E-16
31
0
210
0
220
0
230
1
40
0.5
41
1.57079640950022
42
-2.98618194529099
0
ELLIPSE
5
E7
100
AcDbEntity
8
1
62
256
6
ByLayer
370
18
48
1
60
0
100
AcDbEllipse
10
38.88
20
-1.546879
30
0
11
-4.93624170604844
21
6.04495295722993E-16
31
0
210
0
220
0
230
1
40
0.5
41
2.85257827891918
42
-2.85257827891918
0
ELLIPSE
5
E8
100
AcDbEntity
8
1
62
256
6
ByLayer
370
18
48
1
60
0
100
AcDbEllipse
10
38.88
20
-0.596176
30
0
11
-3.7282062422161E-16
21
6.08882394016528
31
0
210
0
220
0
230
-1
40
0.705282
41
2.62251134775822
42
-2.62251134775822
0
ELLIPSE
5
E9
100
AcDbEntity
8
1
62
256
6
ByLayer
370
18
48
1
60
0
100
AcDbEllipse
10
39.914327
20
0.299577
30
0
11
4.41494433361793
21
-3.31100699620945
31
0
210
0
220
0
230
-1
40
0.042103
41
-0.0584333891582916
42
-0.0201035408884512
0
ELLIPSE
5
EA
100
AcDbEntity
8
1
62
256
6
ByLayer
370
18
48
1
60
0
100
AcDbEllipse
10
37.845673
20
-0.297592
30
0
11
3.79307646928654
21
5.02874055350664
31
0
210
0
220
0
230
-1
40
0.450126
41
2.65292715801571
42
2.68916561026969
0
ELLIPSE
5
EB
100
AcDbEntity
8
1
62
256
6
ByLayer
370
18
48
1
60
0
100
AcDbEllipse
10
39.914327
20
-0.297592
30
0
11
3.79307646928561
21
-5.02874055350522
31
0
210
0
220
0
230
-1
40
0.450126
41
-0.549497116089061
42
0.488665495574151
0
ELLIPSE
5
EC
100
AcDbEntity
8
1
62
256
6
ByLayer
370
18
48
1
60
0
100
AcDbEllipse
10
39.914327
20
-10.269577
30
0
11
4.41494433361989
21
3.31100699621089
31
0
210
0
220
0
230
-1
40
0.042103
41
0.0201035408884246
42
0.0584333891582225
0
ELLIPSE
5
ED
100
AcDbEntity
8
1
62
256
6
ByLayer
370
18
48
1
60
0
100
AcDbEllipse
10
38.88
20
-8.423121
30
0
11
4.93624170604844
21
0
31
0
210
0
220
0
230
1
40
0.5
41
-0.28901437467061
42
0.289014374670611
0
ELLIPSE
5
EE
100
AcDbEntity
8
1
62
256
6
ByLayer
370
18
48
1
60
0
100
AcDbEllipse
10
38.61837
20
-12.704982
30
0
11
-2
21
2.44921270764475E-16
31
0
210
0
220
0
230
1
40
0.5
41
1.03960451353651
42
2.1019538276363
0
ELLIPSE
5
EF
100
AcDbEntity
8
1
62
256
6
ByLayer
370
18
48
1
60
0
100
AcDbEllipse
10
26.198308
20
0
30
0
11
0.779223515996489
21
-15.0115023135931
31
0
210
0
220
0
230
-1
40
0.648301
41
-1.16527108546011
42
-1.03020317946733
0
ELLIPSE
5
F0
100
AcDbEntity
8
1
62
256
6
ByLayer
370
18
48
1
60
0
100
AcDbEllipse
10
26.198308
20
0
30
0
11
9.19718839746075
21
14.8829656314611
31
0
210
0
220
0
230
-1
40
0.220098
41
-0.118538832769613
42
0.00650456748142123
0
ELLIPSE
5
F1
100
AcDbEntity
8
1
62
256
6
ByLayer
370
18
48
1
60
0
100
AcDbEllipse
10
38.620192
20
2.884229
30
0
11
-1.75
21
2.14306111918916E-16
31
0
210
0
220
0
230
1
40
0.5
41
1.10714897841073
42
-2.67523032013778
0
ELLIPSE
5
F2
100
AcDbEntity
8
1
62
256
6
ByLayer
370
18
48
1
60
0
100
AcDbEllipse
10
38.620192
20
2.884229
30
0
11
-1.75
21
2.14306111918916E-16
31
0
210
0
220
0
230
1
40
0.5
41
-2.67523032013776
42
-0.439201542955633
0
ELLIPSE
5
F3
100
AcDbEntity
8
1
62
256
6
ByLayer
370
18
48
1
60
0
100
AcDbEllipse
10
38.620192
20
-12.704229
30
0
11
1.75
21
0
31
0
210
0
220
0
230
1
40
0.5
41
-2.06811785391058
42
-2.03444373498341
0
ELLIPSE
5
F4
100
AcDbEntity
8
1
62
256
6
ByLayer
370
18
48
1
60
0
100
AcDbEllipse
10
38.620192
20
-12.704229
30
0
11
1.75
21
0
31
0
210
0
220
0
230
1
40
0.5
41
0
42
6.28318530717959
0
ELLIPSE
5
F5
100
AcDbEntity
8
1
62
256
6
ByLayer
370
18
48
1
60
0
100
AcDbEllipse
10
38.620192
20
-12.704229
30
0
11
1.75
21
0
31
0
210
0
220
0
230
1
40
0.5
41
-2.03444373498341
42
-1.07498153688632
0
ELLIPSE
5
F6
100
AcDbEntity
8
1
62
256
6
ByLayer
370
18
48
1
60
0
100
AcDbEllipse
10
38.61837
20
2.883475
30
0
11
2
21
0
31
0
210
0
220
0
230
1
40
0.5
41
1.10714866851009
42
2.54305282187422
0
ELLIPSE
5
F7
100
AcDbEntity
8
1
62
256
6
ByLayer
370
18
48
1
60
0
100
AcDbEllipse
10
38.61837
20
2.883475
30
0
11
2
21
0
31
0
210
0
220
0
230
1
40
0.5
41
0.589178444412658
42
1.1071486685101
0
ELLIPSE
5
F8
100
AcDbEntity
8
1
62
256
6
ByLayer
370
18
48
1
60
0
100
AcDbEllipse
10
27.419597
20
0
30
0
11
5.52216642387737
21
-14.8116970832633
31
0
210
0
220
0
230
-1
40
0.451416
41
-1.147953778575
42
-1.0321741136281
0
POINT
5
6C
100
AcDbEntity
8
81
62
256
6
ByLayer
370
18
48
1
60
0
100
AcDbPoint
10
44.88
20
16
30
0
39
0
210
0
220
0
230
1
50
360
0
POINT
5
6E
100
AcDbEntity
8
80
62
256
6
ByLayer
370
18
48
1
60
0
100
AcDbPoint
10
0
20
0
30
0
39
0
210
0
220
0
230
1
50
360
0
SPLINE
5
F9
100
AcDbEntity
8
1
62
256
6
ByLayer
370
18
48
1
60
0
100
AcDbSpline
70
4
71
3
72
12
73
8
40
0
40
0
40
0
40
0
40
0.5
40
0.5
40
0.75
40
0.75
40
1
40
1
40
1
40
1
41
1
10
44.2474254513763
20
-3.25174499509694
30
0
41
1
10
44.1549730671896
20
-3.05566754593005
30
0
41
1
10
44.0584514686879
20
-2.86836169055465
30
0
41
1
10
43.9024558309517
20
-2.61157415496373
30
0
41
1
10
43.8485577513004
20
-2.53007294255426
30
0
41
1
10
43.7351158149646
20
-2.37924054834593
30
0
41
1
10
43.6756340515714
20
-2.30977551831805
30
0
41
1
10
43.6115123241206
20
-2.25031238958388
30
0
0
SPLINE
5
FA
100
AcDbEntity
8
1
62
256
6
ByLayer
370
18
48
1
60
0
100
AcDbSpline
70
4
71
3
72
16
73
12
40
0
40
0
40
0
40
0
40
0.124999999999999
40
0.124999999999999
40
0.249999999999998
40
0.249999999999998
40
0.499999999999999
40
0.499999999999999
40
0.749999999999999
40
0.749999999999999
40
1
40
1
40
1
40
1
41
1
10
41.981631161169
20
-5.21398041016633
30
0
41
1
10
41.9775776150928
20
-5.23466956882154
30
0
41
1
10
41.9751347637213
20
-5.2552924851181
30
0
41
1
10
41.9741194887756
20
-5.29638919778412
30
0
41
1
10
41.9756313301885
20
-5.31705119522712
30
0
41
1
10
41.9866220987804
20
-5.37539659272551
30
0
41
1
10
42.0030904569338
20
-5.41081910472124
30
0
41
1
10
42.0481766619708
20
-5.4674171095964
30
0
41
1
10
42.0760297525241
20
-5.48875433108094
30
0
41
1
10
42.1360854172277
20
-5.52100653725614
30
0
41
1
10
42.168127072779
20
-5.53190311326966
30
0
41
1
10
42.2008347587451
20
-5.53928707904015
30
0
0
SPLINE
5
FB
100
AcDbEntity
8
1
62
256
6
ByLayer
370
18
48
1
60
0
100
AcDbSpline
70
4
71
3
72
10
73
6
40
0
40
0
40
0
40
0
40
0.588337691914584
40
0.588337691914584
40
1
40
1
40
1
40
1
41
1
10
35.5591652412551
20
-5.53928707904021
30
0
41
1
10
35.5918346437953
20
-5.53191175599383
30
0
41
1
10
35.6236002495146
20
-5.52114169976218
30
0
41
1
10
35.6747751437436
20
-5.49371577724619
30
0
41
1
10
35.6945450537533
20
-5.48006388169475
30
0
41
1
10
35.7122670879919
20
-5.46322203117026
30
0
0
SPLINE
5
FC
100
AcDbEntity
8
1
62
256
6
ByLayer
370
18
48
1
60
0
100
AcDbSpline
70
4
71
3
72
12
73
8
40
0
40
0
40
0
40
0
40
0.499999999999998
40
0.499999999999998
40
0.749999999999999
40
0.749999999999999
40
1
40
1
40
1
40
1
41
1
10
41.1457942902076
20
-5.45526573139043
30
0
41
1
10
40.9881820483975
20
-5.18700084265649
30
0
41
1
10
40.8219127385987
20
-4.92383378645718
30
0
41
1
10
40.5486531169117
20
-4.54313093107675
30
0
41
1
10
40.4535254048962
20
-4.41860967819974
30
0
41
1
10
40.2512588475494
20
-4.17664009208488
30
0
41
1
10
40.1442521028657
20
-4.05911396957941
30
0
41
1
10
40.0273740461293
20
-3.94740070378339
30
0
0
SPLINE
5
FD
100
AcDbEntity
8
1
62
256
6
ByLayer
370
18
48
1
60
0
100
AcDbSpline
70
4
71
3
72
8
73
4
40
0
40
0
40
0
40
0
40
1
40
1
40
1
40
1
41
1
10
44.0234611512567
20
-2.01642026492476
30
0
41
1
10
44.1016202942517
20
-2.26636976734835
30
0
41
1
10
44.1757458966872
20
-2.51743404509304
30
0
41
1
10
44.2474254513763
20
-2.76917435264872
30
0
0
SPLINE
5
FE
100
AcDbEntity
8
1
62
256
6
ByLayer
370
18
48
1
60
0
100
AcDbSpline
70
4
71
3
72
12
73
8
40
0
40
0
40
0
40
0
40
0.249999999999999
40
0.249999999999999
40
0.499999999999998
40
0.499999999999998
40
1
40
1
40
1
40
1
41
1
10
42.4641382779914
20
-3.24396746117475
30
0
41
1
10
42.4113819487058
20
-3.40464995618757
30
0
41
1
10
42.3638569674153
20
-3.56678554548782
30
0
41
1
10
42.2750323464044
20
-3.89278591669444
30
0
41
1
10
42.2338027140401
20
-4.0566701443133
30
0
41
1
10
42.1165387300893
20
-4.55010745411366
30
0
41
1
10
42.0467910187922
20
-4.88140675564443
30
0
41
1
10
41.9816311611689
20
-5.2139804101663
30
0
0
SPLINE
5
FF
100
AcDbEntity
8
1
62
256
6
ByLayer
370
18
48
1
60
0
100
AcDbSpline
70
4
71
3
72
16
73
12
40
0
40
0
40
0
40
0
40
0.125000000000001
40
0.125000000000001
40
0.250000000000002
40
0.250000000000002
40
0.500000000000001
40
0.500000000000001
40
0.750000000000001
40
0.750000000000001
40
1
40
1
40
1
40
1
41
1
10
44.2474254513762
20
-2.76917435264875
30
0
41
1
10
44.2531768451457
20
-2.7893733848926
30
0
41
1
10
44.2588725770718
20
-2.80905727545721
30
0
41
1
10
44.2701811094997
20
-2.84718258063413
30
0
41
1
10
44.2758455210463
20
-2.8657729722882
30
0
41
1
10
44.2917923799002
20
-2.91634214655798
30
0
41
1
10
44.3014175996761
20
-2.94423209143292
30
0
41
1
10
44.3163800925635
20
-2.98349553035251
30
0
41
1
10
44.3217495495576
20
-2.99524222845221
30
0
41
1
10
44.3289297744716
20
-3.00808510514247
30
0
41
1
10
44.3307430572084
20
-3.00920860228897
30
0
41
1
10
44.3311811862454
20
-3.00702419545217
30
0
0
SPLINE
5
100
100
AcDbEntity
8
1
62
256
6
ByLayer
370
18
48
1
60
0
100
AcDbSpline
70
4
71
3
72
12
73
8
40
0
40
0
40
0
40
0
40
0.249999999999998
40
0.249999999999998
40
0.499999999999997
40
0.499999999999997
40
1
40
1
40
1
40
1
41
1
10
37.7326259538709
20
-3.94740070378339
30
0
41
1
10
37.6157478971345
20
-4.05911396957941
30
0
41
1
10
37.5087411524508
20
-4.17664009208488
30
0
41
1
10
37.306474595104
20
-4.41860967819974
30
0
41
1
10
37.2113468830885
20
-4.54313093107675
30
0
41
1
10
36.9380872614014
20
-4.92383378645718
30
0
41
1
10
36.7718179516027
20
-5.18700084265649
30
0
41
1
10
36.6142057097926
20
-5.45526573139043
30
0
0
SPLINE
5
101
100
AcDbEntity
8
1
62
256
6
ByLayer
370
18
48
1
60
0
100
AcDbSpline
70
4
71
3
72
16
73
12
40
0
40
0
40
0
40
0
40
0.125
40
0.125
40
0.25
40
0.25
40
0.5
40
0.5
40
0.75
40
0.75
40
1
40
1
40
1
40
1
41
1
10
36.6142057097928
20
-5.45526573139051
30
0
41
1
10
36.6044007699472
20
-5.47195428975698
30
0
41
1
10
36.5962621866495
20
-5.48952260897622
30
0
41
1
10
36.583938379276
20
-5.52676866025837
30
0
41
1
10
36.5797858091422
20
-5.54666834498241
30
0
41
1
10
36.5748297188802
20
-5.60675580405993
30
0
41
1
10
36.5816728572578
20
-5.6489077654544
30
0
41
1
10
36.6117965694074
20
-5.72721700329626
30
0
41
1
10
36.6342802029666
20
-5.763085185389
30
0
41
1
10
36.6871556427562
20
-5.82793779335373
30
0
41
1
10
36.7173840155706
20
-5.85681017818698
30
0
41
1
10
36.7496535724997
20
-5.88295145829579
30
0
0
SPLINE
5
102
100
AcDbEntity
8
1
62
256
6
ByLayer
370
18
48
1
60
0
100
AcDbSpline
70
4
71
3
72
14
73
10
40
0
40
0
40
0
40
0
40
0.25
40
0.25
40
0.5
40
0.5
40
0.75
40
0.75
40
1
40
1
40
1
40
1
41
1
10
41.0103464275005
20
-5.88295145829576
30
0
41
1
10
41.0425782138214
20
-5.85684077581956
30
0
41
1
10
41.0725569182934
20
-5.82824667253297
30
0
41
1
10
41.1255950252413
20
-5.76328155126899
30
0
41
1
10
41.147782552189
20
-5.72799024085342
30
0
41
1
10
41.1781151783689
20
-5.64977300684427
30
0
41
1
10
41.1851578250259
20
-5.60736079278931
30
0
41
1
10
41.1786370974428
20
-5.52679885789814
30
0
41
1
10
41.1654484911377
20
-5.48871828536204
30
0
41
1
10
41.1457942902074
20
-5.45526573139051
30
0
0
SPLINE
5
103
100
AcDbEntity
8
1
62
256
6
ByLayer
370
18
48
1
60
0
100
AcDbSpline
70
4
71
3
72
14
73
10
40
0
40
0
40
0
40
0
40
0.25
40
0.25
40
0.5
40
0.5
40
0.75
40
0.75
40
1
40
1
40
1
40
1
41
1
10
44.3311811862455
20
-3.69435295396337
30
0
41
1
10
44.3307435700261
20
-3.65906408515374
30
0
41
1
10
44.3289566687789
20
-3.62233170927681
30
0
41
1
10
44.3217785374175
20
-3.54412795338786
30
0
41
1
10
44.3165068474264
20
-3.50395346146203
30
0
41
1
10
44.3016034729111
20
-3.42128218615193
30
0
41
1
10
44.2919433912769
20
-3.37962556049129
30
0
41
1
10
44.2705817346964
20
-3.30711257660138
30
0
41
1
10
44.2589542369225
20
-3.27619579625042
30
0
41
1
10
44.2474254513762
20
-3.25174499509708
30
0
0
SPLINE
5
104
100
AcDbEntity
8
1
62
256
6
ByLayer
370
18
48
1
60
0
100
AcDbSpline
70
4
71
3
72
14
73
10
40
0
40
0
40
0
40
0
40
0.146354296067362
40
0.146354296067362
40
0.430902864044908
40
0.430902864044908
40
0.715451432022454
40
0.715451432022454
40
1
40
1
40
1
40
1
41
1
10
44.3295369525853
20
-6.96234372029545
30
0
41
1
10
44.3285828406934
20
-6.96310287075596
30
0
41
1
10
44.3272135979136
20
-6.96499043480773
30
0
41
1
10
44.3217785374175
20
-6.97469456543152
30
0
41
1
10
44.3165068474264
20
-6.98620549641018
30
0
41
1
10
44.3016034729111
20
-7.02524720465158
30
0
41
1
10
44.2919433912769
20
-7.05319443169384
30
0
41
1
10
44.2705817346964
20
-7.12090374505749
30
0
41
1
10
44.2589542369225
20
-7.16033627723971
30
0
41
1
10
44.2474254513763
20
-7.20082564735011
30
0
0
SPLINE
5
105
100
AcDbEntity
8
1
62
256
6
ByLayer
370
18
48
1
60
0
100
AcDbSpline
70
4
71
3
72
8
73
4
40
0
40
0
40
0
40
0
40
1
40
1
40
1
40
1
41
1
10
44.2474254513763
20
-7.20082564735014
30
0
41
1
10
44.1756418882904
20
-7.45293123487892
30
0
41
1
10
44.1014051737844
20
-7.70435882930914
30
0
41
1
10
44.0231208945666
20
-7.95466777247384
30
0
0
SPLINE
5
106
100
AcDbEntity
8
1
62
256
6
ByLayer
370
18
48
1
60
0
100
AcDbSpline
70
4
71
3
72
12
73
8
40
0
40
0
40
0
40
0
40
0.25
40
0.25
40
0.5
40
0.5
40
1
40
1
40
1
40
1
41
1
10
43.6115123241206
20
-7.71968761041504
30
0
41
1
10
43.6756340515714
20
-7.6602244816809
30
0
41
1
10
43.7351158149646
20
-7.59075945165301
30
0
41
1
10
43.8485577513004
20
-7.43992705744469
30
0
41
1
10
43.9024558309517
20
-7.35842584503521
30
0
41
1
10
44.0584514686879
20
-7.10163830944433
30
0
41
1
10
44.1549730671896
20
-6.91433245406893
30
0
41
1
10
44.2474254513763
20
-6.71825500490203
30
0
0
SPLINE
5
107
100
AcDbEntity
8
1
62
256
6
ByLayer
370
18
48
1
60
0
100
AcDbSpline
70
4
71
3
72
16
73
12
40
0
40
0
40
0
40
0
40
0.125
40
0.125
40
0.25
40
0.25
40
0.5
40
0.5
40
0.75
40
0.75
40
1
40
1
40
1
40
1
41
1
10
44.2474254513762
20
-6.71825500490189
30
0
41
1
10
44.2531768451457
20
-6.70605717323551
30
0
41
1
10
44.2588725770719
20
-6.69248247682555
30
0
41
1
10
44.2701811094997
20
-6.66205849441633
30
0
41
1
10
44.2758455210463
20
-6.64499272820021
30
0
41
1
10
44.2917923799002
20
-6.59093943077215
30
0
41
1
10
44.3014175996761
20
-6.54959058709983
30
0
41
1
10
44.3163800925635
20
-6.46690468224679
30
0
41
1
10
44.3217495495576
20
-6.42609606293067
30
0
41
1
10
44.3289297744716
20
-6.34805238266136
30
0
41
1
10
44.3307430572084
20
-6.31097726787544
30
0
41
1
10
44.3311811862455
20
-6.27564704603557
30
0
0
SPLINE
5
108
100
AcDbEntity
8
1
62
256
6
ByLayer
370
18
48
1
60
0
100
AcDbSpline
70
4
71
3
72
18
73
14
40
0
40
0
40
0
40
0
40
0.25
40
0.25
40
0.375
40
0.375
40
0.5
40
0.5
40
0.75
40
0.75
40
0.875
40
0.875
40
1
40
1
40
1
40
1
41
1
10
43.43
20
4.03553421119386
30
0
41
1
10
43.356040194637
20
4.13083284792648
30
0
41
1
10
43.2618829931212
20
4.24498731592055
30
0
41
1
10
43.0907480283112
20
4.42970286286626
30
0
41
1
10
43.0284633229475
20
4.49376399564736
30
0
41
1
10
42.8961085270732
20
4.62221948718616
30
0
41
1
10
42.8258068488202
20
4.68688810803485
30
0
41
1
10
42.6025827883354
20
4.88001271596966
30
0
41
1
10
42.4374360076994
20
5.00753887154389
30
0
41
1
10
42.1636370617583
20
5.19020486356709
30
0
41
1
10
42.0677518985805
20
5.24979579033823
30
0
41
1
10
41.8691147036389
20
5.36377318809929
30
0
41
1
10
41.7661604326877
20
5.41831752279933
30
0
41
1
10
41.6594494717704
20
5.47000000000003
30
0
0
SPLINE
5
109
100
AcDbEntity
8
1
62
256
6
ByLayer
370
18
48
1
60
0
100
AcDbSpline
70
4
71
3
72
20
73
16
40
0
40
0
40
0
40
0
40
0.250000000000005
40
0.250000000000005
40
0.375000000000004
40
0.375000000000004
40
0.500000000000003
40
0.500000000000003
40
0.625000000000002
40
0.625000000000002
40
0.750000000000001
40
0.750000000000001
40
0.875000000000001
40
0.875000000000001
40
1
40
1
40
1
40
1
41
1
10
12
20
-8.52322378856695
30
0
41
1
10
12
20
-8.58287144457412
30
0
41
1
10
11.9938180309829
20
-8.64131510830936
30
0
41
1
10
11.9741990720608
20
-8.72706201666765
30
0
41
1
10
11.9659109097207
20
-8.75532106001015
30
0
41
1
10
11.9451827081935
20
-8.81110652045197
30
0
41
1
10
11.9326343469424
20
-8.83883795567135
30
0
41
1
10
11.9027866314454
20
-8.89220271513935
30
0
41
1
10
11.8855605968859
20
-8.91782839182616
30
0
41
1
10
11.8449876402091
20
-8.96634677628401
30
0
41
1
10
11.8219137734352
20
-8.98886075678095
30
0
41
1
10
11.7694231854489
20
-9.02813742643752
30
0
41
1
10
11.7391586410972
20
-9.04534770546005
30
0
41
1
10
11.673117946748
20
-9.069391279185
30
0
41
1
10
11.6368057138011
20
-9.07630672410281
30
0
41
1
10
11.6
20
-9.07630672410281
30
0
0
SPLINE
5
10A
100
AcDbEntity
8
1
62
256
6
ByLayer
370
18
48
1
60
0
100
AcDbSpline
70
4
71
3
72
24
73
20
40
0
40
0
40
0
40
0
40
0.0227994635577282
40
0.0227994635577282
40
0.218239570846186
40
0.218239570846186
40
0.413679678134643
40
0.413679678134643
40
0.511399731778869
40
0.511399731778869
40
0.609119785423095
40
0.609119785423095
40
0.706839839067322
40
0.706839839067322
40
0.804559892711548
40
0.804559892711548
40
0.902279946355774
40
0.902279946355774
40
1
40
1
40
1
40
1
41
1
10
40.3950653515453
20
-14.4185867710036
30
0
41
1
10
40.3851301229166
20
-14.4152501370087
30
0
41
1
10
40.3748531199188
20
-14.4119791468184
30
0
41
1
10
40.2732780204273
20
-14.3813398846998
30
0
41
1
10
40.1582153498975
20
-14.3588810663361
30
0
41
1
10
39.8695930330839
20
-14.3195537871538
30
0
41
1
10
39.7034633647212
20
-14.3036130079724
30
0
41
1
10
39.4189548058101
20
-14.2802147577939
30
0
41
1
10
39.3172214411037
20
-14.2724385415406
30
0
41
1
10
39.1097954073825
20
-14.2569429135695
30
0
41
1
10
39.0032299780542
20
-14.2491452580584
30
0
41
1
10
38.784204023605
20
-14.2329230935207
30
0
41
1
10
38.6704892063825
20
-14.2243982503421
30
0
41
1
10
38.4463069057284
20
-14.2072417170687
30
0
41
1
10
38.3351202459754
20
-14.1985593278606
30
0
41
1
10
38.1145637259401
20
-14.1812785334482
30
0
41
1
10
38.0047913388487
20
-14.1726525731383
30
0
41
1
10
37.7967859123475
20
-14.156965377996
30
0
41
1
10
37.6972813728767
20
-14.1498026118416
30
0
41
1
10
37.6022293656134
20
-14.1438313255599
30
0
0
SPLINE
5
10B
100
AcDbEntity
8
1
62
256
6
ByLayer
370
18
48
1
60
0
100
AcDbSpline
70
4
71
3
72
18
73
14
40
0
40
0
40
0
40
0
40
0.125000000000001
40
0.125000000000001
40
0.250000000000002
40
0.250000000000002
40
0.500000000000001
40
0.500000000000001
40
0.624999999999999
40
0.624999999999999
40
0.749999999999998
40
0.749999999999998
40
1
40
1
40
1
40
1
41
1
10
43.43
20
-11.6312259221751
30
0
41
1
10
43.3931421785468
20
-11.7575411977653
30
0
41
1
10
43.3509320117112
20
-11.8833856895824
30
0
41
1
10
43.2556460170578
20
-12.1336659056437
30
0
41
1
10
43.2029829258687
20
-12.2569174745552
30
0
41
1
10
43.0321300843499
20
-12.6170697215311
30
0
41
1
10
42.9004997194864
20
-12.8462874429214
30
0
41
1
10
42.6759737983163
20
-13.1741533179921
30
0
41
1
10
42.5962834879721
20
-13.2811282017041
30
0
41
1
10
42.4288666827749
20
-13.4877460756673
30
0
41
1
10
42.3414964539756
20
-13.5870185584736
30
0
41
1
10
42.0683799266545
20
-13.8729930784202
30
0
41
1
10
41.8717091785196
20
-14.047945928416
30
0
41
1
10
41.6594494717705
20
-14.2067267428645
30
0
0
SPLINE
5
10C
100
AcDbEntity
8
1
62
256
6
ByLayer
370
18
48
1
60
0
100
AcDbSpline
70
4
71
3
72
10
73
6
40
0
40
0
40
0
40
0
40
0.182071571781974
40
0.182071571781974
40
1
40
1
40
1
40
1
41
1
10
42.8804888172737
20
4.61017646779308
30
0
41
1
10
42.9143281982666
20
4.68999809706034
30
0
41
1
10
42.9481695134906
20
4.77002677898136
30
0
41
1
10
43.1337320848824
20
5.21029305074796
30
0
41
1
10
43.2838036886205
20
5.57153151622867
30
0
41
1
10
43.43
20
5.93491996476106
30
0
0
SPLINE
5
10D
100
AcDbEntity
8
1
62
256
6
ByLayer
370
18
48
1
60
0
100
AcDbSpline
70
4
71
3
72
10
73
6
40
0
40
0
40
0
40
0
40
0.5
40
0.5
40
1
40
1
40
1
40
1
41
1
10
37.6022293656238
20
2.5996928508408
30
0
41
1
10
37.5498147662564
20
2.62731829030946
30
0
41
1
10
37.5014443191435
20
2.66365205702698
30
0
41
1
10
37.4113190496674
20
2.74630357176494
30
0
41
1
10
37.3705161438821
20
2.79170279508389
30
0
41
1
10
37.3324412159731
20
2.83964333097794
30
0
0
SPLINE
5
10E
100
AcDbEntity
8
1
62
256
6
ByLayer
370
18
48
1
60
0
100
AcDbSpline
70
4
71
3
72
12
73
8
40
0
40
0
40
0
40
0
40
0.249999999999996
40
0.249999999999996
40
0.499999999999993
40
0.499999999999993
40
1
40
1
40
1
40
1
41
1
10
41.6594494717704
20
-14.2067267428645
30
0
41
1
10
41.5754118273496
20
-14.2637959627174
30
0
41
1
10
41.488919418234
20
-14.3185271971905
30
0
41
1
10
41.3108534729048
20
-14.4231502610027
30
0
41
1
10
41.2188664769871
20
-14.4732416165201
30
0
41
1
10
40.938380511653
20
-14.6142042522406
30
0
41
1
10
40.7458365180472
20
-14.6957413765177
30
0
41
1
10
40.5478447012623
20
-14.7650768855576
30
0
0
SPLINE
5
10F
100
AcDbEntity
8
1
62
256
6
ByLayer
370
18
48
1
60
0
100
AcDbSpline
70
4
71
3
72
18
73
14
40
0
40
0
40
0
40
0
40
0.249999999999998
40
0.249999999999998
40
0.374999999999998
40
0.374999999999998
40
0.499999999999999
40
0.499999999999999
40
0.624999999999999
40
0.624999999999999
40
0.749999999999999
40
0.749999999999999
40
1
40
1
40
1
40
1
41
1
10
37.3324412159734
20
2.83964333097836
30
0
41
1
10
37.1821800332201
20
3.02883874173466
30
0
41
1
10
37.0600715783451
20
3.23228828690543
30
0
41
1
10
36.9083621363272
20
3.55256131516731
30
0
41
1
10
36.8630536672013
20
3.66239957118012
30
0
41
1
10
36.7838188303192
20
3.88483494590329
30
0
41
1
10
36.7500361556677
20
3.99687091842569
30
0
41
1
10
36.6936680149382
20
4.22243754108661
30
0
41
1
10
36.6710858228294
20
4.33596902525446
30
0
41
1
10
36.6373644092332
20
4.56452885744753
30
0
41
1
10
36.6262062410271
20
4.68015359285076
30
0
41
1
10
36.611445293703
20
5.02506078089027
30
0
41
1
10
36.6260366663418
20
5.25007231740844
30
0
41
1
10
36.6678384844741
20
5.47000000000017
30
0
0
SPLINE
5
110
100
AcDbEntity
8
1
62
256
6
ByLayer
370
18
48
1
60
0
100
AcDbSpline
70
4
71
3
72
8
73
4
40
0
40
0
40
0
40
0
40
1
40
1
40
1
40
1
41
1
10
37.6022293656238
20
-3.82402013762211
30
0
41
1
10
37.515239478431
20
-3.81138681279464
30
0
41
1
10
37.4231474947551
20
-3.80479810275526
30
0
41
1
10
37.332441215973
20
-3.80479810275526
30
0
0
SPLINE
5
111
100
AcDbEntity
8
1
62
256
6
ByLayer
370
18
48
1
60
0
100
AcDbSpline
70
4
71
3
72
16
73
12
40
0
40
0
40
0
40
0
40
0.125
40
0.125
40
0.25
40
0.25
40
0.5
40
0.5
40
0.75
40
0.75
40
1
40
1
40
1
40
1
41
1
10
11.6
20
9.07630672410281
30
0
41
1
10
11.6366955677002
20
9.07630672410281
30
0
41
1
10
11.6721340007851
20
9.06964821817542
30
0
41
1
10
11.7385171837741
20
9.04568007962132
30
0
41
1
10
11.7684811060101
20
9.02875167567001
30
0
41
1
10
11.8480633303111
20
8.96947205885988
30
0
41
1
10
11.8874760469051
20
8.91931080161282
30
0
41
1
10
11.946816663874
20
8.81374208757765
30
0
41
1
10
11.9672764060177
20
8.75700985640773
30
0
41
1
10
11.9938306012606
20
8.64156435068762
30
0
41
1
10
12
20
8.58285218800717
30
0
41
1
10
12
20
8.52322378856698
30
0
0
SPLINE
5
112
100
AcDbEntity
8
1
62
256
6
ByLayer
370
18
48
1
60
0
100
AcDbSpline
70
4
71
3
72
10
73
6
40
0
40
0
40
0
40
0
40
0.5
40
0.5
40
1
40
1
40
1
40
1
41
1
10
37.6022293656152
20
-14.143831325561
30
0
41
1
10
37.5499512097356
20
-14.140547146258
30
0
41
1
10
37.5012109231641
20
-14.1451825168037
30
0
41
1
10
37.4113792779098
20
-14.1634536801935
30
0
41
1
10
37.3705731162795
20
-14.1769418494026
30
0
41
1
10
37.332441215973
20
-14.1929426355027
30
0
0
SPLINE
5
113
100
AcDbEntity
8
1
62
256
6
ByLayer
370
18
48
1
60
0
100
AcDbSpline
70
4
71
3
72
14
73
10
40
0
40
0
40
0
40
0
40
0.144705984857999
40
0.144705984857999
40
0.429803989905333
40
0.429803989905333
40
0.714901994952666
40
0.714901994952666
40
1
40
1
40
1
40
1
41
1
10
41.8650893898672
20
-7.58083973776135
30
0
41
1
10
41.9369258429553
20
-7.71581896006899
30
0
41
1
10
42.0098889457446
20
-7.84838815988888
30
0
41
1
10
42.2290931813268
20
-8.23477252169596
30
0
41
1
10
42.3777738792226
20
-8.48145616517368
30
0
41
1
10
42.6783527393251
20
-8.953027911042
30
0
41
1
10
42.8302749376162
20
-9.17796939770236
30
0
41
1
10
43.1344185081429
20
-9.60108697296451
30
0
41
1
10
43.2844488647867
20
-9.79621483713763
30
0
41
1
10
43.43
20
-9.97045417595436
30
0
0
SPLINE
5
114
100
AcDbEntity
8
1
62
256
6
ByLayer
370
18
48
1
60
0
100
AcDbSpline
70
4
71
3
72
16
73
12
40
0
40
0
40
0
40
0
40
0.125
40
0.125
40
0.249999999999999
40
0.249999999999999
40
0.499999999999999
40
0.499999999999999
40
0.75
40
0.75
40
1
40
1
40
1
40
1
41
1
10
2.39999999999995
20
-9.07630672410284
30
0
41
1
10
2.36330443229974
20
-9.07630672410284
30
0
41
1
10
2.32786599921482
20
-9.06964821817542
30
0
41
1
10
2.26148281622579
20
-9.04568007962132
30
0
41
1
10
2.23151889398977
20
-9.02875167566998
30
0
41
1
10
2.15193666968875
20
-8.96947205885979
30
0
41
1
10
2.11252395309472
20
-8.91931080161271
30
0
41
1
10
2.05318333612587
20
-8.81374208757745
30
0
41
1
10
2.03272359398215
20
-8.75700985640748
30
0
41
1
10
2.00616939873925
20
-8.64156435068733
30
0
41
1
10
1.99999999999997
20
-8.58285218800722
30
0
41
1
10
1.99999999999997
20
-8.52322378856701
30
0
0
SPLINE
5
115
100
AcDbEntity
8
1
62
256
6
ByLayer
370
18
48
1
60
0
100
AcDbSpline
70
4
71
3
72
8
73
4
40
0
40
0
40
0
40
0
40
1
40
1
40
1
40
1
41
1
10
41.6594494717703
20
5.47
30
0
41
1
10
41.317819706456
20
5.47
30
0
41
1
10
40.947467615658
20
5.47
30
0
41
1
10
40.5478447012611
20
5.47
30
0
0
SPLINE
5
116
100
AcDbEntity
8
1
62
256
6
ByLayer
370
18
48
1
60
0
100
AcDbSpline
70
4
71
3
72
8
73
4
40
0
40
0
40
0
40
0
40
1
40
1
40
1
40
1
41
1
10
42.542424850214
20
-7.34423669002402
30
0
41
1
10
42.8349170684266
20
-7.57856043367423
30
0
41
1
10
43.131290637118
20
-7.81160032176305
30
0
41
1
10
43.43
20
-8.04386758641112
30
0
0
SPLINE
5
117
100
AcDbEntity
8
1
62
256
6
ByLayer
370
18
48
1
60
0
100
AcDbSpline
70
4
71
3
72
40
73
36
40
0
40
0
40
0
40
0
40
0.0624999999999994
40
0.0624999999999994
40
0.124999999999999
40
0.124999999999999
40
0.249999999999998
40
0.249999999999998
40
0.312499999999998
40
0.312499999999998
40
0.374999999999998
40
0.374999999999998
40
0.437499999999998
40
0.437499999999998
40
0.499999999999998
40
0.499999999999998
40
0.562499999999998
40
0.562499999999998
40
0.624999999999998
40
0.624999999999998
40
0.687499999999998
40
0.687499999999998
40
0.718749999999998
40
0.718749999999998
40
0.749999999999997
40
0.749999999999997
40
0.812499999999997
40
0.812499999999997
40
0.874999999999997
40
0.874999999999997
40
0.937499999999997
40
0.937499999999997
40
0.968749999999998
40
0.968749999999998
40
1
40
1
40
1
40
1
41
1
10
40.5478447012611
20
5.47
30
0
41
1
10
40.5697624979866
20
5.36535495451233
30
0
41
1
10
40.5866668719449
20
5.25974272207628
30
0
41
1
10
40.6102694935698
20
5.04662807643746
30
0
41
1
10
40.6168374263034
20
4.93998177122569
30
0
41
1
10
40.6207202116676
20
4.62299406699427
30
0
41
1
10
40.6026545901068
20
4.41428870772583
30
0
41
1
10
40.5405790301584
20
4.10561565798955
30
0
41
1
10
40.5137445806148
20
4.00279402535014
30
0
41
1
10
40.447974533738
20
3.80270683515005
30
0
41
1
10
40.4091483539724
20
3.70543823089045
30
0
41
1
10
40.3188023729736
20
3.51664793669073
30
0
41
1
10
40.2672913905353
20
3.42512337700401
30
0
41
1
10
40.1500641529462
20
3.24824673436066
30
0
41
1
10
40.0844317204418
20
3.16328467792832
30
0
41
1
10
39.9418443209676
20
3.00513474323518
30
0
41
1
10
39.8644828437924
20
2.93127062959127
30
0
41
1
10
39.696588410971
20
2.79447805681599
30
0
41
1
10
39.6054154716814
20
2.73134618462041
30
0
41
1
10
39.4159659276554
20
2.62134483862724
30
0
41
1
10
39.3170022833058
20
2.57377834124503
30
0
41
1
10
39.1619241361329
20
2.513847431133
30
0
41
1
10
39.1091208598104
20
2.49578294124677
30
0
41
1
10
39.0011711053062
20
2.46366108377148
30
0
41
1
10
38.946140099973
20
2.44967159664645
30
0
41
1
10
38.7813111015716
20
2.41476457668384
30
0
41
1
10
38.6705526210529
20
2.4004586220575
30
0
41
1
10
38.4472715900164
20
2.39001291159073
30
0
41
1
10
38.3335294751324
20
2.39413056302627
30
0
41
1
10
38.11330327208
20
2.42123871511981
30
0
41
1
10
38.0061387939963
20
2.44398981491742
30
0
41
1
10
37.8497779871973
20
2.49218967580961
30
0
41
1
10
37.7981203023804
20
2.51073710914432
30
0
41
1
10
37.6978591871531
20
2.55211260431349
30
0
41
1
10
37.6492953450892
20
2.57488643464185
30
0
41
1
10
37.6022293656235
20
2.59969285083989
30
0
0
SPLINE
5
118
100
AcDbEntity
8
1
62
256
6
ByLayer
370
18
48
1
60
0
100
AcDbSpline
70
4
71
3
72
12
73
8
40
0
40
0
40
0
40
0
40
0.635754115824598
40
0.635754115824598
40
0.953631173736893
40
0.953631173736893
40
1
40
1
40
1
40
1
41
1
10
37.3324412159734
20
-14.1929426355035
30
0
41
1
10
37.1821800332201
20
-14.2559947526304
30
0
41
1
10
37.0600715783452
20
-14.3204987290448
30
0
41
1
10
36.9083621363274
20
-14.4152601992597
30
0
41
1
10
36.8630536672014
20
-14.4466793284804
30
0
41
1
10
36.817657243491
20
-14.4817523870829
30
0
41
1
10
36.8120023907666
20
-14.4861969071012
30
0
41
1
10
36.8064709576454
20
-14.4906208291102
30
0
0
SPLINE
5
119
100
AcDbEntity
8
1
62
256
6
ByLayer
370
18
48
1
60
0
100
AcDbSpline
70
4
71
3
72
20
73
16
40
0
40
0
40
0
40
0
40
0.250000000000006
40
0.250000000000006
40
0.375000000000005
40
0.375000000000005
40
0.500000000000004
40
0.500000000000004
40
0.625000000000003
40
0.625000000000003
40
0.750000000000002
40
0.750000000000002
40
0.875000000000001
40
0.875000000000001
40
1
40
1
40
1
40
1
41
1
10
1.99999999999997
20
8.52322378856701
30
0
41
1
10
1.99999999999997
20
8.58287144457415
30
0
41
1
10
2.00618196901706
20
8.6413151083097
30
0
41
1
10
2.02580092793926
20
8.7270620166679
30
0
41
1
10
2.03408909027928
20
8.75532106001043
30
0
41
1
10
2.05481729180647
20
8.8111065204522
30
0
41
1
10
2.06736565305761
20
8.83883795567158
30
0
41
1
10
2.09721336855466
20
8.89220271513952
30
0
41
1
10
2.1144394031142
20
8.9178283918263
30
0
41
1
10
2.1550123597909
20
8.96634677628413
30
0
41
1
10
2.17808622656486
20
8.98886075678104
30
0
41
1
10
2.23057681455108
20
9.02813742643761
30
0
41
1
10
2.26084135890278
20
9.0453477054601
30
0
41
1
10
2.32688205325198
20
9.06939127918503
30
0
41
1
10
2.36319428619885
20
9.07630672410284
30
0
41
1
10
2.39999999999995
20
9.07630672410284
30
0
0
SPLINE
5
11A
100
AcDbEntity
8
1
62
256
6
ByLayer
370
18
48
1
60
0
100
AcDbSpline
70
4
71
3
72
44
73
40
40
0
40
0
40
0
40
0
40
0.062500000000001
40
0.062500000000001
40
0.125000000000001
40
0.125000000000001
40
0.156250000000001
40
0.156250000000001
40
0.187500000000001
40
0.187500000000001
40
0.250000000000001
40
0.250000000000001
40
0.281250000000001
40
0.281250000000001
40
0.312500000000001
40
0.312500000000001
40
0.375000000000001
40
0.375000000000001
40
0.437500000000001
40
0.437500000000001
40
0.468750000000001
40
0.468750000000001
40
0.500000000000001
40
0.500000000000001
40
0.5625
40
0.5625
40
0.59375
40
0.59375
40
0.625
40
0.625
40
0.749999999999999
40
0.749999999999999
40
0.78125
40
0.78125
40
0.8125
40
0.8125
40
0.875
40
0.875
40
1
40
1
40
1
40
1
41
1
10
32.18
20
5.47
30
0
41
1
10
31.7852380635581
20
5.47
30
0
41
1
10
31.3951606081351
20
5.49585666783508
30
0
41
1
10
30.6240212229019
20
5.59699873422284
30
0
41
1
10
30.2429609409847
20
5.67229502047087
30
0
41
1
10
29.6783006062415
20
5.82248975432734
30
0
41
1
10
29.4905622708852
20
5.87901829895648
30
0
41
1
10
29.120903560553
20
6.00359752547675
30
0
41
1
10
28.9395159090584
20
6.07141100602001
30
0
41
1
10
28.4054555171215
20
6.29069985386525
30
0
41
1
10
28.062847171343
20
6.45798027943854
30
0
41
1
10
27.5689745290405
20
6.73861616782233
30
0
41
1
10
27.4077002875823
20
6.83712590791609
30
0
41
1
10
27.0919466120358
20
7.04387556177693
30
0
41
1
10
26.9369384755702
20
7.15254911391423
30
0
41
1
10
26.4889875760163
20
7.48777227047145
30
0
41
1
10
26.2113918506028
20
7.72438659262588
30
0
41
1
10
25.6955724202104
20
8.21861755727099
30
0
41
1
10
25.4573682392125
20
8.47625534042467
30
0
41
1
10
25.1283884074976
20
8.8749609333517
30
0
41
1
10
25.0237286630625
20
9.00963588795943
30
0
41
1
10
24.8264069385679
20
9.27842367187077
30
0
41
1
10
24.7333435915075
20
9.41301348509725
30
0
41
1
10
24.4697645503932
20
9.81645442443866
30
0
41
1
10
24.3148321232327
20
10.0849657821117
30
0
41
1
10
24.1095701016726
20
10.4837098748801
30
0
41
1
10
24.0456292714241
20
10.6160698765295
30
0
41
1
10
23.9264197385894
20
10.878457515919
30
0
41
1
10
23.8716033032989
20
11.0074640062261
30
0
41
1
10
23.6187792723541
20
11.6409933723203
30
0
41
1
10
23.4836907467735
20
12.1109752036636
30
0
41
1
10
23.3664581302925
20
12.6442387205591
30
0
41
1
10
23.3456405004897
20
12.7481808651297
30
0
41
1
10
23.3086147765661
20
12.9504299564575
30
0
41
1
10
23.2924155782279
20
13.0487374603406
30
0
41
1
10
23.2501277550497
20
13.3324772828957
30
0
41
1
10
23.2301305897325
20
13.5076697634686
30
0
41
1
10
23.1868793957373
20
13.991722280336
30
0
41
1
10
23.18
20
14.2592946014626
30
0
41
1
10
23.18
20
14.47
30
0
0
SPLINE
5
11B
100
AcDbEntity
8
1
62
256
6
ByLayer
370
18
48
1
60
0
100
AcDbSpline
70
4
71
3
72
44
73
40
40
0
40
0
40
0
40
0
40
0.0624999999999992
40
0.0624999999999992
40
0.124999999999998
40
0.124999999999998
40
0.156249999999998
40
0.156249999999998
40
0.187499999999998
40
0.187499999999998
40
0.249999999999998
40
0.249999999999998
40
0.281249999999998
40
0.281249999999998
40
0.312499999999998
40
0.312499999999998
40
0.374999999999998
40
0.374999999999998
40
0.437499999999998
40
0.437499999999998
40
0.468749999999998
40
0.468749999999998
40
0.499999999999998
40
0.499999999999998
40
0.562499999999999
40
0.562499999999999
40
0.593749999999999
40
0.593749999999999
40
0.624999999999999
40
0.624999999999999
40
0.75
40
0.75
40
0.78125
40
0.78125
40
0.8125
40
0.8125
40
0.875
40
0.875
40
1
40
1
40
1
40
1
41
1
10
32.1800000000001
20
-14.849438699337
30
0
41
1
10
31.7852380635582
20
-14.849438699337
30
0
41
1
10
31.3951606081352
20
-14.8536786423872
30
0
41
1
10
30.6240212229021
20
-14.8694448475983
30
0
41
1
10
30.2429609409849
20
-14.8809772918679
30
0
41
1
10
29.6783006062417
20
-14.9019273196916
30
0
41
1
10
29.4905622708854
20
-14.9095387089697
30
0
41
1
10
29.1209035605532
20
-14.9253620866263
30
0
41
1
10
28.9395159090587
20
-14.933545181805
30
0
41
1
10
28.4054555171217
20
-14.9580495511825
30
0
41
1
10
28.0628471713433
20
-14.9743640825403
30
0
41
1
10
27.5689745290408
20
-14.9947865412929
30
0
41
1
10
27.4077002875826
20
-15.0009104142059
30
0
41
1
10
27.0919466120361
20
-15.0109914191601
30
0
41
1
10
26.9369384755705
20
-15.0149503842177
30
0
41
1
10
26.4889875760166
20
-15.022145975507
30
0
41
1
10
26.2113918506032
20
-15.0207974734919
30
0
41
1
10
25.6955724202108
20
-14.9998919789374
30
0
41
1
10
25.4573682392129
20
-14.9803460864848
30
0
41
1
10
25.128388407498
20
-14.9325571724984
30
0
41
1
10
25.0237286630628
20
-14.9135483801523
30
0
41
1
10
24.8264069385682
20
-14.8693127172592
30
0
41
1
10
24.7333435915079
20
-14.844033206331
30
0
41
1
10
24.4697645503935
20
-14.7580625777017
30
0
41
1
10
24.314832123233
20
-14.6872395583368
30
0
41
1
10
24.1095701016729
20
-14.5582063432864
30
0
41
1
10
24.0456292714244
20
-14.5113521107003
30
0
41
1
10
23.9264197385896
20
-14.4097985977035
30
0
41
1
10
23.8716033032992
20
-14.3555019009059
30
0
41
1
10
23.6187792723543
20
-14.0663081280428
30
0
41
1
10
23.4836907467736
20
-13.7784178514673
30
0
41
1
10
23.3664581302927
20
-13.3450001262953
30
0
41
1
10
23.3456405004898
20
-13.2546292932266
30
0
41
1
10
23.3086147765662
20
-13.0663965489175
30
0
41
1
10
23.292415578228
20
-12.9684958878014
30
0
41
1
10
23.2501277550498
20
-12.6661248359811
30
0
41
1
10
23.2301305897326
20
-12.452176369235
30
0
41
1
10
23.1868793957374
20
-11.7737990711073
30
0
41
1
10
23.1800000000001
20
-11.2730554368148
30
0
41
1
10
23.1800000000001
20
-10.7227822466438
30
0
0
SPLINE
5
11C
100
AcDbEntity
8
1
62
256
6
ByLayer
370
18
48
1
60
0
100
AcDbSpline
70
4
71
3
72
32
73
28
40
0
40
0
40
0
40
0
40
0.125
40
0.125
40
0.1875
40
0.1875
40
0.249999999999999
40
0.249999999999999
40
0.374999999999998
40
0.374999999999998
40
0.437499999999996
40
0.437499999999996
40
0.499999999999994
40
0.499999999999994
40
0.624999999999993
40
0.624999999999993
40
0.687499999999992
40
0.687499999999992
40
0.749999999999992
40
0.749999999999992
40
0.874999999999993
40
0.874999999999993
40
0.906249999999994
40
0.906249999999994
40
0.937499999999995
40
0.937499999999995
40
1
40
1
40
1
40
1
41
1
10
43.43
20
-2.12401505851562
30
0
41
1
10
43.34694009448
20
-2.27659433796197
30
0
41
1
10
43.2375097977386
20
-2.42308174445623
30
0
41
1
10
43.0345228271985
20
-2.63341917064423
30
0
41
1
10
42.9603375716471
20
-2.70197783909052
30
0
41
1
10
42.7985193322403
20
-2.83589183528056
30
0
41
1
10
42.7105074484382
20
-2.901499640075
30
0
41
1
10
42.4277250309243
20
-3.09151570800844
30
0
41
1
10
42.2177761338929
20
-3.20710650193843
30
0
41
1
10
41.8711586748085
20
-3.36409399985161
30
0
41
1
10
41.7503023265278
20
-3.41367202238499
30
0
41
1
10
41.4975824922329
20
-3.50713291929469
30
0
41
1
10
41.3651220385939
20
-3.55114835888952
30
0
41
1
10
40.9598670668814
20
-3.67147870687509
30
0
41
1
10
40.6769207034581
20
-3.73721779426367
30
0
41
1
10
40.2333208860094
20
-3.81408691483753
30
0
41
1
10
40.0817826880578
20
-3.83611323544216
30
0
41
1
10
39.7739285254917
20
-3.87230467383796
30
0
41
1
10
39.6194240083959
20
-3.88628221860915
30
0
41
1
10
39.1542316209409
20
-3.91624167768668
30
0
41
1
10
38.8418816739973
20
-3.92036994326935
30
0
41
1
10
38.4485874458014
20
-3.90515610055755
30
0
41
1
10
38.369644442882
20
-3.90107045111708
30
0
41
1
10
38.2132569663205
20
-3.89092537763844
30
0
41
1
10
38.135609889365
20
-3.88486189425692
30
0
41
1
10
37.9042779905459
20
-3.8637541677013
30
0
41
1
10
37.7521985605513
20
-3.84579979057645
30
0
41
1
10
37.602229365624
20
-3.82402013762174
30
0
0
SPLINE
5
11D
100
AcDbEntity
8
1
62
256
6
ByLayer
370
18
48
1
60
0
100
AcDbSpline
70
4
71
3
72
16
73
12
40
0
40
0
40
0
40
0
40
0.250000000000003
40
0.250000000000003
40
0.500000000000006
40
0.500000000000006
40
0.75000000000001
40
0.75000000000001
40
0.875000000000005
40
0.875000000000005
40
1
40
1
40
1
40
1
41
1
10
38.4461157527901
20
11.589278055191
30
0
41
1
10
38.4058821656655
20
11.5784974980124
30
0
41
1
10
38.3665138315296
20
11.5646708591206
30
0
41
1
10
38.2905456359616
20
11.5304479566222
30
0
41
1
10
38.2540481582895
20
11.5101584042451
30
0
41
1
10
38.1872954524022
20
11.461332492131
30
0
41
1
10
38.1567145660824
20
11.4327877712423
30
0
41
1
10
38.1251043269994
20
11.3820161352966
30
0
41
1
10
38.1171408309425
20
11.3637495332519
30
0
41
1
10
38.1104986781509
20
11.3259760508846
30
0
41
1
10
38.112120990835
20
11.3073664855924
30
0
41
1
10
38.1188708080033
20
11.2903728796926
30
0
0
SPLINE
5
11E
100
AcDbEntity
8
1
62
256
6
ByLayer
370
18
48
1
60
0
100
AcDbSpline
70
4
71
3
72
8
73
4
40
0
40
0
40
0
40
0
40
1
40
1
40
1
40
1
41
1
10
37.5778732172134
20
10.7219504865863
30
0
41
1
10
37.571791151161
20
10.7250100720346
30
0
41
1
10
37.5657091193104
20
10.7280696402776
30
0
41
1
10
37.5596271203074
20
10.7311291919967
30
0
0
SPLINE
5
11F
100
AcDbEntity
8
1
62
256
6
ByLayer
370
18
48
1
60
0
100
AcDbSpline
70
4
71
3
72
16
73
12
40
0
40
0
40
0
40
0
40
0.250000000000007
40
0.250000000000007
40
0.500000000000014
40
0.500000000000014
40
0.750000000000021
40
0.750000000000021
40
0.87500000000001
40
0.87500000000001
40
1
40
1
40
1
40
1
41
1
10
37.260721944809
20
10.4038842472099
30
0
41
1
10
37.2499413876304
20
10.3636506600853
30
0
41
1
10
37.2422314410917
20
10.322643363173
30
0
41
1
10
37.2338852462625
20
10.2397415246822
30
0
41
1
10
37.2332077752164
20
10.1979890056556
30
0
41
1
10
37.2421159025265
20
10.1157665105288
30
0
41
1
10
37.2515459128002
20
10.0750103256613
30
0
41
1
10
37.2797103197793
20
10.0222492376229
30
0
41
1
10
37.2915479131625
20
10.0062193467123
30
0
41
1
10
37.3209396320861
20
9.98158033247523
30
0
41
1
10
37.3378671447246
20
9.97368051382651
30
0
41
1
10
37.3559589477199
20
9.97102922401521
30
0
0
SPLINE
5
120
100
AcDbEntity
8
1
62
256
6
ByLayer
370
18
48
1
60
0
100
AcDbSpline
70
4
71
3
72
8
73
4
40
0
40
0
40
0
40
0
40
1
40
1
40
1
40
1
41
1
10
38.1188708080033
20
11.2903728796926
30
0
41
1
10
38.1219303597224
20
11.2842908806896
30
0
41
1
10
38.1249899279655
20
11.278208848839
30
0
41
1
10
38.1280495134137
20
11.2721267827867
30
0
0
SPLINE
5
121
100
AcDbEntity
8
1
62
256
6
ByLayer
370
18
48
1
60
0
100
AcDbSpline
70
4
71
3
72
16
73
12
40
0
40
0
40
0
40
0
40
0.125000000000002
40
0.125000000000002
40
0.250000000000004
40
0.250000000000004
40
0.500000000000002
40
0.500000000000002
40
0.750000000000001
40
0.750000000000001
40
1
40
1
40
1
40
1
41
1
10
38.8789707759848
20
11.4940410522801
30
0
41
1
10
38.8763239622458
20
11.5121023115691
30
0
41
1
10
38.8683645024898
20
11.529090917635
30
0
41
1
10
38.8440152336971
20
11.5582072550953
30
0
41
1
10
38.8279144204717
20
11.570169967181
30
0
41
1
10
38.7754398181008
20
11.598277784147
30
0
41
1
10
38.7343175857047
20
11.6078707292249
30
0
41
1
10
38.652024157191
20
11.6167950507872
30
0
41
1
10
38.6101790373503
20
11.6161057422051
30
0
41
1
10
38.5274706110289
20
11.6077810469746
30
0
41
1
10
38.4863637348907
20
11.6000624694918
30
0
41
1
10
38.4461157527901
20
11.589278055191
30
0
0
SPLINE
5
122
100
AcDbEntity
8
1
62
256
6
ByLayer
370
18
48
1
60
0
100
AcDbSpline
70
4
71
3
72
8
73
4
40
0
40
0
40
0
40
0
40
1
40
1
40
1
40
1
41
1
10
40.1821267827866
20
9.21804951341375
30
0
41
1
10
40.188208848839
20
9.21498992796546
30
0
41
1
10
40.1942908806896
20
9.2119303597224
30
0
41
1
10
40.2003728796925
20
9.2088708080033
30
0
0
SPLINE
5
123
100
AcDbEntity
8
1
62
256
6
ByLayer
370
18
48
1
60
0
100
AcDbSpline
70
4
71
3
72
20
73
16
40
0
40
0
40
0
40
0
40
0.0624999999999889
40
0.0624999999999889
40
0.124999999999978
40
0.124999999999978
40
0.249999999999975
40
0.249999999999975
40
0.499999999999981
40
0.499999999999981
40
0.749999999999987
40
0.749999999999987
40
0.874999999999993
40
0.874999999999993
40
1
40
1
40
1
40
1
41
1
10
40.3836501161345
20
9.97014483237845
30
0
41
1
10
40.3666990143277
20
9.97112083217138
30
0
41
1
10
40.3502673953018
20
9.97609846419635
30
0
41
1
10
40.319184774844
20
9.99097352383887
30
0
41
1
10
40.3047463404361
20
10.0007156903425
30
0
41
1
10
40.2636144219996
20
10.0347197294921
30
0
41
1
10
40.2397284195857
20
10.0632243589864
30
0
41
1
10
40.1769777662711
20
10.1563333307159
30
0
41
1
10
40.1464472895463
20
10.2288663031948
30
0
41
1
10
40.1061870176621
20
10.3791685874747
30
0
41
1
10
40.0963905444365
20
10.457152965688
30
0
41
1
10
40.1041632026482
20
10.5690518317354
30
0
41
1
10
40.1105883493465
20
10.6057131875415
30
0
41
1
10
40.1354473793124
20
10.672488688074
30
0
41
1
10
40.1538750532487
20
10.7030499078544
30
0
41
1
10
40.182271615165
20
10.7216996295482
30
0
0
SPLINE
5
124
100
AcDbEntity
8
1
62
256
6
ByLayer
370
18
48
1
60
0
100
AcDbSpline
70
4
71
3
72
16
73
12
40
0
40
0
40
0
40
0
40
0.124999999999985
40
0.124999999999985
40
0.24999999999997
40
0.24999999999997
40
0.49999999999998
40
0.49999999999998
40
0.74999999999999
40
0.74999999999999
40
1
40
1
40
1
40
1
41
1
10
38.1170881397166
20
8.65065634432267
30
0
41
1
10
38.1057688931205
20
8.63634278274344
30
0
41
1
10
38.0903879769729
20
8.62561219970362
30
0
41
1
10
38.0547564914736
20
8.61257017139997
30
0
41
1
10
38.0348386294211
20
8.61025760831117
30
0
41
1
10
37.975360454484
20
8.61214124855243
30
0
41
1
10
37.934962158185
20
8.62438355336263
30
0
41
1
10
37.8592515181082
20
8.6577779888911
30
0
41
1
10
37.8233259092625
20
8.67930438753902
30
0
41
1
10
37.7557529521643
20
8.72794610580354
30
0
41
1
10
37.724049410675
20
8.75516297336276
30
0
41
1
10
37.6946061920189
20
8.78460619201888
30
0
0
SPLINE
5
125
100
AcDbEntity
8
1
62
256
6
ByLayer
370
18
48
1
60
0
100
AcDbSpline
70
4
71
3
72
8
73
4
40
0
40
0
40
0
40
0
40
1
40
1
40
1
40
1
41
1
10
40.1822716151651
20
10.7216996295482
30
0
41
1
10
40.1879623269145
20
10.7254370605329
30
0
41
1
10
40.1936530066629
20
10.7291744705006
30
0
41
1
10
40.1993436556774
20
10.7329118602834
30
0
0
SPLINE
5
126
100
AcDbEntity
8
1
62
256
6
ByLayer
370
18
48
1
60
0
100
AcDbSpline
70
4
71
3
72
8
73
4
40
0
40
0
40
0
40
0
40
1
40
1
40
1
40
1
41
1
10
37.5606563443226
20
9.2070881397166
30
0
41
1
10
37.566346993337
20
9.21082552949943
30
0
41
1
10
37.5720376730855
20
9.21456293946713
30
0
41
1
10
37.5777283848349
20
9.2183003704518
30
0
0
SPLINE
5
127
100
AcDbEntity
8
1
62
256
6
ByLayer
370
18
48
1
60
0
100
AcDbSpline
70
4
71
3
72
16
73
12
40
0
40
0
40
0
40
0
40
0.125000000000002
40
0.125000000000002
40
0.250000000000004
40
0.250000000000004
40
0.500000000000003
40
0.500000000000003
40
0.750000000000001
40
0.750000000000001
40
1
40
1
40
1
40
1
41
1
10
40.2003728796925
20
9.2088708080033
30
0
41
1
10
40.2173377959306
20
9.20213238629592
30
0
41
1
10
40.2360300902366
20
9.20053117761202
30
0
41
1
10
40.2734202125387
20
9.20706009421991
30
0
41
1
10
40.2918306317158
20
9.21502245145186
30
0
41
1
10
40.3424100164388
20
9.24641288167558
30
0
41
1
10
40.3712788667713
20
9.27722930705193
30
0
41
1
10
40.4201542702127
20
9.34403534592818
30
0
41
1
10
40.4404798713898
20
9.38061893702564
30
0
41
1
10
40.4746246870023
20
9.45640888294233
30
0
41
1
10
40.4884936408902
20
9.49586777068959
30
0
41
1
10
40.499278055191
20
9.53611575279015
30
0
0
SPLINE
5
128
100
AcDbEntity
8
1
62
256
6
ByLayer
370
18
48
1
60
0
100
AcDbSpline
70
4
71
3
72
20
73
16
40
0
40
0
40
0
40
0
40
0.125000000000001
40
0.125000000000001
40
0.250000000000003
40
0.250000000000003
40
0.500000000000006
40
0.500000000000006
40
0.625000000000004
40
0.625000000000004
40
0.750000000000003
40
0.750000000000003
40
0.875000000000002
40
0.875000000000002
40
1
40
1
40
1
40
1
41
1
10
37.5777283848349
20
9.2183003704518
30
0
41
1
10
37.6060723836695
20
9.23691557082361
30
0
41
1
10
37.6247015110104
20
9.26778406865981
30
0
41
1
10
37.6494993560129
20
9.334650808991
30
0
41
1
10
37.655904028908
20
9.37140336518951
30
0
41
1
10
37.6635780145536
20
9.48343012073872
30
0
41
1
10
37.6536651511986
20
9.56176506164985
30
0
41
1
10
37.6232920265831
20
9.6745795641823
30
0
41
1
10
37.6106604477691
20
9.71086529989853
30
0
41
1
10
37.5801778665834
20
9.78073595244061
30
0
41
1
10
37.56209117893
20
9.81470550177036
30
0
41
1
10
37.5204473277697
20
9.87653331394489
30
0
41
1
10
37.4965735998753
20
9.90507996773374
30
0
41
1
10
37.4417600368878
20
9.95048411361506
30
0
41
1
10
37.4104901556815
20
9.96788946069569
30
0
41
1
10
37.3763498838655
20
9.96985516762157
30
0
0
SPLINE
5
129
100
AcDbEntity
8
1
62
256
6
ByLayer
370
18
48
1
60
0
100
AcDbSpline
70
4
71
3
72
8
73
4
40
0
40
0
40
0
40
0
40
1
40
1
40
1
40
1
41
1
10
39.6429118602834
20
11.2893436556774
30
0
41
1
10
39.6391744705006
20
11.283653006663
30
0
41
1
10
39.6354370605329
20
11.2779623269145
30
0
41
1
10
39.6316996295482
20
11.2722716151651
30
0
0
SPLINE
5
12A
100
AcDbEntity
8
1
62
256
6
ByLayer
370
18
48
1
60
0
100
AcDbSpline
70
4
71
3
72
20
73
16
40
0
40
0
40
0
40
0
40
0.0625000000000026
40
0.0625000000000026
40
0.125000000000005
40
0.125000000000005
40
0.250000000000007
40
0.250000000000007
40
0.500000000000005
40
0.500000000000005
40
0.750000000000004
40
0.750000000000004
40
0.875000000000002
40
0.875000000000002
40
1
40
1
40
1
40
1
41
1
10
39.6319504865862
20
8.66787321721336
30
0
41
1
10
39.6243201762977
20
8.68304130189659
30
0
41
1
10
39.620415122569
20
8.69976031741089
30
0
41
1
10
39.6177559918733
20
8.73411618616473
30
0
41
1
10
39.6189737383495
20
8.75149132040465
30
0
41
1
10
39.627856140866
20
8.8041146262519
30
0
41
1
10
39.6405988729266
20
8.83905282588432
30
0
41
1
10
39.6898582811073
20
8.93995097162357
30
0
41
1
10
39.7374084395236
20
9.00265762629633
30
0
41
1
10
39.8474439000148
20
9.11267518665136
30
0
41
1
10
39.910082116033
20
9.16015137043883
30
0
41
1
10
40.0108757057906
20
9.20936948399626
30
0
41
1
10
40.045837944605
20
9.22213582163553
30
0
41
1
10
40.1160967393995
20
9.2339950204379
30
0
41
1
10
40.1517773690681
20
9.23331679656661
30
0
41
1
10
40.1821267827866
20
9.21804951341377
30
0
0
SPLINE
5
12B
100
AcDbEntity
8
1
62
256
6
ByLayer
370
18
48
1
60
0
100
AcDbSpline
70
4
71
3
72
20
73
16
40
0
40
0
40
0
40
0
40
0.0625000000000022
40
0.0625000000000022
40
0.125000000000004
40
0.125000000000004
40
0.250000000000006
40
0.250000000000006
40
0.500000000000003
40
0.500000000000003
40
0.75
40
0.75
40
0.875
40
0.875
40
1
40
1
40
1
40
1
41
1
10
38.1280495134137
20
11.2721267827867
30
0
41
1
10
38.1356798237024
20
11.2569586981035
30
0
41
1
10
38.139584877431
20
11.2402396825891
30
0
41
1
10
38.1422440081267
20
11.2058838138353
30
0
41
1
10
38.1410262616506
20
11.1885086795954
30
0
41
1
10
38.132143859134
20
11.1358853737482
30
0
41
1
10
38.1194011270734
20
11.1009471741157
30
0
41
1
10
38.0701417188927
20
11.0000490283765
30
0
41
1
10
38.0225915604764
20
10.9373423737037
30
0
41
1
10
37.9125560999853
20
10.8273248133487
30
0
41
1
10
37.8499178839671
20
10.7798486295612
30
0
41
1
10
37.7491242942094
20
10.7306305160038
30
0
41
1
10
37.714162055395
20
10.7178641783645
30
0
41
1
10
37.6439032606005
20
10.7060049795621
30
0
41
1
10
37.6082226309319
20
10.7066832034334
30
0
41
1
10
37.5778732172134
20
10.7219504865863
30
0
0
SPLINE
5
12C
100
AcDbEntity
8
1
62
256
6
ByLayer
370
18
48
1
60
0
100
AcDbSpline
70
4
71
3
72
20
73
16
40
0
40
0
40
0
40
0
40
0.0625000000000047
40
0.0625000000000047
40
0.125000000000009
40
0.125000000000009
40
0.250000000000017
40
0.250000000000017
40
0.500000000000012
40
0.500000000000012
40
0.750000000000006
40
0.750000000000006
40
0.875000000000003
40
0.875000000000003
40
1
40
1
40
1
40
1
41
1
10
39.6316996295482
20
11.2722716151651
30
0
41
1
10
39.6223788380301
20
11.2580795302748
30
0
41
1
10
39.6098522727328
20
11.2463381467855
30
0
41
1
10
39.5814287829707
20
11.2268573376742
30
0
41
1
10
39.5657726020867
20
11.2192243699379
30
0
41
1
10
39.5157582811336
20
11.2006051032403
30
0
41
1
10
39.4791295466591
20
11.1941715331021
30
0
41
1
10
39.3671194851638
20
11.1863823590924
30
0
41
1
10
39.2890388500227
20
11.1962086768984
30
0
41
1
10
39.1387431176473
20
11.2364934008234
30
0
41
1
10
39.0663084284035
20
11.2670015952492
30
0
41
1
10
38.9732874968576
20
11.3296823477392
30
0
41
1
10
38.9447504047415
20
11.353577365906
30
0
41
1
10
38.8993506399129
20
11.4084936676361
30
0
41
1
10
38.8820976841806
20
11.4397331112878
30
0
41
1
10
38.8801448323784
20
11.4736501161344
30
0
0
SPLINE
5
12D
100
AcDbEntity
8
1
62
256
6
ByLayer
370
18
48
1
60
0
100
AcDbSpline
70
4
71
3
72
16
73
12
40
0
40
0
40
0
40
0
40
0.249999999999995
40
0.249999999999995
40
0.499999999999991
40
0.499999999999991
40
0.749999999999986
40
0.749999999999986
40
0.874999999999993
40
0.874999999999993
40
1
40
1
40
1
40
1
41
1
10
40.499278055191
20
9.53611575279015
30
0
41
1
10
40.5100586123696
20
9.57634933991477
30
0
41
1
10
40.5177685589083
20
9.61735663682705
30
0
41
1
10
40.5261147537375
20
9.70025847531781
30
0
41
1
10
40.5267922247836
20
9.74201099434447
30
0
41
1
10
40.5178840974735
20
9.82423348947123
30
0
41
1
10
40.5084540871998
20
9.86498967433874
30
0
41
1
10
40.4802896802207
20
9.91775076237718
30
0
41
1
10
40.4684520868375
20
9.93378065328776
30
0
41
1
10
40.4390603679139
20
9.95841966752482
30
0
41
1
10
40.4221328552754
20
9.96631948617355
30
0
41
1
10
40.4040410522801
20
9.96897077598481
30
0
0
SPLINE
5
12E
100
AcDbEntity
8
1
62
256
6
ByLayer
370
18
48
1
60
0
100
AcDbSpline
70
4
71
3
72
16
73
12
40
0
40
0
40
0
40
0
40
0.125000000000004
40
0.125000000000004
40
0.250000000000007
40
0.250000000000007
40
0.500000000000005
40
0.500000000000005
40
0.750000000000002
40
0.750000000000002
40
1
40
1
40
1
40
1
41
1
10
40.1993436556774
20
10.7329118602834
30
0
41
1
10
40.2136617581764
20
10.744234697865
30
0
41
1
10
40.2243945927264
20
10.759622095247
30
0
41
1
10
40.2374354462358
20
10.7952673493152
30
0
41
1
10
40.2397450521875
20
10.8151924186328
30
0
41
1
10
40.2378498345395
20
10.8746906658226
30
0
41
1
10
40.2255964524761
20
10.9151000362768
30
0
41
1
10
40.1921784274037
20
10.9908303967153
30
0
41
1
10
40.1706589087402
20
11.0267246792307
30
0
41
1
10
40.1220952980311
20
11.0941899299169
30
0
41
1
10
40.0948573757809
20
11.1259302401814
30
0
41
1
10
40.0653938079811
20
11.1553938079811
30
0
0
SPLINE
5
12F
100
AcDbEntity
8
1
62
256
6
ByLayer
370
18
48
1
60
0
100
AcDbSpline
70
4
71
3
72
8
73
4
40
0
40
0
40
0
40
0
40
1
40
1
40
1
40
1
41
1
10
37.3559589477199
20
9.97102922401521
30
0
41
1
10
37.3627558892218
20
9.97063787402664
30
0
41
1
10
37.3695528674326
20
9.97024652192448
30
0
41
1
10
37.3763498838655
20
9.96985516762157
30
0
0
SPLINE
5
130
100
AcDbEntity
8
1
62
256
6
ByLayer
370
18
48
1
60
0
100
AcDbSpline
70
4
71
3
72
16
73
12
40
0
40
0
40
0
40
0
40
0.249999999999998
40
0.249999999999998
40
0.499999999999996
40
0.499999999999996
40
0.749999999999994
40
0.749999999999994
40
0.874999999999997
40
0.874999999999997
40
1
40
1
40
1
40
1
41
1
10
37.6946061920189
20
8.78460619201888
30
0
41
1
10
37.6651712438414
20
8.81404114019634
30
0
41
1
10
37.6379285737667
20
8.84578229926078
30
0
41
1
10
37.5893805380724
20
8.91321513551668
30
0
41
1
10
37.5678665289005
20
8.94908828510663
30
0
41
1
10
37.5344360357484
20
9.02480582833167
30
0
41
1
10
37.5222469714
20
9.06451193697171
30
0
41
1
10
37.5202244421038
20
9.1246596345498
30
0
41
1
10
37.5225236042198
20
9.14454724974465
30
0
41
1
10
37.5355397528213
20
9.18027132101733
30
0
41
1
10
37.546302108728
20
9.19573672787575
30
0
41
1
10
37.5606563443226
20
9.2070881397166
30
0
0
SPLINE
5
131
100
AcDbEntity
8
1
62
256
6
ByLayer
370
18
48
1
60
0
100
AcDbSpline
70
4
71
3
72
16
73
12
40
0
40
0
40
0
40
0
40
0.249999999999993
40
0.249999999999993
40
0.499999999999985
40
0.499999999999985
40
0.749999999999978
40
0.749999999999978
40
0.874999999999989
40
0.874999999999989
40
1
40
1
40
1
40
1
41
1
10
39.3138842472098
20
8.35072194480901
30
0
41
1
10
39.3541178343345
20
8.36150250198767
30
0
41
1
10
39.3934861684704
20
8.37532914087947
30
0
41
1
10
39.4694543640384
20
8.40955204337783
30
0
41
1
10
39.5059518417105
20
8.42984159575497
30
0
41
1
10
39.5727045475978
20
8.47866750786898
30
0
41
1
10
39.6032854339175
20
8.50721222875774
30
0
41
1
10
39.6348956730006
20
8.5579838647034
30
0
41
1
10
39.6428591690575
20
8.57625046674821
30
0
41
1
10
39.6495013218492
20
8.61402394911548
30
0
41
1
10
39.647879009165
20
8.63263351440767
30
0
41
1
10
39.6411291919967
20
8.64962712030746
30
0
0
SPLINE
5
132
100
AcDbEntity
8
1
62
256
6
ByLayer
370
18
48
1
60
0
100
AcDbSpline
70
4
71
3
72
16
73
12
40
0
40
0
40
0
40
0
40
0.125000000000002
40
0.125000000000002
40
0.250000000000004
40
0.250000000000004
40
0.500000000000002
40
0.500000000000002
40
0.750000000000001
40
0.750000000000001
40
1
40
1
40
1
40
1
41
1
10
38.8810292240152
20
8.4459589477199
30
0
41
1
10
38.8836760377542
20
8.42789768843096
30
0
41
1
10
38.8916354975102
20
8.41090908236504
30
0
41
1
10
38.9159847663029
20
8.38179274490471
30
0
41
1
10
38.9320855795283
20
8.36983003281907
30
0
41
1
10
38.9845601818992
20
8.341722215853
30
0
41
1
10
39.0256824142953
20
8.33212927077511
30
0
41
1
10
39.1079758428089
20
8.32320494921285
30
0
41
1
10
39.1498209626496
20
8.32389425779496
30
0
41
1
10
39.2325293889711
20
8.3322189530254
30
0
41
1
10
39.2736362651093
20
8.33993753050819
30
0
41
1
10
39.3138842472098
20
8.35072194480901
30
0
0
SPLINE
5
133
100
AcDbEntity
8
1
62
256
6
ByLayer
370
18
48
1
60
0
100
AcDbSpline
70
4
71
3
72
16
73
12
40
0
40
0
40
0
40
0
40
0.25
40
0.25
40
0.5
40
0.5
40
0.75
40
0.75
40
0.875
40
0.875
40
1
40
1
40
1
40
1
41
1
10
40.0653938079811
20
11.1553938079811
30
0
41
1
10
40.0359407780352
20
11.1848468379271
30
0
41
1
10
40.004282390438
20
11.2120274959476
30
0
41
1
10
39.9366603896991
20
11.2607064319399
30
0
41
1
10
39.9008403830731
20
11.2821693985895
30
0
41
1
10
39.8251795498757
20
11.3155659816022
30
0
41
1
10
39.7851686532822
20
11.327777445581
30
0
41
1
10
39.7253940072201
20
11.3297668976738
30
0
41
1
10
39.7055929177801
20
11.3275301865396
30
0
41
1
10
39.6695590460647
20
11.3143957184093
30
0
41
1
10
39.6542538461104
20
11.3036859717659
30
0
41
1
10
39.6429118602834
20
11.2893436556774
30
0
0
SPLINE
5
134
100
AcDbEntity
8
1
62
256
6
ByLayer
370
18
48
1
60
0
100
AcDbSpline
70
4
71
3
72
22
73
18
40
0
40
0
40
0
40
0
40
0.0625000000000063
40
0.0625000000000063
40
0.125000000000012
40
0.125000000000012
40
0.250000000000008
40
0.250000000000008
40
0.375000000000004
40
0.375000000000004
40
0.499999999999999
40
0.499999999999999
40
0.749999999999989
40
0.749999999999989
40
0.874999999999994
40
0.874999999999994
40
1
40
1
40
1
40
1
41
1
10
38.8798551676215
20
8.4663498838656
30
0
41
1
10
38.8788740311224
20
8.4833901996567
30
0
41
1
10
38.8738481423103
20
8.49990810804408
30
0
41
1
10
38.8588446121862
20
8.53113029844036
30
0
41
1
10
38.8490202996408
20
8.54563013797764
30
0
41
1
10
38.8147328659965
20
8.58693073867013
30
0
41
1
10
38.7864910435711
20
8.6104916812408
30
0
41
1
10
38.7244419045314
20
8.65225276274089
30
0
41
1
10
38.6907153487212
20
8.67018679908998
30
0
41
1
10
38.6208877085391
20
8.70065072782501
30
0
41
1
10
38.5842308009999
20
8.71340424806112
30
0
41
1
10
38.4713983904616
20
8.74372696238817
30
0
41
1
10
38.3933164153767
20
8.75358860053012
30
0
41
1
10
38.2812685666127
20
8.74588558395729
30
0
41
1
10
38.2445544111266
20
8.73947921388918
30
0
41
1
10
38.1776710117762
20
8.71464392691354
30
0
41
1
10
38.1469324865726
20
8.69609814003857
30
0
41
1
10
38.1283003704518
20
8.66772838483493
30
0
0
SPLINE
5
135
100
AcDbEntity
8
1
62
256
6
ByLayer
370
18
48
1
60
0
100
AcDbSpline
70
4
71
3
72
16
73
12
40
0
40
0
40
0
40
0
40
0.125
40
0.125
40
0.25
40
0.25
40
0.5
40
0.5
40
0.75
40
0.75
40
1
40
1
40
1
40
1
41
1
10
37.5596271203074
20
10.7311291919967
30
0
41
1
10
37.5426622040694
20
10.7378676137041
30
0
41
1
10
37.5239699097634
20
10.739468822388
30
0
41
1
10
37.4865797874613
20
10.7329399057801
30
0
41
1
10
37.4681693682842
20
10.7249775485482
30
0
41
1
10
37.4175899835612
20
10.6935871183245
30
0
41
1
10
37.3887211332286
20
10.6627706929481
30
0
41
1
10
37.3398457297874
20
10.5959646540719
30
0
41
1
10
37.3195201286102
20
10.5593810629744
30
0
41
1
10
37.2853753129978
20
10.4835911170577
30
0
41
1
10
37.2715063591098
20
10.4441322293104
30
0
41
1
10
37.260721944809
20
10.4038842472099
30
0
0
SPLINE
5
136
100
AcDbEntity
8
1
62
256
6
ByLayer
370
18
48
1
60
0
100
AcDbSpline
70
4
71
3
72
8
73
4
40
0
40
0
40
0
40
0
40
1
40
1
40
1
40
1
41
1
10
38.8801448323784
20
11.4736501161345
30
0
41
1
10
38.8797534780755
20
11.4804471325675
30
0
41
1
10
38.8793621259734
20
11.4872441107782
30
0
41
1
10
38.8789707759848
20
11.4940410522801
30
0
0
SPLINE
5
137
100
AcDbEntity
8
1
62
256
6
ByLayer
370
18
48
1
60
0
100
AcDbSpline
70
4
71
3
72
8
73
4
40
0
40
0
40
0
40
0
40
1
40
1
40
1
40
1
41
1
10
40.4040410522801
20
9.96897077598481
30
0
41
1
10
40.3972441107782
20
9.96936212597339
30
0
41
1
10
40.3904471325674
20
9.96975347807555
30
0
41
1
10
40.3836501161345
20
9.97014483237845
30
0
0
SPLINE
5
138
100
AcDbEntity
8
1
62
256
6
ByLayer
370
18
48
1
60
0
100
AcDbSpline
70
4
71
3
72
8
73
4
40
0
40
0
40
0
40
0
40
1
40
1
40
1
40
1
41
1
10
38.1283003704518
20
8.66772838483493
30
0
41
1
10
38.1245629394671
20
8.66203767308548
30
0
41
1
10
38.1208255294994
20
8.65634699333708
30
0
41
1
10
38.1170881397166
20
8.65065634432267
30
0
0
SPLINE
5
139
100
AcDbEntity
8
1
62
256
6
ByLayer
370
18
48
1
60
0
100
AcDbSpline
70
4
71
3
72
8
73
4
40
0
40
0
40
0
40
0
40
1
40
1
40
1
40
1
41
1
10
39.6411291919967
20
8.64962712030746
30
0
41
1
10
39.6380696402776
20
8.65570911931044
30
0
41
1
10
39.6350100720345
20
8.66179115116103
30
0
41
1
10
39.6319504865862
20
8.66787321721336
30
0
0
SPLINE
5
13A
100
AcDbEntity
8
1
62
256
6
ByLayer
370
18
48
1
60
0
100
AcDbSpline
70
4
71
3
72
8
73
4
40
0
40
0
40
0
40
0
40
1
40
1
40
1
40
1
41
1
10
38.8798551676216
20
8.46634988386555
30
0
41
1
10
38.8802465219244
20
8.45955286743259
30
0
41
1
10
38.8806378740266
20
8.45275588922181
30
0
41
1
10
38.8810292240152
20
8.4459589477199
30
0
0
LINE
5
70
100
AcDbEntity
8
81
62
256
6
ByLayer
370
18
48
1
60
0
100
AcDbLine
10
44.88
20
16
30
0
11
49.88
21
16
31
0
39
0
210
0
220
0
230
1
0
LINE
5
71
100
AcDbEntity
8
80
62
256
6
ByLayer
370
18
48
1
60
0
100
AcDbLine
10
0
20
0
30
0
11
-5
21
0
31
0
39
0
210
0
220
0
230
1
0
LINE
5
72
100
AcDbEntity
8
1
62
256
6
ByLayer
370
18
48
1
60
0
100
AcDbLine
10
44.023301
20
-2.015984
30
0
11
43.756816
21
-1.16506
31
0
39
0
210
0
220
0
230
1
0
LINE
5
74
100
AcDbEntity
8
1
62
256
6
ByLayer
370
18
48
1
60
0
100
AcDbLine
10
2
20
-15.02
30
0
11
26.514177
21
-15.02
31
0
39
0
210
0
220
0
230
1
0
LINE
5
75
100
AcDbEntity
8
1
62
256
6
ByLayer
370
18
48
1
60
0
100
AcDbLine
10
23.18
20
15.02
30
0
11
2
21
15.02
31
0
39
0
210
0
220
0
230
1
0
LINE
5
76
100
AcDbEntity
8
1
62
256
6
ByLayer
370
18
48
1
60
0
100
AcDbLine
10
0.5
20
14.4
30
0
11
0
21
13.9
31
0
39
0
210
0
220
0
230
1
0
LINE
5
77
100
AcDbEntity
8
1
62
256
6
ByLayer
370
18
48
1
60
0
100
AcDbLine
10
0
20
-13.9
30
0
11
0.5
21
-14.4
31
0
39
0
210
0
220
0
230
1
0
LINE
5
78
100
AcDbEntity
8
1
62
256
6
ByLayer
370
18
48
1
60
0
100
AcDbLine
10
-2
20
-8.5
30
0
11
-1.25359
21
-8.3
31
0
39
0
210
0
220
0
230
1
0
LINE
5
79
100
AcDbEntity
8
1
62
256
6
ByLayer
370
18
48
1
60
0
100
AcDbLine
10
-1.25359
20
8.3
30
0
11
-2
21
8.5
31
0
39
0
210
0
220
0
230
1
0
LINE
5
7A
100
AcDbEntity
8
1
62
256
6
ByLayer
370
18
48
1
60
0
100
AcDbLine
10
-2
20
8.5
30
0
11
-5
21
8.5
31
0
39
0
210
0
220
0
230
1
0
LINE
5
7B
100
AcDbEntity
8
1
62
256
6
ByLayer
370
18
48
1
60
0
100
AcDbLine
10
-5
20
-8.5
30
0
11
-2
21
-8.5
31
0
39
0
210
0
220
0
230
1
0
LINE
5
7C
100
AcDbEntity
8
1
62
256
6
ByLayer
370
18
48
1
60
0
100
AcDbLine
10
-5
20
8.5
30
0
11
-6
21
8.232051
31
0
39
0
210
0
220
0
230
1
0
LINE
5
7D
100
AcDbEntity
8
1
62
256
6
ByLayer
370
18
48
1
60
0
100
AcDbLine
10
-6
20
-8.232051
30
0
11
-5
21
-8.5
31
0
39
0
210
0
220
0
230
1
0
LINE
5
7E
100
AcDbEntity
8
1
62
256
6
ByLayer
370
18
48
1
60
0
100
AcDbLine
10
-0.38
20
8.3
30
0
11
-1.25359
21
8.3
31
0
39
0
210
0
220
0
230
1
0
LINE
5
7F
100
AcDbEntity
8
1
62
256
6
ByLayer
370
18
48
1
60
0
100
AcDbLine
10
-11
20
8
30
0
11
-20.124536
21
8
31
0
39
0
210
0
220
0
230
1
0
LINE
5
80
100
AcDbEntity
8
1
62
256
6
ByLayer
370
18
48
1
60
0
100
AcDbLine
10
-20.124536
20
-8
30
0
11
-11
21
-8
31
0
39
0
210
0
220
0
230
1
0
LINE
5
81
100
AcDbEntity
8
1
62
256
6
ByLayer
370
18
48
1
60
0
100
AcDbLine
10
-8.633975
20
6.633975
30
0
11
-11
21
8
31
0
39
0
210
0
220
0
230
1
0
LINE
5
82
100
AcDbEntity
8
1
62
256
6
ByLayer
370
18
48
1
60
0
100
AcDbLine
10
-20.124536
20
8
30
0
11
-24
21
5.7625
31
0
39
0
210
0
220
0
230
1
0
LINE
5
83
100
AcDbEntity
8
1
62
256
6
ByLayer
370
18
48
1
60
0
100
AcDbLine
10
-7
20
6.5
30
0
11
-8.133975
21
6.5
31
0
39
0
210
0
220
0
230
1
0
LINE
5
84
100
AcDbEntity
8
1
62
256
6
ByLayer
370
18
48
1
60
0
100
AcDbLine
10
-8.133975
20
-6.5
30
0
11
-7
21
-6.5
31
0
39
0
210
0
220
0
230
1
0
LINE
5
85
100
AcDbEntity
8
1
62
256
6
ByLayer
370
18
48
1
60
0
100
AcDbLine
10
43.756816
20
-8.80494
30
0
11
44.022971
21
-7.955072
31
0
39
0
210
0
220
0
230
1
0
LINE
5
86
100
AcDbEntity
8
1
62
256
6
ByLayer
370
18
48
1
60
0
100
AcDbLine
10
2
20
14.4
30
0
11
0.5
21
14.4
31
0
39
0
210
0
220
0
230
1
0
LINE
5
87
100
AcDbEntity
8
1
62
256
6
ByLayer
370
18
48
1
60
0
100
AcDbLine
10
0.5
20
-14.4
30
0
11
2
21
-14.4
31
0
39
0
210
0
220
0
230
1
0
LINE
5
88
100
AcDbEntity
8
1
62
256
6
ByLayer
370
18
48
1
60
0
100
AcDbLine
10
37.818554
20
2.877232
30
0
11
37.514144
21
2.661982
31
0
39
0
210
0
220
0
230
1
0
LINE
5
89
100
AcDbEntity
8
1
62
256
6
ByLayer
370
18
48
1
60
0
100
AcDbLine
10
44.807768
20
-4.520898
30
0
11
44.329877
21
-2.994923
31
0
39
0
210
0
220
0
230
1
0
LINE
5
8A
100
AcDbEntity
8
1
62
256
6
ByLayer
370
18
48
1
60
0
100
AcDbLine
10
-1.25359
20
-8.3
30
0
11
-0.38
21
-8.3
31
0
39
0
210
0
220
0
230
1
0
LINE
5
8B
100
AcDbEntity
8
1
62
256
6
ByLayer
370
18
48
1
60
0
100
AcDbLine
10
-11
20
-8
30
0
11
-8.633975
21
-6.633975
31
0
39
0
210
0
220
0
230
1
0
LINE
5
8C
100
AcDbEntity
8
1
62
256
6
ByLayer
370
18
48
1
60
0
100
AcDbLine
10
-24
20
-5.7625
30
0
11
-20.124536
21
-8
31
0
39
0
210
0
220
0
230
1
0
LINE
5
8D
100
AcDbEntity
8
1
62
256
6
ByLayer
370
18
48
1
60
0
100
AcDbLine
10
44.329877
20
-6.975077
30
0
11
44.807768
21
-5.449102
31
0
39
0
210
0
220
0
230
1
0
LINE
5
8E
100
AcDbEntity
8
SK4
62
256
6
ByLayer
370
13
48
0.05
60
0
100
AcDbLine
10
49.88
20
0
30
0
11
-29
21
0
31
0
39
0
210
0
220
0
230
1
0
LINE
5
90
100
AcDbEntity
8
1
62
256
6
ByLayer
370
13
48
1
60
0
100
AcDbLine
10
41.981631
20
-5.21398
30
0
11
44.247425
21
-3.251745
31
0
39
0
210
0
220
0
230
1
0
LINE
5
91
100
AcDbEntity
8
1
62
256
6
ByLayer
370
13
48
1
60
0
100
AcDbLine
10
41.010346
20
-5.882951
30
0
11
36.749654
21
-5.882951
31
0
39
0
210
0
220
0
230
1
0
LINE
5
92
100
AcDbEntity
8
1
62
256
6
ByLayer
370
18
48
1
60
0
100
AcDbLine
10
43.611512
20
-2.250312
30
0
11
42.464138
21
-3.243967
31
0
39
0
210
0
220
0
230
1
0
LINE
5
93
100
AcDbEntity
8
1
62
256
6
ByLayer
370
13
48
1
60
0
100
AcDbLine
10
35.559165
20
-5.539287
30
0
11
35.46513
21
-5.457851
31
0
39
0
210
0
220
0
230
1
0
LINE
5
94
100
AcDbEntity
8
1
62
256
6
ByLayer
370
18
48
1
60
0
100
AcDbLine
10
43.429994
20
-0.686247
30
0
11
43.611512
21
-0.843446
31
0
39
0
210
0
220
0
230
1
0
LINE
5
95
100
AcDbEntity
8
1
62
256
6
ByLayer
370
13
48
1
60
0
100
AcDbLine
10
44.331181
20
-3.694353
30
0
11
42.200835
21
-5.539287
31
0
39
0
210
0
220
0
230
1
0
LINE
5
96
100
AcDbEntity
8
1
62
256
6
ByLayer
370
18
48
1
60
0
100
AcDbLine
10
40.027374
20
-3.947401
30
0
11
37.732626
21
-3.947401
31
0
39
0
210
0
220
0
230
1
0
LINE
5
97
100
AcDbEntity
8
1
62
256
6
ByLayer
370
13
48
1
60
0
100
AcDbLine
10
36.614206
20
-5.455266
30
0
11
41.145794
21
-5.455266
31
0
39
0
210
0
220
0
230
1
0
LINE
5
98
100
AcDbEntity
8
1
62
256
6
ByLayer
370
18
48
1
60
0
100
AcDbLine
10
42.981909
20
-7.174435
30
0
11
43.611512
21
-7.719688
31
0
39
0
210
0
220
0
230
1
0
LINE
5
99
100
AcDbEntity
8
1
62
256
6
ByLayer
370
13
48
1
60
0
100
AcDbLine
10
44.247425
20
-6.718255
30
0
11
44.026652
21
-6.52706
31
0
39
0
210
0
220
0
230
1
0
LINE
5
9A
100
AcDbEntity
8
1
62
256
6
ByLayer
370
18
48
1
60
0
100
AcDbLine
10
43.611512
20
-9.126554
30
0
11
43.429994
21
-9.283753
31
0
39
0
210
0
220
0
230
1
0
LINE
5
9B
100
AcDbEntity
8
1
62
256
6
ByLayer
370
18
48
1
60
0
100
AcDbLine
10
-2
20
8.5
30
0
11
-2
21
-8.5
31
0
39
0
210
0
220
0
230
1
0
LINE
5
9C
100
AcDbEntity
8
1
62
256
6
ByLayer
370
18
48
1
60
0
100
AcDbLine
10
-24
20
5.7625
30
0
11
-24
21
-5.7625
31
0
39
0
210
0
220
0
230
1
0
LINE
5
9D
100
AcDbEntity
8
1
62
256
6
ByLayer
370
13
48
1
60
0
100
AcDbLine
10
-8.633975
20
6.633975
30
0
11
-8.633975
21
-6.633975
31
0
39
0
210
0
220
0
230
1
0
LINE
5
9E
100
AcDbEntity
8
1
62
256
6
ByLayer
370
18
48
1
60
0
100
AcDbLine
10
43.43
20
6.058802
30
0
11
43.43
21
5.93492
31
0
39
0
210
0
220
0
230
1
0
LINE
5
9F
100
AcDbEntity
8
1
62
256
6
ByLayer
370
18
48
1
60
0
100
AcDbLine
10
0.5
20
14.4
30
0
11
0.5
21
-14.4
31
0
39
0
210
0
220
0
230
1
0
LINE
5
A0
100
AcDbEntity
8
1
62
256
6
ByLayer
370
18
48
1
60
0
100
AcDbLine
10
2
20
-7.375971
30
0
11
2
21
-8.523224
31
0
39
0
210
0
220
0
230
1
0
LINE
5
A1
100
AcDbEntity
8
1
62
256
6
ByLayer
370
18
48
1
60
0
100
AcDbLine
10
37.332441
20
-3.804798
30
0
11
35.783
21
-3.804798
31
0
39
0
210
0
220
0
230
1
0
LINE
5
A2
100
AcDbEntity
8
1
62
256
6
ByLayer
370
13
48
1
60
0
100
AcDbLine
10
-7
20
6.5
30
0
11
-7
21
-6.5
31
0
39
0
210
0
220
0
230
1
0
LINE
5
A3
100
AcDbEntity
8
1
62
256
6
ByLayer
370
13
48
1
60
0
100
AcDbLine
10
37.602229
20
2.599693
30
0
11
37.602229
21
-3.82402
31
0
39
0
210
0
220
0
230
1
0
LINE
5
A4
100
AcDbEntity
8
1
62
256
6
ByLayer
370
18
48
1
60
0
100
AcDbLine
10
43.43
20
-8.043868
30
0
11
43.43
21
-9.970454
31
0
39
0
210
0
220
0
230
1
0
LINE
5
A5
100
AcDbEntity
8
1
62
256
6
ByLayer
370
18
48
1
60
0
100
AcDbLine
10
2
20
-15.02
30
0
11
2
21
-8.523224
31
0
39
0
210
0
220
0
230
1
0
LINE
5
A6
100
AcDbEntity
8
1
62
256
6
ByLayer
370
18
48
1
60
0
100
AcDbLine
10
36.667838
20
5.47
30
0
11
32.18
21
5.47
31
0
39
0
210
0
220
0
230
1
0
LINE
5
A7
100
AcDbEntity
8
1
62
256
6
ByLayer
370
13
48
1
60
0
100
AcDbLine
10
37.332441
20
-3.804798
30
0
11
37.332441
21
2.839643
31
0
39
0
210
0
220
0
230
1
0
LINE
5
A8
100
AcDbEntity
8
1
62
256
6
ByLayer
370
18
48
1
60
0
100
AcDbLine
10
43.43
20
-2.124015
30
0
11
43.43
21
4.035534
31
0
39
0
210
0
220
0
230
1
0
LINE
5
A9
100
AcDbEntity
8
1
62
256
6
ByLayer
370
13
48
1
60
0
100
AcDbLine
10
-0.38
20
8.3
30
0
11
-0.38
21
-8.3
31
0
39
0
210
0
220
0
230
1
0
LINE
5
AA
100
AcDbEntity
8
1
62
256
6
ByLayer
370
18
48
1
60
0
100
AcDbLine
10
-20.124536
20
8
30
0
11
-20.124536
21
-8
31
0
39
0
210
0
220
0
230
1
0
LINE
5
AB
100
AcDbEntity
8
1
62
256
6
ByLayer
370
18
48
1
60
0
100
AcDbLine
10
11.6
20
-9.076307
30
0
11
2.4
21
-9.076307
31
0
39
0
210
0
220
0
230
1
0
LINE
5
AC
100
AcDbEntity
8
1
62
256
6
ByLayer
370
18
48
1
60
0
100
AcDbLine
10
0
20
13.9
30
0
11
0
21
-13.9
31
0
39
0
210
0
220
0
230
1
0
LINE
5
AD
100
AcDbEntity
8
1
62
256
6
ByLayer
370
18
48
1
60
0
100
AcDbLine
10
2
20
8.523224
30
0
11
2
21
7.375971
31
0
39
0
210
0
220
0
230
1
0
LINE
5
AE
100
AcDbEntity
8
1
62
256
6
ByLayer
370
18
48
1
60
0
100
AcDbLine
10
-5
20
8.5
30
0
11
-5
21
-8.5
31
0
39
0
210
0
220
0
230
1
0
LINE
5
AF
100
AcDbEntity
8
1
62
256
6
ByLayer
370
18
48
1
60
0
100
AcDbLine
10
2
20
7.375971
30
0
11
2
21
-7.375971
31
0
39
0
210
0
220
0
230
1
0
LINE
5
B0
100
AcDbEntity
8
1
62
256
6
ByLayer
370
18
48
1
60
0
100
AcDbLine
10
34.943565
20
-7.292453
30
0
11
23.18
21
-7.292453
31
0
39
0
210
0
220
0
230
1
0
LINE
5
B1
100
AcDbEntity
8
1
62
256
6
ByLayer
370
13
48
1
60
0
100
AcDbLine
10
11.6
20
9.076307
30
0
11
11.6
21
-9.076307
31
0
39
0
210
0
220
0
230
1
0
LINE
5
B2
100
AcDbEntity
8
1
62
256
6
ByLayer
370
18
48
1
60
0
100
AcDbLine
10
2.4
20
9.076307
30
0
11
11.6
21
9.076307
31
0
39
0
210
0
220
0
230
1
0
LINE
5
B3
100
AcDbEntity
8
1
62
256
6
ByLayer
370
13
48
1
60
0
100
AcDbLine
10
32.18
20
-14.849439
30
0
11
32.18
21
-7.292496
31
0
39
0
210
0
220
0
230
1
0
LINE
5
B4
100
AcDbEntity
8
1
62
256
6
ByLayer
370
18
48
1
60
0
100
AcDbLine
10
34.943565
20
15.017919
30
0
11
23.18
21
15.017919
31
0
39
0
210
0
220
0
230
1
0
LINE
5
B5
100
AcDbEntity
8
1
62
256
6
ByLayer
370
18
48
1
60
0
100
AcDbLine
10
-11
20
8
30
0
11
-11
21
-8
31
0
39
0
210
0
220
0
230
1
0
LINE
5
B6
100
AcDbEntity
8
1
62
256
6
ByLayer
370
18
48
1
60
0
100
AcDbLine
10
2
20
15.02
30
0
11
2
21
8.523224
31
0
39
0
210
0
220
0
230
1
0
LINE
5
B7
100
AcDbEntity
8
1
62
256
6
ByLayer
370
18
48
1
60
0
100
AcDbLine
10
34.943565
20
15.017919
30
0
11
34.188913
21
13.710824
31
0
39
0
210
0
220
0
230
1
0
LINE
5
B8
100
AcDbEntity
8
1
62
256
6
ByLayer
370
18
48
1
60
0
100
AcDbLine
10
43.43
20
-9.970454
30
0
11
43.43
21
-11.631226
31
0
39
0
210
0
220
0
230
1
0
LINE
5
B9
100
AcDbEntity
8
1
62
256
6
ByLayer
370
18
48
1
60
0
100
AcDbLine
10
36.667838
20
5.47
30
0
11
40.547845
21
5.47
31
0
39
0
210
0
220
0
230
1
0
LINE
5
BA
100
AcDbEntity
8
1
62
256
6
ByLayer
370
18
48
1
60
0
100
AcDbLine
10
12
20
8.523224
30
0
11
12
21
-8.523224
31
0
39
0
210
0
220
0
230
1
0
LINE
5
BB
100
AcDbEntity
8
1
62
256
6
ByLayer
370
18
48
1
60
0
100
AcDbLine
10
35.991791
20
-5.45786
30
0
11
35.448383
21
-5.45786
31
0
39
0
210
0
220
0
230
1
0
LINE
5
BC
100
AcDbEntity
8
1
62
256
6
ByLayer
370
18
48
1
60
0
100
AcDbLine
10
-6
20
8.232051
30
0
11
-6
21
-8.232051
31
0
39
0
210
0
220
0
230
1
0
LINE
5
BD
100
AcDbEntity
8
1
62
256
6
ByLayer
370
13
48
1
60
0
100
AcDbLine
10
2.4
20
9.076307
30
0
11
2.4
21
-9.076307
31
0
39
0
210
0
220
0
230
1
0
LINE
5
BE
100
AcDbEntity
8
1
62
256
6
ByLayer
370
18
48
1
60
0
100
AcDbLine
10
41.659449
20
-14.206727
30
0
11
41.659449
21
-7.643709
31
0
39
0
210
0
220
0
230
1
0
LINE
5
BF
100
AcDbEntity
8
1
62
256
6
ByLayer
370
18
48
1
60
0
100
AcDbLine
10
36.667838
20
-14.849439
30
0
11
32.18
21
-14.849439
31
0
39
0
210
0
220
0
230
1
0
LINE
5
C0
100
AcDbEntity
8
1
62
256
6
ByLayer
370
18
48
1
60
0
100
AcDbLine
10
23.18
20
-10.722782
30
0
11
23.18
21
-7.292453
31
0
39
0
210
0
220
0
230
1
0
LINE
5
C1
100
AcDbEntity
8
1
62
256
6
ByLayer
370
18
48
1
60
0
100
AcDbLine
10
-1.25359
20
8.3
30
0
11
-1.25359
21
-8.3
31
0
39
0
210
0
220
0
230
1
0
LINE
5
C2
100
AcDbEntity
8
1
62
256
6
ByLayer
370
18
48
1
60
0
100
AcDbLine
10
23.18
20
14.47
30
0
11
23.18
21
15.02
31
0
39
0
210
0
220
0
230
1
0
LINE
5
C3
100
AcDbEntity
8
1
62
256
6
ByLayer
370
13
48
1
60
0
100
AcDbLine
10
-8.133975
20
6.5
30
0
11
-8.133975
21
-6.5
31
0
39
0
210
0
220
0
230
1
0
MTEXT
5
13B
100
AcDbEntity
8
SK6
62
256
6
ByLayer
370
18
48
1
60
0
100
AcDbMText
10
-8.754737
20
-29
30
0
210
0
220
0
230
1
1
\W0.7335;R300-32T16-12M
40
4
41
0
44
1.084337
50
0
71
7
72
5
7
iso_b_vert
0
DIMENSION
5
149
100
AcDbEntity
8
2
62
256
6
ByLayer
370
13
48
1
60
0
100
AcDbDimension
2
DimnDraft3D1
10
44.88
20
30.85
30
0
11
26.08
21
30.85
31
0
70
32
71
5
72
1
41
1
210
0
220
0
230
1
3
Standard
100
AcDbAlignedDimension
13
38.88
23
16
33
0
14
44.88
24
10
34
0
50
0
100
AcDbRotatedDimension
1001
ACAD
1000
DSTYLE
1002
{
1070
   279
1070
     0
1070
   172
1070
     1
1070
   173
1070
     1
1070
   340
1005
13C
1070
   271
1070
     3
1070
   272
1070
     3
1070
    77
1070
     1
1070
    73
1070
     0
1070
   171
1070
     3
1070
   274
1070
     4
1070
   177
1070
     7
1070
   176
1070
     7
1070
   178
1070
     7
1070
    78
1070
     8
1070
    48
1040
-0.005
1070
    41
1041
3.5
1070
   147
1041
1.75
1070
    42
1041
0.0
1070
    44
1041
2.0
1070
   140
1041
3.5
1070
   343
1005
0
1070
   344
1005
0
1002
}
0
DIMENSION
5
153
100
AcDbEntity
8
2
62
256
6
ByLayer
370
13
48
1
60
0
100
AcDbDimension
2
DimnDraft3D2
10
0
20
40.85
30
0
11
22.44
21
40.85
31
0
70
32
71
5
72
1
41
1
210
0
220
0
230
1
3
Standard
100
AcDbAlignedDimension
13
44.88
23
10
33
0
14
0
24
14.4
34
0
50
0
100
AcDbRotatedDimension
1001
ACAD
1000
DSTYLE
1002
{
1070
   279
1070
     0
1070
   172
1070
     1
1070
   173
1070
     1
1070
   340
1005
13C
1070
   271
1070
     1
1070
   272
1070
     3
1070
    77
1070
     1
1070
    73
1070
     0
1070
   171
1070
     3
1070
   274
1070
     4
1070
   177
1070
     7
1070
   176
1070
     7
1070
   178
1070
     7
1070
    78
1070
     8
1070
    48
1040
-0.005
1070
    41
1041
3.5
1070
   147
1041
1.75
1070
    42
1041
0.0
1070
    44
1041
2.0
1070
   140
1041
3.5
1070
   343
1005
0
1070
   344
1005
0
1002
}
0
DIMENSION
5
15E
100
AcDbEntity
8
SK2
62
256
6
ByLayer
370
13
48
1
60
0
100
AcDbDimension
2
DimnDraft3D3
10
-24
20
50.85
30
0
11
10.44
21
50.85
31
0
70
32
71
5
72
1
41
1
210
0
220
0
230
1
3
Standard
100
AcDbAlignedDimension
13
44.88
23
10
33
0
14
-24
24
0
34
0
50
0
100
AcDbRotatedDimension
1001
ACAD
1000
DSTYLE
1002
{
1070
   279
1070
     0
1070
   172
1070
     1
1070
   173
1070
     1
1070
   340
1005
13C
1070
   271
1070
     1
1070
   272
1070
     3
1070
    77
1070
     1
1070
    73
1070
     0
1070
   171
1070
     3
1070
   274
1070
     4
1070
   177
1070
     7
1070
   176
1070
     7
1070
   178
1070
     7
1070
    78
1070
     8
1070
    48
1040
-0.005
1070
    41
1041
3.5
1070
   147
1041
1.75
1070
    42
1041
0.0
1070
    44
1041
2.0
1070
   140
1041
3.5
1070
   343
1005
0
1070
   344
1005
0
1002
}
0
DIMENSION
5
169
100
AcDbEntity
8
2
62
256
6
ByLayer
370
13
48
1
60
0
100
AcDbDimension
2
DimnDraft3D4
10
72.605
20
16
30
0
11
72.605
21
0
31
0
70
32
71
5
72
1
41
1
210
0
220
0
230
1
3
Standard
100
AcDbAlignedDimension
13
38.88
23
-16
33
0
14
38.88
24
16
34
0
50
90
100
AcDbRotatedDimension
1001
ACAD
1000
DSTYLE
1002
{
1070
    74
1070
     0
1070
   279
1070
     0
1070
   172
1070
     1
1070
   173
1070
     1
1070
   340
1005
13C
1070
   271
1070
     3
1070
   272
1070
     3
1070
    77
1070
     1
1070
    73
1070
     0
1070
   171
1070
     3
1070
   274
1070
     4
1070
   177
1070
     7
1070
   176
1070
     7
1070
   178
1070
     7
1070
    78
1070
     8
1070
    48
1040
-0.005
1070
    41
1041
3.5
1070
   147
1041
1.75
1070
    42
1041
0.0
1070
    44
1041
2.0
1070
   140
1041
3.5
1070
   343
1005
0
1070
   344
1005
0
1002
}
0
DIMENSION
5
174
100
AcDbEntity
8
SK2
62
256
6
ByLayer
370
13
48
1
60
0
100
AcDbDimension
2
DimnDraft3D5
10
-42.975
20
-14.4
30
0
11
-42.975
21
0
31
0
70
32
71
5
72
1
41
1
210
0
220
0
230
1
3
Standard
100
AcDbAlignedDimension
13
0
23
14.4
33
0
14
0
24
-14.4
34
0
50
90
100
AcDbRotatedDimension
1001
ACAD
1000
DSTYLE
1002
{
1070
    74
1070
     0
1070
   279
1070
     0
1070
   172
1070
     1
1070
   173
1070
     1
1070
   340
1005
13C
1070
   271
1070
     3
1070
   272
1070
     3
1070
    77
1070
     1
1070
    73
1070
     0
1070
   171
1070
     3
1070
   274
1070
     4
1070
   177
1070
     7
1070
   176
1070
     7
1070
   178
1070
     7
1070
    78
1070
     8
1070
    48
1040
-0.005
1070
    41
1041
3.5
1070
   147
1041
1.75
1070
    42
1041
0.0
1070
    44
1041
2.0
1070
   140
1041
3.5
1070
   343
1005
0
1070
   344
1005
0
1002
}
0
ENDSEC
0
SECTION
2
OBJECTS
0
DICTIONARY
5
1de
330
0
100
AcDbDictionary
280
0
281
1
3
ACAD_GROUP
350
1df
3
ACAD_MLINESTYLE
350
1e0
0
DICTIONARY
5
1df
330
0
100
AcDbDictionary
280
0
281
1
0
DICTIONARY
5
1e0
330
0
100
AcDbDictionary
280
0
281
1
3
Standard
350
18
0
MLINESTYLE
5
18
330
1e0
100
AcDbMlineStyle
2
Standard
70
0
3

62
256
51
90
52
90
71
2
49
-0.5
62
256
6
ByLayer
49
0.5
62
256
6
ByLayer
0
RASTERVARIABLES
5
1cd
330

100
AcDbRasterVariables
90
0
70
1
71
1
72
1
0
ENDSEC
0
EOF
