0
SECTION
2
HEADER
9
$ACADVER
1
AC1015
9
$DWGCODEPAGE
3
ANSI_1252
9
$HANDSEED
5
23d
9
$ANGBASE
50
0
9
$ANGDIR
70
0
9
$ATTMODE
70
1
9
$AUNITS
70
0
9
$AUPREC
70
0
9
$CECOLOR
62
256
9
$CELTSCALE
40
1
9
$CELTYPE
6
ByLayer
9
$CELWEIGHT
370
-1
9
$CLAYER
8
0
9
$CMLJUST
70
0
9
$CMLSCALE
40
1
9
$CMLSTYLE
2
Standard
9
$DIMSTYLE
2
Standard
9
$TEXTSIZE
40
0.2
9
$TEXTSTYLE
7
Standard
9
$LUNITS
70
2
9
$LUPREC
70
4
9
$EXTNAMES
290
1
9
$INSUNITS
70
4
9
$LTSCALE
40
1
9
$LWDISPLAY
290
0
9
$PDMODE
70
0
9
$PDSIZE
40
0
9
$PLINEGEN
70
0
0
ENDSEC
0
SECTION
2
CLASSES
0
CLASS
1
RASTERVARIABLES
2
AcDbRasterVariables
3
ISM
90
0
280
0
281
0
0
ENDSEC
0
SECTION
2
TABLES
0
TABLE
2
VPORT
5
233
100
AcDbSymbolTable
0
VPORT
5
1
100
AcDbSymbolTableRecord
100
AcDbViewportTableRecord
2
*Active
70
0
10
0
20
0
11
1
21
1
12
-1
22
1
13
0
23
0
14
0.5
24
0.5
15
10
25
10
16
0
26
0
36
1
17
0
27
0
37
0
0
ENDTAB
0
TABLE
2
LTYPE
5
234
100
AcDbSymbolTable
0
LTYPE
5
14
100
AcDbSymbolTableRecord
100
AcDbLinetypeTableRecord
70
0
2
ByBlock
3

72
65
73
0
40
0
0
LTYPE
5
15
100
AcDbSymbolTableRecord
100
AcDbLinetypeTableRecord
70
0
2
ByLayer
3

72
65
73
0
40
0
0
LTYPE
5
16
100
AcDbSymbolTableRecord
100
AcDbLinetypeTableRecord
70
0
2
CONTINUOUS
3
Solid line
72
65
73
0
40
0
0
LTYPE
5
3B
100
AcDbSymbolTableRecord
100
AcDbLinetypeTableRecord
70
0
2
DASHED
3
__ __ __ __ __ __ __ __ __
72
65
73
2
40
25.72
49
12.86
74
0
49
-12.86
74
0
0
LTYPE
5
3C
100
AcDbSymbolTableRecord
100
AcDbLinetypeTableRecord
70
0
2
HIDDEN
3
_ _ _ _ _ _ _ _ _ _ _ _ _ _ _
72
65
73
2
40
0.5
49
0.25
74
0
49
-0.25
74
0
0
LTYPE
5
3D
100
AcDbSymbolTableRecord
100
AcDbLinetypeTableRecord
70
0
2
PHANTOM
3
____ _ _ ____ _ _ _____ _ _ ____
72
65
73
6
40
50.5
49
18
74
0
49
-6.5
74
0
49
6.5
74
0
49
-6.5
74
0
49
6.5
74
0
49
-6.5
74
0
0
LTYPE
5
3E
100
AcDbSymbolTableRecord
100
AcDbLinetypeTableRecord
70
0
2
CENTER
3
____ _ ____ _ ____ _ ____
72
65
73
4
40
47.5
49
22
74
0
49
-8.5
74
0
49
8.5
74
0
49
-8.5
74
0
0
LTYPE
5
3F
100
AcDbSymbolTableRecord
100
AcDbLinetypeTableRecord
70
0
2
DOT
3
.........................
72
65
73
2
40
10
49
0
74
0
49
-10
74
0
0
LTYPE
5
40
100
AcDbSymbolTableRecord
100
AcDbLinetypeTableRecord
70
0
2
DASHDOT
3
_._._._._._._._._._._._._._._._.
72
65
73
4
40
70
49
31
74
0
49
-13
74
0
49
13
74
0
49
-13
74
0
0
ENDTAB
0
TABLE
2
LAYER
5
235
100
AcDbSymbolTable
0
LAYER
5
10
100
AcDbSymbolTableRecord
100
AcDbLayerTableRecord
2
0
70
0
62
7
6
CONTINUOUS
290
1
370
-3
390
0
0
LAYER
5
42
100
AcDbSymbolTableRecord
100
AcDbLayerTableRecord
2
81
70
0
62
-3
6
CONTINUOUS
290
1
370
-3
390
0
0
LAYER
5
44
100
AcDbSymbolTableRecord
100
AcDbLayerTableRecord
2
80
70
0
62
-6
6
CONTINUOUS
290
1
370
-3
390
0
0
LAYER
5
46
100
AcDbSymbolTableRecord
100
AcDbLayerTableRecord
2
1
70
0
62
4
6
CONTINUOUS
290
1
370
-3
390
0
0
LAYER
5
1B4
100
AcDbSymbolTableRecord
100
AcDbLayerTableRecord
2
2
70
0
62
7
6
CONTINUOUS
290
1
370
-3
390
0
0
LAYER
5
220
100
AcDbSymbolTableRecord
100
AcDbLayerTableRecord
2
SK4
70
0
62
2
6
CENTER
290
1
370
-3
390
0
0
LAYER
5
221
100
AcDbSymbolTableRecord
100
AcDbLayerTableRecord
2
SK6
70
0
62
5
6
CONTINUOUS
290
1
370
-3
390
0
0
LAYER
5
222
100
AcDbSymbolTableRecord
100
AcDbLayerTableRecord
2
SK2
70
0
62
7
6
CONTINUOUS
290
1
370
-3
390
0
0
ENDTAB
0
TABLE
2
STYLE
5
236
100
AcDbSymbolTable
0
STYLE
5
11
100
AcDbSymbolTableRecord
100
AcDbTextStyleTableRecord
2
Standard
3
txt
70
0
71
0
40
0
41
1
42
0
50
0
0
STYLE
5
18D
100
AcDbSymbolTableRecord
100
AcDbTextStyleTableRecord
2
DEFAULT
3
simplex.shx
70
0
71
0
40
0
41
1
42
0
50
0
0
STYLE
5
1B0
100
AcDbSymbolTableRecord
100
AcDbTextStyleTableRecord
2
DWGDirectTextStyle
3
SIMPLEX
70
0
71
0
40
0
41
1
42
0
50
0
0
ENDTAB
0
TABLE
2
DIMSTYLE
5
237
100
AcDbSymbolTable
100
AcDbDimStyleTable
0
DIMSTYLE
105
27
100
AcDbSymbolTableRecord
100
AcDbDimStyleTableRecord
2
Standard
70
0
3
<>
41
0.18
42
0.0625
44
0.18
140
0.18
147
0.09
73
0
74
0
77
1
271
2
275
0
278
52
280
0
340
11
0
ENDTAB
0
TABLE
2
VIEW
5
238
100
AcDbSymbolTable
0
ENDTAB
0
TABLE
2
UCS
5
239
100
AcDbSymbolTable
0
ENDTAB
0
TABLE
2
APPID
5
23a
100
AcDbSymbolTable
0
APPID
5
12
100
AcDbSymbolTableRecord
100
AcDbRegAppTableRecord
2
ACAD
70
0
0
ENDTAB
0
TABLE
2
BLOCK_RECORD
5
23b
100
AcDbSymbolTable
0
BLOCK_RECORD
5
1F
100
AcDbSymbolTableRecord
100
AcDbBlockTableRecord
2
*Model_Space
340
0
70
0
0
BLOCK_RECORD
5
1B
100
AcDbSymbolTableRecord
100
AcDbBlockTableRecord
2
*Paper_Space
340
0
70
0
0
BLOCK_RECORD
5
23
100
AcDbSymbolTableRecord
100
AcDbBlockTableRecord
2
*Paper_Space0
340
0
70
0
0
BLOCK_RECORD
5
1B2
100
AcDbSymbolTableRecord
100
AcDbBlockTableRecord
2
DimnDraft3D1
340
0
70
0
0
BLOCK_RECORD
5
1C1
100
AcDbSymbolTableRecord
100
AcDbBlockTableRecord
2
_CLOSED
340
0
70
0
0
BLOCK_RECORD
5
1C8
100
AcDbSymbolTableRecord
100
AcDbBlockTableRecord
2
DimnDraft3D2
340
0
70
0
0
BLOCK_RECORD
5
1D7
100
AcDbSymbolTableRecord
100
AcDbBlockTableRecord
2
DimnDraft3D3
340
0
70
0
0
BLOCK_RECORD
5
1E5
100
AcDbSymbolTableRecord
100
AcDbBlockTableRecord
2
DimnDraft3D4
340
0
70
0
0
BLOCK_RECORD
5
1F3
100
AcDbSymbolTableRecord
100
AcDbBlockTableRecord
2
DimnDraft3D5
340
0
70
0
0
ENDTAB
0
ENDSEC
0
SECTION
2
BLOCKS
0
BLOCK
5
20
100
AcDbEntity
8
0
100
AcDbBlockBegin
2
*Model_Space
70
0
10
0
20
0
30
0
3
*Model_Space
0
ENDBLK
5
21
100
AcDbEntity
8
0
100
AcDbBlockEnd
0
BLOCK
5
1C
100
AcDbEntity
8
0
100
AcDbBlockBegin
2
*Paper_Space
70
0
10
0
20
0
30
0
3
*Paper_Space
0
ENDBLK
5
1D
100
AcDbEntity
8
0
100
AcDbBlockEnd
0
BLOCK
5
24
100
AcDbEntity
8
0
100
AcDbBlockBegin
2
*Paper_Space0
70
0
10
0
20
0
30
0
3
*Paper_Space0
0
ENDBLK
5
25
100
AcDbEntity
8
0
100
AcDbBlockEnd
0
BLOCK
5
1BE
100
AcDbEntity
8
0
100
AcDbBlockBegin
2
DimnDraft3D1
70
0
10
0
20
0
30
0
3
DimnDraft3D1
0
MTEXT
5
1B3
100
AcDbEntity
8
2
62
256
6
ByLayer
370
-1
48
1
60
0
100
AcDbMText
10
-66.725
20
-3.325
30
0
210
0
220
0
230
1
1
\W01.000;\fsimplex.shx,bigfont.shx;24.2 
40
3.5
41
0
44
1.084337
50
90
71
7
72
5
7
DEFAULT
0
LINE
5
1B5
100
AcDbEntity
8
2
62
256
6
ByLayer
370
-1
48
1
60
0
100
AcDbLine
10
0
20
12.1
30
0
11
-67.85
21
12.1
31
0
39
0
210
0
220
0
230
1
0
LINE
5
1B6
100
AcDbEntity
8
2
62
256
6
ByLayer
370
-1
48
1
60
0
100
AcDbLine
10
0
20
-12.1
30
0
11
-67.85
21
-12.1
31
0
39
0
210
0
220
0
230
1
0
LINE
5
1B7
100
AcDbEntity
8
2
62
256
6
ByLayer
370
-1
48
1
60
0
100
AcDbLine
10
-65.85
20
12.1
30
0
11
-65.85
21
-12.1
31
0
39
0
210
0
220
0
230
1
0
LINE
5
1B8
100
AcDbEntity
8
2
62
256
6
ByLayer
370
-1
48
1
60
0
100
AcDbLine
10
-65.85
20
12.1
30
0
11
-64.912178
21
8.600003
31
0
39
0
210
0
220
0
230
1
0
LINE
5
1B9
100
AcDbEntity
8
2
62
256
6
ByLayer
370
-1
48
1
60
0
100
AcDbLine
10
-65.85
20
12.1
30
0
11
-66.787822
21
8.599997
31
0
39
0
210
0
220
0
230
1
0
LINE
5
1BA
100
AcDbEntity
8
2
62
256
6
ByLayer
370
-1
48
1
60
0
100
AcDbLine
10
-64.912178
20
8.600003
30
0
11
-66.787822
21
8.599997
31
0
39
0
210
0
220
0
230
1
0
LINE
5
1BB
100
AcDbEntity
8
2
62
256
6
ByLayer
370
-1
48
1
60
0
100
AcDbLine
10
-65.85
20
-12.1
30
0
11
-66.787822
21
-8.600003
31
0
39
0
210
0
220
0
230
1
0
LINE
5
1BC
100
AcDbEntity
8
2
62
256
6
ByLayer
370
-1
48
1
60
0
100
AcDbLine
10
-65.85
20
-12.1
30
0
11
-64.912178
21
-8.599997
31
0
39
0
210
0
220
0
230
1
0
LINE
5
1BD
100
AcDbEntity
8
2
62
256
6
ByLayer
370
-1
48
1
60
0
100
AcDbLine
10
-66.787822
20
-8.600003
30
0
11
-64.912178
21
-8.599997
31
0
39
0
210
0
220
0
230
1
0
ENDBLK
5
1BF
100
AcDbEntity
8
0
100
AcDbBlockEnd
0
BLOCK
5
1C2
100
AcDbEntity
8
0
100
AcDbBlockBegin
2
_CLOSED
70
0
10
0
20
0
30
0
3
_CLOSED
0
LINE
5
1C4
100
AcDbEntity
8
0
62
256
6
ByLayer
370
-2
48
1
60
0
100
AcDbLine
10
-1
20
0.166667
30
0
11
0
21
0
31
0
39
0
210
0
220
0
230
1
0
LINE
5
1C5
100
AcDbEntity
8
0
62
256
6
ByLayer
370
-2
48
1
60
0
100
AcDbLine
10
0
20
0
30
0
11
-1
21
-0.166667
31
0
39
0
210
0
220
0
230
1
0
LINE
5
1C6
100
AcDbEntity
8
0
62
256
6
ByLayer
370
-2
48
1
60
0
100
AcDbLine
10
-1
20
0.166667
30
0
11
-1
21
-0.166667
31
0
39
0
210
0
220
0
230
1
0
LINE
5
1C7
100
AcDbEntity
8
0
62
256
6
ByLayer
370
-2
48
1
60
0
100
AcDbLine
10
0
20
0
30
0
11
-1
21
0
31
0
39
0
210
0
220
0
230
1
0
ENDBLK
5
1C3
100
AcDbEntity
8
0
100
AcDbBlockEnd
0
BLOCK
5
1D4
100
AcDbEntity
8
0
100
AcDbBlockBegin
2
DimnDraft3D2
70
0
10
0
20
0
30
0
3
DimnDraft3D2
0
MTEXT
5
1C9
100
AcDbEntity
8
SK2
62
256
6
ByLayer
370
-1
48
1
60
0
100
AcDbMText
10
60.975
20
-3.325
30
0
210
0
220
0
230
1
1
\W01.000;\fsimplex.shx,bigfont.shx;24.0 
40
3.5
41
0
44
1.084337
50
90
71
7
72
5
7
DEFAULT
0
LINE
5
1CB
100
AcDbEntity
8
SK2
62
256
6
ByLayer
370
-1
48
1
60
0
100
AcDbLine
10
35
20
11.99255
30
0
11
63.85
21
11.99255
31
0
39
0
210
0
220
0
230
1
0
LINE
5
1CC
100
AcDbEntity
8
SK2
62
256
6
ByLayer
370
-1
48
1
60
0
100
AcDbLine
10
35
20
-11.99255
30
0
11
63.85
21
-11.99255
31
0
39
0
210
0
220
0
230
1
0
LINE
5
1CD
100
AcDbEntity
8
SK2
62
256
6
ByLayer
370
-1
48
1
60
0
100
AcDbLine
10
61.85
20
11.99255
30
0
11
61.85
21
-11.99255
31
0
39
0
210
0
220
0
230
1
0
LINE
5
1CE
100
AcDbEntity
8
SK2
62
256
6
ByLayer
370
-1
48
1
60
0
100
AcDbLine
10
61.85
20
11.99255
30
0
11
62.787822
21
8.492553
31
0
39
0
210
0
220
0
230
1
0
LINE
5
1CF
100
AcDbEntity
8
SK2
62
256
6
ByLayer
370
-1
48
1
60
0
100
AcDbLine
10
61.85
20
11.99255
30
0
11
60.912178
21
8.492547
31
0
39
0
210
0
220
0
230
1
0
LINE
5
1D0
100
AcDbEntity
8
SK2
62
256
6
ByLayer
370
-1
48
1
60
0
100
AcDbLine
10
62.787822
20
8.492553
30
0
11
60.912178
21
8.492547
31
0
39
0
210
0
220
0
230
1
0
LINE
5
1D1
100
AcDbEntity
8
SK2
62
256
6
ByLayer
370
-1
48
1
60
0
100
AcDbLine
10
61.85
20
-11.99255
30
0
11
60.912178
21
-8.492553
31
0
39
0
210
0
220
0
230
1
0
LINE
5
1D2
100
AcDbEntity
8
SK2
62
256
6
ByLayer
370
-1
48
1
60
0
100
AcDbLine
10
61.85
20
-11.99255
30
0
11
62.787822
21
-8.492547
31
0
39
0
210
0
220
0
230
1
0
LINE
5
1D3
100
AcDbEntity
8
SK2
62
256
6
ByLayer
370
-1
48
1
60
0
100
AcDbLine
10
60.912178
20
-8.492553
30
0
11
62.787822
21
-8.492547
31
0
39
0
210
0
220
0
230
1
0
ENDBLK
5
1D5
100
AcDbEntity
8
0
100
AcDbBlockEnd
0
BLOCK
5
1E2
100
AcDbEntity
8
0
100
AcDbBlockBegin
2
DimnDraft3D3
70
0
10
0
20
0
30
0
3
DimnDraft3D3
0
MTEXT
5
1D8
100
AcDbEntity
8
SK2
62
256
6
ByLayer
370
-1
48
1
60
0
100
AcDbMText
10
70.975
20
-3.140789
30
0
210
0
220
0
230
1
1
\W01.000;\fsimplex.shx,bigfont.shx;32.0 
40
3.5
41
0
44
1.084337
50
90
71
7
72
5
7
DEFAULT
0
LINE
5
1D9
100
AcDbEntity
8
SK2
62
256
6
ByLayer
370
-1
48
1
60
0
100
AcDbLine
10
35
20
-15.965
30
0
11
73.85
21
-15.965
31
0
39
0
210
0
220
0
230
1
0
LINE
5
1DA
100
AcDbEntity
8
SK2
62
256
6
ByLayer
370
-1
48
1
60
0
100
AcDbLine
10
35
20
15.965
30
0
11
73.85
21
15.965
31
0
39
0
210
0
220
0
230
1
0
LINE
5
1DB
100
AcDbEntity
8
SK2
62
256
6
ByLayer
370
-1
48
1
60
0
100
AcDbLine
10
71.85
20
-15.965
30
0
11
71.85
21
15.965
31
0
39
0
210
0
220
0
230
1
0
LINE
5
1DC
100
AcDbEntity
8
SK2
62
256
6
ByLayer
370
-1
48
1
60
0
100
AcDbLine
10
71.85
20
-15.965
30
0
11
70.912178
21
-12.465003
31
0
39
0
210
0
220
0
230
1
0
LINE
5
1DD
100
AcDbEntity
8
SK2
62
256
6
ByLayer
370
-1
48
1
60
0
100
AcDbLine
10
71.85
20
-15.965
30
0
11
72.787822
21
-12.464997
31
0
39
0
210
0
220
0
230
1
0
LINE
5
1DE
100
AcDbEntity
8
SK2
62
256
6
ByLayer
370
-1
48
1
60
0
100
AcDbLine
10
70.912178
20
-12.465003
30
0
11
72.787822
21
-12.464997
31
0
39
0
210
0
220
0
230
1
0
LINE
5
1DF
100
AcDbEntity
8
SK2
62
256
6
ByLayer
370
-1
48
1
60
0
100
AcDbLine
10
71.85
20
15.965
30
0
11
72.787822
21
12.465003
31
0
39
0
210
0
220
0
230
1
0
LINE
5
1E0
100
AcDbEntity
8
SK2
62
256
6
ByLayer
370
-1
48
1
60
0
100
AcDbLine
10
71.85
20
15.965
30
0
11
70.912178
21
12.464997
31
0
39
0
210
0
220
0
230
1
0
LINE
5
1E1
100
AcDbEntity
8
SK2
62
256
6
ByLayer
370
-1
48
1
60
0
100
AcDbLine
10
72.787822
20
12.465003
30
0
11
70.912178
21
12.464997
31
0
39
0
210
0
220
0
230
1
0
ENDBLK
5
1E3
100
AcDbEntity
8
0
100
AcDbBlockEnd
0
BLOCK
5
1F0
100
AcDbEntity
8
0
100
AcDbBlockBegin
2
DimnDraft3D4
70
0
10
0
20
0
30
0
3
DimnDraft3D4
0
MTEXT
5
1E6
100
AcDbEntity
8
2
62
256
6
ByLayer
370
-1
48
1
60
0
100
AcDbMText
10
16.044737
20
31.69
30
0
210
0
220
0
230
1
1
\W01.000;\fsimplex.shx,bigfont.shx;4.0 
40
3.5
41
0
44
1.084337
50
0
71
7
72
5
7
DEFAULT
0
LINE
5
1E7
100
AcDbEntity
8
2
62
256
6
ByLayer
370
-1
48
1
60
0
100
AcDbLine
10
35
20
15.965
30
0
11
35
21
32.815
31
0
39
0
210
0
220
0
230
1
0
LINE
5
1E8
100
AcDbEntity
8
2
62
256
6
ByLayer
370
-1
48
1
60
0
100
AcDbLine
10
31
20
15.965
30
0
11
31
21
32.815
31
0
39
0
210
0
220
0
230
1
0
LINE
5
1E9
100
AcDbEntity
8
2
62
256
6
ByLayer
370
-1
48
1
60
0
100
AcDbLine
10
15.169737
20
30.815
30
0
11
43.75
21
30.815
31
0
39
0
210
0
220
0
230
1
0
LINE
5
1EA
100
AcDbEntity
8
2
62
256
6
ByLayer
370
-1
48
1
60
0
100
AcDbLine
10
35
20
30.815
30
0
11
38.499997
21
31.752822
31
0
39
0
210
0
220
0
230
1
0
LINE
5
1EB
100
AcDbEntity
8
2
62
256
6
ByLayer
370
-1
48
1
60
0
100
AcDbLine
10
35
20
30.815
30
0
11
38.500003
21
29.877178
31
0
39
0
210
0
220
0
230
1
0
LINE
5
1EC
100
AcDbEntity
8
2
62
256
6
ByLayer
370
-1
48
1
60
0
100
AcDbLine
10
38.499997
20
31.752822
30
0
11
38.500003
21
29.877178
31
0
39
0
210
0
220
0
230
1
0
LINE
5
1ED
100
AcDbEntity
8
2
62
256
6
ByLayer
370
-1
48
1
60
0
100
AcDbLine
10
31
20
30.815
30
0
11
27.500003
21
29.877178
31
0
39
0
210
0
220
0
230
1
0
LINE
5
1EE
100
AcDbEntity
8
2
62
256
6
ByLayer
370
-1
48
1
60
0
100
AcDbLine
10
31
20
30.815
30
0
11
27.499997
21
31.752822
31
0
39
0
210
0
220
0
230
1
0
LINE
5
1EF
100
AcDbEntity
8
2
62
256
6
ByLayer
370
-1
48
1
60
0
100
AcDbLine
10
27.500003
20
29.877178
30
0
11
27.499997
21
31.752822
31
0
39
0
210
0
220
0
230
1
0
ENDBLK
5
1F1
100
AcDbEntity
8
0
100
AcDbBlockEnd
0
BLOCK
5
1FE
100
AcDbEntity
8
0
100
AcDbBlockBegin
2
DimnDraft3D5
70
0
10
0
20
0
30
0
3
DimnDraft3D5
0
MTEXT
5
1F4
100
AcDbEntity
8
SK2
62
256
6
ByLayer
370
-1
48
1
60
0
100
AcDbMText
10
14.359211
20
51.69
30
0
210
0
220
0
230
1
1
\W01.000;\fsimplex.shx,bigfont.shx;35.0 
40
3.5
41
0
44
1.084337
50
0
71
7
72
5
7
DEFAULT
0
LINE
5
1F5
100
AcDbEntity
8
SK2
62
256
6
ByLayer
370
-1
48
1
60
0
100
AcDbLine
10
35
20
15.965
30
0
11
35
21
52.815
31
0
39
0
210
0
220
0
230
1
0
LINE
5
1F6
100
AcDbEntity
8
SK2
62
256
6
ByLayer
370
-1
48
1
60
0
100
AcDbLine
10
0
20
12.1
30
0
11
0
21
52.815
31
0
39
0
210
0
220
0
230
1
0
LINE
5
1F7
100
AcDbEntity
8
SK2
62
256
6
ByLayer
370
-1
48
1
60
0
100
AcDbLine
10
35
20
50.815
30
0
11
0
21
50.815
31
0
39
0
210
0
220
0
230
1
0
LINE
5
1F8
100
AcDbEntity
8
SK2
62
256
6
ByLayer
370
-1
48
1
60
0
100
AcDbLine
10
35
20
50.815
30
0
11
31.500003
21
49.877178
31
0
39
0
210
0
220
0
230
1
0
LINE
5
1F9
100
AcDbEntity
8
SK2
62
256
6
ByLayer
370
-1
48
1
60
0
100
AcDbLine
10
35
20
50.815
30
0
11
31.499997
21
51.752822
31
0
39
0
210
0
220
0
230
1
0
LINE
5
1FA
100
AcDbEntity
8
SK2
62
256
6
ByLayer
370
-1
48
1
60
0
100
AcDbLine
10
31.500003
20
49.877178
30
0
11
31.499997
21
51.752822
31
0
39
0
210
0
220
0
230
1
0
LINE
5
1FB
100
AcDbEntity
8
SK2
62
256
6
ByLayer
370
-1
48
1
60
0
100
AcDbLine
10
0
20
50.815
30
0
11
3.499997
21
51.752822
31
0
39
0
210
0
220
0
230
1
0
LINE
5
1FC
100
AcDbEntity
8
SK2
62
256
6
ByLayer
370
-1
48
1
60
0
100
AcDbLine
10
0
20
50.815
30
0
11
3.500003
21
49.877178
31
0
39
0
210
0
220
0
230
1
0
LINE
5
1FD
100
AcDbEntity
8
SK2
62
256
6
ByLayer
370
-1
48
1
60
0
100
AcDbLine
10
3.499997
20
51.752822
30
0
11
3.500003
21
49.877178
31
0
39
0
210
0
220
0
230
1
0
ENDBLK
5
1FF
100
AcDbEntity
8
0
100
AcDbBlockEnd
0
ENDSEC
0
SECTION
2
ENTITIES
0
ARC
5
A9
100
AcDbEntity
8
1
62
256
6
ByLayer
370
-1
48
1
60
0
100
AcDbCircle
39
0
10
0.4
20
9.291761
30
0
40
0.4
210
0
220
0
230
-1
100
AcDbArc
50
180
51
267.8
0
ARC
5
AA
100
AcDbEntity
8
1
62
256
6
ByLayer
370
-1
48
1
60
0
100
AcDbCircle
39
0
10
0.4
20
-9.291761
30
0
40
0.4
210
0
220
0
230
-1
100
AcDbArc
50
92.2
51
180
0
ARC
5
AB
100
AcDbEntity
8
1
62
256
6
ByLayer
370
-1
48
1
60
0
100
AcDbCircle
39
0
10
20
20
5.7
30
0
40
0.5
210
0
220
0
230
-1
100
AcDbArc
50
180
51
270
0
ARC
5
AC
100
AcDbEntity
8
1
62
256
6
ByLayer
370
-1
48
1
60
0
100
AcDbCircle
39
0
10
20
20
-5.7
30
0
40
0.5
210
0
220
0
230
-1
100
AcDbArc
50
90
51
180
0
ELLIPSE
5
AD
100
AcDbEntity
8
1
62
256
6
ByLayer
370
-1
48
1
60
0
100
AcDbEllipse
10
30.179264
20
11.684075
30
0
11
0.0715220151042659
21
-0.270257682986686
31
0
210
0
220
0
230
-1
40
0.496232
41
-2.92357653371572
42
-1.57325916322764
0
ELLIPSE
5
AE
100
AcDbEntity
8
1
62
256
6
ByLayer
370
-1
48
1
60
0
100
AcDbEllipse
10
30.179264
20
11.684075
30
0
11
0.0715220151043584
21
-0.270257682985963
31
0
210
0
220
0
230
-1
40
0.496232
41
-1.57325916322542
42
-0.222941792734716
0
ELLIPSE
5
AF
100
AcDbEntity
8
1
62
256
6
ByLayer
370
-1
48
1
60
0
100
AcDbEllipse
10
30.450707
20
12.70472
30
0
11
0.195812988234466
21
0.198267121440871
31
0
210
0
220
0
230
-1
40
0.49944
41
1.57577500594316
42
2.68335239727941
0
ELLIPSE
5
B0
100
AcDbEntity
8
1
62
256
6
ByLayer
370
-1
48
1
60
0
100
AcDbEllipse
10
31.072728
20
11.957556
30
0
11
-3.1686689405154E-16
21
-1.725
31
0
210
0
220
0
230
1
40
0.992546
41
0
42
6.28318530717959
0
ELLIPSE
5
B1
100
AcDbEntity
8
1
62
256
6
ByLayer
370
-1
48
1
60
0
100
AcDbEllipse
10
31.070433
20
11.957556
30
0
11
-1.92402233603834E-16
21
1.196425
31
0
210
0
220
0
230
1
40
0.992546
41
-0.785398163397446
42
0.261799387799136
0
ELLIPSE
5
B2
100
AcDbEntity
8
1
62
256
6
ByLayer
370
-1
48
1
60
0
100
AcDbEllipse
10
31.463764
20
10.936838
30
0
11
0.268064489901456
21
0.072731039563079
31
0
210
0
220
0
230
-1
40
0.502705
41
2.27809358772851
42
-3.05570528671421
0
ELLIPSE
5
B3
100
AcDbEntity
8
1
62
256
6
ByLayer
370
-1
48
1
60
0
100
AcDbEllipse
10
31.463745
20
12.978201
30
0
11
0.268064489901324
21
-0.0727310395629461
31
0
210
0
220
0
230
-1
40
0.502705
41
0.217962410859306
42
1.07587798798989
0
ELLIPSE
5
B4
100
AcDbEntity
8
1
62
256
6
ByLayer
370
-1
48
1
60
0
100
AcDbEllipse
10
31.192302
20
11.957556
30
0
11
-1.47458660679136E-16
21
0.91695
31
0
210
0
220
0
230
1
40
0.992546
41
0.785398163397449
42
1.83259571459405
0
ELLIPSE
5
B5
100
AcDbEntity
8
1
62
256
6
ByLayer
370
-1
48
1
60
0
100
AcDbEllipse
10
31.070433
20
11.957556
30
0
11
-1.92402233603834E-16
21
1.196425
31
0
210
0
220
0
230
1
40
0.992546
41
2.35619449019234
42
-2.87979326579065
0
ELLIPSE
5
B6
100
AcDbEntity
8
1
62
256
6
ByLayer
370
-1
48
1
60
0
100
AcDbEllipse
10
30.92084
20
12.978274
30
0
11
0.268064489901457
21
0.072731039563078
31
0
210
0
220
0
230
-1
40
0.502705
41
3.06073837760456
42
-1.24452659727754
0
ELLIPSE
5
B7
100
AcDbEntity
8
1
62
256
6
ByLayer
370
-1
48
1
60
0
100
AcDbEllipse
10
31.070433
20
11.957556
30
0
11
-1.92402233603834E-16
21
1.196425
31
0
210
0
220
0
230
1
40
0.992546
41
-2.87979326579065
42
-1.83259571459405
0
ELLIPSE
5
B8
100
AcDbEntity
8
1
62
256
6
ByLayer
370
-1
48
1
60
0
100
AcDbEllipse
10
31.192302
20
11.957556
30
0
11
-1.68435419420614E-16
21
-0.91695
31
0
210
0
220
0
230
1
40
0.992546
41
2.12412583014276
42
2.81172586736822
0
ELLIPSE
5
B9
100
AcDbEntity
8
1
62
256
6
ByLayer
370
-1
48
1
60
0
100
AcDbEllipse
10
31.070433
20
11.957556
30
0
11
-1.92402233603834E-16
21
1.196425
31
0
210
0
220
0
230
1
40
0.992546
41
-1.83259571459405
42
-0.785398163397446
0
ELLIPSE
5
BA
100
AcDbEntity
8
1
62
256
6
ByLayer
370
-1
48
1
60
0
100
AcDbEllipse
10
30.920859
20
10.93691
30
0
11
0.268064489901779
21
-0.0727310395630027
31
0
210
0
220
0
230
-1
40
0.502705
41
-1.57331287223879
42
-0.222995501749474
0
ELLIPSE
5
BB
100
AcDbEntity
8
1
62
256
6
ByLayer
370
-1
48
1
60
0
100
AcDbEllipse
10
31.192302
20
11.957556
30
0
11
-1.68435419420614E-16
21
-0.91695
31
0
210
0
220
0
230
1
40
0.992546
41
-1.30899693899575
42
-0.261799387799146
0
ELLIPSE
5
BC
100
AcDbEntity
8
1
62
256
6
ByLayer
370
-1
48
1
60
0
100
AcDbEllipse
10
30.179192
20
12.231056
30
0
11
0.071522015104437
21
0.270257682986025
31
0
210
0
220
0
230
-1
40
0.496232
41
3.0606846685895
42
-0.539441657804948
0
ELLIPSE
5
BD
100
AcDbEntity
8
1
62
256
6
ByLayer
370
-1
48
1
60
0
100
AcDbEllipse
10
30.450707
20
12.70472
30
0
11
0.195812988234592
21
0.19826712144104
31
0
210
0
220
0
230
-1
40
0.49944
41
0.225457635453254
42
1.57577500594325
0
ELLIPSE
5
BE
100
AcDbEntity
8
1
62
256
6
ByLayer
370
-1
48
1
60
0
100
AcDbEllipse
10
31.192302
20
11.957556
30
0
11
-1.68435419420614E-16
21
-0.91695
31
0
210
0
220
0
230
1
40
0.992546
41
-0.261799387799146
42
0.51073746577884
0
ELLIPSE
5
BF
100
AcDbEntity
8
1
62
256
6
ByLayer
370
-1
48
1
60
0
100
AcDbEllipse
10
31.192302
20
11.957556
30
0
11
-1.68435419420614E-16
21
-0.91695
31
0
210
0
220
0
230
1
40
0.992546
41
0.944424914007997
42
1.59519220725755
0
ELLIPSE
5
C0
100
AcDbEntity
8
1
62
256
6
ByLayer
370
-1
48
1
60
0
100
AcDbEllipse
10
31.93395
20
12.704773
30
0
11
0.195812988234491
21
-0.198267121441004
31
0
210
0
220
0
230
-1
40
0.49944
41
3.05324315301062
42
-2.9863638726461
0
ELLIPSE
5
C1
100
AcDbEntity
8
1
62
256
6
ByLayer
370
-1
48
1
60
0
100
AcDbEllipse
10
31.070433
20
11.957556
30
0
11
-1.92402233603834E-16
21
1.196425
31
0
210
0
220
0
230
1
40
0.992546
41
0.261799387799136
42
1.30899693899574
0
ELLIPSE
5
C2
100
AcDbEntity
8
1
62
256
6
ByLayer
370
-1
48
1
60
0
100
AcDbEllipse
10
31.192302
20
11.957556
30
0
11
-1.68435419420614E-16
21
-0.91695
31
0
210
0
220
0
230
1
40
0.992546
41
3.04698437627681
42
-2.35619449019235
0
ELLIPSE
5
C3
100
AcDbEntity
8
1
62
256
6
ByLayer
370
-1
48
1
60
0
100
AcDbEllipse
10
31.070433
20
11.957556
30
0
11
-1.92402233603834E-16
21
1.196425
31
0
210
0
220
0
230
1
40
0.992546
41
1.30899693899574
42
2.35619449019234
0
ELLIPSE
5
C4
100
AcDbEntity
8
1
62
256
6
ByLayer
370
-1
48
1
60
0
100
AcDbEllipse
10
30.450654
20
11.210339
30
0
11
0.195812988234489
21
-0.198267121441006
31
0
210
0
220
0
230
-1
40
0.49944
41
0.75108857761159
42
-3.06320051130828
0
ELLIPSE
5
C5
100
AcDbEntity
8
1
62
256
6
ByLayer
370
-1
48
1
60
0
100
AcDbEllipse
10
31.070433
20
11.957556
30
0
11
-2.29613691341696E-16
21
-1.25
31
0
210
0
220
0
230
1
40
0.992546
41
0
42
6.28318530717959
0
ELLIPSE
5
C6
100
AcDbEntity
8
1
62
256
6
ByLayer
370
-1
48
1
60
0
100
AcDbEllipse
10
30.920859
20
10.93691
30
0
11
0.268064489901694
21
-0.072731039563319
31
0
210
0
220
0
230
-1
40
0.502705
41
-2.06571357803342
42
-1.57331287224143
0
ELLIPSE
5
C7
100
AcDbEntity
8
1
62
256
6
ByLayer
370
-1
48
1
60
0
100
AcDbEllipse
10
31.204489
20
11.957556
30
0
11
-3.1686689405154E-16
21
-1.725
31
0
210
0
220
0
230
1
40
0.992546
41
0
42
6.28318530717959
0
ELLIPSE
5
C8
100
AcDbEntity
8
1
62
256
6
ByLayer
370
-1
48
1
60
0
100
AcDbEllipse
10
31.204489
20
11.957556
30
0
11
-3.1686689405154E-16
21
-1.725
31
0
210
0
220
0
230
1
40
0.992546
41
0
42
3.14159259971314
0
ELLIPSE
5
C9
100
AcDbEntity
8
1
62
256
6
ByLayer
370
-1
48
1
60
0
100
AcDbEllipse
10
31.886957
20
-12.429708
30
0
11
-0.597344474424814
21
-1.09803441606998
31
0
210
0
220
0
230
1
40
0.990329
41
0
42
6.28318530717959
0
ELLIPSE
5
CA
100
AcDbEntity
8
1
62
256
6
ByLayer
370
-1
48
1
60
0
100
AcDbEllipse
10
31.923518
20
-12.449597
30
0
11
0.453981800562858
21
0.834506156213185
31
0
210
0
220
0
230
1
40
0.990329
41
0
42
6.28318530717959
0
ELLIPSE
5
CB
100
AcDbEntity
8
1
62
256
6
ByLayer
370
-1
48
1
60
0
100
AcDbEllipse
10
31.368612
20
-12.147722
30
0
11
-1.55553339393509
21
-2.85937055587823
31
0
210
0
220
0
230
1
40
0.990329
41
-0.573101604413755
42
0
0
ELLIPSE
5
CC
100
AcDbEntity
8
1
62
256
6
ByLayer
370
-1
48
1
60
0
100
AcDbEllipse
10
31.368612
20
-12.147722
30
0
11
-1.55553339393509
21
-2.85937055587823
31
0
210
0
220
0
230
1
40
0.990329
41
0
42
2.06496251206318
0
ELLIPSE
5
CD
100
AcDbEntity
8
1
62
256
6
ByLayer
370
-1
48
1
60
0
100
AcDbEllipse
10
31.368612
20
-12.147722
30
0
11
-1.55553339393509
21
-2.85937055587823
31
0
210
0
220
0
230
1
40
0.990329
41
2.06496258341433
42
2.42623584779611
0
ELLIPSE
5
CE
100
AcDbEntity
8
1
62
256
6
ByLayer
370
-1
48
1
60
0
100
AcDbEllipse
10
35
20
0
30
0
11
111.231815217459
21
-13.6556894883652
31
0
210
0
220
0
230
-1
40
0.002027
41
1.64044011233009
42
1.73308645975725
0
ELLIPSE
5
CF
100
AcDbEntity
8
1
62
256
6
ByLayer
370
-1
48
1
60
0
100
AcDbEllipse
10
26.559966
20
-3.292002
30
0
11
5.95610333716472
21
-0.724468138608394
31
0
210
0
220
0
230
-1
40
0.45566
41
1.22417983999299
42
1.57898146994391
0
ELLIPSE
5
D0
100
AcDbEntity
8
1
62
256
6
ByLayer
370
-1
48
1
60
0
100
AcDbEllipse
10
20.794315
20
-2.483642
30
0
11
11.240895294946
21
-4.2836607238032
31
0
210
0
220
0
230
-1
40
0.245577
41
-0.529624914559912
42
-0.130920018078556
0
ELLIPSE
5
D1
100
AcDbEntity
8
1
62
256
6
ByLayer
370
-1
48
1
60
0
100
AcDbEllipse
10
31.368612
20
3.045959
30
0
11
2.37194281941513
21
-0.291278842755449
31
0
210
0
220
0
230
1
40
0.016629
41
-3.11773568515533
42
-2.79048467447888
0
ELLIPSE
5
D2
100
AcDbEntity
8
1
62
256
6
ByLayer
370
-1
48
1
60
0
100
AcDbEllipse
10
28.509475
20
2.55106
30
0
11
0.166776370257457
21
0.985994747614686
31
0
210
0
220
0
230
1
40
0.938862
41
-0.55599273442354
42
-0.0737941519245473
0
ELLIPSE
5
D3
100
AcDbEntity
8
1
62
256
6
ByLayer
370
-1
48
1
60
0
100
AcDbEllipse
10
31.726059
20
-12.272225
30
0
11
-0.501769358516843
21
-0.922348909498784
31
0
210
0
220
0
230
1
40
0.990329
41
-2.32530845977745
42
-1.3823399390753
0
ELLIPSE
5
D4
100
AcDbEntity
8
1
62
256
6
ByLayer
370
-1
48
1
60
0
100
AcDbEllipse
10
31.726059
20
-12.272225
30
0
11
0.955751159079701
21
1.75685506571197
31
0
210
0
220
0
230
1
40
0.990329
41
-1.42069354426024
42
-0.0508647882505205
0
ELLIPSE
5
D5
100
AcDbEntity
8
1
62
256
6
ByLayer
370
-1
48
1
60
0
100
AcDbEllipse
10
35
20
0
30
0
11
111.231818570066
21
1.12415220014744E-13
31
0
210
0
220
0
230
-1
40
0.122785
41
-1.73333526501986
42
-1.64068891751965
0
ELLIPSE
5
D6
100
AcDbEntity
8
1
62
256
6
ByLayer
370
-1
48
1
60
0
100
AcDbEllipse
10
31.726059
20
7.235629
30
0
11
-1.98508816407911
21
0.243772395551707
31
0
210
0
220
0
230
1
40
0.016629
41
2.81365291046713
42
-2.35028215339842
0
ELLIPSE
5
D7
100
AcDbEntity
8
1
62
256
6
ByLayer
370
-1
48
1
60
0
100
AcDbEllipse
10
31.726059
20
7.235629
30
0
11
-1.98508816407911
21
0.243772395551707
31
0
210
0
220
0
230
1
40
0.016629
41
-0.991993197642374
42
0.749652604757067
0
ELLIPSE
5
D8
100
AcDbEntity
8
1
62
256
6
ByLayer
370
-1
48
1
60
0
100
AcDbEllipse
10
25.701477
20
-2.030629
30
0
11
-0.365557473884389
21
-2.97764466202523
31
0
210
0
220
0
230
1
40
0.002042
41
-2.9132912766711
42
-2.58888384513176
0
ELLIPSE
5
D9
100
AcDbEntity
8
1
62
256
6
ByLayer
370
-1
48
1
60
0
100
AcDbEllipse
10
25.701477
20
8.957556
30
0
11
-5.51072859220072E-16
21
-3.00000000000001
31
0
210
0
220
0
230
1
40
0.121869
41
1.33625534992925
42
1.5707963267949
0
ELLIPSE
5
DA
100
AcDbEntity
8
1
62
256
6
ByLayer
370
-1
48
1
60
0
100
AcDbEllipse
10
29.435399
20
10.492587
30
0
11
1.2961295569856
21
1.60582631579957
31
0
210
0
220
0
230
-1
40
0.965155
41
-3.08536074300473
42
-2.61842889493801
0
ELLIPSE
5
DB
100
AcDbEntity
8
1
62
256
6
ByLayer
370
-1
48
1
60
0
100
AcDbEllipse
10
25.504407
20
-3.102812
30
0
11
8.67494571419136
21
-1.06492069556334
31
0
210
0
220
0
230
-1
40
0.457599
41
0.656913641122906
42
0.726794709025132
0
ELLIPSE
5
DC
100
AcDbEntity
8
1
62
256
6
ByLayer
370
-1
48
1
60
0
100
AcDbEllipse
10
26.54858
20
-3.243216
30
0
11
-0.486874396213079
21
-3.97025859640303
31
0
210
0
220
0
230
1
40
0.010152
41
-2.76294233418573
42
-0.802045728775332
0
ELLIPSE
5
DD
100
AcDbEntity
8
1
62
256
6
ByLayer
370
-1
48
1
60
0
100
AcDbEllipse
10
26.9935
20
0.297947
30
0
11
1.03438179436383
21
8.42081608318431
31
0
210
0
220
0
230
-1
40
0.707203
41
2.79247875742079
42
3.05811452120781
0
ELLIPSE
5
DE
100
AcDbEntity
8
1
62
256
6
ByLayer
370
-1
48
1
60
0
100
AcDbEllipse
10
28.333467
20
12.884948
30
0
11
-1.88101996571625
21
0.679532110041057
31
0
210
0
220
0
230
1
40
0.041682
41
-0.974843094359117
42
-0.871688697732849
0
ELLIPSE
5
DF
100
AcDbEntity
8
1
62
256
6
ByLayer
370
-1
48
1
60
0
100
AcDbEllipse
10
31.029815
20
11.957556
30
0
11
-7.6517608658494E-16
21
-4.16556217811864
31
0
210
0
220
0
230
1
40
0.992546
41
-1.91986217719376
42
-1.00560157464777
0
ELLIPSE
5
E0
100
AcDbEntity
8
1
62
256
6
ByLayer
370
-1
48
1
60
0
100
AcDbEllipse
10
31.782941
20
-1.146042
30
0
11
-0.255706508887705
21
-1.98358619205531
31
0
210
0
220
0
230
1
40
0.340053
41
2.21758500314493
42
2.26000276049171
0
ELLIPSE
5
E1
100
AcDbEntity
8
1
62
256
6
ByLayer
370
-1
48
1
60
0
100
AcDbEllipse
10
26.651054
20
-3.682286
30
0
11
21.8368548793056
21
-2.6745346273679
31
0
210
0
220
0
230
-1
40
0.107167
41
1.57919174877039
42
2.2361110811759
0
ELLIPSE
5
E2
100
AcDbEntity
8
1
62
256
6
ByLayer
370
-1
48
1
60
0
100
AcDbEllipse
10
35
20
0
30
0
11
111.231760730731
21
0.926173655387575
31
0
210
0
220
0
230
-1
40
0.122502
41
1.64170893253764
42
1.73435528001742
0
ELLIPSE
5
E3
100
AcDbEntity
8
1
62
256
6
ByLayer
370
-1
48
1
60
0
100
AcDbEllipse
10
27.238908
20
-3.330823
30
0
11
-0.521339136048553
21
-3.96588016778421
31
0
210
0
220
0
230
1
40
0.455782
41
0.862705261127482
42
2.14071353709533
0
ELLIPSE
5
E4
100
AcDbEntity
8
1
62
256
6
ByLayer
370
-1
48
1
60
0
100
AcDbEllipse
10
31.727301
20
9.389165
30
0
11
1.56311561305189
21
-1.55561630596949
31
0
210
0
220
0
230
-1
40
0.078205
41
-0.821452092115904
42
-0.681054241927933
0
ELLIPSE
5
E5
100
AcDbEntity
8
1
62
256
6
ByLayer
370
-1
48
1
60
0
100
AcDbEllipse
10
26.067085
20
22.957556
30
0
11
-2.57167334302699E-15
21
-14
31
0
210
0
220
0
230
1
40
0.992546
41
-0.802862622286608
42
-1.63629462184863E-14
0
ELLIPSE
5
E6
100
AcDbEntity
8
1
62
256
6
ByLayer
370
-1
48
1
60
0
100
AcDbEllipse
10
31.029815
20
11.957556
30
0
11
-7.14823984299356E-16
21
-3.89144904710627
31
0
210
0
220
0
230
1
40
0.992546
41
-1.57079640319608
42
-0.785398343825744
0
ELLIPSE
5
E7
100
AcDbEntity
8
1
62
256
6
ByLayer
370
-1
48
1
60
0
100
AcDbEllipse
10
31.029815
20
11.957556
30
0
11
-7.14823984299356E-16
21
-3.89144904710627
31
0
210
0
220
0
230
1
40
0.992546
41
0
42
6.28318530717959
0
ELLIPSE
5
E8
100
AcDbEntity
8
1
62
256
6
ByLayer
370
-1
48
1
60
0
100
AcDbEllipse
10
31.029815
20
11.957556
30
0
11
-7.14823984299356E-16
21
-3.89144904710627
31
0
210
0
220
0
230
1
40
0.992546
41
-0.785398085892556
42
-0.305912460561579
0
ELLIPSE
5
E9
100
AcDbEntity
8
1
62
256
6
ByLayer
370
-1
48
1
60
0
100
AcDbEllipse
10
31.029815
20
11.957556
30
0
11
-7.14823984299356E-16
21
-3.89144904710627
31
0
210
0
220
0
230
1
40
0.992546
41
0.315042953175842
42
-1.5707961462224
0
ELLIPSE
5
EA
100
AcDbEntity
8
1
62
256
6
ByLayer
370
-1
48
1
60
0
100
AcDbEllipse
10
31.368612
20
3.045959
30
0
11
3.23083147720551
21
-0.396751914133556
31
0
210
0
220
0
230
1
40
0.016629
41
3.13719687196427
42
-1.64085264816952E-14
0
ELLIPSE
5
EB
100
AcDbEntity
8
1
62
256
6
ByLayer
370
-1
48
1
60
0
100
AcDbEllipse
10
31.368612
20
3.045959
30
0
11
3.23083147720551
21
-0.396751914133556
31
0
210
0
220
0
230
1
40
0.016629
41
2.42297271120193
42
-3.13619356005451
0
ELLIPSE
5
EC
100
AcDbEntity
8
1
62
256
6
ByLayer
370
-1
48
1
60
0
100
AcDbEllipse
10
31.368612
20
3.045959
30
0
11
3.23083147720551
21
-0.396751914133556
31
0
210
0
220
0
230
1
40
0.016629
41
0
42
0.355215678210507
0
ELLIPSE
5
ED
100
AcDbEntity
8
1
62
256
6
ByLayer
370
-1
48
1
60
0
100
AcDbEllipse
10
31.029815
20
0.111849
30
0
11
3.97011050917646
21
0.488080469724659
31
0
210
0
220
0
230
1
40
0.049697
41
-0.235694965996646
42
-4.95665198278984E-15
0
ELLIPSE
5
EE
100
AcDbEntity
8
1
62
256
6
ByLayer
370
-1
48
1
60
0
100
AcDbEllipse
10
31.029815
20
0.111849
30
0
11
3.97011050917646
21
0.488080469724659
31
0
210
0
220
0
230
1
40
0.049697
41
0
42
0.237311584651061
0
ELLIPSE
5
EF
100
AcDbEntity
8
1
62
256
6
ByLayer
370
-1
48
1
60
0
100
AcDbEllipse
10
31.029815
20
-11.963412
30
0
11
1.9115023181594
21
3.51371013142394
31
0
210
0
220
0
230
1
40
0.990329
41
2.50428475420997
42
-1.87018660089788
0
ELLIPSE
5
F0
100
AcDbEntity
8
1
62
256
6
ByLayer
370
-1
48
1
60
0
100
AcDbEllipse
10
31.029815
20
-11.963412
30
0
11
1.9115023181594
21
3.51371013142394
31
0
210
0
220
0
230
1
40
0.990329
41
0
42
6.28318530717959
0
ELLIPSE
5
F1
100
AcDbEntity
8
1
62
256
6
ByLayer
370
-1
48
1
60
0
100
AcDbEllipse
10
31.029815
20
-11.963412
30
0
11
1.9115023181594
21
3.51371013142394
31
0
210
0
220
0
230
1
40
0.990329
41
-1.87018685110743
42
-0.511448041611822
0
ELLIPSE
5
F2
100
AcDbEntity
8
1
62
256
6
ByLayer
370
-1
48
1
60
0
100
AcDbEllipse
10
31.886957
20
7.266948
30
0
11
1.24068010254944
21
-0.152357747219819
31
0
210
0
220
0
230
1
40
0.016629
41
3.12500947589351
42
0
0
ELLIPSE
5
F3
100
AcDbEntity
8
1
62
256
6
ByLayer
370
-1
48
1
60
0
100
AcDbEllipse
10
31.923518
20
7.56467
30
0
11
-0.942916877937578
21
0.115791887887061
31
0
210
0
220
0
230
1
40
0.016629
41
0
42
6.28318530717959
0
ELLIPSE
5
F4
100
AcDbEntity
8
1
62
256
6
ByLayer
370
-1
48
1
60
0
100
AcDbEllipse
10
31.368612
20
-2.643968
30
0
11
-3.23077791534314
21
-0.39718783617029
31
0
210
0
220
0
230
1
40
0.049697
41
2.19334519760133
42
3.12826213282922
0
ELLIPSE
5
F5
100
AcDbEntity
8
1
62
256
6
ByLayer
370
-1
48
1
60
0
100
AcDbEllipse
10
31.029815
20
0.111849
30
0
11
-3.86237068946033
21
-0.474835069705298
31
0
210
0
220
0
230
1
40
0.049697
41
0
42
6.28318530717959
0
ELLIPSE
5
F6
100
AcDbEntity
8
1
62
256
6
ByLayer
370
-1
48
1
60
0
100
AcDbEllipse
10
31.029815
20
0.111849
30
0
11
-3.86237068946033
21
-0.474835069705298
31
0
210
0
220
0
230
1
40
0.049697
41
3.10469980268427
42
-3.10289102323569
0
ELLIPSE
5
F7
100
AcDbEntity
8
1
62
256
6
ByLayer
370
-1
48
1
60
0
100
AcDbEllipse
10
31.029815
20
11.957556
30
0
11
-6.4325714893565E-16
21
4
31
0
210
0
220
0
230
1
40
0.992546
41
-2.75183880107321
42
-1.57079626382549
0
ELLIPSE
5
F8
100
AcDbEntity
8
1
62
256
6
ByLayer
370
-1
48
1
60
0
100
AcDbEllipse
10
31.029815
20
11.957556
30
0
11
-6.4325714893565E-16
21
4
31
0
210
0
220
0
230
1
40
0.992546
41
-0.785398089380824
42
-4.47424310661735E-16
0
ELLIPSE
5
F9
100
AcDbEntity
8
1
62
256
6
ByLayer
370
-1
48
1
60
0
100
AcDbEllipse
10
31.029815
20
11.957556
30
0
11
-6.4325714893565E-16
21
4
31
0
210
0
220
0
230
1
40
0.992546
41
0
42
2.75606025649534
0
ELLIPSE
5
FA
100
AcDbEntity
8
1
62
256
6
ByLayer
370
-1
48
1
60
0
100
AcDbEllipse
10
31.029815
20
11.957556
30
0
11
-6.4325714893565E-16
21
4
31
0
210
0
220
0
230
1
40
0.992546
41
-1.57079626382548
42
-0.785398089380832
0
ELLIPSE
5
FB
100
AcDbEntity
8
1
62
256
6
ByLayer
370
-1
48
1
60
0
100
AcDbEllipse
10
31.078563
20
11.957556
30
0
11
-3.88101975553247E-16
21
2.41335507080122
31
0
210
0
220
0
230
1
40
0.992546
41
0
42
6.28318530717959
0
ELLIPSE
5
FC
100
AcDbEntity
8
1
62
256
6
ByLayer
370
-1
48
1
60
0
100
AcDbEllipse
10
31.030918
20
11.957556
30
0
11
-6.17550345982199E-16
21
3.84014602560742
31
0
210
0
220
0
230
1
40
0.992546
41
-2.87063040673923
42
-1.57079654443739
0
ELLIPSE
5
FD
100
AcDbEntity
8
1
62
256
6
ByLayer
370
-1
48
1
60
0
100
AcDbEllipse
10
31.030918
20
11.957556
30
0
11
-6.17550345982199E-16
21
3.84014602560742
31
0
210
0
220
0
230
1
40
0.992546
41
-0.785398259516143
42
-9.32098535166435E-16
0
ELLIPSE
5
FE
100
AcDbEntity
8
1
62
256
6
ByLayer
370
-1
48
1
60
0
100
AcDbEllipse
10
31.030918
20
11.957556
30
0
11
-6.17550345982199E-16
21
3.84014602560742
31
0
210
0
220
0
230
1
40
0.992546
41
0
42
2.87053207395661
0
ELLIPSE
5
FF
100
AcDbEntity
8
1
62
256
6
ByLayer
370
-1
48
1
60
0
100
AcDbEllipse
10
31.030918
20
11.957556
30
0
11
-6.17550345982199E-16
21
3.84014602560742
31
0
210
0
220
0
230
1
40
0.992546
41
-1.57079628403062
42
-0.785397998137073
0
ELLIPSE
5
100
100
AcDbEntity
8
1
62
256
6
ByLayer
370
-1
48
1
60
0
100
AcDbEllipse
10
31.029815
20
0.287068
30
0
11
-3.97017632815823
21
0.487544791103415
31
0
210
0
220
0
230
1
40
0.016629
41
0.298569137986624
42
2.35415226807409
0
ELLIPSE
5
101
100
AcDbEntity
8
1
62
256
6
ByLayer
370
-1
48
1
60
0
100
AcDbEllipse
10
31.029815
20
0.287068
30
0
11
-3.97017632815823
21
0.487544791103415
31
0
210
0
220
0
230
1
40
0.016629
41
0
42
6.28318530717959
0
ELLIPSE
5
102
100
AcDbEntity
8
1
62
256
6
ByLayer
370
-1
48
1
60
0
100
AcDbEllipse
10
31.029815
20
0.287068
30
0
11
-3.97017632815823
21
0.487544791103415
31
0
210
0
220
0
230
1
40
0.016629
41
2.35415226807409
42
-3.13705762142663
0
ELLIPSE
5
103
100
AcDbEntity
8
1
62
256
6
ByLayer
370
-1
48
1
60
0
100
AcDbEllipse
10
31.078563
20
11.957556
30
0
11
-3.10522972900574E-16
21
1.93094144955481
31
0
210
0
220
0
230
1
40
0.992546
41
0
42
6.28318530717959
0
ELLIPSE
5
104
100
AcDbEntity
8
1
62
256
6
ByLayer
370
-1
48
1
60
0
100
AcDbEllipse
10
31.159534
20
11.957556
30
0
11
-3.46162265790337E-16
21
-1.88448184300126
31
0
210
0
220
0
230
1
40
0.992546
41
-1.57079618475853
42
-0.785398173224606
0
ELLIPSE
5
105
100
AcDbEntity
8
1
62
256
6
ByLayer
370
-1
48
1
60
0
100
AcDbEllipse
10
31.159534
20
11.957556
30
0
11
-3.46162265790337E-16
21
-1.88448184300126
31
0
210
0
220
0
230
1
40
0.992546
41
0
42
6.28318530717959
0
ELLIPSE
5
106
100
AcDbEntity
8
1
62
256
6
ByLayer
370
-1
48
1
60
0
100
AcDbEllipse
10
31.159534
20
11.957556
30
0
11
-3.46162265790337E-16
21
-1.88448184300126
31
0
210
0
220
0
230
1
40
0.992546
41
-0.785398173224604
42
0
0
ELLIPSE
5
107
100
AcDbEntity
8
1
62
256
6
ByLayer
370
-1
48
1
60
0
100
AcDbEllipse
10
31.159534
20
11.957556
30
0
11
-3.46162265790337E-16
21
-1.88448184300126
31
0
210
0
220
0
230
1
40
0.992546
41
0
42
0.220893427196665
0
ELLIPSE
5
108
100
AcDbEntity
8
1
62
256
6
ByLayer
370
-1
48
1
60
0
100
AcDbEllipse
10
31.159534
20
11.957556
30
0
11
-3.46162265790337E-16
21
-1.88448184300126
31
0
210
0
220
0
230
1
40
0.992546
41
0.220893464960185
42
0.588263649795149
0
ELLIPSE
5
109
100
AcDbEntity
8
1
62
256
6
ByLayer
370
-1
48
1
60
0
100
AcDbEllipse
10
31.159534
20
11.957556
30
0
11
-3.46162265790337E-16
21
-1.88448184300126
31
0
210
0
220
0
230
1
40
0.992546
41
2.55332932702846
42
2.92619736125308
0
ELLIPSE
5
10A
100
AcDbEntity
8
1
62
256
6
ByLayer
370
-1
48
1
60
0
100
AcDbEllipse
10
31.159534
20
11.957556
30
0
11
-3.46162265790337E-16
21
-1.88448184300126
31
0
210
0
220
0
230
1
40
0.992546
41
2.92619736125307
42
-1.57079618475853
0
ELLIPSE
5
10B
100
AcDbEntity
8
1
62
256
6
ByLayer
370
-1
48
1
60
0
100
AcDbEllipse
10
31.063864
20
11.957556
30
0
11
-4.98105426690363E-16
21
3.09739535745256
31
0
210
0
220
0
230
1
40
0.992546
41
0
42
6.28318530717959
0
ELLIPSE
5
10C
100
AcDbEntity
8
1
62
256
6
ByLayer
370
-1
48
1
60
0
100
AcDbEllipse
10
31.188524
20
11.957556
30
0
11
-3.31516219679652E-16
21
-1.80474984822612
31
0
210
0
220
0
230
1
40
0.992546
41
-0.785397961345998
42
-0.776464027588791
0
ELLIPSE
5
10D
100
AcDbEntity
8
1
62
256
6
ByLayer
370
-1
48
1
60
0
100
AcDbEllipse
10
31.188524
20
11.957556
30
0
11
-3.31516219679652E-16
21
-1.80474984822612
31
0
210
0
220
0
230
1
40
0.992546
41
-0.776464027588797
42
0
0
ELLIPSE
5
10E
100
AcDbEntity
8
1
62
256
6
ByLayer
370
-1
48
1
60
0
100
AcDbEllipse
10
31.188524
20
11.957556
30
0
11
-3.31516219679652E-16
21
-1.80474984822612
31
0
210
0
220
0
230
1
40
0.992546
41
0
42
-2.36512848889883
0
ELLIPSE
5
10F
100
AcDbEntity
8
1
62
256
6
ByLayer
370
-1
48
1
60
0
100
AcDbEllipse
10
31.90105
20
-12.367423
30
0
11
1.8723549317696
21
-0.751422167342572
31
0
210
0
220
0
230
-1
40
0.991201
41
2.56133019451874
42
-0.736664063348786
0
POINT
5
41
100
AcDbEntity
8
81
62
256
6
ByLayer
370
-1
48
1
60
0
100
AcDbPoint
10
35
20
15.965
30
0
39
0
210
0
220
0
230
1
50
360
0
POINT
5
43
100
AcDbEntity
8
80
62
256
6
ByLayer
370
-1
48
1
60
0
100
AcDbPoint
10
0
20
0
30
0
39
0
210
0
220
0
230
1
50
360
0
SPLINE
5
110
100
AcDbEntity
8
1
62
256
6
ByLayer
370
-1
48
1
60
0
100
AcDbSpline
70
4
71
1
72
4
73
2
40
0
40
0
40
1
40
1
41
1
10
28.6042642072488
20
3.52291672841838
30
0
41
1
10
28.6812499603897
20
3.52680317572668
30
0
0
SPLINE
5
111
100
AcDbEntity
8
1
62
256
6
ByLayer
370
-1
48
1
60
0
100
AcDbSpline
70
4
71
3
72
8
73
4
40
0
40
0
40
0
40
0
40
1
40
1
40
1
40
1
41
1
10
27.6475723300568
20
2.2249669856545
30
0
41
1
10
27.6446882970602
20
2.23408897166922
30
0
41
1
10
27.6419346933235
20
2.2432685139587
30
0
41
1
10
27.6393125813997
20
2.2525111403142
30
0
0
SPLINE
5
112
100
AcDbEntity
8
1
62
256
6
ByLayer
370
-1
48
1
60
0
100
AcDbSpline
70
4
71
3
72
11
73
7
40
0
40
0
40
0
40
0
40
0.114438292745135
40
0.379278164755018
40
0.694867847549323
40
1
40
1
40
1
40
1
41
1
10
28.7355830425448
20
3.50354487053426
30
0
41
1
10
28.7455501436315
20
3.49920954941155
30
0
41
1
10
28.7794738815758
20
3.48379809477672
30
0
41
1
10
28.8440708737844
20
3.44972741479575
30
0
41
1
10
28.9251456268189
20
3.39688355565068
30
0
41
1
10
28.9777547037993
20
3.35328781140592
30
0
41
1
10
29.0028638850536
20
3.33023166672189
30
0
0
SPLINE
5
113
100
AcDbEntity
8
1
62
256
6
ByLayer
370
-1
48
1
60
0
100
AcDbSpline
70
4
71
3
72
18
73
14
40
0
40
0
40
0
40
0
40
0.124999999999996
40
0.124999999999996
40
0.249999999999993
40
0.249999999999993
40
0.499999999999995
40
0.499999999999995
40
0.749999999999998
40
0.749999999999998
40
0.874999999999999
40
0.874999999999999
40
1
40
1
40
1
40
1
41
1
10
32.1337663162054
20
11.959500215984
30
0
41
1
10
32.1123794920015
20
11.9632426304061
30
0
41
1
10
32.0929637216578
20
11.9759324903541
30
0
41
1
10
32.058341514275
20
12.0083747422361
30
0
41
1
10
32.0432539281073
20
12.0281472643933
30
0
41
1
10
32.0030224230978
20
12.0929108182469
30
0
41
1
10
31.9830101349202
20
12.1429494693449
30
0
41
1
10
31.9553821423485
20
12.246844432053
30
0
41
1
10
31.9477785640669
20
12.3007303946887
30
0
41
1
10
31.9501165909443
20
12.3781979877451
30
0
41
1
10
31.9532426596204
20
12.4035912778061
30
0
41
1
10
31.9667464020602
20
12.4503192672704
30
0
41
1
10
31.9770935696593
20
12.4719211747685
30
0
41
1
10
31.9935408093793
20
12.4867590392909
30
0
0
SPLINE
5
114
100
AcDbEntity
8
1
62
256
6
ByLayer
370
-1
48
1
60
0
100
AcDbSpline
70
4
71
3
72
16
73
12
40
0
40
0
40
0
40
0
40
0.124999999999995
40
0.124999999999995
40
0.249999999999989
40
0.249999999999989
40
0.499999999999993
40
0.499999999999993
40
0.749999999999996
40
0.749999999999996
40
1
40
1
40
1
40
1
41
1
10
32.0076150844689
20
12.4994564434948
30
0
41
1
10
32.0173308938824
20
12.5071019591527
30
0
41
1
10
32.0247397836066
20
12.5176649770399
30
0
41
1
10
32.0338376455201
20
12.5426970289078
30
0
41
1
10
32.0354911748868
20
12.5569233318642
30
0
41
1
10
32.0341018437181
20
12.599729455031
30
0
41
1
10
32.0252902266653
20
12.6291359266427
30
0
41
1
10
32.0012040825234
20
12.6842311004199
30
0
41
1
10
31.9857608280007
20
12.7102525397627
30
0
41
1
10
31.9508301914658
20
12.7592576231058
30
0
41
1
10
31.9312698431159
20
12.7822544386834
30
0
41
1
10
31.9101269148833
20
12.8035561466166
30
0
0
SPLINE
5
115
100
AcDbEntity
8
1
62
256
6
ByLayer
370
-1
48
1
60
0
100
AcDbSpline
70
4
71
3
72
16
73
12
40
0
40
0
40
0
40
0
40
0.25
40
0.25
40
0.500000000000001
40
0.500000000000001
40
0.750000000000001
40
0.750000000000001
40
0.875
40
0.875
40
1
40
1
40
1
40
1
41
1
10
30.2307383683829
20
11.1115556852544
30
0
41
1
10
30.2096017273449
20
11.1328510587773
30
0
41
1
10
30.1902345301108
20
11.1558194791224
30
0
41
1
10
30.1560398122193
20
11.2048883115321
30
0
41
1
10
30.1411925565244
20
11.2309419941283
30
0
41
1
10
30.1191318592162
20
11.2858684310681
30
0
41
1
10
30.1116421275708
20
11.3153347169715
30
0
41
1
10
30.1135021317121
20
11.358186426685
30
0
41
1
10
30.116439900687
20
11.3722778142284
30
0
41
1
10
30.1285796109116
20
11.3973064951486
30
0
41
1
10
30.1378417055368
20
11.4080074012866
30
0
41
1
10
30.1494055848442
20
11.4156553883762
30
0
0
SPLINE
5
116
100
AcDbEntity
8
1
62
256
6
ByLayer
370
-1
48
1
60
0
100
AcDbSpline
70
4
71
3
72
8
73
4
40
0
40
0
40
0
40
0
40
1
40
1
40
1
40
1
41
1
10
31.6142080091701
20
11.0202152105868
30
0
41
1
10
31.6123081604426
20
11.0264780781929
30
0
41
1
10
31.6104080924626
20
11.0327413073718
30
0
41
1
10
31.6085077926824
20
11.0390049187112
30
0
0
SPLINE
5
117
100
AcDbEntity
8
1
62
256
6
ByLayer
370
-1
48
1
60
0
100
AcDbSpline
70
4
71
3
72
18
73
14
40
0
40
0
40
0
40
0
40
0.12500000000001
40
0.12500000000001
40
0.25000000000002
40
0.25000000000002
40
0.50000000000001
40
0.50000000000001
40
0.75
40
0.75
40
0.875
40
0.875
40
1
40
1
40
1
40
1
41
1
10
31.6051652679902
20
12.8780512132083
30
0
41
1
10
31.5920706181207
20
12.8598384719116
30
0
41
1
10
31.5721949384841
20
12.8479511804495
30
0
41
1
10
31.5282748771067
20
12.8317342249868
30
0
41
1
10
31.5042676624091
20
12.8275269737974
30
0
41
1
10
31.429773272106
20
12.8225541491147
30
0
41
1
10
31.3771948250484
20
12.8293453408348
30
0
41
1
10
31.2740756262317
20
12.8571869271272
30
0
41
1
10
31.2235144345321
20
12.8782645003321
30
0
41
1
10
31.1568080755223
20
12.9212833795028
30
0
41
1
10
31.136008680122
20
12.9376414168805
30
0
41
1
10
31.1013201081398
20
12.9750118212038
30
0
41
1
10
31.0871828231867
20
12.9961367085715
30
0
41
1
10
31.081836551998
20
13.0193297891156
30
0
0
SPLINE
5
118
100
AcDbEntity
8
1
62
256
6
ByLayer
370
-1
48
1
60
0
100
AcDbSpline
70
4
71
3
72
16
73
12
40
0
40
0
40
0
40
0
40
0.249999999999996
40
0.249999999999996
40
0.499999999999993
40
0.499999999999993
40
0.749999999999989
40
0.749999999999989
40
0.874999999999994
40
0.874999999999994
40
1
40
1
40
1
40
1
41
1
10
29.923388932961
20
12.2672134919723
30
0
41
1
10
29.9156539536622
20
12.2381293675806
30
0
41
1
10
29.9102884743459
20
12.2084009446703
30
0
41
1
10
29.9050850315323
20
12.1485764840707
30
0
41
1
10
29.9051817148464
20
12.118403770368
30
0
41
1
10
29.913484929783
20
12.0590831355711
30
0
41
1
10
29.9215757030177
20
12.0297072111502
30
0
41
1
10
29.9448904512949
20
11.9923807750995
30
0
41
1
10
29.9543842509723
20
11.981488476948
30
0
41
1
10
29.9776613746494
20
11.9650666575047
30
0
41
1
10
29.9910330187223
20
11.9600757537507
30
0
41
1
10
30.0049513769416
20
11.9588144569678
30
0
0
SPLINE
5
119
100
AcDbEntity
8
1
62
256
6
ByLayer
370
-1
48
1
60
0
100
AcDbSpline
70
4
71
3
72
16
73
12
40
0
40
0
40
0
40
0
40
0.125000000000003
40
0.125000000000003
40
0.250000000000006
40
0.250000000000006
40
0.500000000000004
40
0.500000000000004
40
0.750000000000002
40
0.750000000000002
40
1
40
1
40
1
40
1
41
1
10
31.0797594947148
20
10.8759347178283
30
0
41
1
10
31.0800901975047
20
10.8628300163919
30
0
41
1
10
31.0841452768736
20
10.8503161337431
30
0
41
1
10
31.0987877434467
20
10.8285093011635
30
0
41
1
10
31.1091992010165
20
10.8193773630356
30
0
41
1
10
31.1442490716186
20
10.7977674159022
30
0
41
1
10
31.1729111453029
20
10.790158868144
30
0
41
1
10
31.2308402973581
20
10.7827708496047
30
0
41
1
10
31.2604810064901
20
10.7829741238524
30
0
41
1
10
31.3194839765632
20
10.7886089108785
30
0
41
1
10
31.3489002999789
20
10.79410114297
30
0
41
1
10
31.377782077055
20
10.8018981092176
30
0
0
SPLINE
5
11A
100
AcDbEntity
8
1
62
256
6
ByLayer
370
-1
48
1
60
0
100
AcDbSpline
70
4
71
3
72
16
73
12
40
0
40
0
40
0
40
0
40
0.250000000000006
40
0.250000000000006
40
0.500000000000013
40
0.500000000000013
40
0.750000000000019
40
0.750000000000019
40
0.875000000000009
40
0.875000000000009
40
1
40
1
40
1
40
1
41
1
10
32.2174763503052
20
11.6478983398987
30
0
41
1
10
32.2252113296041
20
11.6769824642904
30
0
41
1
10
32.230751722494
20
11.7067108872006
30
0
41
1
10
32.2367356584805
20
11.7665353478004
30
0
41
1
10
32.2372367031553
20
11.796708061503
30
0
41
1
10
32.2308945532604
20
11.8560286962999
30
0
41
1
10
32.2241453113897
20
11.8854046207208
30
0
41
1
10
32.2041171009513
20
11.9227310567715
30
0
41
1
10
32.1959121810572
20
11.933623354923
30
0
41
1
10
32.1757468615188
20
11.9500451743663
30
0
41
1
10
32.1641447514232
20
11.9550360781203
30
0
41
1
10
32.1520692923714
20
11.9562973749032
30
0
0
SPLINE
5
11B
100
AcDbEntity
8
1
62
256
6
ByLayer
370
-1
48
1
60
0
100
AcDbSpline
70
4
71
3
72
8
73
4
40
0
40
0
40
0
40
0
40
1
40
1
40
1
40
1
41
1
10
31.081836551998
20
13.0193297891156
30
0
41
1
10
31.0803114485752
20
13.0259459605136
30
0
41
1
10
31.0787863223457
20
13.0325617282404
30
0
41
1
10
31.0772611745982
20
13.0391771140427
30
0
0
SPLINE
5
11C
100
AcDbEntity
8
1
62
256
6
ByLayer
370
-1
48
1
60
0
100
AcDbSpline
70
4
71
3
72
8
73
4
40
0
40
0
40
0
40
0
40
1
40
1
40
1
40
1
41
1
10
30.0049513769415
20
11.9588144569678
30
0
41
1
10
30.01198300688
20
11.9577469060766
30
0
41
1
10
30.0190149332049
20
11.9566792935528
30
0
41
1
10
30.0260471727291
20
11.955611615887
30
0
0
SPLINE
5
11D
100
AcDbEntity
8
1
62
256
6
ByLayer
370
-1
48
1
60
0
100
AcDbSpline
70
4
71
3
72
16
73
12
40
0
40
0
40
0
40
0
40
0.125000000000003
40
0.125000000000003
40
0.250000000000005
40
0.250000000000005
40
0.500000000000003
40
0.500000000000003
40
0.750000000000002
40
0.750000000000002
40
1
40
1
40
1
40
1
41
1
10
31.0772611745982
20
13.0391771140427
30
0
41
1
10
31.0750861387591
20
13.0522818154791
30
0
41
1
10
31.0692708847579
20
13.0647956981279
30
0
41
1
10
31.0515278743931
20
13.0866025307074
30
0
41
1
10
31.039796038737
20
13.0957344688354
30
0
41
1
10
31.0014932853979
20
13.1173444159688
30
0
41
1
10
30.9714703303936
20
13.124952963727
30
0
41
1
10
30.9115783936012
20
13.1323409822664
30
0
41
1
10
30.881340122503
20
13.1321377080186
30
0
41
1
10
30.8215562769762
20
13.1265029209925
30
0
41
1
10
30.7919649832873
20
13.121010688901
30
0
41
1
10
30.7630832062112
20
13.1132137226534
30
0
0
SPLINE
5
11E
100
AcDbEntity
8
1
62
256
6
ByLayer
370
-1
48
1
60
0
100
AcDbSpline
70
4
71
3
72
8
73
4
40
0
40
0
40
0
40
0
40
1
40
1
40
1
40
1
41
1
10
32.1520692923714
20
11.9562973749032
30
0
41
1
10
32.1459687708705
20
11.9573649257944
30
0
41
1
10
32.1398677876007
20
11.9584325383182
30
0
41
1
10
32.1337663162054
20
11.959500215984
30
0
0
SPLINE
5
11F
100
AcDbEntity
8
1
62
256
6
ByLayer
370
-1
48
1
60
0
100
AcDbSpline
70
4
71
3
72
16
73
12
40
0
40
0
40
0
40
0
40
0.25
40
0.25
40
0.5
40
0.5
40
0.75
40
0.75
40
0.875
40
0.875
40
1
40
1
40
1
40
1
41
1
10
31.377782077055
20
10.8018981092176
30
0
41
1
10
31.4066494127939
20
10.8096911768609
30
0
41
1
10
31.4350170035163
20
10.8197975428671
30
0
41
1
10
31.4896274172735
20
10.8448291163699
30
0
41
1
10
31.5159629366094
20
10.8597390646935
30
0
41
1
10
31.5642723767563
20
10.8957886356147
30
0
41
1
10
31.5864838073554
20
10.9169507703624
30
0
41
1
10
31.6093760280162
20
10.9545229848414
30
0
41
1
10
31.6149584827168
20
10.9676904578767
30
0
41
1
10
31.6197694803056
20
10.9948537656128
30
0
41
1
10
31.6187008407992
20
11.0082443811565
30
0
41
1
10
31.6142080091701
20
11.0202152105868
30
0
0
SPLINE
5
120
100
AcDbEntity
8
1
62
256
6
ByLayer
370
-1
48
1
60
0
100
AcDbSpline
70
4
71
3
72
16
73
12
40
0
40
0
40
0
40
0
40
0.25
40
0.25
40
0.5
40
0.5
40
0.75
40
0.75
40
0.875
40
0.875
40
1
40
1
40
1
40
1
41
1
10
31.9101269148833
20
12.8035561466166
30
0
41
1
10
31.8889945584434
20
12.824847203365
30
0
41
1
10
31.8662548173977
20
12.8444692602691
30
0
41
1
10
31.8180185862133
20
12.8792621473659
30
0
41
1
10
31.7924829755467
20
12.894524912745
30
0
41
1
10
31.7388119180258
20
12.9177959766207
30
0
41
1
10
31.7105220112379
20
12.9260097662938
30
0
41
1
10
31.6692448490582
20
12.9257639878656
30
0
41
1
10
31.6561019143553
20
12.9234888129818
30
0
41
1
10
31.6326814992972
20
12.912747324689
30
0
41
1
10
31.6230327956967
20
12.9043476128993
30
0
41
1
10
31.6163716178579
20
12.8936380802519
30
0
0
SPLINE
5
121
100
AcDbEntity
8
1
62
256
6
ByLayer
370
-1
48
1
60
0
100
AcDbSpline
70
4
71
3
72
20
73
16
40
0
40
0
40
0
40
0
40
0.125000000000003
40
0.125000000000003
40
0.250000000000005
40
0.250000000000005
40
0.375000000000008
40
0.375000000000008
40
0.50000000000001
40
0.50000000000001
40
0.750000000000013
40
0.750000000000013
40
0.875000000000007
40
0.875000000000007
40
1
40
1
40
1
40
1
41
1
10
31.0779769369364
20
10.8957820427555
30
0
41
1
10
31.0758794891702
20
10.9191309403548
30
0
41
1
10
31.064565440756
20
10.9403444267718
30
0
41
1
10
31.0350468183469
20
10.9775407490783
30
0
41
1
10
31.0163131205935
20
10.9939451092831
30
0
41
1
10
30.9755557352805
20
11.0224219023568
30
0
41
1
10
30.9529839976628
20
11.0348459745777
30
0
41
1
10
30.9055299257667
20
11.0560166491206
30
0
41
1
10
30.8807485385143
20
11.0647537049144
30
0
41
1
10
30.8033361223977
20
11.0857166509156
30
0
41
1
10
30.7488902565911
20
11.0925341486252
30
0
41
1
10
30.6693132865772
20
11.0876226251825
30
0
41
1
10
30.6429995040376
20
11.0834024435386
30
0
41
1
10
30.5939938124287
20
11.0672286990387
30
0
41
1
10
30.5710290819532
20
11.0552997382968
30
0
41
1
10
30.5546482209442
20
11.0370606186627
30
0
0
SPLINE
5
122
100
AcDbEntity
8
1
62
256
6
ByLayer
370
-1
48
1
60
0
100
AcDbSpline
70
4
71
3
72
16
73
12
40
0
40
0
40
0
40
0
40
0.124999999999989
40
0.124999999999989
40
0.249999999999979
40
0.249999999999979
40
0.499999999999986
40
0.499999999999986
40
0.749999999999993
40
0.749999999999993
40
1
40
1
40
1
40
1
41
1
10
30.5406490514552
20
11.0214737516191
30
0
41
1
10
30.5321391056758
20
11.0107568281855
30
0
41
1
10
30.5207760591394
20
11.0024061339706
30
0
41
1
10
30.4943831362697
20
10.9916779160274
30
0
41
1
10
30.4796041844857
20
10.9893462689604
30
0
41
1
10
30.435494789321
20
10.9891050989675
30
0
41
1
10
30.405593588676
20
10.9973156703275
30
0
41
1
10
30.3501082495251
20
11.0205039709048
30
0
41
1
10
30.3238713191773
20
11.0358050411152
30
0
41
1
10
30.2748125223537
20
11.0706188270779
30
0
41
1
10
30.2518837407366
20
11.0902515148451
30
0
41
1
10
30.2307383683829
20
11.1115556852544
30
0
0
SPLINE
5
123
100
AcDbEntity
8
1
62
256
6
ByLayer
370
-1
48
1
60
0
100
AcDbSpline
70
4
71
3
72
8
73
4
40
0
40
0
40
0
40
0
40
1
40
1
40
1
40
1
41
1
10
31.0779769369364
20
10.8957820427554
30
0
41
1
10
31.0785712722305
20
10.8891658713574
30
0
41
1
10
31.0791654554049
20
10.8825501036306
30
0
41
1
10
31.0797594947148
20
10.8759347178283
30
0
0
SPLINE
5
124
100
AcDbEntity
8
1
62
256
6
ByLayer
370
-1
48
1
60
0
100
AcDbSpline
70
4
71
3
72
8
73
4
40
0
40
0
40
0
40
0
40
1
40
1
40
1
40
1
41
1
10
30.1494055848442
20
11.4156553883762
30
0
41
1
10
30.155027730675
20
11.419887607469
30
0
41
1
10
30.1606500915189
20
11.4241200708994
30
0
41
1
10
30.1662726795552
20
11.4283527925801
30
0
0
SPLINE
5
125
100
AcDbEntity
8
1
62
256
6
ByLayer
370
-1
48
1
60
0
100
AcDbSpline
70
4
71
3
72
8
73
4
40
0
40
0
40
0
40
0
40
1
40
1
40
1
40
1
41
1
10
31.9916110018485
20
11.4249851661108
30
0
41
1
10
31.9973625411144
20
11.4226017163935
30
0
41
1
10
32.0031136136051
20
11.4202184120971
30
0
41
1
10
32.0088642445271
20
11.4178352453876
30
0
0
SPLINE
5
126
100
AcDbEntity
8
1
62
256
6
ByLayer
370
-1
48
1
60
0
100
AcDbSpline
70
4
71
3
72
16
73
12
40
0
40
0
40
0
40
0
40
0.25
40
0.25
40
0.5
40
0.5
40
0.75
40
0.75
40
0.875
40
0.875
40
1
40
1
40
1
40
1
41
1
10
30.7630832062112
20
13.1132137226534
30
0
41
1
10
30.7342158704724
20
13.1054206550101
30
0
41
1
10
30.7060231933236
20
13.0953142890039
30
0
41
1
10
30.6521932727392
20
13.070282715501
30
0
41
1
10
30.6264554813923
20
13.0553727671775
30
0
41
1
10
30.5801071062871
20
13.0193231962563
30
0
41
1
10
30.5592372070519
20
12.9981610615086
30
0
41
1
10
30.5396315242301
20
12.9605888470296
30
0
41
1
10
30.5353379493128
20
12.9474213739943
30
0
41
1
10
30.5336387558625
20
12.9202580662582
30
0
41
1
10
30.5364769293463
20
12.9068674507145
30
0
41
1
10
30.5428126601429
20
12.8948966212842
30
0
0
SPLINE
5
127
100
AcDbEntity
8
1
62
256
6
ByLayer
370
-1
48
1
60
0
100
AcDbSpline
70
4
71
3
72
20
73
16
40
0
40
0
40
0
40
0
40
0.124999999999998
40
0.124999999999998
40
0.249999999999996
40
0.249999999999996
40
0.499999999999992
40
0.499999999999992
40
0.624999999999994
40
0.624999999999994
40
0.749999999999996
40
0.749999999999996
40
0.874999999999998
40
0.874999999999998
40
1
40
1
40
1
40
1
41
1
10
30.1662726795552
20
11.4283527925801
30
0
41
1
10
30.1860134397087
20
11.4432137681585
30
0
41
1
10
30.1993066069976
20
11.4647818920409
30
0
41
1
10
30.2179557105598
20
11.5116841172183
30
0
41
1
10
30.2231887611958
20
11.5369933031832
30
0
41
1
10
30.2306611884773
20
11.6147450811084
30
0
41
1
10
30.224748313498
20
11.6687228546768
30
0
41
1
10
30.2039163673926
20
11.7467334332605
30
0
41
1
10
30.195039798083
20
11.7718404632949
30
0
41
1
10
30.1733115492961
20
11.820224820387
30
0
41
1
10
30.1602913339599
20
11.8437538957722
30
0
41
1
10
30.1302268617472
20
11.886695143448
30
0
41
1
10
30.1129694798651
20
11.9065562789405
30
0
41
1
10
30.0733672853446
20
11.9389840199713
30
0
41
1
10
30.0508407631455
20
11.9518473011686
30
0
41
1
10
30.0260471727291
20
11.955611615887
30
0
0
SPLINE
5
128
100
AcDbEntity
8
1
62
256
6
ByLayer
370
-1
48
1
60
0
100
AcDbSpline
70
4
71
3
72
8
73
4
40
0
40
0
40
0
40
0
40
1
40
1
40
1
40
1
41
1
10
31.6163716178579
20
12.8936380802519
30
0
41
1
10
31.6126364993032
20
12.8884427635369
30
0
41
1
10
31.608901055541
20
12.8832471468818
30
0
41
1
10
31.6051652679902
20
12.8780512132083
30
0
0
SPLINE
5
129
100
AcDbEntity
8
1
62
256
6
ByLayer
370
-1
48
1
60
0
100
AcDbSpline
70
4
71
3
72
8
73
4
40
0
40
0
40
0
40
0
40
1
40
1
40
1
40
1
41
1
10
31.9935408093793
20
12.4867590392909
30
0
41
1
10
31.9982326292868
20
12.4909917609716
30
0
41
1
10
32.0029240470756
20
12.495224224402
30
0
41
1
10
32.0076150844689
20
12.4994564434948
30
0
0
SPLINE
5
12A
100
AcDbEntity
8
1
62
256
6
ByLayer
370
-1
48
1
60
0
100
AcDbSpline
70
4
71
3
72
18
73
14
40
0
40
0
40
0
40
0
40
0.124999999999997
40
0.124999999999997
40
0.249999999999993
40
0.249999999999993
40
0.499999999999987
40
0.499999999999987
40
0.74999999999998
40
0.74999999999998
40
0.87499999999999
40
0.87499999999999
40
1
40
1
40
1
40
1
41
1
10
31.6085077926824
20
11.0390049187112
30
0
41
1
10
31.6018468785028
20
11.06096007443
30
0
41
1
10
31.60378684931
20
11.0855372258401
30
0
41
1
10
31.6156395726257
20
11.1341964331848
30
0
41
1
10
31.6256240988568
20
11.1581762065314
30
0
41
1
10
31.6624673480671
20
11.2279125850677
30
0
41
1
10
31.6959123658471
20
11.2711600444456
30
0
41
1
10
31.7714031909863
20
11.3472134208613
30
0
41
1
10
31.8134795326796
20
11.3800218102921
30
0
41
1
10
31.8799508397564
20
11.4144705241779
30
0
41
1
10
31.902806074262
20
11.4235057768611
30
0
41
1
10
31.948449475073
20
11.4328633620021
30
0
41
1
10
31.9714489012284
20
11.4333403821325
30
0
41
1
10
31.9916110018485
20
11.4249851661108
30
0
0
SPLINE
5
12B
100
AcDbEntity
8
1
62
256
6
ByLayer
370
-1
48
1
60
0
100
AcDbSpline
70
4
71
3
72
16
73
12
40
0
40
0
40
0
40
0
40
0.125000000000015
40
0.125000000000015
40
0.250000000000029
40
0.250000000000029
40
0.50000000000002
40
0.50000000000002
40
0.75000000000001
40
0.75000000000001
40
1
40
1
40
1
40
1
41
1
10
32.0088642445271
20
11.4178352453876
30
0
41
1
10
32.0198329232553
20
11.4123760596091
30
0
41
1
10
32.0321769796645
20
11.4104251948475
30
0
41
1
10
32.0574675800469
20
11.4136504141358
30
0
41
1
10
32.0701927560266
20
11.4187447789644
30
0
41
1
10
32.1054797368284
20
11.4399409549977
30
0
41
1
10
32.12601063412
20
11.4617388788512
30
0
41
1
10
32.1608350344019
20
11.509446034089
30
0
41
1
10
32.1753312699943
20
11.5356707476796
30
0
41
1
10
32.1997940412593
20
11.5903106180487
30
0
41
1
10
32.2097375014618
20
11.6187996657179
30
0
41
1
10
32.2174763503052
20
11.6478983398987
30
0
0
SPLINE
5
12C
100
AcDbEntity
8
1
62
256
6
ByLayer
370
-1
48
1
60
0
100
AcDbSpline
70
4
71
3
72
16
73
12
40
0
40
0
40
0
40
0
40
0.124999999999998
40
0.124999999999998
40
0.249999999999995
40
0.249999999999995
40
0.499999999999997
40
0.499999999999997
40
0.749999999999998
40
0.749999999999998
40
1
40
1
40
1
40
1
41
1
10
30.1481564247859
20
12.4972765864834
30
0
41
1
10
30.1353434130085
20
12.5027357722619
30
0
41
1
10
30.121239181967
20
12.5046866370235
30
0
41
1
10
30.0928480377929
20
12.5014614177352
30
0
41
1
10
30.0788024837269
20
12.4963670529066
30
0
41
1
10
30.040262620188
20
12.4751708768733
30
0
41
1
10
30.0183708415765
20
12.4533729530197
30
0
41
1
10
29.9815836565574
20
12.4056657977819
30
0
41
1
10
29.9664898589988
20
12.3794410841914
30
0
41
1
10
29.9412462122802
20
12.3248012138223
30
0
41
1
10
29.9311277818045
20
12.2963121661531
30
0
41
1
10
29.923388932961
20
12.2672134919723
30
0
0
SPLINE
5
12D
100
AcDbEntity
8
1
62
256
6
ByLayer
370
-1
48
1
60
0
100
AcDbSpline
70
4
71
3
72
8
73
4
40
0
40
0
40
0
40
0
40
1
40
1
40
1
40
1
41
1
10
30.168202487086
20
12.4901266657601
30
0
41
1
10
30.1615201796913
20
12.4925101154775
30
0
41
1
10
30.1548381641454
20
12.4948934197739
30
0
41
1
10
30.1481564247859
20
12.4972765864834
30
0
0
SPLINE
5
12E
100
AcDbEntity
8
1
62
256
6
ByLayer
370
-1
48
1
60
0
100
AcDbSpline
70
4
71
3
72
18
73
14
40
0
40
0
40
0
40
0
40
0.125000000000001
40
0.125000000000001
40
0.250000000000002
40
0.250000000000002
40
0.499999999999998
40
0.499999999999998
40
0.749999999999993
40
0.749999999999993
40
0.874999999999997
40
0.874999999999997
40
1
40
1
40
1
40
1
41
1
10
30.5513056962521
20
12.8761069131598
30
0
41
1
10
30.5612291307412
20
12.854151757441
30
0
41
1
10
30.5622492829627
20
12.829574606031
30
0
41
1
10
30.5555062982891
20
12.7809153986862
30
0
41
1
10
30.5476515674603
20
12.7569356253396
30
0
41
1
10
30.5159690460835
20
12.6871992468033
30
0
41
1
10
30.4842817461035
20
12.6439517874254
30
0
41
1
10
30.4087901587527
20
12.5678984110097
30
0
41
1
10
30.36495127361
20
12.5350900215789
30
0
41
1
10
30.2933338089125
20
12.5006413076931
30
0
41
1
10
30.268338115265
20
12.4916060550099
30
0
41
1
10
30.2175968872323
20
12.4822484698689
30
0
41
1
10
30.1916274082832
20
12.4817714497385
30
0
41
1
10
30.168202487086
20
12.4901266657601
30
0
0
SPLINE
5
12F
100
AcDbEntity
8
1
62
256
6
ByLayer
370
-1
48
1
60
0
100
AcDbSpline
70
4
71
3
72
8
73
4
40
0
40
0
40
0
40
0
40
1
40
1
40
1
40
1
41
1
10
30.5428126601429
20
12.8948966212842
30
0
41
1
10
30.5456436173079
20
12.8886337536781
30
0
41
1
10
30.5484746283431
20
12.8823705244991
30
0
41
1
10
30.5513056962521
20
12.8761069131598
30
0
0
SPLINE
5
130
100
AcDbEntity
8
1
62
256
6
ByLayer
370
-1
48
1
60
0
100
AcDbSpline
70
4
71
3
72
8
73
4
40
0
40
0
40
0
40
0
40
1
40
1
40
1
40
1
41
1
10
30.5546482209442
20
11.0370606186627
30
0
41
1
10
30.5499816652647
20
11.0318646849891
30
0
41
1
10
30.5453152784473
20
11.0266690683341
30
0
41
1
10
30.5406490514552
20
11.0214737516191
30
0
0
SPLINE
5
131
100
AcDbEntity
8
1
62
256
6
ByLayer
370
-1
48
1
60
0
100
AcDbSpline
70
4
71
3
72
64
73
60
40
0
40
0
40
0
40
0
40
0.0312499999999997
40
0.0312499999999997
40
0.0624999999999993
40
0.0624999999999993
40
0.093749999999999
40
0.093749999999999
40
0.124999999999999
40
0.124999999999999
40
0.156249999999998
40
0.156249999999998
40
0.187499999999998
40
0.187499999999998
40
0.249999999999997
40
0.249999999999997
40
0.281249999999997
40
0.281249999999997
40
0.312499999999997
40
0.312499999999997
40
0.343749999999996
40
0.343749999999996
40
0.374999999999996
40
0.374999999999996
40
0.437499999999996
40
0.437499999999996
40
0.468749999999997
40
0.468749999999997
40
0.499999999999997
40
0.499999999999997
40
0.531249999999997
40
0.531249999999997
40
0.562499999999998
40
0.562499999999998
40
0.624999999999997
40
0.624999999999997
40
0.656249999999997
40
0.656249999999997
40
0.687499999999997
40
0.687499999999997
40
0.718749999999998
40
0.718749999999998
40
0.749999999999998
40
0.749999999999998
40
0.781249999999998
40
0.781249999999998
40
0.812499999999998
40
0.812499999999998
40
0.843749999999999
40
0.843749999999999
40
0.874999999999999
40
0.874999999999999
40
0.906249999999999
40
0.906249999999999
40
0.937499999999999
40
0.937499999999999
40
0.96875
40
0.96875
40
1
40
1
40
1
40
1
41
1
10
21.878163233868
20
0.180069261677005
30
0
41
1
10
21.9435578950126
20
0.167911003140773
30
0
41
1
10
22.0057558279704
20
0.15147885500329
30
0
41
1
10
22.120384458578
20
0.106755862014694
30
0
41
1
10
22.1735571265
20
0.0777512607855044
30
0
41
1
10
22.2592001980078
20
0.0065293116416854
30
0
41
1
10
22.2924741416468
20
-0.0367091915707363
30
0
41
1
10
22.333533755905
20
-0.132123991911385
30
0
41
1
10
22.3420695854929
20
-0.185374599166522
30
0
41
1
10
22.3386732073535
20
-0.294759719086926
30
0
41
1
10
22.3269837474053
20
-0.351847038707206
30
0
41
1
10
22.2901502814724
20
-0.46495554825205
30
0
41
1
10
22.2647226266382
20
-0.522158979019252
30
0
41
1
10
22.1736839138559
20
-0.692017036844049
30
0
41
1
10
22.0957371714866
20
-0.800347525099198
30
0
41
1
10
21.9602729422269
20
-0.957960869520861
30
0
41
1
10
21.9118521245606
20
-1.00957394817803
30
0
41
1
10
21.8116206152525
20
-1.10827524176202
30
0
41
1
10
21.7594783643303
20
-1.15575622361516
30
0
41
1
10
21.6513134466087
20
-1.24708505723967
30
0
41
1
10
21.5952882790127
20
-1.29093060697309
30
0
41
1
10
21.479284224285
20
-1.3748544641652
30
0
41
1
10
21.4193974706896
20
-1.41482012859575
30
0
41
1
10
21.2375631908272
20
-1.52635192079208
30
0
41
1
10
21.1122337293111
20
-1.59058429756732
30
0
41
1
10
20.9172691205148
20
-1.6707251050303
30
0
41
1
10
20.851240580387
20
-1.69461619143647
30
0
41
1
10
20.719491105141
20
-1.73575540141803
30
0
41
1
10
20.6534310659218
20
-1.75315130476824
30
0
41
1
10
20.5208257916815
20
-1.78142239418332
30
0
41
1
10
20.4542810187277
20
-1.7923005354011
30
0
41
1
10
20.3205825841864
20
-1.8070675190757
30
0
41
1
10
20.2530186855572
20
-1.81094190272265
30
0
41
1
10
20.0533247048135
20
-1.81084766223347
30
0
41
1
10
19.9236286304638
20
-1.79579173585802
30
0
41
1
10
19.7352932886479
20
-1.74511414949205
30
0
41
1
10
19.6739861737139
20
-1.72347717120795
30
0
41
1
10
19.55782025553
20
-1.67036492972545
30
0
41
1
10
19.502525161352
20
-1.63882575008398
30
0
41
1
10
19.3991237814912
20
-1.56321430247462
30
0
41
1
10
19.3524909108486
20
-1.52018295273689
30
0
41
1
10
19.2723440871911
20
-1.42207038327754
30
0
41
1
10
19.2388434332891
20
-1.36642741731021
30
0
41
1
10
19.1925174218512
20
-1.24723942084779
30
0
41
1
10
19.1792840177751
20
-1.18202066928845
30
0
41
1
10
19.1762677717925
20
-1.05092030248125
30
0
41
1
10
19.1863628290818
20
-0.983151833376724
30
0
41
1
10
19.2262678094993
20
-0.853086090325462
30
0
41
1
10
19.2562500623503
20
-0.789536648752829
30
0
41
1
10
19.3291618539912
20
-0.670995823111269
30
0
41
1
10
19.3719703996992
20
-0.615659239970455
30
0
41
1
10
19.4673468132217
20
-0.511116461107633
30
0
41
1
10
19.5196657593906
20
-0.462333719950522
30
0
41
1
10
19.6289140429441
20
-0.372350034460368
30
0
41
1
10
19.6862446677122
20
-0.330743797002981
30
0
41
1
10
19.8052521968526
20
-0.252980004561977
30
0
41
1
10
19.8671872020225
20
-0.21670513968013
30
0
41
1
10
19.9935888236209
20
-0.149475979679778
30
0
41
1
10
20.0577853066457
20
-0.118634134404829
30
0
41
1
10
20.1228147536638
20
-0.0901136343211135
30
0
0
SPLINE
5
132
100
AcDbEntity
8
1
62
256
6
ByLayer
370
-1
48
1
60
0
100
AcDbSpline
70
4
71
3
72
8
73
4
40
0
40
0
40
0
40
0
40
1
40
1
40
1
40
1
41
1
10
12.3801399927306
20
12.5500539283052
30
0
41
1
10
12.3854861362426
20
12.5516506346038
30
0
41
1
10
12.3916480610926
20
12.5532828677453
30
0
41
1
10
12.3986260701431
20
12.5549546006208
30
0
0
SPLINE
5
133
100
AcDbEntity
8
1
62
256
6
ByLayer
370
-1
48
1
60
0
100
AcDbSpline
70
4
71
3
72
32
73
28
40
0
40
0
40
0
40
0
40
0.017937355870196
40
0.017937355870196
40
0.083408198812183
40
0.083408198812183
40
0.214349884696157
40
0.214349884696157
40
0.279820727638144
40
0.279820727638144
40
0.345291570580131
40
0.345291570580131
40
0.410762413522118
40
0.410762413522118
40
0.476233256464105
40
0.476233256464105
40
0.607174942348078
40
0.607174942348078
40
0.672645785290065
40
0.672645785290065
40
0.738116628232052
40
0.738116628232052
40
0.869058314116025
40
0.869058314116025
40
0.934529157058012
40
0.934529157058012
40
1
40
1
40
1
40
1
41
1
10
12.4224357058421
20
12.560179198834
30
0
41
1
10
12.4290083935101
20
12.5615155416021
30
0
41
1
10
12.4360538137304
20
12.5628770952058
30
0
41
1
10
12.4710136325899
20
12.5693336508744
30
0
41
1
10
12.5050543738477
20
12.5748013958783
30
0
41
1
10
12.6236228793586
20
12.592256908441
30
0
41
1
10
12.7244064899343
20
12.6053127948332
30
0
41
1
10
12.9054806392994
20
12.6286135294389
30
0
41
1
10
12.9707969833789
20
12.6369996622712
30
0
41
1
10
13.1081540059447
20
12.654930176852
30
0
41
1
10
13.1805225202534
20
12.6645161511192
30
0
41
1
10
13.3321828637695
20
12.6851764703901
30
0
41
1
10
13.4114761866318
20
12.6962505017254
30
0
41
1
10
13.5767686571072
20
12.7201554550803
30
0
41
1
10
13.6622678474011
20
12.7329182319919
30
0
41
1
10
13.923935157434
20
12.7734794653644
30
0
41
1
10
14.1063511608849
20
12.8037100984865
30
0
41
1
10
14.3909564796433
20
12.8548422374404
30
0
41
1
10
14.4879164615638
20
12.8729041301633
30
0
41
1
10
14.6822677460121
20
12.9104873257284
30
0
41
1
10
14.7800173194643
20
12.9300694735741
30
0
41
1
10
15.074887221365
20
12.9912609873498
30
0
41
1
10
15.2736116538452
20
13.0353169255538
30
0
41
1
10
15.5748559783417
20
13.1065439956189
30
0
41
1
10
15.6754486321113
20
13.1310658491264
30
0
41
1
10
15.8744393154846
20
13.1809878346767
30
0
41
1
10
15.9732130349325
20
13.2064759865178
30
0
41
1
10
16.0712855422589
20
13.2324511839091
30
0
0
SPLINE
5
134
100
AcDbEntity
8
1
62
256
6
ByLayer
370
-1
48
1
60
0
100
AcDbSpline
70
4
71
3
72
8
73
4
40
0
40
0
40
0
40
0
40
1
40
1
40
1
40
1
41
1
10
26.0094126860382
20
0.50405308704353
30
0
41
1
10
26.3329510497889
20
0.504589499422849
30
0
41
1
10
26.6584221776559
20
0.484020927647208
30
0
41
1
10
26.986066925787
20
0.447634105645477
30
0
0
SPLINE
5
135
100
AcDbEntity
8
1
62
256
6
ByLayer
370
-1
48
1
60
0
100
AcDbSpline
70
4
71
3
72
8
73
4
40
0
40
0
40
0
40
0
40
1
40
1
40
1
40
1
41
1
10
12.6563821302646
20
12.1888060650039
30
0
41
1
10
12.5620586085788
20
12.3079668817875
30
0
41
1
10
12.4699492514036
20
12.4283682044318
30
0
41
1
10
12.3801399927306
20
12.5500539283052
30
0
0
SPLINE
5
136
100
AcDbEntity
8
1
62
256
6
ByLayer
370
-1
48
1
60
0
100
AcDbSpline
70
4
71
3
72
12
73
8
40
0
40
0
40
0
40
0
40
0.5
40
0.5
40
0.75
40
0.75
40
1
40
1
40
1
40
1
41
1
10
33.815255216582
20
8.25755591593548
30
0
41
1
10
33.9708699201145
20
8.25755591593548
30
0
41
1
10
34.095197325428
20
8.25755591593548
30
0
41
1
10
34.2411181504738
20
8.25755591593548
30
0
41
1
10
34.2824283965176
20
8.25755591593548
30
0
41
1
10
34.3511537451666
20
8.25755591593548
30
0
41
1
10
34.3787045250479
20
8.25755591593548
30
0
41
1
10
34.4
20
8.25755591593548
30
0
0
SPLINE
5
137
100
AcDbEntity
8
1
62
256
6
ByLayer
370
-1
48
1
60
0
100
AcDbSpline
70
4
71
3
72
8
73
4
40
0
40
0
40
0
40
0
40
1
40
1
40
1
40
1
41
1
10
27.8598760732972
20
1.85597671072691
30
0
41
1
10
27.8148762010668
20
1.76361361853753
30
0
41
1
10
27.7787546324753
20
1.66799634629447
30
0
41
1
10
27.7509153307108
20
1.56926370086936
30
0
0
SPLINE
5
138
100
AcDbEntity
8
1
62
256
6
ByLayer
370
-1
48
1
60
0
100
AcDbSpline
70
4
71
3
72
26
73
22
40
0
40
0
40
0
40
0
40
0.249999999999995
40
0.249999999999995
40
0.312499999999997
40
0.312499999999997
40
0.374999999999999
40
0.374999999999999
40
0.500000000000002
40
0.500000000000002
40
0.562500000000004
40
0.562500000000004
40
0.625000000000005
40
0.625000000000005
40
0.750000000000008
40
0.750000000000008
40
0.812500000000007
40
0.812500000000007
40
0.875000000000006
40
0.875000000000006
40
1
40
1
40
1
40
1
41
1
10
30.3084731698519
20
-13.6807796705193
30
0
41
1
10
30.5840516499412
20
-13.8041385347436
30
0
41
1
10
30.8713153311868
20
-13.883948965159
30
0
41
1
10
31.2461374865944
20
-13.9250426182724
30
0
41
1
10
31.3216993479996
20
-13.9302148776393
30
0
41
1
10
31.4716965134558
20
-13.9343306644511
30
0
41
1
10
31.5464574952973
20
-13.9333148767543
30
0
41
1
10
31.7700331865862
20
-13.9211182465469
30
0
41
1
10
31.9181446683063
20
-13.9008402251193
30
0
41
1
10
32.1388551354916
20
-13.8515781390203
30
0
41
1
10
32.2124542702918
20
-13.8318958302289
30
0
41
1
10
32.3565527135325
20
-13.7868517328948
30
0
41
1
10
32.4273130408817
20
-13.7614560826579
30
0
41
1
10
32.6358316636681
20
-13.6768809175518
30
0
41
1
10
32.7698467524434
20
-13.6093558891827
30
0
41
1
10
32.9634189360454
20
-13.4914575011672
30
0
41
1
10
33.0269356409894
20
-13.4491924350177
30
0
41
1
10
33.1498206974881
20
-13.3602017827986
30
0
41
1
10
33.2092737652299
20
-13.3134575718806
30
0
41
1
10
33.3818772438759
20
-13.1667186719658
30
0
41
1
10
33.4892976084981
20
-13.060246742538
30
0
41
1
10
33.5892839947044
20
-12.9453714489506
30
0
0
SPLINE
5
139
100
AcDbEntity
8
1
62
256
6
ByLayer
370
-1
48
1
60
0
100
AcDbSpline
70
4
71
3
72
22
73
18
40
0
40
0
40
0
40
0
40
0.125
40
0.125
40
0.1875
40
0.1875
40
0.25
40
0.25
40
0.375
40
0.375
40
0.4375
40
0.4375
40
0.5
40
0.5
40
0.75
40
0.75
40
1
40
1
40
1
40
1
41
1
10
12.3801399927305
20
-0.318984013526915
30
0
41
1
10
12.313469538896
20
-0.460937133226025
30
0
41
1
10
12.2575813971894
20
-0.607316509697199
30
0
41
1
10
12.190817001333
20
-0.833815856115081
30
0
41
1
10
12.1714142564651
20
-0.910473843064892
30
0
41
1
10
12.1385631091798
20
-1.06619743039766
30
0
41
1
10
12.1251976586666
20
-1.14504272500088
30
0
41
1
10
12.0948141292261
20
-1.38060541998067
30
0
41
1
10
12.0871489419136
20
-1.53779952735462
30
0
41
1
10
12.0937720511695
20
-1.77378222378502
30
0
41
1
10
12.0990077612393
20
-1.85247541068739
30
0
41
1
10
12.1154956571419
20
-2.00992429357223
30
0
41
1
10
12.1268064656316
20
-2.08897670418159
30
0
41
1
10
12.1976807355402
20
-2.48047076153702
30
0
41
1
10
12.2987049972574
20
-2.77952208045471
30
0
41
1
10
12.5752257869641
20
-3.35412998055105
30
0
41
1
10
12.747013622211
20
-3.62173044876221
30
0
41
1
10
12.9455241343703
20
-3.87235547863341
30
0
0
SPLINE
5
13A
100
AcDbEntity
8
1
62
256
6
ByLayer
370
-1
48
1
60
0
100
AcDbSpline
70
4
71
3
72
8
73
4
40
0
40
0
40
0
40
0
40
1
40
1
40
1
40
1
41
1
10
29.1635931036861
20
-14.3297590389912
30
0
41
1
10
29.159102876761
20
-14.3245385500151
30
0
41
1
10
29.1545707152887
20
-14.3192645638257
30
0
41
1
10
29.1500000000005
20
-14.313939091703
30
0
0
SPLINE
5
13B
100
AcDbEntity
8
1
62
256
6
ByLayer
370
-1
48
1
60
0
100
AcDbSpline
70
4
71
3
72
8
73
4
40
0
40
0
40
0
40
0
40
1
40
1
40
1
40
1
41
1
10
27.4137251248244
20
13.6145740188178
30
0
41
1
10
27.350412283306
20
13.6177439378322
30
0
41
1
10
27.2898772660696
20
13.6209852074958
30
0
41
1
10
27.2320480095756
20
13.6242051874014
30
0
0
SPLINE
5
13C
100
AcDbEntity
8
1
62
256
6
ByLayer
370
-1
48
1
60
0
100
AcDbSpline
70
4
71
3
72
9
73
5
40
0
40
0
40
0
40
0
40
0.502147504449922
40
1
40
1
40
1
40
1
41
1
10
27.6809572713284
20
3.00536775270504
30
0
41
1
10
27.6887694177744
20
3.0208409907296
30
0
41
1
10
27.7043268911798
20
3.05165511982003
30
0
41
1
10
27.7227444877296
20
3.08099087342271
30
0
41
1
10
27.731913734134
20
3.09559575156263
30
0
0
SPLINE
5
13D
100
AcDbEntity
8
1
62
256
6
ByLayer
370
-1
48
1
60
0
100
AcDbSpline
70
4
71
3
72
18
73
14
40
0
40
0
40
0
40
0
40
0.25
40
0.25
40
0.499999999999999
40
0.499999999999999
40
0.562499999999999
40
0.562499999999999
40
0.625
40
0.625
40
0.749999999999999
40
0.749999999999999
40
1
40
1
40
1
40
1
41
1
10
15.2942738597818
20
-6.28405729491251
30
0
41
1
10
16.0686394640315
20
-6.46672481516973
30
0
41
1
10
16.8742415308525
20
-6.64934199420767
30
0
41
1
10
18.5484618605633
20
-7.00269568811245
30
0
41
1
10
19.4170576863557
20
-7.17355257924533
30
0
41
1
10
20.544577848907
20
-7.3746797353003
30
0
41
1
10
20.7726185388506
20
-7.41436056276982
30
0
41
1
10
21.2306571476564
20
-7.49197587467546
30
0
41
1
10
21.4604495419893
20
-7.52988014955892
30
0
41
1
10
22.1521342492738
20
-7.64079373112858
30
0
41
1
10
22.6163317337201
20
-7.71100272688639
30
0
41
1
10
24.0181383707522
20
-7.90977994430042
30
0
41
1
10
24.9649205673546
20
-8.0265080501996
30
0
41
1
10
25.9243925961175
20
-8.12577851828954
30
0
0
SPLINE
5
13E
100
AcDbEntity
8
1
62
256
6
ByLayer
370
-1
48
1
60
0
100
AcDbSpline
70
4
71
3
72
10
73
6
40
0
40
0
40
0
40
0
40
0.5
40
0.5
40
1
40
1
40
1
40
1
41
1
10
29.1500000000005
20
-14.313939091703
30
0
41
1
10
29.0982468444659
20
-14.2536399985224
30
0
41
1
10
29.0413681160044
20
-14.1900363770699
30
0
41
1
10
28.9186464655433
20
-14.0575122732695
30
0
41
1
10
28.8524160439025
20
-13.9882399376664
30
0
41
1
10
28.7840248089795
20
-13.9187187887495
30
0
0
SPLINE
5
13F
100
AcDbEntity
8
1
62
256
6
ByLayer
370
-1
48
1
60
0
100
AcDbSpline
70
4
71
3
72
12
73
8
40
0
40
0
40
0
40
0
40
0.25
40
0.25
40
0.5
40
0.5
40
1
40
1
40
1
40
1
41
1
10
15.2942738597818
20
-6.28405729491251
30
0
41
1
10
15.0782932284941
20
-6.10211835463542
30
0
41
1
10
14.8664612411501
20
-5.91492065597859
30
0
41
1
10
14.4539511227901
20
-5.53201374286101
30
0
41
1
10
14.2528684377913
20
-5.33596785463595
30
0
41
1
10
13.6653477425053
20
-4.73361610562082
30
0
41
1
10
13.2946289184723
20
-4.31310995552275
30
0
41
1
10
12.9455241343703
20
-3.87235547863341
30
0
0
SPLINE
5
140
100
AcDbEntity
8
1
62
256
6
ByLayer
370
-1
48
1
60
0
100
AcDbSpline
70
4
71
3
72
10
73
6
40
0
40
0
40
0
40
0
40
0.5
40
0.5
40
1
40
1
40
1
40
1
41
1
10
17.0000000000013
20
10.5564841947119
30
0
41
1
10
16.6496961539752
20
10.7640379561971
30
0
41
1
10
16.3322666643496
20
10.9725939682569
30
0
41
1
10
15.7635464182049
20
11.3800331502827
30
0
41
1
10
15.5121227168585
20
11.579003598481
30
0
41
1
10
15.2942738597819
20
11.7673449501946
30
0
0
SPLINE
5
141
100
AcDbEntity
8
1
62
256
6
ByLayer
370
-1
48
1
60
0
100
AcDbSpline
70
4
71
3
72
14
73
10
40
0
40
0
40
0
40
0
40
0.25
40
0.25
40
0.5
40
0.5
40
0.75
40
0.75
40
1
40
1
40
1
40
1
41
1
10
33.7883086613535
20
-11.6771925888693
30
0
41
1
10
33.8700342139597
20
-11.548638041986
30
0
41
1
10
33.944169545302
20
-11.41437520528
30
0
41
1
10
34.0755830354451
20
-11.1408663487927
30
0
41
1
10
34.1333487843575
20
-11.0008817209018
30
0
41
1
10
34.2342511757091
20
-10.714961708613
30
0
41
1
10
34.277497615935
20
-10.5685266223875
30
0
41
1
10
34.349526388715
20
-10.2722417193386
30
0
41
1
10
34.3781017979325
20
-10.123500959487
30
0
41
1
10
34.3999999999999
20
-9.97422315958985
30
0
0
SPLINE
5
142
100
AcDbEntity
8
1
62
256
6
ByLayer
370
-1
48
1
60
0
100
AcDbSpline
70
4
71
3
72
8
73
4
40
0
40
0
40
0
40
0
40
1
40
1
40
1
40
1
41
1
10
27.8102641434942
20
-13.4664723944731
30
0
41
1
10
27.8292481813073
20
-13.5307749184936
30
0
41
1
10
27.8453697043876
20
-13.5944500574016
30
0
41
1
10
27.8598760732931
20
-13.657615599923
30
0
0
SPLINE
5
143
100
AcDbEntity
8
1
62
256
6
ByLayer
370
-1
48
1
60
0
100
AcDbSpline
70
4
71
3
72
20
73
16
40
0
40
0
40
0
40
0
40
0.125
40
0.125
40
0.25
40
0.25
40
0.375
40
0.375
40
0.5
40
0.5
40
0.75
40
0.75
40
0.875
40
0.875
40
1
40
1
40
1
40
1
41
1
10
17.0000000000013
20
-8.84106001747483
30
0
41
1
10
17.310080521812
20
-9.05198507373686
30
0
41
1
10
17.632497220665
20
-9.24136611306864
30
0
41
1
10
18.2998493077799
20
-9.58447643255869
30
0
41
1
10
18.6447923492324
20
-9.73817878454423
30
0
41
1
10
19.3557982882315
20
-10.0152209012544
30
0
41
1
10
19.7218643874597
20
-10.1385467884617
30
0
41
1
10
20.4742903757877
20
-10.3586540233823
30
0
41
1
10
20.8620507119145
20
-10.4556188577177
30
0
41
1
10
22.0329574150078
20
-10.7065177159726
30
0
41
1
10
22.8296382983827
20
-10.82330310011
30
0
41
1
10
24.0464365840042
20
-10.939271712621
30
0
41
1
10
24.4560680147332
20
-10.9679043286733
30
0
41
1
10
25.2810197483845
20
-11.005963494594
30
0
41
1
10
25.6941652860099
20
-11.0153085457912
30
0
41
1
10
26.1079662689127
20
-11.0153085457912
30
0
0
SPLINE
5
144
100
AcDbEntity
8
1
62
256
6
ByLayer
370
-1
48
1
60
0
100
AcDbSpline
70
4
71
3
72
22
73
18
40
0
40
0
40
0
40
0
40
0.124999999999999
40
0.124999999999999
40
0.249999999999998
40
0.249999999999998
40
0.499999999999996
40
0.499999999999996
40
0.562499999999997
40
0.562499999999997
40
0.624999999999998
40
0.624999999999998
40
0.749999999999999
40
0.749999999999999
40
0.874999999999999
40
0.874999999999999
40
1
40
1
40
1
40
1
41
1
10
29.0420838834568
20
-1.39104376115938
30
0
41
1
10
29.115450286159
20
-1.5377490039381
30
0
41
1
10
29.1874217937343
20
-1.68778037153643
30
0
41
1
10
29.3312325759962
20
-1.9933466146552
30
0
41
1
10
29.4032145920308
20
-2.14922419508062
30
0
41
1
10
29.6222537729755
20
-2.62132296598023
30
0
41
1
10
29.767484078213
20
-2.93133161133517
30
0
41
1
10
29.9627314195769
20
-3.30629143767268
30
0
41
1
10
30.0024710910473
20
-3.38065222228923
30
0
41
1
10
30.0837301943991
20
-3.52792602996016
30
0
41
1
10
30.125256087502
20
-3.60082690142653
30
0
41
1
10
30.2514206999947
20
-3.81430235362032
30
0
41
1
10
30.338187315298
20
-3.95063415081182
30
0
41
1
10
30.5194766591477
20
-4.21097337373413
30
0
41
1
10
30.6139999075067
20
-4.33497842410875
30
0
41
1
10
30.8129730535754
20
-4.57039781707348
30
0
41
1
10
30.9176195542315
20
-4.68191373575337
30
0
41
1
10
31.0266338254996
20
-4.78579364125127
30
0
0
SPLINE
5
145
100
AcDbEntity
8
1
62
256
6
ByLayer
370
-1
48
1
60
0
100
AcDbSpline
70
4
71
3
72
8
73
4
40
0
40
0
40
0
40
0
40
1
40
1
40
1
40
1
41
1
10
27.6171282777968
20
-13.6568643668798
30
0
41
1
10
27.5612567409354
20
-13.6554830309983
30
0
41
1
10
27.5170311321026
20
-13.6564663491971
30
0
41
1
10
27.483640369615
20
-13.6571173613474
30
0
0
SPLINE
5
146
100
AcDbEntity
8
1
62
256
6
ByLayer
370
-1
48
1
60
0
100
AcDbSpline
70
4
71
3
72
8
73
4
40
0
40
0
40
0
40
0
40
1
40
1
40
1
40
1
41
1
10
33.6491105683013
20
-6.3762698257203
30
0
41
1
10
33.4656621054876
20
-5.96329034761959
30
0
41
1
10
33.2825461962573
20
-5.55025148702816
30
0
41
1
10
33.1000000000002
20
-5.13711089553664
30
0
0
SPLINE
5
147
100
AcDbEntity
8
1
62
256
6
ByLayer
370
-1
48
1
60
0
100
AcDbSpline
70
4
71
3
72
18
73
14
40
0
40
0
40
0
40
0
40
0.125
40
0.125
40
0.250000000000001
40
0.250000000000001
40
0.500000000000001
40
0.500000000000001
40
0.750000000000001
40
0.750000000000001
40
0.875
40
0.875
40
1
40
1
40
1
40
1
41
1
10
27.6809572713284
20
3.00536775270507
30
0
41
1
10
27.6581630286001
20
2.95842446139989
30
0
41
1
10
27.640093311086
20
2.91017243043345
30
0
41
1
10
27.6121685788065
20
2.81125483143316
30
0
41
1
10
27.6022883786159
20
2.76019451887035
30
0
41
1
10
27.584381281385
20
2.60731131205483
30
0
41
1
10
27.5872490756862
20
2.50545229523971
30
0
41
1
10
27.6201295448389
20
2.30187151604659
30
0
41
1
10
27.6498411199776
20
2.20399886972623
30
0
41
1
10
27.7143883665654
20
2.06503593530073
30
0
41
1
10
27.7394803790412
20
2.01975850161878
30
0
41
1
10
27.7953358167467
20
1.93434630918199
30
0
41
1
10
27.826175629148
20
1.89395282334701
30
0
41
1
10
27.8598760732973
20
1.85597671072685
30
0
0
SPLINE
5
148
100
AcDbEntity
8
1
62
256
6
ByLayer
370
-1
48
1
60
0
100
AcDbSpline
70
4
71
3
72
10
73
6
40
0
40
0
40
0
40
0
40
0.63896348849591
40
0.63896348849591
40
1
40
1
40
1
40
1
41
1
10
34.4000000000001
20
-7.68035155069163
30
0
41
1
10
34.3778850091269
20
-7.69148459314218
30
0
41
1
10
34.3481773800703
20
-7.70262551497359
30
0
41
1
10
34.2905432963254
20
-7.71990884738852
30
0
41
1
10
34.2675555735728
20
-7.72609478946504
30
0
41
1
10
34.2424476305679
20
-7.73222823270751
30
0
0
SPLINE
5
149
100
AcDbEntity
8
1
62
256
6
ByLayer
370
-1
48
1
60
0
100
AcDbSpline
70
4
71
3
72
8
73
4
40
0
40
0
40
0
40
0
40
1
40
1
40
1
40
1
41
1
10
33.8013474083449
20
-6.58204435602812
30
0
41
1
10
33.7988007706565
20
-6.57963168816803
30
0
41
1
10
33.7962476424816
20
-6.57722253213646
30
0
41
1
10
33.7936880245977
20
-6.57481688751272
30
0
0
SPLINE
5
14A
100
AcDbEntity
8
1
62
256
6
ByLayer
370
-1
48
1
60
0
100
AcDbSpline
70
4
71
3
72
12
73
8
40
0
40
0
40
0
40
0
40
0.5
40
0.5
40
0.75
40
0.75
40
1
40
1
40
1
40
1
41
1
10
15.2942738597819
20
11.7673449501945
30
0
41
1
10
14.8682983107285
20
11.8387065136064
30
0
41
1
10
14.4579782394615
20
11.9092393703472
30
0
41
1
10
13.8678464479123
20
12.0064011297938
30
0
41
1
10
13.6756053145206
20
12.0372872150477
30
0
41
1
10
13.3024798915711
20
12.0943337631919
30
0
41
1
10
13.1212774182494
20
12.1205479096519
30
0
41
1
10
12.9455241343703
20
12.1437279548788
30
0
0
SPLINE
5
14B
100
AcDbEntity
8
1
62
256
6
ByLayer
370
-1
48
1
60
0
100
AcDbSpline
70
4
71
3
72
16
73
12
40
0
40
0
40
0
40
0
40
0.249999999999999
40
0.249999999999999
40
0.499999999999998
40
0.499999999999998
40
0.749999999999997
40
0.749999999999997
40
0.874999999999999
40
0.874999999999999
40
1
40
1
40
1
40
1
41
1
10
2
20
6.50922422412995
30
0
41
1
10
2
20
6.54107362865469
30
0
41
1
10
2.00302359373975
20
6.57241134446619
30
0
41
1
10
2.01577046323735
20
6.63398977083619
30
0
41
1
10
2.02551780871769
20
6.66449834661663
30
0
41
1
10
2.05459052917186
20
6.72281734724464
30
0
41
1
10
2.07382007567469
20
6.75062740335034
30
0
41
1
10
2.11316180861633
20
6.78423159120791
30
0
41
1
10
2.1283575371622
20
6.79418980432845
30
0
41
1
10
2.16219779053796
20
6.80835447461277
30
0
41
1
10
2.18088220166297
20
6.81248853210045
30
0
41
1
10
2.20000000000002
20
6.81248853210045
30
0
0
SPLINE
5
14C
100
AcDbEntity
8
1
62
256
6
ByLayer
370
-1
48
1
60
0
100
AcDbSpline
70
4
71
3
72
8
73
4
40
0
40
0
40
0
40
0
40
1
40
1
40
1
40
1
41
1
10
33.0894386554282
20
8.35270791303023
30
0
41
1
10
33.0698367382859
20
8.32592019844012
30
0
41
1
10
33.0542754112743
20
8.29520989855817
30
0
41
1
10
33.04300216762
20
8.26033674816077
30
0
0
SPLINE
5
14D
100
AcDbEntity
8
1
62
256
6
ByLayer
370
-1
48
1
60
0
100
AcDbSpline
70
4
71
3
72
10
73
6
40
0
40
0
40
0
40
0
40
0.5
40
0.5
40
1
40
1
40
1
40
1
41
1
10
26.0094126860382
20
0.50405308704353
30
0
41
1
10
25.319907843851
20
0.50290991833657
30
0
41
1
10
24.6316307598227
20
0.473582560871165
30
0
41
1
10
23.2555961547756
20
0.360810729044147
30
0
41
1
10
22.5677493545498
20
0.277880249557739
30
0
41
1
10
21.878163233868
20
0.180069261677062
30
0
0
SPLINE
5
14E
100
AcDbEntity
8
1
62
256
6
ByLayer
370
-1
48
1
60
0
100
AcDbSpline
70
4
71
3
72
12
73
8
40
0
40
0
40
0
40
0
40
0.249999999999999
40
0.249999999999999
40
0.499999999999998
40
0.499999999999998
40
1
40
1
40
1
40
1
41
1
10
34.4000000000001
20
-8.50233797806334
30
0
41
1
10
34.3778458672423
20
-8.33539497135047
30
0
41
1
10
34.3479763581273
20
-8.16797557180067
30
0
41
1
10
34.2745729640531
20
-7.83857132075821
30
0
41
1
10
34.2310502744163
20
-7.67618916692422
30
0
41
1
10
34.0808718647639
20
-7.19571261960766
30
0
41
1
10
33.9550474260308
20
-6.88413793481197
30
0
41
1
10
33.8013474083426
20
-6.58204435602786
30
0
0
SPLINE
5
14F
100
AcDbEntity
8
1
62
256
6
ByLayer
370
-1
48
1
60
0
100
AcDbSpline
70
4
71
3
72
20
73
16
40
0
40
0
40
0
40
0
40
0.250000000000003
40
0.250000000000003
40
0.375000000000003
40
0.375000000000003
40
0.500000000000002
40
0.500000000000002
40
0.625000000000002
40
0.625000000000002
40
0.750000000000001
40
0.750000000000001
40
0.875000000000001
40
0.875000000000001
40
1
40
1
40
1
40
1
41
1
10
28.7840248089796
20
3.50948280219009
30
0
41
1
10
28.7076351385434
20
3.52702900648845
30
0
41
1
10
28.6244303894478
20
3.53392695264333
30
0
41
1
10
28.4877326063156
20
3.52627293619318
30
0
41
1
10
28.4403061821261
20
3.52058419370894
30
0
41
1
10
28.3449577547296
20
3.50272093126955
30
0
41
1
10
28.2966165341512
20
3.49054331301829
30
0
41
1
10
28.19881473276
20
3.45861398525335
30
0
41
1
10
28.1487731437017
20
3.43853075211604
30
0
41
1
10
28.0525109337397
20
3.39107228851469
30
0
41
1
10
28.0059354508787
20
3.36367656284841
30
0
41
1
10
27.9167221480635
20
3.30041436894922
30
0
41
1
10
27.8737246101794
20
3.26405531393519
30
0
41
1
10
27.79668669645
20
3.18502695312085
30
0
41
1
10
27.762171248213
20
3.14213305534767
30
0
41
1
10
27.7319137341337
20
3.09559575156231
30
0
0
SPLINE
5
150
100
AcDbEntity
8
1
62
256
6
ByLayer
370
-1
48
1
60
0
100
AcDbSpline
70
4
71
3
72
14
73
10
40
0
40
0
40
0
40
0
40
0.25
40
0.25
40
0.5
40
0.5
40
0.75
40
0.75
40
1
40
1
40
1
40
1
41
1
10
33.0894386554282
20
-1.18712422245363
30
0
41
1
10
33.083428608211
20
-1.24729949421692
30
0
41
1
10
33.078947991347
20
-1.31125886063694
30
0
41
1
10
33.0733994090319
20
-1.4474655564679
30
0
41
1
10
33.0724453527129
20
-1.51739265344065
30
0
41
1
10
33.074219829891
20
-1.65962200297832
30
0
41
1
10
33.0770300112954
20
-1.73309417302585
30
0
41
1
10
33.0860810121557
20
-1.8761075671014
30
0
41
1
10
33.0922716695316
20
-1.9461111835997
30
0
41
1
10
33.1000000000001
20
-2.01469462046853
30
0
0
SPLINE
5
151
100
AcDbEntity
8
1
62
256
6
ByLayer
370
-1
48
1
60
0
100
AcDbSpline
70
4
71
3
72
16
73
12
40
0
40
0
40
0
40
0
40
0.249999999999997
40
0.249999999999997
40
0.374999999999996
40
0.374999999999996
40
0.499999999999994
40
0.499999999999994
40
0.749999999999997
40
0.749999999999997
40
1
40
1
40
1
40
1
41
1
10
21.878163233868
20
0.180069261677005
30
0
41
1
10
21.7340714677904
20
0.204263582162042
30
0
41
1
10
21.5862827205025
20
0.212969214460941
30
0
41
1
10
21.3611343699292
20
0.209861972290326
30
0
41
1
10
21.2857720222972
20
0.206008696318094
30
0
41
1
10
21.1362729313338
20
0.193296146417623
30
0
41
1
10
21.0618637977106
20
0.184430493895064
30
0
41
1
10
20.8396901826422
20
0.150562469296517
30
0
41
1
10
20.692952652254
20
0.118468320021833
30
0
41
1
10
20.4029944964677
20
0.0323402837094022
30
0
41
1
10
20.2590376281882
20
-0.0220537849637594
30
0
41
1
10
20.122814753665
20
-0.0901136343220514
30
0
0
SPLINE
5
152
100
AcDbEntity
8
1
62
256
6
ByLayer
370
-1
48
1
60
0
100
AcDbSpline
70
4
71
3
72
8
73
4
40
0
40
0
40
0
40
0
40
1
40
1
40
1
40
1
41
1
10
27.8598760732993
20
-13.657615599941
30
0
41
1
10
27.8149505050666
20
-13.6552202290374
30
0
41
1
10
27.7787991188298
20
-13.6557817785473
30
0
41
1
10
27.7509153307108
20
-13.6574351352552
30
0
0
SPLINE
5
153
100
AcDbEntity
8
1
62
256
6
ByLayer
370
-1
48
1
60
0
100
AcDbSpline
70
4
71
3
72
8
73
4
40
0
40
0
40
0
40
0
40
1
40
1
40
1
40
1
41
1
10
28.9714893743107
20
8.25304945075015
30
0
41
1
10
28.8738105373701
20
8.32612040674687
30
0
41
1
10
28.7777586242739
20
8.40298028626725
30
0
41
1
10
28.6836643748675
20
8.48216615804594
30
0
0
SPLINE
5
154
100
AcDbEntity
8
1
62
256
6
ByLayer
370
-1
48
1
60
0
100
AcDbSpline
70
4
71
3
72
12
73
8
40
0
40
0
40
0
40
0
40
0.25
40
0.25
40
0.499999999999999
40
0.499999999999999
40
1
40
1
40
1
40
1
41
1
10
17.0000000000012
20
-8.84106001747503
30
0
41
1
10
16.8268624997252
20
-8.65244625747079
30
0
41
1
10
16.660489986433
20
-8.45740501987018
30
0
41
1
10
16.341815059701
20
-8.05316867507645
30
0
41
1
10
16.1890271785499
20
-7.84314152577812
30
0
41
1
10
15.7594614588564
20
-7.20026301773464
30
0
41
1
10
15.5093811913349
20
-6.75252563098076
30
0
41
1
10
15.2942738597818
20
-6.28405729491251
30
0
0
SPLINE
5
155
100
AcDbEntity
8
1
62
256
6
ByLayer
370
-1
48
1
60
0
100
AcDbSpline
70
4
71
3
72
32
73
28
40
0
40
0
40
0
40
0
40
0.0625
40
0.0625
40
0.125
40
0.125
40
0.25
40
0.25
40
0.3125
40
0.3125
40
0.375
40
0.375
40
0.4375
40
0.4375
40
0.5
40
0.5
40
0.5625
40
0.5625
40
0.625
40
0.625
40
0.6875
40
0.6875
40
0.75
40
0.75
40
0.875
40
0.875
40
1
40
1
40
1
40
1
41
1
10
33.0200420206922
20
-0.0029498917590161
30
0
41
1
10
32.9947968643771
20
-0.0327700439154341
30
0
41
1
10
32.970010877714
20
-0.070899755061248
30
0
41
1
10
32.9215391324064
20
-0.164219099206747
30
0
41
1
10
32.8977274777137
20
-0.219873790255406
30
0
41
1
10
32.8303820233391
20
-0.408464473826371
30
0
41
1
10
32.7902271614562
20
-0.56332859024792
30
0
41
1
10
32.7396353222874
20
-0.84154549747484
30
0
41
1
10
32.7247524786399
20
-0.940241150157334
30
0
41
1
10
32.6994056194549
20
-1.1478601494359
30
0
41
1
10
32.6889050902868
20
-1.25698909315167
30
0
41
1
10
32.6726391391882
20
-1.48602133502803
30
0
41
1
10
32.6668800393842
20
-1.60680780441828
30
0
41
1
10
32.6607121810912
20
-1.85237711468508
30
0
41
1
10
32.6602268635899
20
-1.97771479525028
30
0
41
1
10
32.6643506699334
20
-2.23335309610033
30
0
41
1
10
32.6689740529828
20
-2.363918664202
30
0
41
1
10
32.6832357285255
20
-2.62903005929528
30
0
41
1
10
32.6927307855394
20
-2.76117174101304
30
0
41
1
10
32.715921030911
20
-3.02469737245713
30
0
41
1
10
32.72961655476
20
-3.15608120198911
30
0
41
1
10
32.7608456298113
20
-3.41812560768716
30
0
41
1
10
32.7784488492464
20
-3.5490776984152
30
0
41
1
10
32.8350343942519
20
-3.93054127399304
30
0
41
1
10
32.8781170714553
20
-4.17353264076192
30
0
41
1
10
32.972518436109
20
-4.63592659442122
30
0
41
1
10
33.022016252377
20
-4.84647511205344
30
0
41
1
10
33.0731437821287
20
-5.03703819691151
30
0
0
SPLINE
5
156
100
AcDbEntity
8
1
62
256
6
ByLayer
370
-1
48
1
60
0
100
AcDbSpline
70
4
71
3
72
12
73
8
40
0
40
0
40
0
40
0
40
0.25
40
0.25
40
0.5
40
0.5
40
1
40
1
40
1
40
1
41
1
10
29.1500000000006
20
8.25755591593548
30
0
41
1
10
29.2080416535036
20
8.25755591593548
30
0
41
1
10
29.2687959751885
20
8.25755591593548
30
0
41
1
10
29.3961001892571
20
8.25755591593548
30
0
41
1
10
29.4628033020287
20
8.25755591593548
30
0
41
1
10
29.6679337521616
20
8.25755591593548
30
0
41
1
10
29.812550942725
20
8.25755591593548
30
0
41
1
10
29.9653682560119
20
8.25755591593548
30
0
0
SPLINE
5
157
100
AcDbEntity
8
1
62
256
6
ByLayer
370
-1
48
1
60
0
100
AcDbSpline
70
4
71
3
72
10
73
6
40
0
40
0
40
0
40
0
40
0.66212385933304
40
0.66212385933304
40
1
40
1
40
1
40
1
41
1
10
27.538284276674
20
9.72656291115032
30
0
41
1
10
27.5130440424532
20
9.82664104033381
30
0
41
1
10
27.4963299044107
20
9.92794929961272
30
0
41
1
10
27.4821007354992
20
10.08317484176
30
0
41
1
10
27.4792197397298
20
10.1360342396928
30
0
41
1
10
27.4782026890305
20
10.1890901418159
30
0
0
SPLINE
5
158
100
AcDbEntity
8
1
62
256
6
ByLayer
370
-1
48
1
60
0
100
AcDbSpline
70
4
71
3
72
8
73
4
40
0
40
0
40
0
40
0
40
1
40
1
40
1
40
1
41
1
10
34.4
20
8.76812547753678
30
0
41
1
10
34.3772128750723
20
8.59660384508121
30
0
41
1
10
34.346721063869
20
8.42660041176467
30
0
41
1
10
34.3087675960688
20
8.25806728888202
30
0
0
SPLINE
5
159
100
AcDbEntity
8
1
62
256
6
ByLayer
370
-1
48
1
60
0
100
AcDbSpline
70
4
71
3
72
20
73
16
40
0
40
0
40
0
40
0
40
0.250000000000005
40
0.250000000000005
40
0.375000000000004
40
0.375000000000004
40
0.500000000000003
40
0.500000000000003
40
0.625000000000002
40
0.625000000000002
40
0.750000000000002
40
0.750000000000002
40
0.875000000000001
40
0.875000000000001
40
1
40
1
40
1
40
1
41
1
10
28.7840248089796
20
-13.9187187887496
30
0
41
1
10
28.7076351385346
20
-13.8410670595376
30
0
41
1
10
28.6244303894288
20
-13.7704137618855
30
0
41
1
10
28.4877326062782
20
-13.6767138852337
30
0
41
1
10
28.440306182083
20
-13.6477247402678
30
0
41
1
10
28.3449577546747
20
-13.596245412979
30
0
41
1
10
28.2966165340902
20
-13.5734548780777
30
0
41
1
10
28.1988147326868
20
-13.533830463436
30
0
41
1
10
28.148773143623
20
-13.5168840236254
30
0
41
1
10
28.0525109336535
20
-13.4903410131939
30
0
41
1
10
28.0059354507894
20
-13.4805291741514
30
0
41
1
10
27.9167221479694
20
-13.4670161009873
30
0
41
1
10
27.8737246100849
20
-13.4633587479046
30
0
41
1
10
27.7966866963603
20
-13.4614461409959
30
0
41
1
10
27.7621712481271
20
-13.4630695515804
30
0
41
1
10
27.7319137340529
20
-13.4665351310594
30
0
0
SPLINE
5
15A
100
AcDbEntity
8
1
62
256
6
ByLayer
370
-1
48
1
60
0
100
AcDbSpline
70
4
71
3
72
12
73
8
40
0
40
0
40
0
40
0
40
0.250838424550719
40
0.250838424550719
40
0.501676849101647
40
0.501676849101647
40
1
40
1
40
1
40
1
41
1
10
28.0560484179774
20
8.9575559159355
30
0
41
1
10
28.0558947156149
20
8.95772720912842
30
0
41
1
10
28.0557410439303
20
8.95789852985382
30
0
41
1
10
28.055433761946
20
8.9582412263359
30
0
41
1
10
28.0552801516412
20
8.95841260209809
30
0
41
1
10
28.0548214661994
20
8.95892452022781
30
0
41
1
10
28.0545164815024
20
8.95926514367474
30
0
41
1
10
28.0542116180605
20
8.95960587557354
30
0
0
SPLINE
5
15B
100
AcDbEntity
8
1
62
256
6
ByLayer
370
-1
48
1
60
0
100
AcDbSpline
70
4
71
3
72
22
73
18
40
0
40
0
40
0
40
0
40
0.125000000000002
40
0.125000000000002
40
0.250000000000004
40
0.250000000000004
40
0.312500000000004
40
0.312500000000004
40
0.375000000000004
40
0.375000000000004
40
0.500000000000004
40
0.500000000000004
40
0.625000000000003
40
0.625000000000003
40
0.750000000000003
40
0.750000000000003
40
1
40
1
40
1
40
1
41
1
10
26.9860669257868
20
0.44763410564488
30
0
41
1
10
27.121634134964
20
0.432578592203157
30
0
41
1
10
27.2511692371981
20
0.404916749354442
30
0
41
1
10
27.4987213861178
20
0.326559413634641
30
0
41
1
10
27.6101613348323
20
0.277997550685029
30
0
41
1
10
27.7659983864989
20
0.19298700003452
30
0
41
1
10
27.816135534476
20
0.162489287920039
30
0
41
1
10
27.9118140687045
20
0.0985941517301683
30
0
41
1
10
27.9575725140741
20
0.065093647528613
30
0
41
1
10
28.0900702401024
20
-0.039851573572065
30
0
41
1
10
28.1721094409508
20
-0.115725725572844
30
0
41
1
10
28.3283695799006
20
-0.278695343167328
30
0
41
1
10
28.4028549944361
20
-0.366236149976828
30
0
41
1
10
28.5446662695127
20
-0.549735738460953
30
0
41
1
10
28.6120430646711
20
-0.645666459647515
30
0
41
1
10
28.8067699588341
20
-0.945251175299433
30
0
41
1
10
28.9268351171606
20
-1.16058952575025
30
0
41
1
10
29.0420838834568
20
-1.39104376115927
30
0
0
SPLINE
5
15C
100
AcDbEntity
8
1
62
256
6
ByLayer
370
-1
48
1
60
0
100
AcDbSpline
70
4
71
3
72
8
73
4
40
0
40
0
40
0
40
0
40
1
40
1
40
1
40
1
41
1
10
29.1635931036862
20
3.28032600905936
30
0
41
1
10
29.159102876761
20
3.28553176138911
30
0
41
1
10
29.1545707152887
20
3.29065057659164
30
0
41
1
10
29.1500000000005
20
3.29568089153676
30
0
0
SPLINE
5
15D
100
AcDbEntity
8
1
62
256
6
ByLayer
370
-1
48
1
60
0
100
AcDbSpline
70
4
71
3
72
12
73
8
40
0
40
0
40
0
40
0
40
0.499999999999998
40
0.499999999999998
40
0.749999999999999
40
0.749999999999999
40
1
40
1
40
1
40
1
41
1
10
29.1500000000005
20
-12.1103693089493
30
0
41
1
10
29.261028930309
20
-12.237214666753
30
0
41
1
10
29.3810581277044
20
-12.3553545817471
30
0
41
1
10
29.575905384637
20
-12.518245914524
30
0
41
1
10
29.6436491806934
20
-12.5703639727365
30
0
41
1
10
29.78289536935
20
-12.66836309745
30
0
41
1
10
29.8540805757012
20
-12.7140642830016
30
0
41
1
10
29.9268272197472
20
-12.7564685155823
30
0
0
SPLINE
5
15E
100
AcDbEntity
8
1
62
256
6
ByLayer
370
-1
48
1
60
0
100
AcDbSpline
70
4
71
3
72
12
73
8
40
0
40
0
40
0
40
0
40
0.250000000000001
40
0.250000000000001
40
0.500000000000002
40
0.500000000000002
40
1
40
1
40
1
40
1
41
1
10
29.9653682560119
20
8.25755591593548
30
0
41
1
10
29.978056675642
20
8.18112840339978
30
0
41
1
10
29.9940524620738
20
8.1051413081849
30
0
41
1
10
30.0338086400064
20
7.95415725249282
30
0
41
1
10
30.0577282158318
20
7.87879938378148
30
0
41
1
10
30.1418901034658
20
7.65846480098892
30
0
41
1
10
30.2143573020216
20
7.51849425124837
30
0
41
1
10
30.3084731698519
20
7.38620561358073
30
0
0
SPLINE
5
15F
100
AcDbEntity
8
1
62
256
6
ByLayer
370
-1
48
1
60
0
100
AcDbSpline
70
4
71
3
72
12
73
8
40
0
40
0
40
0
40
0
40
0.5
40
0.5
40
0.75
40
0.75
40
1
40
1
40
1
40
1
41
1
10
28.6836643748739
20
8.48216615805268
30
0
41
1
10
28.5652444147887
20
8.53874912212106
30
0
41
1
10
28.4539029046071
20
8.60714163807634
30
0
41
1
10
28.2963996843489
20
8.72676624182193
30
0
41
1
10
28.2453169600192
20
8.7696809698451
30
0
41
1
10
28.1475620033894
20
8.86012273543238
30
0
41
1
10
28.1007951665633
20
8.90768801987775
30
0
41
1
10
28.0560484179774
20
8.9575559159355
30
0
0
SPLINE
5
160
100
AcDbEntity
8
1
62
256
6
ByLayer
370
-1
48
1
60
0
100
AcDbSpline
70
4
71
3
72
8
73
4
40
0
40
0
40
0
40
0
40
1
40
1
40
1
40
1
41
1
10
27.4836403696141
20
0.896169551859742
30
0
41
1
10
27.4599908039806
20
0.882765259073039
30
0
41
1
10
27.4366851241883
20
0.868828825204531
30
0
41
1
10
27.4137251248244
20
0.854355202602363
30
0
0
SPLINE
5
161
100
AcDbEntity
8
1
62
256
6
ByLayer
370
-1
48
1
60
0
100
AcDbSpline
70
4
71
3
72
8
73
4
40
0
40
0
40
0
40
0
40
1
40
1
40
1
40
1
41
1
10
33.1000000000001
20
-5.13711089553664
30
0
41
1
10
33.0910456810129
20
-5.10375351669279
30
0
41
1
10
33.0820935726504
20
-5.07039595346529
30
0
41
1
10
33.0731437821287
20
-5.03703819691148
30
0
0
SPLINE
5
162
100
AcDbEntity
8
1
62
256
6
ByLayer
370
-1
48
1
60
0
100
AcDbSpline
70
4
71
3
72
12
73
8
40
0
40
0
40
0
40
0
40
0.5
40
0.5
40
0.75
40
0.75
40
1
40
1
40
1
40
1
41
1
10
29.9268272197636
20
-12.7564685155879
30
0
41
1
10
29.9325827804534
20
-12.9079384175246
30
0
41
1
10
29.9606160736174
20
-13.0609363947673
30
0
41
1
10
30.049573528169
20
-13.2939892787932
30
0
41
1
10
30.0873085366934
20
-13.3724826157344
30
0
41
1
10
30.1829091640775
20
-13.5291765010222
30
0
41
1
10
30.240013687096
20
-13.6061860114212
30
0
41
1
10
30.3084731698519
20
-13.6807796705193
30
0
0
SPLINE
5
163
100
AcDbEntity
8
1
62
256
6
ByLayer
370
-1
48
1
60
0
100
AcDbSpline
70
4
71
3
72
8
73
4
40
0
40
0
40
0
40
0
40
1
40
1
40
1
40
1
41
1
10
27.7509153307108
20
1.56926370086936
30
0
41
1
10
27.6944265992281
20
1.46141092475304
30
0
41
1
10
27.650193864643
20
1.34915087188071
30
0
41
1
10
27.6171282777966
20
1.2327419258265
30
0
0
SPLINE
5
164
100
AcDbEntity
8
1
62
256
6
ByLayer
370
-1
48
1
60
0
100
AcDbSpline
70
4
71
3
72
8
73
4
40
0
40
0
40
0
40
0
40
1
40
1
40
1
40
1
41
1
10
27.7509153307108
20
-13.6574351352552
30
0
41
1
10
27.6946188057353
20
-13.6547630273761
30
0
41
1
10
27.6503025405611
20
-13.6555496419187
30
0
41
1
10
27.6171282777968
20
-13.6568643668798
30
0
0
SPLINE
5
165
100
AcDbEntity
8
1
62
256
6
ByLayer
370
-1
48
1
60
0
100
AcDbSpline
70
4
71
3
72
8
73
4
40
0
40
0
40
0
40
0
40
1
40
1
40
1
40
1
41
1
10
27.6171282777968
20
1.23274192582645
30
0
41
1
10
27.561108180175
20
1.12480547987479
30
0
41
1
10
27.5169452443707
20
1.01253518767666
30
0
41
1
10
27.4836403696147
20
0.896169551860197
30
0
0
SPLINE
5
166
100
AcDbEntity
8
1
62
256
6
ByLayer
370
-1
48
1
60
0
100
AcDbSpline
70
4
71
3
72
22
73
18
40
0
40
0
40
0
40
0
40
0.125
40
0.125
40
0.1875
40
0.1875
40
0.25
40
0.25
40
0.375
40
0.375
40
0.437499999999999
40
0.437499999999999
40
0.499999999999999
40
0.499999999999999
40
0.75
40
0.75
40
1
40
1
40
1
40
1
41
1
10
12.3801399927306
20
12.5500539283052
30
0
41
1
10
12.3134695388961
20
12.5328450274595
30
0
41
1
10
12.2575813971895
20
12.5157623536736
30
0
41
1
10
12.1908170013331
20
12.4897792132407
30
0
41
1
10
12.1714142564651
20
12.481059225533
30
0
41
1
10
12.1385631091798
20
12.4634198418534
30
0
41
1
10
12.1251976586667
20
12.4545253665562
30
0
41
1
10
12.0948141292261
20
12.427966873473
30
0
41
1
10
12.0871489419136
20
12.4102552142319
30
0
41
1
10
12.0937720511695
20
12.3834661428595
30
0
41
1
10
12.0990077612394
20
12.3745015991468
30
0
41
1
10
12.115495657142
20
12.3564906000219
30
0
41
1
10
12.1268064656316
20
12.3474098760964
30
0
41
1
10
12.1976807355403
20
12.3022604796189
30
0
41
1
10
12.2987049972574
20
12.267103830799
30
0
41
1
10
12.5752257869642
20
12.2004363035726
30
0
41
1
10
12.7470136222111
20
12.1699094437722
30
0
41
1
10
12.9455241343703
20
12.1437279548788
30
0
0
SPLINE
5
167
100
AcDbEntity
8
1
62
256
6
ByLayer
370
-1
48
1
60
0
100
AcDbSpline
70
4
71
3
72
8
73
4
40
0
40
0
40
0
40
0
40
1
40
1
40
1
40
1
41
1
10
28.7840248089796
20
8.25755591593548
30
0
41
1
10
28.9056086494192
20
8.25755591593548
30
0
41
1
10
29.0276121052581
20
8.25755591593548
30
0
41
1
10
29.1500000000005
20
8.25755591593548
30
0
0
SPLINE
5
168
100
AcDbEntity
8
1
62
256
6
ByLayer
370
-1
48
1
60
0
100
AcDbSpline
70
4
71
3
72
8
73
4
40
0
40
0
40
0
40
0
40
1
40
1
40
1
40
1
41
1
10
16.0712855422589
20
2.10212619059394
30
0
41
1
10
16.3807844211806
20
2.06275643473663
30
0
41
1
10
16.6903571942907
20
2.02338233612832
30
0
41
1
10
17.0000000000013
20
1.98400412171401
30
0
0
SPLINE
5
169
100
AcDbEntity
8
1
62
256
6
ByLayer
370
-1
48
1
60
0
100
AcDbSpline
70
4
71
3
72
9
73
5
40
0
40
0
40
0
40
0
40
0.502147504449883
40
1
40
1
40
1
40
1
41
1
10
27.6809572713288
20
-13.4749076428477
30
0
41
1
10
27.6887694177747
20
-13.473284226552
30
0
41
1
10
27.7043268911798
20
-13.4700512794969
30
0
41
1
10
27.7227444877291
20
-13.4677038197455
30
0
41
1
10
27.7319137341333
20
-13.4665351310501
30
0
0
SPLINE
5
16A
100
AcDbEntity
8
1
62
256
6
ByLayer
370
-1
48
1
60
0
100
AcDbSpline
70
4
71
3
72
24
73
20
40
0
40
0
40
0
40
0
40
0.146956223691848
40
0.146956223691848
40
0.220434335537769
40
0.220434335537769
40
0.29391244738369
40
0.29391244738369
40
0.440868671075527
40
0.440868671075527
40
0.587824894767364
40
0.587824894767364
40
0.7347811184592
40
0.7347811184592
40
0.808259230305117
40
0.808259230305117
40
0.881737342151034
40
0.881737342151034
40
1
40
1
40
1
40
1
41
1
10
32.4753231611151
20
-0.0200706051782618
30
0
41
1
10
32.3210541466434
20
-0.0298693685448086
30
0
41
1
10
32.1623774883906
20
-0.0390823436163146
30
0
41
1
10
31.9164690444243
20
-0.0468473141371248
30
0
41
1
10
31.833183425289
20
-0.048424447460377
30
0
41
1
10
31.6637345545871
20
-0.0486848141403016
30
0
41
1
10
31.5772684479434
20
-0.047338875902085
30
0
41
1
10
31.3188233585148
20
-0.0379793817575091
30
0
41
1
10
31.1462427214022
20
-0.0245963422301827
30
0
41
1
10
30.8006696173028
20
0.0185368171927962
30
0
41
1
10
30.6264508513984
20
0.0486926730549158
30
0
41
1
10
30.291144030937
20
0.120947896149829
30
0
41
1
10
30.1284544191519
20
0.163095710876405
30
0
41
1
10
29.8904575784312
20
0.231153535961482
30
0
41
1
10
29.8119452915085
20
0.25469469990199
30
0
41
1
10
29.658942208066
20
0.30182996734726
30
0
41
1
10
29.5841676226941
20
0.325499254462642
30
0
41
1
10
29.3927995232602
20
0.386530656138149
30
0
41
1
10
29.2784837452944
20
0.423421116316661
30
0
41
1
10
29.1668195312923
20
0.458187506834804
30
0
0
SPLINE
5
16B
100
AcDbEntity
8
1
62
256
6
ByLayer
370
-1
48
1
60
0
100
AcDbSpline
70
4
71
3
72
20
73
16
40
0
40
0
40
0
40
0
40
0.124999999999996
40
0.124999999999996
40
0.249999999999992
40
0.249999999999992
40
0.49999999999999
40
0.49999999999999
40
0.624999999999992
40
0.624999999999992
40
0.749999999999995
40
0.749999999999995
40
0.874999999999997
40
0.874999999999997
40
1
40
1
40
1
40
1
41
1
10
27.4137251248244
20
8.25755591593548
30
0
41
1
10
27.4788834820092
20
8.25755591593548
30
0
41
1
10
27.5439661986493
20
8.25755591593548
30
0
41
1
10
27.673979415277
20
8.25755591593548
30
0
41
1
10
27.7393545141277
20
8.25755591593548
30
0
41
1
10
27.9311064208322
20
8.25755591593548
30
0
41
1
10
28.0533893065533
20
8.25755591593548
30
0
41
1
10
28.2292621469534
20
8.25755591593548
30
0
41
1
10
28.2866896725803
20
8.25755591593548
30
0
41
1
10
28.3967805329096
20
8.25755591593548
30
0
41
1
10
28.4497635555616
20
8.25755591593548
30
0
41
1
10
28.5518890843187
20
8.25755591593548
30
0
41
1
10
28.6010306278634
20
8.25755591593548
30
0
41
1
10
28.6956315698732
20
8.25755591593548
30
0
41
1
10
28.7410718698881
20
8.25755591593548
30
0
41
1
10
28.7840248089795
20
8.25755591593548
30
0
0
SPLINE
5
16C
100
AcDbEntity
8
1
62
256
6
ByLayer
370
-1
48
1
60
0
100
AcDbSpline
70
4
71
3
72
26
73
22
40
0
40
0
40
0
40
0
40
0.124999999999998
40
0.124999999999998
40
0.249999999999997
40
0.249999999999997
40
0.312499999999997
40
0.312499999999997
40
0.374999999999998
40
0.374999999999998
40
0.499999999999998
40
0.499999999999998
40
0.562499999999999
40
0.562499999999999
40
0.624999999999999
40
0.624999999999999
40
0.749999999999999
40
0.749999999999999
40
0.875
40
0.875
40
1
40
1
40
1
40
1
41
1
10
33.1000000000001
20
-2.01469462046853
30
0
41
1
10
33.1136442739
20
-2.0926853212045
30
0
41
1
10
33.129980574574
20
-2.16582016925497
30
0
41
1
10
33.1674626094334
20
-2.30298622712829
30
0
41
1
10
33.1887728219874
20
-2.36710011569531
30
0
41
1
10
33.222590995848
20
-2.4513400250884
30
0
41
1
10
33.2342351097631
20
-2.47765746477688
30
0
41
1
10
33.2582534537078
20
-2.52671449132666
30
0
41
1
10
33.2707087638786
20
-2.54956910396706
30
0
41
1
10
33.3082936025599
20
-2.61105011623283
30
0
41
1
10
33.3337850997715
20
-2.64313141096795
30
0
41
1
10
33.3726333289088
20
-2.67778684593725
30
0
41
1
10
33.3857209482018
20
-2.68705326952062
30
0
41
1
10
33.4114020175847
20
-2.7004878711401
30
0
41
1
10
33.4240828093029
20
-2.70474932959308
30
0
41
1
10
33.4616647072315
20
-2.71024221920081
30
0
41
1
10
33.48641814543
20
-2.70395126077236
30
0
41
1
10
33.5325585412796
20
-2.67193152084374
30
0
41
1
10
33.5541018355297
20
-2.64651654133337
30
0
41
1
10
33.5942078990959
20
-2.57610194030181
30
0
41
1
10
33.6120506938166
20
-2.53236932482324
30
0
41
1
10
33.6277799650578
20
-2.48007695594905
30
0
0
SPLINE
5
16D
100
AcDbEntity
8
1
62
256
6
ByLayer
370
-1
48
1
60
0
100
AcDbSpline
70
4
71
3
72
8
73
4
40
0
40
0
40
0
40
0
40
1
40
1
40
1
40
1
41
1
10
32.963598131996
20
8.4714445678473
30
0
41
1
10
33.0049108070468
20
8.43299345696948
30
0
41
1
10
33.0466000430305
20
8.39387268611284
30
0
41
1
10
33.0894386554282
20
8.35270791303023
30
0
0
SPLINE
5
16E
100
AcDbEntity
8
1
62
256
6
ByLayer
370
-1
48
1
60
0
100
AcDbSpline
70
4
71
3
72
16
73
12
40
0
40
0
40
0
40
0
40
0.249999999999999
40
0.249999999999999
40
0.374999999999999
40
0.374999999999999
40
0.5
40
0.5
40
0.75
40
0.75
40
1
40
1
40
1
40
1
41
1
10
33.5892839947045
20
-12.9453714489506
30
0
41
1
10
33.6526723046138
20
-12.8158186441679
30
0
41
1
10
33.6986373941124
20
-12.6924980625326
30
0
41
1
10
33.7499216411324
20
-12.5164304141544
30
0
41
1
10
33.7640127975969
20
-12.4592145036869
30
0
41
1
10
33.7870495779526
20
-12.3475443567774
30
0
41
1
10
33.7960133473362
20
-12.29290710194
30
0
41
1
10
33.815936706744
20
-12.1342012945294
30
0
41
1
10
33.8200835434309
20
-12.035687322801
30
0
41
1
10
33.8144158678573
20
-11.8492014144883
30
0
41
1
10
33.8045472642267
20
-11.7612435489905
30
0
41
1
10
33.7883086613535
20
-11.6771925888693
30
0
0
SPLINE
5
16F
100
AcDbEntity
8
1
62
256
6
ByLayer
370
-1
48
1
60
0
100
AcDbSpline
70
4
71
3
72
8
73
4
40
0
40
0
40
0
40
0
40
1
40
1
40
1
40
1
41
1
10
27.4836403696149
20
-13.6571173613471
30
0
41
1
10
27.4600039642027
20
-13.6564988344805
30
0
41
1
10
27.4366977994718
20
-13.6563006382871
30
0
41
1
10
27.4137251248243
20
-13.6564820879604
30
0
0
SPLINE
5
170
100
AcDbEntity
8
1
62
256
6
ByLayer
370
-1
48
1
60
0
100
AcDbSpline
70
4
71
3
72
16
73
12
40
0
40
0
40
0
40
0
40
0.125000000000001
40
0.125000000000001
40
0.250000000000002
40
0.250000000000002
40
0.500000000000001
40
0.500000000000001
40
0.75
40
0.75
40
1
40
1
40
1
40
1
41
1
10
2.19999999999999
20
-6.81248853210045
30
0
41
1
10
2.18088891185283
20
-6.81248853210045
30
0
41
1
10
2.16201780603981
20
-6.80829864379717
30
0
41
1
10
2.12825819301284
20
-6.79412855322335
30
0
41
1
10
2.11309782862557
20
-6.78418939865395
30
0
41
1
10
2.07370093595904
20
-6.7505006079011
30
0
41
1
10
2.05451617127514
20
-6.72264113825187
30
0
41
1
10
2.02569734508626
20
-6.66488544188232
30
0
41
1
10
2.01577536745003
20
-6.63404807241025
30
0
41
1
10
2.0029802175697
20
-6.57216708582919
30
0
41
1
10
2
20
-6.54086250819924
30
0
41
1
10
2
20
-6.50922422412992
30
0
0
SPLINE
5
171
100
AcDbEntity
8
1
62
256
6
ByLayer
370
-1
48
1
60
0
100
AcDbSpline
70
4
71
3
72
8
73
4
40
0
40
0
40
0
40
0
40
1
40
1
40
1
40
1
41
1
10
28.7840248089795
20
-11.6898211622902
30
0
41
1
10
28.9055940246824
20
-11.8303579068736
30
0
41
1
10
29.0275978036079
20
-11.9705305268026
30
0
41
1
10
29.1500000000005
20
-12.1103693089493
30
0
0
SPLINE
5
172
100
AcDbEntity
8
1
62
256
6
ByLayer
370
-1
48
1
60
0
100
AcDbSpline
70
4
71
3
72
10
73
6
40
0
40
0
40
0
40
0
40
0.5
40
0.5
40
1
40
1
40
1
40
1
41
1
10
29.1500000000005
20
3.29568089153676
30
0
41
1
10
29.0982468444659
20
3.3526379880368
30
0
41
1
10
29.0413681160044
20
3.39786877555665
30
0
41
1
10
28.9186464655433
20
3.46851666347726
30
0
41
1
10
28.8524160439025
20
3.49377378586209
30
0
41
1
10
28.7840248089795
20
3.50948280219012
30
0
0
SPLINE
5
173
100
AcDbEntity
8
1
62
256
6
ByLayer
370
-1
48
1
60
0
100
AcDbSpline
70
4
71
3
72
24
73
20
40
0
40
0
40
0
40
0
40
0.0532105879928473
40
0.0532105879928473
40
0.13210970566011
40
0.13210970566011
40
0.211008823327373
40
0.211008823327373
40
0.368807058661899
40
0.368807058661899
40
0.526605293996424
40
0.526605293996424
40
0.68440352933095
40
0.68440352933095
40
0.763302646998213
40
0.763302646998213
40
0.842201764665476
40
0.842201764665476
40
1
40
1
40
1
40
1
41
1
10
12.7308666662104
20
-12.6345662518046
30
0
41
1
10
12.7672548891979
20
-12.6432660020483
30
0
41
1
10
12.8058269230272
20
-12.652078980363
30
0
41
1
10
12.9064016546399
20
-12.674269833228
30
0
41
1
10
12.970858696834
20
-12.687829851084
30
0
41
1
10
13.1080987609913
20
-12.7158556318336
30
0
41
1
10
13.1811707090808
20
-12.7303772241223
30
0
41
1
10
13.4106070813977
20
-12.7753779353764
30
0
41
1
10
13.5749950477835
20
-12.8069018564315
30
0
41
1
10
13.9237879016215
20
-12.8748995798868
30
0
41
1
10
14.1093649795878
20
-12.9116168823816
30
0
41
1
10
14.4871263839465
20
-12.989063178221
30
0
41
1
10
14.6806154757848
20
-13.030027205422
30
0
41
1
10
14.9773519562265
20
-13.0955028410428
30
0
41
1
10
15.0776585744456
20
-13.1180701894553
30
0
41
1
10
15.2772728288615
20
-13.1638895412666
30
0
41
1
10
15.3769123789206
20
-13.1872120173838
30
0
41
1
10
15.675335984724
20
-13.2584105941068
30
0
41
1
10
15.8736236857895
20
-13.3075291192912
30
0
41
1
10
16.0712855422588
20
-13.3581432032829
30
0
0
SPLINE
5
174
100
AcDbEntity
8
1
62
256
6
ByLayer
370
-1
48
1
60
0
100
AcDbSpline
70
4
71
3
72
32
73
28
40
0
40
0
40
0
40
0
40
0.0624999999999996
40
0.0624999999999996
40
0.124999999999999
40
0.124999999999999
40
0.249999999999999
40
0.249999999999999
40
0.312499999999998
40
0.312499999999998
40
0.374999999999998
40
0.374999999999998
40
0.437499999999998
40
0.437499999999998
40
0.499999999999997
40
0.499999999999997
40
0.624999999999997
40
0.624999999999997
40
0.687499999999997
40
0.687499999999997
40
0.749999999999997
40
0.749999999999997
40
0.874999999999999
40
0.874999999999999
40
0.937499999999999
40
0.937499999999999
40
1
40
1
40
1
40
1
41
1
10
12.3801399927306
20
-0.318984013526915
30
0
41
1
10
12.3949760438264
20
-0.217983051321539
30
0
41
1
10
12.4160887949577
20
-0.118125081125669
30
0
41
1
10
12.4708509756739
20
0.0792973214392134
30
0
41
1
10
12.5047995048847
20
0.177517871936516
30
0
41
1
10
12.6234836018568
20
0.462954759734373
30
0
41
1
10
12.7242942851664
20
0.64084533616122
30
0
41
1
10
12.9050906944381
20
0.890604602425839
30
0
41
1
10
12.9704844649626
20
0.971051513030119
30
0
41
1
10
13.1079478617973
20
1.12298034142665
30
0
41
1
10
13.1803364276236
20
1.19494371541168
30
0
41
1
10
13.3319504472246
20
1.33133758838034
30
0
41
1
10
13.4111775124352
20
1.39576641747291
30
0
41
1
10
13.5762317748777
20
1.51730107898737
30
0
41
1
10
13.6619322110872
20
1.57424863733942
30
0
41
1
10
13.9238093913936
20
1.73153040961384
30
0
41
1
10
14.1062040893161
20
1.81957123665433
30
0
41
1
10
14.3904858693091
20
1.92812975868455
30
0
41
1
10
14.487436655643
20
1.96046122203893
30
0
41
1
10
14.682038571043
20
2.01642269026047
30
0
41
1
10
14.7798680961417
20
2.04015942570223
30
0
41
1
10
15.0748422040397
20
2.0991563608622
30
0
41
1
10
15.2734563402169
20
2.12229788921991
30
0
41
1
10
15.5742493021614
20
2.13288872090109
30
0
41
1
10
15.6750729138433
20
2.13232897029056
30
0
41
1
10
15.874324826796
20
2.12317356633298
30
0
41
1
10
15.9731792188843
20
2.11460578991515
30
0
41
1
10
16.0712855422589
20
2.10212619059391
30
0
0
SPLINE
5
175
100
AcDbEntity
8
1
62
256
6
ByLayer
370
-1
48
1
60
0
100
AcDbSpline
70
4
71
3
72
8
73
4
40
0
40
0
40
0
40
0
40
1
40
1
40
1
40
1
41
1
10
32.9360009584582
20
-0.0034460558476326
30
0
41
1
10
32.7816034574267
20
-0.005031528821803
30
0
41
1
10
32.62808904434
20
-0.0103673167679688
30
0
41
1
10
32.4753231611151
20
-0.0200706051783186
30
0
0
SPLINE
5
176
100
AcDbEntity
8
1
62
256
6
ByLayer
370
-1
48
1
60
0
100
AcDbSpline
70
4
71
3
72
26
73
22
40
0
40
0
40
0
40
0
40
0.125000000000001
40
0.125000000000001
40
0.250000000000002
40
0.250000000000002
40
0.312500000000003
40
0.312500000000003
40
0.375000000000003
40
0.375000000000003
40
0.50000000000001
40
0.50000000000001
40
0.562500000000011
40
0.562500000000011
40
0.625000000000011
40
0.625000000000011
40
0.750000000000008
40
0.750000000000008
40
0.875000000000004
40
0.875000000000004
40
1
40
1
40
1
40
1
41
1
10
30.3084731698519
20
7.38620561358073
30
0
41
1
10
30.4450661134369
20
7.36839093013924
30
0
41
1
10
30.5880633807377
20
7.34995085707797
30
0
41
1
10
30.8761267705367
20
7.31322040788538
30
0
41
1
10
31.0222038138082
20
7.29479586012673
30
0
41
1
10
31.2444731379089
20
7.26706756704502
30
0
41
1
10
31.3190905001559
20
7.25780950056668
30
0
41
1
10
31.4694213008593
20
7.2392615770809
30
0
41
1
10
31.5454401199895
20
7.22993482636571
30
0
41
1
10
31.7710037689213
20
7.20241804654705
30
0
41
1
10
31.9191193143525
20
7.1845577591202
30
0
41
1
10
32.137963965036
20
7.15848046583173
30
0
41
1
10
32.2103551062867
20
7.1499073833134
30
0
41
1
10
32.3540057865496
20
7.13300365414591
30
0
41
1
10
32.4255496629672
20
7.12464005573014
30
0
41
1
10
32.6363490006638
20
7.10016584155406
30
0
41
1
10
32.7705773936133
20
7.0848074508614
30
0
41
1
10
33.027117652521
20
7.05590097651591
30
0
41
1
10
33.1496856212172
20
7.04232528556557
30
0
41
1
10
33.381732303612
20
7.01711490716298
30
0
41
1
10
33.4894386291992
20
7.00567154243302
30
0
41
1
10
33.5892839947045
20
6.99532629465025
30
0
0
SPLINE
5
177
100
AcDbEntity
8
1
62
256
6
ByLayer
370
-1
48
1
60
0
100
AcDbSpline
70
4
71
3
72
8
73
4
40
0
40
0
40
0
40
0
40
1
40
1
40
1
40
1
41
1
10
25.9243925961176
20
8.26469716201177
30
0
41
1
10
26.1021764917915
20
8.25992018293232
30
0
41
1
10
26.2804713591582
20
8.25755591593551
30
0
41
1
10
26.4592737941609
20
8.25755591593551
30
0
0
SPLINE
5
178
100
AcDbEntity
8
1
62
256
6
ByLayer
370
-1
48
1
60
0
100
AcDbSpline
70
4
71
3
72
8
73
4
40
0
40
0
40
0
40
0
40
1
40
1
40
1
40
1
41
1
10
33.0894386554282
20
-1.18712422245363
30
0
41
1
10
33.0691726135525
20
-0.796695305665395
30
0
41
1
10
33.0532023356667
20
-0.40681289129887
30
0
41
1
10
33.041832388684
20
-0.0175157260253798
30
0
0
SPLINE
5
179
100
AcDbEntity
8
1
62
256
6
ByLayer
370
-1
48
1
60
0
100
AcDbSpline
70
4
71
3
72
12
73
8
40
0
40
0
40
0
40
0
40
0.25
40
0.25
40
0.499999999999999
40
0.499999999999999
40
1
40
1
40
1
40
1
41
1
10
33.5892839947045
20
6.99532629465025
30
0
41
1
10
33.6388631115369
20
7.07823135779879
30
0
41
1
10
33.6780398164113
20
7.16841410180291
30
0
41
1
10
33.7406463844477
20
7.36172230745947
30
0
41
1
10
33.7641174306384
20
7.46532503400155
30
0
41
1
10
33.8150699576283
20
7.7900385973312
30
0
41
1
10
33.8234654661859
20
8.0197344469529
30
0
41
1
10
33.815255216582
20
8.25755591593548
30
0
0
SPLINE
5
17A
100
AcDbEntity
8
1
62
256
6
ByLayer
370
-1
48
1
60
0
100
AcDbSpline
70
4
71
3
72
12
73
8
40
0
40
0
40
0
40
0
40
0.379964466939169
40
0.379964466939169
40
0.689982233469584
40
0.689982233469584
40
1
40
1
40
1
40
1
41
1
10
29.2996243006382
20
8.3604752470807
30
0
41
1
10
29.2201892173444
20
8.36483822912908
30
0
41
1
10
29.1413050154985
20
8.37315411547021
30
0
41
1
10
28.9989677218582
20
8.39573909029795
30
0
41
1
10
28.9353479440843
20
8.40865529114342
30
0
41
1
10
28.8087234949115
20
8.44064506532897
30
0
41
1
10
28.7454391439045
20
8.45983784608848
30
0
41
1
10
28.6836643748764
20
8.48216615805427
30
0
0
SPLINE
5
17B
100
AcDbEntity
8
1
62
256
6
ByLayer
370
-1
48
1
60
0
100
AcDbSpline
70
4
71
3
72
24
73
20
40
0
40
0
40
0
40
0
40
0.250000000000001
40
0.250000000000001
40
0.312500000000001
40
0.312500000000001
40
0.375000000000001
40
0.375000000000001
40
0.500000000000002
40
0.500000000000002
40
0.625000000000002
40
0.625000000000002
40
0.687500000000002
40
0.687500000000002
40
0.750000000000001
40
0.750000000000001
40
0.875000000000001
40
0.875000000000001
40
1
40
1
40
1
40
1
41
1
10
20.1228147536615
20
-0.0901136343145197
30
0
41
1
10
19.3477748509806
20
-0.214522658675804
30
0
41
1
10
18.599708593576
20
-0.335093301604985
30
0
41
1
10
17.6924773234092
20
-0.456908614577202
30
0
41
1
10
17.5124296743034
20
-0.4798531276181
30
0
41
1
10
17.1550148649763
20
-0.52238228726452
30
0
41
1
10
16.9782746289684
20
-0.54188403502485
30
0
41
1
10
16.457245831454
20
-0.594164646654178
30
0
41
1
10
16.1205933636017
20
-0.620904384819227
30
0
41
1
10
15.4665757675292
20
-0.655812397673174
30
0
41
1
10
15.1492078649149
20
-0.664001600912371
30
0
41
1
10
14.6867697270083
20
-0.660423075262713
30
0
41
1
10
14.5349004426437
20
-0.656582469088761
30
0
41
1
10
14.2356799282813
20
-0.643199196282694
30
0
41
1
10
14.0879276724675
20
-0.633616243798684
30
0
41
1
10
13.6551831534844
20
-0.595936697580157
30
0
41
1
10
13.3804915270331
20
-0.559025022864972
30
0
41
1
10
12.8588290969467
20
-0.459292096672357
30
0
41
1
10
12.6118305050393
20
-0.396471406415401
30
0
41
1
10
12.3801399927305
20
-0.318984013526915
30
0
0
SPLINE
5
17C
100
AcDbEntity
8
1
62
256
6
ByLayer
370
-1
48
1
60
0
100
AcDbSpline
70
4
71
3
72
16
73
12
40
0
40
0
40
0
40
0
40
0.125000000000002
40
0.125000000000002
40
0.250000000000003
40
0.250000000000003
40
0.500000000000002
40
0.500000000000002
40
0.750000000000001
40
0.750000000000001
40
1
40
1
40
1
40
1
41
1
10
8.30000000000001
20
6.81248853210045
30
0
41
1
10
8.31907309481554
20
6.81248853210045
30
0
41
1
10
8.33792263291352
20
6.80831255382992
30
0
41
1
10
8.37164342852415
20
6.79418088410412
30
0
41
1
10
8.38678583896552
20
6.78426991393994
30
0
41
1
10
8.42615821964139
20
6.75065870126397
30
0
41
1
10
8.44534040524542
20
6.72285786718786
30
0
41
1
10
8.47417118866881
20
6.66521894689927
30
0
41
1
10
8.48410770971694
20
6.63447007849018
30
0
41
1
10
8.49697864169968
20
6.57250776548349
30
0
41
1
10
8.5
20
6.54106769583143
30
0
41
1
10
8.5
20
6.50922422412995
30
0
0
SPLINE
5
17D
100
AcDbEntity
8
1
62
256
6
ByLayer
370
-1
48
1
60
0
100
AcDbSpline
70
4
71
3
72
8
73
4
40
0
40
0
40
0
40
0
40
1
40
1
40
1
40
1
41
1
10
25.9243925961175
20
-8.12577851828956
30
0
41
1
10
26.1021764917915
20
-8.14417268717966
30
0
41
1
10
26.2804713591582
20
-8.15374308945093
30
0
41
1
10
26.4592737941609
20
-8.15453996391813
30
0
0
SPLINE
5
17E
100
AcDbEntity
8
1
62
256
6
ByLayer
370
-1
48
1
60
0
100
AcDbSpline
70
4
71
3
72
8
73
4
40
0
40
0
40
0
40
0
40
1
40
1
40
1
40
1
41
1
10
16.0712855422588
20
-13.3581432032828
30
0
41
1
10
16.3807847704064
20
-13.4373948110973
30
0
41
1
10
16.6903577760563
20
-13.5163641552199
30
0
41
1
10
17.0000000000012
20
-13.5950658093364
30
0
0
SPLINE
5
17F
100
AcDbEntity
8
1
62
256
6
ByLayer
370
-1
48
1
60
0
100
AcDbSpline
70
4
71
3
72
18
73
14
40
0
40
0
40
0
40
0
40
0.125
40
0.125
40
0.25
40
0.25
40
0.5
40
0.5
40
0.75
40
0.75
40
0.875
40
0.875
40
1
40
1
40
1
40
1
41
1
10
27.6809572713288
20
-13.4749076428477
30
0
41
1
10
27.6581630286007
20
-13.4799725611739
30
0
41
1
10
27.6400933110866
20
-13.486052497648
30
0
41
1
10
27.6121685788071
20
-13.4991978670482
30
0
41
1
10
27.6022883786164
20
-13.5063264050431
30
0
41
1
10
27.5843812813852
20
-13.5278823814778
30
0
41
1
10
27.5872490756859
20
-13.5423736559033
30
0
41
1
10
27.6201295448371
20
-13.5716901583619
30
0
41
1
10
27.649841119975
20
-13.5859943151169
30
0
41
1
10
27.7143883665611
20
-13.60991836326
30
0
41
1
10
27.7394803790363
20
-13.6183996764662
30
0
41
1
10
27.7953358167405
20
-13.6367032007113
30
0
41
1
10
27.8261756291412
20
-13.646560052326
30
0
41
1
10
27.8598760732897
20
-13.6576155999385
30
0
0
SPLINE
5
180
100
AcDbEntity
8
1
62
256
6
ByLayer
370
-1
48
1
60
0
100
AcDbSpline
70
4
71
3
72
8
73
4
40
0
40
0
40
0
40
0
40
1
40
1
40
1
40
1
41
1
10
33.0894386554282
20
8.35270791303023
30
0
41
1
10
33.0840162200036
20
8.3150012488064
30
0
41
1
10
33.0798387655528
20
8.2823751555928
30
0
41
1
10
33.0770362090625
20
8.25526220481299
30
0
0
SPLINE
5
181
100
AcDbEntity
8
1
62
256
6
ByLayer
370
-1
48
1
60
0
100
AcDbSpline
70
4
71
3
72
16
73
12
40
0
40
0
40
0
40
0
40
0.250000000000002
40
0.250000000000002
40
0.500000000000004
40
0.500000000000004
40
0.750000000000006
40
0.750000000000006
40
0.875000000000003
40
0.875000000000003
40
1
40
1
40
1
40
1
41
1
10
8.5
20
-6.50922422412995
30
0
41
1
10
8.5
20
-6.54110320461396
30
0
41
1
10
8.49697102204891
20
-6.5724731096106
30
0
41
1
10
8.48419499263429
20
-6.63412078219974
30
0
41
1
10
8.47439613531475
20
-6.66471116358881
30
0
41
1
10
8.44533975777352
20
-6.72291678209908
30
0
41
1
10
8.42611854158591
20
-6.75069164117116
30
0
41
1
10
8.38681030075895
20
-6.78424949756518
30
0
41
1
10
8.37161772041898
20
-6.79420299039074
30
0
41
1
10
8.33778664683084
20
-6.80835815584732
30
0
41
1
10
8.31911604358851
20
-6.81248853210045
30
0
41
1
10
8.30000000000001
20
-6.81248853210045
30
0
0
SPLINE
5
182
100
AcDbEntity
8
1
62
256
6
ByLayer
370
-1
48
1
60
0
100
AcDbSpline
70
4
71
3
72
8
73
4
40
0
40
0
40
0
40
0
40
1
40
1
40
1
40
1
41
1
10
27.4137251248244
20
-13.6564820879605
30
0
41
1
10
27.3505232719725
20
-13.6569812878023
30
0
41
1
10
27.289978163977
20
-13.6573459101167
30
0
41
1
10
27.2320480095756
20
-13.6574866218969
30
0
0
SPLINE
5
183
100
AcDbEntity
8
1
62
256
6
ByLayer
370
-1
48
1
60
0
100
AcDbSpline
70
4
71
3
72
10
73
6
40
0
40
0
40
0
40
0
40
0.5
40
0.5
40
1
40
1
40
1
40
1
41
1
10
33.7936880245976
20
-6.5748168875127
30
0
41
1
10
33.7618533968183
20
-6.54489726488129
30
0
41
1
10
33.7331960036006
20
-6.51257982231527
30
0
41
1
10
33.684861147942
20
-6.44611504481463
30
0
41
1
10
33.6648752868876
20
-6.41175938586326
30
0
41
1
10
33.6491105683013
20
-6.3762698257203
30
0
0
SPLINE
5
184
100
AcDbEntity
8
1
62
256
6
ByLayer
370
-1
48
1
60
0
100
AcDbSpline
70
4
71
3
72
43
73
39
40
0
40
0
40
0
40
0
40
0.0312500000000007
40
0.0312500000000007
40
0.0625000000000013
40
0.0625000000000013
40
0.125000000000002
40
0.125000000000002
40
0.187500000000002
40
0.187500000000002
40
0.250000000000002
40
0.312500000000003
40
0.312500000000003
40
0.375000000000003
40
0.375000000000003
40
0.437500000000004
40
0.437500000000004
40
0.500000000000004
40
0.500000000000004
40
0.625000000000005
40
0.625000000000005
40
0.656250000000004
40
0.656250000000004
40
0.687500000000003
40
0.687500000000003
40
0.750000000000004
40
0.750000000000004
40
0.781250000000004
40
0.781250000000004
40
0.812500000000004
40
0.812500000000004
40
0.875000000000002
40
0.875000000000002
40
0.937500000000001
40
0.937500000000001
40
0.96875
40
0.96875
40
1
40
1
40
1
40
1
41
1
10
34.4
20
2.66441632857038
30
0
41
1
10
34.3869496056899
20
2.66485314863249
30
0
41
1
10
34.3714959929435
20
2.66558249008793
30
0
41
1
10
34.3362078543756
20
2.66761193808267
30
0
41
1
10
34.3163879651582
20
2.66890949395787
30
0
41
1
10
34.2505063675389
20
2.67363693953723
30
0
41
1
10
34.1980497144613
20
2.67789809941382
30
0
41
1
10
34.0759668497992
20
2.68865226675661
30
0
41
1
10
34.0061472009671
20
2.69516401018495
30
0
41
1
10
33.8491470969568
20
2.710471025386
30
0
41
1
10
33.6778449204589
20
2.7277604438431
30
0
41
1
10
33.4788364249432
20
2.74889022159647
30
0
41
1
10
33.2656689955086
20
2.77198256223912
30
0
41
1
10
33.1513278197464
20
2.7845885850422
30
0
41
1
10
32.9151731856506
20
2.81103341723909
30
0
41
1
10
32.7926701498803
20
2.82494482089893
30
0
41
1
10
32.5389111662304
20
2.85413026510261
30
0
41
1
10
32.4071690224388
20
2.86946153731569
30
0
41
1
10
32.0013709453355
20
2.91722020174765
30
0
41
1
10
31.7255172590847
20
2.9503654226674
30
0
41
1
10
31.3742287895582
20
2.99338524243174
30
0
41
1
10
31.3033738399907
20
3.00210321655911
30
0
41
1
10
31.1624991541165
20
3.01951799535857
30
0
41
1
10
31.0925343671919
20
3.02820761274708
30
0
41
1
10
30.8840194449015
20
3.05422458662605
30
0
41
1
10
30.7468428724296
20
3.07150028580071
30
0
41
1
10
30.5437893426073
20
3.09731186619035
30
0
41
1
10
30.4765582157791
20
3.10589867536848
30
0
41
1
10
30.3430142875104
20
3.1230377571012
30
0
41
1
10
30.2764668250992
20
3.13162058325315
30
0
41
1
10
30.0806057725006
20
3.15700816809598
30
0
41
1
10
29.9547525362556
20
3.17349127130956
30
0
41
1
10
29.7121127058406
20
3.20560867375784
30
0
41
1
10
29.5953273949904
20
3.22124285285025
30
0
41
1
10
29.4270245054042
20
3.244050488223
30
0
41
1
10
29.3718870367406
20
3.25157110283595
30
0
41
1
10
29.2651687331225
20
3.26622630287935
30
0
41
1
10
29.2135389707626
20
3.27336710023917
30
0
41
1
10
29.1635931036862
20
3.28032600905936
30
0
0
SPLINE
5
185
100
AcDbEntity
8
1
62
256
6
ByLayer
370
-1
48
1
60
0
100
AcDbSpline
70
4
71
3
72
8
73
4
40
0
40
0
40
0
40
0
40
1
40
1
40
1
40
1
41
1
10
16.0712855422589
20
13.2324511839091
30
0
41
1
10
16.3807846735735
20
13.3144242184269
30
0
41
1
10
16.6903604687064
20
13.3961157232366
30
0
41
1
10
17.0000000000013
20
13.4775380660626
30
0
0
SPLINE
5
186
100
AcDbEntity
8
1
62
256
6
ByLayer
370
-1
48
1
60
0
100
AcDbSpline
70
4
71
3
72
20
73
16
40
0
40
0
40
0
40
0
40
0.125
40
0.125
40
0.25
40
0.25
40
0.374999999999999
40
0.374999999999999
40
0.499999999999999
40
0.499999999999999
40
0.749999999999999
40
0.749999999999999
40
0.875
40
0.875
40
1
40
1
40
1
40
1
41
1
10
17.0000000000015
20
10.5564841947115
30
0
41
1
10
17.3100805218123
20
10.3809045904746
30
0
41
1
10
17.6324972206658
20
10.2123420773293
30
0
41
1
10
18.2998493077808
20
9.89176657216731
30
0
41
1
10
18.6447923492332
20
9.73974412991473
30
0
41
1
10
19.3557982882322
20
9.45434988551966
30
0
41
1
10
19.7218643874605
20
9.32097147127249
30
0
41
1
10
20.4742903757883
20
9.07481300066323
30
0
41
1
10
20.8620507119151
20
8.96177623436279
30
0
41
1
10
22.0329574150084
20
8.66160438460778
30
0
41
1
10
22.8296382983831
20
8.51090957954537
30
0
41
1
10
24.0464365840045
20
8.35924261616751
30
0
41
1
10
24.4560680147334
20
8.32109290346625
30
0
41
1
10
25.2810197483846
20
8.2701947375501
30
0
41
1
10
25.69416528601
20
8.25755591593551
30
0
41
1
10
26.1079662689127
20
8.25755591593551
30
0
0
SPLINE
5
187
100
AcDbEntity
8
1
62
256
6
ByLayer
370
-1
48
1
60
0
100
AcDbSpline
70
4
71
3
72
16
73
12
40
0
40
0
40
0
40
0
40
0.118800336469288
40
0.118800336469288
40
0.472457571725298
40
0.472457571725298
40
0.649286189353307
40
0.649286189353307
40
0.826114806981316
40
0.826114806981316
40
1
40
1
40
1
40
1
41
1
10
33.1306601252539
20
8.25693572470453
30
0
41
1
10
33.1364020009802
20
8.26728629379122
30
0
41
1
10
33.142426120133
20
8.27859706532578
30
0
41
1
10
33.1674626094334
20
8.32732295166016
30
0
41
1
10
33.1887728219874
20
8.3726085741601
30
0
41
1
10
33.222590995848
20
8.44987512514837
30
0
41
1
10
33.2342351097632
20
8.4773075510895
30
0
41
1
10
33.2582534537079
20
8.5355862004088
30
0
41
1
10
33.2707087638786
20
8.56664584952011
30
0
41
1
10
33.295556781832
20
8.63027497574598
30
0
41
1
10
33.3079816649651
20
8.66287760503585
30
0
41
1
10
33.3205084103816
20
8.69654082208316
30
0
0
SPLINE
5
188
100
AcDbEntity
8
1
62
256
6
ByLayer
370
-1
48
1
60
0
100
AcDbSpline
70
4
71
3
72
8
73
4
40
0
40
0
40
0
40
0
40
1
40
1
40
1
40
1
41
1
10
27.4137251248244
20
0.854355202602335
30
0
41
1
10
27.3506855924462
20
0.814616072552639
30
0
41
1
10
27.2901269940236
20
0.771627313355708
30
0
41
1
10
27.2320480095756
20
0.725385628587418
30
0
0
SPLINE
5
189
100
AcDbEntity
8
1
62
256
6
ByLayer
370
-1
48
1
60
0
100
AcDbSpline
70
4
71
3
72
45
73
41
40
0
40
0
40
0
40
0
40
0.031249999999999
40
0.031249999999999
40
0.0624999999999981
40
0.0624999999999981
40
0.124999999999997
40
0.124999999999997
40
0.187499999999996
40
0.187499999999996
40
0.249999999999994
40
0.312499999999993
40
0.312499999999993
40
0.374999999999992
40
0.374999999999992
40
0.437499999999991
40
0.437499999999991
40
0.468749999999992
40
0.468749999999992
40
0.499999999999993
40
0.499999999999993
40
0.624999999999993
40
0.624999999999993
40
0.656249999999995
40
0.656249999999995
40
0.687499999999997
40
0.687499999999997
40
0.749999999999999
40
0.749999999999999
40
0.781249999999999
40
0.781249999999999
40
0.812499999999999
40
0.812499999999999
40
0.874999999999999
40
0.874999999999999
40
0.9375
40
0.9375
40
0.96875
40
0.96875
40
1
40
1
40
1
40
1
41
1
10
34.4
20
-12.6818702619431
30
0
41
1
10
34.3869366358865
20
-12.7514455106624
30
0
41
1
10
34.3714680120502
20
-12.8211648573901
30
0
41
1
10
34.3362145254607
20
-12.958448435291
30
0
41
1
10
34.3164122717273
20
-13.0261904925763
30
0
41
1
10
34.2505753740937
20
-13.226757335725
30
0
41
1
10
34.1981377208251
20
-13.3569340118945
30
0
41
1
10
34.0760232817272
20
-13.6101577301156
30
0
41
1
10
34.0060039977414
20
-13.7337240905069
30
0
41
1
10
33.8491710748537
20
-13.9710139863958
30
0
41
1
10
33.677991679859
20
-14.1950715527325
30
0
41
1
10
33.4789419305599
20
-14.3934231677982
30
0
41
1
10
33.2656091642773
20
-14.5786009805299
30
0
41
1
10
33.1513018871679
20
-14.6647386702095
30
0
41
1
10
32.9152928790453
20
-14.8182816926953
30
0
41
1
10
32.7928127414968
20
-14.8864617171694
30
0
41
1
10
32.6024352959368
20
-14.9759524271127
30
0
41
1
10
32.5378628552889
20
-15.0036455730864
30
0
41
1
10
32.4064546715636
20
-15.0546871989804
30
0
41
1
10
32.3393591478672
20
-15.0781121147591
30
0
41
1
10
32.0015304992647
20
-15.1830031776529
30
0
41
1
10
31.725706296981
20
-15.2282388998385
30
0
41
1
10
31.3741258767877
20
-15.2374903426295
30
0
41
1
10
31.3032028139144
20
-15.2369154818288
30
0
41
1
10
31.1624581912163
20
-15.2309270045137
30
0
41
1
10
31.0925415388633
20
-15.2255360787974
30
0
41
1
10
30.8841235198561
20
-15.2023575391813
30
0
41
1
10
30.7469484140662
20
-15.1775940238332
30
0
41
1
10
30.5438106139272
20
-15.1266424514447
30
0
41
1
10
30.4765369305558
20
-15.1073499686199
30
0
41
1
10
30.3428797730531
20
-15.0640826572156
30
0
41
1
10
30.2763053195045
20
-15.0400184620648
30
0
41
1
10
30.0806177441275
20
-14.9617518403318
30
0
41
1
10
29.9548148723125
20
-14.9013318318928
30
0
41
1
10
29.7121736656257
20
-14.7646207242616
30
0
41
1
10
29.5953363998596
20
-14.688327732292
30
0
41
1
10
29.4268952226529
20
-14.5618232527879
30
0
41
1
10
29.3717322801022
20
-14.517490621897
30
0
41
1
10
29.2651117075262
20
-14.4259161896502
30
0
41
1
10
29.2135163995976
20
-14.3785885362346
30
0
41
1
10
29.1635931036861
20
-14.3297590389912
30
0
0
SPLINE
5
18A
100
AcDbEntity
8
1
62
256
6
ByLayer
370
-1
48
1
60
0
100
AcDbSpline
70
4
71
3
72
18
73
14
40
0
40
0
40
0
40
0
40
0.250000000000001
40
0.250000000000001
40
0.500000000000002
40
0.500000000000002
40
0.562500000000001
40
0.562500000000001
40
0.625000000000001
40
0.625000000000001
40
0.75
40
0.75
40
1
40
1
40
1
40
1
41
1
10
15.2942738597819
20
11.7673449501945
30
0
41
1
10
16.0686394640315
20
11.2238315730779
30
0
41
1
10
16.8742415308526
20
10.7425895837779
30
0
41
1
10
18.5484618605634
20
9.90065736744907
30
0
41
1
10
19.4170576863558
20
9.53997424953417
30
0
41
1
10
20.5445778489071
20
9.16707013404854
30
0
41
1
10
20.7726185388506
20
9.09628373723604
30
0
41
1
10
21.2306571476565
20
8.96335981905457
30
0
41
1
10
21.4604495419894
20
8.90126066884318
30
0
41
1
10
22.1521342492739
20
8.7278909052518
30
0
41
1
10
22.6163317337202
20
8.62953119484081
30
0
41
1
10
24.0181383707522
20
8.38545626004907
30
0
41
1
10
24.9649205673547
20
8.29047777499321
30
0
41
1
10
25.9243925961176
20
8.26469716201177
30
0
0
SPLINE
5
18B
100
AcDbEntity
8
1
62
256
6
ByLayer
370
-1
48
1
60
0
100
AcDbSpline
70
4
71
3
72
16
73
12
40
0
40
0
40
0
40
0
40
0.125
40
0.125
40
0.250000000000001
40
0.250000000000001
40
0.5
40
0.5
40
0.75
40
0.75
40
1
40
1
40
1
40
1
41
1
10
27.4137251248244
20
-11.0153085457912
30
0
41
1
10
27.4788288063926
20
-11.0153085457912
30
0
41
1
10
27.5439857745822
20
-11.0192899990559
30
0
41
1
10
27.6744082353848
20
-11.0353615998347
30
0
41
1
10
27.7398580353123
20
-11.0475573714526
30
0
41
1
10
27.9309931382523
20
-11.0951629511774
30
0
41
1
10
28.0533094665271
20
-11.1415965661945
30
0
41
1
10
28.2885050130872
20
-11.2616208492416
30
0
41
1
10
28.398609341094
20
-11.3339111863041
30
0
41
1
10
28.6029742684468
20
-11.4978955032469
30
0
41
1
10
28.698275160725
20
-11.5906926424163
30
0
41
1
10
28.7840248089795
20
-11.6898211622902
30
0
0
LINE
5
45
100
AcDbEntity
8
1
62
256
6
ByLayer
370
-1
48
1
60
0
100
AcDbLine
10
33.121139
20
7.061675
30
0
11
33.127637
21
7.11459
31
0
39
0
210
0
220
0
230
1
0
LINE
5
47
100
AcDbEntity
8
1
62
256
6
ByLayer
370
-1
48
1
60
0
100
AcDbLine
10
30.646277
20
7.419306
30
0
11
30.639779
21
7.36639
31
0
39
0
210
0
220
0
230
1
0
LINE
5
48
100
AcDbEntity
8
1
62
256
6
ByLayer
370
-1
48
1
60
0
100
AcDbLine
10
33.127508
20
7.114954
30
0
11
32.866337
21
7.449155
31
0
39
0
210
0
220
0
230
1
0
LINE
5
49
100
AcDbEntity
8
1
62
256
6
ByLayer
370
-1
48
1
60
0
100
AcDbLine
10
30.980764
20
7.680707
30
0
11
30.646491
21
7.419628
31
0
39
0
210
0
220
0
230
1
0
LINE
5
4A
100
AcDbEntity
8
1
62
256
6
ByLayer
370
-1
48
1
60
0
100
AcDbLine
10
12.401525
20
12.555649
30
0
11
10.5
21
12.1
31
0
39
0
210
0
220
0
230
1
0
LINE
5
4B
100
AcDbEntity
8
1
62
256
6
ByLayer
370
-1
48
1
60
0
100
AcDbLine
10
10.5
20
-12.1
30
0
11
12.733694
21
-12.635245
31
0
39
0
210
0
220
0
230
1
0
LINE
5
4C
100
AcDbEntity
8
1
62
256
6
ByLayer
370
-1
48
1
60
0
100
AcDbLine
10
10.5
20
12.1
30
0
11
0
21
12.1
31
0
39
0
210
0
220
0
230
1
0
LINE
5
4D
100
AcDbEntity
8
1
62
256
6
ByLayer
370
-1
48
1
60
0
100
AcDbLine
10
0
20
-12.1
30
0
11
10.5
21
-12.1
31
0
39
0
210
0
220
0
230
1
0
LINE
5
4E
100
AcDbEntity
8
1
62
256
6
ByLayer
370
-1
48
1
60
0
100
AcDbLine
10
-0.384645
20
8.892056
30
0
11
-4.5
21
8.73396
31
0
39
0
210
0
220
0
230
1
0
LINE
5
4F
100
AcDbEntity
8
1
62
256
6
ByLayer
370
-1
48
1
60
0
100
AcDbLine
10
-4.5
20
-8.73396
30
0
11
-0.384645
21
-8.892056
31
0
39
0
210
0
220
0
230
1
0
LINE
5
50
100
AcDbEntity
8
1
62
256
6
ByLayer
370
-1
48
1
60
0
100
AcDbLine
10
-4.5
20
8.73396
30
0
11
-19.5
21
7.157396
31
0
39
0
210
0
220
0
230
1
0
LINE
5
51
100
AcDbEntity
8
1
62
256
6
ByLayer
370
-1
48
1
60
0
100
AcDbLine
10
-19.5
20
-7.157396
30
0
11
-4.5
21
-8.73396
31
0
39
0
210
0
220
0
230
1
0
LINE
5
52
100
AcDbEntity
8
1
62
256
6
ByLayer
370
-1
48
1
60
0
100
AcDbLine
10
-20
20
5.2
30
0
11
-23.8
21
5.2
31
0
39
0
210
0
220
0
230
1
0
LINE
5
53
100
AcDbEntity
8
1
62
256
6
ByLayer
370
-1
48
1
60
0
100
AcDbLine
10
-23.8
20
-5.2
30
0
11
-20
21
-5.2
31
0
39
0
210
0
220
0
230
1
0
LINE
5
54
100
AcDbEntity
8
1
62
256
6
ByLayer
370
-1
48
1
60
0
100
AcDbLine
10
-23.8
20
5.2
30
0
11
-24
21
5
31
0
39
0
210
0
220
0
230
1
0
LINE
5
55
100
AcDbEntity
8
1
62
256
6
ByLayer
370
-1
48
1
60
0
100
AcDbLine
10
-24
20
-5
30
0
11
-23.8
21
-5.2
31
0
39
0
210
0
220
0
230
1
0
LINE
5
56
100
AcDbEntity
8
1
62
256
6
ByLayer
370
-1
48
1
60
0
100
AcDbLine
10
34.999988
20
-0.200178
30
0
11
34.599441
21
2.64945
31
0
39
0
210
0
220
0
230
1
0
LINE
5
57
100
AcDbEntity
8
1
62
256
6
ByLayer
370
-1
48
1
60
0
100
AcDbLine
10
28.131441
20
3.427104
30
0
11
27.647378
21
2.229194
31
0
39
0
210
0
220
0
230
1
0
LINE
5
58
100
AcDbEntity
8
1
62
256
6
ByLayer
370
-1
48
1
60
0
100
AcDbLine
10
31.283115
20
-13.524207
30
0
11
31.289613
21
-13.527742
31
0
39
0
210
0
220
0
230
1
0
LINE
5
59
100
AcDbEntity
8
1
62
256
6
ByLayer
370
-1
48
1
60
0
100
AcDbLine
10
32.484302
20
-11.331673
30
0
11
32.477804
21
-11.328138
31
0
39
0
210
0
220
0
230
1
0
LINE
5
5A
100
AcDbEntity
8
1
62
256
6
ByLayer
370
-1
48
1
60
0
100
AcDbLine
10
31.072728
20
10.232556
30
0
11
31.204489
21
10.232556
31
0
39
0
210
0
220
0
230
1
0
LINE
5
5B
100
AcDbEntity
8
1
62
256
6
ByLayer
370
-1
48
1
60
0
100
AcDbLine
10
31.204489
20
13.682556
30
0
11
31.072728
21
13.682556
31
0
39
0
210
0
220
0
230
1
0
LINE
5
5C
100
AcDbEntity
8
1
62
256
6
ByLayer
370
-1
48
1
60
0
100
AcDbLine
10
32.065704
20
11.431466
30
0
11
31.955827
21
11.431466
31
0
39
0
210
0
220
0
230
1
0
LINE
5
5D
100
AcDbEntity
8
1
62
256
6
ByLayer
370
-1
48
1
60
0
100
AcDbLine
10
31.454791
20
12.82507
30
0
11
31.558889
21
12.82507
31
0
39
0
210
0
220
0
230
1
0
LINE
5
5E
100
AcDbEntity
8
1
62
256
6
ByLayer
370
-1
48
1
60
0
100
AcDbLine
10
30.825715
20
11.090042
30
0
11
30.721647
21
11.090042
31
0
39
0
210
0
220
0
230
1
0
LINE
5
5F
100
AcDbEntity
8
1
62
256
6
ByLayer
370
-1
48
1
60
0
100
AcDbLine
10
30.209023
20
12.483645
30
0
11
30.3189
21
12.483645
31
0
39
0
210
0
220
0
230
1
0
LINE
5
60
100
AcDbEntity
8
1
62
256
6
ByLayer
370
-1
48
1
60
0
100
AcDbLine
10
34.599366
20
-2.248957
30
0
11
34.887366
21
-0.202397
31
0
39
0
210
0
220
0
230
1
0
LINE
5
61
100
AcDbEntity
8
1
62
256
6
ByLayer
370
-1
48
1
60
0
100
AcDbLine
10
34.94386
20
0.199053
30
0
11
34.999896
21
0.597255
31
0
39
0
210
0
220
0
230
1
0
LINE
5
62
100
AcDbEntity
8
81
62
256
6
ByLayer
370
-1
48
1
60
0
100
AcDbLine
10
35
20
15.965
30
0
11
40
21
15.965
31
0
39
0
210
0
220
0
230
1
0
LINE
5
63
100
AcDbEntity
8
SK4
62
256
6
ByLayer
370
-1
48
0.05
60
0
100
AcDbLine
10
40
20
0
30
0
11
-23.5
21
0
31
0
39
0
210
0
220
0
230
1
0
LINE
5
65
100
AcDbEntity
8
80
62
256
6
ByLayer
370
-1
48
1
60
0
100
AcDbLine
10
0
20
0
30
0
11
-5
21
0
31
0
39
0
210
0
220
0
230
1
0
LINE
5
66
100
AcDbEntity
8
1
62
256
6
ByLayer
370
-1
48
1
60
0
100
AcDbLine
10
30.138442
20
11.955612
30
0
11
30.026047
21
11.955612
31
0
39
0
210
0
220
0
230
1
0
LINE
5
67
100
AcDbEntity
8
1
62
256
6
ByLayer
370
-1
48
1
60
0
100
AcDbLine
10
31.717561
20
12.878051
30
0
11
31.730163
21
12.893638
31
0
39
0
210
0
220
0
230
1
0
LINE
5
68
100
AcDbEntity
8
1
62
256
6
ByLayer
370
-1
48
1
60
0
100
AcDbLine
10
30.663701
20
12.876107
30
0
11
30.656604
21
12.894897
31
0
39
0
210
0
220
0
230
1
0
LINE
5
69
100
AcDbEntity
8
1
62
256
6
ByLayer
370
-1
48
1
60
0
100
AcDbLine
10
30.663701
20
12.876107
30
0
11
30.551306
21
12.876107
31
0
39
0
210
0
220
0
230
1
0
LINE
5
6A
100
AcDbEntity
8
1
62
256
6
ByLayer
370
-1
48
1
60
0
100
AcDbLine
10
32.065077
20
11.417835
30
0
11
32.008864
21
11.417835
31
0
39
0
210
0
220
0
230
1
0
LINE
5
6B
100
AcDbEntity
8
1
62
256
6
ByLayer
370
-1
48
1
60
0
100
AcDbLine
10
31.193551
20
10.875935
30
0
11
31.079759
21
10.875935
31
0
39
0
210
0
220
0
230
1
0
LINE
5
6C
100
AcDbEntity
8
1
62
256
6
ByLayer
370
-1
48
1
60
0
100
AcDbLine
10
31.730163
20
12.893638
30
0
11
31.616372
21
12.893638
31
0
39
0
210
0
220
0
230
1
0
LINE
5
6D
100
AcDbEntity
8
1
62
256
6
ByLayer
370
-1
48
1
60
0
100
AcDbLine
10
32.077391
20
11.424985
30
0
11
31.991611
21
11.424985
31
0
39
0
210
0
220
0
230
1
0
LINE
5
6E
100
AcDbEntity
8
1
62
256
6
ByLayer
370
-1
48
1
60
0
100
AcDbLine
10
31.717561
20
12.878051
30
0
11
31.605165
21
12.878051
31
0
39
0
210
0
220
0
230
1
0
LINE
5
6F
100
AcDbEntity
8
1
62
256
6
ByLayer
370
-1
48
1
60
0
100
AcDbLine
10
31.193551
20
10.875935
30
0
11
31.190372
21
10.895782
31
0
39
0
210
0
220
0
230
1
0
LINE
5
70
100
AcDbEntity
8
1
62
256
6
ByLayer
370
-1
48
1
60
0
100
AcDbLine
10
30.278668
20
11.428353
30
0
11
30.166273
21
11.428353
31
0
39
0
210
0
220
0
230
1
0
LINE
5
71
100
AcDbEntity
8
1
62
256
6
ByLayer
370
-1
48
1
60
0
100
AcDbLine
10
30.263197
20
11.415655
30
0
11
30.149406
21
11.415655
31
0
39
0
210
0
220
0
230
1
0
LINE
5
72
100
AcDbEntity
8
1
62
256
6
ByLayer
370
-1
48
1
60
0
100
AcDbLine
10
31.190372
20
10.895782
30
0
11
31.077977
21
10.895782
31
0
39
0
210
0
220
0
230
1
0
LINE
5
73
100
AcDbEntity
8
1
62
256
6
ByLayer
370
-1
48
1
60
0
100
AcDbLine
10
30.263197
20
11.415655
30
0
11
30.278668
21
11.428353
31
0
39
0
210
0
220
0
230
1
0
LINE
5
74
100
AcDbEntity
8
1
62
256
6
ByLayer
370
-1
48
1
60
0
100
AcDbLine
10
30.118743
20
11.958814
30
0
11
30.004951
21
11.958814
31
0
39
0
210
0
220
0
230
1
0
LINE
5
75
100
AcDbEntity
8
1
62
256
6
ByLayer
370
-1
48
1
60
0
100
AcDbLine
10
30.656604
20
12.894897
30
0
11
30.542813
21
12.894897
31
0
39
0
210
0
220
0
230
1
0
LINE
5
76
100
AcDbEntity
8
1
62
256
6
ByLayer
370
-1
48
1
60
0
100
AcDbLine
10
30.138442
20
11.955612
30
0
11
30.118743
21
11.958814
31
0
39
0
210
0
220
0
230
1
0
LINE
5
77
100
AcDbEntity
8
1
62
256
6
ByLayer
370
-1
48
1
60
0
100
AcDbLine
10
27.144644
20
13.382262
30
0
11
27.232048
21
13.624205
31
0
39
0
210
0
220
0
230
1
0
LINE
5
78
100
AcDbEntity
8
1
62
256
6
ByLayer
370
-1
48
1
60
0
100
AcDbLine
10
31.66346
20
-6.536379
30
0
11
28.058592
21
-7.86512
31
0
39
0
210
0
220
0
230
1
0
LINE
5
79
100
AcDbEntity
8
1
62
256
6
ByLayer
370
-1
48
1
60
0
100
AcDbLine
10
28.27288
20
-6.090666
30
0
11
31.66346
21
-6.536379
31
0
39
0
210
0
220
0
230
1
0
LINE
5
7A
100
AcDbEntity
8
1
62
256
6
ByLayer
370
-1
48
1
60
0
100
AcDbLine
10
-20
20
0.629066
30
0
11
-20
21
-5.2
31
0
39
0
210
0
220
0
230
1
0
LINE
5
7B
100
AcDbEntity
8
1
62
256
6
ByLayer
370
-1
48
1
60
0
100
AcDbLine
10
-20
20
5.2
30
0
11
-20
21
0.629066
31
0
39
0
210
0
220
0
230
1
0
LINE
5
7C
100
AcDbEntity
8
1
62
256
6
ByLayer
370
-1
48
1
60
0
100
AcDbLine
10
-4.5
20
8.73396
30
0
11
-4.5
21
-8.73396
31
0
39
0
210
0
220
0
230
1
0
LINE
5
7D
100
AcDbEntity
8
1
62
256
6
ByLayer
370
-1
48
1
60
0
100
AcDbLine
10
-0.384645
20
1.07571
30
0
11
-0.384645
21
-8.892056
31
0
39
0
210
0
220
0
230
1
0
LINE
5
7E
100
AcDbEntity
8
1
62
256
6
ByLayer
370
-1
48
1
60
0
100
AcDbLine
10
-0.384645
20
1.07571
30
0
11
-0.384645
21
1.07571
31
0
39
0
210
0
220
0
230
1
0
LINE
5
7F
100
AcDbEntity
8
1
62
256
6
ByLayer
370
-1
48
1
60
0
100
AcDbLine
10
-0.384645
20
8.892056
30
0
11
-0.384645
21
1.07571
31
0
39
0
210
0
220
0
230
1
0
LINE
5
80
100
AcDbEntity
8
1
62
256
6
ByLayer
370
-1
48
1
60
0
100
AcDbLine
10
33.1
20
-5.142269
30
0
11
33.1
21
-2.014695
31
0
39
0
210
0
220
0
230
1
0
LINE
5
81
100
AcDbEntity
8
1
62
256
6
ByLayer
370
-1
48
1
60
0
100
AcDbLine
10
-23.8
20
5.2
30
0
11
-23.8
21
-5.2
31
0
39
0
210
0
220
0
230
1
0
LINE
5
82
100
AcDbEntity
8
1
62
256
6
ByLayer
370
-1
48
1
60
0
100
AcDbLine
10
29.15
20
-12.110369
30
0
11
29.15
21
-14.313939
31
0
39
0
210
0
220
0
230
1
0
LINE
5
83
100
AcDbEntity
8
1
62
256
6
ByLayer
370
-1
48
1
60
0
100
AcDbLine
10
8.5
20
-6.509224
30
0
11
8.5
21
6.509224
31
0
39
0
210
0
220
0
230
1
0
LINE
5
84
100
AcDbEntity
8
1
62
256
6
ByLayer
370
-1
48
1
60
0
100
AcDbLine
10
8.3
20
6.812489
30
0
11
2.2
21
6.812489
31
0
39
0
210
0
220
0
230
1
0
LINE
5
85
100
AcDbEntity
8
1
62
256
6
ByLayer
370
-1
48
1
60
0
100
AcDbLine
10
28.056048
20
8.957556
30
0
11
26.067085
21
8.957556
31
0
39
0
210
0
220
0
230
1
0
LINE
5
86
100
AcDbEntity
8
1
62
256
6
ByLayer
370
-1
48
1
60
0
100
AcDbLine
10
17
20
-13.595066
30
0
11
17
21
-8.84106
31
0
39
0
210
0
220
0
230
1
0
LINE
5
87
100
AcDbEntity
8
1
62
256
6
ByLayer
370
-1
48
1
60
0
100
AcDbLine
10
17
20
1.984004
30
0
11
17
21
10.556484
31
0
39
0
210
0
220
0
230
1
0
LINE
5
88
100
AcDbEntity
8
1
62
256
6
ByLayer
370
-1
48
1
60
0
100
AcDbLine
10
34.4
20
8.257556
30
0
11
34.4
21
2.664416
31
0
39
0
210
0
220
0
230
1
0
LINE
5
89
100
AcDbEntity
8
1
62
256
6
ByLayer
370
-1
48
1
60
0
100
AcDbLine
10
28.784025
20
8.257556
30
0
11
28.784025
21
3.509483
31
0
39
0
210
0
220
0
230
1
0
LINE
5
8A
100
AcDbEntity
8
1
62
256
6
ByLayer
370
-1
48
1
60
0
100
AcDbLine
10
28.058592
20
-7.86512
30
0
11
28.27288
21
-6.090666
31
0
39
0
210
0
220
0
230
1
0
LINE
5
8B
100
AcDbEntity
8
1
62
256
6
ByLayer
370
-1
48
1
60
0
100
AcDbLine
10
29.977449
20
8.257556
30
0
11
33.815255
21
8.257556
31
0
39
0
210
0
220
0
230
1
0
LINE
5
8C
100
AcDbEntity
8
1
62
256
6
ByLayer
370
-1
48
1
60
0
100
AcDbLine
10
33.649111
20
8.2576
30
0
11
33.649111
21
8.951573
31
0
39
0
210
0
220
0
230
1
0
LINE
5
8D
100
AcDbEntity
8
1
62
256
6
ByLayer
370
-1
48
1
60
0
100
AcDbLine
10
33.793688
20
9.085976
30
0
11
33.793688
21
8.257606
31
0
39
0
210
0
220
0
230
1
0
LINE
5
8E
100
AcDbEntity
8
1
62
256
6
ByLayer
370
-1
48
1
60
0
100
AcDbLine
10
28.054212
20
8.959606
30
0
11
28.264024
21
9.087872
31
0
39
0
210
0
220
0
230
1
0
LINE
5
8F
100
AcDbEntity
8
1
62
256
6
ByLayer
370
-1
48
1
60
0
100
AcDbLine
10
-24
20
0.604871
30
0
11
-24
21
-5
31
0
39
0
210
0
220
0
230
1
0
LINE
5
90
100
AcDbEntity
8
1
62
256
6
ByLayer
370
-1
48
1
60
0
100
AcDbLine
10
-24
20
5
30
0
11
-24
21
0.604871
31
0
39
0
210
0
220
0
230
1
0
LINE
5
91
100
AcDbEntity
8
1
62
256
6
ByLayer
370
-1
48
1
60
0
100
AcDbLine
10
34.4
20
-7.680352
30
0
11
34.4
21
-2.328659
31
0
39
0
210
0
220
0
230
1
0
LINE
5
92
100
AcDbEntity
8
1
62
256
6
ByLayer
370
-1
48
1
60
0
100
AcDbLine
10
34.4
20
-9.974223
30
0
11
34.4
21
-8.502338
31
0
39
0
210
0
220
0
230
1
0
LINE
5
93
100
AcDbEntity
8
1
62
256
6
ByLayer
370
-1
48
1
60
0
100
AcDbLine
10
2
20
6.509224
30
0
11
2
21
-6.509224
31
0
39
0
210
0
220
0
230
1
0
LINE
5
94
100
AcDbEntity
8
1
62
256
6
ByLayer
370
-1
48
1
60
0
100
AcDbLine
10
25.924393
20
-8.125779
30
0
11
26.181116
21
-5.999937
31
0
39
0
210
0
220
0
230
1
0
LINE
5
95
100
AcDbEntity
8
1
62
256
6
ByLayer
370
-1
48
1
60
0
100
AcDbLine
10
0
20
12.1
30
0
11
0
21
-12.1
31
0
39
0
210
0
220
0
230
1
0
LINE
5
96
100
AcDbEntity
8
1
62
256
6
ByLayer
370
-1
48
1
60
0
100
AcDbLine
10
10.5
20
-12.1
30
0
11
10.5
21
12.1
31
0
39
0
210
0
220
0
230
1
0
LINE
5
97
100
AcDbEntity
8
1
62
256
6
ByLayer
370
-1
48
1
60
0
100
AcDbLine
10
33.073144
20
-5.037038
30
0
11
31.026634
21
-4.785794
31
0
39
0
210
0
220
0
230
1
0
LINE
5
98
100
AcDbEntity
8
1
62
256
6
ByLayer
370
-1
48
1
60
0
100
AcDbLine
10
29.15
20
8.257556
30
0
11
29.15
21
3.295681
31
0
39
0
210
0
220
0
230
1
0
LINE
5
99
100
AcDbEntity
8
1
62
256
6
ByLayer
370
-1
48
1
60
0
100
AcDbLine
10
34.4
20
-9.974223
30
0
11
34.4
21
-12.68187
31
0
39
0
210
0
220
0
230
1
0
LINE
5
9A
100
AcDbEntity
8
1
62
256
6
ByLayer
370
-1
48
1
60
0
100
AcDbLine
10
27.413725
20
-13.656482
30
0
11
27.413725
21
-11.015309
31
0
39
0
210
0
220
0
230
1
0
LINE
5
9B
100
AcDbEntity
8
1
62
256
6
ByLayer
370
-1
48
1
60
0
100
AcDbLine
10
26.107966
20
-11.015309
30
0
11
27.413725
21
-11.015309
31
0
39
0
210
0
220
0
230
1
0
LINE
5
9C
100
AcDbEntity
8
1
62
256
6
ByLayer
370
-1
48
1
60
0
100
AcDbLine
10
34.4
20
8.768125
30
0
11
34.4
21
9.843185
31
0
39
0
210
0
220
0
230
1
0
LINE
5
9D
100
AcDbEntity
8
1
62
256
6
ByLayer
370
-1
48
1
60
0
100
AcDbLine
10
27.413725
20
0.854355
30
0
11
27.413725
21
8.257556
31
0
39
0
210
0
220
0
230
1
0
LINE
5
9E
100
AcDbEntity
8
1
62
256
6
ByLayer
370
-1
48
1
60
0
100
AcDbLine
10
33.649111
20
-6.380527
30
0
11
33.649111
21
-2.474071
31
0
39
0
210
0
220
0
230
1
0
LINE
5
9F
100
AcDbEntity
8
1
62
256
6
ByLayer
370
-1
48
1
60
0
100
AcDbLine
10
28.784025
20
-11.689821
30
0
11
28.784025
21
-13.918719
31
0
39
0
210
0
220
0
230
1
0
LINE
5
A0
100
AcDbEntity
8
1
62
256
6
ByLayer
370
-1
48
1
60
0
100
AcDbLine
10
33.793688
20
-2.454272
30
0
11
33.793688
21
-6.579305
31
0
39
0
210
0
220
0
230
1
0
LINE
5
A1
100
AcDbEntity
8
1
62
256
6
ByLayer
370
-1
48
1
60
0
100
AcDbLine
10
26.107966
20
8.257556
30
0
11
27.413725
21
8.257556
31
0
39
0
210
0
220
0
230
1
0
LINE
5
A2
100
AcDbEntity
8
1
62
256
6
ByLayer
370
-1
48
1
60
0
100
AcDbLine
10
2.2
20
-6.812489
30
0
11
8.3
21
-6.812489
31
0
39
0
210
0
220
0
230
1
0
LINE
5
A3
100
AcDbEntity
8
1
62
256
6
ByLayer
370
-1
48
1
60
0
100
AcDbLine
10
2.2
20
-6.812489
30
0
11
2.2
21
6.812489
31
0
39
0
210
0
220
0
230
1
0
LINE
5
A4
100
AcDbEntity
8
1
62
256
6
ByLayer
370
-1
48
1
60
0
100
AcDbLine
10
-19.5
20
7.157396
30
0
11
-19.5
21
-7.157396
31
0
39
0
210
0
220
0
230
1
0
LINE
5
A5
100
AcDbEntity
8
1
62
256
6
ByLayer
370
-1
48
1
60
0
100
AcDbLine
10
26.107966
20
-11.015309
30
0
11
26.459274
21
-8.15454
31
0
39
0
210
0
220
0
230
1
0
LINE
5
A6
100
AcDbEntity
8
1
62
256
6
ByLayer
370
-1
48
1
60
0
100
AcDbLine
10
8.3
20
6.812489
30
0
11
8.3
21
-6.812489
31
0
39
0
210
0
220
0
230
1
0
LINE
5
A7
100
AcDbEntity
8
1
62
256
6
ByLayer
370
-1
48
1
60
0
100
AcDbLine
10
32.076343
20
-6.37027
30
0
11
33.801347
21
-6.582044
31
0
39
0
210
0
220
0
230
1
0
LINE
5
A8
100
AcDbEntity
8
1
62
256
6
ByLayer
370
-1
48
1
60
0
100
AcDbLine
10
33.127637
20
7.11459
30
0
11
33.127508
21
7.114954
31
0
39
0
210
0
220
0
230
1
0
MTEXT
5
18C
100
AcDbEntity
8
SK6
62
256
6
ByLayer
370
-1
48
1
60
0
100
AcDbMText
10
-3.794737
20
-30.965
30
0
210
0
220
0
230
1
1
\W00.745;\fsimplex.shx,bigfont.shx;R300-32EH25-08M 
40
4
41
0
44
1.084337
50
0
71
7
72
5
7
DEFAULT
0
DIMENSION
5
1C0
100
AcDbEntity
8
2
62
256
6
ByLayer
370
-3
48
1
60
0
100
AcDbDimension
2
DimnDraft3D1
10
-65.85
20
-12.1
30
0
11
-65.85
21
0
31
0
70
32
71
5
72
1
41
1
210
0
220
0
230
1
3
Standard
100
AcDbAlignedDimension
13
0
23
12.1
33
0
14
0
24
-12.1
34
0
50
90
100
AcDbRotatedDimension
1001
ACAD
1000
DSTYLE
1002
{
1070
    74
1070
     0
1070
   279
1070
     0
1070
   172
1070
     1
1070
   173
1070
     1
1070
   340
1005
18D
1070
   271
1070
     3
1070
   272
1070
     3
1070
    77
1070
     1
1070
    73
1070
     0
1070
   171
1070
     3
1070
   274
1070
     4
1070
   177
1070
     7
1070
   176
1070
     7
1070
   178
1070
     7
1070
    78
1070
     8
1070
    48
1040
-0.005
1070
    41
1041
3.5
1070
   147
1041
1.75
1070
    42
1041
0.0
1070
    44
1041
2.0
1070
   140
1041
3.5
1070
   343
1005
1C1
1070
   344
1005
1C1
1002
}
0
DIMENSION
5
1D6
100
AcDbEntity
8
SK2
62
256
6
ByLayer
370
-3
48
1
60
0
100
AcDbDimension
2
DimnDraft3D2
10
61.85
20
-11.99255
30
0
11
61.85
21
0
31
0
70
32
71
5
72
1
41
1
210
0
220
0
230
1
3
Standard
100
AcDbAlignedDimension
13
35
23
11.99255
33
0
14
35
24
-11.99255
34
0
50
90
100
AcDbRotatedDimension
1001
ACAD
1000
DSTYLE
1002
{
1070
    74
1070
     0
1070
   279
1070
     0
1070
   172
1070
     1
1070
   173
1070
     1
1070
   340
1005
18D
1070
   271
1070
     3
1070
   272
1070
     3
1070
    77
1070
     1
1070
    73
1070
     0
1070
   171
1070
     3
1070
   274
1070
     4
1070
   177
1070
     7
1070
   176
1070
     7
1070
   178
1070
     7
1070
    78
1070
     8
1070
    48
1040
-0.005
1070
    41
1041
3.5
1070
   147
1041
1.75
1070
    42
1041
0.0
1070
    44
1041
2.0
1070
   140
1041
3.5
1070
   343
1005
1C1
1070
   344
1005
1C1
1002
}
0
DIMENSION
5
1E4
100
AcDbEntity
8
SK2
62
256
6
ByLayer
370
-3
48
1
60
0
100
AcDbDimension
2
DimnDraft3D3
10
71.85
20
15.965
30
0
11
71.85
21
0
31
0
70
32
71
5
72
1
41
1
210
0
220
0
230
1
3
Standard
100
AcDbAlignedDimension
13
35
23
-15.965
33
0
14
35
24
15.965
34
0
50
90
100
AcDbRotatedDimension
1001
ACAD
1000
DSTYLE
1002
{
1070
    74
1070
     0
1070
   279
1070
     0
1070
   172
1070
     1
1070
   173
1070
     1
1070
   340
1005
18D
1070
   271
1070
     3
1070
   272
1070
     3
1070
    77
1070
     1
1070
    73
1070
     0
1070
   171
1070
     3
1070
   274
1070
     4
1070
   177
1070
     7
1070
   176
1070
     7
1070
   178
1070
     7
1070
    78
1070
     8
1070
    48
1040
-0.005
1070
    41
1041
3.5
1070
   147
1041
1.75
1070
    42
1041
0.0
1070
    44
1041
2.0
1070
   140
1041
3.5
1070
   343
1005
1C1
1070
   344
1005
1C1
1002
}
0
DIMENSION
5
1F2
100
AcDbEntity
8
2
62
256
6
ByLayer
370
-3
48
1
60
0
100
AcDbDimension
2
DimnDraft3D4
10
31
20
30.815
30
0
11
18.084868
21
30.815
31
0
70
32
71
5
72
1
41
1
210
0
220
0
230
1
3
Standard
100
AcDbAlignedDimension
13
35
23
15.965
33
0
14
31
24
15.965
34
0
50
0
100
AcDbRotatedDimension
1001
ACAD
1000
DSTYLE
1002
{
1070
   279
1070
     0
1070
   172
1070
     1
1070
   173
1070
     1
1070
   340
1005
18D
1070
   271
1070
     3
1070
   272
1070
     3
1070
    77
1070
     1
1070
    73
1070
     0
1070
   171
1070
     3
1070
   274
1070
     4
1070
   177
1070
     7
1070
   176
1070
     7
1070
   178
1070
     7
1070
    78
1070
     8
1070
    48
1040
-0.005
1070
    41
1041
3.5
1070
   147
1041
1.75
1070
    42
1041
0.0
1070
    44
1041
2.0
1070
   140
1041
3.5
1070
   343
1005
1C1
1070
   344
1005
1C1
1002
}
0
DIMENSION
5
200
100
AcDbEntity
8
SK2
62
256
6
ByLayer
370
-3
48
1
60
0
100
AcDbDimension
2
DimnDraft3D5
10
0
20
50.815
30
0
11
17.5
21
50.815
31
0
70
32
71
5
72
1
41
1
210
0
220
0
230
1
3
Standard
100
AcDbAlignedDimension
13
35
23
15.965
33
0
14
0
24
12.1
34
0
50
0
100
AcDbRotatedDimension
1001
ACAD
1000
DSTYLE
1002
{
1070
   279
1070
     0
1070
   172
1070
     1
1070
   173
1070
     1
1070
   340
1005
18D
1070
   271
1070
     3
1070
   272
1070
     3
1070
    77
1070
     1
1070
    73
1070
     0
1070
   171
1070
     3
1070
   274
1070
     4
1070
   177
1070
     7
1070
   176
1070
     7
1070
   178
1070
     7
1070
    78
1070
     8
1070
    48
1040
-0.005
1070
    41
1041
3.5
1070
   147
1041
1.75
1070
    42
1041
0.0
1070
    44
1041
2.0
1070
   140
1041
3.5
1070
   343
1005
1C1
1070
   344
1005
1C1
1002
}
0
ENDSEC
0
SECTION
2
OBJECTS
0
DICTIONARY
5
230
330
0
100
AcDbDictionary
280
0
281
1
3
ACAD_GROUP
350
231
3
ACAD_MLINESTYLE
350
232
0
DICTIONARY
5
231
330
0
100
AcDbDictionary
280
0
281
1
0
DICTIONARY
5
232
330
0
100
AcDbDictionary
280
0
281
1
3
Standard
350
18
0
MLINESTYLE
5
18
330
232
100
AcDbMlineStyle
2
Standard
70
0
3

62
256
51
90
52
90
71
2
49
-0.5
62
256
6
ByLayer
49
0.5
62
256
6
ByLayer
0
RASTERVARIABLES
5
21f
330

100
AcDbRasterVariables
90
0
70
1
71
1
72
1
0
ENDSEC
0
EOF
