0
SECTION
2
HEADER
9
$ACADVER
1
AC1015
9
$DWGCODEPAGE
3
ANSI_1252
9
$HANDSEED
5
BACF5
9
$ANGBASE
50
0.0
9
$ANGDIR
70
0
9
$ATTMODE
70
1
9
$AUNITS
70
0
9
$AUPREC
70
0
9
$CECOLOR
62
256
9
$CELTSCALE
40
1.0
9
$CELTYPE
6
BYLAYER
9
$CELWEIGHT
370
-1
9
$CLAYER
8
SK6
9
$CMLJUST
70
0
9
$CMLSCALE
40
20.0
9
$CMLSTYLE
2
STANDARD
9
$DIMSTYLE
2
SANDVIK_STYLE
9
$TEXTSIZE
40
3.5
9
$TEXTSTYLE
7
SIMPLEX
9
$LUNITS
70
2
9
$LUPREC
70
4
9
$EXTNAMES
290
1
9
$INSBASE
10
0.0
20
0.0
30
0.0
9
$INSUNITS
70
4
9
$LTSCALE
40
1.0
9
$LWDISPLAY
290
0
9
$PDMODE
70
1
9
$PDSIZE
40
0.0
9
$PLINEGEN
70
0
9
$TDCREATE
40
2455887.48918781
9
$TDUCREATE
40
2455887.40585447
9
$TDUPDATE
40
2457289.475294
9
$TDUUPDATE
40
2457289.39196067
9
$TDINDWG
40
0.00472278935185185
9
$DIMADEC
70
2
9
$DIMAUNIT
70
0
9
$DIMASZ
40
2.5
9
$DIMAZIN
70
2
9
$DIMBLK
1

9
$DIMBLK1
1

9
$DIMBLK2
1

9
$DIMCEN
40
0.0
9
$DIMCLRD
70
0
9
$DIMCLRE
70
0
9
$DIMCLRT
70
0
9
$DIMDEC
70
2
9
$DIMDLE
40
0.0
9
$DIMDLI
40
3.75
9
$DIMDSEP
70
46
9
$DIMEXE
40
1.25
9
$DIMEXO
40
0.0
9
$DIMGAP
40
0.625
9
$DIMJUST
70
0
9
$DIMLFAC
40
1.0
9
$DIMLUNIT
70
2
9
$DIMLWD
70
-2
9
$DIMLWE
70
-2
9
$DIMPOST
1
<>
9
$DIMRND
40
0.0
9
$DIMSAH
70
0
9
$DIMSCALE
40
1.0
9
$DIMSE1
70
0
9
$DIMSE2
70
0
9
$DIMTAD
70
1
9
$DIMTIH
70
0
9
$DIMTOH
70
0
9
$DIMTXT
40
3.5
9
$DIMZIN
70
8
9
$DIMFRAC
70
0
9
$DIMLTYPE
6
ByBlock
9
$DIMLTEX1
6
ByBlock
9
$DIMLTEX2
6
ByBlock
0
ENDSEC
0
SECTION
2
CLASSES
0
CLASS
1
RASTERVARIABLES
2
AcDbRasterVariables
3
ISM
90
0
280
0
281
0
0
ENDSEC
0
SECTION
2
TABLES
0
TABLE
2
APPID
5
9
330
0
100
AcDbSymbolTable
70
13
0
APPID
5
11
330
9
100
AcDbSymbolTableRecord
100
AcDbRegAppTableRecord
2
ACAD
70
0
0
APPID
5
3A6
330
9
100
AcDbSymbolTableRecord
100
AcDbRegAppTableRecord
2
ACAD_PSEXT
70
0
0
APPID
5
3A8
330
9
100
AcDbSymbolTableRecord
100
AcDbRegAppTableRecord
2
ACAD_EXEMPT_FROM_CAD_STANDARDS
70
0
0
APPID
5
43E
330
9
100
AcDbSymbolTableRecord
100
AcDbRegAppTableRecord
2
ACAD_MLEADERVER
70
0
0
APPID
5
454
330
9
100
AcDbSymbolTableRecord
100
AcDbRegAppTableRecord
2
ACAD_DSTYLE_DIMJAG
70
0
0
APPID
5
455
330
9
100
AcDbSymbolTableRecord
100
AcDbRegAppTableRecord
2
ACAD_DSTYLE_DIMBREAK
70
0
0
APPID
5
456
330
9
100
AcDbSymbolTableRecord
100
AcDbRegAppTableRecord
2
ACAD_DSTYLE_DIMTALN
70
0
0
APPID
5
4BA
330
9
100
AcDbSymbolTableRecord
100
AcDbRegAppTableRecord
2
AcadAnnotative
70
0
0
APPID
5
4BB
330
9
100
AcDbSymbolTableRecord
100
AcDbRegAppTableRecord
2
ACADIGES
70
0
0
APPID
5
BAC3E
330
9
100
AcDbSymbolTableRecord
100
AcDbRegAppTableRecord
2
ACAD_NAV_VCDISPLAY
70
0
0
APPID
5
BACED
330
9
100
AcDbSymbolTableRecord
100
AcDbRegAppTableRecord
2
AcCmTransparency
70
0
0
APPID
5
BACEE
330
9
100
AcDbSymbolTableRecord
100
AcDbRegAppTableRecord
2
GradientColor1ACI
70
0
0
APPID
5
BACEF
330
9
100
AcDbSymbolTableRecord
100
AcDbRegAppTableRecord
2
GradientColor2ACI
70
0
0
ENDTAB
0
TABLE
2
VPORT
5
8
330
0
100
AcDbSymbolTable
70
1
0
VPORT
5
3ED
330
8
100
AcDbSymbolTableRecord
100
AcDbViewportTableRecord
2
*Active
70
0
10
0.0
20
0.0
11
1.0
21
1.0
12
6.26174932691409
22
2.3011012108665
13
0.0
23
0.0
14
5.0
24
5.0
15
5.0
25
5.0
16
0.0
26
0.0
36
1.0
17
0.0
27
0.0
37
0.0
40
97.068376265868
41
1.65153234960272
75
0
76
0
0
ENDTAB
0
TABLE
2
LTYPE
5
5
330
0
100
AcDbSymbolTable
70
4
0
LTYPE
5
12
330
5
100
AcDbSymbolTableRecord
100
AcDbLinetypeTableRecord
70
0
2
ByBlock
3

72
65
73
0
40
0.0
0
LTYPE
5
13
330
5
100
AcDbSymbolTableRecord
100
AcDbLinetypeTableRecord
70
0
2
ByLayer
3

72
65
73
0
40
0.0
0
LTYPE
5
14
330
5
100
AcDbSymbolTableRecord
100
AcDbLinetypeTableRecord
70
0
2
CONTINUOUS
3
Solid line
72
65
73
0
40
0.0
0
LTYPE
5
BA913
330
5
100
AcDbSymbolTableRecord
100
AcDbLinetypeTableRecord
70
0
2
CENTER
3
____ _ ____ _ ____ _ ____ _ ____ _ ____ _ ____
72
65
73
4
40
3.10677
49
1.941732
74
0
49
-0.388346
74
0
49
0.388346
74
0
49
-0.388346
74
0
0
ENDTAB
0
TABLE
2
LAYER
5
2
330
0
100
AcDbSymbolTable
70
11
0
LAYER
5
F
330
2
100
AcDbSymbolTableRecord
100
AcDbLayerTableRecord
2
0
70
0
62
7
6
CONTINUOUS
290
1
370
-3
390
0
0
LAYER
5
23
330
2
100
AcDbSymbolTableRecord
100
AcDbLayerTableRecord
2
1
70
0
62
4
6
CONTINUOUS
290
1
370
-3
390
0
0
LAYER
5
BA915
330
2
100
AcDbSymbolTableRecord
100
AcDbLayerTableRecord
2
2
70
0
62
7
6
CONTINUOUS
290
1
370
-3
390
0
0
LAYER
5
BA916
330
2
100
AcDbSymbolTableRecord
100
AcDbLayerTableRecord
2
SK1
70
0
62
4
6
CONTINUOUS
290
1
370
-3
390
0
0
LAYER
5
BA918
330
2
100
AcDbSymbolTableRecord
100
AcDbLayerTableRecord
2
SK2
70
0
62
7
6
CONTINUOUS
290
1
370
-3
390
0
0
LAYER
5
BA91D
330
2
100
AcDbSymbolTableRecord
100
AcDbLayerTableRecord
2
5
70
0
62
-7
6
CONTINUOUS
290
1
370
-3
390
0
0
LAYER
5
BA91F
330
2
100
AcDbSymbolTableRecord
100
AcDbLayerTableRecord
2
SK6
70
0
62
5
6
CONTINUOUS
290
1
370
-3
390
0
0
LAYER
5
BA92C
330
2
100
AcDbSymbolTableRecord
100
AcDbLayerTableRecord
2
62
70
0
62
-5
6
CONTINUOUS
290
1
370
-3
390
0
0
LAYER
5
BA935
330
2
100
AcDbSymbolTableRecord
100
AcDbLayerTableRecord
2
80
70
0
62
2
6
CENTER
290
1
370
-3
390
0
0
LAYER
5
BA936
330
2
100
AcDbSymbolTableRecord
100
AcDbLayerTableRecord
2
81
70
0
62
2
6
CENTER
290
1
370
-3
390
0
0
LAYER
5
BA938
330
2
100
AcDbSymbolTableRecord
100
AcDbLayerTableRecord
2
Defpoints
70
0
62
7
6
CONTINUOUS
290
0
370
-3
390
0
0
ENDTAB
0
TABLE
2
STYLE
5
3
330
0
100
AcDbSymbolTable
70
3
0
STYLE
5
10
330
3
100
AcDbSymbolTableRecord
100
AcDbTextStyleTableRecord
2
STANDARD
3
txt
70
0
71
0
40
0.0
41
1.0
42
0.0
50
0.0
0
STYLE
5
1E
330
3
100
AcDbSymbolTableRecord
100
AcDbTextStyleTableRecord
2
SIMPLEX
3
simplex
70
0
71
0
40
0.0
41
1.0
42
0.0
50
0.0
0
STYLE
5
BA93A
330
3
100
AcDbSymbolTableRecord
100
AcDbTextStyleTableRecord
2
SANDVIK_STYLE
3
ISO.shx
70
0
71
0
40
3.0
41
1.0
42
3.0
50
0.0
0
ENDTAB
0
TABLE
2
DIMSTYLE
5
A
330
0
100
AcDbSymbolTable
70
2
100
AcDbDimStyleTable
0
DIMSTYLE
105
457
330
A
100
AcDbSymbolTableRecord
100
AcDbDimStyleTableRecord
2
SANDVIK_STYLE
70
0
3
<>
40
1.0
41
2.5
42
0.0
43
3.75
44
1.25
45
0.0
46
0.0
73
0
74
0
75
0
76
0
77
1
78
8
79
2
140
3.5
141
0.0
144
1.0
147
0.625
173
0
176
0
177
0
178
0
179
2
271
2
275
0
276
0
277
2
278
46
280
0
340
1E
345
12
346
12
347
12
371
-2
372
-2
0
DIMSTYLE
105
BA93B
330
A
100
AcDbSymbolTableRecord
100
AcDbDimStyleTableRecord
2
STANDARD
70
0
3
<>
40
1.0
41
3.0
42
2.5
43
10.0
44
2.5
45
0.0
46
1.25
73
0
74
0
75
0
76
0
77
1
78
0
79
3
140
3.0
141
-3.0
144
1.0
147
1.5
173
0
176
0
177
0
178
0
179
0
271
2
275
0
276
0
277
2
278
46
280
0
340
BA93A
345
12
346
12
347
12
371
-2
372
-2
0
ENDTAB
0
TABLE
2
VIEW
5
6
330
0
100
AcDbSymbolTable
70
0
0
ENDTAB
0
TABLE
2
UCS
5
7
330
0
100
AcDbSymbolTable
70
0
0
ENDTAB
0
TABLE
2
BLOCK_RECORD
5
1
330
0
100
AcDbSymbolTable
70
8
0
BLOCK_RECORD
5
18
330
1
100
AcDbSymbolTableRecord
100
AcDbBlockTableRecord
2
*MODEL_SPACE
340
303
0
BLOCK_RECORD
5
338
330
1
100
AcDbSymbolTableRecord
100
AcDbBlockTableRecord
2
*Paper_Space
340
33B
0
BLOCK_RECORD
5
BA8D2
330
1
100
AcDbSymbolTableRecord
100
AcDbBlockTableRecord
2
*D4
340
0
0
BLOCK_RECORD
5
BA8DF
330
1
100
AcDbSymbolTableRecord
100
AcDbBlockTableRecord
2
*D5
340
0
0
BLOCK_RECORD
5
BA8EC
330
1
100
AcDbSymbolTableRecord
100
AcDbBlockTableRecord
2
*D6
340
0
0
BLOCK_RECORD
5
BA8F9
330
1
100
AcDbSymbolTableRecord
100
AcDbBlockTableRecord
2
*D7
340
0
0
BLOCK_RECORD
5
BA906
330
1
100
AcDbSymbolTableRecord
100
AcDbBlockTableRecord
2
_Zeropoint.dwg
340
0
70
0
280
1
281
0
1001
ACAD
1000
DesignCenter Data
1002
{
1070
1
1070
0
1002
}
0
BLOCK_RECORD
5
BA90F
330
1
100
AcDbSymbolTableRecord
100
AcDbBlockTableRecord
2
_nullpunkt
340
0
70
4
280
1
281
0
1001
ACAD
1000
DesignCenter Data
1002
{
1070
1
1070
4
1002
}
0
ENDTAB
0
ENDSEC
0
SECTION
2
BLOCKS
0
BLOCK
5
32
330
18
100
AcDbEntity
8
0
100
AcDbBlockBegin
2
*MODEL_SPACE
70
0
10
0.0
20
0.0
30
0.0
3
*MODEL_SPACE
0
ENDBLK
5
33
330
18
100
AcDbEntity
8
0
100
AcDbBlockEnd
0
BLOCK
5
339
330
338
100
AcDbEntity
8
0
100
AcDbBlockBegin
2
*Paper_Space
70
0
10
0.0
20
0.0
30
0.0
3
*Paper_Space
0
ENDBLK
5
33A
330
338
100
AcDbEntity
8
0
100
AcDbBlockEnd
0
BLOCK
5
BA8D3
330
BA8D2
100
AcDbEntity
8
0
100
AcDbBlockBegin
2
*D4
70
1
10
0.0
20
0.0
30
0.0
3
*D4
0
LINE
5
BACA4
330
BA8D2
100
AcDbEntity
8
2
62
0
440
16777216
6
ByLayer
370
-2
48
1.0
60
0
100
AcDbLine
10
32.0
20
10.0
30
0.0
11
41.8476
21
10.0
31
0.0
39
0.0
210
0.0
220
0.0
230
1.0
0
LINE
5
BACA5
330
BA8D2
100
AcDbEntity
8
2
62
0
440
16777216
6
ByLayer
370
-2
48
1.0
60
0
100
AcDbLine
10
32.0
20
-10.0
30
0.0
11
41.8476
21
-10.0
31
0.0
39
0.0
210
0.0
220
0.0
230
1.0
0
LINE
5
BACA6
330
BA8D2
100
AcDbEntity
8
2
62
0
440
16777216
6
ByLayer
370
-2
48
1.0
60
0
100
AcDbLine
10
40.5976
20
7.5
30
0.0
11
40.5976
21
-7.5
31
0.0
39
0.0
210
0.0
220
0.0
230
1.0
0
SOLID
5
BACA7
330
BA8D2
100
AcDbEntity
8
2
62
0
440
16777216
6
ByLayer
370
-1
48
1.0
60
0
100
AcDbTrace
10
40.1809333333333
20
7.5
30
0.0
11
41.0142666666667
21
7.5
31
0.0
12
40.5976
22
10.0
32
0.0
13
40.5976
23
10.0
33
0.0
39
0.0
210
0.0
220
0.0
230
1.0
0
SOLID
5
BACA8
330
BA8D2
100
AcDbEntity
8
2
62
0
440
16777216
6
ByLayer
370
-1
48
1.0
60
0
100
AcDbTrace
10
40.1809333333333
20
-7.5
30
0.0
11
41.0142666666667
21
-7.5
31
0.0
12
40.5976
22
-10.0
32
0.0
13
40.5976
23
-10.0
33
0.0
39
0.0
210
0.0
220
0.0
230
1.0
0
MTEXT
5
BACA9
330
BA8D2
100
AcDbEntity
8
2
62
0
440
16777216
6
ByLayer
370
-1
48
1.0
60
0
100
AcDbMText
10
38.2226
20
-5.202632
30
0.0
210
0.0
220
0.0
230
1.0
1
%%c20
40
3.5
41
0.0
44
1.0
50
90.0
71
5
72
5
7
SIMPLEX
0
POINT
5
BACAA
330
BA8D2
100
AcDbEntity
8
Defpoints
62
0
440
16777216
6
ByLayer
370
-1
48
1.0
60
0
100
AcDbPoint
10
32.0
20
10.0
30
0.0
39
0.0
210
0.0
220
0.0
230
1.0
50
360.0
0
POINT
5
BACAB
330
BA8D2
100
AcDbEntity
8
Defpoints
62
0
440
16777216
6
ByLayer
370
-1
48
1.0
60
0
100
AcDbPoint
10
32.0
20
-10.0
30
0.0
39
0.0
210
0.0
220
0.0
230
1.0
50
360.0
0
POINT
5
BACAC
330
BA8D2
100
AcDbEntity
8
Defpoints
62
0
440
16777216
6
ByLayer
370
-1
48
1.0
60
0
100
AcDbPoint
10
40.5976
20
-10.0
30
0.0
39
0.0
210
0.0
220
0.0
230
1.0
50
360.0
0
ENDBLK
5
BA8DE
330
BA8D2
100
AcDbEntity
8
0
100
AcDbBlockEnd
0
BLOCK
5
BA8E0
330
BA8DF
100
AcDbEntity
8
0
100
AcDbBlockBegin
2
*D5
70
1
10
0.0
20
0.0
30
0.0
3
*D5
0
LINE
5
BAB97
330
BA8DF
100
AcDbEntity
8
SK2
62
0
440
16777216
6
ByLayer
370
-2
48
1.0
60
0
100
AcDbLine
10
-1.75
20
8.9
30
0.0
11
-21.932731
21
8.90000000000001
31
0.0
39
0.0
210
0.0
220
0.0
230
1.0
0
LINE
5
BAB98
330
BA8DF
100
AcDbEntity
8
SK2
62
0
440
16777216
6
ByLayer
370
-2
48
1.0
60
0
100
AcDbLine
10
-1.75
20
-8.9
30
0.0
11
-21.932731
21
-8.89999999999999
31
0.0
39
0.0
210
0.0
220
0.0
230
1.0
0
LINE
5
BAB99
330
BA8DF
100
AcDbEntity
8
SK2
62
0
440
16777216
6
ByLayer
370
-2
48
1.0
60
0
100
AcDbLine
10
-20.682731
20
6.4
30
0.0
11
-20.682731
21
-6.39999999999999
31
0.0
39
0.0
210
0.0
220
0.0
230
1.0
0
SOLID
5
BAB9A
330
BA8DF
100
AcDbEntity
8
SK2
62
0
440
16777216
6
ByLayer
370
-1
48
1.0
60
0
100
AcDbTrace
10
-21.0993976666667
20
6.4
30
0.0
11
-20.2660643333333
21
6.4
31
0.0
12
-20.682731
22
8.90000000000001
32
0.0
13
-20.682731
23
8.90000000000001
33
0.0
39
0.0
210
0.0
220
0.0
230
1.0
0
SOLID
5
BAB9B
330
BA8DF
100
AcDbEntity
8
SK2
62
0
440
16777216
6
ByLayer
370
-1
48
1.0
60
0
100
AcDbTrace
10
-21.0993976666667
20
-6.39999999999999
30
0.0
11
-20.2660643333333
21
-6.39999999999999
31
0.0
12
-20.682731
22
-8.89999999999999
32
0.0
13
-20.682731
23
-8.89999999999999
33
0.0
39
0.0
210
0.0
220
0.0
230
1.0
0
MTEXT
5
BAB9C
330
BA8DF
100
AcDbEntity
8
SK2
62
0
440
16777216
6
ByLayer
370
-1
48
1.0
60
0
100
AcDbMText
10
-23.057731
20
-6.517105
30
0.0
210
0.0
220
0.0
230
1.0
1
%%c17.8
40
3.5
41
0.0
44
1.0
50
90.0
71
5
72
5
7
SIMPLEX
1001
ACAD
1000
MTEXTBEGIN
1070
73
1070
1
1070
44
1040
1.0
1070
74
1070
0
1000
MTEXTEND
0
POINT
5
BAB9D
330
BA8DF
100
AcDbEntity
8
Defpoints
62
0
440
16777216
6
ByLayer
370
-1
48
1.0
60
0
100
AcDbPoint
10
-1.75
20
8.9
30
0.0
39
0.0
210
0.0
220
0.0
230
1.0
50
360.0
0
POINT
5
BAB9E
330
BA8DF
100
AcDbEntity
8
Defpoints
62
0
440
16777216
6
ByLayer
370
-1
48
1.0
60
0
100
AcDbPoint
10
-1.75
20
-8.9
30
0.0
39
0.0
210
0.0
220
0.0
230
1.0
50
360.0
0
POINT
5
BAB9F
330
BA8DF
100
AcDbEntity
8
Defpoints
62
0
440
16777216
6
ByLayer
370
-1
48
1.0
60
0
100
AcDbPoint
10
-20.682731
20
-8.89999999999999
30
0.0
39
0.0
210
0.0
220
0.0
230
1.0
50
360.0
0
ENDBLK
5
BA8EB
330
BA8DF
100
AcDbEntity
8
0
100
AcDbBlockEnd
0
BLOCK
5
BA8ED
330
BA8EC
100
AcDbEntity
8
0
100
AcDbBlockBegin
2
*D6
70
1
10
0.0
20
0.0
30
0.0
3
*D6
0
LINE
5
BACAD
330
BA8EC
100
AcDbEntity
8
2
62
0
440
16777216
6
ByLayer
370
-2
48
1.0
60
0
100
AcDbLine
10
30.0
20
12.0
30
0.0
11
30.0
21
27.220235
31
0.0
39
0.0
210
0.0
220
0.0
230
1.0
0
LINE
5
BACAE
330
BA8EC
100
AcDbEntity
8
2
62
0
440
16777216
6
ByLayer
370
-2
48
1.0
60
0
100
AcDbLine
10
0.0000000000000007
20
10.65
30
0.0
11
0.0000000000000017
21
27.220235
31
0.0
39
0.0
210
0.0
220
0.0
230
1.0
0
LINE
5
BACAF
330
BA8EC
100
AcDbEntity
8
2
62
0
440
16777216
6
ByLayer
370
-2
48
1.0
60
0
100
AcDbLine
10
27.5
20
25.970235
30
0.0
11
2.5
21
25.970235
31
0.0
39
0.0
210
0.0
220
0.0
230
1.0
0
SOLID
5
BACB0
330
BA8EC
100
AcDbEntity
8
2
62
0
440
16777216
6
ByLayer
370
-1
48
1.0
60
0
100
AcDbTrace
10
27.5
20
26.3869016666667
30
0.0
11
27.5
21
25.5535683333333
31
0.0
12
30.0
22
25.970235
32
0.0
13
30.0
23
25.970235
33
0.0
39
0.0
210
0.0
220
0.0
230
1.0
0
SOLID
5
BACB1
330
BA8EC
100
AcDbEntity
8
2
62
0
440
16777216
6
ByLayer
370
-1
48
1.0
60
0
100
AcDbTrace
10
2.5
20
26.3869016666667
30
0.0
11
2.5
21
25.5535683333333
31
0.0
12
0.0000000000000016
22
25.970235
32
0.0
13
0.0000000000000016
23
25.970235
33
0.0
39
0.0
210
0.0
220
0.0
230
1.0
0
MTEXT
5
BACB2
330
BA8EC
100
AcDbEntity
8
2
62
0
440
16777216
6
ByLayer
370
-1
48
1.0
60
0
100
AcDbMText
10
16.752632
20
28.345235
30
0.0
210
0.0
220
0.0
230
1.0
1
30
40
3.5
41
0.0
44
1.0
50
0.0
71
5
72
5
7
SIMPLEX
0
POINT
5
BACB3
330
BA8EC
100
AcDbEntity
8
Defpoints
62
0
440
16777216
6
ByLayer
370
-1
48
1.0
60
0
100
AcDbPoint
10
30.0
20
12.0
30
0.0
39
0.0
210
0.0
220
0.0
230
1.0
50
360.0
0
POINT
5
BACB4
330
BA8EC
100
AcDbEntity
8
Defpoints
62
0
440
16777216
6
ByLayer
370
-1
48
1.0
60
0
100
AcDbPoint
10
0.0000000000000007
20
10.65
30
0.0
39
0.0
210
0.0
220
0.0
230
1.0
50
360.0
0
POINT
5
BACB5
330
BA8EC
100
AcDbEntity
8
Defpoints
62
0
440
16777216
6
ByLayer
370
-1
48
1.0
60
0
100
AcDbPoint
10
0.0000000000000016
20
25.970235
30
0.0
39
0.0
210
0.0
220
0.0
230
1.0
50
360.0
0
ENDBLK
5
BA8F8
330
BA8EC
100
AcDbEntity
8
0
100
AcDbBlockEnd
0
BLOCK
5
BA8FA
330
BA8F9
100
AcDbEntity
8
0
100
AcDbBlockBegin
2
*D7
70
1
10
0.0
20
0.0
30
0.0
3
*D7
0
LINE
5
BAB84
330
BA8F9
100
AcDbEntity
8
SK2
62
0
440
16777216
6
ByLayer
370
-2
48
1.0
60
0
100
AcDbLine
10
30.0
20
12.0
30
0.0
11
30.0
21
16.64338
31
0.0
39
0.0
210
0.0
220
0.0
230
1.0
0
LINE
5
BAB85
330
BA8F9
100
AcDbEntity
8
SK2
62
0
440
16777216
6
ByLayer
370
-2
48
1.0
60
0
100
AcDbLine
10
26.0
20
8.0
30
0.0
11
26.0
21
16.64338
31
0.0
39
0.0
210
0.0
220
0.0
230
1.0
0
LINE
5
BAB86
330
BA8F9
100
AcDbEntity
8
SK2
62
0
440
16777216
6
ByLayer
370
-2
48
1.0
60
0
100
AcDbLine
10
32.5
20
15.39338
30
0.0
11
35.0
21
15.39338
31
0.0
39
0.0
210
0.0
220
0.0
230
1.0
0
LINE
5
BAB87
330
BA8F9
100
AcDbEntity
8
SK2
62
0
440
16777216
6
ByLayer
370
-2
48
1.0
60
0
100
AcDbLine
10
23.5
20
15.39338
30
0.0
11
11.7866666666667
21
15.39338
31
0.0
39
0.0
210
0.0
220
0.0
230
1.0
0
SOLID
5
BAB88
330
BA8F9
100
AcDbEntity
8
SK2
62
0
440
16777216
6
ByLayer
370
-1
48
1.0
60
0
100
AcDbTrace
10
32.5
20
15.8100466666667
30
0.0
11
32.5
21
14.9767133333333
31
0.0
12
30.0
22
15.39338
32
0.0
13
30.0
23
15.39338
33
0.0
39
0.0
210
0.0
220
0.0
230
1.0
0
SOLID
5
BAB89
330
BA8F9
100
AcDbEntity
8
SK2
62
0
440
16777216
6
ByLayer
370
-1
48
1.0
60
0
100
AcDbTrace
10
23.5
20
15.8100466666667
30
0.0
11
23.5
21
14.9767133333333
31
0.0
12
26.0
22
15.39338
32
0.0
13
26.0
23
15.39338
33
0.0
39
0.0
210
0.0
220
0.0
230
1.0
0
MTEXT
5
BAB8A
330
BA8F9
100
AcDbEntity
8
SK2
62
0
440
16777216
6
ByLayer
370
-1
48
1.0
60
0
100
AcDbMText
10
15.745
20
17.76838
30
0.0
210
0.0
220
0.0
230
1.0
1
1.5
40
3.5
41
0.0
44
1.0
50
0.0
71
5
72
5
7
SIMPLEX
1001
ACAD
1000
MTEXTBEGIN
1070
73
1070
1
1070
44
1040
1.0
1070
74
1070
0
1000
MTEXTEND
0
POINT
5
BAB8B
330
BA8F9
100
AcDbEntity
8
Defpoints
62
0
440
16777216
6
ByLayer
370
-1
48
1.0
60
0
100
AcDbPoint
10
30.0
20
12.0
30
0.0
39
0.0
210
0.0
220
0.0
230
1.0
50
360.0
0
POINT
5
BAB8C
330
BA8F9
100
AcDbEntity
8
Defpoints
62
0
440
16777216
6
ByLayer
370
-1
48
1.0
60
0
100
AcDbPoint
10
26.0
20
8.0
30
0.0
39
0.0
210
0.0
220
0.0
230
1.0
50
360.0
0
POINT
5
BAB8D
330
BA8F9
100
AcDbEntity
8
Defpoints
62
0
440
16777216
6
ByLayer
370
-1
48
1.0
60
0
100
AcDbPoint
10
26.0
20
15.39338
30
0.0
39
0.0
210
0.0
220
0.0
230
1.0
50
360.0
0
ENDBLK
5
BA905
330
BA8F9
100
AcDbEntity
8
0
100
AcDbBlockEnd
0
BLOCK
5
BA909
330
BA906
100
AcDbEntity
8
0
100
AcDbBlockBegin
2
_Zeropoint.dwg
70
0
10
0.0
20
0.0
30
0.0
3
_Zeropoint.dwg
0
HATCH
5
BA90A
330
BA906
100
AcDbEntity
8
2
62
256
6
ByLayer
370
-1
48
1.0
60
0
100
AcDbHatch
10
0.0
20
0.0
30
0.0
210
0.0
220
0.0
230
1.0
2
_USER
70
0
71
1
91
2
92
7
72
1
73
1
93
3
10
-2.5
20
0.0
42
0.414213562373095
10
0.0
20
-2.5
42
0.0
10
0.0
20
0.0
42
0.0
97
3
330
BA90B
330
BA90D
330
BA90C
92
7
72
1
73
1
93
3
10
0.0
20
2.5
42
0.0
10
0.0
20
0.0
42
0.0
10
2.5
20
0.0
42
0.414213562373095
97
3
330
BA90C
330
BA90B
330
BA90D
75
0
76
0
52
45.0
41
0.5
77
0
78
1
53
45.0
43
0.0
44
0.0
45
-0.353553390593274
46
0.353553390593274
79
0
47
0.0
98
1
10
0.0
20
0.0
1001
ACAD
1010
0.0
1020
0.0
1030
0.0
0
LINE
5
BA90B
102
{ACAD_REACTORS
330
BA90A
330
BA90A
102
}
330
BA906
100
AcDbEntity
8
2
62
256
6
ByLayer
370
-1
48
1.0
60
0
100
AcDbLine
10
5.0
20
0.0
30
0.0
11
-5.0
21
0.0
31
0.0
39
0.0
210
0.0
220
0.0
230
1.0
0
LINE
5
BA90C
102
{ACAD_REACTORS
330
BA90A
330
BA90A
102
}
330
BA906
100
AcDbEntity
8
2
62
256
6
ByLayer
370
-1
48
1.0
60
0
100
AcDbLine
10
0.0
20
5.0
30
0.0
11
0.0
21
-5.0
31
0.0
39
0.0
210
0.0
220
0.0
230
1.0
0
CIRCLE
5
BA90D
102
{ACAD_REACTORS
330
BA90A
330
BA90A
102
}
330
BA906
100
AcDbEntity
8
2
62
256
6
ByLayer
370
-1
48
1.0
60
0
100
AcDbCircle
10
0.0
20
0.0
30
0.0
40
2.5
39
0.0
210
0.0
220
0.0
230
1.0
0
ENDBLK
5
BA90E
330
BA906
100
AcDbEntity
8
0
100
AcDbBlockEnd
0
BLOCK
5
BA910
330
BA90F
100
AcDbEntity
8
0
100
AcDbBlockBegin
2
_nullpunkt
70
0
10
0.0
20
0.0
30
0.0
3
_nullpunkt
0
INSERT
5
BA911
330
BA90F
100
AcDbEntity
8
0
62
256
6
ByLayer
370
-1
48
1.0
60
0
100
AcDbBlockReference
2
_Zeropoint.dwg
10
0.0
20
0.0
30
0.0
41
1.0
42
1.0
43
1.0
50
0.0
210
0.0
220
0.0
230
1.0
0
ENDBLK
5
BA912
330
BA90F
100
AcDbEntity
8
0
100
AcDbBlockEnd
0
ENDSEC
0
SECTION
2
ENTITIES
0
VIEWPORT
5
BACEC
330
338
100
AcDbEntity
67
1
8
0
62
256
6
ByLayer
370
-1
48
1.0
60
0
100
AcDbViewport
10
0.0
20
0.0
30
0.0
40
297.0
41
210.0
68
1
69
1
12
50.0
22
100.0
13
0.0
23
0.0
14
10.0
24
10.0
15
10.0
25
10.0
16
0.0
26
0.0
36
1.0
17
0.0
27
0.0
37
0.0
42
50.0
43
0.0
44
0.0
45
250.0
50
0.0
51
0.0
72
1000
90
819232
110
0.0
120
0.0
130
0.0
111
1.0
121
0.0
131
0.0
112
0.0
122
1.0
132
0.0
0
LINE
5
BA93E
330
18
100
AcDbEntity
67
0
8
SK1
62
256
6
ByLayer
370
-1
48
1.0
60
0
100
AcDbLine
10
0.0000000000000003
20
5.0
30
0.0
11
-1.0
21
4.0
31
0.0
39
0.0
210
0.0
220
0.0
230
1.0
0
LINE
5
BA93F
330
18
100
AcDbEntity
67
0
8
SK1
62
256
6
ByLayer
370
-1
48
1.0
60
0
100
AcDbLine
10
-1.0
20
-4.0
30
0.0
11
-0.0000000000000003
21
-5.0
31
0.0
39
0.0
210
0.0
220
0.0
230
1.0
0
LINE
5
BA940
330
18
100
AcDbEntity
67
0
8
SK1
62
256
6
ByLayer
370
-1
48
1.0
60
0
100
AcDbLine
10
-12.0
20
-5.0
30
0.0
11
-4.0
21
-5.0
31
0.0
39
0.0
210
0.0
220
0.0
230
1.0
0
LINE
5
BA941
330
18
100
AcDbEntity
67
0
8
SK1
62
256
6
ByLayer
370
-1
48
1.0
60
0
100
AcDbLine
10
-4.0
20
5.0
30
0.0
11
-12.0
21
5.0
31
0.0
39
0.0
210
0.0
220
0.0
230
1.0
0
LINE
5
BA942
330
18
100
AcDbEntity
67
0
8
SK1
62
256
6
ByLayer
370
-1
48
1.0
60
0
100
AcDbLine
10
-12.0
20
5.0
30
0.0
11
-13.0
21
4.0
31
0.0
39
0.0
210
0.0
220
0.0
230
1.0
0
LINE
5
BA943
330
18
100
AcDbEntity
67
0
8
SK1
62
256
6
ByLayer
370
-1
48
1.0
60
0
100
AcDbLine
10
-13.0
20
-4.0
30
0.0
11
-12.0
21
-5.0
31
0.0
39
0.0
210
0.0
220
0.0
230
1.0
0
LINE
5
BA944
330
18
100
AcDbEntity
67
0
8
SK1
62
256
6
ByLayer
370
-1
48
1.0
60
0
100
AcDbLine
10
-4.0
20
-5.0
30
0.0
11
-3.0
21
-4.0
31
0.0
39
0.0
210
0.0
220
0.0
230
1.0
0
LINE
5
BA945
330
18
100
AcDbEntity
67
0
8
SK1
62
256
6
ByLayer
370
-1
48
1.0
60
0
100
AcDbLine
10
-3.0
20
4.0
30
0.0
11
-4.0
21
5.0
31
0.0
39
0.0
210
0.0
220
0.0
230
1.0
0
LINE
5
BA946
330
18
100
AcDbEntity
67
0
8
SK1
62
256
6
ByLayer
370
-1
48
1.0
60
0
100
AcDbLine
10
-3.0
20
-4.0
30
0.0
11
-1.0
21
-4.0
31
0.0
39
0.0
210
0.0
220
0.0
230
1.0
0
LINE
5
BA947
330
18
100
AcDbEntity
67
0
8
SK1
62
256
6
ByLayer
370
-1
48
1.0
60
0
100
AcDbLine
10
-1.0
20
4.0
30
0.0
11
-3.0
21
4.0
31
0.0
39
0.0
210
0.0
220
0.0
230
1.0
0
LINE
5
BA948
330
18
100
AcDbEntity
67
0
8
1
62
256
6
ByLayer
370
-1
48
1.0
60
0
100
AcDbLine
10
0.250000000000001
20
8.9
30
0.0
11
0.0000000000000005
21
8.65
31
0.0
39
0.0
210
0.0
220
0.0
230
1.0
0
LINE
5
BA949
330
18
100
AcDbEntity
67
0
8
1
62
256
6
ByLayer
370
-1
48
1.0
60
0
100
AcDbLine
10
-0.0000000000000005
20
-8.65
30
0.0
11
0.25
21
-8.9
31
0.0
39
0.0
210
0.0
220
0.0
230
1.0
0
LINE
5
BA94A
330
18
100
AcDbEntity
67
0
8
1
62
256
6
ByLayer
370
-1
48
1.0
60
0
100
AcDbLine
10
0.25
20
-8.9
30
0.0
11
17.311997
21
-8.9
31
0.0
39
0.0
210
0.0
220
0.0
230
1.0
0
LINE
5
BA94B
330
18
100
AcDbEntity
67
0
8
1
62
256
6
ByLayer
370
-1
48
1.0
60
0
100
AcDbLine
10
21.1
20
8.9
30
0.0
11
0.250000000000001
21
8.9
31
0.0
39
0.0
210
0.0
220
0.0
230
1.0
0
LINE
5
BA94C
330
18
100
AcDbEntity
67
0
8
1
62
256
6
ByLayer
370
-1
48
1.0
60
0
100
AcDbLine
10
2.4
20
5.621388
30
0.0
11
7.6
21
5.621388
31
0.0
39
0.0
210
0.0
220
0.0
230
1.0
0
LINE
5
BA94D
330
18
100
AcDbEntity
67
0
8
1
62
256
6
ByLayer
370
-1
48
1.0
60
0
100
AcDbLine
10
7.6
20
-5.621388
30
0.0
11
2.4
21
-5.621388
31
0.0
39
0.0
210
0.0
220
0.0
230
1.0
0
LINE
5
BA94E
330
18
100
AcDbEntity
67
0
8
1
62
256
6
ByLayer
370
-1
48
1.0
60
0
100
AcDbLine
10
21.1
20
8.899438
30
0.0
11
14.879608
21
8.899438
31
0.0
39
0.0
210
0.0
220
0.0
230
1.0
0
LINE
5
BA94F
330
18
100
AcDbEntity
67
0
8
1
62
256
6
ByLayer
370
-1
48
1.0
60
0
100
AcDbLine
10
21.1
20
-4.536322
30
0.0
11
14.879608
21
-4.536322
31
0.0
39
0.0
210
0.0
220
0.0
230
1.0
0
LINE
5
BA950
330
18
100
AcDbEntity
67
0
8
1
62
256
6
ByLayer
370
-1
48
1.0
60
0
100
AcDbLine
10
26.0
20
-6.669696
30
0.0
11
26.0
21
-5.952628
31
0.0
39
0.0
210
0.0
220
0.0
230
1.0
0
LINE
5
BA951
330
18
100
AcDbEntity
67
0
8
1
62
256
6
ByLayer
370
-1
48
1.0
60
0
100
AcDbLine
10
2.4
20
5.621388
30
0.0
11
2.4
21
-5.621388
31
0.0
39
0.0
210
0.0
220
0.0
230
1.0
0
LINE
5
BA952
330
18
100
AcDbEntity
67
0
8
1
62
256
6
ByLayer
370
-1
48
1.0
60
0
100
AcDbLine
10
7.6
20
-5.621388
30
0.0
11
7.6
21
5.621388
31
0.0
39
0.0
210
0.0
220
0.0
230
1.0
0
LINE
5
BA953
330
18
100
AcDbEntity
67
0
8
1
62
256
6
ByLayer
370
-1
48
1.0
60
0
100
AcDbLine
10
28.6
20
-0.200129000000002
30
0.0
11
28.6
21
0.200128999999998
31
0.0
39
0.0
210
0.0
220
0.0
230
1.0
0
LINE
5
BA954
330
18
100
AcDbEntity
67
0
8
1
62
256
6
ByLayer
370
-1
48
1.0
60
0
100
AcDbLine
10
28.6
20
0.200128999999998
30
0.0
11
29.730517
21
2.158241
31
0.0
39
0.0
210
0.0
220
0.0
230
1.0
0
LINE
5
BA955
330
18
100
AcDbEntity
67
0
8
1
62
256
6
ByLayer
370
-1
48
1.0
60
0
100
AcDbLine
10
29.04242
20
-0.966422000000002
30
0.0
11
28.6
21
-0.200129000000002
31
0.0
39
0.0
210
0.0
220
0.0
230
1.0
0
LINE
5
BA956
330
18
100
AcDbEntity
67
0
8
1
62
256
6
ByLayer
370
-1
48
1.0
60
0
100
AcDbLine
10
29.750405
20
-3.0
30
0.0
11
29.951846
21
-2.356773
31
0.0
39
0.0
210
0.0
220
0.0
230
1.0
0
LINE
5
BA957
330
18
100
AcDbEntity
67
0
8
1
62
256
6
ByLayer
370
-1
48
1.0
60
0
100
AcDbLine
10
29.951846
20
-3.643227
30
0.0
11
29.215914
21
-1.293294
31
0.0
39
0.0
210
0.0
220
0.0
230
1.0
0
LINE
5
BA958
330
18
100
AcDbEntity
67
0
8
SK1
62
256
6
ByLayer
370
-1
48
1.0
60
0
100
AcDbLine
10
-1.0
20
-4.0
30
0.0
11
-1.0
21
4.0
31
0.0
39
0.0
210
0.0
220
0.0
230
1.0
0
LINE
5
BA959
330
18
100
AcDbEntity
67
0
8
SK1
62
256
6
ByLayer
370
-1
48
1.0
60
0
100
AcDbLine
10
-4.0
20
-5.0
30
0.0
11
-4.0
21
5.0
31
0.0
39
0.0
210
0.0
220
0.0
230
1.0
0
LINE
5
BA95A
330
18
100
AcDbEntity
67
0
8
SK1
62
256
6
ByLayer
370
-1
48
1.0
60
0
100
AcDbLine
10
-12.0
20
-5.0
30
0.0
11
-12.0
21
5.0
31
0.0
39
0.0
210
0.0
220
0.0
230
1.0
0
LINE
5
BA95B
330
18
100
AcDbEntity
67
0
8
SK1
62
256
6
ByLayer
370
-1
48
1.0
60
0
100
AcDbLine
10
-13.0
20
-4.0
30
0.0
11
-13.0
21
4.0
31
0.0
39
0.0
210
0.0
220
0.0
230
1.0
0
LINE
5
BA95C
330
18
100
AcDbEntity
67
0
8
SK1
62
256
6
ByLayer
370
-1
48
1.0
60
0
100
AcDbLine
10
-3.0
20
-4.0
30
0.0
11
-3.0
21
4.0
31
0.0
39
0.0
210
0.0
220
0.0
230
1.0
0
LINE
5
BA95D
330
18
100
AcDbEntity
67
0
8
1
62
256
6
ByLayer
370
-1
48
1.0
60
0
100
AcDbLine
10
-0.0000000000000005
20
-8.65
30
0.0
11
0.0000000000000005
21
8.65
31
0.0
39
0.0
210
0.0
220
0.0
230
1.0
0
LINE
5
BA95E
330
18
100
AcDbEntity
67
0
8
1
62
256
6
ByLayer
370
-1
48
1.0
60
0
100
AcDbLine
10
0.250000000000001
20
8.9
30
0.0
11
0.25
21
-8.9
31
0.0
39
0.0
210
0.0
220
0.0
230
1.0
0
LINE
5
BA95F
330
18
100
AcDbEntity
67
0
8
1
62
256
6
ByLayer
370
-1
48
1.0
60
0
100
AcDbLine
10
8.0
20
5.091169
30
0.0
11
8.0
21
-5.091169
31
0.0
39
0.0
210
0.0
220
0.0
230
1.0
0
LINE
5
BA960
330
18
100
AcDbEntity
67
0
8
1
62
256
6
ByLayer
370
-1
48
1.0
60
0
100
AcDbLine
10
21.1
20
-4.536322
30
0.0
11
21.1
21
1.58975499999999
31
0.0
39
0.0
210
0.0
220
0.0
230
1.0
0
LINE
5
BA961
330
18
100
AcDbEntity
67
0
8
1
62
256
6
ByLayer
370
-1
48
1.0
60
0
100
AcDbLine
10
2.0
20
-5.091169
30
0.0
11
2.0
21
5.091169
31
0.0
39
0.0
210
0.0
220
0.0
230
1.0
0
LINE
5
BA962
330
18
100
AcDbEntity
67
0
8
1
62
256
6
ByLayer
370
-1
48
1.0
60
0
100
AcDbLine
10
26.0
20
0.499999999999998
30
0.0
11
28.297229
21
0.499999999999998
31
0.0
39
0.0
210
0.0
220
0.0
230
1.0
0
LINE
5
BA963
330
18
100
AcDbEntity
67
0
8
1
62
256
6
ByLayer
370
-1
48
1.0
60
0
100
AcDbLine
10
28.6
20
0.200128999999998
30
0.0
11
28.056873
21
0.200128999999998
31
0.0
39
0.0
210
0.0
220
0.0
230
1.0
0
LINE
5
BA964
330
18
100
AcDbEntity
67
0
8
1
62
256
6
ByLayer
370
-1
48
1.0
60
0
100
AcDbLine
10
28.6
20
-0.200129000000002
30
0.0
11
28.056873
21
-0.200129000000002
31
0.0
39
0.0
210
0.0
220
0.0
230
1.0
0
LINE
5
BA965
330
18
100
AcDbEntity
67
0
8
1
62
256
6
ByLayer
370
-1
48
1.0
60
0
100
AcDbLine
10
28.772957
20
0.499999999999998
30
0.0
11
28.297229
21
0.499999999999998
31
0.0
39
0.0
210
0.0
220
0.0
230
1.0
0
LINE
5
BA966
330
18
100
AcDbEntity
67
0
8
81
62
256
6
ByLayer
370
-1
48
1.0
60
0
100
AcDbLine
10
0.0
20
0.0
30
0.0
11
31.06772
21
-0.0000000000000019
31
0.0
39
0.0
210
0.0
220
0.0
230
1.0
0
LINE
5
BA967
330
18
100
AcDbEntity
67
0
8
80
62
256
6
ByLayer
370
-1
48
1.0
60
0
100
AcDbLine
10
0.0
20
0.0
30
0.0
11
-14.059866
21
0.0000000000000009
31
0.0
39
0.0
210
0.0
220
0.0
230
1.0
0
POINT
5
BA968
330
18
100
AcDbEntity
67
0
8
81
62
256
6
ByLayer
370
-1
48
1.0
60
0
100
AcDbPoint
10
30.0
20
6.0
30
0.0
39
0.0
210
0.0
220
0.0
230
1.0
50
90.0
0
POINT
5
BA969
330
18
100
AcDbEntity
67
0
8
80
62
256
6
ByLayer
370
-1
48
1.0
60
0
100
AcDbPoint
10
0.0
20
0.0
30
0.0
39
0.0
210
0.0
220
0.0
230
1.0
50
90.0
0
ARC
5
BA96A
330
18
100
AcDbEntity
67
0
8
1
62
256
6
ByLayer
370
-1
48
1.0
60
0
100
AcDbCircle
39
0.0
10
21.1
20
-0.0000000000000013
30
0.0
40
8.899438
210
0.0
220
0.0
230
1.0
100
AcDbArc
50
14.062428
51
24.091379
0
ARC
5
BA96B
330
18
100
AcDbEntity
67
0
8
1
62
256
6
ByLayer
370
-1
48
1.0
60
0
100
AcDbCircle
39
0.0
10
21.1
20
-0.0000000000000013
30
0.0
40
8.899438
210
0.0
220
0.0
230
1.0
100
AcDbArc
50
77.433887
51
90.0
0
ARC
5
BA96C
330
18
100
AcDbEntity
67
0
8
1
62
256
6
ByLayer
370
-1
48
1.0
60
0
100
AcDbCircle
39
0.0
10
21.1
20
-0.0000000000000013
30
0.0
40
8.9
210
0.0
220
0.0
230
1.0
100
AcDbArc
50
77.4318299999999
51
90.0
0
ARC
5
BA96D
330
18
100
AcDbEntity
67
0
8
1
62
256
6
ByLayer
370
-1
48
1.0
60
0
100
AcDbCircle
39
0.0
10
21.1
20
-0.0000000000000013
30
0.0
40
8.9
210
0.0
220
0.0
230
1.0
100
AcDbArc
50
14.045627
51
24.093435
0
CIRCLE
5
BA96E
330
18
100
AcDbEntity
67
0
8
1
62
256
6
ByLayer
370
-1
48
1.0
60
0
100
AcDbCircle
10
26.0
20
6.0
30
0.0
40
4.0
39
0.0
210
0.0
220
0.0
230
1.0
0
CIRCLE
5
BA96F
330
18
100
AcDbEntity
67
0
8
1
62
256
6
ByLayer
370
-1
48
1.0
60
0
100
AcDbCircle
10
26.0
20
6.0
30
0.0
40
1.8
39
0.0
210
0.0
220
0.0
230
1.0
0
CIRCLE
5
BA970
330
18
100
AcDbEntity
67
0
8
1
62
256
6
ByLayer
370
-1
48
1.0
60
0
100
AcDbCircle
10
26.0
20
6.0
30
0.0
40
1.0
39
0.0
210
0.0
220
0.0
230
1.0
0
TEXT
5
BA971
330
18
100
AcDbEntity
67
0
8
62
62
256
6
ByLayer
370
-1
48
1.0
60
0
100
AcDbText
1
R300-20T10-08M
10
-10.009438
20
-23.407649
30
0.0
40
3.0
41
1.078566
50
0.0
51
0.0
7
SANDVIK_STYLE
11
-10.009438
21
-23.407649
31
0.0
210
0.0
220
0.0
230
1.0
72
0
100
AcDbText
73
0
0
POLYLINE
5
BA972
330
18
100
AcDbEntity
67
0
8
1
62
256
6
ByLayer
370
-1
48
1.0
60
0
100
AcDb3dPolyline
10
0.0
20
0.0
30
0.0
70
8
75
0
210
0.0
220
0.0
230
1.0
0
VERTEX
5
BA973
100
AcDbEntity
8
1
62
256
100
AcDbVertex
100
AcDb3dPolylineVertex
10
17.302942
20
-8.899997
30
0.0
70
32
0
VERTEX
5
BA974
100
AcDbEntity
8
1
62
256
100
AcDbVertex
100
AcDb3dPolylineVertex
10
16.971144
20
-8.888206
30
0.0
70
32
0
VERTEX
5
BA975
100
AcDbEntity
8
1
62
256
100
AcDbVertex
100
AcDb3dPolylineVertex
10
16.66717
20
-8.849548
30
0.0
70
32
0
VERTEX
5
BA976
100
AcDbEntity
8
1
62
256
100
AcDbVertex
100
AcDb3dPolylineVertex
10
16.390935
20
-8.782374
30
0.0
70
32
0
VERTEX
5
BA977
100
AcDbEntity
8
1
62
256
100
AcDbVertex
100
AcDb3dPolylineVertex
10
16.142154
20
-8.684846
30
0.0
70
32
0
VERTEX
5
BA978
100
AcDbEntity
8
1
62
256
100
AcDbVertex
100
AcDb3dPolylineVertex
10
15.920329
20
-8.555572
30
0.0
70
32
0
VERTEX
5
BA979
100
AcDbEntity
8
1
62
256
100
AcDbVertex
100
AcDb3dPolylineVertex
10
15.725194
20
-8.39275
30
0.0
70
32
0
VERTEX
5
BA97A
100
AcDbEntity
8
1
62
256
100
AcDbVertex
100
AcDb3dPolylineVertex
10
15.55609
20
-8.195095
30
0.0
70
32
0
VERTEX
5
BA97B
100
AcDbEntity
8
1
62
256
100
AcDbVertex
100
AcDb3dPolylineVertex
10
15.41074
20
-7.963661
30
0.0
70
32
0
VERTEX
5
BA97C
100
AcDbEntity
8
1
62
256
100
AcDbVertex
100
AcDb3dPolylineVertex
10
15.28706
20
-7.69948
30
0.0
70
32
0
VERTEX
5
BA97D
100
AcDbEntity
8
1
62
256
100
AcDbVertex
100
AcDb3dPolylineVertex
10
15.183361
20
-7.403115
30
0.0
70
32
0
VERTEX
5
BA97E
100
AcDbEntity
8
1
62
256
100
AcDbVertex
100
AcDb3dPolylineVertex
10
15.097848
20
-7.074954
30
0.0
70
32
0
VERTEX
5
BA97F
100
AcDbEntity
8
1
62
256
100
AcDbVertex
100
AcDb3dPolylineVertex
10
15.028731
20
-6.716453
30
0.0
70
32
0
VERTEX
5
BA980
100
AcDbEntity
8
1
62
256
100
AcDbVertex
100
AcDb3dPolylineVertex
10
14.974328
20
-6.329883
30
0.0
70
32
0
VERTEX
5
BA981
100
AcDbEntity
8
1
62
256
100
AcDbVertex
100
AcDb3dPolylineVertex
10
14.933314
20
-5.916786
30
0.0
70
32
0
VERTEX
5
BA982
100
AcDbEntity
8
1
62
256
100
AcDbVertex
100
AcDb3dPolylineVertex
10
14.904427
20
-5.479044
30
0.0
70
32
0
VERTEX
5
BA983
100
AcDbEntity
8
1
62
256
100
AcDbVertex
100
AcDb3dPolylineVertex
10
14.886544
20
-5.018852
30
0.0
70
32
0
VERTEX
5
BA984
100
AcDbEntity
8
1
62
256
100
AcDbVertex
100
AcDb3dPolylineVertex
10
14.879608
20
-4.536322
30
0.0
70
32
0
SEQEND
5
BA985
100
AcDbEntity
8
1
0
POLYLINE
5
BA986
330
18
100
AcDbEntity
67
0
8
1
62
256
6
ByLayer
370
-1
48
1.0
60
0
100
AcDb3dPolyline
10
0.0
20
0.0
30
0.0
70
8
75
0
210
0.0
220
0.0
230
1.0
0
VERTEX
5
BA987
100
AcDbEntity
8
1
62
256
100
AcDbVertex
100
AcDb3dPolylineVertex
10
8.0
20
-5.091169
30
0.0
70
32
0
VERTEX
5
BA988
100
AcDbEntity
8
1
62
256
100
AcDbVertex
100
AcDb3dPolylineVertex
10
7.999601
20
-5.15669
30
0.0
70
32
0
VERTEX
5
BA989
100
AcDbEntity
8
1
62
256
100
AcDbVertex
100
AcDb3dPolylineVertex
10
7.992409
20
-5.219888
30
0.0
70
32
0
VERTEX
5
BA98A
100
AcDbEntity
8
1
62
256
100
AcDbVertex
100
AcDb3dPolylineVertex
10
7.978597
20
-5.280932
30
0.0
70
32
0
VERTEX
5
BA98B
100
AcDbEntity
8
1
62
256
100
AcDbVertex
100
AcDb3dPolylineVertex
10
7.958338
20
-5.339993
30
0.0
70
32
0
VERTEX
5
BA98C
100
AcDbEntity
8
1
62
256
100
AcDbVertex
100
AcDb3dPolylineVertex
10
7.931805
20
-5.39724
30
0.0
70
32
0
VERTEX
5
BA98D
100
AcDbEntity
8
1
62
256
100
AcDbVertex
100
AcDb3dPolylineVertex
10
7.898742
20
-5.452422
30
0.0
70
32
0
VERTEX
5
BA98E
100
AcDbEntity
8
1
62
256
100
AcDbVertex
100
AcDb3dPolylineVertex
10
7.857599
20
-5.504015
30
0.0
70
32
0
VERTEX
5
BA98F
100
AcDbEntity
8
1
62
256
100
AcDbVertex
100
AcDb3dPolylineVertex
10
7.806871
20
-5.549982
30
0.0
70
32
0
VERTEX
5
BA990
100
AcDbEntity
8
1
62
256
100
AcDbVertex
100
AcDb3dPolylineVertex
10
7.746128
20
-5.587289
30
0.0
70
32
0
VERTEX
5
BA991
100
AcDbEntity
8
1
62
256
100
AcDbVertex
100
AcDb3dPolylineVertex
10
7.675953
20
-5.612441
30
0.0
70
32
0
VERTEX
5
BA992
100
AcDbEntity
8
1
62
256
100
AcDbVertex
100
AcDb3dPolylineVertex
10
7.6
20
-5.621388
30
0.0
70
32
0
SEQEND
5
BA993
100
AcDbEntity
8
1
0
POLYLINE
5
BA994
330
18
100
AcDbEntity
67
0
8
1
62
256
6
ByLayer
370
-1
48
1.0
60
0
100
AcDb3dPolyline
10
0.0
20
0.0
30
0.0
70
8
75
0
210
0.0
220
0.0
230
1.0
0
VERTEX
5
BA995
100
AcDbEntity
8
1
62
256
100
AcDbVertex
100
AcDb3dPolylineVertex
10
7.6
20
5.621388
30
0.0
70
32
0
VERTEX
5
BA996
100
AcDbEntity
8
1
62
256
100
AcDbVertex
100
AcDb3dPolylineVertex
10
7.676686
20
5.612131
30
0.0
70
32
0
VERTEX
5
BA997
100
AcDbEntity
8
1
62
256
100
AcDbVertex
100
AcDb3dPolylineVertex
10
7.746333
20
5.587199
30
0.0
70
32
0
VERTEX
5
BA998
100
AcDbEntity
8
1
62
256
100
AcDbVertex
100
AcDb3dPolylineVertex
10
7.807167
20
5.549691
30
0.0
70
32
0
VERTEX
5
BA999
100
AcDbEntity
8
1
62
256
100
AcDbVertex
100
AcDb3dPolylineVertex
10
7.857777
20
5.503879
30
0.0
70
32
0
VERTEX
5
BA99A
100
AcDbEntity
8
1
62
256
100
AcDbVertex
100
AcDb3dPolylineVertex
10
7.899011
20
5.452289
30
0.0
70
32
0
VERTEX
5
BA99B
100
AcDbEntity
8
1
62
256
100
AcDbVertex
100
AcDb3dPolylineVertex
10
7.931915
20
5.396736
30
0.0
70
32
0
VERTEX
5
BA99C
100
AcDbEntity
8
1
62
256
100
AcDbVertex
100
AcDb3dPolylineVertex
10
7.957603
20
5.338466
30
0.0
70
32
0
VERTEX
5
BA99D
100
AcDbEntity
8
1
62
256
100
AcDbVertex
100
AcDb3dPolylineVertex
10
7.977151
20
5.27866
30
0.0
70
32
0
VERTEX
5
BA99E
100
AcDbEntity
8
1
62
256
100
AcDbVertex
100
AcDb3dPolylineVertex
10
7.990918
20
5.21771
30
0.0
70
32
0
VERTEX
5
BA99F
100
AcDbEntity
8
1
62
256
100
AcDbVertex
100
AcDb3dPolylineVertex
10
7.998632
20
5.15532
30
0.0
70
32
0
VERTEX
5
BA9A0
100
AcDbEntity
8
1
62
256
100
AcDbVertex
100
AcDb3dPolylineVertex
10
8.0
20
5.091169
30
0.0
70
32
0
SEQEND
5
BA9A1
100
AcDbEntity
8
1
0
POLYLINE
5
BA9A2
330
18
100
AcDbEntity
67
0
8
1
62
256
6
ByLayer
370
-1
48
1.0
60
0
100
AcDb3dPolyline
10
0.0
20
0.0
30
0.0
70
8
75
0
210
0.0
220
0.0
230
1.0
0
VERTEX
5
BA9A3
100
AcDbEntity
8
1
62
256
100
AcDbVertex
100
AcDb3dPolylineVertex
10
2.0
20
5.091169
30
0.0
70
32
0
VERTEX
5
BA9A4
100
AcDbEntity
8
1
62
256
100
AcDbVertex
100
AcDb3dPolylineVertex
10
2.000399
20
5.15669
30
0.0
70
32
0
VERTEX
5
BA9A5
100
AcDbEntity
8
1
62
256
100
AcDbVertex
100
AcDb3dPolylineVertex
10
2.007591
20
5.219888
30
0.0
70
32
0
VERTEX
5
BA9A6
100
AcDbEntity
8
1
62
256
100
AcDbVertex
100
AcDb3dPolylineVertex
10
2.021403
20
5.280932
30
0.0
70
32
0
VERTEX
5
BA9A7
100
AcDbEntity
8
1
62
256
100
AcDbVertex
100
AcDb3dPolylineVertex
10
2.041662
20
5.339993
30
0.0
70
32
0
VERTEX
5
BA9A8
100
AcDbEntity
8
1
62
256
100
AcDbVertex
100
AcDb3dPolylineVertex
10
2.068195
20
5.39724
30
0.0
70
32
0
VERTEX
5
BA9A9
100
AcDbEntity
8
1
62
256
100
AcDbVertex
100
AcDb3dPolylineVertex
10
2.101258
20
5.452422
30
0.0
70
32
0
VERTEX
5
BA9AA
100
AcDbEntity
8
1
62
256
100
AcDbVertex
100
AcDb3dPolylineVertex
10
2.142401
20
5.504015
30
0.0
70
32
0
VERTEX
5
BA9AB
100
AcDbEntity
8
1
62
256
100
AcDbVertex
100
AcDb3dPolylineVertex
10
2.193129
20
5.549982
30
0.0
70
32
0
VERTEX
5
BA9AC
100
AcDbEntity
8
1
62
256
100
AcDbVertex
100
AcDb3dPolylineVertex
10
2.253872
20
5.587289
30
0.0
70
32
0
VERTEX
5
BA9AD
100
AcDbEntity
8
1
62
256
100
AcDbVertex
100
AcDb3dPolylineVertex
10
2.324047
20
5.612441
30
0.0
70
32
0
VERTEX
5
BA9AE
100
AcDbEntity
8
1
62
256
100
AcDbVertex
100
AcDb3dPolylineVertex
10
2.4
20
5.621388
30
0.0
70
32
0
SEQEND
5
BA9AF
100
AcDbEntity
8
1
0
POLYLINE
5
BA9B0
330
18
100
AcDbEntity
67
0
8
1
62
256
6
ByLayer
370
-1
48
1.0
60
0
100
AcDb3dPolyline
10
0.0
20
0.0
30
0.0
70
8
75
0
210
0.0
220
0.0
230
1.0
0
VERTEX
5
BA9B1
100
AcDbEntity
8
1
62
256
100
AcDbVertex
100
AcDb3dPolylineVertex
10
2.4
20
-5.621388
30
0.0
70
32
0
VERTEX
5
BA9B2
100
AcDbEntity
8
1
62
256
100
AcDbVertex
100
AcDb3dPolylineVertex
10
2.323314
20
-5.612131
30
0.0
70
32
0
VERTEX
5
BA9B3
100
AcDbEntity
8
1
62
256
100
AcDbVertex
100
AcDb3dPolylineVertex
10
2.253667
20
-5.587199
30
0.0
70
32
0
VERTEX
5
BA9B4
100
AcDbEntity
8
1
62
256
100
AcDbVertex
100
AcDb3dPolylineVertex
10
2.192833
20
-5.549691
30
0.0
70
32
0
VERTEX
5
BA9B5
100
AcDbEntity
8
1
62
256
100
AcDbVertex
100
AcDb3dPolylineVertex
10
2.142223
20
-5.503879
30
0.0
70
32
0
VERTEX
5
BA9B6
100
AcDbEntity
8
1
62
256
100
AcDbVertex
100
AcDb3dPolylineVertex
10
2.10098899999999
20
-5.452289
30
0.0
70
32
0
VERTEX
5
BA9B7
100
AcDbEntity
8
1
62
256
100
AcDbVertex
100
AcDb3dPolylineVertex
10
2.068085
20
-5.396736
30
0.0
70
32
0
VERTEX
5
BA9B8
100
AcDbEntity
8
1
62
256
100
AcDbVertex
100
AcDb3dPolylineVertex
10
2.042397
20
-5.338466
30
0.0
70
32
0
VERTEX
5
BA9B9
100
AcDbEntity
8
1
62
256
100
AcDbVertex
100
AcDb3dPolylineVertex
10
2.022849
20
-5.27866
30
0.0
70
32
0
VERTEX
5
BA9BA
100
AcDbEntity
8
1
62
256
100
AcDbVertex
100
AcDb3dPolylineVertex
10
2.009082
20
-5.21771
30
0.0
70
32
0
VERTEX
5
BA9BB
100
AcDbEntity
8
1
62
256
100
AcDbVertex
100
AcDb3dPolylineVertex
10
2.001368
20
-5.15532
30
0.0
70
32
0
VERTEX
5
BA9BC
100
AcDbEntity
8
1
62
256
100
AcDbVertex
100
AcDb3dPolylineVertex
10
2.0
20
-5.091169
30
0.0
70
32
0
SEQEND
5
BA9BD
100
AcDbEntity
8
1
0
POLYLINE
5
BA9BE
330
18
100
AcDbEntity
67
0
8
1
62
256
6
ByLayer
370
-1
48
1.0
60
0
100
AcDb3dPolyline
10
0.0
20
0.0
30
0.0
70
8
75
0
210
0.0
220
0.0
230
1.0
0
VERTEX
5
BA9BF
100
AcDbEntity
8
1
62
256
100
AcDbVertex
100
AcDb3dPolylineVertex
10
21.1
20
-8.378545
30
0.0
70
32
0
VERTEX
5
BA9C0
100
AcDbEntity
8
1
62
256
100
AcDbVertex
100
AcDb3dPolylineVertex
10
20.699077
20
-8.445959
30
0.0
70
32
0
VERTEX
5
BA9C1
100
AcDbEntity
8
1
62
256
100
AcDbVertex
100
AcDb3dPolylineVertex
10
20.308178
20
-8.511298
30
0.0
70
32
0
VERTEX
5
BA9C2
100
AcDbEntity
8
1
62
256
100
AcDbVertex
100
AcDb3dPolylineVertex
10
19.926849
20
-8.575222
30
0.0
70
32
0
VERTEX
5
BA9C3
100
AcDbEntity
8
1
62
256
100
AcDbVertex
100
AcDb3dPolylineVertex
10
19.554964
20
-8.637915
30
0.0
70
32
0
VERTEX
5
BA9C4
100
AcDbEntity
8
1
62
256
100
AcDbVertex
100
AcDb3dPolylineVertex
10
19.19361
20
-8.697794
30
0.0
70
32
0
VERTEX
5
BA9C5
100
AcDbEntity
8
1
62
256
100
AcDbVertex
100
AcDb3dPolylineVertex
10
18.844156
20
-8.752873
30
0.0
70
32
0
VERTEX
5
BA9C6
100
AcDbEntity
8
1
62
256
100
AcDbVertex
100
AcDb3dPolylineVertex
10
18.507774
20
-8.801298
30
0.0
70
32
0
VERTEX
5
BA9C7
100
AcDbEntity
8
1
62
256
100
AcDbVertex
100
AcDb3dPolylineVertex
10
18.184988
20
-8.841666
30
0.0
70
32
0
VERTEX
5
BA9C8
100
AcDbEntity
8
1
62
256
100
AcDbVertex
100
AcDb3dPolylineVertex
10
17.876218
20
-8.872609
30
0.0
70
32
0
VERTEX
5
BA9C9
100
AcDbEntity
8
1
62
256
100
AcDbVertex
100
AcDb3dPolylineVertex
10
17.582041
20
-8.8925
30
0.0
70
32
0
VERTEX
5
BA9CA
100
AcDbEntity
8
1
62
256
100
AcDbVertex
100
AcDb3dPolylineVertex
10
17.302942
20
-8.899997
30
0.0
70
32
0
SEQEND
5
BA9CB
100
AcDbEntity
8
1
0
POLYLINE
5
BA9CC
330
18
100
AcDbEntity
67
0
8
1
62
256
6
ByLayer
370
-1
48
1.0
60
0
100
AcDb3dPolyline
10
0.0
20
0.0
30
0.0
70
8
75
0
210
0.0
220
0.0
230
1.0
0
VERTEX
5
BA9CD
100
AcDbEntity
8
1
62
256
100
AcDbVertex
100
AcDb3dPolylineVertex
10
21.1
20
1.58975499999999
30
0.0
70
32
0
VERTEX
5
BA9CE
100
AcDbEntity
8
1
62
256
100
AcDbVertex
100
AcDb3dPolylineVertex
10
20.479821
20
1.903757
30
0.0
70
32
0
VERTEX
5
BA9CF
100
AcDbEntity
8
1
62
256
100
AcDbVertex
100
AcDb3dPolylineVertex
10
19.883353
20
2.251163
30
0.0
70
32
0
VERTEX
5
BA9D0
100
AcDbEntity
8
1
62
256
100
AcDbVertex
100
AcDb3dPolylineVertex
10
19.310368
20
2.632137
30
0.0
70
32
0
VERTEX
5
BA9D1
100
AcDbEntity
8
1
62
256
100
AcDbVertex
100
AcDb3dPolylineVertex
10
18.765178
20
3.043617
30
0.0
70
32
0
VERTEX
5
BA9D2
100
AcDbEntity
8
1
62
256
100
AcDbVertex
100
AcDb3dPolylineVertex
10
18.251925
20
3.481483
30
0.0
70
32
0
VERTEX
5
BA9D3
100
AcDbEntity
8
1
62
256
100
AcDbVertex
100
AcDb3dPolylineVertex
10
17.772467
20
3.940519
30
0.0
70
32
0
VERTEX
5
BA9D4
100
AcDbEntity
8
1
62
256
100
AcDbVertex
100
AcDb3dPolylineVertex
10
17.329088
20
4.414959
30
0.0
70
32
0
VERTEX
5
BA9D5
100
AcDbEntity
8
1
62
256
100
AcDbVertex
100
AcDb3dPolylineVertex
10
16.925063
20
4.898384
30
0.0
70
32
0
VERTEX
5
BA9D6
100
AcDbEntity
8
1
62
256
100
AcDbVertex
100
AcDb3dPolylineVertex
10
16.563029
20
5.38352
30
0.0
70
32
0
VERTEX
5
BA9D7
100
AcDbEntity
8
1
62
256
100
AcDbVertex
100
AcDb3dPolylineVertex
10
16.24217
20
5.862271
30
0.0
70
32
0
VERTEX
5
BA9D8
100
AcDbEntity
8
1
62
256
100
AcDbVertex
100
AcDb3dPolylineVertex
10
15.96161
20
6.326999
30
0.0
70
32
0
VERTEX
5
BA9D9
100
AcDbEntity
8
1
62
256
100
AcDbVertex
100
AcDb3dPolylineVertex
10
15.720848
20
6.769719
30
0.0
70
32
0
VERTEX
5
BA9DA
100
AcDbEntity
8
1
62
256
100
AcDbVertex
100
AcDb3dPolylineVertex
10
15.518605
20
7.182601
30
0.0
70
32
0
VERTEX
5
BA9DB
100
AcDbEntity
8
1
62
256
100
AcDbVertex
100
AcDb3dPolylineVertex
10
15.350875
20
7.560495
30
0.0
70
32
0
VERTEX
5
BA9DC
100
AcDbEntity
8
1
62
256
100
AcDbVertex
100
AcDb3dPolylineVertex
10
15.214216
20
7.898684
30
0.0
70
32
0
VERTEX
5
BA9DD
100
AcDbEntity
8
1
62
256
100
AcDbVertex
100
AcDb3dPolylineVertex
10
15.10546
20
8.192012
30
0.0
70
32
0
VERTEX
5
BA9DE
100
AcDbEntity
8
1
62
256
100
AcDbVertex
100
AcDb3dPolylineVertex
10
15.021351
20
8.436794
30
0.0
70
32
0
VERTEX
5
BA9DF
100
AcDbEntity
8
1
62
256
100
AcDbVertex
100
AcDb3dPolylineVertex
10
14.958887
20
8.631696
30
0.0
70
32
0
VERTEX
5
BA9E0
100
AcDbEntity
8
1
62
256
100
AcDbVertex
100
AcDb3dPolylineVertex
10
14.915702
20
8.774896
30
0.0
70
32
0
VERTEX
5
BA9E1
100
AcDbEntity
8
1
62
256
100
AcDbVertex
100
AcDb3dPolylineVertex
10
14.889544
20
8.864386
30
0.0
70
32
0
VERTEX
5
BA9E2
100
AcDbEntity
8
1
62
256
100
AcDbVertex
100
AcDb3dPolylineVertex
10
14.879608
20
8.899438
30
0.0
70
32
0
SEQEND
5
BA9E3
100
AcDbEntity
8
1
0
POLYLINE
5
BA9E4
330
18
100
AcDbEntity
67
0
8
1
62
256
6
ByLayer
370
-1
48
1.0
60
0
100
AcDb3dPolyline
10
0.0
20
0.0
30
0.0
70
8
75
0
210
0.0
220
0.0
230
1.0
0
VERTEX
5
BA9E5
100
AcDbEntity
8
1
62
256
100
AcDbVertex
100
AcDb3dPolylineVertex
10
28.056873
20
0.200128999999998
30
0.0
70
32
0
VERTEX
5
BA9E6
100
AcDbEntity
8
1
62
256
100
AcDbVertex
100
AcDb3dPolylineVertex
10
28.136992
20
0.300085999999998
30
0.0
70
32
0
VERTEX
5
BA9E7
100
AcDbEntity
8
1
62
256
100
AcDbVertex
100
AcDb3dPolylineVertex
10
28.21711
20
0.400042999999998
30
0.0
70
32
0
VERTEX
5
BA9E8
100
AcDbEntity
8
1
62
256
100
AcDbVertex
100
AcDb3dPolylineVertex
10
28.297229
20
0.499999999999998
30
0.0
70
32
0
SEQEND
5
BA9E9
100
AcDbEntity
8
1
0
POLYLINE
5
BA9EA
330
18
100
AcDbEntity
67
0
8
1
62
256
6
ByLayer
370
-1
48
1.0
60
0
100
AcDb3dPolyline
10
0.0
20
0.0
30
0.0
70
8
75
0
210
0.0
220
0.0
230
1.0
0
VERTEX
5
BA9EB
100
AcDbEntity
8
1
62
256
100
AcDbVertex
100
AcDb3dPolylineVertex
10
28.056873
20
-0.200129000000002
30
0.0
70
32
0
VERTEX
5
BA9EC
100
AcDbEntity
8
1
62
256
100
AcDbVertex
100
AcDb3dPolylineVertex
10
28.056873
20
-0.0667100000000017
30
0.0
70
32
0
VERTEX
5
BA9ED
100
AcDbEntity
8
1
62
256
100
AcDbVertex
100
AcDb3dPolylineVertex
10
28.056873
20
0.0667099999999983
30
0.0
70
32
0
VERTEX
5
BA9EE
100
AcDbEntity
8
1
62
256
100
AcDbVertex
100
AcDb3dPolylineVertex
10
28.056873
20
0.200128999999998
30
0.0
70
32
0
SEQEND
5
BA9EF
100
AcDbEntity
8
1
0
POLYLINE
5
BA9F0
330
18
100
AcDbEntity
67
0
8
1
62
256
6
ByLayer
370
-1
48
1.0
60
0
100
AcDb3dPolyline
10
0.0
20
0.0
30
0.0
70
8
75
0
210
0.0
220
0.0
230
1.0
0
VERTEX
5
BA9F1
100
AcDbEntity
8
1
62
256
100
AcDbVertex
100
AcDb3dPolylineVertex
10
28.560939
20
-0.821148000000002
30
0.0
70
32
0
VERTEX
5
BA9F2
100
AcDbEntity
8
1
62
256
100
AcDbVertex
100
AcDb3dPolylineVertex
10
28.465392
20
-0.705835000000002
30
0.0
70
32
0
VERTEX
5
BA9F3
100
AcDbEntity
8
1
62
256
100
AcDbVertex
100
AcDb3dPolylineVertex
10
28.367213
20
-0.586076000000002
30
0.0
70
32
0
VERTEX
5
BA9F4
100
AcDbEntity
8
1
62
256
100
AcDbVertex
100
AcDb3dPolylineVertex
10
28.266399
20
-0.461873000000002
30
0.0
70
32
0
VERTEX
5
BA9F5
100
AcDbEntity
8
1
62
256
100
AcDbVertex
100
AcDb3dPolylineVertex
10
28.162953
20
-0.333223000000002
30
0.0
70
32
0
VERTEX
5
BA9F6
100
AcDbEntity
8
1
62
256
100
AcDbVertex
100
AcDb3dPolylineVertex
10
28.056873
20
-0.200129000000002
30
0.0
70
32
0
SEQEND
5
BA9F7
100
AcDbEntity
8
1
0
POLYLINE
5
BA9F8
330
18
100
AcDbEntity
67
0
8
1
62
256
6
ByLayer
370
-1
48
1.0
60
0
100
AcDb3dPolyline
10
0.0
20
0.0
30
0.0
70
8
75
0
210
0.0
220
0.0
230
1.0
0
VERTEX
5
BA9F9
100
AcDbEntity
8
1
62
256
100
AcDbVertex
100
AcDb3dPolylineVertex
10
23.336221
20
-4.393554
30
0.0
70
32
0
VERTEX
5
BA9FA
100
AcDbEntity
8
1
62
256
100
AcDbVertex
100
AcDb3dPolylineVertex
10
23.439987
20
-4.071189
30
0.0
70
32
0
VERTEX
5
BA9FB
100
AcDbEntity
8
1
62
256
100
AcDbVertex
100
AcDb3dPolylineVertex
10
23.531397
20
-3.741881
30
0.0
70
32
0
VERTEX
5
BA9FC
100
AcDbEntity
8
1
62
256
100
AcDbVertex
100
AcDb3dPolylineVertex
10
23.610453
20
-3.40563
30
0.0
70
32
0
VERTEX
5
BA9FD
100
AcDbEntity
8
1
62
256
100
AcDbVertex
100
AcDb3dPolylineVertex
10
23.677154
20
-3.062434
30
0.0
70
32
0
VERTEX
5
BA9FE
100
AcDbEntity
8
1
62
256
100
AcDbVertex
100
AcDb3dPolylineVertex
10
23.731499
20
-2.712295
30
0.0
70
32
0
SEQEND
5
BA9FF
100
AcDbEntity
8
1
0
POLYLINE
5
BAA00
330
18
100
AcDbEntity
67
0
8
1
62
256
6
ByLayer
370
-1
48
1.0
60
0
100
AcDb3dPolyline
10
0.0
20
0.0
30
0.0
70
8
75
0
210
0.0
220
0.0
230
1.0
0
VERTEX
5
BAA01
100
AcDbEntity
8
1
62
256
100
AcDbVertex
100
AcDb3dPolylineVertex
10
26.0
20
0.499999999999998
30
0.0
70
32
0
VERTEX
5
BAA02
100
AcDbEntity
8
1
62
256
100
AcDbVertex
100
AcDb3dPolylineVertex
10
25.621707
20
0.505170999999998
30
0.0
70
32
0
VERTEX
5
BAA03
100
AcDbEntity
8
1
62
256
100
AcDbVertex
100
AcDb3dPolylineVertex
10
25.234315
20
0.524916999999999
30
0.0
70
32
0
VERTEX
5
BAA04
100
AcDbEntity
8
1
62
256
100
AcDbVertex
100
AcDb3dPolylineVertex
10
24.837083
20
0.558865999999998
30
0.0
70
32
0
VERTEX
5
BAA05
100
AcDbEntity
8
1
62
256
100
AcDbVertex
100
AcDb3dPolylineVertex
10
24.430605
20
0.607316999999999
30
0.0
70
32
0
VERTEX
5
BAA06
100
AcDbEntity
8
1
62
256
100
AcDbVertex
100
AcDb3dPolylineVertex
10
24.01706
20
0.671367999999999
30
0.0
70
32
0
VERTEX
5
BAA07
100
AcDbEntity
8
1
62
256
100
AcDbVertex
100
AcDb3dPolylineVertex
10
23.598699
20
0.752068999999999
30
0.0
70
32
0
VERTEX
5
BAA08
100
AcDbEntity
8
1
62
256
100
AcDbVertex
100
AcDb3dPolylineVertex
10
23.177614
20
0.849771999999999
30
0.0
70
32
0
VERTEX
5
BAA09
100
AcDbEntity
8
1
62
256
100
AcDbVertex
100
AcDb3dPolylineVertex
10
22.755829
20
0.964518999999998
30
0.0
70
32
0
VERTEX
5
BAA0A
100
AcDbEntity
8
1
62
256
100
AcDbVertex
100
AcDb3dPolylineVertex
10
22.33524
20
1.096274
30
0.0
70
32
0
VERTEX
5
BAA0B
100
AcDbEntity
8
1
62
256
100
AcDbVertex
100
AcDb3dPolylineVertex
10
21.91766
20
1.24477
30
0.0
70
32
0
VERTEX
5
BAA0C
100
AcDbEntity
8
1
62
256
100
AcDbVertex
100
AcDb3dPolylineVertex
10
21.505628
20
1.409344
30
0.0
70
32
0
VERTEX
5
BAA0D
100
AcDbEntity
8
1
62
256
100
AcDbVertex
100
AcDb3dPolylineVertex
10
21.1
20
1.58975499999999
30
0.0
70
32
0
SEQEND
5
BAA0E
100
AcDbEntity
8
1
0
POLYLINE
5
BAA0F
330
18
100
AcDbEntity
67
0
8
1
62
256
6
ByLayer
370
-1
48
1.0
60
0
100
AcDb3dPolyline
10
0.0
20
0.0
30
0.0
70
8
75
0
210
0.0
220
0.0
230
1.0
0
VERTEX
5
BAA10
100
AcDbEntity
8
1
62
256
100
AcDbVertex
100
AcDb3dPolylineVertex
10
26.0
20
-6.669696
30
0.0
70
32
0
VERTEX
5
BAA11
100
AcDbEntity
8
1
62
256
100
AcDbVertex
100
AcDb3dPolylineVertex
10
25.621707
20
-6.876829
30
0.0
70
32
0
VERTEX
5
BAA12
100
AcDbEntity
8
1
62
256
100
AcDbVertex
100
AcDb3dPolylineVertex
10
25.234315
20
-7.072848
30
0.0
70
32
0
VERTEX
5
BAA13
100
AcDbEntity
8
1
62
256
100
AcDbVertex
100
AcDb3dPolylineVertex
10
24.837083
20
-7.257875
30
0.0
70
32
0
VERTEX
5
BAA14
100
AcDbEntity
8
1
62
256
100
AcDbVertex
100
AcDb3dPolylineVertex
10
24.430605
20
-7.431812
30
0.0
70
32
0
VERTEX
5
BAA15
100
AcDbEntity
8
1
62
256
100
AcDbVertex
100
AcDb3dPolylineVertex
10
24.01706
20
-7.594294
30
0.0
70
32
0
VERTEX
5
BAA16
100
AcDbEntity
8
1
62
256
100
AcDbVertex
100
AcDb3dPolylineVertex
10
23.598699
20
-7.744938
30
0.0
70
32
0
VERTEX
5
BAA17
100
AcDbEntity
8
1
62
256
100
AcDbVertex
100
AcDb3dPolylineVertex
10
23.177614
20
-7.883344
30
0.0
70
32
0
VERTEX
5
BAA18
100
AcDbEntity
8
1
62
256
100
AcDbVertex
100
AcDb3dPolylineVertex
10
22.755829
20
-8.009103
30
0.0
70
32
0
VERTEX
5
BAA19
100
AcDbEntity
8
1
62
256
100
AcDbVertex
100
AcDb3dPolylineVertex
10
22.33524
20
-8.121859
30
0.0
70
32
0
VERTEX
5
BAA1A
100
AcDbEntity
8
1
62
256
100
AcDbVertex
100
AcDb3dPolylineVertex
10
21.91766
20
-8.221315
30
0.0
70
32
0
VERTEX
5
BAA1B
100
AcDbEntity
8
1
62
256
100
AcDbVertex
100
AcDb3dPolylineVertex
10
21.505628
20
-8.306939
30
0.0
70
32
0
VERTEX
5
BAA1C
100
AcDbEntity
8
1
62
256
100
AcDbVertex
100
AcDb3dPolylineVertex
10
21.1
20
-8.378545
30
0.0
70
32
0
SEQEND
5
BAA1D
100
AcDbEntity
8
1
0
POLYLINE
5
BAA1E
330
18
100
AcDbEntity
67
0
8
1
62
256
6
ByLayer
370
-1
48
1.0
60
0
100
AcDb3dPolyline
10
0.0
20
0.0
30
0.0
70
8
75
0
210
0.0
220
0.0
230
1.0
0
VERTEX
5
BAA1F
100
AcDbEntity
8
1
62
256
100
AcDbVertex
100
AcDb3dPolylineVertex
10
29.732736
20
2.162376
30
0.0
70
32
0
VERTEX
5
BAA20
100
AcDbEntity
8
1
62
256
100
AcDbVertex
100
AcDb3dPolylineVertex
10
29.54078
20
1.82990099999999
30
0.0
70
32
0
VERTEX
5
BAA21
100
AcDbEntity
8
1
62
256
100
AcDbVertex
100
AcDb3dPolylineVertex
10
29.348824
20
1.497426
30
0.0
70
32
0
VERTEX
5
BAA22
100
AcDbEntity
8
1
62
256
100
AcDbVertex
100
AcDb3dPolylineVertex
10
29.156869
20
1.16495
30
0.0
70
32
0
VERTEX
5
BAA23
100
AcDbEntity
8
1
62
256
100
AcDbVertex
100
AcDb3dPolylineVertex
10
28.964913
20
0.832474999999998
30
0.0
70
32
0
VERTEX
5
BAA24
100
AcDbEntity
8
1
62
256
100
AcDbVertex
100
AcDb3dPolylineVertex
10
28.772957
20
0.499999999999998
30
0.0
70
32
0
SEQEND
5
BAA25
100
AcDbEntity
8
1
0
POLYLINE
5
BAA26
330
18
100
AcDbEntity
67
0
8
1
62
256
6
ByLayer
370
-1
48
1.0
60
0
100
AcDb3dPolyline
10
0.0
20
0.0
30
0.0
70
8
75
0
210
0.0
220
0.0
230
1.0
0
VERTEX
5
BAA27
100
AcDbEntity
8
1
62
256
100
AcDbVertex
100
AcDb3dPolylineVertex
10
29.732736
20
2.162376
30
0.0
70
32
0
VERTEX
5
BAA28
100
AcDbEntity
8
1
62
256
100
AcDbVertex
100
AcDb3dPolylineVertex
10
29.732887
20
2.16254199999999
30
0.0
70
32
0
VERTEX
5
BAA29
100
AcDbEntity
8
1
62
256
100
AcDbVertex
100
AcDb3dPolylineVertex
10
29.733039
20
2.16270699999999
30
0.0
70
32
0
VERTEX
5
BAA2A
100
AcDbEntity
8
1
62
256
100
AcDbVertex
100
AcDb3dPolylineVertex
10
29.733191
20
2.162873
30
0.0
70
32
0
SEQEND
5
BAA2B
100
AcDbEntity
8
1
0
POLYLINE
5
BAA2C
330
18
100
AcDbEntity
67
0
8
1
62
256
6
ByLayer
370
-1
48
1.0
60
0
100
AcDb3dPolyline
10
0.0
20
0.0
30
0.0
70
8
75
0
210
0.0
220
0.0
230
1.0
0
VERTEX
5
BAA2D
100
AcDbEntity
8
1
62
256
100
AcDbVertex
100
AcDb3dPolylineVertex
10
29.146119
20
-1.146246
30
0.0
70
32
0
VERTEX
5
BAA2E
100
AcDbEntity
8
1
62
256
100
AcDbVertex
100
AcDb3dPolylineVertex
10
29.17937
20
-1.204104
30
0.0
70
32
0
VERTEX
5
BAA2F
100
AcDbEntity
8
1
62
256
100
AcDbVertex
100
AcDb3dPolylineVertex
10
29.21262
20
-1.261962
30
0.0
70
32
0
VERTEX
5
BAA30
100
AcDbEntity
8
1
62
256
100
AcDbVertex
100
AcDb3dPolylineVertex
10
29.245871
20
-1.31982
30
0.0
70
32
0
SEQEND
5
BAA31
100
AcDbEntity
8
1
0
POLYLINE
5
BAA32
330
18
100
AcDbEntity
67
0
8
1
62
256
6
ByLayer
370
-1
48
1.0
60
0
100
AcDb3dPolyline
10
0.0
20
0.0
30
0.0
70
8
75
0
210
0.0
220
0.0
230
1.0
0
VERTEX
5
BAA33
100
AcDbEntity
8
1
62
256
100
AcDbVertex
100
AcDb3dPolylineVertex
10
29.245871
20
-1.31982
30
0.0
70
32
0
VERTEX
5
BAA34
100
AcDbEntity
8
1
62
256
100
AcDbVertex
100
AcDb3dPolylineVertex
10
29.401717
20
-1.593634
30
0.0
70
32
0
VERTEX
5
BAA35
100
AcDbEntity
8
1
62
256
100
AcDbVertex
100
AcDb3dPolylineVertex
10
29.557563
20
-1.867449
30
0.0
70
32
0
VERTEX
5
BAA36
100
AcDbEntity
8
1
62
256
100
AcDbVertex
100
AcDb3dPolylineVertex
10
29.71341
20
-2.141264
30
0.0
70
32
0
SEQEND
5
BAA37
100
AcDbEntity
8
1
0
POLYLINE
5
BAA38
330
18
100
AcDbEntity
67
0
8
1
62
256
6
ByLayer
370
-1
48
1.0
60
0
100
AcDb3dPolyline
10
0.0
20
0.0
30
0.0
70
8
75
0
210
0.0
220
0.0
230
1.0
0
VERTEX
5
BAA39
100
AcDbEntity
8
1
62
256
100
AcDbVertex
100
AcDb3dPolylineVertex
10
28.676235
20
-0.336603000000002
30
0.0
70
32
0
VERTEX
5
BAA3A
100
AcDbEntity
8
1
62
256
100
AcDbVertex
100
AcDb3dPolylineVertex
10
28.804467
20
-0.557230000000002
30
0.0
70
32
0
VERTEX
5
BAA3B
100
AcDbEntity
8
1
62
256
100
AcDbVertex
100
AcDb3dPolylineVertex
10
28.932699
20
-0.777857000000002
30
0.0
70
32
0
VERTEX
5
BAA3C
100
AcDbEntity
8
1
62
256
100
AcDbVertex
100
AcDb3dPolylineVertex
10
29.060931
20
-0.998484000000002
30
0.0
70
32
0
SEQEND
5
BAA3D
100
AcDbEntity
8
1
0
POLYLINE
5
BAA3E
330
18
100
AcDbEntity
67
0
8
1
62
256
6
ByLayer
370
-1
48
1.0
60
0
100
AcDb3dPolyline
10
0.0
20
0.0
30
0.0
70
8
75
0
210
0.0
220
0.0
230
1.0
0
VERTEX
5
BAA3F
100
AcDbEntity
8
1
62
256
100
AcDbVertex
100
AcDb3dPolylineVertex
10
21.1
20
8.899438
30
0.0
70
32
0
VERTEX
5
BAA40
100
AcDbEntity
8
1
62
256
100
AcDbVertex
100
AcDb3dPolylineVertex
10
21.1
20
8.899644
30
0.0
70
32
0
VERTEX
5
BAA41
100
AcDbEntity
8
1
62
256
100
AcDbVertex
100
AcDb3dPolylineVertex
10
21.1
20
8.899802
30
0.0
70
32
0
VERTEX
5
BAA42
100
AcDbEntity
8
1
62
256
100
AcDbVertex
100
AcDb3dPolylineVertex
10
21.1
20
8.899914
30
0.0
70
32
0
VERTEX
5
BAA43
100
AcDbEntity
8
1
62
256
100
AcDbVertex
100
AcDb3dPolylineVertex
10
21.1
20
8.899978
30
0.0
70
32
0
VERTEX
5
BAA44
100
AcDbEntity
8
1
62
256
100
AcDbVertex
100
AcDb3dPolylineVertex
10
21.1
20
8.899995
30
0.0
70
32
0
SEQEND
5
BAA45
100
AcDbEntity
8
1
0
POLYLINE
5
BAA46
330
18
100
AcDbEntity
67
0
8
1
62
256
6
ByLayer
370
-1
48
1.0
60
0
100
AcDb3dPolyline
10
0.0
20
0.0
30
0.0
70
8
75
0
210
0.0
220
0.0
230
1.0
0
VERTEX
5
BAA47
100
AcDbEntity
8
1
62
256
100
AcDbVertex
100
AcDb3dPolylineVertex
10
26.533365
20
-1.96802
30
0.0
70
32
0
VERTEX
5
BAA48
100
AcDbEntity
8
1
62
256
100
AcDbVertex
100
AcDb3dPolylineVertex
10
26.574026
20
-1.954496
30
0.0
70
32
0
VERTEX
5
BAA49
100
AcDbEntity
8
1
62
256
100
AcDbVertex
100
AcDb3dPolylineVertex
10
26.613387
20
-1.939968
30
0.0
70
32
0
VERTEX
5
BAA4A
100
AcDbEntity
8
1
62
256
100
AcDbVertex
100
AcDb3dPolylineVertex
10
26.651303
20
-1.924486
30
0.0
70
32
0
VERTEX
5
BAA4B
100
AcDbEntity
8
1
62
256
100
AcDbVertex
100
AcDb3dPolylineVertex
10
26.687636
20
-1.908105
30
0.0
70
32
0
VERTEX
5
BAA4C
100
AcDbEntity
8
1
62
256
100
AcDbVertex
100
AcDb3dPolylineVertex
10
26.722263
20
-1.890887
30
0.0
70
32
0
SEQEND
5
BAA4D
100
AcDbEntity
8
1
0
POLYLINE
5
BAA4E
330
18
100
AcDbEntity
67
0
8
1
62
256
6
ByLayer
370
-1
48
1.0
60
0
100
AcDb3dPolyline
10
0.0
20
0.0
30
0.0
70
8
75
0
210
0.0
220
0.0
230
1.0
0
VERTEX
5
BAA4F
100
AcDbEntity
8
1
62
256
100
AcDbVertex
100
AcDb3dPolylineVertex
10
26.722263
20
-1.890887
30
0.0
70
32
0
VERTEX
5
BAA50
100
AcDbEntity
8
1
62
256
100
AcDbVertex
100
AcDb3dPolylineVertex
10
26.835615
20
-1.842437
30
0.0
70
32
0
VERTEX
5
BAA51
100
AcDbEntity
8
1
62
256
100
AcDbVertex
100
AcDb3dPolylineVertex
10
26.947297
20
-1.793027
30
0.0
70
32
0
VERTEX
5
BAA52
100
AcDbEntity
8
1
62
256
100
AcDbVertex
100
AcDb3dPolylineVertex
10
27.057277
20
-1.742672
30
0.0
70
32
0
VERTEX
5
BAA53
100
AcDbEntity
8
1
62
256
100
AcDbVertex
100
AcDb3dPolylineVertex
10
27.165522
20
-1.691386
30
0.0
70
32
0
VERTEX
5
BAA54
100
AcDbEntity
8
1
62
256
100
AcDbVertex
100
AcDb3dPolylineVertex
10
27.272002
20
-1.639184
30
0.0
70
32
0
VERTEX
5
BAA55
100
AcDbEntity
8
1
62
256
100
AcDbVertex
100
AcDb3dPolylineVertex
10
27.376685
20
-1.586081
30
0.0
70
32
0
VERTEX
5
BAA56
100
AcDbEntity
8
1
62
256
100
AcDbVertex
100
AcDb3dPolylineVertex
10
27.479541
20
-1.532093
30
0.0
70
32
0
VERTEX
5
BAA57
100
AcDbEntity
8
1
62
256
100
AcDbVertex
100
AcDb3dPolylineVertex
10
27.580539
20
-1.477236
30
0.0
70
32
0
VERTEX
5
BAA58
100
AcDbEntity
8
1
62
256
100
AcDbVertex
100
AcDb3dPolylineVertex
10
27.679651
20
-1.421524
30
0.0
70
32
0
VERTEX
5
BAA59
100
AcDbEntity
8
1
62
256
100
AcDbVertex
100
AcDb3dPolylineVertex
10
27.776847
20
-1.364976
30
0.0
70
32
0
VERTEX
5
BAA5A
100
AcDbEntity
8
1
62
256
100
AcDbVertex
100
AcDb3dPolylineVertex
10
27.8721
20
-1.307606
30
0.0
70
32
0
VERTEX
5
BAA5B
100
AcDbEntity
8
1
62
256
100
AcDbVertex
100
AcDb3dPolylineVertex
10
27.965381
20
-1.249432
30
0.0
70
32
0
VERTEX
5
BAA5C
100
AcDbEntity
8
1
62
256
100
AcDbVertex
100
AcDb3dPolylineVertex
10
28.056663
20
-1.190471
30
0.0
70
32
0
VERTEX
5
BAA5D
100
AcDbEntity
8
1
62
256
100
AcDbVertex
100
AcDb3dPolylineVertex
10
28.145921
20
-1.13074
30
0.0
70
32
0
VERTEX
5
BAA5E
100
AcDbEntity
8
1
62
256
100
AcDbVertex
100
AcDb3dPolylineVertex
10
28.233126
20
-1.070256
30
0.0
70
32
0
VERTEX
5
BAA5F
100
AcDbEntity
8
1
62
256
100
AcDbVertex
100
AcDb3dPolylineVertex
10
28.318256
20
-1.009037
30
0.0
70
32
0
VERTEX
5
BAA60
100
AcDbEntity
8
1
62
256
100
AcDbVertex
100
AcDb3dPolylineVertex
10
28.401284
20
-0.947100000000002
30
0.0
70
32
0
VERTEX
5
BAA61
100
AcDbEntity
8
1
62
256
100
AcDbVertex
100
AcDb3dPolylineVertex
10
28.482186
20
-0.884465000000002
30
0.0
70
32
0
VERTEX
5
BAA62
100
AcDbEntity
8
1
62
256
100
AcDbVertex
100
AcDb3dPolylineVertex
10
28.560939
20
-0.821148000000002
30
0.0
70
32
0
SEQEND
5
BAA63
100
AcDbEntity
8
1
0
POLYLINE
5
BAA64
330
18
100
AcDbEntity
67
0
8
1
62
256
6
ByLayer
370
-1
48
1.0
60
0
100
AcDb3dPolyline
10
0.0
20
0.0
30
0.0
70
8
75
0
210
0.0
220
0.0
230
1.0
0
VERTEX
5
BAA65
100
AcDbEntity
8
1
62
256
100
AcDbVertex
100
AcDb3dPolylineVertex
10
23.731499
20
-2.712295
30
0.0
70
32
0
VERTEX
5
BAA66
100
AcDbEntity
8
1
62
256
100
AcDbVertex
100
AcDb3dPolylineVertex
10
23.891129
20
-2.686249
30
0.0
70
32
0
VERTEX
5
BAA67
100
AcDbEntity
8
1
62
256
100
AcDbVertex
100
AcDb3dPolylineVertex
10
24.049728
20
-2.658674
30
0.0
70
32
0
VERTEX
5
BAA68
100
AcDbEntity
8
1
62
256
100
AcDbVertex
100
AcDb3dPolylineVertex
10
24.207238
20
-2.629581
30
0.0
70
32
0
VERTEX
5
BAA69
100
AcDbEntity
8
1
62
256
100
AcDbVertex
100
AcDb3dPolylineVertex
10
24.363601
20
-2.59898
30
0.0
70
32
0
VERTEX
5
BAA6A
100
AcDbEntity
8
1
62
256
100
AcDbVertex
100
AcDb3dPolylineVertex
10
24.51876
20
-2.566883
30
0.0
70
32
0
VERTEX
5
BAA6B
100
AcDbEntity
8
1
62
256
100
AcDbVertex
100
AcDb3dPolylineVertex
10
24.672657
20
-2.533301
30
0.0
70
32
0
VERTEX
5
BAA6C
100
AcDbEntity
8
1
62
256
100
AcDbVertex
100
AcDb3dPolylineVertex
10
24.825235
20
-2.498248
30
0.0
70
32
0
VERTEX
5
BAA6D
100
AcDbEntity
8
1
62
256
100
AcDbVertex
100
AcDb3dPolylineVertex
10
24.976439
20
-2.461735
30
0.0
70
32
0
VERTEX
5
BAA6E
100
AcDbEntity
8
1
62
256
100
AcDbVertex
100
AcDb3dPolylineVertex
10
25.126211
20
-2.423776
30
0.0
70
32
0
VERTEX
5
BAA6F
100
AcDbEntity
8
1
62
256
100
AcDbVertex
100
AcDb3dPolylineVertex
10
25.274497
20
-2.384386
30
0.0
70
32
0
VERTEX
5
BAA70
100
AcDbEntity
8
1
62
256
100
AcDbVertex
100
AcDb3dPolylineVertex
10
25.421243
20
-2.343579
30
0.0
70
32
0
VERTEX
5
BAA71
100
AcDbEntity
8
1
62
256
100
AcDbVertex
100
AcDb3dPolylineVertex
10
25.566393
20
-2.30137
30
0.0
70
32
0
VERTEX
5
BAA72
100
AcDbEntity
8
1
62
256
100
AcDbVertex
100
AcDb3dPolylineVertex
10
25.709895
20
-2.257774
30
0.0
70
32
0
VERTEX
5
BAA73
100
AcDbEntity
8
1
62
256
100
AcDbVertex
100
AcDb3dPolylineVertex
10
25.851695
20
-2.212808
30
0.0
70
32
0
VERTEX
5
BAA74
100
AcDbEntity
8
1
62
256
100
AcDbVertex
100
AcDb3dPolylineVertex
10
25.991742
20
-2.166488
30
0.0
70
32
0
VERTEX
5
BAA75
100
AcDbEntity
8
1
62
256
100
AcDbVertex
100
AcDb3dPolylineVertex
10
26.129983
20
-2.118831
30
0.0
70
32
0
VERTEX
5
BAA76
100
AcDbEntity
8
1
62
256
100
AcDbVertex
100
AcDb3dPolylineVertex
10
26.266367
20
-2.069856
30
0.0
70
32
0
VERTEX
5
BAA77
100
AcDbEntity
8
1
62
256
100
AcDbVertex
100
AcDb3dPolylineVertex
10
26.400844
20
-2.019579
30
0.0
70
32
0
VERTEX
5
BAA78
100
AcDbEntity
8
1
62
256
100
AcDbVertex
100
AcDb3dPolylineVertex
10
26.533365
20
-1.96802
30
0.0
70
32
0
SEQEND
5
BAA79
100
AcDbEntity
8
1
0
POLYLINE
5
BAA7A
330
18
100
AcDbEntity
67
0
8
1
62
256
6
ByLayer
370
-1
48
1.0
60
0
100
AcDb3dPolyline
10
0.0
20
0.0
30
0.0
70
8
75
0
210
0.0
220
0.0
230
1.0
0
VERTEX
5
BAA7B
100
AcDbEntity
8
1
62
256
100
AcDbVertex
100
AcDb3dPolylineVertex
10
21.1
20
-4.536322
30
0.0
70
32
0
VERTEX
5
BAA7C
100
AcDbEntity
8
1
62
256
100
AcDbVertex
100
AcDb3dPolylineVertex
10
21.218967
20
-4.535924
30
0.0
70
32
0
VERTEX
5
BAA7D
100
AcDbEntity
8
1
62
256
100
AcDbVertex
100
AcDb3dPolylineVertex
10
21.337914
20
-4.534731
30
0.0
70
32
0
VERTEX
5
BAA7E
100
AcDbEntity
8
1
62
256
100
AcDbVertex
100
AcDb3dPolylineVertex
10
21.456817
20
-4.532744
30
0.0
70
32
0
VERTEX
5
BAA7F
100
AcDbEntity
8
1
62
256
100
AcDbVertex
100
AcDb3dPolylineVertex
10
21.575657
20
-4.529961
30
0.0
70
32
0
VERTEX
5
BAA80
100
AcDbEntity
8
1
62
256
100
AcDbVertex
100
AcDb3dPolylineVertex
10
21.694412
20
-4.526385
30
0.0
70
32
0
VERTEX
5
BAA81
100
AcDbEntity
8
1
62
256
100
AcDbVertex
100
AcDb3dPolylineVertex
10
21.813061
20
-4.522015
30
0.0
70
32
0
VERTEX
5
BAA82
100
AcDbEntity
8
1
62
256
100
AcDbVertex
100
AcDb3dPolylineVertex
10
21.931582
20
-4.516853
30
0.0
70
32
0
VERTEX
5
BAA83
100
AcDbEntity
8
1
62
256
100
AcDbVertex
100
AcDb3dPolylineVertex
10
22.049955
20
-4.510899
30
0.0
70
32
0
VERTEX
5
BAA84
100
AcDbEntity
8
1
62
256
100
AcDbVertex
100
AcDb3dPolylineVertex
10
22.168157
20
-4.504154
30
0.0
70
32
0
VERTEX
5
BAA85
100
AcDbEntity
8
1
62
256
100
AcDbVertex
100
AcDb3dPolylineVertex
10
22.286169
20
-4.49662
30
0.0
70
32
0
VERTEX
5
BAA86
100
AcDbEntity
8
1
62
256
100
AcDbVertex
100
AcDb3dPolylineVertex
10
22.403969
20
-4.488297
30
0.0
70
32
0
VERTEX
5
BAA87
100
AcDbEntity
8
1
62
256
100
AcDbVertex
100
AcDb3dPolylineVertex
10
22.521536
20
-4.479188
30
0.0
70
32
0
VERTEX
5
BAA88
100
AcDbEntity
8
1
62
256
100
AcDbVertex
100
AcDb3dPolylineVertex
10
22.638849
20
-4.469294
30
0.0
70
32
0
VERTEX
5
BAA89
100
AcDbEntity
8
1
62
256
100
AcDbVertex
100
AcDb3dPolylineVertex
10
22.755887
20
-4.458617
30
0.0
70
32
0
VERTEX
5
BAA8A
100
AcDbEntity
8
1
62
256
100
AcDbVertex
100
AcDb3dPolylineVertex
10
22.872629
20
-4.447158
30
0.0
70
32
0
VERTEX
5
BAA8B
100
AcDbEntity
8
1
62
256
100
AcDbVertex
100
AcDb3dPolylineVertex
10
22.989054
20
-4.43492
30
0.0
70
32
0
VERTEX
5
BAA8C
100
AcDbEntity
8
1
62
256
100
AcDbVertex
100
AcDb3dPolylineVertex
10
23.105142
20
-4.421905
30
0.0
70
32
0
VERTEX
5
BAA8D
100
AcDbEntity
8
1
62
256
100
AcDbVertex
100
AcDb3dPolylineVertex
10
23.220871
20
-4.408116
30
0.0
70
32
0
VERTEX
5
BAA8E
100
AcDbEntity
8
1
62
256
100
AcDbVertex
100
AcDb3dPolylineVertex
10
23.336221
20
-4.393554
30
0.0
70
32
0
SEQEND
5
BAA8F
100
AcDbEntity
8
1
0
POLYLINE
5
BAA90
330
18
100
AcDbEntity
67
0
8
1
62
256
6
ByLayer
370
-1
48
1.0
60
0
100
AcDb3dPolyline
10
0.0
20
0.0
30
0.0
70
8
75
0
210
0.0
220
0.0
230
1.0
0
VERTEX
5
BAA91
100
AcDbEntity
8
1
62
256
100
AcDbVertex
100
AcDb3dPolylineVertex
10
26.0
20
-6.669696
30
0.0
70
32
0
VERTEX
5
BAA92
100
AcDbEntity
8
1
62
256
100
AcDbVertex
100
AcDb3dPolylineVertex
10
26.065777
20
-6.631676
30
0.0
70
32
0
VERTEX
5
BAA93
100
AcDbEntity
8
1
62
256
100
AcDbVertex
100
AcDb3dPolylineVertex
10
26.131162
20
-6.593151
30
0.0
70
32
0
VERTEX
5
BAA94
100
AcDbEntity
8
1
62
256
100
AcDbVertex
100
AcDb3dPolylineVertex
10
26.196147
20
-6.554123
30
0.0
70
32
0
VERTEX
5
BAA95
100
AcDbEntity
8
1
62
256
100
AcDbVertex
100
AcDb3dPolylineVertex
10
26.260729
20
-6.514595
30
0.0
70
32
0
VERTEX
5
BAA96
100
AcDbEntity
8
1
62
256
100
AcDbVertex
100
AcDb3dPolylineVertex
10
26.324902
20
-6.474572
30
0.0
70
32
0
VERTEX
5
BAA97
100
AcDbEntity
8
1
62
256
100
AcDbVertex
100
AcDb3dPolylineVertex
10
26.388662
20
-6.434055
30
0.0
70
32
0
VERTEX
5
BAA98
100
AcDbEntity
8
1
62
256
100
AcDbVertex
100
AcDb3dPolylineVertex
10
26.452002
20
-6.393049
30
0.0
70
32
0
VERTEX
5
BAA99
100
AcDbEntity
8
1
62
256
100
AcDbVertex
100
AcDb3dPolylineVertex
10
26.514919
20
-6.351556
30
0.0
70
32
0
VERTEX
5
BAA9A
100
AcDbEntity
8
1
62
256
100
AcDbVertex
100
AcDb3dPolylineVertex
10
26.577407
20
-6.30958
30
0.0
70
32
0
VERTEX
5
BAA9B
100
AcDbEntity
8
1
62
256
100
AcDbVertex
100
AcDb3dPolylineVertex
10
26.63946
20
-6.267124
30
0.0
70
32
0
VERTEX
5
BAA9C
100
AcDbEntity
8
1
62
256
100
AcDbVertex
100
AcDb3dPolylineVertex
10
26.701076
20
-6.224191
30
0.0
70
32
0
VERTEX
5
BAA9D
100
AcDbEntity
8
1
62
256
100
AcDbVertex
100
AcDb3dPolylineVertex
10
26.762247
20
-6.180786
30
0.0
70
32
0
VERTEX
5
BAA9E
100
AcDbEntity
8
1
62
256
100
AcDbVertex
100
AcDb3dPolylineVertex
10
26.82297
20
-6.13691
30
0.0
70
32
0
VERTEX
5
BAA9F
100
AcDbEntity
8
1
62
256
100
AcDbVertex
100
AcDb3dPolylineVertex
10
26.88324
20
-6.092568
30
0.0
70
32
0
VERTEX
5
BAAA0
100
AcDbEntity
8
1
62
256
100
AcDbVertex
100
AcDb3dPolylineVertex
10
26.943051
20
-6.047764
30
0.0
70
32
0
VERTEX
5
BAAA1
100
AcDbEntity
8
1
62
256
100
AcDbVertex
100
AcDb3dPolylineVertex
10
27.0024
20
-6.0025
30
0.0
70
32
0
VERTEX
5
BAAA2
100
AcDbEntity
8
1
62
256
100
AcDbVertex
100
AcDb3dPolylineVertex
10
27.061282
20
-5.95678
30
0.0
70
32
0
VERTEX
5
BAAA3
100
AcDbEntity
8
1
62
256
100
AcDbVertex
100
AcDb3dPolylineVertex
10
27.119691
20
-5.910609
30
0.0
70
32
0
VERTEX
5
BAAA4
100
AcDbEntity
8
1
62
256
100
AcDbVertex
100
AcDb3dPolylineVertex
10
27.177623
20
-5.863989
30
0.0
70
32
0
SEQEND
5
BAAA5
100
AcDbEntity
8
1
0
POLYLINE
5
BAAA6
330
18
100
AcDbEntity
67
0
8
1
62
256
6
ByLayer
370
-1
48
1.0
60
0
100
AcDb3dPolyline
10
0.0
20
0.0
30
0.0
70
8
75
0
210
0.0
220
0.0
230
1.0
0
VERTEX
5
BAAA7
100
AcDbEntity
8
1
62
256
100
AcDbVertex
100
AcDb3dPolylineVertex
10
29.595617
20
-2.50574
30
0.0
70
32
0
VERTEX
5
BAAA8
100
AcDbEntity
8
1
62
256
100
AcDbVertex
100
AcDb3dPolylineVertex
10
29.602332
20
-2.486685
30
0.0
70
32
0
VERTEX
5
BAAA9
100
AcDbEntity
8
1
62
256
100
AcDbVertex
100
AcDb3dPolylineVertex
10
29.60899
20
-2.467616
30
0.0
70
32
0
VERTEX
5
BAAAA
100
AcDbEntity
8
1
62
256
100
AcDbVertex
100
AcDb3dPolylineVertex
10
29.61559
20
-2.448531
30
0.0
70
32
0
VERTEX
5
BAAAB
100
AcDbEntity
8
1
62
256
100
AcDbVertex
100
AcDb3dPolylineVertex
10
29.622134
20
-2.429432
30
0.0
70
32
0
VERTEX
5
BAAAC
100
AcDbEntity
8
1
62
256
100
AcDbVertex
100
AcDb3dPolylineVertex
10
29.62862
20
-2.410318
30
0.0
70
32
0
VERTEX
5
BAAAD
100
AcDbEntity
8
1
62
256
100
AcDbVertex
100
AcDb3dPolylineVertex
10
29.63505
20
-2.39119
30
0.0
70
32
0
VERTEX
5
BAAAE
100
AcDbEntity
8
1
62
256
100
AcDbVertex
100
AcDb3dPolylineVertex
10
29.641422
20
-2.372048
30
0.0
70
32
0
VERTEX
5
BAAAF
100
AcDbEntity
8
1
62
256
100
AcDbVertex
100
AcDb3dPolylineVertex
10
29.647737
20
-2.352891
30
0.0
70
32
0
VERTEX
5
BAAB0
100
AcDbEntity
8
1
62
256
100
AcDbVertex
100
AcDb3dPolylineVertex
10
29.653994
20
-2.33372
30
0.0
70
32
0
VERTEX
5
BAAB1
100
AcDbEntity
8
1
62
256
100
AcDbVertex
100
AcDb3dPolylineVertex
10
29.660194
20
-2.314535
30
0.0
70
32
0
VERTEX
5
BAAB2
100
AcDbEntity
8
1
62
256
100
AcDbVertex
100
AcDb3dPolylineVertex
10
29.666337
20
-2.295336
30
0.0
70
32
0
VERTEX
5
BAAB3
100
AcDbEntity
8
1
62
256
100
AcDbVertex
100
AcDb3dPolylineVertex
10
29.672423
20
-2.276124
30
0.0
70
32
0
VERTEX
5
BAAB4
100
AcDbEntity
8
1
62
256
100
AcDbVertex
100
AcDb3dPolylineVertex
10
29.678451
20
-2.256898
30
0.0
70
32
0
VERTEX
5
BAAB5
100
AcDbEntity
8
1
62
256
100
AcDbVertex
100
AcDb3dPolylineVertex
10
29.684421
20
-2.237658
30
0.0
70
32
0
VERTEX
5
BAAB6
100
AcDbEntity
8
1
62
256
100
AcDbVertex
100
AcDb3dPolylineVertex
10
29.690334
20
-2.218405
30
0.0
70
32
0
VERTEX
5
BAAB7
100
AcDbEntity
8
1
62
256
100
AcDbVertex
100
AcDb3dPolylineVertex
10
29.696189
20
-2.19914
30
0.0
70
32
0
VERTEX
5
BAAB8
100
AcDbEntity
8
1
62
256
100
AcDbVertex
100
AcDb3dPolylineVertex
10
29.701987
20
-2.17986
30
0.0
70
32
0
VERTEX
5
BAAB9
100
AcDbEntity
8
1
62
256
100
AcDbVertex
100
AcDb3dPolylineVertex
10
29.707727
20
-2.160568
30
0.0
70
32
0
VERTEX
5
BAABA
100
AcDbEntity
8
1
62
256
100
AcDbVertex
100
AcDb3dPolylineVertex
10
29.71341
20
-2.141264
30
0.0
70
32
0
SEQEND
5
BAABB
100
AcDbEntity
8
1
0
POLYLINE
5
BAABC
330
18
100
AcDbEntity
67
0
8
1
62
256
6
ByLayer
370
-1
48
1.0
60
0
100
AcDb3dPolyline
10
0.0
20
0.0
30
0.0
70
8
75
0
210
0.0
220
0.0
230
1.0
0
VERTEX
5
BAABD
100
AcDbEntity
8
1
62
256
100
AcDbVertex
100
AcDb3dPolylineVertex
10
29.951846
20
-2.356773
30
0.0
70
32
0
VERTEX
5
BAABE
100
AcDbEntity
8
1
62
256
100
AcDbVertex
100
AcDb3dPolylineVertex
10
29.977387
20
-2.259737
30
0.0
70
32
0
VERTEX
5
BAABF
100
AcDbEntity
8
1
62
256
100
AcDbVertex
100
AcDb3dPolylineVertex
10
29.993403
20
-2.162192
30
0.0
70
32
0
VERTEX
5
BAAC0
100
AcDbEntity
8
1
62
256
100
AcDbVertex
100
AcDb3dPolylineVertex
10
29.999856
20
-2.064371
30
0.0
70
32
0
VERTEX
5
BAAC1
100
AcDbEntity
8
1
62
256
100
AcDbVertex
100
AcDb3dPolylineVertex
10
29.996729
20
-1.966511
30
0.0
70
32
0
VERTEX
5
BAAC2
100
AcDbEntity
8
1
62
256
100
AcDbVertex
100
AcDb3dPolylineVertex
10
29.984032
20
-1.868844
30
0.0
70
32
0
VERTEX
5
BAAC3
100
AcDbEntity
8
1
62
256
100
AcDbVertex
100
AcDb3dPolylineVertex
10
29.961794
20
-1.771604
30
0.0
70
32
0
VERTEX
5
BAAC4
100
AcDbEntity
8
1
62
256
100
AcDbVertex
100
AcDb3dPolylineVertex
10
29.930067
20
-1.675025
30
0.0
70
32
0
VERTEX
5
BAAC5
100
AcDbEntity
8
1
62
256
100
AcDbVertex
100
AcDb3dPolylineVertex
10
29.88893
20
-1.579337
30
0.0
70
32
0
VERTEX
5
BAAC6
100
AcDbEntity
8
1
62
256
100
AcDbVertex
100
AcDb3dPolylineVertex
10
29.838479
20
-1.484771
30
0.0
70
32
0
VERTEX
5
BAAC7
100
AcDbEntity
8
1
62
256
100
AcDbVertex
100
AcDb3dPolylineVertex
10
29.778835
20
-1.391551
30
0.0
70
32
0
VERTEX
5
BAAC8
100
AcDbEntity
8
1
62
256
100
AcDbVertex
100
AcDb3dPolylineVertex
10
29.710143
20
-1.299903
30
0.0
70
32
0
VERTEX
5
BAAC9
100
AcDbEntity
8
1
62
256
100
AcDbVertex
100
AcDb3dPolylineVertex
10
29.632565
20
-1.210044
30
0.0
70
32
0
VERTEX
5
BAACA
100
AcDbEntity
8
1
62
256
100
AcDbVertex
100
AcDb3dPolylineVertex
10
29.546288
20
-1.12219
30
0.0
70
32
0
VERTEX
5
BAACB
100
AcDbEntity
8
1
62
256
100
AcDbVertex
100
AcDb3dPolylineVertex
10
29.451518
20
-1.036553
30
0.0
70
32
0
VERTEX
5
BAACC
100
AcDbEntity
8
1
62
256
100
AcDbVertex
100
AcDb3dPolylineVertex
10
29.348482
20
-0.953335000000002
30
0.0
70
32
0
VERTEX
5
BAACD
100
AcDbEntity
8
1
62
256
100
AcDbVertex
100
AcDb3dPolylineVertex
10
29.237428
20
-0.872738000000002
30
0.0
70
32
0
VERTEX
5
BAACE
100
AcDbEntity
8
1
62
256
100
AcDbVertex
100
AcDb3dPolylineVertex
10
29.118621
20
-0.794954000000002
30
0.0
70
32
0
VERTEX
5
BAACF
100
AcDbEntity
8
1
62
256
100
AcDbVertex
100
AcDb3dPolylineVertex
10
28.992345
20
-0.720169000000002
30
0.0
70
32
0
VERTEX
5
BAAD0
100
AcDbEntity
8
1
62
256
100
AcDbVertex
100
AcDb3dPolylineVertex
10
28.858903
20
-0.648563000000002
30
0.0
70
32
0
SEQEND
5
BAAD1
100
AcDbEntity
8
1
0
POLYLINE
5
BAAD2
330
18
100
AcDbEntity
67
0
8
1
62
256
6
ByLayer
370
-1
48
1.0
60
0
100
AcDb3dPolyline
10
0.0
20
0.0
30
0.0
70
8
75
0
210
0.0
220
0.0
230
1.0
0
VERTEX
5
BAAD3
100
AcDbEntity
8
1
62
256
100
AcDbVertex
100
AcDb3dPolylineVertex
10
27.000952
20
-6.003614
30
0.0
70
32
0
VERTEX
5
BAAD4
100
AcDbEntity
8
1
62
256
100
AcDbVertex
100
AcDb3dPolylineVertex
10
27.085545
20
-5.989302
30
0.0
70
32
0
VERTEX
5
BAAD5
100
AcDbEntity
8
1
62
256
100
AcDbVertex
100
AcDb3dPolylineVertex
10
27.16932
20
-5.973835
30
0.0
70
32
0
VERTEX
5
BAAD6
100
AcDbEntity
8
1
62
256
100
AcDbVertex
100
AcDb3dPolylineVertex
10
27.252216
20
-5.957224
30
0.0
70
32
0
VERTEX
5
BAAD7
100
AcDbEntity
8
1
62
256
100
AcDbVertex
100
AcDb3dPolylineVertex
10
27.334169
20
-5.939483
30
0.0
70
32
0
VERTEX
5
BAAD8
100
AcDbEntity
8
1
62
256
100
AcDbVertex
100
AcDb3dPolylineVertex
10
27.415117
20
-5.920625
30
0.0
70
32
0
VERTEX
5
BAAD9
100
AcDbEntity
8
1
62
256
100
AcDbVertex
100
AcDb3dPolylineVertex
10
27.495001
20
-5.900663
30
0.0
70
32
0
VERTEX
5
BAADA
100
AcDbEntity
8
1
62
256
100
AcDbVertex
100
AcDb3dPolylineVertex
10
27.573759
20
-5.879613
30
0.0
70
32
0
VERTEX
5
BAADB
100
AcDbEntity
8
1
62
256
100
AcDbVertex
100
AcDb3dPolylineVertex
10
27.651333
20
-5.85749
30
0.0
70
32
0
VERTEX
5
BAADC
100
AcDbEntity
8
1
62
256
100
AcDbVertex
100
AcDb3dPolylineVertex
10
27.727663
20
-5.834312
30
0.0
70
32
0
VERTEX
5
BAADD
100
AcDbEntity
8
1
62
256
100
AcDbVertex
100
AcDb3dPolylineVertex
10
27.802694
20
-5.810096
30
0.0
70
32
0
VERTEX
5
BAADE
100
AcDbEntity
8
1
62
256
100
AcDbVertex
100
AcDb3dPolylineVertex
10
27.876367
20
-5.78486
30
0.0
70
32
0
VERTEX
5
BAADF
100
AcDbEntity
8
1
62
256
100
AcDbVertex
100
AcDb3dPolylineVertex
10
27.948629
20
-5.758622
30
0.0
70
32
0
VERTEX
5
BAAE0
100
AcDbEntity
8
1
62
256
100
AcDbVertex
100
AcDb3dPolylineVertex
10
28.019423
20
-5.731404
30
0.0
70
32
0
VERTEX
5
BAAE1
100
AcDbEntity
8
1
62
256
100
AcDbVertex
100
AcDb3dPolylineVertex
10
28.088697
20
-5.703224
30
0.0
70
32
0
VERTEX
5
BAAE2
100
AcDbEntity
8
1
62
256
100
AcDbVertex
100
AcDb3dPolylineVertex
10
28.1564
20
-5.674105
30
0.0
70
32
0
VERTEX
5
BAAE3
100
AcDbEntity
8
1
62
256
100
AcDbVertex
100
AcDb3dPolylineVertex
10
28.222479
20
-5.644069
30
0.0
70
32
0
VERTEX
5
BAAE4
100
AcDbEntity
8
1
62
256
100
AcDbVertex
100
AcDb3dPolylineVertex
10
28.286885
20
-5.613137
30
0.0
70
32
0
VERTEX
5
BAAE5
100
AcDbEntity
8
1
62
256
100
AcDbVertex
100
AcDb3dPolylineVertex
10
28.34957
20
-5.581333
30
0.0
70
32
0
VERTEX
5
BAAE6
100
AcDbEntity
8
1
62
256
100
AcDbVertex
100
AcDb3dPolylineVertex
10
28.410487
20
-5.548682
30
0.0
70
32
0
SEQEND
5
BAAE7
100
AcDbEntity
8
1
0
POLYLINE
5
BAAE8
330
18
100
AcDbEntity
67
0
8
1
62
256
6
ByLayer
370
-1
48
1.0
60
0
100
AcDb3dPolyline
10
0.0
20
0.0
30
0.0
70
8
75
0
210
0.0
220
0.0
230
1.0
0
VERTEX
5
BAAE9
100
AcDbEntity
8
1
62
256
100
AcDbVertex
100
AcDb3dPolylineVertex
10
22.155533
20
-4.504912
30
0.0
70
32
0
VERTEX
5
BAAEA
100
AcDbEntity
8
1
62
256
100
AcDbVertex
100
AcDb3dPolylineVertex
10
22.378569
20
-4.801927
30
0.0
70
32
0
VERTEX
5
BAAEB
100
AcDbEntity
8
1
62
256
100
AcDbVertex
100
AcDb3dPolylineVertex
10
22.692732
20
-5.07757
30
0.0
70
32
0
VERTEX
5
BAAEC
100
AcDbEntity
8
1
62
256
100
AcDbVertex
100
AcDb3dPolylineVertex
10
23.090118
20
-5.324906
30
0.0
70
32
0
VERTEX
5
BAAED
100
AcDbEntity
8
1
62
256
100
AcDbVertex
100
AcDb3dPolylineVertex
10
23.560727
20
-5.537711
30
0.0
70
32
0
VERTEX
5
BAAEE
100
AcDbEntity
8
1
62
256
100
AcDbVertex
100
AcDb3dPolylineVertex
10
24.092716
20
-5.710629
30
0.0
70
32
0
VERTEX
5
BAAEF
100
AcDbEntity
8
1
62
256
100
AcDbVertex
100
AcDb3dPolylineVertex
10
24.6727
20
-5.83931
30
0.0
70
32
0
VERTEX
5
BAAF0
100
AcDbEntity
8
1
62
256
100
AcDbVertex
100
AcDb3dPolylineVertex
10
25.286082
20
-5.920515
30
0.0
70
32
0
VERTEX
5
BAAF1
100
AcDbEntity
8
1
62
256
100
AcDbVertex
100
AcDb3dPolylineVertex
10
25.91743
20
-5.952202
30
0.0
70
32
0
VERTEX
5
BAAF2
100
AcDbEntity
8
1
62
256
100
AcDbVertex
100
AcDb3dPolylineVertex
10
26.550855
20
-5.933572
30
0.0
70
32
0
VERTEX
5
BAAF3
100
AcDbEntity
8
1
62
256
100
AcDbVertex
100
AcDb3dPolylineVertex
10
27.170419
20
-5.865095
30
0.0
70
32
0
VERTEX
5
BAAF4
100
AcDbEntity
8
1
62
256
100
AcDbVertex
100
AcDb3dPolylineVertex
10
27.76053
20
-5.748494
30
0.0
70
32
0
VERTEX
5
BAAF5
100
AcDbEntity
8
1
62
256
100
AcDbVertex
100
AcDb3dPolylineVertex
10
28.306341
20
-5.586702
30
0.0
70
32
0
VERTEX
5
BAAF6
100
AcDbEntity
8
1
62
256
100
AcDbVertex
100
AcDb3dPolylineVertex
10
28.794116
20
-5.383791
30
0.0
70
32
0
VERTEX
5
BAAF7
100
AcDbEntity
8
1
62
256
100
AcDbVertex
100
AcDb3dPolylineVertex
10
29.211582
20
-5.144868
30
0.0
70
32
0
VERTEX
5
BAAF8
100
AcDbEntity
8
1
62
256
100
AcDbVertex
100
AcDb3dPolylineVertex
10
29.548233
20
-4.875943
30
0.0
70
32
0
VERTEX
5
BAAF9
100
AcDbEntity
8
1
62
256
100
AcDbVertex
100
AcDb3dPolylineVertex
10
29.795598
20
-4.583785
30
0.0
70
32
0
VERTEX
5
BAAFA
100
AcDbEntity
8
1
62
256
100
AcDbVertex
100
AcDb3dPolylineVertex
10
29.947453
20
-4.275744
30
0.0
70
32
0
VERTEX
5
BAAFB
100
AcDbEntity
8
1
62
256
100
AcDbVertex
100
AcDb3dPolylineVertex
10
29.999976
20
-3.959573
30
0.0
70
32
0
VERTEX
5
BAAFC
100
AcDbEntity
8
1
62
256
100
AcDbVertex
100
AcDb3dPolylineVertex
10
29.951846
20
-3.643227
30
0.0
70
32
0
SEQEND
5
BAAFD
100
AcDbEntity
8
1
0
POLYLINE
5
BAAFE
330
18
100
AcDbEntity
67
0
8
1
62
256
6
ByLayer
370
-1
48
1.0
60
0
100
AcDb3dPolyline
10
0.0
20
0.0
30
0.0
70
8
75
0
210
0.0
220
0.0
230
1.0
0
VERTEX
5
BAAFF
100
AcDbEntity
8
1
62
256
100
AcDbVertex
100
AcDb3dPolylineVertex
10
29.215914
20
-1.293294
30
0.0
70
32
0
VERTEX
5
BAB00
100
AcDbEntity
8
1
62
256
100
AcDbVertex
100
AcDb3dPolylineVertex
10
29.199615
20
-1.245851
30
0.0
70
32
0
VERTEX
5
BAB01
100
AcDbEntity
8
1
62
256
100
AcDbVertex
100
AcDb3dPolylineVertex
10
29.180517
20
-1.198669
30
0.0
70
32
0
VERTEX
5
BAB02
100
AcDbEntity
8
1
62
256
100
AcDbVertex
100
AcDb3dPolylineVertex
10
29.158636
20
-1.15179
30
0.0
70
32
0
VERTEX
5
BAB03
100
AcDbEntity
8
1
62
256
100
AcDbVertex
100
AcDb3dPolylineVertex
10
29.133993
20
-1.105255
30
0.0
70
32
0
VERTEX
5
BAB04
100
AcDbEntity
8
1
62
256
100
AcDbVertex
100
AcDb3dPolylineVertex
10
29.106607
20
-1.059105
30
0.0
70
32
0
VERTEX
5
BAB05
100
AcDbEntity
8
1
62
256
100
AcDbVertex
100
AcDb3dPolylineVertex
10
29.076504
20
-1.01338
30
0.0
70
32
0
VERTEX
5
BAB06
100
AcDbEntity
8
1
62
256
100
AcDbVertex
100
AcDb3dPolylineVertex
10
29.043709
20
-0.968120000000002
30
0.0
70
32
0
VERTEX
5
BAB07
100
AcDbEntity
8
1
62
256
100
AcDbVertex
100
AcDb3dPolylineVertex
10
29.008252
20
-0.923365000000002
30
0.0
70
32
0
VERTEX
5
BAB08
100
AcDbEntity
8
1
62
256
100
AcDbVertex
100
AcDb3dPolylineVertex
10
28.970163
20
-0.879154000000002
30
0.0
70
32
0
VERTEX
5
BAB09
100
AcDbEntity
8
1
62
256
100
AcDbVertex
100
AcDb3dPolylineVertex
10
28.929475
20
-0.835525000000002
30
0.0
70
32
0
VERTEX
5
BAB0A
100
AcDbEntity
8
1
62
256
100
AcDbVertex
100
AcDb3dPolylineVertex
10
28.886225
20
-0.792517000000002
30
0.0
70
32
0
VERTEX
5
BAB0B
100
AcDbEntity
8
1
62
256
100
AcDbVertex
100
AcDb3dPolylineVertex
10
28.84045
20
-0.750168000000002
30
0.0
70
32
0
VERTEX
5
BAB0C
100
AcDbEntity
8
1
62
256
100
AcDbVertex
100
AcDb3dPolylineVertex
10
28.79219
20
-0.708513000000002
30
0.0
70
32
0
VERTEX
5
BAB0D
100
AcDbEntity
8
1
62
256
100
AcDbVertex
100
AcDb3dPolylineVertex
10
28.741488
20
-0.667591000000002
30
0.0
70
32
0
VERTEX
5
BAB0E
100
AcDbEntity
8
1
62
256
100
AcDbVertex
100
AcDb3dPolylineVertex
10
28.688387
20
-0.627436000000002
30
0.0
70
32
0
VERTEX
5
BAB0F
100
AcDbEntity
8
1
62
256
100
AcDbVertex
100
AcDb3dPolylineVertex
10
28.632934
20
-0.588085000000002
30
0.0
70
32
0
VERTEX
5
BAB10
100
AcDbEntity
8
1
62
256
100
AcDbVertex
100
AcDb3dPolylineVertex
10
28.575178
20
-0.549570000000002
30
0.0
70
32
0
VERTEX
5
BAB11
100
AcDbEntity
8
1
62
256
100
AcDbVertex
100
AcDb3dPolylineVertex
10
28.515169
20
-0.511926000000002
30
0.0
70
32
0
VERTEX
5
BAB12
100
AcDbEntity
8
1
62
256
100
AcDbVertex
100
AcDb3dPolylineVertex
10
28.45296
20
-0.475186000000002
30
0.0
70
32
0
SEQEND
5
BAB13
100
AcDbEntity
8
1
0
POLYLINE
5
BAB14
330
18
100
AcDbEntity
67
0
8
1
62
256
6
ByLayer
370
-1
48
1.0
60
0
100
AcDb3dPolyline
10
0.0
20
0.0
30
0.0
70
8
75
0
210
0.0
220
0.0
230
1.0
0
VERTEX
5
BAB15
100
AcDbEntity
8
1
62
256
100
AcDbVertex
100
AcDb3dPolylineVertex
10
23.731499
20
-2.712295
30
0.0
70
32
0
VERTEX
5
BAB16
100
AcDbEntity
8
1
62
256
100
AcDbVertex
100
AcDb3dPolylineVertex
10
24.057
20
-2.850875
30
0.0
70
32
0
VERTEX
5
BAB17
100
AcDbEntity
8
1
62
256
100
AcDbVertex
100
AcDb3dPolylineVertex
10
24.416016
20
-2.966932
30
0.0
70
32
0
VERTEX
5
BAB18
100
AcDbEntity
8
1
62
256
100
AcDbVertex
100
AcDb3dPolylineVertex
10
24.802354
20
-3.058462
30
0.0
70
32
0
VERTEX
5
BAB19
100
AcDbEntity
8
1
62
256
100
AcDbVertex
100
AcDb3dPolylineVertex
10
25.209351
20
-3.123887
30
0.0
70
32
0
VERTEX
5
BAB1A
100
AcDbEntity
8
1
62
256
100
AcDbVertex
100
AcDb3dPolylineVertex
10
25.629987
20
-3.162079
30
0.0
70
32
0
VERTEX
5
BAB1B
100
AcDbEntity
8
1
62
256
100
AcDbVertex
100
AcDb3dPolylineVertex
10
26.057005
20
-3.172378
30
0.0
70
32
0
VERTEX
5
BAB1C
100
AcDbEntity
8
1
62
256
100
AcDbVertex
100
AcDb3dPolylineVertex
10
26.483039
20
-3.154608
30
0.0
70
32
0
VERTEX
5
BAB1D
100
AcDbEntity
8
1
62
256
100
AcDbVertex
100
AcDb3dPolylineVertex
10
26.900742
20
-3.109074
30
0.0
70
32
0
VERTEX
5
BAB1E
100
AcDbEntity
8
1
62
256
100
AcDbVertex
100
AcDb3dPolylineVertex
10
27.302907
20
-3.036563
30
0.0
70
32
0
VERTEX
5
BAB1F
100
AcDbEntity
8
1
62
256
100
AcDbVertex
100
AcDb3dPolylineVertex
10
27.682598
20
-2.938324
30
0.0
70
32
0
VERTEX
5
BAB20
100
AcDbEntity
8
1
62
256
100
AcDbVertex
100
AcDb3dPolylineVertex
10
28.033265
20
-2.816053
30
0.0
70
32
0
VERTEX
5
BAB21
100
AcDbEntity
8
1
62
256
100
AcDbVertex
100
AcDb3dPolylineVertex
10
28.34886
20
-2.671858
30
0.0
70
32
0
VERTEX
5
BAB22
100
AcDbEntity
8
1
62
256
100
AcDbVertex
100
AcDb3dPolylineVertex
10
28.623939
20
-2.508227
30
0.0
70
32
0
VERTEX
5
BAB23
100
AcDbEntity
8
1
62
256
100
AcDbVertex
100
AcDb3dPolylineVertex
10
28.853756
20
-2.327982
30
0.0
70
32
0
VERTEX
5
BAB24
100
AcDbEntity
8
1
62
256
100
AcDbVertex
100
AcDb3dPolylineVertex
10
29.034348
20
-2.134233
30
0.0
70
32
0
VERTEX
5
BAB25
100
AcDbEntity
8
1
62
256
100
AcDbVertex
100
AcDb3dPolylineVertex
10
29.162599
20
-1.930321
30
0.0
70
32
0
VERTEX
5
BAB26
100
AcDbEntity
8
1
62
256
100
AcDbVertex
100
AcDb3dPolylineVertex
10
29.236298
20
-1.719764
30
0.0
70
32
0
VERTEX
5
BAB27
100
AcDbEntity
8
1
62
256
100
AcDbVertex
100
AcDb3dPolylineVertex
10
29.254172
20
-1.506194
30
0.0
70
32
0
VERTEX
5
BAB28
100
AcDbEntity
8
1
62
256
100
AcDbVertex
100
AcDb3dPolylineVertex
10
29.215914
20
-1.293294
30
0.0
70
32
0
SEQEND
5
BAB29
100
AcDbEntity
8
1
0
POLYLINE
5
BAB2A
330
18
100
AcDbEntity
67
0
8
1
62
256
6
ByLayer
370
-1
48
1.0
60
0
100
AcDb3dPolyline
10
0.0
20
0.0
30
0.0
70
8
75
0
210
0.0
220
0.0
230
1.0
0
VERTEX
5
BAB2B
100
AcDbEntity
8
1
62
256
100
AcDbVertex
100
AcDb3dPolylineVertex
10
28.951786
20
-0.859030000000002
30
0.0
70
32
0
VERTEX
5
BAB2C
100
AcDbEntity
8
1
62
256
100
AcDbVertex
100
AcDb3dPolylineVertex
10
28.937914
20
-0.831411000000002
30
0.0
70
32
0
VERTEX
5
BAB2D
100
AcDbEntity
8
1
62
256
100
AcDbVertex
100
AcDb3dPolylineVertex
10
28.923972
20
-0.803805000000002
30
0.0
70
32
0
VERTEX
5
BAB2E
100
AcDbEntity
8
1
62
256
100
AcDbVertex
100
AcDb3dPolylineVertex
10
28.909959
20
-0.776213000000002
30
0.0
70
32
0
VERTEX
5
BAB2F
100
AcDbEntity
8
1
62
256
100
AcDbVertex
100
AcDb3dPolylineVertex
10
28.895876
20
-0.748634000000002
30
0.0
70
32
0
VERTEX
5
BAB30
100
AcDbEntity
8
1
62
256
100
AcDbVertex
100
AcDb3dPolylineVertex
10
28.881723
20
-0.721068000000002
30
0.0
70
32
0
VERTEX
5
BAB31
100
AcDbEntity
8
1
62
256
100
AcDbVertex
100
AcDb3dPolylineVertex
10
28.8675
20
-0.693516000000002
30
0.0
70
32
0
VERTEX
5
BAB32
100
AcDbEntity
8
1
62
256
100
AcDbVertex
100
AcDb3dPolylineVertex
10
28.853207
20
-0.665978000000002
30
0.0
70
32
0
VERTEX
5
BAB33
100
AcDbEntity
8
1
62
256
100
AcDbVertex
100
AcDb3dPolylineVertex
10
28.838844
20
-0.638453000000002
30
0.0
70
32
0
VERTEX
5
BAB34
100
AcDbEntity
8
1
62
256
100
AcDbVertex
100
AcDb3dPolylineVertex
10
28.824411
20
-0.610942000000002
30
0.0
70
32
0
VERTEX
5
BAB35
100
AcDbEntity
8
1
62
256
100
AcDbVertex
100
AcDb3dPolylineVertex
10
28.809908
20
-0.583445000000002
30
0.0
70
32
0
VERTEX
5
BAB36
100
AcDbEntity
8
1
62
256
100
AcDbVertex
100
AcDb3dPolylineVertex
10
28.795334
20
-0.555962000000002
30
0.0
70
32
0
VERTEX
5
BAB37
100
AcDbEntity
8
1
62
256
100
AcDbVertex
100
AcDb3dPolylineVertex
10
28.780691
20
-0.528492000000002
30
0.0
70
32
0
VERTEX
5
BAB38
100
AcDbEntity
8
1
62
256
100
AcDbVertex
100
AcDb3dPolylineVertex
10
28.765978
20
-0.501037000000002
30
0.0
70
32
0
VERTEX
5
BAB39
100
AcDbEntity
8
1
62
256
100
AcDbVertex
100
AcDb3dPolylineVertex
10
28.751196
20
-0.473596000000002
30
0.0
70
32
0
VERTEX
5
BAB3A
100
AcDbEntity
8
1
62
256
100
AcDbVertex
100
AcDb3dPolylineVertex
10
28.736343
20
-0.446168000000002
30
0.0
70
32
0
VERTEX
5
BAB3B
100
AcDbEntity
8
1
62
256
100
AcDbVertex
100
AcDb3dPolylineVertex
10
28.721421
20
-0.418755000000002
30
0.0
70
32
0
VERTEX
5
BAB3C
100
AcDbEntity
8
1
62
256
100
AcDbVertex
100
AcDb3dPolylineVertex
10
28.706429
20
-0.391357000000002
30
0.0
70
32
0
VERTEX
5
BAB3D
100
AcDbEntity
8
1
62
256
100
AcDbVertex
100
AcDb3dPolylineVertex
10
28.691367
20
-0.363972000000002
30
0.0
70
32
0
VERTEX
5
BAB3E
100
AcDbEntity
8
1
62
256
100
AcDbVertex
100
AcDb3dPolylineVertex
10
28.676235
20
-0.336603000000002
30
0.0
70
32
0
SEQEND
5
BAB3F
100
AcDbEntity
8
1
0
POLYLINE
5
BAB40
330
18
100
AcDbEntity
67
0
8
1
62
256
6
ByLayer
370
-1
48
1.0
60
0
100
AcDb3dPolyline
10
0.0
20
0.0
30
0.0
70
8
75
0
210
0.0
220
0.0
230
1.0
0
VERTEX
5
BAB41
100
AcDbEntity
8
1
62
256
100
AcDbVertex
100
AcDb3dPolylineVertex
10
28.560939
20
-0.821148000000002
30
0.0
70
32
0
VERTEX
5
BAB42
100
AcDbEntity
8
1
62
256
100
AcDbVertex
100
AcDb3dPolylineVertex
10
28.555535
20
-0.802907000000001
30
0.0
70
32
0
VERTEX
5
BAB43
100
AcDbEntity
8
1
62
256
100
AcDbVertex
100
AcDb3dPolylineVertex
10
28.550101
20
-0.784670000000002
30
0.0
70
32
0
VERTEX
5
BAB44
100
AcDbEntity
8
1
62
256
100
AcDbVertex
100
AcDb3dPolylineVertex
10
28.544635
20
-0.766436000000002
30
0.0
70
32
0
VERTEX
5
BAB45
100
AcDbEntity
8
1
62
256
100
AcDbVertex
100
AcDb3dPolylineVertex
10
28.539138
20
-0.748206000000002
30
0.0
70
32
0
VERTEX
5
BAB46
100
AcDbEntity
8
1
62
256
100
AcDbVertex
100
AcDb3dPolylineVertex
10
28.53361
20
-0.729979000000002
30
0.0
70
32
0
VERTEX
5
BAB47
100
AcDbEntity
8
1
62
256
100
AcDbVertex
100
AcDb3dPolylineVertex
10
28.52805
20
-0.711756000000002
30
0.0
70
32
0
VERTEX
5
BAB48
100
AcDbEntity
8
1
62
256
100
AcDbVertex
100
AcDb3dPolylineVertex
10
28.52246
20
-0.693536000000002
30
0.0
70
32
0
VERTEX
5
BAB49
100
AcDbEntity
8
1
62
256
100
AcDbVertex
100
AcDb3dPolylineVertex
10
28.516839
20
-0.675320000000002
30
0.0
70
32
0
VERTEX
5
BAB4A
100
AcDbEntity
8
1
62
256
100
AcDbVertex
100
AcDb3dPolylineVertex
10
28.511187
20
-0.657108000000002
30
0.0
70
32
0
VERTEX
5
BAB4B
100
AcDbEntity
8
1
62
256
100
AcDbVertex
100
AcDb3dPolylineVertex
10
28.505504
20
-0.638899000000002
30
0.0
70
32
0
VERTEX
5
BAB4C
100
AcDbEntity
8
1
62
256
100
AcDbVertex
100
AcDb3dPolylineVertex
10
28.49979
20
-0.620694000000002
30
0.0
70
32
0
VERTEX
5
BAB4D
100
AcDbEntity
8
1
62
256
100
AcDbVertex
100
AcDb3dPolylineVertex
10
28.494044
20
-0.602492000000002
30
0.0
70
32
0
VERTEX
5
BAB4E
100
AcDbEntity
8
1
62
256
100
AcDbVertex
100
AcDb3dPolylineVertex
10
28.488268
20
-0.584295000000002
30
0.0
70
32
0
VERTEX
5
BAB4F
100
AcDbEntity
8
1
62
256
100
AcDbVertex
100
AcDb3dPolylineVertex
10
28.482461
20
-0.566100000000002
30
0.0
70
32
0
VERTEX
5
BAB50
100
AcDbEntity
8
1
62
256
100
AcDbVertex
100
AcDb3dPolylineVertex
10
28.476623
20
-0.547910000000002
30
0.0
70
32
0
VERTEX
5
BAB51
100
AcDbEntity
8
1
62
256
100
AcDbVertex
100
AcDb3dPolylineVertex
10
28.470754
20
-0.529723000000002
30
0.0
70
32
0
VERTEX
5
BAB52
100
AcDbEntity
8
1
62
256
100
AcDbVertex
100
AcDb3dPolylineVertex
10
28.464853
20
-0.511540000000002
30
0.0
70
32
0
VERTEX
5
BAB53
100
AcDbEntity
8
1
62
256
100
AcDbVertex
100
AcDb3dPolylineVertex
10
28.458922
20
-0.493361000000002
30
0.0
70
32
0
VERTEX
5
BAB54
100
AcDbEntity
8
1
62
256
100
AcDbVertex
100
AcDb3dPolylineVertex
10
28.45296
20
-0.475186000000002
30
0.0
70
32
0
SEQEND
5
BAB55
100
AcDbEntity
8
1
0
DIMENSION
5
BAB56
330
18
100
AcDbEntity
67
0
8
2
62
256
6
ByLayer
370
-1
48
1.0
60
0
100
AcDbDimension
2
*D4
10
40.5976
20
-10.0
30
0.0
11
40.5976
21
-5.202632
31
0.0
70
32
71
5
72
1
41
1.0
1
%%c20
210
0.0
220
0.0
230
1.0
3
SANDVIK_STYLE
100
AcDbAlignedDimension
13
32.0
23
10.0
33
0.0
14
32.0
24
-10.0
34
0.0
50
90.0
100
AcDbRotatedDimension
0
DIMENSION
5
BAB57
330
18
100
AcDbEntity
67
0
8
SK2
62
256
6
ByLayer
370
-1
48
1.0
60
0
100
AcDbDimension
2
*D5
10
-20.682731
20
-8.89999999999999
30
0.0
11
-20.682731
21
-6.517105
31
0.0
70
32
71
5
72
1
41
1.0
1
%%c17.8
210
0.0
220
0.0
230
1.0
3
SANDVIK_STYLE
100
AcDbAlignedDimension
13
-1.75
23
8.9
33
0.0
14
-1.75
24
-8.9
34
0.0
50
90.0
100
AcDbRotatedDimension
0
DIMENSION
5
BAB58
330
18
100
AcDbEntity
67
0
8
2
62
256
6
ByLayer
370
-1
48
1.0
60
0
100
AcDbDimension
2
*D6
10
0.0000000000000016
20
25.970235
30
0.0
11
16.752632
21
25.970235
31
0.0
70
32
71
5
72
1
41
1.0
1
30
210
0.0
220
0.0
230
1.0
3
SANDVIK_STYLE
100
AcDbAlignedDimension
13
30.0
23
12.0
33
0.0
14
0.0000000000000007
24
10.65
34
0.0
50
180.0
100
AcDbRotatedDimension
0
DIMENSION
5
BAB59
330
18
100
AcDbEntity
67
0
8
SK2
62
256
6
ByLayer
370
-1
48
1.0
60
0
100
AcDbDimension
2
*D7
10
26.0
20
15.39338
30
0.0
11
15.745
21
15.39338
31
0.0
70
32
71
5
72
1
41
1.0
1
1.5
210
0.0
220
0.0
230
1.0
3
SANDVIK_STYLE
100
AcDbAlignedDimension
13
30.0
23
12.0
33
0.0
14
26.0
24
8.0
34
0.0
50
180.0
100
AcDbRotatedDimension
0
INSERT
5
BAB5A
330
18
100
AcDbEntity
67
0
8
5
62
256
6
ByLayer
370
-1
48
1.0
60
0
100
AcDbBlockReference
2
_nullpunkt
10
0.0
20
0.0
30
0.0
41
1.0
42
1.0
43
1.0
50
0.0
210
0.0
220
0.0
230
1.0
0
TEXT
5
BAB5B
330
18
100
AcDbEntity
67
0
8
5
62
256
6
ByLayer
370
-1
48
1.0
60
0
100
AcDbText
1
ISOORIENTED
10
0.0
20
0.0
30
0.0
40
0.1
41
1.0
50
0.0
51
0.0
7
SIMPLEX
11
0.0
21
0.0
31
0.0
210
0.0
220
0.0
230
1.0
72
0
100
AcDbText
73
0
0
MTEXT
5
BACCC
330
18
100
AcDbEntity
67
0
8
SK6
62
256
6
ByLayer
370
-1
48
1.0
60
0
100
AcDbMText
10
-13.7221441124839
20
-13.9319889686657
30
0.0
210
0.0
220
0.0
230
1.0
1
{\fMonospac821 BT|b0|i0|c0|p49;R300-20T10-08M}
40
3.5
41
38.0960172955571
44
1.0
50
0.0
71
1
72
5
7
SIMPLEX
1001
ACAD
1000
ACAD_MTEXT_COLUMN_INFO_BEGIN
1070
75
1070
2
1070
79
1070
0
1070
76
1070
1
1070
78
1070
0
1070
48
1040
38.0960172955571
1070
49
1040
17.5
1070
50
1070
1
1040
0.0
1000
ACAD_MTEXT_COLUMN_INFO_END
0
ENDSEC
0
SECTION
2
OBJECTS
0
DICTIONARY
5
BACF0
330
0
100
AcDbDictionary
280
0
281
1
3
ACAD_GROUP
350
BACF1
3
ACAD_LAYOUT
350
BACF2
3
ACAD_MLINESTYLE
350
BACF3
0
DICTIONARY
5
BACF1
330
BACF0
100
AcDbDictionary
280
0
281
1
0
DICTIONARY
5
BACF2
330
BACF0
100
AcDbDictionary
280
0
281
1
3
Layout1
350
33B
3
Model
350
303
0
DICTIONARY
5
BACF3
330
BACF0
100
AcDbDictionary
280
0
281
1
3
STANDARD
350
1B
0
LAYOUT
5
33B
330
BACF2
100
AcDbPlotSettings
1

2
Lexmark Optra PS2
4

6

40
0.0
41
0.0
42
0.0
43
0.0
44
0.0
45
0.0
46
0.0
47
0.0
48
0.0
49
0.0
140
0.0
141
0.0
142
1.0
143
1.0
70
688
72
0
73
0
74
5
7
monochrome.ctb
75
16
147
1.0
148
0.0
149
0.0
100
AcDbLayout
1
Layout1
70
1
71
1
10
0.0
20
-7.5
11
12.0
21
9.0
12
0.0
22
0.0
32
0.0
14
0.0
24
0.0
34
0.0
15
0.0
25
0.0
35
0.0
146
0.0
13
0.0
23
0.0
33
0.0
16
1.0
26
0.0
36
0.0
17
0.0
27
1.0
37
0.0
76
0
330
338
0
LAYOUT
5
303
330
BACF2
100
AcDbPlotSettings
1

2
Default Windows System Printer.pc3
4
A4
6

40
6.80508327484131
41
5.53508329391479
42
6.97441101074219
43
7.14373779296875
44
209.973327636719
45
296.925994873047
46
0.0
47
0.0
48
0.0
49
0.0
140
0.0
141
0.0
142
1.0
143
0.360433356816878
70
3764
72
1
73
1
74
5
7
monochrome.ctb
75
16
147
2.77443799550456
148
-82.3508777524703
149
-53.6936963299449
100
AcDbLayout
1
Model
70
1
71
2
10
0.0
20
-7.5
11
12.0
21
9.0
12
0.0
22
0.0
32
0.0
14
0.0
24
0.0
34
0.0
15
0.0
25
0.0
35
0.0
146
0.0
13
0.0
23
0.0
33
0.0
16
1.0
26
0.0
36
0.0
17
0.0
27
1.0
37
0.0
76
0
330
18
0
MLINESTYLE
5
1B
330
BACF3
100
AcDbMlineStyle
2
STANDARD
70
0
3

62
0
51
90.0
52
90.0
71
2
49
-0.5
62
256
6
ByLayer
49
0.5
62
256
6
ByLayer
0
ENDSEC
0
EOF
