0
SECTION
2
HEADER
9
$ACADVER
1
AC1015
9
$DWGCODEPAGE
3
ANSI_1252
9
$HANDSEED
5
16b
9
$ANGBASE
50
0
9
$ANGDIR
70
0
9
$ATTMODE
70
1
9
$AUNITS
70
0
9
$AUPREC
70
0
9
$CECOLOR
62
256
9
$CELTSCALE
40
1
9
$CELTYPE
6
ByLayer
9
$CELWEIGHT
370
-1
9
$CLAYER
8
0
9
$CMLJUST
70
0
9
$CMLSCALE
40
1
9
$CMLSTYLE
2
Standard
9
$DIMSTYLE
2
Standard
9
$TEXTSIZE
40
0.2
9
$TEXTSTYLE
7
Standard
9
$LUNITS
70
2
9
$LUPREC
70
4
9
$EXTNAMES
290
1
9
$INSUNITS
70
4
9
$LTSCALE
40
1
9
$LWDISPLAY
290
0
9
$PDMODE
70
0
9
$PDSIZE
40
0
9
$PLINEGEN
70
0
0
ENDSEC
0
SECTION
2
CLASSES
0
CLASS
1
RASTERVARIABLES
2
AcDbRasterVariables
3
ISM
90
0
280
0
281
0
0
ENDSEC
0
SECTION
2
TABLES
0
TABLE
2
VPORT
5
161
100
AcDbSymbolTable
0
VPORT
5
1
100
AcDbSymbolTableRecord
100
AcDbViewportTableRecord
2
*Active
70
0
10
0
20
0
11
1
21
1
12
-1
22
1
13
0
23
0
14
0.5
24
0.5
15
10
25
10
16
0
26
0
36
1
17
0
27
0
37
0
0
ENDTAB
0
TABLE
2
LTYPE
5
162
100
AcDbSymbolTable
0
LTYPE
5
14
100
AcDbSymbolTableRecord
100
AcDbLinetypeTableRecord
70
0
2
ByBlock
3

72
65
73
0
40
0
0
LTYPE
5
15
100
AcDbSymbolTableRecord
100
AcDbLinetypeTableRecord
70
0
2
ByLayer
3

72
65
73
0
40
0
0
LTYPE
5
16
100
AcDbSymbolTableRecord
100
AcDbLinetypeTableRecord
70
0
2
CONTINUOUS
3
Solid line
72
65
73
0
40
0
0
LTYPE
5
3C
100
AcDbSymbolTableRecord
100
AcDbLinetypeTableRecord
70
0
2
DASHED
3
__ __ __ __ __ __ __ __ __
72
65
73
2
40
25.72
49
12.86
74
0
49
-12.86
74
0
0
LTYPE
5
3D
100
AcDbSymbolTableRecord
100
AcDbLinetypeTableRecord
70
0
2
HIDDEN
3
_ _ _ _ _ _ _ _ _ _ _ _ _ _ _
72
65
73
2
40
0.5
49
0.25
74
0
49
-0.25
74
0
0
LTYPE
5
3E
100
AcDbSymbolTableRecord
100
AcDbLinetypeTableRecord
70
0
2
PHANTOM
3
____ _ _ ____ _ _ _____ _ _ ____
72
65
73
6
40
50.5
49
18
74
0
49
-6.5
74
0
49
6.5
74
0
49
-6.5
74
0
49
6.5
74
0
49
-6.5
74
0
0
LTYPE
5
3F
100
AcDbSymbolTableRecord
100
AcDbLinetypeTableRecord
70
0
2
CENTER
3
____ _ ____ _ ____ _ ____
72
65
73
4
40
47.5
49
22
74
0
49
-8.5
74
0
49
8.5
74
0
49
-8.5
74
0
0
LTYPE
5
40
100
AcDbSymbolTableRecord
100
AcDbLinetypeTableRecord
70
0
2
DOT
3
.........................
72
65
73
2
40
10
49
0
74
0
49
-10
74
0
0
LTYPE
5
41
100
AcDbSymbolTableRecord
100
AcDbLinetypeTableRecord
70
0
2
DASHDOT
3
_._._._._._._._._._._._._._._._.
72
65
73
4
40
70
49
31
74
0
49
-13
74
0
49
13
74
0
49
-13
74
0
0
ENDTAB
0
TABLE
2
LAYER
5
163
100
AcDbSymbolTable
0
LAYER
5
10
100
AcDbSymbolTableRecord
100
AcDbLayerTableRecord
2
0
70
0
62
7
6
CONTINUOUS
290
1
370
-3
390
0
0
LAYER
5
43
100
AcDbSymbolTableRecord
100
AcDbLayerTableRecord
2
81
70
0
62
-3
6
CONTINUOUS
290
1
370
-3
390
0
0
LAYER
5
45
100
AcDbSymbolTableRecord
100
AcDbLayerTableRecord
2
80
70
0
62
-6
6
CONTINUOUS
290
1
370
-3
390
0
0
LAYER
5
4B
100
AcDbSymbolTableRecord
100
AcDbLayerTableRecord
2
1
70
0
62
4
6
CONTINUOUS
290
1
370
-3
390
0
0
LAYER
5
DD
100
AcDbSymbolTableRecord
100
AcDbLayerTableRecord
2
2
70
0
62
7
6
CONTINUOUS
290
1
370
-3
390
0
0
LAYER
5
14e
100
AcDbSymbolTableRecord
100
AcDbLayerTableRecord
2
SK4
70
0
62
2
6
CENTER
290
1
370
-3
390
0
0
LAYER
5
14f
100
AcDbSymbolTableRecord
100
AcDbLayerTableRecord
2
SK6
70
0
62
5
6
CONTINUOUS
290
1
370
-3
390
0
0
LAYER
5
150
100
AcDbSymbolTableRecord
100
AcDbLayerTableRecord
2
SK2
70
0
62
7
6
CONTINUOUS
290
1
370
-3
390
0
0
ENDTAB
0
TABLE
2
STYLE
5
164
100
AcDbSymbolTable
0
STYLE
5
11
100
AcDbSymbolTableRecord
100
AcDbTextStyleTableRecord
2
Standard
3
txt
70
0
71
0
40
0
41
1
42
0
50
0
0
STYLE
5
D8
100
AcDbSymbolTableRecord
100
AcDbTextStyleTableRecord
2
DEFAULT
3
simplex.shx
70
0
71
0
40
0
41
1
42
0
50
0
0
STYLE
5
D9
100
AcDbSymbolTableRecord
100
AcDbTextStyleTableRecord
2
DWGDirectTextStyle
3
SIMPLEX
70
0
71
0
40
0
41
1
42
0
50
0
0
ENDTAB
0
TABLE
2
DIMSTYLE
5
165
100
AcDbSymbolTable
100
AcDbDimStyleTable
0
DIMSTYLE
105
27
100
AcDbSymbolTableRecord
100
AcDbDimStyleTableRecord
2
Standard
70
0
3
<>
41
0.18
42
0.0625
44
0.18
140
0.18
147
0.09
73
0
74
0
77
1
271
2
275
0
278
52
280
0
340
11
0
ENDTAB
0
TABLE
2
VIEW
5
166
100
AcDbSymbolTable
0
ENDTAB
0
TABLE
2
UCS
5
167
100
AcDbSymbolTable
0
ENDTAB
0
TABLE
2
APPID
5
168
100
AcDbSymbolTable
0
APPID
5
12
100
AcDbSymbolTableRecord
100
AcDbRegAppTableRecord
2
ACAD
70
0
0
ENDTAB
0
TABLE
2
BLOCK_RECORD
5
169
100
AcDbSymbolTable
0
BLOCK_RECORD
5
1F
100
AcDbSymbolTableRecord
100
AcDbBlockTableRecord
2
*Model_Space
340
0
70
0
0
BLOCK_RECORD
5
1B
100
AcDbSymbolTableRecord
100
AcDbBlockTableRecord
2
*Paper_Space
340
0
70
0
0
BLOCK_RECORD
5
23
100
AcDbSymbolTableRecord
100
AcDbBlockTableRecord
2
*Paper_Space0
340
0
70
0
0
BLOCK_RECORD
5
DB
100
AcDbSymbolTableRecord
100
AcDbBlockTableRecord
2
DimnDraft3D1
340
0
70
0
0
BLOCK_RECORD
5
E6
100
AcDbSymbolTableRecord
100
AcDbBlockTableRecord
2
DimnDraft3D2
340
0
70
0
0
BLOCK_RECORD
5
F0
100
AcDbSymbolTableRecord
100
AcDbBlockTableRecord
2
DimnDraft3D3
340
0
70
0
0
BLOCK_RECORD
5
FB
100
AcDbSymbolTableRecord
100
AcDbBlockTableRecord
2
DimnDraft3D4
340
0
70
0
0
BLOCK_RECORD
5
106
100
AcDbSymbolTableRecord
100
AcDbBlockTableRecord
2
DimnDraft3D5
340
0
70
0
0
ENDTAB
0
ENDSEC
0
SECTION
2
BLOCKS
0
BLOCK
5
20
100
AcDbEntity
8
0
100
AcDbBlockBegin
2
*Model_Space
70
0
10
0
20
0
30
0
3
*Model_Space
0
ENDBLK
5
21
100
AcDbEntity
8
0
100
AcDbBlockEnd
0
BLOCK
5
1C
100
AcDbEntity
8
0
100
AcDbBlockBegin
2
*Paper_Space
70
0
10
0
20
0
30
0
3
*Paper_Space
0
ENDBLK
5
1D
100
AcDbEntity
8
0
100
AcDbBlockEnd
0
BLOCK
5
24
100
AcDbEntity
8
0
100
AcDbBlockBegin
2
*Paper_Space0
70
0
10
0
20
0
30
0
3
*Paper_Space0
0
ENDBLK
5
25
100
AcDbEntity
8
0
100
AcDbBlockEnd
0
BLOCK
5
E3
100
AcDbEntity
8
0
100
AcDbBlockBegin
2
DimnDraft3D1
70
0
10
0
20
0
30
0
3
DimnDraft3D1
0
MTEXT
5
DC
100
AcDbEntity
8
2
62
256
6
ByLayer
370
-1
48
1
60
0
100
AcDbMText
10
6.913158
20
23.225
30
0
210
0
220
0
230
1
1
\W01.000;\fsimplex.shx,bigfont.shx;3.5\P
40
3.5
41
0
44
1.084337
50
0
71
7
72
5
7
DEFAULT
0
LINE
5
DE
100
AcDbEntity
8
2
62
256
6
ByLayer
370
-1
48
1
60
0
100
AcDbLine
10
21.5
20
7.5
30
0
11
21.5
21
24.35
31
0
39
0
210
0
220
0
230
1
0
LINE
5
DF
100
AcDbEntity
8
2
62
256
6
ByLayer
370
-1
48
1
60
0
100
AcDbLine
10
25
20
4
30
0
11
25
21
24.35
31
0
39
0
210
0
220
0
230
1
0
LINE
5
E0
100
AcDbEntity
8
2
62
256
6
ByLayer
370
-1
48
1
60
0
100
AcDbLine
10
33.75
20
22.35
30
0
11
6.038158
21
22.35
31
0
39
0
210
0
220
0
230
1
0
SOLID
5
E1
100
AcDbEntity
8
2
62
256
6
ByLayer
370
-1
48
1
60
0
100
AcDbTrace
10
21.5
20
22.35
30
0
11
18.000003
21
21.412178
31
0
12
17.999997
22
23.287822
32
0
13
21.5
23
22.35
33
0
39
0
210
0
220
0
230
1
0
SOLID
5
E2
100
AcDbEntity
8
2
62
256
6
ByLayer
370
-1
48
1
60
0
100
AcDbTrace
10
25
20
22.35
30
0
11
28.499997
21
23.287822
31
0
12
28.500003
22
21.412178
32
0
13
25
23
22.35
33
0
39
0
210
0
220
0
230
1
0
ENDBLK
5
E4
100
AcDbEntity
8
0
100
AcDbBlockEnd
0
BLOCK
5
ED
100
AcDbEntity
8
0
100
AcDbBlockBegin
2
DimnDraft3D2
70
0
10
0
20
0
30
0
3
DimnDraft3D2
0
MTEXT
5
E7
100
AcDbEntity
8
2
62
256
6
ByLayer
370
-1
48
1
60
0
100
AcDbMText
10
9.359211
20
33.225
30
0
210
0
220
0
230
1
1
\W01.000;\fsimplex.shx,bigfont.shx;25.0\P
40
3.5
41
0
44
1.084337
50
0
71
7
72
5
7
DEFAULT
0
LINE
5
E8
100
AcDbEntity
8
2
62
256
6
ByLayer
370
-1
48
1
60
0
100
AcDbLine
10
25
20
4
30
0
11
25
21
34.35
31
0
39
0
210
0
220
0
230
1
0
LINE
5
E9
100
AcDbEntity
8
2
62
256
6
ByLayer
370
-1
48
1
60
0
100
AcDbLine
10
0
20
5.85
30
0
11
0
21
34.35
31
0
39
0
210
0
220
0
230
1
0
LINE
5
EA
100
AcDbEntity
8
2
62
256
6
ByLayer
370
-1
48
1
60
0
100
AcDbLine
10
25
20
32.35
30
0
11
0
21
32.35
31
0
39
0
210
0
220
0
230
1
0
SOLID
5
EB
100
AcDbEntity
8
2
62
256
6
ByLayer
370
-1
48
1
60
0
100
AcDbTrace
10
25
20
32.35
30
0
11
21.500003
21
31.412178
31
0
12
21.499997
22
33.287822
32
0
13
25
23
32.35
33
0
39
0
210
0
220
0
230
1
0
SOLID
5
EC
100
AcDbEntity
8
2
62
256
6
ByLayer
370
-1
48
1
60
0
100
AcDbTrace
10
0
20
32.35
30
0
11
3.499997
21
33.287822
31
0
12
3.500003
22
31.412178
32
0
13
0
23
32.35
33
0
39
0
210
0
220
0
230
1
0
ENDBLK
5
EE
100
AcDbEntity
8
0
100
AcDbBlockEnd
0
BLOCK
5
F8
100
AcDbEntity
8
0
100
AcDbBlockBegin
2
DimnDraft3D3
70
0
10
0
20
0
30
0
3
DimnDraft3D3
0
MTEXT
5
F1
100
AcDbEntity
8
SK2
62
256
6
ByLayer
370
-1
48
1
60
0
100
AcDbMText
10
2.459211
20
43.225
30
0
210
0
220
0
230
1
1
\W01.000;\fsimplex.shx,bigfont.shx;38.8\P
40
3.5
41
0
44
1.084337
50
0
71
7
72
5
7
DEFAULT
0
LINE
5
F3
100
AcDbEntity
8
SK2
62
256
6
ByLayer
370
-1
48
1
60
0
100
AcDbLine
10
25
20
4
30
0
11
25
21
44.35
31
0
39
0
210
0
220
0
230
1
0
LINE
5
F4
100
AcDbEntity
8
SK2
62
256
6
ByLayer
370
-1
48
1
60
0
100
AcDbLine
10
-13.8
20
0
30
0
11
-13.8
21
44.35
31
0
39
0
210
0
220
0
230
1
0
LINE
5
F5
100
AcDbEntity
8
SK2
62
256
6
ByLayer
370
-1
48
1
60
0
100
AcDbLine
10
25
20
42.35
30
0
11
-13.8
21
42.35
31
0
39
0
210
0
220
0
230
1
0
SOLID
5
F6
100
AcDbEntity
8
SK2
62
256
6
ByLayer
370
-1
48
1
60
0
100
AcDbTrace
10
25
20
42.35
30
0
11
21.500003
21
41.412178
31
0
12
21.499997
22
43.287822
32
0
13
25
23
42.35
33
0
39
0
210
0
220
0
230
1
0
SOLID
5
F7
100
AcDbEntity
8
SK2
62
256
6
ByLayer
370
-1
48
1
60
0
100
AcDbTrace
10
-13.8
20
42.35
30
0
11
-10.300003
21
43.287822
31
0
12
-10.299997
22
41.412178
32
0
13
-13.8
23
42.35
33
0
39
0
210
0
220
0
230
1
0
ENDBLK
5
F9
100
AcDbEntity
8
0
100
AcDbBlockEnd
0
BLOCK
5
103
100
AcDbEntity
8
0
100
AcDbBlockBegin
2
DimnDraft3D4
70
0
10
0
20
0
30
0
3
DimnDraft3D4
0
MTEXT
5
FC
100
AcDbEntity
8
2
62
256
6
ByLayer
370
-1
48
1
60
0
100
AcDbMText
10
50.975
20
-23.781579
30
0
210
0
220
0
230
1
1
\W01.000;\fsimplex.shx,bigfont.shx;15.0\P
40
3.5
41
0
44
1.084337
50
90
71
7
72
5
7
DEFAULT
0
MTEXT
5
FD
100
AcDbEntity
8
2
62
256
6
ByLayer
370
-1
48
1
60
0
100
AcDbMText
10
50.975
20
-34.281579
30
0
210
0
220
0
230
1
1
\W01.000;\fsimplex.shx,bigfont.shx;%%c\P
40
3.5
41
0
44
1.084337
50
90
71
7
72
5
7
DEFAULT
0
LINE
5
FE
100
AcDbEntity
8
2
62
256
6
ByLayer
370
-1
48
1
60
0
100
AcDbLine
10
21.5
20
-7.5
30
0
11
54.725
21
-7.5
31
0
39
0
210
0
220
0
230
1
0
LINE
5
FF
100
AcDbEntity
8
2
62
256
6
ByLayer
370
-1
48
1
60
0
100
AcDbLine
10
21.5
20
7.5
30
0
11
54.725
21
7.5
31
0
39
0
210
0
220
0
230
1
0
LINE
5
100
100
AcDbEntity
8
2
62
256
6
ByLayer
370
-1
48
1
60
0
100
AcDbLine
10
52.725
20
7.5
30
0
11
52.725
21
-35.156579
31
0
39
0
210
0
220
0
230
1
0
SOLID
5
101
100
AcDbEntity
8
2
62
256
6
ByLayer
370
-1
48
1
60
0
100
AcDbTrace
10
52.725
20
-7.5
30
0
11
51.787178
21
-4.000003
31
0
12
53.662822
22
-3.999997
32
0
13
52.725
23
-7.5
33
0
39
0
210
0
220
0
230
1
0
SOLID
5
102
100
AcDbEntity
8
2
62
256
6
ByLayer
370
-1
48
1
60
0
100
AcDbTrace
10
52.725
20
7.5
30
0
11
53.662822
21
4.000003
31
0
12
51.787178
22
3.999997
32
0
13
52.725
23
7.5
33
0
39
0
210
0
220
0
230
1
0
ENDBLK
5
104
100
AcDbEntity
8
0
100
AcDbBlockEnd
0
BLOCK
5
10E
100
AcDbEntity
8
0
100
AcDbBlockBegin
2
DimnDraft3D5
70
0
10
0
20
0
30
0
3
DimnDraft3D5
0
MTEXT
5
107
100
AcDbEntity
8
SK2
62
256
6
ByLayer
370
-1
48
1
60
0
100
AcDbMText
10
-34.525
20
-21.256579
30
0
210
0
220
0
230
1
1
\W01.000;\fsimplex.shx,bigfont.shx;11.7\P
40
3.5
41
0
44
1.084337
50
90
71
7
72
5
7
DEFAULT
0
MTEXT
5
108
100
AcDbEntity
8
SK2
62
256
6
ByLayer
370
-1
48
1
60
0
100
AcDbMText
10
-34.525
20
-31.756579
30
0
210
0
220
0
230
1
1
\W01.000;\fsimplex.shx,bigfont.shx;%%c\P
40
3.5
41
0
44
1.084337
50
90
71
7
72
5
7
DEFAULT
0
LINE
5
109
100
AcDbEntity
8
SK2
62
256
6
ByLayer
370
-1
48
1
60
0
100
AcDbLine
10
0
20
5.85
30
0
11
-34.775
21
5.85
31
0
39
0
210
0
220
0
230
1
0
LINE
5
10A
100
AcDbEntity
8
SK2
62
256
6
ByLayer
370
-1
48
1
60
0
100
AcDbLine
10
0
20
-5.85
30
0
11
-34.775
21
-5.85
31
0
39
0
210
0
220
0
230
1
0
LINE
5
10B
100
AcDbEntity
8
SK2
62
256
6
ByLayer
370
-1
48
1
60
0
100
AcDbLine
10
-32.775
20
5.85
30
0
11
-32.775
21
-32.631579
31
0
39
0
210
0
220
0
230
1
0
SOLID
5
10C
100
AcDbEntity
8
SK2
62
256
6
ByLayer
370
-1
48
1
60
0
100
AcDbTrace
10
-32.775
20
5.85
30
0
11
-31.837178
21
2.350003
31
0
12
-33.712822
22
2.349997
32
0
13
-32.775
23
5.85
33
0
39
0
210
0
220
0
230
1
0
SOLID
5
10D
100
AcDbEntity
8
SK2
62
256
6
ByLayer
370
-1
48
1
60
0
100
AcDbTrace
10
-32.775
20
-5.85
30
0
11
-33.712822
21
-2.350003
31
0
12
-31.837178
22
-2.349997
32
0
13
-32.775
23
-5.85
33
0
39
0
210
0
220
0
230
1
0
ENDBLK
5
10F
100
AcDbEntity
8
0
100
AcDbBlockEnd
0
ENDSEC
0
SECTION
2
ENTITIES
0
ARC
5
7E
100
AcDbEntity
8
1
62
256
6
ByLayer
370
-1
48
1
60
0
100
AcDbCircle
39
0
10
-7.5
20
-6.25
30
0
40
0.400000000000001
210
0
220
0
230
-1
100
AcDbArc
50
90
51
180
0
ARC
5
7F
100
AcDbEntity
8
1
62
256
6
ByLayer
370
-1
48
1
60
0
100
AcDbCircle
39
0
10
-7.5
20
6.25
30
0
40
0.400000000000001
210
0
220
0
230
-1
100
AcDbArc
50
180
51
270
0
ARC
5
80
100
AcDbEntity
8
1
62
256
6
ByLayer
370
-1
48
1
60
0
100
AcDbCircle
39
0
10
0.3
20
4.903613
30
0
40
0.3
210
0
220
0
230
-1
100
AcDbArc
50
180
51
267.8
0
ARC
5
81
100
AcDbEntity
8
1
62
256
6
ByLayer
370
-1
48
1
60
0
100
AcDbCircle
39
0
10
0.3
20
-4.903613
30
0
40
0.3
210
0
220
0
230
-1
100
AcDbArc
50
92.2
51
180
0
ARC
5
82
100
AcDbEntity
8
1
62
256
6
ByLayer
370
-1
48
1
60
0
100
AcDbCircle
39
0
10
10.3
20
3.25
30
0
40
0.5
210
0
220
0
230
-1
100
AcDbArc
50
180
51
270
0
ARC
5
83
100
AcDbEntity
8
1
62
256
6
ByLayer
370
-1
48
1
60
0
100
AcDbCircle
39
0
10
10.3
20
-3.25
30
0
40
0.5
210
0
220
0
230
-1
100
AcDbArc
50
90
51
180
0
ARC
5
84
100
AcDbEntity
8
1
62
256
6
ByLayer
370
-1
48
1
60
0
100
AcDbCircle
39
0
10
-21.5
20
3.97
30
0
40
1.03505
210
0
220
0
230
-1
100
AcDbArc
50
315
51
15
0
ARC
5
85
100
AcDbEntity
8
1
62
256
6
ByLayer
370
-1
48
1
60
0
100
AcDbCircle
39
0
10
-21.5
20
3.97
30
0
40
1.03505
210
0
220
0
230
-1
100
AcDbArc
50
75
51
135
0
ARC
5
86
100
AcDbEntity
8
1
62
256
6
ByLayer
370
-1
48
1
60
0
100
AcDbCircle
39
0
10
21.5
20
3.97
30
0
40
0.7912
210
0
220
0
230
1
100
AcDbArc
50
15
51
75
0
ARC
5
87
100
AcDbEntity
8
1
62
256
6
ByLayer
370
-1
48
1
60
0
100
AcDbCircle
39
0
10
-21.5
20
3.97
30
0
40
0.7912
210
0
220
0
230
-1
100
AcDbArc
50
345
51
45
0
ARC
5
88
100
AcDbEntity
8
1
62
256
6
ByLayer
370
-1
48
1
60
0
100
AcDbCircle
39
0
10
21.5
20
3.97
30
0
40
0.7912
210
0
220
0
230
1
100
AcDbArc
50
195
51
255
0
ARC
5
8A
100
AcDbEntity
8
1
62
256
6
ByLayer
370
-1
48
1
60
0
100
AcDbCircle
39
0
10
-21.5
20
3.97
30
0
40
1.03505
210
0
220
0
230
-1
100
AcDbArc
50
195
51
255
0
ARC
5
8B
100
AcDbEntity
8
1
62
256
6
ByLayer
370
-1
48
1
60
0
100
AcDbCircle
39
0
10
21.5
20
3.97
30
0
40
0.7912
210
0
220
0
230
1
100
AcDbArc
50
75
51
135
0
ARC
5
8C
100
AcDbEntity
8
1
62
256
6
ByLayer
370
-1
48
1
60
0
100
AcDbCircle
39
0
10
-21.5
20
3.97
30
0
40
1.03505
210
0
220
0
230
-1
100
AcDbArc
50
15
51
75
0
ARC
5
8D
100
AcDbEntity
8
1
62
256
6
ByLayer
370
-1
48
1
60
0
100
AcDbCircle
39
0
10
21.5
20
3.97
30
0
40
0.7912
210
0
220
0
230
1
100
AcDbArc
50
315
51
15
0
ARC
5
8E
100
AcDbEntity
8
1
62
256
6
ByLayer
370
-1
48
1
60
0
100
AcDbCircle
39
0
10
-21.5
20
3.97
30
0
40
1.03505
210
0
220
0
230
-1
100
AcDbArc
50
135
51
195
0
ARC
5
8F
100
AcDbEntity
8
1
62
256
6
ByLayer
370
-1
48
1
60
0
100
AcDbCircle
39
0
10
-21.5
20
3.97
30
0
40
1.03505
210
0
220
0
230
-1
100
AcDbArc
50
255
51
315
0
ARC
5
90
100
AcDbEntity
8
1
62
256
6
ByLayer
370
-1
48
1
60
0
100
AcDbCircle
39
0
10
21.5
20
3.97
30
0
40
0.7912
210
0
220
0
230
1
100
AcDbArc
50
255
51
315
0
ARC
5
93
100
AcDbEntity
8
1
62
256
6
ByLayer
370
-1
48
1
60
0
100
AcDbCircle
39
0
10
-21.5
20
-3.97
30
0
40
1.1
210
0
220
0
230
-1
100
AcDbArc
50
192.667517
51
224.999994
0
ARC
5
95
100
AcDbEntity
8
1
62
256
6
ByLayer
370
-1
48
1
60
0
100
AcDbCircle
39
0
10
-21.5
20
-3.97
30
0
40
1.1
210
0
220
0
230
-1
100
AcDbArc
50
224.999994
51
114.783757
0
ARC
5
96
100
AcDbEntity
8
1
62
256
6
ByLayer
370
-1
48
1
60
0
100
AcDbCircle
39
0
10
20.200962
20
3.22
30
0
40
2.1
210
0
220
0
230
1
100
AcDbArc
50
182.536048
51
184.712988
0
ARC
5
97
100
AcDbEntity
8
1
62
256
6
ByLayer
370
-1
48
1
60
0
100
AcDbCircle
39
0
10
20.200962
20
3.22
30
0
40
2.1
210
0
220
0
230
1
100
AcDbArc
50
235.287012
51
237.463952
0
ARC
5
98
100
AcDbEntity
8
1
62
256
6
ByLayer
370
-1
48
1
60
0
100
AcDbCircle
39
0
10
21.326795
20
-3.87
30
0
40
1.1
210
0
220
0
230
1
100
AcDbArc
50
273.518098
51
242.988972
0
ARC
5
9C
100
AcDbEntity
8
1
62
256
6
ByLayer
370
-1
48
1
60
0
100
AcDbCircle
39
0
10
-21.5
20
3.97
30
0
40
3.5
210
0
220
0
230
-1
100
AcDbArc
50
180
51
257.788123
0
ARC
5
9D
100
AcDbEntity
8
1
62
256
6
ByLayer
370
-1
48
1
60
0
100
AcDbCircle
39
0
10
-21.5
20
3.97
30
0
40
3.5
210
0
220
0
230
-1
100
AcDbArc
50
294.013117
51
44.999986
0
ARC
5
9E
100
AcDbEntity
8
1
62
256
6
ByLayer
370
-1
48
1
60
0
100
AcDbCircle
39
0
10
-21.5
20
3.97
30
0
40
3.5
210
0
220
0
230
-1
100
AcDbArc
50
45.000002
51
135
0
ARC
5
9F
100
AcDbEntity
8
1
62
256
6
ByLayer
370
-1
48
1
60
0
100
AcDbCircle
39
0
10
-21.5
20
3.97
30
0
40
3.5
210
0
220
0
230
-1
100
AcDbArc
50
135
51
180.000007
0
ARC
5
A0
100
AcDbEntity
8
1
62
256
6
ByLayer
370
-1
48
1
60
0
100
AcDbCircle
39
0
10
21.5
20
-3.97
30
0
40
3.5
210
0
220
0
230
1
100
AcDbArc
50
224.246252
51
225.000002
0
ARC
5
A1
100
AcDbEntity
8
1
62
256
6
ByLayer
370
-1
48
1
60
0
100
AcDbCircle
39
0
10
21.5
20
-3.97
30
0
40
3.5
210
0
220
0
230
1
100
AcDbArc
50
225.000002
51
315
0
ARC
5
A2
100
AcDbEntity
8
1
62
256
6
ByLayer
370
-1
48
1
60
0
100
AcDbCircle
39
0
10
21.5
20
-3.97
30
0
40
3.5
210
0
220
0
230
1
100
AcDbArc
50
315
51
40.983744
0
ARC
5
A3
100
AcDbEntity
8
1
62
256
6
ByLayer
370
-1
48
1
60
0
100
AcDbCircle
39
0
10
21.5
20
-3.97
30
0
40
2.86228092201393
210
0
220
0
230
1
100
AcDbArc
50
233.01
51
315
0
ARC
5
A4
100
AcDbEntity
8
1
62
256
6
ByLayer
370
-1
48
1
60
0
100
AcDbCircle
39
0
10
21.5
20
-3.97
30
0
40
2.86228092201393
210
0
220
0
230
1
100
AcDbArc
50
315
51
22.612493
0
CIRCLE
5
89
100
AcDbEntity
8
1
62
256
6
ByLayer
370
-1
48
1
60
0
100
AcDbCircle
10
-21.5
20
3.97
30
0
40
1.725
39
0
210
0
220
0
230
-1
0
CIRCLE
5
91
100
AcDbEntity
8
1
62
256
6
ByLayer
370
-1
48
1
60
0
100
AcDbCircle
10
-21.5
20
3.97
30
0
40
1.1
39
0
210
0
220
0
230
-1
0
CIRCLE
5
92
100
AcDbEntity
8
1
62
256
6
ByLayer
370
-1
48
1
60
0
100
AcDbCircle
10
21.5
20
-3.97
30
0
40
0.8
39
0
210
0
220
0
230
1
0
CIRCLE
5
94
100
AcDbEntity
8
1
62
256
6
ByLayer
370
-1
48
1
60
0
100
AcDbCircle
10
-21.5
20
-3.97
30
0
40
1.1
39
0
210
0
220
0
230
-1
0
CIRCLE
5
99
100
AcDbEntity
8
1
62
256
6
ByLayer
370
-1
48
1
60
0
100
AcDbCircle
10
-21.5
20
3.97
30
0
40
1.8069682359764
39
0
210
0
220
0
230
-1
0
CIRCLE
5
9A
100
AcDbEntity
8
1
62
256
6
ByLayer
370
-1
48
1
60
0
100
AcDbCircle
10
-21.5
20
3.97
30
0
40
1.92136899166874
39
0
210
0
220
0
230
-1
0
CIRCLE
5
9B
100
AcDbEntity
8
1
62
256
6
ByLayer
370
-1
48
1
60
0
100
AcDbCircle
10
21.5
20
3.97
30
0
40
1.88645923221747
39
0
210
0
220
0
230
1
0
POINT
5
42
100
AcDbEntity
8
81
62
256
6
ByLayer
370
-1
48
1
60
0
100
AcDbPoint
10
25
20
7.5
30
0
39
0
210
0
220
0
230
1
50
360
0
POINT
5
44
100
AcDbEntity
8
80
62
256
6
ByLayer
370
-1
48
1
60
0
100
AcDbPoint
10
0
20
0
30
0
39
0
210
0
220
0
230
1
50
360
0
SPLINE
5
A5
100
AcDbEntity
8
1
62
256
6
ByLayer
370
-1
48
1
60
0
100
AcDbSpline
70
4
71
3
72
8
73
4
40
0
40
0
40
0
40
0
40
1
40
1
40
1
40
1
41
1
10
22.4377641643821
20
3.96853854290413
30
0
41
1
10
22.4311281593158
20
3.96952915789169
30
0
41
1
10
22.424491776399
20
3.97051982928426
30
0
41
1
10
22.417854990575
20
3.9715105608224
30
0
0
SPLINE
5
A6
100
AcDbEntity
8
1
62
256
6
ByLayer
370
-1
48
1
60
0
100
AcDbSpline
70
4
71
3
72
8
73
4
40
0
40
0
40
0
40
0
40
1
40
1
40
1
40
1
41
1
10
21.5015105608224
20
4.88785499057502
30
0
41
1
10
21.5005198292843
20
4.89449177639904
30
0
41
1
10
21.4995291578917
20
4.90112815931579
30
0
41
1
10
21.4985385429041
20
4.90776416438214
30
0
0
SPLINE
5
A7
100
AcDbEntity
8
1
62
256
6
ByLayer
370
-1
48
1
60
0
100
AcDbSpline
70
4
71
3
72
18
73
14
40
0
40
0
40
0
40
0
40
0.125
40
0.125
40
0.25
40
0.25
40
0.5
40
0.5
40
0.75
40
0.75
40
0.875
40
0.875
40
1
40
1
40
1
40
1
41
1
10
21.9602356793337
20
3.17586954158293
30
0
41
1
10
21.9527615909605
20
3.19483425261998
30
0
41
1
10
21.9529237400294
20
3.21614879532453
30
0
41
1
10
21.9606921466908
20
3.25840493372891
30
0
41
1
10
21.9684004251869
20
3.27935161298103
30
0
41
1
10
21.9980152780368
20
3.33986281780503
30
0
41
1
10
22.0264374975592
20
3.37751057155228
30
0
41
1
10
22.0924764113056
20
3.44355179600589
30
0
41
1
10
22.1301210374666
20
3.47197343042649
30
0
41
1
10
22.1906272088726
20
3.50159090382931
30
0
41
1
10
22.2115891475409
20
3.50930027835184
30
0
41
1
10
22.2537537850584
20
3.5170648212339
30
0
41
1
10
22.2751634093351
20
3.5172393304747
30
0
41
1
10
22.2941304584171
20
3.50976432066636
30
0
0
SPLINE
5
A8
100
AcDbEntity
8
1
62
256
6
ByLayer
370
-1
48
1
60
0
100
AcDbSpline
70
4
71
3
72
18
73
14
40
0
40
0
40
0
40
0
40
0.125000000000004
40
0.125000000000004
40
0.250000000000008
40
0.250000000000008
40
0.500000000000007
40
0.500000000000007
40
0.750000000000005
40
0.750000000000005
40
0.875000000000002
40
0.875000000000002
40
1
40
1
40
1
40
1
41
1
10
22.417854990575
20
3.9715105608224
30
0
41
1
10
22.3976940248549
20
3.97452016593962
30
0
41
1
10
22.3793161639372
20
3.98531786250476
30
0
41
1
10
22.3466054779439
20
4.01317356922269
30
0
41
1
10
22.3323192608346
20
4.03032247384576
30
0
41
1
10
22.2947224466684
20
4.0862252911551
30
0
41
1
10
22.2763296452891
20
4.12966353216717
30
0
41
1
10
22.2521557240884
20
4.21987552133666
30
0
41
1
10
22.2463641797436
20
4.26668754111836
30
0
41
1
10
22.2509677810839
20
4.33389615934308
30
0
41
1
10
22.2547722362342
20
4.35590441800363
30
0
41
1
10
22.2691302636083
20
4.3963023366762
30
0
41
1
10
22.2796839463109
20
4.41493086980566
30
0
41
1
10
22.2956410192395
20
4.42761931124136
30
0
0
SPLINE
5
A9
100
AcDbEntity
8
1
62
256
6
ByLayer
370
-1
48
1
60
0
100
AcDbSpline
70
4
71
3
72
8
73
4
40
0
40
0
40
0
40
0
40
1
40
1
40
1
40
1
41
1
10
20.6886031394343
20
3.49985225883739
30
0
41
1
10
20.6938547809077
20
3.50402815911514
30
0
41
1
10
20.6991067214065
20
3.50820429716629
30
0
41
1
10
20.7043589807605
20
3.51238068875864
30
0
0
SPLINE
5
AA
100
AcDbEntity
8
1
62
256
6
ByLayer
370
-1
48
1
60
0
100
AcDbSpline
70
4
71
3
72
8
73
4
40
0
40
0
40
0
40
0
40
1
40
1
40
1
40
1
41
1
10
21.4984894391776
20
3.052145009425
30
0
41
1
10
21.4994801707157
20
3.04550822360099
30
0
41
1
10
21.5004708421083
20
3.03887184068424
30
0
41
1
10
21.5014614570959
20
3.03223583561788
30
0
0
SPLINE
5
AB
100
AcDbEntity
8
1
62
256
6
ByLayer
370
-1
48
1
60
0
100
AcDbSpline
70
4
71
3
72
8
73
4
40
0
40
0
40
0
40
0
40
1
40
1
40
1
40
1
41
1
10
21.0423806887586
20
3.17435898076053
30
0
41
1
10
21.0382042971663
20
3.16910672140651
30
0
41
1
10
21.0340281591151
20
3.16385478090768
30
0
41
1
10
21.0298522588374
20
3.15860313943435
30
0
0
SPLINE
5
AC
100
AcDbEntity
8
1
62
256
6
ByLayer
370
-1
48
1
60
0
100
AcDbSpline
70
4
71
3
72
8
73
4
40
0
40
0
40
0
40
0
40
1
40
1
40
1
40
1
41
1
10
22.2941304584171
20
3.50976432066636
30
0
41
1
10
22.3003734493092
20
3.5073039264347
30
0
41
1
10
22.3066160612007
20
3.5048436815691
30
0
41
1
10
22.3128583176616
20
3.50238357678052
30
0
0
SPLINE
5
AD
100
AcDbEntity
8
1
62
256
6
ByLayer
370
-1
48
1
60
0
100
AcDbSpline
70
4
71
3
72
14
73
10
40
0
40
0
40
0
40
0
40
0.125000000000016
40
0.125000000000016
40
0.250000000000032
40
0.250000000000032
40
0.500000000000032
40
0.500000000000032
40
1
40
1
40
1
40
1
41
1
10
21.0298522588374
20
3.15860313943435
30
0
41
1
10
21.022819894434
20
3.14975530475766
30
0
41
1
10
21.0134266426041
20
3.14302854072048
30
0
41
1
10
20.9915640478386
20
3.13451485417724
30
0
41
1
10
20.9793144107481
20
3.13277592320907
30
0
41
1
10
20.9425863733089
20
3.13307733436898
30
0
41
1
10
20.9174555041856
20
3.14016296845452
30
0
41
1
10
20.8468077950211
20
3.17015454778766
30
0
41
1
10
20.8045681327279
20
3.20165011953787
30
0
41
1
10
20.7681091261329
20
3.23810912613288
30
0
0
SPLINE
5
AE
100
AcDbEntity
8
1
62
256
6
ByLayer
370
-1
48
1
60
0
100
AcDbSpline
70
4
71
3
72
20
73
16
40
0
40
0
40
0
40
0
40
0.125000000000001
40
0.125000000000001
40
0.250000000000001
40
0.250000000000001
40
0.500000000000002
40
0.500000000000002
40
0.625000000000002
40
0.625000000000002
40
0.750000000000001
40
0.750000000000001
40
0.875000000000001
40
0.875000000000001
40
1
40
1
40
1
40
1
41
1
10
20.7043589807605
20
3.51238068875864
30
0
41
1
10
20.7203421419605
20
3.52508987456909
30
0
41
1
10
20.7308705159828
20
3.54367791034949
30
0
41
1
10
20.7452674866659
20
3.5842293550734
30
0
41
1
10
20.7490463065172
20
3.60616301288164
30
0
41
1
10
20.7536368242346
20
3.67362150220489
30
0
41
1
10
20.7477892878903
20
3.72049301735737
30
0
41
1
10
20.7295719693881
20
3.78823006961238
30
0
41
1
10
20.7219769460371
20
3.81002508717518
30
0
41
1
10
20.7036275545505
20
3.8520127873083
30
0
41
1
10
20.6927377300561
20
3.8724086211374
30
0
41
1
10
20.6677914797462
20
3.90952440688201
30
0
41
1
10
20.6535186720115
20
3.92668257729568
30
0
41
1
10
20.6209224028873
20
3.95451668737462
30
0
41
1
10
20.6024311551954
20
3.96546114733056
30
0
41
1
10
20.582145009425
20
3.96848943917763
30
0
0
SPLINE
5
AF
100
AcDbEntity
8
1
62
256
6
ByLayer
370
-1
48
1
60
0
100
AcDbSpline
70
4
71
3
72
14
73
10
40
0
40
0
40
0
40
0
40
0.500000000000001
40
0.500000000000001
40
0.749999999999997
40
0.749999999999997
40
0.874999999999998
40
0.874999999999998
40
1
40
1
40
1
40
1
41
1
10
20.5002184734995
20
4.23789065263338
30
0
41
1
10
20.4868797507228
20
4.18810986152252
30
0
41
1
10
20.4807256034929
20
4.13573982823448
30
0
41
1
10
20.4900577107046
20
4.05963794802278
30
0
41
1
10
20.4964886682995
20
4.03428015121654
30
0
41
1
10
20.514617821915
20
4.00228695272671
30
0
41
1
10
20.5221546931085
20
3.99266255582185
30
0
41
1
10
20.5404126224236
20
3.97797182069047
30
0
41
1
10
20.5510593894762
20
3.97312742018488
30
0
41
1
10
20.5622358356179
20
3.97146145709587
30
0
0
SPLINE
5
B0
100
AcDbEntity
8
1
62
256
6
ByLayer
370
-1
48
1
60
0
100
AcDbSpline
70
4
71
3
72
14
73
10
40
0
40
0
40
0
40
0
40
0.124999999999992
40
0.124999999999992
40
0.249999999999985
40
0.249999999999985
40
0.499999999999995
40
0.499999999999995
40
1
40
1
40
1
40
1
41
1
10
22.3128583176616
20
3.50238357678052
30
0
41
1
10
22.3233724412219
20
3.49823730938368
30
0
41
1
10
22.3348706179496
20
3.49710838675722
30
0
41
1
10
22.3580610236807
20
3.50066661531369
30
0
41
1
10
22.3695389860723
20
3.50528547546514
30
0
41
1
10
22.4011956939457
20
3.52391052390618
30
0
41
1
10
22.4194168479829
20
3.54261229758788
30
0
41
1
10
22.4656037691719
20
3.60390962177217
30
0
41
1
10
22.48643660389
20
3.65230541816115
30
0
41
1
10
22.4997815265005
20
3.70210934736664
30
0
0
SPLINE
5
B1
100
AcDbEntity
8
1
62
256
6
ByLayer
370
-1
48
1
60
0
100
AcDbSpline
70
4
71
3
72
18
73
14
40
0
40
0
40
0
40
0
40
0.124999999999995
40
0.124999999999995
40
0.24999999999999
40
0.24999999999999
40
0.499999999999999
40
0.499999999999999
40
0.750000000000007
40
0.750000000000007
40
0.875000000000003
40
0.875000000000003
40
1
40
1
40
1
40
1
41
1
10
21.9576193112414
20
4.7656410192395
30
0
41
1
10
21.9449324338944
20
4.74968591331964
30
0
41
1
10
21.9263924239078
20
4.73916906718023
30
0
41
1
10
21.8859133312531
20
4.72476863549377
30
0
41
1
10
21.8639188356477
20
4.72097086086475
30
0
41
1
10
21.7967071686317
20
4.71636247335007
30
0
41
1
10
21.7498921477298
20
4.72215296061489
30
0
41
1
10
21.6596793127828
20
4.74632372533077
30
0
41
1
10
21.616243142277
20
4.76471411069187
30
0
41
1
10
21.5603405722112
20
4.80230525551377
30
0
41
1
10
21.5431830886933
20
4.81660413965182
30
0
41
1
10
21.5153764785499
20
4.8492375154423
30
0
41
1
10
21.5045205369759
20
4.86769153933099
30
0
41
1
10
21.5015105608224
20
4.88785499057499
30
0
0
SPLINE
5
B2
100
AcDbEntity
8
1
62
256
6
ByLayer
370
-1
48
1
60
0
100
AcDbSpline
70
4
71
3
72
14
73
10
40
0
40
0
40
0
40
0
40
0.124999999999989
40
0.124999999999989
40
0.249999999999977
40
0.249999999999977
40
0.499999999999985
40
0.499999999999985
40
1
40
1
40
1
40
1
41
1
10
21.5014614570959
20
3.03223583561788
30
0
41
1
10
21.5031277459796
20
3.02105720381763
30
0
41
1
10
21.5078991586699
20
3.01053502936108
30
0
41
1
10
21.5225758778578
20
2.99223066315216
30
0
41
1
10
21.5323149092813
20
2.98459988621301
30
0
41
1
10
21.5642730283147
20
2.96649689721497
30
0
41
1
10
21.5895798164375
20
2.96006780177333
30
0
41
1
10
21.6657583169596
20
2.9507174167932
30
0
41
1
10
21.7180867234279
20
2.95687355088901
30
0
41
1
10
21.7678906526334
20
2.9702184734995
30
0
0
SPLINE
5
B3
100
AcDbEntity
8
1
62
256
6
ByLayer
370
-1
48
1
60
0
100
AcDbSpline
70
4
71
3
72
8
73
4
40
0
40
0
40
0
40
0
40
1
40
1
40
1
40
1
41
1
10
21.0323835767805
20
4.78285831766155
30
0
41
1
10
21.0348436815691
20
4.77661606120068
30
0
41
1
10
21.0373039264347
20
4.77037344930923
30
0
41
1
10
21.0397643206664
20
4.7641304584171
30
0
0
SPLINE
5
B4
100
AcDbEntity
8
1
62
256
6
ByLayer
370
-1
48
1
60
0
100
AcDbSpline
70
4
71
3
72
14
73
10
40
0
40
0
40
0
40
0
40
0.499999999999999
40
0.499999999999999
40
0.749999999999984
40
0.749999999999984
40
0.874999999999992
40
0.874999999999992
40
1
40
1
40
1
40
1
41
1
10
22.2318908738671
20
4.70189087386714
30
0
41
1
10
22.195448805533
20
4.73833294220128
30
0
41
1
10
22.1531720999235
20
4.76984760668503
30
0
41
1
10
22.0825998847785
20
4.79981670487464
30
0
41
1
10
22.0574239097629
20
4.80692623062995
30
0
41
1
10
22.0206524103146
20
4.80722252229469
30
0
41
1
10
22.0085490025022
20
4.80550759882854
30
0
41
1
10
21.9866974880206
20
4.79704113578683
30
0
41
1
10
21.9771787305903
20
4.79024296530389
30
0
41
1
10
21.9701477411626
20
4.78139686056568
30
0
0
SPLINE
5
B5
100
AcDbEntity
8
1
62
256
6
ByLayer
370
-1
48
1
60
0
100
AcDbSpline
70
4
71
3
72
14
73
10
40
0
40
0
40
0
40
0
40
0.124999999999996
40
0.124999999999996
40
0.249999999999992
40
0.249999999999992
40
0.499999999999993
40
0.499999999999993
40
1
40
1
40
1
40
1
41
1
10
22.3113968605657
20
4.44014774116263
30
0
41
1
10
22.3202446952424
20
4.44718010556608
30
0
41
1
10
22.3269714592796
20
4.45657335739614
30
0
41
1
10
22.3354851458228
20
4.47843595216156
30
0
41
1
10
22.337224076791
20
4.49068558925214
30
0
41
1
10
22.336922665631
20
4.52741362669124
30
0
41
1
10
22.3298370315454
20
4.55254449581454
30
0
41
1
10
22.2998454522123
20
4.62319220497895
30
0
41
1
10
22.2683498804621
20
4.66543186727216
30
0
41
1
10
22.2318908738671
20
4.70189087386714
30
0
0
SPLINE
5
B6
100
AcDbEntity
8
1
62
256
6
ByLayer
370
-1
48
1
60
0
100
AcDbSpline
70
4
71
3
72
14
73
10
40
0
40
0
40
0
40
0
40
0.499999999999997
40
0.499999999999997
40
0.749999999999999
40
0.749999999999999
40
0.874999999999999
40
0.874999999999999
40
1
40
1
40
1
40
1
41
1
10
21.2321093473666
20
4.9697815265005
30
0
41
1
10
21.1823285562558
20
4.95644280372377
30
0
41
1
10
21.1338977034163
20
4.93558743491948
30
0
41
1
10
21.0726575954832
20
4.88945465289743
30
0
41
1
10
21.0539125780623
20
4.87120638184649
30
0
41
1
10
21.0352702322296
20
4.8395094750214
30
0
41
1
10
21.0307036956106
20
4.82817015465039
30
0
41
1
10
21.0271101104441
20
4.80501295647727
30
0
41
1
10
21.0282381200665
20
4.79337038548877
30
0
41
1
10
21.0323835767805
20
4.78285831766155
30
0
0
SPLINE
5
B7
100
AcDbEntity
8
1
62
256
6
ByLayer
370
-1
48
1
60
0
100
AcDbSpline
70
4
71
3
72
18
73
14
40
0
40
0
40
0
40
0
40
0.125
40
0.125
40
0.249999999999999
40
0.249999999999999
40
0.499999999999999
40
0.499999999999999
40
0.75
40
0.75
40
0.875
40
0.875
40
1
40
1
40
1
40
1
41
1
10
21.4984894391776
20
3.05214500942503
30
0
41
1
10
21.4954590541493
20
3.07244517715279
30
0
41
1
10
21.4844786313807
20
3.09096383393322
30
0
41
1
10
21.4567425621239
20
3.12345155783163
30
0
41
1
10
21.439520932672
20
3.13778845752228
30
0
41
1
10
21.3840165314616
20
3.17511010727301
30
0
41
1
10
21.3407460430054
20
3.19352230704408
30
0
41
1
10
21.2504446422346
20
3.21779646880151
30
0
41
1
10
21.2035595196351
20
3.22362713640194
30
0
41
1
10
21.1362522062363
20
3.21905510751023
30
0
41
1
10
21.1142096943127
20
3.21525712872523
30
0
41
1
10
21.0737469939118
20
3.20089841636658
30
0
41
1
10
21.0550862397516
20
3.19033757078825
30
0
41
1
10
21.0423806887587
20
3.17435898076056
30
0
0
SPLINE
5
B8
100
AcDbEntity
8
1
62
256
6
ByLayer
370
-1
48
1
60
0
100
AcDbSpline
70
4
71
3
72
18
73
14
40
0
40
0
40
0
40
0
40
0.125
40
0.125
40
0.25
40
0.25
40
0.499999999999999
40
0.499999999999999
40
0.749999999999998
40
0.749999999999998
40
0.874999999999999
40
0.874999999999999
40
1
40
1
40
1
40
1
41
1
10
21.0397643206664
20
4.7641304584171
30
0
41
1
10
21.0472384090396
20
4.74516574738004
30
0
41
1
10
21.0470762599706
20
4.7238512046755
30
0
41
1
10
21.0393078533092
20
4.68159506627112
30
0
41
1
10
21.0315995748132
20
4.66064838701899
30
0
41
1
10
21.0019847219633
20
4.600137182195
30
0
41
1
10
20.9735625024408
20
4.56248942844775
30
0
41
1
10
20.9075235886944
20
4.49644820399413
30
0
41
1
10
20.8698789625334
20
4.46802656957351
30
0
41
1
10
20.8093727911274
20
4.43840909617069
30
0
41
1
10
20.7884108524591
20
4.43069972164818
30
0
41
1
10
20.7462462149416
20
4.42293517876612
30
0
41
1
10
20.724836590665
20
4.42276066952533
30
0
41
1
10
20.7058695415829
20
4.43023567933363
30
0
0
SPLINE
5
B9
100
AcDbEntity
8
1
62
256
6
ByLayer
370
-1
48
1
60
0
100
AcDbSpline
70
4
71
3
72
8
73
4
40
0
40
0
40
0
40
0
40
1
40
1
40
1
40
1
41
1
10
21.9676164232195
20
3.15714168233848
30
0
41
1
10
21.9651563184309
20
3.16338393879934
30
0
41
1
10
21.9626960735653
20
3.16962655069077
30
0
41
1
10
21.9602356793337
20
3.17586954158293
30
0
0
SPLINE
5
BA
100
AcDbEntity
8
1
62
256
6
ByLayer
370
-1
48
1
60
0
100
AcDbSpline
70
4
71
3
72
8
73
4
40
0
40
0
40
0
40
0
40
1
40
1
40
1
40
1
41
1
10
22.2956410192395
20
4.42761931124136
30
0
41
1
10
22.3008932785935
20
4.43179570283371
30
0
41
1
10
22.3061452190923
20
4.43597184088489
30
0
41
1
10
22.3113968605657
20
4.44014774116263
30
0
0
SPLINE
5
BB
100
AcDbEntity
8
1
62
256
6
ByLayer
370
-1
48
1
60
0
100
AcDbSpline
70
4
71
3
72
8
73
4
40
0
40
0
40
0
40
0
40
1
40
1
40
1
40
1
41
1
10
21.9701477411626
20
4.78139686056568
30
0
41
1
10
21.9659718408849
20
4.77614521909234
30
0
41
1
10
21.9617957028337
20
4.77089327859349
30
0
41
1
10
21.9576193112414
20
4.7656410192395
30
0
0
SPLINE
5
BC
100
AcDbEntity
8
1
62
256
6
ByLayer
370
-1
48
1
60
0
100
AcDbSpline
70
4
71
3
72
14
73
10
40
0
40
0
40
0
40
0
40
0.500000000000007
40
0.500000000000007
40
0.750000000000003
40
0.750000000000003
40
0.875000000000002
40
0.875000000000002
40
1
40
1
40
1
40
1
41
1
10
20.7681091261329
20
3.23810912613288
30
0
41
1
10
20.7316670577987
20
3.27455119446699
30
0
41
1
10
20.700152393315
20
3.31682790007645
30
0
41
1
10
20.6701832951253
20
3.38740011522154
30
0
41
1
10
20.66307376937
20
3.41257609023717
30
0
41
1
10
20.6627774777053
20
3.4493475896854
30
0
41
1
10
20.6644924011715
20
3.46145099749785
30
0
41
1
10
20.6729588642132
20
3.48330251197947
30
0
41
1
10
20.6797570346961
20
3.49282126940969
30
0
41
1
10
20.6886031394343
20
3.49985225883739
30
0
0
SPLINE
5
BD
100
AcDbEntity
8
1
62
256
6
ByLayer
370
-1
48
1
60
0
100
AcDbSpline
70
4
71
3
72
14
73
10
40
0
40
0
40
0
40
0
40
0.499999999999996
40
0.499999999999996
40
0.750000000000006
40
0.750000000000006
40
0.875000000000003
40
0.875000000000003
40
1
40
1
40
1
40
1
41
1
10
21.7678906526334
20
2.9702184734995
30
0
41
1
10
21.8176714437442
20
2.98355719627625
30
0
41
1
10
21.8661022965837
20
3.00441256508051
30
0
41
1
10
21.9273424045169
20
3.05054534710257
30
0
41
1
10
21.9460874219377
20
3.06879361815353
30
0
41
1
10
21.9647297677704
20
3.1004905249786
30
0
41
1
10
21.9692963043894
20
3.11182984534963
30
0
41
1
10
21.9728898895559
20
3.13498704352273
30
0
41
1
10
21.9717618799335
20
3.14662961451123
30
0
41
1
10
21.9676164232195
20
3.15714168233848
30
0
0
SPLINE
5
BE
100
AcDbEntity
8
1
62
256
6
ByLayer
370
-1
48
1
60
0
100
AcDbSpline
70
4
71
3
72
8
73
4
40
0
40
0
40
0
40
0
40
1
40
1
40
1
40
1
41
1
10
20.5622358356179
20
3.97146145709587
30
0
41
1
10
20.5688718406842
20
3.97047084210834
30
0
41
1
10
20.575508223601
20
3.96948017071574
30
0
41
1
10
20.582145009425
20
3.96848943917763
30
0
0
SPLINE
5
BF
100
AcDbEntity
8
1
62
256
6
ByLayer
370
-1
48
1
60
0
100
AcDbSpline
70
4
71
3
72
14
73
10
40
0
40
0
40
0
40
0
40
0.124999999999988
40
0.124999999999988
40
0.249999999999976
40
0.249999999999976
40
0.499999999999979
40
0.499999999999979
40
1
40
1
40
1
40
1
41
1
10
20.6871416823385
20
4.43761642321951
30
0
41
1
10
20.6766275587781
20
4.44176269061632
30
0
41
1
10
20.6651293820504
20
4.44289161324281
30
0
41
1
10
20.6419389763194
20
4.43933338468631
30
0
41
1
10
20.6304610139277
20
4.43471452453488
30
0
41
1
10
20.5988043060543
20
4.41608947609382
30
0
41
1
10
20.5805831520171
20
4.39738770241215
30
0
41
1
10
20.5343962308281
20
4.33609037822785
30
0
41
1
10
20.51356339611
20
4.28769458183885
30
0
41
1
10
20.5002184734995
20
4.23789065263338
30
0
0
SPLINE
5
C0
100
AcDbEntity
8
1
62
256
6
ByLayer
370
-1
48
1
60
0
100
AcDbSpline
70
4
71
3
72
14
73
10
40
0
40
0
40
0
40
0
40
0.124999999999994
40
0.124999999999994
40
0.249999999999987
40
0.249999999999987
40
0.500000000000002
40
0.500000000000002
40
1
40
1
40
1
40
1
41
1
10
21.4985385429041
20
4.90776416438214
30
0
41
1
10
21.4968722540205
20
4.91894279618239
30
0
41
1
10
21.4921008413301
20
4.92946497063892
30
0
41
1
10
21.4774241221422
20
4.94776933684787
30
0
41
1
10
21.4676850907187
20
4.95540011378702
30
0
41
1
10
21.4357269716853
20
4.97350310278506
30
0
41
1
10
21.4104201835625
20
4.97993219822669
30
0
41
1
10
21.3342416830404
20
4.9892825832068
30
0
41
1
10
21.2819132765721
20
4.98312644911101
30
0
41
1
10
21.2321093473666
20
4.9697815265005
30
0
0
SPLINE
5
C1
100
AcDbEntity
8
1
62
256
6
ByLayer
370
-1
48
1
60
0
100
AcDbSpline
70
4
71
3
72
8
73
4
40
0
40
0
40
0
40
0
40
1
40
1
40
1
40
1
41
1
10
20.7058695415829
20
4.43023567933366
30
0
41
1
10
20.6996265506908
20
4.43269607356532
30
0
41
1
10
20.6933839387993
20
4.4351563184309
30
0
41
1
10
20.6871416823385
20
4.43761642321951
30
0
0
SPLINE
5
C2
100
AcDbEntity
8
1
62
256
6
ByLayer
370
-1
48
1
60
0
100
AcDbSpline
70
4
71
3
72
14
73
10
40
0
40
0
40
0
40
0
40
0.500000000000006
40
0.500000000000006
40
0.750000000000006
40
0.750000000000006
40
0.875000000000003
40
0.875000000000003
40
1
40
1
40
1
40
1
41
1
10
22.4997815265005
20
3.70210934736664
30
0
41
1
10
22.5131202492773
20
3.75189013847751
30
0
41
1
10
22.5192743965072
20
3.80426017176552
30
0
41
1
10
22.5099422892954
20
3.88036205197721
30
0
41
1
10
22.5035113317005
20
3.90571984878349
30
0
41
1
10
22.485382178085
20
3.93771304727329
30
0
41
1
10
22.4778453068915
20
3.94733744417815
30
0
41
1
10
22.4595873775764
20
3.96202817930956
30
0
41
1
10
22.4489406105238
20
3.96687257981512
30
0
41
1
10
22.4377641643821
20
3.96853854290413
30
0
0
SPLINE
5
C3
100
AcDbEntity
8
1
62
256
6
ByLayer
370
-1
48
1
60
0
100
AcDbSpline
70
4
71
3
72
8
73
4
40
0
40
0
40
0
40
0
40
1
40
1
40
1
40
1
41
1
10
23.2923154040554
20
0.870000000000005
30
0
41
1
10
23.3005236921332
20
0.911410020449495
30
0
41
1
10
23.3092541393237
20
0.952826578513424
30
0
41
1
10
23.318455863934
20
0.994172447132257
30
0
0
SPLINE
5
C4
100
AcDbEntity
8
1
62
256
6
ByLayer
370
-1
48
1
60
0
100
AcDbSpline
70
4
71
3
72
14
73
10
40
0
40
0
40
0
40
0
40
0.25
40
0.25
40
0.5
40
0.5
40
0.75
40
0.75
40
1
40
1
40
1
40
1
41
1
10
22.5732233047034
20
-4.65206113088033
30
0
41
1
10
22.4863490199329
20
-4.70688375219322
30
0
41
1
10
22.3957891364367
20
-4.75568197365064
30
0
41
1
10
22.2065711039069
20
-4.84004116710807
30
0
41
1
10
22.108167805363
20
-4.87531033117955
30
0
41
1
10
21.9095312853869
20
-4.92943662386495
30
0
41
1
10
21.8085236469112
20
-4.94867523149253
30
0
41
1
10
21.6029901197113
20
-4.9708572911733
30
0
41
1
10
21.4975306549767
20
-4.97363416484984
30
0
41
1
10
21.3942951085767
20
-4.96792701234619
30
0
0
SPLINE
5
C5
100
AcDbEntity
8
1
62
256
6
ByLayer
370
-1
48
1
60
0
100
AcDbSpline
70
4
71
3
72
12
73
8
40
0
40
0
40
0
40
0
40
0.5
40
0.5
40
0.75
40
0.75
40
1
40
1
40
1
40
1
41
1
10
20.0732233047034
20
-3.86393398282249
30
0
41
1
10
20.0732233047033
20
-3.76963876121752
30
0
41
1
10
20.0838087381337
20
-3.67732545229643
30
0
41
1
10
20.1143329742603
20
-3.54268334572754
30
0
41
1
10
20.1269636592539
20
-3.49846703333287
30
0
41
1
10
20.1569608559068
20
-3.41178894964483
30
0
41
1
10
20.1744301940587
20
-3.36913241216055
30
0
41
1
10
20.1938558127713
20
-3.32818304426271
30
0
0
SPLINE
5
C6
100
AcDbEntity
8
1
62
256
6
ByLayer
370
-1
48
1
60
0
100
AcDbSpline
70
4
71
3
72
10
73
6
40
0
40
0
40
0
40
0
40
0.5
40
0.5
40
1
40
1
40
1
40
1
41
1
10
20.1938558127713
20
-4.48372656170568
30
0
41
1
10
20.1749621721471
20
-4.46822632720188
30
0
41
1
10
20.1555030160619
20
-4.45340684520375
30
0
41
1
10
20.1153371542782
20
-4.42526964832729
30
0
41
1
10
20.0946106488135
20
-4.4119395795457
30
0
41
1
10
20.0732233047034
20
-4.39947941408155
30
0
0
SPLINE
5
C7
100
AcDbEntity
8
1
62
256
6
ByLayer
370
-1
48
1
60
0
100
AcDbSpline
70
4
71
3
72
10
73
6
40
0
40
0
40
0
40
0
40
0.5
40
0.5
40
1
40
1
40
1
40
1
41
1
10
20.1938558127715
20
0.799999999999983
30
0
41
1
10
20.121222548824
20
0.799999999999983
30
0
41
1
10
20.0443114783772
20
0.799999999999983
30
0
41
1
10
19.882264380686
20
0.799999999999983
30
0
41
1
10
19.8003468721218
20
0.799999999999983
30
0
41
1
10
19.7175606637254
20
0.799999999999983
30
0
0
SPLINE
5
C8
100
AcDbEntity
8
1
62
256
6
ByLayer
370
-1
48
1
60
0
100
AcDbSpline
70
4
71
3
72
12
73
8
40
0
40
0
40
0
40
0
40
0.500000000000001
40
0.500000000000001
40
0.75
40
0.75
40
1
40
1
40
1
40
1
41
1
10
20.1938558127713
20
-6.35998458175374
30
0
41
1
10
20.1213364360362
20
-6.31804155785827
30
0
41
1
10
20.0444803384604
20
-6.2858629947101
30
0
41
1
10
19.9243326505423
20
-6.25312681525713
30
0
41
1
10
19.883061527405
20
-6.24474819506949
30
0
41
1
10
19.8003116655447
20
-6.2336691824346
30
0
41
1
10
19.7589363517598
20
-6.23093090958338
30
0
41
1
10
19.7175606637254
20
-6.23093090958338
30
0
0
SPLINE
5
C9
100
AcDbEntity
8
1
62
256
6
ByLayer
370
-1
48
1
60
0
100
AcDbSpline
70
4
71
3
72
8
73
4
40
0
40
0
40
0
40
0
40
1
40
1
40
1
40
1
41
1
10
23.0834894040553
20
0.870000000000005
30
0
41
1
10
23.1523461414817
20
0.870000000000005
30
0
41
1
10
23.2221193757801
20
0.870000000000005
30
0
41
1
10
23.2923154040554
20
0.870000000000005
30
0
0
SPLINE
5
CA
100
AcDbEntity
8
1
62
256
6
ByLayer
370
-1
48
1
60
0
100
AcDbSpline
70
4
71
3
72
14
73
10
40
0
40
0
40
0
40
0
40
0.125000000000001
40
0.125000000000001
40
0.250000000000002
40
0.250000000000002
40
0.500000000000001
40
0.500000000000001
40
1
40
1
40
1
40
1
41
1
10
5.40000000000001
20
3.03685692781207
30
0
41
1
10
5.42061824258289
20
3.03685692781207
30
0
41
1
10
5.44119009981452
20
3.03127463972805
30
0
41
1
10
5.47689352317158
20
3.01299071409272
30
0
41
1
10
5.49212177015053
20
3.00070117144378
30
0
41
1
10
5.53156683774347
20
2.95958230820887
30
0
41
1
10
5.54968066574003
20
2.9269014991412
30
0
41
1
10
5.59030168846584
20
2.82609477340867
30
0
41
1
10
5.59999999999999
20
2.75327370047356
30
0
41
1
10
5.59999999999999
20
2.68001865665147
30
0
0
SPLINE
5
CB
100
AcDbEntity
8
1
62
256
6
ByLayer
370
-1
48
1
60
0
100
AcDbSpline
70
4
71
3
72
10
73
6
40
0
40
0
40
0
40
0
40
0.5
40
0.5
40
1
40
1
40
1
40
1
41
1
10
18.1080624409099
20
3.04745470768023
30
0
41
1
10
18.1334462471956
20
2.73956016250483
30
0
41
1
10
18.2278389793326
20
2.43754913834238
30
0
41
1
10
18.5367781134194
20
1.90245086165763
30
0
41
1
10
18.7511309664986
20
1.66969884561314
30
0
41
1
10
19.0050835611643
20
1.49376855193725
30
0
0
SPLINE
5
CC
100
AcDbEntity
8
1
62
256
6
ByLayer
370
-1
48
1
60
0
100
AcDbSpline
70
4
71
3
72
12
73
8
40
0
40
0
40
0
40
0
40
0.249999999999997
40
0.249999999999997
40
0.499999999999994
40
0.499999999999994
40
1
40
1
40
1
40
1
41
1
10
20.8272167386398
20
-4.85001104150527
30
0
41
1
10
20.769576590143
20
-4.82884361720988
30
0
41
1
10
20.7123744936707
20
-4.80482941650416
30
0
41
1
10
20.6013621898112
20
-4.75236999111172
30
0
41
1
10
20.5472829296736
20
-4.7238440853977
30
0
41
1
10
20.3890804754032
20
-4.6317726118518
30
0
41
1
10
20.2889749275963
20
-4.56176173845694
30
0
41
1
10
20.1938558127713
20
-4.48372656170571
30
0
0
SPLINE
5
CD
100
AcDbEntity
8
1
62
256
6
ByLayer
370
-1
48
1
60
0
100
AcDbSpline
70
4
71
3
72
40
73
36
40
0
40
0
40
0
40
0
40
0.124999999999999
40
0.124999999999999
40
0.187499999999997
40
0.187499999999997
40
0.249999999999996
40
0.249999999999996
40
0.312499999999995
40
0.312499999999995
40
0.343749999999994
40
0.343749999999994
40
0.374999999999993
40
0.374999999999993
40
0.437499999999992
40
0.437499999999992
40
0.499999999999991
40
0.499999999999991
40
0.531249999999992
40
0.531249999999992
40
0.562499999999993
40
0.562499999999993
40
0.624999999999994
40
0.624999999999994
40
0.687499999999995
40
0.687499999999995
40
0.749999999999996
40
0.749999999999996
40
0.812499999999997
40
0.812499999999997
40
0.874999999999998
40
0.874999999999998
40
0.937499999999999
40
0.937499999999999
40
1
40
1
40
1
40
1
41
1
10
20.1938558127713
20
-3.32818304426286
30
0
41
1
10
20.2475634380675
20
-3.21496691767712
30
0
41
1
10
20.3172923785781
20
-3.11057036281738
30
0
41
1
10
20.4499368272181
20
-2.96721263744041
30
0
41
1
10
20.499349505758
20
-2.92141638442746
30
0
41
1
10
20.6062554462139
20
-2.83774464855418
30
0
41
1
10
20.6639290202399
20
-2.79955119685218
30
0
41
1
10
20.7891852818871
20
-2.73151044951763
30
0
41
1
10
20.8571034048635
20
-2.7016950702434
30
0
41
1
10
20.9632775344218
20
-2.66629847683907
30
0
41
1
10
20.9995427094004
20
-2.65596381718655
30
0
41
1
10
21.0739553391829
20
-2.63844366045862
30
0
41
1
10
21.112365883269
20
-2.63122465844975
30
0
41
1
10
21.2287131906612
20
-2.61505434065589
30
0
41
1
10
21.3069431770707
20
-2.61154547885434
30
0
41
1
10
21.4647574845502
20
-2.6194621738359
30
0
41
1
10
21.5447668607088
20
-2.63123296165455
30
0
41
1
10
21.658862411077
20
-2.65920175988973
30
0
41
1
10
21.6962055304987
20
-2.6702459182344
30
0
41
1
10
21.7695563237168
20
-2.69569009885063
30
0
41
1
10
21.8057055770894
20
-2.71017203550733
30
0
41
1
10
21.9099111177249
20
-2.75753418753783
30
0
41
1
10
21.9744785271025
20
-2.7944749547251
30
0
41
1
10
22.0950444412825
20
-2.8779481256162
30
0
41
1
10
22.1500412706398
20
-2.92387777498189
30
0
41
1
10
22.2491897387895
20
-3.0213666053146
30
0
41
1
10
22.2937031777881
20
-3.07319873496124
30
0
41
1
10
22.3735095665974
20
-3.18276426509473
30
0
41
1
10
22.4083095861522
20
-3.23993051408158
30
0
41
1
10
22.4675979366612
20
-3.3567858102729
30
0
41
1
10
22.4923107047748
20
-3.41679314301234
30
0
41
1
10
22.5322842213477
20
-3.54009454810986
30
0
41
1
10
22.5475839692421
20
-3.60374210620876
30
0
41
1
10
22.5680220085285
20
-3.73265170496092
30
0
41
1
10
22.5732233047051
20
-3.79786711049005
30
0
41
1
10
22.5732233047051
20
-3.86393398282175
30
0
0
SPLINE
5
CE
100
AcDbEntity
8
1
62
256
6
ByLayer
370
-1
48
1
60
0
100
AcDbSpline
70
4
71
3
72
30
73
26
40
0
40
0
40
0
40
0
40
0.125
40
0.125
40
0.25
40
0.25
40
0.374999999999999
40
0.374999999999999
40
0.437499999999999
40
0.437499999999999
40
0.499999999999999
40
0.499999999999999
40
0.562499999999999
40
0.562499999999999
40
0.625
40
0.625
40
0.75
40
0.75
40
0.8125
40
0.8125
40
0.875
40
0.875
40
0.9375
40
0.9375
40
1
40
1
40
1
40
1
41
1
10
24.1423
20
-4.52558378114097
30
0
41
1
10
24.091665567552
20
-4.73158681873653
30
0
41
1
10
24.0219763750793
20
-4.93004070853539
30
0
41
1
10
23.8420419814875
20
-5.31088093845432
30
0
41
1
10
23.7301988789487
20
-5.49475058159626
30
0
41
1
10
23.4731200978755
20
-5.82745812687998
30
0
41
1
10
23.3273853735367
20
-5.97843984739225
30
0
41
1
10
23.0810244214149
20
-6.18009693262113
30
0
41
1
10
22.9943995624215
20
-6.24286928235381
30
0
41
1
10
22.816565304008
20
-6.3563362315401
30
0
41
1
10
22.7247879687874
20
-6.40752090907617
30
0
41
1
10
22.5355032478698
20
-6.49877397145269
30
0
41
1
10
22.4379968609307
20
-6.53884429388242
30
0
41
1
10
22.2370126846249
20
-6.60740042348155
30
0
41
1
10
22.1338030251002
20
-6.63567745172159
30
0
41
1
10
21.8239114843665
20
-6.70056852038195
30
0
41
1
10
21.614185387808
20
-6.71855269139931
30
0
41
1
10
21.294740282234
20
-6.70633602426184
30
0
41
1
10
21.1889261289852
20
-6.69567325566294
30
0
41
1
10
20.9808075670088
20
-6.66183740921454
30
0
41
1
10
20.878138861771
20
-6.63865043448692
30
0
41
1
10
20.6755707162763
20
-6.57979196932976
30
0
41
1
10
20.5752030369257
20
-6.54391473104229
30
0
41
1
10
20.3794895987458
20
-6.46015149151629
30
0
41
1
10
20.2850410604547
20
-6.41272338336347
30
0
41
1
10
20.1938558127713
20
-6.35998458175374
30
0
0
SPLINE
5
CF
100
AcDbEntity
8
1
62
256
6
ByLayer
370
-1
48
1
60
0
100
AcDbSpline
70
4
71
3
72
16
73
12
40
0
40
0
40
0
40
0
40
0.249999999999998
40
0.249999999999998
40
0.499999999999996
40
0.499999999999996
40
0.749999999999995
40
0.749999999999995
40
0.874999999999997
40
0.874999999999997
40
1
40
1
40
1
40
1
41
1
10
5.59999999999999
20
-2.68001865665147
30
0
41
1
10
5.59999999999999
20
-2.71669013080799
30
0
41
1
10
5.59737994874311
20
-2.75276791032604
30
0
41
1
10
5.58591651195198
20
-2.82362112107009
30
0
41
1
10
5.5771736941833
20
-2.85841047571444
30
0
41
1
10
5.55005413828118
20
-2.92623041866844
30
0
41
1
10
5.53215768279085
20
-2.95874241477421
30
0
41
1
10
5.49271360781842
20
-3.00019247607642
30
0
41
1
10
5.47722852506502
20
-3.01277679156422
30
0
41
1
10
5.44134234255822
20
-3.0312384702921
30
0
41
1
10
5.42082863727003
20
-3.03685692781207
30
0
41
1
10
5.40000000000001
20
-3.03685692781207
30
0
0
SPLINE
5
D0
100
AcDbEntity
8
1
62
256
6
ByLayer
370
-1
48
1
60
0
100
AcDbSpline
70
4
71
3
72
12
73
8
40
0
40
0
40
0
40
0
40
0.250000000000005
40
0.250000000000005
40
0.500000000000009
40
0.500000000000009
40
1
40
1
40
1
40
1
41
1
10
21.3942951085766
20
-4.96792701234648
30
0
41
1
10
21.3457939238206
20
-4.97090884913263
30
0
41
1
10
21.2964380292359
20
-4.97067518656488
30
0
41
1
10
21.1985626540273
20
-4.96360134109653
30
0
41
1
10
21.1502846805421
20
-4.95683554494283
30
0
41
1
10
21.0073804244885
20
-4.92709216486097
30
0
41
1
10
20.9133653125036
20
-4.89392681996722
30
0
41
1
10
20.8272167386405
20
-4.850011041502
30
0
0
SPLINE
5
D1
100
AcDbEntity
8
1
62
256
6
ByLayer
370
-1
48
1
60
0
100
AcDbSpline
70
4
71
3
72
12
73
8
40
0
40
0
40
0
40
0
40
0.5
40
0.5
40
0.75
40
0.75
40
1
40
1
40
1
40
1
41
1
10
21.5064700984472
20
0.799999999999983
30
0
41
1
10
21.2761987079025
20
0.799999999999983
30
0
41
1
10
21.050753358853
20
0.799999999999983
30
0
41
1
10
20.7195857156387
20
0.799999999999983
30
0
41
1
10
20.6096190698007
20
0.799999999999983
30
0
41
1
10
20.3965487317721
20
0.799999999999983
30
0
41
1
10
20.293503041844
20
0.799999999999983
30
0
41
1
10
20.1938558127714
20
0.799999999999983
30
0
0
SPLINE
5
D2
100
AcDbEntity
8
1
62
256
6
ByLayer
370
-1
48
1
60
0
100
AcDbSpline
70
4
71
3
72
42
73
38
40
0
40
0
40
0
40
0
40
0.126823160444452
40
0.126823160444452
40
0.190234740666677
40
0.190234740666677
40
0.22194053077779
40
0.22194053077779
40
0.253646320888903
40
0.253646320888903
40
0.380469481333355
40
0.380469481333355
40
0.443881061555581
40
0.443881061555581
40
0.507292641777807
40
0.507292641777807
40
0.570704222000033
40
0.570704222000033
40
0.602410012111146
40
0.602410012111146
40
0.634115802222259
40
0.634115802222259
40
0.697527382444485
40
0.697527382444485
40
0.729233172555598
40
0.729233172555598
40
0.760938962666711
40
0.760938962666711
40
0.824350542888937
40
0.824350542888937
40
0.856056333000051
40
0.856056333000051
40
0.887762123111164
40
0.887762123111164
40
0.95117370333339
40
0.95117370333339
40
1
40
1
40
1
40
1
41
1
10
19.3
20
0.799999999999983
30
0
41
1
10
18.6824173586914
20
0.799999999999983
30
0
41
1
10
18.077139493396
20
0.862897692169781
30
0
41
1
10
17.1869049441489
20
1.0463364438227
30
0
41
1
10
16.8931356299567
20
1.1224515910954
30
0
41
1
10
16.4570977826623
20
1.25944278142094
30
0
41
1
10
16.3125228987721
20
1.30891642666768
30
0
41
1
10
16.0249627947385
20
1.41563055538293
30
0
41
1
10
15.881649157574
20
1.47303762810259
30
0
41
1
10
15.1787642835356
20
1.77564872604046
30
0
41
1
10
14.653135713987
20
2.06954719492774
30
0
41
1
10
13.9209650582259
20
2.57820692894129
30
0
41
1
10
13.6863086082005
20
2.75914686497146
30
0
41
1
10
13.2369887226328
20
3.14214462744013
30
0
41
1
10
13.0280196705482
20
3.33934225326144
30
0
41
1
10
12.6398992333949
20
3.74022330838918
30
0
41
1
10
12.4607521930091
20
3.94392506876503
30
0
41
1
10
12.2134554733057
20
4.25039481471009
30
0
41
1
10
12.1344084469636
20
4.35298971690415
30
0
41
1
10
11.9859035471275
20
4.55408574153401
30
0
41
1
10
11.9160919075462
20
4.65299874787419
30
0
41
1
10
11.7189129367008
20
4.94386971267886
30
0
41
1
10
11.6037685914328
20
5.12997490929334
30
0
41
1
10
11.4518881985374
20
5.39347992036176
30
0
41
1
10
11.4046860016041
20
5.47880960469803
30
0
41
1
10
11.3169747735108
20
5.64308073220636
30
0
41
1
10
11.2769375960298
20
5.7211189506952
30
0
41
1
10
11.166842178938
20
5.94267610029814
30
0
41
1
10
11.1067221781388
20
6.07367801835557
30
0
41
1
10
11.0322918757943
20
6.24348181261286
30
0
41
1
10
11.0101269911993
20
6.29562422719883
30
0
41
1
10
10.9706258316649
20
6.39057629167186
30
0
41
1
10
10.9534104847194
20
6.4330959880491
30
0
41
1
10
10.909025414931
20
6.54455192610027
30
0
41
1
10
10.8887536959712
20
6.59809840935537
30
0
41
1
10
10.866823699694
20
6.65639194743736
30
0
41
1
10
10.8619573088117
20
6.66953680417532
30
0
41
1
10
10.8617998111766
20
6.66999681819021
30
0
0
SPLINE
5
D3
100
AcDbEntity
8
1
62
256
6
ByLayer
370
-1
48
1
60
0
100
AcDbSpline
70
4
71
3
72
18
73
14
40
0
40
0
40
0
40
0
40
0.0414099319545053
40
0.0414099319545053
40
0.360939954636337
40
0.360939954636337
40
0.520704965977253
40
0.520704965977253
40
0.680469977318169
40
0.680469977318169
40
0.840234988659084
40
0.840234988659084
40
1
40
1
40
1
40
1
41
1
10
23.1372832597209
20
-0.0080871248977985
30
0
41
1
10
23.1519400324376
20
0.0044256268739957
30
0
41
1
10
23.1665914750664
20
0.0171369419001905
30
0
41
1
10
23.2942205438499
20
0.129700068694547
30
0
41
1
10
23.4068500496972
20
0.241344592660369
30
0
41
1
10
23.5745084412294
20
0.434488915498576
30
0
41
1
10
23.6303839684438
20
0.503469641662889
30
0
41
1
10
23.7407090154085
20
0.651360701777406
30
0
41
1
10
23.7948922192062
20
0.729864383046817
30
0
41
1
10
23.9009092333087
20
0.898529602301039
30
0
41
1
10
23.953061659378
20
0.989342970765335
30
0
41
1
10
24.0518191757552
20
1.18165999552608
30
0
41
1
10
24.0986417857489
20
1.28335906343881
30
0
41
1
10
24.1423
20
1.39245347370641
30
0
0
SPLINE
5
D4
100
AcDbEntity
8
1
62
256
6
ByLayer
370
-1
48
1
60
0
100
AcDbSpline
70
4
71
3
72
16
73
12
40
0
40
0
40
0
40
0
40
0.125000000000001
40
0.125000000000001
40
0.250000000000001
40
0.250000000000001
40
0.500000000000001
40
0.500000000000001
40
0.75
40
0.75
40
1
40
1
40
1
40
1
41
1
10
2.09999999999999
20
-3.03685692781207
30
0
41
1
10
2.07928573160186
20
-3.03685692781207
30
0
41
1
10
2.05855457829011
20
-3.03117106583605
30
0
41
1
10
2.02304228610572
20
-3.01293041817542
30
0
41
1
10
2.00764611430105
20
-3.00049295089153
30
0
41
1
10
1.9683495045046
20
-2.95942690108552
30
0
41
1
10
1.95014777256634
20
-2.92657611619342
30
0
41
1
10
1.92310228615781
20
-2.85925708389911
30
0
41
1
10
1.91408764774883
20
-2.82371392658865
30
0
41
1
10
1.90255940491846
20
-2.75232564290613
30
0
41
1
10
1.90000000000001
20
-2.71631850332574
30
0
41
1
10
1.90000000000001
20
-2.68001865665147
30
0
0
SPLINE
5
D5
100
AcDbEntity
8
1
62
256
6
ByLayer
370
-1
48
1
60
0
100
AcDbSpline
70
4
71
3
72
28
73
24
40
0
40
0
40
0
40
0
40
0.124999999999999
40
0.124999999999999
40
0.249999999999999
40
0.249999999999999
40
0.374999999999998
40
0.374999999999998
40
0.437499999999999
40
0.437499999999999
40
0.499999999999999
40
0.499999999999999
40
0.624999999999998
40
0.624999999999998
40
0.687499999999998
40
0.687499999999998
40
0.749999999999997
40
0.749999999999997
40
0.874999999999999
40
0.874999999999999
40
0.937499999999999
40
0.937499999999999
40
1
40
1
40
1
40
1
41
1
10
24.1423
20
-1.39245347370641
30
0
41
1
10
24.1074829074654
20
-1.30545151445426
30
0
41
1
10
24.0648923015315
20
-1.20901067577699
30
0
41
1
10
23.9623943678248
20
-1.00599532270075
30
0
41
1
10
23.9020842408098
20
-0.898739735003545
30
0
41
1
10
23.7639405375937
20
-0.682685347865714
30
0
41
1
10
23.6859433602657
20
-0.573369651092406
30
0
41
1
10
23.5533577690897
20
-0.409665567096795
30
0
41
1
10
23.5065545926618
20
-0.355135453210266
30
0
41
1
10
23.4072053316981
20
-0.246474333327228
30
0
41
1
10
23.3545192394004
20
-0.192231827669417
30
0
41
1
10
23.1895868839574
20
-0.0331095892005351
30
0
41
1
10
23.0698655086882
20
0.0689637861256926
30
0
41
1
10
22.873502857022
20
0.214012198992322
30
0
41
1
10
22.8052396025619
20
0.261015123935948
30
0
41
1
10
22.662524145359
20
0.351908685092894
30
0
41
1
10
22.5883288202905
20
0.395592019324681
30
0
41
1
10
22.3606292664117
20
0.518725604881041
30
0
41
1
10
22.2007190386943
20
0.591194231091549
30
0
41
1
10
21.9472300621366
20
0.683495191300153
30
0
41
1
10
21.8602693308892
20
0.711527869836544
30
0
41
1
10
21.6849939882311
20
0.760712072583573
30
0
41
1
10
21.5962818271854
20
0.782025693812699
30
0
41
1
10
21.5064700984474
20
0.80000000000058
30
0
0
SPLINE
5
D6
100
AcDbEntity
8
1
62
256
6
ByLayer
370
-1
48
1
60
0
100
AcDbSpline
70
4
71
3
72
16
73
12
40
0
40
0
40
0
40
0
40
0.249999999999999
40
0.249999999999999
40
0.499999999999998
40
0.499999999999998
40
0.749999999999997
40
0.749999999999997
40
0.874999999999999
40
0.874999999999999
40
1
40
1
40
1
40
1
41
1
10
1.90000000000001
20
2.68001865665147
30
0
41
1
10
1.90000000000001
20
2.71633893006163
30
0
41
1
10
1.90256142528648
20
2.75238692779848
30
0
41
1
10
1.91412650257735
20
2.82390558728028
30
0
41
1
10
1.92313504910314
20
2.85937256971212
30
0
41
1
10
1.95021837992996
20
2.92671780003144
30
0
41
1
10
1.96832652018941
20
2.95949209719925
30
0
41
1
10
2.00801539472892
20
3.00083364530863
30
0
41
1
10
2.02304517536638
20
3.01293332017838
30
0
41
1
10
2.05856827583645
20
3.03117668288581
30
0
41
1
10
2.07931748782727
20
3.03685692781207
30
0
41
1
10
2.09999999999999
20
3.03685692781207
30
0
0
LINE
5
46
100
AcDbEntity
8
81
62
256
6
ByLayer
370
-1
48
1
60
0
100
AcDbLine
10
25
20
7.5
30
0
11
30
21
7.5
31
0
39
0
210
0
220
0
230
1
0
LINE
5
47
100
AcDbEntity
8
80
62
256
6
ByLayer
370
-1
48
1
60
0
100
AcDbLine
10
0
20
0
30
0
11
-5
21
0
31
0
39
0
210
0
220
0
230
1
0
LINE
5
48
100
AcDbEntity
8
SK4
62
256
6
ByLayer
370
-1
48
0.05
60
0
100
AcDbLine
10
30
20
0
30
0
11
-18.8
21
0
31
0
39
0
210
0
220
0
230
1
0
LINE
5
4A
100
AcDbEntity
8
1
62
256
6
ByLayer
370
-1
48
1
60
0
100
AcDbLine
10
7.9
20
-6.67
30
0
11
10.867014
21
-6.67
31
0
39
0
210
0
220
0
230
1
0
LINE
5
4C
100
AcDbEntity
8
1
62
256
6
ByLayer
370
-1
48
1
60
0
100
AcDbLine
10
10.867014
20
6.67
30
0
11
7.9
21
6.67
31
0
39
0
210
0
220
0
230
1
0
LINE
5
4D
100
AcDbEntity
8
1
62
256
6
ByLayer
370
-1
48
1
60
0
100
AcDbLine
10
7.5
20
5.85
30
0
11
0
21
5.85
31
0
39
0
210
0
220
0
230
1
0
LINE
5
4E
100
AcDbEntity
8
1
62
256
6
ByLayer
370
-1
48
1
60
0
100
AcDbLine
10
0
20
-5.85
30
0
11
7.5
21
-5.85
31
0
39
0
210
0
220
0
230
1
0
LINE
5
4F
100
AcDbEntity
8
1
62
256
6
ByLayer
370
-1
48
1
60
0
100
AcDbLine
10
-0.288484
20
4.603834
30
0
11
-2.5
21
4.518876
31
0
39
0
210
0
220
0
230
1
0
LINE
5
50
100
AcDbEntity
8
1
62
256
6
ByLayer
370
-1
48
1
60
0
100
AcDbLine
10
-2.5
20
-4.518876
30
0
11
-0.288484
21
-4.603834
31
0
39
0
210
0
220
0
230
1
0
LINE
5
51
100
AcDbEntity
8
1
62
256
6
ByLayer
370
-1
48
1
60
0
100
AcDbLine
10
-2.5
20
4.518876
30
0
11
-9.8
21
3.751615
31
0
39
0
210
0
220
0
230
1
0
LINE
5
52
100
AcDbEntity
8
1
62
256
6
ByLayer
370
-1
48
1
60
0
100
AcDbLine
10
-9.8
20
-3.751615
30
0
11
-2.5
21
-4.518876
31
0
39
0
210
0
220
0
230
1
0
LINE
5
53
100
AcDbEntity
8
1
62
256
6
ByLayer
370
-1
48
1
60
0
100
AcDbLine
10
-10.3
20
2.75
30
0
11
-13.6
21
2.75
31
0
39
0
210
0
220
0
230
1
0
LINE
5
54
100
AcDbEntity
8
1
62
256
6
ByLayer
370
-1
48
1
60
0
100
AcDbLine
10
-13.6
20
-2.75
30
0
11
-10.3
21
-2.75
31
0
39
0
210
0
220
0
230
1
0
LINE
5
55
100
AcDbEntity
8
1
62
256
6
ByLayer
370
-1
48
1
60
0
100
AcDbLine
10
-13.6
20
2.75
30
0
11
-13.8
21
2.55
31
0
39
0
210
0
220
0
230
1
0
LINE
5
56
100
AcDbEntity
8
1
62
256
6
ByLayer
370
-1
48
1
60
0
100
AcDbLine
10
-13.8
20
-2.55
30
0
11
-13.6
21
-2.75
31
0
39
0
210
0
220
0
230
1
0
LINE
5
57
100
AcDbEntity
8
1
62
256
6
ByLayer
370
-1
48
1
60
0
100
AcDbLine
10
24.1423
20
-4.525584
30
0
11
24.1423
21
-1.392453
31
0
39
0
210
0
220
0
230
1
0
LINE
5
58
100
AcDbEntity
8
1
62
256
6
ByLayer
370
-1
48
1
60
0
100
AcDbLine
10
18.961731
20
6.46641
30
0
11
18.82038
21
6.221582
31
0
39
0
210
0
220
0
230
1
0
LINE
5
59
100
AcDbEntity
8
1
62
256
6
ByLayer
370
-1
48
1
60
0
100
AcDbLine
10
22.8423
20
0.52359
30
0
11
22.338203
21
0.52359
31
0
39
0
210
0
220
0
230
1
0
LINE
5
5A
100
AcDbEntity
8
1
62
256
6
ByLayer
370
-1
48
1
60
0
100
AcDbLine
10
19.717561
20
-6.230931
30
0
11
19.097685
21
-6.230931
31
0
39
0
210
0
220
0
230
1
0
LINE
5
5B
100
AcDbEntity
8
1
62
256
6
ByLayer
370
-1
48
1
60
0
100
AcDbLine
10
2.1
20
-3.036857
30
0
11
2.1
21
3.036857
31
0
39
0
210
0
220
0
230
1
0
LINE
5
5C
100
AcDbEntity
8
1
62
256
6
ByLayer
370
-1
48
1
60
0
100
AcDbLine
10
-2.5
20
4.518876
30
0
11
-2.5
21
-4.518876
31
0
39
0
210
0
220
0
230
1
0
LINE
5
5D
100
AcDbEntity
8
1
62
256
6
ByLayer
370
-1
48
1
60
0
100
AcDbLine
10
20.193856
20
0.8
30
0
11
20.193856
21
-3.328183
31
0
39
0
210
0
220
0
230
1
0
LINE
5
5E
100
AcDbEntity
8
1
62
256
6
ByLayer
370
-1
48
1
60
0
100
AcDbLine
10
19.717561
20
-6.230931
30
0
11
19.717561
21
0.8
31
0
39
0
210
0
220
0
230
1
0
LINE
5
5F
100
AcDbEntity
8
1
62
256
6
ByLayer
370
-1
48
1
60
0
100
AcDbLine
10
-13.6
20
2.75
30
0
11
-13.6
21
-2.75
31
0
39
0
210
0
220
0
230
1
0
LINE
5
60
100
AcDbEntity
8
1
62
256
6
ByLayer
370
-1
48
1
60
0
100
AcDbLine
10
7.9
20
6.67
30
0
11
7.9
21
0
31
0
39
0
210
0
220
0
230
1
0
LINE
5
61
100
AcDbEntity
8
1
62
256
6
ByLayer
370
-1
48
1
60
0
100
AcDbLine
10
7.9
20
0
30
0
11
7.9
21
-6.67
31
0
39
0
210
0
220
0
230
1
0
LINE
5
62
100
AcDbEntity
8
1
62
256
6
ByLayer
370
-1
48
1
60
0
100
AcDbLine
10
5.6
20
-2.680019
30
0
11
5.6
21
2.680019
31
0
39
0
210
0
220
0
230
1
0
LINE
5
63
100
AcDbEntity
8
1
62
256
6
ByLayer
370
-1
48
1
60
0
100
AcDbLine
10
2.1
20
-3.036857
30
0
11
5.4
21
-3.036857
31
0
39
0
210
0
220
0
230
1
0
LINE
5
64
100
AcDbEntity
8
1
62
256
6
ByLayer
370
-1
48
1
60
0
100
AcDbLine
10
1.9
20
2.680019
30
0
11
1.9
21
-2.680019
31
0
39
0
210
0
220
0
230
1
0
LINE
5
65
100
AcDbEntity
8
1
62
256
6
ByLayer
370
-1
48
1
60
0
100
AcDbLine
10
22.8423
20
0.234627
30
0
11
22.8423
21
0.52359
31
0
39
0
210
0
220
0
230
1
0
LINE
5
66
100
AcDbEntity
8
1
62
256
6
ByLayer
370
-1
48
1
60
0
100
AcDbLine
10
20.193856
20
-4.483727
30
0
11
20.193856
21
-6.359985
31
0
39
0
210
0
220
0
230
1
0
LINE
5
67
100
AcDbEntity
8
1
62
256
6
ByLayer
370
-1
48
1
60
0
100
AcDbLine
10
-0.288484
20
0
30
0
11
-0.288484
21
-4.603834
31
0
39
0
210
0
220
0
230
1
0
LINE
5
68
100
AcDbEntity
8
1
62
256
6
ByLayer
370
-1
48
1
60
0
100
AcDbLine
10
-0.288484
20
4.603834
30
0
11
-0.288484
21
0
31
0
39
0
210
0
220
0
230
1
0
LINE
5
69
100
AcDbEntity
8
1
62
256
6
ByLayer
370
-1
48
1
60
0
100
AcDbLine
10
18.84592
20
6.667001
30
0
11
10.86292
21
6.667001
31
0
39
0
210
0
220
0
230
1
0
LINE
5
6A
100
AcDbEntity
8
1
62
256
6
ByLayer
370
-1
48
1
60
0
100
AcDbLine
10
22.8423
20
0.52359
30
0
11
22.8423
21
0.737627
31
0
39
0
210
0
220
0
230
1
0
LINE
5
6B
100
AcDbEntity
8
1
62
256
6
ByLayer
370
-1
48
1
60
0
100
AcDbLine
10
19.717561
20
0.8
30
0
11
19.3
21
0.8
31
0
39
0
210
0
220
0
230
1
0
LINE
5
6C
100
AcDbEntity
8
1
62
256
6
ByLayer
370
-1
48
1
60
0
100
AcDbLine
10
24.1423
20
1.674756
30
0
11
24.1423
21
1.392453
31
0
39
0
210
0
220
0
230
1
0
LINE
5
6D
100
AcDbEntity
8
1
62
256
6
ByLayer
370
-1
48
1
60
0
100
AcDbLine
10
18.84592
20
-6.667001
30
0
11
10.86292
21
-6.667001
31
0
39
0
210
0
220
0
230
1
0
LINE
5
6E
100
AcDbEntity
8
1
62
256
6
ByLayer
370
-1
48
1
60
0
100
AcDbLine
10
-9.8
20
3.751615
30
0
11
-9.8
21
-3.751615
31
0
39
0
210
0
220
0
230
1
0
LINE
5
6F
100
AcDbEntity
8
1
62
256
6
ByLayer
370
-1
48
1
60
0
100
AcDbLine
10
7.5
20
-5.85
30
0
11
7.5
21
0
31
0
39
0
210
0
220
0
230
1
0
LINE
5
70
100
AcDbEntity
8
1
62
256
6
ByLayer
370
-1
48
1
60
0
100
AcDbLine
10
7.5
20
0
30
0
11
7.5
21
5.85
31
0
39
0
210
0
220
0
230
1
0
LINE
5
71
100
AcDbEntity
8
1
62
256
6
ByLayer
370
-1
48
1
60
0
100
AcDbLine
10
10.8618
20
-6.669997
30
0
11
10.86292
21
-6.667001
31
0
39
0
210
0
220
0
230
1
0
LINE
5
72
100
AcDbEntity
8
1
62
256
6
ByLayer
370
-1
48
1
60
0
100
AcDbLine
10
18.84592
20
-6.667001
30
0
11
19.097685
21
-6.230931
31
0
39
0
210
0
220
0
230
1
0
LINE
5
73
100
AcDbEntity
8
1
62
256
6
ByLayer
370
-1
48
1
60
0
100
AcDbLine
10
18.84592
20
6.667001
30
0
11
18.961731
21
6.46641
31
0
39
0
210
0
220
0
230
1
0
LINE
5
74
100
AcDbEntity
8
1
62
256
6
ByLayer
370
-1
48
1
60
0
100
AcDbLine
10
-13.8
20
0
30
0
11
-13.8
21
-2.55
31
0
39
0
210
0
220
0
230
1
0
LINE
5
75
100
AcDbEntity
8
1
62
256
6
ByLayer
370
-1
48
1
60
0
100
AcDbLine
10
-13.8
20
2.55
30
0
11
-13.8
21
0
31
0
39
0
210
0
220
0
230
1
0
LINE
5
76
100
AcDbEntity
8
1
62
256
6
ByLayer
370
-1
48
1
60
0
100
AcDbLine
10
0
20
5.85
30
0
11
0
21
-5.85
31
0
39
0
210
0
220
0
230
1
0
LINE
5
77
100
AcDbEntity
8
1
62
256
6
ByLayer
370
-1
48
1
60
0
100
AcDbLine
10
20.073223
20
-4.399479
30
0
11
20.073223
21
-3.863934
31
0
39
0
210
0
220
0
230
1
0
LINE
5
78
100
AcDbEntity
8
1
62
256
6
ByLayer
370
-1
48
1
60
0
100
AcDbLine
10
-10.3
20
0
30
0
11
-10.3
21
-2.75
31
0
39
0
210
0
220
0
230
1
0
LINE
5
79
100
AcDbEntity
8
1
62
256
6
ByLayer
370
-1
48
1
60
0
100
AcDbLine
10
-10.3
20
2.75
30
0
11
-10.3
21
0
31
0
39
0
210
0
220
0
230
1
0
LINE
5
7A
100
AcDbEntity
8
1
62
256
6
ByLayer
370
-1
48
1
60
0
100
AcDbLine
10
22.573223
20
-3.863934
30
0
11
22.573223
21
-4.652061
31
0
39
0
210
0
220
0
230
1
0
LINE
5
7B
100
AcDbEntity
8
1
62
256
6
ByLayer
370
-1
48
1
60
0
100
AcDbLine
10
5.4
20
3.036857
30
0
11
2.1
21
3.036857
31
0
39
0
210
0
220
0
230
1
0
LINE
5
7C
100
AcDbEntity
8
1
62
256
6
ByLayer
370
-1
48
1
60
0
100
AcDbLine
10
18.961731
20
6.46641
30
0
11
18.992975
21
6.412294
31
0
39
0
210
0
220
0
230
1
0
LINE
5
7D
100
AcDbEntity
8
1
62
256
6
ByLayer
370
-1
48
1
60
0
100
AcDbLine
10
5.4
20
3.036857
30
0
11
5.4
21
-3.036857
31
0
39
0
210
0
220
0
230
1
0
MTEXT
5
D7
100
AcDbEntity
8
SK6
62
256
6
ByLayer
370
-1
48
1
60
0
100
AcDbMText
10
-14.247368
20
-20.5
30
0
210
0
220
0
230
1
1
\W00.706;\fsimplex.shx,bigfont.shx;R300-15EH12-07L\P
40
4
41
0
44
1.084337
50
0
71
7
72
5
7
DEFAULT
0
DIMENSION
5
E5
100
AcDbEntity
8
2
62
256
6
ByLayer
370
-3
48
1
60
0
100
AcDbDimension
2
DimnDraft3D1
10
25
20
22.35
30
0
11
8.769079
21
22.35
31
0
70
32
71
5
72
1
41
1
210
0
220
0
230
1
3
Standard
100
AcDbAlignedDimension
13
21.5
23
7.5
33
0
14
25
24
4
34
0
50
0
100
AcDbRotatedDimension
1001
ACAD
1000
DSTYLE
1002
{
1070
   279
1070
     0
1070
   172
1070
     1
1070
   173
1070
     1
1070
   340
1005
D8
1070
   271
1070
     3
1070
   272
1070
     3
1070
    77
1070
     1
1070
    73
1070
     0
1070
   171
1070
     3
1070
   274
1070
     4
1070
   177
1070
     7
1070
   176
1070
     7
1070
   178
1070
     7
1070
    78
1070
     8
1070
    48
1040
-0.005
1070
    41
1041
3.5
1070
   147
1041
1.75
1070
    42
1041
0.0
1070
    44
1041
2.0
1070
   140
1041
3.5
1070
   343
1005
0
1070
   344
1005
0
1002
}
0
DIMENSION
5
EF
100
AcDbEntity
8
2
62
256
6
ByLayer
370
-3
48
1
60
0
100
AcDbDimension
2
DimnDraft3D2
10
0
20
32.35
30
0
11
12.5
21
32.35
31
0
70
32
71
5
72
1
41
1
210
0
220
0
230
1
3
Standard
100
AcDbAlignedDimension
13
25
23
4
33
0
14
0
24
5.85
34
0
50
0
100
AcDbRotatedDimension
1001
ACAD
1000
DSTYLE
1002
{
1070
   279
1070
     0
1070
   172
1070
     1
1070
   173
1070
     1
1070
   340
1005
D8
1070
   271
1070
     1
1070
   272
1070
     3
1070
    77
1070
     1
1070
    73
1070
     0
1070
   171
1070
     3
1070
   274
1070
     4
1070
   177
1070
     7
1070
   176
1070
     7
1070
   178
1070
     7
1070
    78
1070
     8
1070
    48
1040
-0.005
1070
    41
1041
3.5
1070
   147
1041
1.75
1070
    42
1041
0.0
1070
    44
1041
2.0
1070
   140
1041
3.5
1070
   343
1005
0
1070
   344
1005
0
1002
}
0
DIMENSION
5
FA
100
AcDbEntity
8
SK2
62
256
6
ByLayer
370
-3
48
1
60
0
100
AcDbDimension
2
DimnDraft3D3
10
-13.8
20
42.35
30
0
11
5.6
21
42.35
31
0
70
32
71
5
72
1
41
1
210
0
220
0
230
1
3
Standard
100
AcDbAlignedDimension
13
25
23
4
33
0
14
-13.8
24
0
34
0
50
0
100
AcDbRotatedDimension
1001
ACAD
1000
DSTYLE
1002
{
1070
   279
1070
     0
1070
   172
1070
     1
1070
   173
1070
     1
1070
   340
1005
D8
1070
   271
1070
     1
1070
   272
1070
     3
1070
    77
1070
     1
1070
    73
1070
     0
1070
   171
1070
     3
1070
   274
1070
     4
1070
   177
1070
     7
1070
   176
1070
     7
1070
   178
1070
     7
1070
    78
1070
     8
1070
    48
1040
-0.005
1070
    41
1041
3.5
1070
   147
1041
1.75
1070
    42
1041
0.0
1070
    44
1041
2.0
1070
   140
1041
3.5
1070
   343
1005
0
1070
   344
1005
0
1002
}
0
DIMENSION
5
105
100
AcDbEntity
8
2
62
256
6
ByLayer
370
-3
48
1
60
0
100
AcDbDimension
2
DimnDraft3D4
10
52.725
20
7.5
30
0
11
52.725
21
-26.328289
31
0
70
32
71
5
72
1
41
1
210
0
220
0
230
1
3
Standard
100
AcDbAlignedDimension
13
21.5
23
-7.5
33
0
14
21.5
24
7.5
34
0
50
90
100
AcDbRotatedDimension
1001
ACAD
1000
DSTYLE
1002
{
1070
    74
1070
     0
1070
   279
1070
     0
1070
   172
1070
     1
1070
   173
1070
     1
1070
   340
1005
D8
1070
   271
1070
     3
1070
   272
1070
     3
1070
    77
1070
     1
1070
    73
1070
     0
1070
   171
1070
     3
1070
   274
1070
     4
1070
   177
1070
     7
1070
   176
1070
     7
1070
   178
1070
     7
1070
    78
1070
     8
1070
    48
1040
-0.005
1070
    41
1041
3.5
1070
   147
1041
1.75
1070
    42
1041
0.0
1070
    44
1041
2.0
1070
   140
1041
3.5
1070
   343
1005
0
1070
   344
1005
0
1002
}
0
DIMENSION
5
110
100
AcDbEntity
8
SK2
62
256
6
ByLayer
370
-3
48
1
60
0
100
AcDbDimension
2
DimnDraft3D5
10
-32.775
20
-5.85
30
0
11
-32.775
21
-24.240789
31
0
70
32
71
5
72
1
41
1
210
0
220
0
230
1
3
Standard
100
AcDbAlignedDimension
13
0
23
5.85
33
0
14
0
24
-5.85
34
0
50
90
100
AcDbRotatedDimension
1001
ACAD
1000
DSTYLE
1002
{
1070
    74
1070
     0
1070
   279
1070
     0
1070
   172
1070
     1
1070
   173
1070
     1
1070
   340
1005
D8
1070
   271
1070
     3
1070
   272
1070
     3
1070
    77
1070
     1
1070
    73
1070
     0
1070
   171
1070
     3
1070
   274
1070
     4
1070
   177
1070
     7
1070
   176
1070
     7
1070
   178
1070
     7
1070
    78
1070
     8
1070
    48
1040
-0.005
1070
    41
1041
3.5
1070
   147
1041
1.75
1070
    42
1041
0.0
1070
    44
1041
2.0
1070
   140
1041
3.5
1070
   343
1005
0
1070
   344
1005
0
1002
}
0
ENDSEC
0
SECTION
2
OBJECTS
0
DICTIONARY
5
15e
330
0
100
AcDbDictionary
280
0
281
1
3
ACAD_GROUP
350
15f
3
ACAD_MLINESTYLE
350
160
0
DICTIONARY
5
15f
330
0
100
AcDbDictionary
280
0
281
1
0
DICTIONARY
5
160
330
0
100
AcDbDictionary
280
0
281
1
3
Standard
350
18
0
MLINESTYLE
5
18
330
160
100
AcDbMlineStyle
2
Standard
70
0
3

62
256
51
90
52
90
71
2
49
-0.5
62
256
6
ByLayer
49
0.5
62
256
6
ByLayer
0
RASTERVARIABLES
5
14d
330

100
AcDbRasterVariables
90
0
70
1
71
1
72
1
0
ENDSEC
0
EOF
