0
SECTION
2
HEADER
9
$ACADVER
1
AC1015
9
$DWGCODEPAGE
3
ANSI_1252
9
$HANDSEED
5
2e3
9
$ANGBASE
50
0
9
$ANGDIR
70
0
9
$ATTMODE
70
1
9
$AUNITS
70
0
9
$AUPREC
70
0
9
$CECOLOR
62
256
9
$CELTSCALE
40
1
9
$CELTYPE
6
ByLayer
9
$CELWEIGHT
370
-1
9
$CLAYER
8
0
9
$CMLJUST
70
0
9
$CMLSCALE
40
1
9
$CMLSTYLE
2
Standard
9
$DIMSTYLE
2
Standard
9
$TEXTSIZE
40
0.2
9
$TEXTSTYLE
7
Standard
9
$LUNITS
70
2
9
$LUPREC
70
4
9
$EXTNAMES
290
1
9
$INSUNITS
70
4
9
$LTSCALE
40
1
9
$LWDISPLAY
290
0
9
$PDMODE
70
0
9
$PDSIZE
40
0
9
$PLINEGEN
70
0
0
ENDSEC
0
SECTION
2
CLASSES
0
CLASS
1
RASTERVARIABLES
2
AcDbRasterVariables
3
ISM
90
0
280
0
281
0
0
ENDSEC
0
SECTION
2
TABLES
0
TABLE
2
VPORT
5
2d9
100
AcDbSymbolTable
0
VPORT
5
1
100
AcDbSymbolTableRecord
100
AcDbViewportTableRecord
2
*Active
70
0
10
0
20
0
11
1
21
1
12
-1
22
1
13
0
23
0
14
0.5
24
0.5
15
10
25
10
16
0
26
0
36
1
17
0
27
0
37
0
0
ENDTAB
0
TABLE
2
LTYPE
5
2da
100
AcDbSymbolTable
0
LTYPE
5
14
100
AcDbSymbolTableRecord
100
AcDbLinetypeTableRecord
70
0
2
ByBlock
3

72
65
73
0
40
0
0
LTYPE
5
15
100
AcDbSymbolTableRecord
100
AcDbLinetypeTableRecord
70
0
2
ByLayer
3

72
65
73
0
40
0
0
LTYPE
5
16
100
AcDbSymbolTableRecord
100
AcDbLinetypeTableRecord
70
0
2
CONTINUOUS
3
Solid line
72
65
73
0
40
0
0
LTYPE
5
3B
100
AcDbSymbolTableRecord
100
AcDbLinetypeTableRecord
70
0
2
DASHED
3
__ __ __ __ __ __ __ __ __
72
65
73
2
40
25.72
49
12.86
74
0
49
-12.86
74
0
0
LTYPE
5
3C
100
AcDbSymbolTableRecord
100
AcDbLinetypeTableRecord
70
0
2
HIDDEN
3
_ _ _ _ _ _ _ _ _ _ _ _ _ _ _
72
65
73
2
40
0.5
49
0.25
74
0
49
-0.25
74
0
0
LTYPE
5
3D
100
AcDbSymbolTableRecord
100
AcDbLinetypeTableRecord
70
0
2
PHANTOM
3
____ _ _ ____ _ _ _____ _ _ ____
72
65
73
6
40
50.5
49
18
74
0
49
-6.5
74
0
49
6.5
74
0
49
-6.5
74
0
49
6.5
74
0
49
-6.5
74
0
0
LTYPE
5
3E
100
AcDbSymbolTableRecord
100
AcDbLinetypeTableRecord
70
0
2
CENTER
3
____ _ ____ _ ____ _ ____
72
65
73
4
40
47.5
49
22
74
0
49
-8.5
74
0
49
8.5
74
0
49
-8.5
74
0
0
LTYPE
5
3F
100
AcDbSymbolTableRecord
100
AcDbLinetypeTableRecord
70
0
2
DOT
3
.........................
72
65
73
2
40
10
49
0
74
0
49
-10
74
0
0
LTYPE
5
40
100
AcDbSymbolTableRecord
100
AcDbLinetypeTableRecord
70
0
2
DASHDOT
3
_._._._._._._._._._._._._._._._.
72
65
73
4
40
70
49
31
74
0
49
-13
74
0
49
13
74
0
49
-13
74
0
0
ENDTAB
0
TABLE
2
LAYER
5
2db
100
AcDbSymbolTable
0
LAYER
5
10
100
AcDbSymbolTableRecord
100
AcDbLayerTableRecord
2
0
70
0
62
7
6
CONTINUOUS
290
1
370
-3
390
0
0
LAYER
5
42
100
AcDbSymbolTableRecord
100
AcDbLayerTableRecord
2
81
70
0
62
-3
6
CONTINUOUS
290
1
370
-3
390
0
0
LAYER
5
44
100
AcDbSymbolTableRecord
100
AcDbLayerTableRecord
2
80
70
0
62
-6
6
CONTINUOUS
290
1
370
-3
390
0
0
LAYER
5
46
100
AcDbSymbolTableRecord
100
AcDbLayerTableRecord
2
1
70
0
62
4
6
CONTINUOUS
290
1
370
-3
390
0
0
LAYER
5
25A
100
AcDbSymbolTableRecord
100
AcDbLayerTableRecord
2
2
70
0
62
7
6
CONTINUOUS
290
1
370
-3
390
0
0
LAYER
5
2c6
100
AcDbSymbolTableRecord
100
AcDbLayerTableRecord
2
SK4
70
0
62
2
6
CENTER
290
1
370
-3
390
0
0
LAYER
5
2c7
100
AcDbSymbolTableRecord
100
AcDbLayerTableRecord
2
SK6
70
0
62
5
6
CONTINUOUS
290
1
370
-3
390
0
0
LAYER
5
2c8
100
AcDbSymbolTableRecord
100
AcDbLayerTableRecord
2
SK2
70
0
62
7
6
CONTINUOUS
290
1
370
-3
390
0
0
ENDTAB
0
TABLE
2
STYLE
5
2dc
100
AcDbSymbolTable
0
STYLE
5
11
100
AcDbSymbolTableRecord
100
AcDbTextStyleTableRecord
2
Standard
3
txt
70
0
71
0
40
0
41
1
42
0
50
0
0
STYLE
5
233
100
AcDbSymbolTableRecord
100
AcDbTextStyleTableRecord
2
DEFAULT
3
simplex.shx
70
0
71
0
40
0
41
1
42
0
50
0
0
STYLE
5
256
100
AcDbSymbolTableRecord
100
AcDbTextStyleTableRecord
2
DWGDirectTextStyle
3
SIMPLEX
70
0
71
0
40
0
41
1
42
0
50
0
0
ENDTAB
0
TABLE
2
DIMSTYLE
5
2dd
100
AcDbSymbolTable
100
AcDbDimStyleTable
0
DIMSTYLE
105
27
100
AcDbSymbolTableRecord
100
AcDbDimStyleTableRecord
2
Standard
70
0
3
<>
41
0.18
42
0.0625
44
0.18
140
0.18
147
0.09
73
0
74
0
77
1
271
2
275
0
278
52
280
0
340
11
0
ENDTAB
0
TABLE
2
VIEW
5
2de
100
AcDbSymbolTable
0
ENDTAB
0
TABLE
2
UCS
5
2df
100
AcDbSymbolTable
0
ENDTAB
0
TABLE
2
APPID
5
2e0
100
AcDbSymbolTable
0
APPID
5
12
100
AcDbSymbolTableRecord
100
AcDbRegAppTableRecord
2
ACAD
70
0
0
ENDTAB
0
TABLE
2
BLOCK_RECORD
5
2e1
100
AcDbSymbolTable
0
BLOCK_RECORD
5
1F
100
AcDbSymbolTableRecord
100
AcDbBlockTableRecord
2
*Model_Space
340
0
70
0
0
BLOCK_RECORD
5
1B
100
AcDbSymbolTableRecord
100
AcDbBlockTableRecord
2
*Paper_Space
340
0
70
0
0
BLOCK_RECORD
5
23
100
AcDbSymbolTableRecord
100
AcDbBlockTableRecord
2
*Paper_Space0
340
0
70
0
0
BLOCK_RECORD
5
258
100
AcDbSymbolTableRecord
100
AcDbBlockTableRecord
2
DimnDraft3D1
340
0
70
0
0
BLOCK_RECORD
5
267
100
AcDbSymbolTableRecord
100
AcDbBlockTableRecord
2
_CLOSED
340
0
70
0
0
BLOCK_RECORD
5
26E
100
AcDbSymbolTableRecord
100
AcDbBlockTableRecord
2
DimnDraft3D2
340
0
70
0
0
BLOCK_RECORD
5
27D
100
AcDbSymbolTableRecord
100
AcDbBlockTableRecord
2
DimnDraft3D3
340
0
70
0
0
BLOCK_RECORD
5
28B
100
AcDbSymbolTableRecord
100
AcDbBlockTableRecord
2
DimnDraft3D4
340
0
70
0
0
BLOCK_RECORD
5
299
100
AcDbSymbolTableRecord
100
AcDbBlockTableRecord
2
DimnDraft3D5
340
0
70
0
0
ENDTAB
0
ENDSEC
0
SECTION
2
BLOCKS
0
BLOCK
5
20
100
AcDbEntity
8
0
100
AcDbBlockBegin
2
*Model_Space
70
0
10
0
20
0
30
0
3
*Model_Space
0
ENDBLK
5
21
100
AcDbEntity
8
0
100
AcDbBlockEnd
0
BLOCK
5
1C
100
AcDbEntity
8
0
100
AcDbBlockBegin
2
*Paper_Space
70
0
10
0
20
0
30
0
3
*Paper_Space
0
ENDBLK
5
1D
100
AcDbEntity
8
0
100
AcDbBlockEnd
0
BLOCK
5
24
100
AcDbEntity
8
0
100
AcDbBlockBegin
2
*Paper_Space0
70
0
10
0
20
0
30
0
3
*Paper_Space0
0
ENDBLK
5
25
100
AcDbEntity
8
0
100
AcDbBlockEnd
0
BLOCK
5
264
100
AcDbEntity
8
0
100
AcDbBlockBegin
2
DimnDraft3D1
70
0
10
0
20
0
30
0
3
DimnDraft3D1
0
MTEXT
5
259
100
AcDbEntity
8
2
62
256
6
ByLayer
370
-1
48
1
60
0
100
AcDbMText
10
-20.725
20
-3.140789
30
0
210
0
220
0
230
1
1
\W01.000;\fsimplex.shx,bigfont.shx;22.0 
40
3.5
41
0
44
1.084337
50
90
71
7
72
5
7
DEFAULT
0
LINE
5
25B
100
AcDbEntity
8
2
62
256
6
ByLayer
370
-1
48
1
60
0
100
AcDbLine
10
0
20
11
30
0
11
-21.85
21
11
31
0
39
0
210
0
220
0
230
1
0
LINE
5
25C
100
AcDbEntity
8
2
62
256
6
ByLayer
370
-1
48
1
60
0
100
AcDbLine
10
0
20
-11
30
0
11
-21.85
21
-11
31
0
39
0
210
0
220
0
230
1
0
LINE
5
25D
100
AcDbEntity
8
2
62
256
6
ByLayer
370
-1
48
1
60
0
100
AcDbLine
10
-19.85
20
11
30
0
11
-19.85
21
-11
31
0
39
0
210
0
220
0
230
1
0
LINE
5
25E
100
AcDbEntity
8
2
62
256
6
ByLayer
370
-1
48
1
60
0
100
AcDbLine
10
-19.85
20
11
30
0
11
-18.912178
21
7.500003
31
0
39
0
210
0
220
0
230
1
0
LINE
5
25F
100
AcDbEntity
8
2
62
256
6
ByLayer
370
-1
48
1
60
0
100
AcDbLine
10
-19.85
20
11
30
0
11
-20.787822
21
7.499997
31
0
39
0
210
0
220
0
230
1
0
LINE
5
260
100
AcDbEntity
8
2
62
256
6
ByLayer
370
-1
48
1
60
0
100
AcDbLine
10
-18.912178
20
7.500003
30
0
11
-20.787822
21
7.499997
31
0
39
0
210
0
220
0
230
1
0
LINE
5
261
100
AcDbEntity
8
2
62
256
6
ByLayer
370
-1
48
1
60
0
100
AcDbLine
10
-19.85
20
-11
30
0
11
-20.787822
21
-7.500003
31
0
39
0
210
0
220
0
230
1
0
LINE
5
262
100
AcDbEntity
8
2
62
256
6
ByLayer
370
-1
48
1
60
0
100
AcDbLine
10
-19.85
20
-11
30
0
11
-18.912178
21
-7.499997
31
0
39
0
210
0
220
0
230
1
0
LINE
5
263
100
AcDbEntity
8
2
62
256
6
ByLayer
370
-1
48
1
60
0
100
AcDbLine
10
-20.787822
20
-7.500003
30
0
11
-18.912178
21
-7.499997
31
0
39
0
210
0
220
0
230
1
0
ENDBLK
5
265
100
AcDbEntity
8
0
100
AcDbBlockEnd
0
BLOCK
5
268
100
AcDbEntity
8
0
100
AcDbBlockBegin
2
_CLOSED
70
0
10
0
20
0
30
0
3
_CLOSED
0
LINE
5
26A
100
AcDbEntity
8
0
62
256
6
ByLayer
370
-2
48
1
60
0
100
AcDbLine
10
-1
20
0.166667
30
0
11
0
21
0
31
0
39
0
210
0
220
0
230
1
0
LINE
5
26B
100
AcDbEntity
8
0
62
256
6
ByLayer
370
-2
48
1
60
0
100
AcDbLine
10
0
20
0
30
0
11
-1
21
-0.166667
31
0
39
0
210
0
220
0
230
1
0
LINE
5
26C
100
AcDbEntity
8
0
62
256
6
ByLayer
370
-2
48
1
60
0
100
AcDbLine
10
-1
20
0.166667
30
0
11
-1
21
-0.166667
31
0
39
0
210
0
220
0
230
1
0
LINE
5
26D
100
AcDbEntity
8
0
62
256
6
ByLayer
370
-2
48
1
60
0
100
AcDbLine
10
0
20
0
30
0
11
-1
21
0
31
0
39
0
210
0
220
0
230
1
0
ENDBLK
5
269
100
AcDbEntity
8
0
100
AcDbBlockEnd
0
BLOCK
5
27A
100
AcDbEntity
8
0
100
AcDbBlockBegin
2
DimnDraft3D2
70
0
10
0
20
0
30
0
3
DimnDraft3D2
0
MTEXT
5
26F
100
AcDbEntity
8
SK2
62
256
6
ByLayer
370
-1
48
1
60
0
100
AcDbMText
10
75.975
20
-3.325
30
0
210
0
220
0
230
1
1
\W01.000;\fsimplex.shx,bigfont.shx;47.0 
40
3.5
41
0
44
1.084337
50
90
71
7
72
5
7
DEFAULT
0
LINE
5
271
100
AcDbEntity
8
SK2
62
256
6
ByLayer
370
-1
48
1
60
0
100
AcDbLine
10
50
20
23.4849
30
0
11
78.85
21
23.4849
31
0
39
0
210
0
220
0
230
1
0
LINE
5
272
100
AcDbEntity
8
SK2
62
256
6
ByLayer
370
-1
48
1
60
0
100
AcDbLine
10
50
20
-23.4849
30
0
11
78.85
21
-23.4849
31
0
39
0
210
0
220
0
230
1
0
LINE
5
273
100
AcDbEntity
8
SK2
62
256
6
ByLayer
370
-1
48
1
60
0
100
AcDbLine
10
76.85
20
23.4849
30
0
11
76.85
21
-23.4849
31
0
39
0
210
0
220
0
230
1
0
LINE
5
274
100
AcDbEntity
8
SK2
62
256
6
ByLayer
370
-1
48
1
60
0
100
AcDbLine
10
76.85
20
23.4849
30
0
11
77.787822
21
19.984903
31
0
39
0
210
0
220
0
230
1
0
LINE
5
275
100
AcDbEntity
8
SK2
62
256
6
ByLayer
370
-1
48
1
60
0
100
AcDbLine
10
76.85
20
23.4849
30
0
11
75.912178
21
19.984897
31
0
39
0
210
0
220
0
230
1
0
LINE
5
276
100
AcDbEntity
8
SK2
62
256
6
ByLayer
370
-1
48
1
60
0
100
AcDbLine
10
77.787822
20
19.984903
30
0
11
75.912178
21
19.984897
31
0
39
0
210
0
220
0
230
1
0
LINE
5
277
100
AcDbEntity
8
SK2
62
256
6
ByLayer
370
-1
48
1
60
0
100
AcDbLine
10
76.85
20
-23.4849
30
0
11
75.912178
21
-19.984903
31
0
39
0
210
0
220
0
230
1
0
LINE
5
278
100
AcDbEntity
8
SK2
62
256
6
ByLayer
370
-1
48
1
60
0
100
AcDbLine
10
76.85
20
-23.4849
30
0
11
77.787822
21
-19.984897
31
0
39
0
210
0
220
0
230
1
0
LINE
5
279
100
AcDbEntity
8
SK2
62
256
6
ByLayer
370
-1
48
1
60
0
100
AcDbLine
10
75.912178
20
-19.984903
30
0
11
77.787822
21
-19.984897
31
0
39
0
210
0
220
0
230
1
0
ENDBLK
5
27B
100
AcDbEntity
8
0
100
AcDbBlockEnd
0
BLOCK
5
288
100
AcDbEntity
8
0
100
AcDbBlockBegin
2
DimnDraft3D3
70
0
10
0
20
0
30
0
3
DimnDraft3D3
0
MTEXT
5
27E
100
AcDbEntity
8
SK2
62
256
6
ByLayer
370
-1
48
1
60
0
100
AcDbMText
10
85.975
20
-3.140789
30
0
210
0
220
0
230
1
1
\W01.000;\fsimplex.shx,bigfont.shx;63.0 
40
3.5
41
0
44
1.084337
50
90
71
7
72
5
7
DEFAULT
0
LINE
5
27F
100
AcDbEntity
8
SK2
62
256
6
ByLayer
370
-1
48
1
60
0
100
AcDbLine
10
50
20
-31.465
30
0
11
88.85
21
-31.465
31
0
39
0
210
0
220
0
230
1
0
LINE
5
280
100
AcDbEntity
8
SK2
62
256
6
ByLayer
370
-1
48
1
60
0
100
AcDbLine
10
50
20
31.465
30
0
11
88.85
21
31.465
31
0
39
0
210
0
220
0
230
1
0
LINE
5
281
100
AcDbEntity
8
SK2
62
256
6
ByLayer
370
-1
48
1
60
0
100
AcDbLine
10
86.85
20
-31.465
30
0
11
86.85
21
31.465
31
0
39
0
210
0
220
0
230
1
0
LINE
5
282
100
AcDbEntity
8
SK2
62
256
6
ByLayer
370
-1
48
1
60
0
100
AcDbLine
10
86.85
20
-31.465
30
0
11
85.912178
21
-27.965003
31
0
39
0
210
0
220
0
230
1
0
LINE
5
283
100
AcDbEntity
8
SK2
62
256
6
ByLayer
370
-1
48
1
60
0
100
AcDbLine
10
86.85
20
-31.465
30
0
11
87.787822
21
-27.964997
31
0
39
0
210
0
220
0
230
1
0
LINE
5
284
100
AcDbEntity
8
SK2
62
256
6
ByLayer
370
-1
48
1
60
0
100
AcDbLine
10
85.912178
20
-27.965003
30
0
11
87.787822
21
-27.964997
31
0
39
0
210
0
220
0
230
1
0
LINE
5
285
100
AcDbEntity
8
SK2
62
256
6
ByLayer
370
-1
48
1
60
0
100
AcDbLine
10
86.85
20
31.465
30
0
11
87.787822
21
27.965003
31
0
39
0
210
0
220
0
230
1
0
LINE
5
286
100
AcDbEntity
8
SK2
62
256
6
ByLayer
370
-1
48
1
60
0
100
AcDbLine
10
86.85
20
31.465
30
0
11
85.912178
21
27.964997
31
0
39
0
210
0
220
0
230
1
0
LINE
5
287
100
AcDbEntity
8
SK2
62
256
6
ByLayer
370
-1
48
1
60
0
100
AcDbLine
10
87.787822
20
27.965003
30
0
11
85.912178
21
27.964997
31
0
39
0
210
0
220
0
230
1
0
ENDBLK
5
289
100
AcDbEntity
8
0
100
AcDbBlockEnd
0
BLOCK
5
296
100
AcDbEntity
8
0
100
AcDbBlockBegin
2
DimnDraft3D4
70
0
10
0
20
0
30
0
3
DimnDraft3D4
0
MTEXT
5
28C
100
AcDbEntity
8
2
62
256
6
ByLayer
370
-1
48
1
60
0
100
AcDbMText
10
60.875
20
47.19
30
0
210
0
220
0
230
1
1
\W01.000;\fsimplex.shx,bigfont.shx;8.0 
40
3.5
41
0
44
1.084337
50
0
71
7
72
5
7
DEFAULT
0
LINE
5
28D
100
AcDbEntity
8
2
62
256
6
ByLayer
370
-1
48
1
60
0
100
AcDbLine
10
50
20
31.465
30
0
11
50
21
48.315
31
0
39
0
210
0
220
0
230
1
0
LINE
5
28E
100
AcDbEntity
8
2
62
256
6
ByLayer
370
-1
48
1
60
0
100
AcDbLine
10
42
20
31.465
30
0
11
42
21
48.315
31
0
39
0
210
0
220
0
230
1
0
LINE
5
28F
100
AcDbEntity
8
2
62
256
6
ByLayer
370
-1
48
1
60
0
100
AcDbLine
10
33.25
20
46.315
30
0
11
65.461842
21
46.315
31
0
39
0
210
0
220
0
230
1
0
LINE
5
290
100
AcDbEntity
8
2
62
256
6
ByLayer
370
-1
48
1
60
0
100
AcDbLine
10
50
20
46.315
30
0
11
53.499997
21
47.252822
31
0
39
0
210
0
220
0
230
1
0
LINE
5
291
100
AcDbEntity
8
2
62
256
6
ByLayer
370
-1
48
1
60
0
100
AcDbLine
10
50
20
46.315
30
0
11
53.500003
21
45.377178
31
0
39
0
210
0
220
0
230
1
0
LINE
5
292
100
AcDbEntity
8
2
62
256
6
ByLayer
370
-1
48
1
60
0
100
AcDbLine
10
53.499997
20
47.252822
30
0
11
53.500003
21
45.377178
31
0
39
0
210
0
220
0
230
1
0
LINE
5
293
100
AcDbEntity
8
2
62
256
6
ByLayer
370
-1
48
1
60
0
100
AcDbLine
10
42
20
46.315
30
0
11
38.500003
21
45.377178
31
0
39
0
210
0
220
0
230
1
0
LINE
5
294
100
AcDbEntity
8
2
62
256
6
ByLayer
370
-1
48
1
60
0
100
AcDbLine
10
42
20
46.315
30
0
11
38.499997
21
47.252822
31
0
39
0
210
0
220
0
230
1
0
LINE
5
295
100
AcDbEntity
8
2
62
256
6
ByLayer
370
-1
48
1
60
0
100
AcDbLine
10
38.500003
20
45.377178
30
0
11
38.499997
21
47.252822
31
0
39
0
210
0
220
0
230
1
0
ENDBLK
5
297
100
AcDbEntity
8
0
100
AcDbBlockEnd
0
BLOCK
5
2A4
100
AcDbEntity
8
0
100
AcDbBlockBegin
2
DimnDraft3D5
70
0
10
0
20
0
30
0
3
DimnDraft3D5
0
MTEXT
5
29A
100
AcDbEntity
8
SK2
62
256
6
ByLayer
370
-1
48
1
60
0
100
AcDbMText
10
21.859211
20
67.19
30
0
210
0
220
0
230
1
1
\W01.000;\fsimplex.shx,bigfont.shx;50.0 
40
3.5
41
0
44
1.084337
50
0
71
7
72
5
7
DEFAULT
0
LINE
5
29B
100
AcDbEntity
8
SK2
62
256
6
ByLayer
370
-1
48
1
60
0
100
AcDbLine
10
50
20
31.465
30
0
11
50
21
68.315
31
0
39
0
210
0
220
0
230
1
0
LINE
5
29C
100
AcDbEntity
8
SK2
62
256
6
ByLayer
370
-1
48
1
60
0
100
AcDbLine
10
0
20
21.5
30
0
11
0
21
68.315
31
0
39
0
210
0
220
0
230
1
0
LINE
5
29D
100
AcDbEntity
8
SK2
62
256
6
ByLayer
370
-1
48
1
60
0
100
AcDbLine
10
50
20
66.315
30
0
11
0
21
66.315
31
0
39
0
210
0
220
0
230
1
0
LINE
5
29E
100
AcDbEntity
8
SK2
62
256
6
ByLayer
370
-1
48
1
60
0
100
AcDbLine
10
50
20
66.315
30
0
11
46.500003
21
65.377178
31
0
39
0
210
0
220
0
230
1
0
LINE
5
29F
100
AcDbEntity
8
SK2
62
256
6
ByLayer
370
-1
48
1
60
0
100
AcDbLine
10
50
20
66.315
30
0
11
46.499997
21
67.252822
31
0
39
0
210
0
220
0
230
1
0
LINE
5
2A0
100
AcDbEntity
8
SK2
62
256
6
ByLayer
370
-1
48
1
60
0
100
AcDbLine
10
46.500003
20
65.377178
30
0
11
46.499997
21
67.252822
31
0
39
0
210
0
220
0
230
1
0
LINE
5
2A1
100
AcDbEntity
8
SK2
62
256
6
ByLayer
370
-1
48
1
60
0
100
AcDbLine
10
0
20
66.315
30
0
11
3.499997
21
67.252822
31
0
39
0
210
0
220
0
230
1
0
LINE
5
2A2
100
AcDbEntity
8
SK2
62
256
6
ByLayer
370
-1
48
1
60
0
100
AcDbLine
10
0
20
66.315
30
0
11
3.500003
21
65.377178
31
0
39
0
210
0
220
0
230
1
0
LINE
5
2A3
100
AcDbEntity
8
SK2
62
256
6
ByLayer
370
-1
48
1
60
0
100
AcDbLine
10
3.499997
20
67.252822
30
0
11
3.500003
21
65.377178
31
0
39
0
210
0
220
0
230
1
0
ENDBLK
5
2A5
100
AcDbEntity
8
0
100
AcDbBlockEnd
0
ENDSEC
0
SECTION
2
ENTITIES
0
ARC
5
BF
100
AcDbEntity
8
1
62
256
6
ByLayer
370
-1
48
1
60
0
100
AcDbCircle
39
0
10
-15
20
-22.3
30
0
40
0.799999999999998
210
0
220
0
230
-1
100
AcDbArc
50
90
51
116.799711
0
ARC
5
C0
100
AcDbEntity
8
1
62
256
6
ByLayer
370
-1
48
1
60
0
100
AcDbCircle
39
0
10
-15
20
22.3
30
0
40
0.799999999999998
210
0
220
0
230
-1
100
AcDbArc
50
243.200289
51
270
0
ARC
5
C1
100
AcDbEntity
8
1
62
256
6
ByLayer
370
-1
48
1
60
0
100
AcDbCircle
39
0
10
0.9
20
21
30
0
40
0.5
210
0
220
0
230
1
100
AcDbArc
50
90
51
180
0
ARC
5
C2
100
AcDbEntity
8
1
62
256
6
ByLayer
370
-1
48
1
60
0
100
AcDbCircle
39
0
10
0.9
20
-21
30
0
40
0.5
210
0
220
0
230
1
100
AcDbArc
50
180
51
270
0
ELLIPSE
5
C3
100
AcDbEntity
8
1
62
256
6
ByLayer
370
-1
48
1
60
0
100
AcDbEllipse
10
42.21849
20
23.449892
30
0
11
-6.96674209996233E-16
21
-3.7926430144767
31
0
210
0
220
0
230
1
40
0.992546
41
-1.57079621006408
42
-0.785398086286662
0
ELLIPSE
5
C4
100
AcDbEntity
8
1
62
256
6
ByLayer
370
-1
48
1
60
0
100
AcDbEllipse
10
42.21849
20
23.449892
30
0
11
-6.96674209996233E-16
21
-3.7926430144767
31
0
210
0
220
0
230
1
40
0.992546
41
0
42
6.28318530717959
0
ELLIPSE
5
C5
100
AcDbEntity
8
1
62
256
6
ByLayer
370
-1
48
1
60
0
100
AcDbEllipse
10
42.21849
20
23.449892
30
0
11
-6.96674209996233E-16
21
-3.7926430144767
31
0
210
0
220
0
230
1
40
0.992546
41
-0.785398086286655
42
-0.0410369368763496
0
ELLIPSE
5
C6
100
AcDbEntity
8
1
62
256
6
ByLayer
370
-1
48
1
60
0
100
AcDbEllipse
10
42.21849
20
23.449892
30
0
11
-6.96674209996233E-16
21
-3.7926430144767
31
0
210
0
220
0
230
1
40
0.992546
41
-0.0410369368763618
42
0
0
ELLIPSE
5
C7
100
AcDbEntity
8
1
62
256
6
ByLayer
370
-1
48
1
60
0
100
AcDbEllipse
10
42.21849
20
23.449892
30
0
11
-6.96674209996233E-16
21
-3.7926430144767
31
0
210
0
220
0
230
1
40
0.992546
41
0
42
0.592582788714587
0
ELLIPSE
5
C8
100
AcDbEntity
8
1
62
256
6
ByLayer
370
-1
48
1
60
0
100
AcDbEllipse
10
42.21849
20
23.449892
30
0
11
-6.96674209996233E-16
21
-3.7926430144767
31
0
210
0
220
0
230
1
40
0.992546
41
2.54900983451293
42
-3.09947563452244
0
ELLIPSE
5
C9
100
AcDbEntity
8
1
62
256
6
ByLayer
370
-1
48
1
60
0
100
AcDbEllipse
10
42.21849
20
23.449892
30
0
11
-6.96674209996233E-16
21
-3.7926430144767
31
0
210
0
220
0
230
1
40
0.992546
41
-3.09947563452244
42
-1.57079621006408
0
ELLIPSE
5
CA
100
AcDbEntity
8
1
62
256
6
ByLayer
370
-1
48
1
60
0
100
AcDbEllipse
10
42.046638
20
23.449892
30
0
11
-1.15681368029899E-15
21
7.19347578002413
31
0
210
0
220
0
230
1
40
0.992546
41
-2.24761316391934
42
-1.57079627240835
0
ELLIPSE
5
CB
100
AcDbEntity
8
1
62
256
6
ByLayer
370
-1
48
1
60
0
100
AcDbEllipse
10
42.046638
20
23.449892
30
0
11
-1.15681368029899E-15
21
7.19347578002413
31
0
210
0
220
0
230
1
40
0.992546
41
-0.785398099564895
42
0
0
ELLIPSE
5
CC
100
AcDbEntity
8
1
62
256
6
ByLayer
370
-1
48
1
60
0
100
AcDbEllipse
10
42.046638
20
23.449892
30
0
11
-1.15681368029899E-15
21
7.19347578002413
31
0
210
0
220
0
230
1
40
0.992546
41
0
42
2.24682780436426
0
ELLIPSE
5
CD
100
AcDbEntity
8
1
62
256
6
ByLayer
370
-1
48
1
60
0
100
AcDbEllipse
10
42.046638
20
23.449892
30
0
11
-1.15681368029899E-15
21
7.19347578002413
31
0
210
0
220
0
230
1
40
0.992546
41
-1.57079627240834
42
-0.785398099564905
0
ELLIPSE
5
CE
100
AcDbEntity
8
1
62
256
6
ByLayer
370
-1
48
1
60
0
100
AcDbEllipse
10
42.046569
20
23.449892
30
0
11
-1.21901284259342E-15
21
7.58025212536189
31
0
210
0
220
0
230
1
40
0.992546
41
-2.20745972473503
42
-1.57079631488516
0
ELLIPSE
5
CF
100
AcDbEntity
8
1
62
256
6
ByLayer
370
-1
48
1
60
0
100
AcDbEllipse
10
42.046569
20
23.449892
30
0
11
-1.21901284259342E-15
21
7.58025212536189
31
0
210
0
220
0
230
1
40
0.992546
41
-0.785398154708508
42
-9.4439985005723E-16
0
ELLIPSE
5
D0
100
AcDbEntity
8
1
62
256
6
ByLayer
370
-1
48
1
60
0
100
AcDbEllipse
10
42.046569
20
23.449892
30
0
11
-1.21901284259342E-15
21
7.58025212536189
31
0
210
0
220
0
230
1
40
0.992546
41
0
42
2.20716516117431
0
ELLIPSE
5
D1
100
AcDbEntity
8
1
62
256
6
ByLayer
370
-1
48
1
60
0
100
AcDbEllipse
10
42.046569
20
23.449892
30
0
11
-1.21901284259342E-15
21
7.58025212536189
31
0
210
0
220
0
230
1
40
0.992546
41
-1.57079631488515
42
-0.785398154708513
0
ELLIPSE
5
D2
100
AcDbEntity
8
1
62
256
6
ByLayer
370
-1
48
1
60
0
100
AcDbEllipse
10
42.057231
20
23.449892
30
0
11
-9.97048580850257E-16
21
6.2
31
0
210
0
220
0
230
1
40
0.992546
41
-2.38309438616419
42
-1.57079634447065
0
ELLIPSE
5
D3
100
AcDbEntity
8
1
62
256
6
ByLayer
370
-1
48
1
60
0
100
AcDbEllipse
10
42.057231
20
23.449892
30
0
11
-9.97048580850257E-16
21
6.2
31
0
210
0
220
0
230
1
40
0.992546
41
-0.785398162232471
42
0
0
ELLIPSE
5
D4
100
AcDbEntity
8
1
62
256
6
ByLayer
370
-1
48
1
60
0
100
AcDbEllipse
10
42.057231
20
23.449892
30
0
11
-9.97048580850257E-16
21
6.2
31
0
210
0
220
0
230
1
40
0.992546
41
0
42
2.38417426922123
0
ELLIPSE
5
D5
100
AcDbEntity
8
1
62
256
6
ByLayer
370
-1
48
1
60
0
100
AcDbEllipse
10
42.057231
20
23.449892
30
0
11
-9.97048580850257E-16
21
6.2
31
0
210
0
220
0
230
1
40
0.992546
41
-1.57079634447064
42
-0.785398162232479
0
ELLIPSE
5
D6
100
AcDbEntity
8
1
62
256
6
ByLayer
370
-1
48
1
60
0
100
AcDbEllipse
10
42.059631
20
23.449892
30
0
11
-1.46952762458685E-15
21
-8
31
0
210
0
220
0
230
1
40
0.992546
41
-1.57079638882549
42
-0.973599294930537
0
ELLIPSE
5
D7
100
AcDbEntity
8
1
62
256
6
ByLayer
370
-1
48
1
60
0
100
AcDbEllipse
10
42.059631
20
23.449892
30
0
11
-1.46952762458685E-15
21
-8
31
0
210
0
220
0
230
1
40
0.992546
41
0
42
6.28318530717959
0
ELLIPSE
5
D8
100
AcDbEntity
8
1
62
256
6
ByLayer
370
-1
48
1
60
0
100
AcDbEllipse
10
42.059631
20
23.449892
30
0
11
-1.46952762458685E-15
21
-8
31
0
210
0
220
0
230
1
40
0.992546
41
0.972715591542808
42
-1.57079638882549
0
ELLIPSE
5
D9
100
AcDbEntity
8
1
62
256
6
ByLayer
370
-1
48
1
60
0
100
AcDbEllipse
10
42.091614
20
23.449892
30
0
11
-7.36218309256061E-16
21
4.57806530700344
31
0
210
0
220
0
230
1
40
0.992546
41
-2.95672963753218
42
-1.57079629505444
0
ELLIPSE
5
DA
100
AcDbEntity
8
1
62
256
6
ByLayer
370
-1
48
1
60
0
100
AcDbEllipse
10
42.091614
20
23.449892
30
0
11
-7.36218309256061E-16
21
4.57806530700344
31
0
210
0
220
0
230
1
40
0.992546
41
-0.785398154318643
42
0
0
ELLIPSE
5
DB
100
AcDbEntity
8
1
62
256
6
ByLayer
370
-1
48
1
60
0
100
AcDbEllipse
10
42.091614
20
23.449892
30
0
11
-7.36218309256061E-16
21
4.57806530700344
31
0
210
0
220
0
230
1
40
0.992546
41
0
42
2.95663128983598
0
ELLIPSE
5
DC
100
AcDbEntity
8
1
62
256
6
ByLayer
370
-1
48
1
60
0
100
AcDbEllipse
10
42.091614
20
23.449892
30
0
11
-7.36218309256061E-16
21
4.57806530700344
31
0
210
0
220
0
230
1
40
0.992546
41
-1.57079629505443
42
-0.785398154318649
0
ELLIPSE
5
DD
100
AcDbEntity
8
1
62
256
6
ByLayer
370
-1
48
1
60
0
100
AcDbEllipse
10
42.095317
20
23.449892
30
0
11
-6.8036809341411E-16
21
4.23076895166958
31
0
210
0
220
0
230
1
40
0.992546
41
0
42
6.28318530717959
0
ELLIPSE
5
DE
100
AcDbEntity
8
1
62
256
6
ByLayer
370
-1
48
1
60
0
100
AcDbEllipse
10
42.240969
20
23.449892
30
0
11
-6.81869721651265E-16
21
-3.71204847186438
31
0
210
0
220
0
230
1
40
0.992546
41
0
42
6.28318530717959
0
ELLIPSE
5
DF
100
AcDbEntity
8
1
62
256
6
ByLayer
370
-1
48
1
60
0
100
AcDbEllipse
10
42.046569
20
23.449892
30
0
11
-1.15891606359624E-15
21
7.20654914143628
31
0
210
0
220
0
230
1
40
0.992546
41
-2.24623870839448
42
-1.57079625515033
0
ELLIPSE
5
E0
100
AcDbEntity
8
1
62
256
6
ByLayer
370
-1
48
1
60
0
100
AcDbEllipse
10
42.046569
20
23.449892
30
0
11
-1.15891606359624E-15
21
7.20654914143628
31
0
210
0
220
0
230
1
40
0.992546
41
-0.785398210982161
42
0
0
ELLIPSE
5
E1
100
AcDbEntity
8
1
62
256
6
ByLayer
370
-1
48
1
60
0
100
AcDbEllipse
10
42.046569
20
23.449892
30
0
11
-1.15891606359624E-15
21
7.20654914143628
31
0
210
0
220
0
230
1
40
0.992546
41
0
42
2.24545338974244
0
ELLIPSE
5
E2
100
AcDbEntity
8
1
62
256
6
ByLayer
370
-1
48
1
60
0
100
AcDbEllipse
10
42.046569
20
23.449892
30
0
11
-1.15891606359624E-15
21
7.20654914143628
31
0
210
0
220
0
230
1
40
0.992546
41
-1.570796393913
42
-0.785398210982167
0
ELLIPSE
5
E3
100
AcDbEntity
8
1
62
256
6
ByLayer
370
-1
48
1
60
0
100
AcDbEllipse
10
42.047192
20
23.449892
30
0
11
-1.22525611263253E-15
21
7.61907498212727
31
0
210
0
220
0
230
1
40
0.992546
41
-2.20372905267083
42
-1.57079634971614
0
ELLIPSE
5
E4
100
AcDbEntity
8
1
62
256
6
ByLayer
370
-1
48
1
60
0
100
AcDbEllipse
10
42.047192
20
23.449892
30
0
11
-1.22525611263253E-15
21
7.61907498212727
31
0
210
0
220
0
230
1
40
0.992546
41
-0.785398217620478
42
-9.39587677950507E-16
0
ELLIPSE
5
E5
100
AcDbEntity
8
1
62
256
6
ByLayer
370
-1
48
1
60
0
100
AcDbEllipse
10
42.047192
20
23.449892
30
0
11
-1.22525611263253E-15
21
7.61907498212727
31
0
210
0
220
0
230
1
40
0.992546
41
0
42
2.20314004862151
0
ELLIPSE
5
E6
100
AcDbEntity
8
1
62
256
6
ByLayer
370
-1
48
1
60
0
100
AcDbEllipse
10
42.047192
20
23.449892
30
0
11
-1.22525611263253E-15
21
7.61907498212727
31
0
210
0
220
0
230
1
40
0.992546
41
-1.57079634971613
42
-0.785398217620479
0
ELLIPSE
5
E7
100
AcDbEntity
8
1
62
256
6
ByLayer
370
-1
48
1
60
0
100
AcDbEllipse
10
42.058619
20
23.449892
30
0
11
-9.83139361577589E-16
21
6.11350756508073
31
0
210
0
220
0
230
1
40
0.992546
41
-2.39811510026593
42
-1.57079636520686
0
ELLIPSE
5
E8
100
AcDbEntity
8
1
62
256
6
ByLayer
370
-1
48
1
60
0
100
AcDbEllipse
10
42.058619
20
23.449892
30
0
11
-9.83139361577589E-16
21
6.11350756508073
31
0
210
0
220
0
230
1
40
0.992546
41
-0.785398143765682
42
0
0
ELLIPSE
5
E9
100
AcDbEntity
8
1
62
256
6
ByLayer
370
-1
48
1
60
0
100
AcDbEllipse
10
42.058619
20
23.449892
30
0
11
-9.83139361577589E-16
21
6.11350756508073
31
0
210
0
220
0
230
1
40
0.992546
41
0
42
2.39998048789477
0
ELLIPSE
5
EA
100
AcDbEntity
8
1
62
256
6
ByLayer
370
-1
48
1
60
0
100
AcDbEllipse
10
42.058619
20
23.449892
30
0
11
-9.83139361577589E-16
21
6.11350756508073
31
0
210
0
220
0
230
1
40
0.992546
41
-1.57079636520685
42
-0.785398143765691
0
ELLIPSE
5
EB
100
AcDbEntity
8
1
62
256
6
ByLayer
370
-1
48
1
60
0
100
AcDbEllipse
10
42.095317
20
23.449892
30
0
11
-6.21276735252142E-16
21
3.86331802937673
31
0
210
0
220
0
230
1
40
0.992546
41
0
42
6.28318530717959
0
ELLIPSE
5
EC
100
AcDbEntity
8
1
62
256
6
ByLayer
370
-1
48
1
60
0
100
AcDbEllipse
10
90.425424
20
3.63748
30
0
11
52.8362912151057
21
21.1853616160311
31
0
210
0
220
0
230
-1
40
0.801539
41
-2.69787242741431
42
-2.6445258110926
0
ELLIPSE
5
ED
100
AcDbEntity
8
1
62
256
6
ByLayer
370
-1
48
1
60
0
100
AcDbEllipse
10
43.419351
20
-23.956986
30
0
11
-0.707969700225598
21
-1.97706320171169
31
0
210
0
220
0
230
1
40
0.991586
41
0
42
6.28318530717959
0
ELLIPSE
5
EE
100
AcDbEntity
8
1
62
256
6
ByLayer
370
-1
48
1
60
0
100
AcDbEllipse
10
42.103162
20
23.449892
30
0
11
-3.16562924419957E-16
21
1.9685
31
0
210
0
220
0
230
1
40
0.992546
41
0
42
6.28318530717959
0
ELLIPSE
5
EF
100
AcDbEntity
8
1
62
256
6
ByLayer
370
-1
48
1
60
0
100
AcDbEllipse
10
42.059631
20
0.717056
30
0
11
7.94036208345286
21
-0.975012812051287
31
0
210
0
220
0
230
1
40
0.010913
41
-2.82916608823597
42
-2.2890147580011E-14
0
ELLIPSE
5
F0
100
AcDbEntity
8
1
62
256
6
ByLayer
370
-1
48
1
60
0
100
AcDbEllipse
10
37.102248
20
5.370945
30
0
11
-0.138761058081864
21
-1.24227427275944
31
0
210
0
220
0
230
1
40
0.708012
41
-2.82076295425994
42
-1.33304574569616
0
ELLIPSE
5
F1
100
AcDbEntity
8
1
62
256
6
ByLayer
370
-1
48
1
60
0
100
AcDbEllipse
10
42.047192
20
0.615754
30
0
11
-7.56227676238346
21
0.928586965444186
31
0
210
0
220
0
230
1
40
0.010913
41
0
42
0.211895510625058
0
ELLIPSE
5
F2
100
AcDbEntity
8
1
62
256
6
ByLayer
370
-1
48
1
60
0
100
AcDbEllipse
10
42.047192
20
0.615754
30
0
11
-7.56227676238346
21
0.928586965444186
31
0
210
0
220
0
230
1
40
0.010913
41
0.211895591338112
42
2.35485448208896
0
ELLIPSE
5
F3
100
AcDbEntity
8
1
62
256
6
ByLayer
370
-1
48
1
60
0
100
AcDbEllipse
10
42.047192
20
0.615754
30
0
11
-7.56227676238346
21
0.928586965444186
31
0
210
0
220
0
230
1
40
0.010913
41
2.35485448208896
42
2.89776087280965
0
ELLIPSE
5
F4
100
AcDbEntity
8
1
62
256
6
ByLayer
370
-1
48
1
60
0
100
AcDbEllipse
10
42.047192
20
0.615754
30
0
11
-7.56227676238346
21
0.928586965444186
31
0
210
0
220
0
230
1
40
0.010913
41
2.89776087280962
42
-3.13450908953064
0
ELLIPSE
5
F5
100
AcDbEntity
8
1
62
256
6
ByLayer
370
-1
48
1
60
0
100
AcDbEllipse
10
42.059631
20
-0.20103
30
0
11
-7.94030500532259
21
-0.975477535594289
31
0
210
0
220
0
230
1
40
0.032735
41
2.07570548886923
42
2.08660284149826
0
ELLIPSE
5
F6
100
AcDbEntity
8
1
62
256
6
ByLayer
370
-1
48
1
60
0
100
AcDbEllipse
10
42.059631
20
-0.20103
30
0
11
-7.94030500532259
21
-0.975477535594289
31
0
210
0
220
0
230
1
40
0.032735
41
2.95240611190454
42
3.03999716846048
0
ELLIPSE
5
F7
100
AcDbEntity
8
1
62
256
6
ByLayer
370
-1
48
1
60
0
100
AcDbEllipse
10
37.749412
20
4.47873
30
0
11
0.215088312788757
21
1.48458864389796
31
0
210
0
220
0
230
-1
40
0.815257
41
-1.64457319028054
42
-1.50741412707443
0
ELLIPSE
5
F8
100
AcDbEntity
8
1
62
256
6
ByLayer
370
-1
48
1
60
0
100
AcDbEllipse
10
44.360295
20
-0.361354
30
0
11
-0.188702589282914
21
-1.48808310681828
31
0
210
0
220
0
230
1
40
0.34074
41
1.60602262741916
42
1.99201388046725
0
ELLIPSE
5
F9
100
AcDbEntity
8
1
62
256
6
ByLayer
370
-1
48
1
60
0
100
AcDbEllipse
10
36.751741
20
3.093026
30
0
11
0.215088312974234
21
1.48458864444831
31
0
210
0
220
0
230
-1
40
0.815257
41
-1.68173477841499
42
-0.360121799408014
0
ELLIPSE
5
FA
100
AcDbEntity
8
1
62
256
6
ByLayer
370
-1
48
1
60
0
100
AcDbEllipse
10
36.619012
20
2.652319
30
0
11
0.207960262275605
21
1.48556413355613
31
0
210
0
220
0
230
-1
40
0.779062
41
-1.58282560707964
42
-1.37311325598125
0
ELLIPSE
5
FB
100
AcDbEntity
8
1
62
256
6
ByLayer
370
-1
48
1
60
0
100
AcDbEllipse
10
36.483972
20
2.155236
30
0
11
0.207960263814731
21
1.48556413068273
31
0
210
0
220
0
230
-1
40
0.779062
41
-1.31719010747125
42
-1.23594455760019
0
ELLIPSE
5
FC
100
AcDbEntity
8
1
62
256
6
ByLayer
370
-1
48
1
60
0
100
AcDbEllipse
10
36.61189
20
5.493906
30
0
11
0.2024423202601
21
1.23349791526687
31
0
210
0
220
0
230
1
40
0.965521
41
-0.811582895916026
42
-0.45576311289824
0
ELLIPSE
5
FD
100
AcDbEntity
8
1
62
256
6
ByLayer
370
-1
48
1
60
0
100
AcDbEllipse
10
42.046638
20
0.611248
30
0
11
-7.13985029149251
21
0.876716381088015
31
0
210
0
220
0
230
1
40
0.010913
41
0.209834166762377
42
2.35485456422842
0
ELLIPSE
5
FE
100
AcDbEntity
8
1
62
256
6
ByLayer
370
-1
48
1
60
0
100
AcDbEllipse
10
42.046638
20
0.611248
30
0
11
-7.13985029149251
21
0.876716381088015
31
0
210
0
220
0
230
1
40
0.010913
41
0
42
6.28318530717959
0
ELLIPSE
5
FF
100
AcDbEntity
8
1
62
256
6
ByLayer
370
-1
48
1
60
0
100
AcDbEllipse
10
42.046638
20
0.611248
30
0
11
-7.13985029149251
21
0.876716381088015
31
0
210
0
220
0
230
1
40
0.010913
41
2.35485436790629
42
-3.13974526880764
0
ELLIPSE
5
100
100
AcDbEntity
8
1
62
256
6
ByLayer
370
-1
48
1
60
0
100
AcDbEllipse
10
42.103162
20
23.449892
30
0
11
-4.40858287376056E-16
21
-2.4
31
0
210
0
220
0
230
1
40
0.992546
41
0
42
6.28318530717959
0
ELLIPSE
5
101
100
AcDbEntity
8
1
62
256
6
ByLayer
370
-1
48
1
60
0
100
AcDbEllipse
10
42.161019
20
23.449892
30
0
11
-6.5669515723725E-16
21
-3.575
31
0
210
0
220
0
230
1
40
0.992546
41
0
42
6.28318530717959
0
ELLIPSE
5
102
100
AcDbEntity
8
1
62
256
6
ByLayer
370
-1
48
1
60
0
100
AcDbEllipse
10
36.575128
20
-2.691822
30
0
11
-0.486818383903353
21
-3.97026546481387
31
0
210
0
220
0
230
1
40
0.015876
41
-1.5625230147867
42
-0.883631648606603
0
ELLIPSE
5
103
100
AcDbEntity
8
1
62
256
6
ByLayer
370
-1
48
1
60
0
100
AcDbEllipse
10
36.796201
20
-3.006015
30
0
11
23.8215907899991
21
-2.92101393877554
31
0
210
0
220
0
230
-1
40
0.093859
41
1.5835779578124
42
2.31945388328969
0
ELLIPSE
5
104
100
AcDbEntity
8
1
62
256
6
ByLayer
370
-1
48
1
60
0
100
AcDbEllipse
10
40.701477
20
-2.072568
30
0
11
-0.365586257169283
21
-2.97764112823707
31
0
210
0
220
0
230
1
40
0.00134
41
-2.18780667029904
42
-0.709045322274607
0
ELLIPSE
5
105
100
AcDbEntity
8
1
62
256
6
ByLayer
370
-1
48
1
60
0
100
AcDbEllipse
10
40.421405
20
-4.573341
30
0
11
21.7648925950078
21
-2.6725543382053
31
0
210
0
220
0
230
1
40
0.010913
41
1.57213640341825
42
1.66484739005398
0
ELLIPSE
5
106
100
AcDbEntity
8
1
62
256
6
ByLayer
370
-1
48
1
60
0
100
AcDbEllipse
10
50.000506
20
-5.5E-05
30
0
11
211.347763189403
21
-25.9487195008047
31
0
210
0
220
0
230
-1
40
0.00133
41
1.65520800770525
42
1.66540800547398
0
ELLIPSE
5
107
100
AcDbEntity
8
1
62
256
6
ByLayer
370
-1
48
1
60
0
100
AcDbEllipse
10
40.656896
20
22.996906
30
0
11
0.11906375296883
21
-0.449570186984256
31
0
210
0
220
0
230
-1
40
0.466338
41
-2.87309892169212
42
-1.57310804323466
0
ELLIPSE
5
108
100
AcDbEntity
8
1
62
256
6
ByLayer
370
-1
48
1
60
0
100
AcDbEllipse
10
37.191308
20
5.398811
30
0
11
0.909171776944781
21
-1.26275628816393
31
0
210
0
220
0
230
-1
40
0.540864
41
-1.83312859027398
42
-1.71023518547467
0
ELLIPSE
5
109
100
AcDbEntity
8
1
62
256
6
ByLayer
370
-1
48
1
60
0
100
AcDbEllipse
10
42.334714
20
23.449892
30
0
11
-2.4630316232746E-16
21
1.5316
31
0
210
0
220
0
230
1
40
0.992546
41
-2.17820360157969
42
-1.57079653086648
0
ELLIPSE
5
10A
100
AcDbEntity
8
1
62
256
6
ByLayer
370
-1
48
1
60
0
100
AcDbEllipse
10
42.334714
20
23.449892
30
0
11
-2.4630316232746E-16
21
1.5316
31
0
210
0
220
0
230
1
40
0.992546
41
-0.0376012435359993
42
0
0
ELLIPSE
5
10B
100
AcDbEntity
8
1
62
256
6
ByLayer
370
-1
48
1
60
0
100
AcDbEllipse
10
42.334714
20
23.449892
30
0
11
-2.4630316232746E-16
21
1.5316
31
0
210
0
220
0
230
1
40
0.992546
41
0
42
-2.6837057778235
0
ELLIPSE
5
10C
100
AcDbEntity
8
1
62
256
6
ByLayer
370
-1
48
1
60
0
100
AcDbEllipse
10
42.334714
20
23.449892
30
0
11
-2.4630316232746E-16
21
1.5316
31
0
210
0
220
0
230
1
40
0.992546
41
-0.785398312920655
42
-0.332812616895645
0
ELLIPSE
5
10D
100
AcDbEntity
8
1
62
256
6
ByLayer
370
-1
48
1
60
0
100
AcDbEllipse
10
42.334714
20
23.449892
30
0
11
-2.4630316232746E-16
21
1.5316
31
0
210
0
220
0
230
1
40
0.992546
41
-0.986656261477765
42
-0.785397657570793
0
ELLIPSE
5
10E
100
AcDbEntity
8
1
62
256
6
ByLayer
370
-1
48
1
60
0
100
AcDbEllipse
10
36.992092
20
0.522303
30
0
11
1.13766566177033
21
9.26419440653797
31
0
210
0
220
0
230
-1
40
0.642825
41
2.79251078141286
42
3.14157663181237
0
ELLIPSE
5
10F
100
AcDbEntity
8
1
62
256
6
ByLayer
370
-1
48
1
60
0
100
AcDbEllipse
10
44.169828
20
-24.103871
30
0
11
2.92210175455983
21
-0.779024936999012
31
0
210
0
220
0
230
-1
40
0.991954
41
3.0929228922109
42
-1.05078467647301
0
ELLIPSE
5
110
100
AcDbEntity
8
1
62
256
6
ByLayer
370
-1
48
1
60
0
100
AcDbEllipse
10
42.639729
20
-4.922979
30
0
11
-6.67438400859195
21
-0.819957376945461
31
0
210
0
220
0
230
1
40
0.032735
41
2.2043430925609
42
2.50000287317766
0
ELLIPSE
5
111
100
AcDbEntity
8
1
62
256
6
ByLayer
370
-1
48
1
60
0
100
AcDbEllipse
10
49.999997
20
-3E-06
30
0
11
211.344914179697
21
1.1583973529589
31
0
210
0
220
0
230
-1
40
0.122662
41
1.65604233193702
42
1.66624246391257
0
ELLIPSE
5
112
100
AcDbEntity
8
1
62
256
6
ByLayer
370
-1
48
1
60
0
100
AcDbEllipse
10
43.205823
20
-23.758669
30
0
11
1.01138528603652
21
2.82437600244529
31
0
210
0
220
0
230
1
40
0.991586
41
0
42
6.28318530717959
0
ELLIPSE
5
113
100
AcDbEntity
8
1
62
256
6
ByLayer
370
-1
48
1
60
0
100
AcDbEllipse
10
43.205823
20
-23.758669
30
0
11
1.01138528603652
21
2.82437600244529
31
0
210
0
220
0
230
1
40
0.991586
41
-3.06531338293847
42
-0.172299355976405
0
ELLIPSE
5
114
100
AcDbEntity
8
1
62
256
6
ByLayer
370
-1
48
1
60
0
100
AcDbEllipse
10
90.425424
20
27.20566
30
0
11
55.3613051437223
21
54.3467195746464
31
0
210
0
220
0
230
-1
40
0.07162
41
3.0256781774021
42
3.07902479383103
0
ELLIPSE
5
115
100
AcDbEntity
8
1
62
256
6
ByLayer
370
-1
48
1
60
0
100
AcDbEllipse
10
36.597236
20
-2.723241
30
0
11
5.95575346963408
21
-0.727328494142255
31
0
210
0
220
0
230
-1
40
0.418177
41
1.2232739984842
42
1.58347673698974
0
ELLIPSE
5
116
100
AcDbEntity
8
1
62
256
6
ByLayer
370
-1
48
1
60
0
100
AcDbEllipse
10
37.276177
20
-2.779624
30
0
11
-0.508014977951555
21
-3.9676089502592
31
0
210
0
220
0
230
1
40
0.427916
41
0.93433226833486
42
1.22488974515085
0
ELLIPSE
5
117
100
AcDbEntity
8
1
62
256
6
ByLayer
370
-1
48
1
60
0
100
AcDbEllipse
10
35.344594
20
25.873764
30
0
11
-1.41076497428719
21
0.509649082530793
31
0
210
0
220
0
230
1
40
0.041682
41
-1.00181371250921
42
-0.727670502147765
0
ELLIPSE
5
118
100
AcDbEntity
8
1
62
256
6
ByLayer
370
-1
48
1
60
0
100
AcDbEllipse
10
43.205823
20
-23.758669
30
0
11
-0.707969700225598
21
-1.97706320171169
31
0
210
0
220
0
230
1
40
0.991586
41
-2.80446311707378
42
-2.08287861246571
0
ELLIPSE
5
119
100
AcDbEntity
8
1
62
256
6
ByLayer
370
-1
48
1
60
0
100
AcDbEllipse
10
41.067085
20
37.449892
30
0
11
-3.67381906146713E-15
21
-20
31
0
210
0
220
0
230
1
40
0.992546
41
-0.914462724651332
42
-0.414201757511756
0
ELLIPSE
5
11A
100
AcDbEntity
8
1
62
256
6
ByLayer
370
-1
48
1
60
0
100
AcDbEllipse
10
42.059631
20
23.449892
30
0
11
-1.52720499561558E-15
21
-8.31399135375871
31
0
210
0
220
0
230
1
40
0.992546
41
-1.91986217719376
42
-1.00046623280739
0
ELLIPSE
5
11B
100
AcDbEntity
8
1
62
256
6
ByLayer
370
-1
48
1
60
0
100
AcDbEllipse
10
49.999949
20
7E-05
30
0
11
211.344686798729
21
6.38273492364281E-06
31
0
210
0
220
0
230
-1
40
0.122784
41
-1.66557003332742
42
-1.65536988817593
0
ELLIPSE
5
11C
100
AcDbEntity
8
1
62
256
6
ByLayer
370
-1
48
1
60
0
100
AcDbEllipse
10
46.617158
20
-3.911172
30
0
11
0.111416439158213
21
-1.24502464918784
31
0
210
0
220
0
230
1
40
0.709564
41
0.0775175599858979
42
0.232782230692709
0
ELLIPSE
5
11D
100
AcDbEntity
8
1
62
256
6
ByLayer
370
-1
48
1
60
0
100
AcDbEllipse
10
41.106485
20
24.687398
30
0
11
0.325870680519062
21
0.329708984154071
31
0
210
0
220
0
230
-1
40
0.469354
41
1.57538252707347
42
2.70722842219923
0
ELLIPSE
5
11E
100
AcDbEntity
8
1
62
256
6
ByLayer
370
-1
48
1
60
0
100
AcDbEllipse
10
37.902541
20
3.429256
30
0
11
-0.371033111551394
21
-0.335163288760107
31
0
210
0
220
0
230
1
40
0.653015
41
-1.99270081786121
42
-1.3488601444649
0
ELLIPSE
5
11F
100
AcDbEntity
8
1
62
256
6
ByLayer
370
-1
48
1
60
0
100
AcDbEllipse
10
42.472177
20
8.005643
30
0
11
4.58506747990799
21
4.25338601682758
31
0
210
0
220
0
230
-1
40
0.760129
41
1.99656905850532
42
-3.13152839156144
0
ELLIPSE
5
120
100
AcDbEntity
8
1
62
256
6
ByLayer
370
-1
48
1
60
0
100
AcDbEllipse
10
43.570636
20
2.716518
30
0
11
0.202014436982237
21
-0.457373116012244
31
0
210
0
220
0
230
1
40
0.280851
41
1.69408093251529
42
2.33792160591155
0
ELLIPSE
5
121
100
AcDbEntity
8
1
62
256
6
ByLayer
370
-1
48
1
60
0
100
AcDbEllipse
10
43.93881
20
3.399746
30
0
11
0.478920382196432
21
0.143649808620907
31
0
210
0
220
0
230
1
40
0.145147
41
1.26263889525577
42
1.79126610099857
0
ELLIPSE
5
122
100
AcDbEntity
8
1
62
256
6
ByLayer
370
-1
48
1
60
0
100
AcDbEllipse
10
44.619607
20
2.590842
30
0
11
-0.298274360953919
21
-0.40128843192588
31
0
210
0
220
0
230
1
40
0.171824
41
1.95712800801575
42
2.60096868141206
0
ELLIPSE
5
123
100
AcDbEntity
8
1
62
256
6
ByLayer
370
-1
48
1
60
0
100
AcDbEllipse
10
44.254818
20
7.792067
30
0
11
4.40437929387882
21
-5.85233676970824
31
0
210
0
220
0
230
-1
40
0.406677
41
-0.21112987407833
42
0.943957983034455
0
ELLIPSE
5
124
100
AcDbEntity
8
1
62
256
6
ByLayer
370
-1
48
1
60
0
100
AcDbEllipse
10
48.768941
20
2.127365
30
0
11
0.452243700946993
21
-0.213250169879806
31
0
210
0
220
0
230
1
40
0.851429
41
0.668246142878673
42
1.31208681627495
0
ELLIPSE
5
125
100
AcDbEntity
8
1
62
256
6
ByLayer
370
-1
48
1
60
0
100
AcDbEllipse
10
42.059631
20
-23.470081
30
0
11
-2.69702742943085
21
-7.53166933985406
31
0
210
0
220
0
230
1
40
0.991586
41
-0.756562059458081
42
-4.47857482709581E-16
0
ELLIPSE
5
126
100
AcDbEntity
8
1
62
256
6
ByLayer
370
-1
48
1
60
0
100
AcDbEllipse
10
42.059631
20
-23.470081
30
0
11
-2.69702742943085
21
-7.53166933985406
31
0
210
0
220
0
230
1
40
0.991586
41
0
42
1.91198840671778
0
ELLIPSE
5
127
100
AcDbEntity
8
1
62
256
6
ByLayer
370
-1
48
1
60
0
100
AcDbEllipse
10
42.059631
20
-23.470081
30
0
11
-2.69702742943085
21
-7.53166933985406
31
0
210
0
220
0
230
1
40
0.991586
41
2.50676723637004
42
-2.02036594594105
0
ELLIPSE
5
128
100
AcDbEntity
8
1
62
256
6
ByLayer
370
-1
48
1
60
0
100
AcDbEllipse
10
42.059631
20
-23.470081
30
0
11
-2.69702742943085
21
-7.53166933985406
31
0
210
0
220
0
230
1
40
0.991586
41
1.9119884459168
42
2.50676736205459
0
ELLIPSE
5
129
100
AcDbEntity
8
1
62
256
6
ByLayer
370
-1
48
1
60
0
100
AcDbEllipse
10
44.337361
20
3.351996
30
0
11
-0.459129398878698
21
0.197990391396365
31
0
210
0
220
0
230
1
40
0.323901
41
-2.29965887712331
42
-1.77103167138047
0
ELLIPSE
5
12A
100
AcDbEntity
8
1
62
256
6
ByLayer
370
-1
48
1
60
0
100
AcDbEllipse
10
42.639729
20
5.44129
30
0
11
6.67443198676908
21
-0.819566744169798
31
0
210
0
220
0
230
1
40
0.010913
41
-2.5026843038777
42
-2.2070245232609
0
ELLIPSE
5
12B
100
AcDbEntity
8
1
62
256
6
ByLayer
370
-1
48
1
60
0
100
AcDbEllipse
10
42.639729
20
5.44129
30
0
11
6.67443198676908
21
-0.819566744169798
31
0
210
0
220
0
230
1
40
0.010913
41
-1.45548675268104
42
-1.15982697206427
0
ELLIPSE
5
12C
100
AcDbEntity
8
1
62
256
6
ByLayer
370
-1
48
1
60
0
100
AcDbEllipse
10
42.639729
20
5.44129
30
0
11
6.67443198676908
21
-0.819566744169798
31
0
210
0
220
0
230
1
40
0.010913
41
-0.408289201484322
42
-0.112629420867723
0
ELLIPSE
5
12D
100
AcDbEntity
8
1
62
256
6
ByLayer
370
-1
48
1
60
0
100
AcDbEllipse
10
42.046569
20
0.610682
30
0
11
-7.52374331990456
21
0.92385536760085
31
0
210
0
220
0
230
1
40
0.010913
41
0.114800441753263
42
2.35485437815836
0
ELLIPSE
5
12E
100
AcDbEntity
8
1
62
256
6
ByLayer
370
-1
48
1
60
0
100
AcDbEllipse
10
42.046569
20
0.610682
30
0
11
-7.52374331990456
21
0.92385536760085
31
0
210
0
220
0
230
1
40
0.010913
41
0
42
6.28318530717959
0
ELLIPSE
5
12F
100
AcDbEntity
8
1
62
256
6
ByLayer
370
-1
48
1
60
0
100
AcDbEllipse
10
42.046569
20
0.610682
30
0
11
-7.52374331990456
21
0.92385536760085
31
0
210
0
220
0
230
1
40
0.010913
41
2.35485437815836
42
-3.13956901467966
0
ELLIPSE
5
130
100
AcDbEntity
8
1
62
256
6
ByLayer
370
-1
48
1
60
0
100
AcDbEllipse
10
37.874675
20
4.162283
30
0
11
-0.423855055494552
21
0.26522988506522
31
0
210
0
220
0
230
1
40
0.073299
41
0.788767780356172
42
1.31739498609899
0
ELLIPSE
5
131
100
AcDbEntity
8
1
62
256
6
ByLayer
370
-1
48
1
60
0
100
AcDbEllipse
10
37.582916
20
4.201337
30
0
11
-0.499343134779671
21
0.0256209630656542
31
0
210
0
220
0
230
1
40
0.411985
41
-0.818347109614844
42
-0.289719903872013
0
ELLIPSE
5
132
100
AcDbEntity
8
1
62
256
6
ByLayer
370
-1
48
1
60
0
100
AcDbEllipse
10
37.134641
20
3.532043
30
0
11
-0.243726692800404
21
0.436574505916891
31
0
210
0
220
0
230
1
40
0.575912
41
0.236612727432261
42
0.880453400828557
0
ELLIPSE
5
133
100
AcDbEntity
8
1
62
256
6
ByLayer
370
-1
48
1
60
0
100
AcDbEllipse
10
41.167194
20
8.180322
30
0
11
6.1963846653581
21
4.86832405738405
31
0
210
0
220
0
230
-1
40
0.132799
41
2.4428555286161
42
2.79849613075257
0
ELLIPSE
5
134
100
AcDbEntity
8
1
62
256
6
ByLayer
370
-1
48
1
60
0
100
AcDbEllipse
10
48.776616
20
2.856135
30
0
11
0.486630181200226
21
0.114852369348809
31
0
210
0
220
0
230
1
40
0.276707
41
-0.82477482052379
42
-0.296147614780973
0
ELLIPSE
5
135
100
AcDbEntity
8
1
62
256
6
ByLayer
370
-1
48
1
60
0
100
AcDbEllipse
10
48.883407
20
2.847438
30
0
11
-0.499425405792837
21
-0.0239638070568855
31
0
210
0
220
0
230
1
40
0.38733
41
3.13867529409769
42
-2.89791968228836
0
ELLIPSE
5
136
100
AcDbEntity
8
1
62
256
6
ByLayer
370
-1
48
1
60
0
100
AcDbEllipse
10
49.050011
20
2.104476
30
0
11
-0.458099618006714
21
-0.200361523207682
31
0
210
0
220
0
230
1
40
0.830174
41
2.81931621955569
42
-3.13838774423301
0
ELLIPSE
5
137
100
AcDbEntity
8
1
62
256
6
ByLayer
370
-1
48
1
60
0
100
AcDbEllipse
10
43.562996
20
24.687344
30
0
11
0.325870680518871
21
-0.329708984154103
31
0
210
0
220
0
230
-1
40
0.469354
41
3.01198059319997
42
3.1377638857405
0
ELLIPSE
5
138
100
AcDbEntity
8
1
62
256
6
ByLayer
370
-1
48
1
60
0
100
AcDbEllipse
10
40.656876
20
23.902804
30
0
11
0.119063752968833
21
0.449570186983388
31
0
210
0
220
0
230
-1
40
0.466338
41
-1.56848461035698
42
-0.542407713497979
0
ELLIPSE
5
139
100
AcDbEntity
8
1
62
256
6
ByLayer
370
-1
48
1
60
0
100
AcDbEllipse
10
42.249406
20
23.449892
30
0
11
-6.5669515723725E-16
21
-3.575
31
0
210
0
220
0
230
1
40
0.992546
41
0
42
2.35619444306423
0
ELLIPSE
5
13A
100
AcDbEntity
8
1
62
256
6
ByLayer
370
-1
48
1
60
0
100
AcDbEllipse
10
42.249406
20
23.449892
30
0
11
-6.5669515723725E-16
21
-3.575
31
0
210
0
220
0
230
1
40
0.992546
41
2.35619448530884
42
-3.14159263238802
0
ELLIPSE
5
13B
100
AcDbEntity
8
1
62
256
6
ByLayer
370
-1
48
1
60
0
100
AcDbEllipse
10
41.885105
20
21.759473
30
0
11
0.445966395173621
21
-0.120908127624531
31
0
210
0
220
0
230
-1
40
0.472421
41
-1.57298900906332
42
-0.272998130602982
0
ELLIPSE
5
13C
100
AcDbEntity
8
1
62
256
6
ByLayer
370
-1
48
1
60
0
100
AcDbEllipse
10
41.106432
20
22.212439
30
0
11
0.325870680518789
21
-0.32970898415382
31
0
210
0
220
0
230
-1
40
0.469354
41
0.844875605973945
42
1.56621012651701
0
ELLIPSE
5
13D
100
AcDbEntity
8
1
62
256
6
ByLayer
370
-1
48
1
60
0
100
AcDbEllipse
10
41.885178
20
21.759453
30
0
11
0.445966395173583
21
-0.120908127623528
31
0
210
0
220
0
230
-1
40
0.472421
41
-2.09181037876714
42
-1.57315372134462
0
ELLIPSE
5
13E
100
AcDbEntity
8
1
62
256
6
ByLayer
370
-1
48
1
60
0
100
AcDbEllipse
10
41.106432
20
24.687344
30
0
11
0.325870680519032
21
0.329708984154225
31
0
210
0
220
0
230
-1
40
0.469354
41
0.275226936328441
42
1.57521781478767
0
ELLIPSE
5
13F
100
AcDbEntity
8
1
62
256
6
ByLayer
370
-1
48
1
60
0
100
AcDbEllipse
10
42.639729
20
-23.677809
30
0
11
-2.2670409680309
21
-6.33089703307713
31
0
210
0
220
0
230
1
40
0.991586
41
1.50772264858454
42
1.8033824292013
0
ELLIPSE
5
140
100
AcDbEntity
8
1
62
256
6
ByLayer
370
-1
48
1
60
0
100
AcDbEllipse
10
40.656896
20
23.902878
30
0
11
0.119063752968942
21
0.449570186983491
31
0
210
0
220
0
230
-1
40
0.466338
41
3.01871379763112
42
-1.56864932264225
0
ELLIPSE
5
141
100
AcDbEntity
8
1
62
256
6
ByLayer
370
-1
48
1
60
0
100
AcDbEllipse
10
40.656876
20
22.99698
30
0
11
0.119063752968709
21
-0.44957018698348
31
0
210
0
220
0
230
-1
40
0.466338
41
-1.57294333094799
42
-0.272952452488182
0
ELLIPSE
5
142
100
AcDbEntity
8
1
62
256
6
ByLayer
370
-1
48
1
60
0
100
AcDbEllipse
10
42.78425
20
25.14033
30
0
11
0.445966395174859
21
-0.120908127624679
31
0
210
0
220
0
230
-1
40
0.472421
41
0.268448053783141
42
1.04978409029526
0
ELLIPSE
5
143
100
AcDbEntity
8
1
62
256
6
ByLayer
370
-1
48
1
60
0
100
AcDbEllipse
10
41.106485
20
22.212385
30
0
11
0.325870680518985
21
-0.329708984154022
31
0
210
0
220
0
230
-1
40
0.469354
41
1.56637483880195
42
-3.02098828147156
0
ELLIPSE
5
144
100
AcDbEntity
8
1
62
256
6
ByLayer
370
-1
48
1
60
0
100
AcDbEllipse
10
42.639729
20
-23.677809
30
0
11
-2.2670409680309
21
-6.33089703307713
31
0
210
0
220
0
230
1
40
0.991586
41
0.460525097387943
42
0.756184878004705
0
ELLIPSE
5
145
100
AcDbEntity
8
1
62
256
6
ByLayer
370
-1
48
1
60
0
100
AcDbEllipse
10
42.639729
20
-23.677809
30
0
11
-2.2670409680309
21
-6.33089703307713
31
0
210
0
220
0
230
1
40
0.991586
41
-0.586672453808657
42
-0.291012673191892
0
ELLIPSE
5
146
100
AcDbEntity
8
1
62
256
6
ByLayer
370
-1
48
1
60
0
100
AcDbEllipse
10
37.582916
20
-28.201259
30
0
11
-0.496301585271461
21
0.0607020300898959
31
0
210
0
220
0
230
1
40
0.923086
41
0.423280870626301
42
0.951908076369152
0
ELLIPSE
5
147
100
AcDbEntity
8
1
62
256
6
ByLayer
370
-1
48
1
60
0
100
AcDbEllipse
10
37.874675
20
-28.49335
30
0
11
0.0938906374249162
21
0.491105434915908
31
0
210
0
220
0
230
1
40
0.842552
41
2.53685930732316
42
3.06548651306597
0
ELLIPSE
5
148
100
AcDbEntity
8
1
62
256
6
ByLayer
370
-1
48
1
60
0
100
AcDbEllipse
10
43.93881
20
-30.096112
30
0
11
0.185849388207724
21
0.464176695777389
31
0
210
0
220
0
230
1
40
0.951969
41
-3.0074448501158
42
-2.478817644373
0
ELLIPSE
5
149
100
AcDbEntity
8
1
62
256
6
ByLayer
370
-1
48
1
60
0
100
AcDbEllipse
10
41.885105
20
25.14031
30
0
11
0.445966395174337
21
0.120908127624424
31
0
210
0
220
0
230
-1
40
0.472421
41
-1.56843893224243
42
-1.33324923810548
0
ELLIPSE
5
14A
100
AcDbEntity
8
1
62
256
6
ByLayer
370
-1
48
1
60
0
100
AcDbEllipse
10
44.337361
20
-29.986471
30
0
11
-0.309375606647902
21
0.392793500469703
31
0
210
0
220
0
230
1
40
0.878966
41
2.7499576665023
42
3.13815924877978
0
ELLIPSE
5
14B
100
AcDbEntity
8
1
62
256
6
ByLayer
370
-1
48
1
60
0
100
AcDbEllipse
10
42.784324
20
21.759473
30
0
11
0.445966395174371
21
0.120908127624433
31
0
210
0
220
0
230
-1
40
0.472421
41
2.4194745911689
42
-3.01420939892622
0
ELLIPSE
5
14C
100
AcDbEntity
8
1
62
256
6
ByLayer
370
-1
48
1
60
0
100
AcDbEllipse
10
48.883407
20
-25.092505
30
0
11
-0.496208310989241
21
-0.0614598414023693
31
0
210
0
220
0
230
1
40
0.933155
41
2.76426762222025
42
3.13779246572532
0
ELLIPSE
5
14D
100
AcDbEntity
8
1
62
256
6
ByLayer
370
-1
48
1
60
0
100
AcDbEllipse
10
48.776616
20
-25.494237
30
0
11
-0.406138902754082
21
0.291635374517068
31
0
210
0
220
0
230
1
40
0.925624
41
-3.13787880718077
42
-2.78591286924548
0
ELLIPSE
5
14E
100
AcDbEntity
8
1
62
256
6
ByLayer
370
-1
48
1
60
0
100
AcDbEllipse
10
41.167194
20
-24.279258
30
0
11
6.22854129828956
21
0.157765316543262
31
0
210
0
220
0
230
-1
40
0.860489
41
2.36068750267538
42
2.5946108938423
0
ELLIPSE
5
14F
100
AcDbEntity
8
1
62
256
6
ByLayer
370
-1
48
1
60
0
100
AcDbEllipse
10
37.134641
20
-28.055376
30
0
11
0.318142779477975
21
0.385726809887554
31
0
210
0
220
0
230
1
40
0.379288
41
2.14622986880734
42
2.79007054220359
0
ELLIPSE
5
150
100
AcDbEntity
8
1
62
256
6
ByLayer
370
-1
48
1
60
0
100
AcDbEllipse
10
37.902541
20
-28.824149
30
0
11
-0.390323825899676
21
-0.312485697168749
31
0
210
0
220
0
230
1
40
0.583231
41
0.379073448762648
42
1.02291412215895
0
ELLIPSE
5
151
100
AcDbEntity
8
1
62
256
6
ByLayer
370
-1
48
1
60
0
100
AcDbEllipse
10
42.472177
20
-25.585726
30
0
11
4.76682135227389
21
3.39777670804253
31
0
210
0
220
0
230
-1
40
0.870747
41
1.93787726275201
42
3.0929651198647
0
ELLIPSE
5
152
100
AcDbEntity
8
1
62
256
6
ByLayer
370
-1
48
1
60
0
100
AcDbEllipse
10
43.570636
20
-30.322236
30
0
11
0.14593645205164
21
-0.478228556197326
31
0
210
0
220
0
230
1
40
0.396819
41
-0.856313190778308
42
-0.212472517381966
0
ELLIPSE
5
153
100
AcDbEntity
8
1
62
256
6
ByLayer
370
-1
48
1
60
0
100
AcDbEllipse
10
44.619607
20
-30.033666
30
0
11
0.117476095254372
21
-0.486003464024471
31
0
210
0
220
0
230
1
40
0.58169
41
0.219672203132086
42
0.863512876528411
0
ELLIPSE
5
154
100
AcDbEntity
8
1
62
256
6
ByLayer
370
-1
48
1
60
0
100
AcDbEllipse
10
49.050011
20
-24.77747
30
0
11
0.483449466428691
21
-0.127579831516638
31
0
210
0
220
0
230
1
40
0.483128
41
0.152829453552056
42
0.796670126948373
0
ELLIPSE
5
155
100
AcDbEntity
8
1
62
256
6
ByLayer
370
-1
48
1
60
0
100
AcDbEllipse
10
44.732476
20
-23.298453
30
0
11
0.754591937187479
21
5.45479297912174
31
0
210
0
220
0
230
-1
40
0.888387
41
0.774196907288755
42
1.70631675228905
0
ELLIPSE
5
156
100
AcDbEntity
8
1
62
256
6
ByLayer
370
-1
48
1
60
0
100
AcDbEllipse
10
48.768941
20
-25.834813
30
0
11
0.482982630650297
21
-0.129335913381081
31
0
210
0
220
0
230
1
40
0.5022
41
-0.796624362653421
42
-0.152783689257138
0
ELLIPSE
5
157
100
AcDbEntity
8
1
62
256
6
ByLayer
370
-1
48
1
60
0
100
AcDbEllipse
10
44.254818
20
-25.095323
30
0
11
2.56158495903969
21
4.82590059630673
31
0
210
0
220
0
230
-1
40
0.891298
41
1.31795921160384
42
2.47304706871659
0
ELLIPSE
5
158
100
AcDbEntity
8
1
62
256
6
ByLayer
370
-1
48
1
60
0
100
AcDbEllipse
10
41.885178
20
25.14033
30
0
11
0.445966395174409
21
0.120908127624232
31
0
210
0
220
0
230
-1
40
0.472421
41
3.01875947574518
42
-1.56860364452846
0
ELLIPSE
5
159
100
AcDbEntity
8
1
62
256
6
ByLayer
370
-1
48
1
60
0
100
AcDbEllipse
10
43.427492
20
-7.447831
30
0
11
3.75412906702931
21
4.84343508657594
31
0
210
0
220
0
230
-1
40
0.756559
41
-0.231194328335403
42
-0.0748062723065281
0
ELLIPSE
5
15A
100
AcDbEntity
8
1
62
256
6
ByLayer
370
-1
48
1
60
0
100
AcDbEllipse
10
46.76335
20
-2.054829
30
0
11
-0.265860158959157
21
-0.423460005051495
31
0
210
0
220
0
230
1
40
0.6725
41
1.10193870805411
42
1.7457793814504
0
ELLIPSE
5
15B
100
AcDbEntity
8
1
62
256
6
ByLayer
370
-1
48
1
60
0
100
AcDbEllipse
10
46.966768
20
-2.743149
30
0
11
-0.475567963622235
21
0.154386242833358
31
0
210
0
220
0
230
1
40
0.032664
41
-2.36887412178737
42
-1.84024691604459
0
ELLIPSE
5
15C
100
AcDbEntity
8
1
62
256
6
ByLayer
370
-1
48
1
60
0
100
AcDbEllipse
10
47.53125
20
-1.935078
30
0
11
-0.350339974015884
21
0.356737862591777
31
0
210
0
220
0
230
1
40
0.552535
41
-2.94535864237061
42
-2.30151796897433
0
ELLIPSE
5
15D
100
AcDbEntity
8
1
62
256
6
ByLayer
370
-1
48
1
60
0
100
AcDbEllipse
10
47.258527
20
-2.69765
30
0
11
-0.490435014337455
21
-0.0973318894906534
31
0
210
0
220
0
230
1
40
0.451083
41
2.31678546279756
42
2.84541266854039
0
ELLIPSE
5
15E
100
AcDbEntity
8
1
62
256
6
ByLayer
370
-1
48
1
60
0
100
AcDbEllipse
10
49.050011
20
-1.560357
30
0
11
0.455328151630855
21
-0.206582366944591
31
0
210
0
220
0
230
1
40
0.841205
41
-0.305267271695999
42
-0.000478806995115911
0
ELLIPSE
5
15F
100
AcDbEntity
8
1
62
256
6
ByLayer
370
-1
48
1
60
0
100
AcDbEllipse
10
44.732476
20
-7.244324
30
0
11
4.85415242351529
21
6.17315259166886
31
0
210
0
220
0
230
-1
40
0.113394
41
-0.721873725523901
42
0.433214131589053
0
ELLIPSE
5
160
100
AcDbEntity
8
1
62
256
6
ByLayer
370
-1
48
1
60
0
100
AcDbEllipse
10
48.883407
20
-2.296747
30
0
11
0.499435601187692
21
-0.0237503740241792
31
0
210
0
220
0
230
1
40
0.366987
41
-0.00221665996780461
42
0.283821285669885
0
POINT
5
41
100
AcDbEntity
8
81
62
256
6
ByLayer
370
-1
48
1
60
0
100
AcDbPoint
10
50
20
31.465
30
0
39
0
210
0
220
0
230
1
50
360
0
POINT
5
43
100
AcDbEntity
8
80
62
256
6
ByLayer
370
-1
48
1
60
0
100
AcDbPoint
10
0
20
0
30
0
39
0
210
0
220
0
230
1
50
360
0
SPLINE
5
161
100
AcDbEntity
8
1
62
256
6
ByLayer
370
-1
48
1
60
0
100
AcDbSpline
70
4
71
3
72
12
73
8
40
0
40
0
40
0
40
0
40
0.122907314937368
40
0.373076156505582
40
0.623930757387209
40
0.882193966310592
40
1
40
1
40
1
40
1
41
1
10
49.5053395613807
20
-1.76693933611256
30
0
41
1
10
49.5198651290704
20
-1.73497491331381
30
0
41
1
10
49.5622545124133
20
-1.63917387724609
30
0
41
1
10
49.6250075581766
20
-1.48555367681547
30
0
41
1
10
49.6860337632256
20
-1.30784028357769
30
0
41
1
10
49.7249306384055
20
-1.16737830001628
30
0
41
1
10
49.7380883511718
20
-1.08076694440365
30
0
41
1
10
49.741414705074
20
-1.05360951863108
30
0
0
SPLINE
5
162
100
AcDbEntity
8
1
62
256
6
ByLayer
370
-1
48
1
60
0
100
AcDbSpline
70
4
71
3
72
12
73
8
40
0
40
0
40
0
40
0
40
0.0778363316199602
40
0.337021461178523
40
0.614897841999403
40
0.918402503272079
40
1
40
1
40
1
40
1
41
1
10
49.27476568592
20
-4.08648764245234
30
0
41
1
10
49.2786053109631
20
-4.04230308730925
30
0
41
1
10
49.29479881539
20
-3.8502827800036
30
0
41
1
10
49.3195981592935
20
-3.4919331954286
30
0
41
1
10
49.3498570020751
20
-2.99677158475907
30
0
41
1
10
49.370433783571
20
-2.60142676314504
30
0
41
1
10
49.3810539525447
20
-2.37006595136577
30
0
41
1
10
49.3832457193883
20
-2.32096433076842
30
0
0
SPLINE
5
163
100
AcDbEntity
8
1
62
256
6
ByLayer
370
-1
48
1
60
0
100
AcDbSpline
70
4
71
3
72
16
73
12
40
0
40
0
40
0
40
0
40
0.0989956031293168
40
0.206258546329925
40
0.316720376326182
40
0.42424930045684
40
0.534078054825224
40
0.652242136186228
40
0.787670732104138
40
0.94051422320913
40
1
40
1
40
1
40
1
41
1
10
49.383067905542
20
-2.32024781048457
30
0
41
1
10
49.3839335147083
20
-2.29842115768824
30
0
41
1
10
49.3868349854446
20
-2.25174601267383
30
0
41
1
10
49.3948049904631
20
-2.17465628292899
30
0
41
1
10
49.4067937203101
20
-2.09462775703395
30
0
41
1
10
49.422100243996
20
-2.01835418943409
30
0
41
1
10
49.4392884448108
20
-1.95003011636072
30
0
41
1
10
49.4583059315788
20
-1.88700098821118
30
0
41
1
10
49.4783286811367
20
-1.8307120017019
30
0
41
1
10
49.494336748236
20
-1.79108606753789
30
0
41
1
10
49.5027687842759
20
-1.77301641988987
30
0
41
1
10
49.5050532401466
20
-1.76835968720658
30
0
0
SPLINE
5
164
100
AcDbEntity
8
1
62
256
6
ByLayer
370
-1
48
1
60
0
100
AcDbSpline
70
4
71
3
72
25
73
21
40
0
40
0
40
0
40
0
40
0.0077253648342217
40
0.072306383432657
40
0.137244169748898
40
0.202412717138728
40
0.273884942893595
40
0.343096767180753
40
0.410088203288976
40
0.475068210825298
40
0.538153901375826
40
0.599392791459308
40
0.658775115426562
40
0.716236932039741
40
0.77165516889124
40
0.82483123600963
40
0.875449866474024
40
0.922970534201303
40
0.966348904982886
40
1
40
1
40
1
40
1
41
1
10
36.530963540163
20
4.83406614490215
30
0
41
1
10
36.5283604898984
20
4.83941379710029
30
0
41
1
10
36.504561206914
20
4.88967876543535
30
0
41
1
10
36.4742515679765
20
4.99152216631956
30
0
41
1
10
36.4429586167922
20
5.1380667120344
30
0
41
1
10
36.4306092744114
20
5.29315009559133
30
0
41
1
10
36.437598484438
20
5.45179141699862
30
0
41
1
10
36.4654596708439
20
5.6095752479373
30
0
41
1
10
36.511381470292
20
5.75779486220603
30
0
41
1
10
36.5730518227864
20
5.89499710811617
30
0
41
1
10
36.648188631774
20
6.02013447921578
30
0
41
1
10
36.734525577908
20
6.13239362868686
30
0
41
1
10
36.8297810366198
20
6.23121206956407
30
0
41
1
10
36.9316559481795
20
6.31629348265682
30
0
41
1
10
37.0378204807339
20
6.38761372628954
30
0
41
1
10
37.1458747694592
20
6.44542103900341
30
0
41
1
10
37.2532268171073
20
6.49022794619006
30
0
41
1
10
37.3567487550697
20
6.5228005556277
30
0
41
1
10
37.4493916693948
20
6.54362291126051
30
0
41
1
10
37.5066022053088
20
6.55229746316905
30
0
41
1
10
37.5312074554131
20
6.55528025822576
30
0
0
SPLINE
5
165
100
AcDbEntity
8
1
62
256
6
ByLayer
370
-1
48
1
60
0
100
AcDbSpline
70
4
71
3
72
11
73
7
40
0
40
0
40
0
40
0
40
0.258777053566674
40
0.517501179295579
40
0.775705483367104
40
1
40
1
40
1
40
1
41
1
10
15.3606984258489
20
-21.5859295233731
30
0
41
1
10
15.7938594545319
20
-21.8056644320774
30
0
41
1
10
16.6642558083078
20
-22.2364235993612
30
0
41
1
10
17.9804093187123
20
-22.8586892075633
30
0
41
1
10
19.2518771212589
20
-23.4236160011625
30
0
41
1
10
20.0907430474735
20
-23.7644235355633
30
0
41
1
10
20.4829082588027
20
-23.9177020816838
30
0
0
SPLINE
5
166
100
AcDbEntity
8
1
62
256
6
ByLayer
370
-1
48
1
60
0
100
AcDbSpline
70
4
71
3
72
11
73
7
40
0
40
0
40
0
40
0
40
0.0061630280969332
40
0.336705054503306
40
0.66824612255378
40
1
40
1
40
1
40
1
41
1
10
20.0603527509467
20
23.7513965630124
30
0
41
1
10
20.0504198241871
20
23.7476019135
30
0
41
1
10
19.5079212029231
20
23.5398713726818
30
0
41
1
10
18.4536980716505
20
23.0709807668649
30
0
41
1
10
16.89708454673
20
22.352291282538
30
0
41
1
10
15.8710843731944
20
21.8452728977716
30
0
41
1
10
15.3606984258489
20
21.5859295233731
30
0
0
SPLINE
5
167
100
AcDbEntity
8
1
62
256
6
ByLayer
370
-1
48
1
60
0
100
AcDbSpline
70
4
71
3
72
10
73
6
40
0
40
0
40
0
40
0
40
0.32824606215144
40
0.714399973123606
40
1
40
1
40
1
40
1
41
1
10
37.3127177370066
20
6.50765602166629
30
0
41
1
10
37.3441935881936
20
6.48436367764685
30
0
41
1
10
37.4103031434992
20
6.43040384888729
30
0
41
1
10
37.4954122109971
20
6.34617353011654
30
0
41
1
10
37.5452102059691
20
6.28340658865827
30
0
41
1
10
37.5652260614819
20
6.25564844947269
30
0
0
SPLINE
5
168
100
AcDbEntity
8
1
62
256
6
ByLayer
370
-1
48
1
60
0
100
AcDbSpline
70
4
71
3
72
16
73
12
40
0
40
0
40
0
40
0
40
0.160027040531608
40
0.304119452590813
40
0.430976347336694
40
0.542812765481947
40
0.646146496837689
40
0.75324590799069
40
0.860898332098474
40
0.974285168960698
40
1
40
1
40
1
40
1
41
1
10
49.5079964096138
20
2.30589589673642
30
0
41
1
10
49.5011385010348
20
2.32070810816217
30
0
41
1
10
49.4874180766463
20
2.35375737683378
30
0
41
1
10
49.465906516116
20
2.41262918130693
30
0
41
1
10
49.4456967534661
20
2.47729579938334
30
0
41
1
10
49.4276384538248
20
2.54557444000926
30
0
41
1
10
49.4118578970977
20
2.61903823206075
30
0
41
1
10
49.3987016711713
20
2.69707807331545
30
0
41
1
10
49.3892118449881
20
2.77738601100737
30
0
41
1
10
49.3843349446146
20
2.83597281988608
30
0
41
1
10
49.383267904777
20
2.86549768146645
30
0
41
1
10
49.383114620064
20
2.87088000036394
30
0
0
SPLINE
5
169
100
AcDbEntity
8
1
62
256
6
ByLayer
370
-1
48
1
60
0
100
AcDbSpline
70
4
71
3
72
12
73
8
40
0
40
0
40
0
40
0
40
0.0969228820000903
40
0.410541453984866
40
0.692137104063957
40
0.951852928505631
40
1
40
1
40
1
40
1
41
1
10
49.3832007012126
20
2.87184228711519
30
0
41
1
10
49.3806023543889
20
2.92964812101678
30
0
41
1
10
49.3692435921156
20
3.17399328986136
30
0
41
1
10
49.3475963210922
20
3.58255522668603
30
0
41
1
10
49.3162940301673
20
4.08019740833728
30
0
41
1
10
49.2923242066189
20
4.41970381784523
30
0
41
1
10
49.2773251342353
20
4.5926507061109
30
0
41
1
10
49.274938571125
20
4.61962810885532
30
0
0
SPLINE
5
16A
100
AcDbEntity
8
1
62
256
6
ByLayer
370
-1
48
1
60
0
100
AcDbSpline
70
4
71
3
72
12
73
8
40
0
40
0
40
0
40
0
40
0.13475012223058
40
0.374660465340394
40
0.643305442923166
40
0.908294922670961
40
1
40
1
40
1
40
1
41
1
10
49.7408530676772
20
1.57606213226887
30
0
41
1
10
49.7368514917501
20
1.60720557288056
30
0
41
1
10
49.7230185782254
20
1.69406524969782
30
0
41
1
10
49.6838551425315
20
1.84231112662326
30
0
41
1
10
49.6220145640328
20
2.02820487122813
30
0
41
1
10
49.5590349119709
20
2.18667900969223
30
0
41
1
10
49.5187678083508
20
2.28049910981099
30
0
41
1
10
49.5081110277566
20
2.30483795201678
30
0
0
SPLINE
5
16B
100
AcDbEntity
8
1
62
256
6
ByLayer
370
-1
48
1
60
0
100
AcDbSpline
70
4
71
3
72
12
73
8
40
0
40
0
40
0
40
0
40
0.0945828311561416
40
0.392220295825643
40
0.661346068059532
40
0.910343262786395
40
1
40
1
40
1
40
1
41
1
10
44.6455910495692
20
-30.3804058686906
30
0
41
1
10
44.6687717137406
20
-30.3622572914743
30
0
41
1
10
44.7657071590701
20
-30.2861326142933
30
0
41
1
10
44.9350900824009
20
-30.1514797975152
30
0
41
1
10
45.1534472316399
20
-29.9751751989217
30
0
41
1
10
45.3225549401286
20
-29.8368502936155
30
0
41
1
10
45.4222515039213
20
-29.7537428925364
30
0
41
1
10
45.4489360073839
20
-29.7314216075879
30
0
0
SPLINE
5
16C
100
AcDbEntity
8
1
62
256
6
ByLayer
370
-1
48
1
60
0
100
AcDbSpline
70
4
71
3
72
12
73
8
40
0
40
0
40
0
40
0
40
0.094626846817161
40
0.392080858434072
40
0.661886889560685
40
0.91181092428707
40
1
40
1
40
1
40
1
41
1
10
49.3800592377707
20
-25.0329517524912
30
0
41
1
10
49.3774203985741
20
-25.0108685543391
30
0
41
1
10
49.3661335019608
20
-24.9181442473875
30
0
41
1
10
49.3445341250685
20
-24.7526028040518
30
0
41
1
10
49.3136357627229
20
-24.5339877131367
30
0
41
1
10
49.2877750023841
20
-24.3617158800312
30
0
41
1
10
49.2708346398102
20
-24.2575261847934
30
0
41
1
10
49.2662860316494
20
-24.2299222170074
30
0
0
SPLINE
5
16D
100
AcDbEntity
8
1
62
256
6
ByLayer
370
-1
48
1
60
0
100
AcDbSpline
70
4
71
3
72
12
73
8
40
0
40
0
40
0
40
0
40
0.097068429473327
40
0.346946332035662
40
0.61384088143398
40
0.902885394224515
40
1
40
1
40
1
40
1
41
1
10
48.6772367009025
20
-26.4625809882212
30
0
41
1
10
48.6969344199703
20
-26.4375476179825
30
0
41
1
10
48.765959169434
20
-26.349357957998
30
0
41
1
10
48.8766062166929
20
-26.2039792664242
30
0
41
1
10
49.0122663529503
20
-26.0221860564832
30
0
41
1
10
49.1139152594117
20
-25.8827026091342
30
0
41
1
10
49.1701675042531
20
-25.8039917993736
30
0
41
1
10
49.184082666802
20
-25.7844204623882
30
0
0
SPLINE
5
16E
100
AcDbEntity
8
1
62
256
6
ByLayer
370
-1
48
1
60
0
100
AcDbSpline
70
4
71
3
72
22
73
18
40
0
40
0
40
0
40
0
40
0.125
40
0.125
40
0.25
40
0.25
40
0.375
40
0.375
40
0.5
40
0.5
40
0.625
40
0.625
40
0.75
40
0.75
40
0.875
40
0.875
40
1
40
1
40
1
40
1
41
1
10
35.8857902088006
20
5.21059533264861
30
0
41
1
10
35.8838927318512
20
5.28895051648794
30
0
41
1
10
35.8896110666674
20
5.36934909589786
30
0
41
1
10
35.915425333472
20
5.52613945213412
30
0
41
1
10
35.9353994341326
20
5.60331927112259
30
0
41
1
10
35.9893713274416
20
5.75527567678449
30
0
41
1
10
36.0229321525534
20
5.82857938366485
30
0
41
1
10
36.1011260815882
20
5.96759035378003
30
0
41
1
10
36.1463512003805
20
6.03425342623194
30
0
41
1
10
36.2462785357184
20
6.1582652578642
30
0
41
1
10
36.3004425835606
20
6.21514675930962
30
0
41
1
10
36.4167170975481
20
6.31916208316548
30
0
41
1
10
36.479438863238
20
6.36660789606069
30
0
41
1
10
36.6088271191773
20
6.44871671266827
30
0
41
1
10
36.6756982191555
20
6.4837145889357
30
0
41
1
10
36.8137090227363
20
6.54172746817892
30
0
41
1
10
36.8853416543424
20
6.56475040937093
30
0
41
1
10
36.9565608043424
20
6.58081303737697
30
0
0
SPLINE
5
16F
100
AcDbEntity
8
1
62
256
6
ByLayer
370
-1
48
1
60
0
100
AcDbSpline
70
4
71
3
72
8
73
4
40
0
40
0
40
0
40
0
40
1
40
1
40
1
40
1
41
1
10
35.4158209236723
20
2.68479091184793
30
0
41
1
10
35.3879119190465
20
2.62807811531226
30
0
41
1
10
35.3643653630452
20
2.56921435638048
30
0
41
1
10
35.3455267300856
20
2.50803349211071
30
0
0
SPLINE
5
170
100
AcDbEntity
8
1
62
256
6
ByLayer
370
-1
48
1
60
0
100
AcDbSpline
70
4
71
3
72
20
73
16
40
0
40
0
40
0
40
0
40
0.0625000000000008
40
0.0625000000000008
40
0.125000000000002
40
0.125000000000002
40
0.250000000000003
40
0.250000000000003
40
0.500000000000003
40
0.500000000000003
40
0.625000000000002
40
0.625000000000002
40
0.750000000000002
40
0.750000000000002
40
1
40
1
40
1
40
1
41
1
10
46.4611332143802
20
18.9498917047552
30
0
41
1
10
46.5441971072589
20
18.9498917047552
30
0
41
1
10
46.6248917019451
20
18.9498917047552
30
0
41
1
10
46.7816818376922
20
18.9498917047552
30
0
41
1
10
46.857947896721
20
18.9498917047552
30
0
41
1
10
47.0779887153548
20
18.9498917047552
30
0
41
1
10
47.2135334857269
20
18.9498917047552
30
0
41
1
10
47.5904484226276
20
18.9498917047552
30
0
41
1
10
47.8023046670647
20
18.9498917047552
30
0
41
1
10
48.0698391042907
20
18.9498917047552
30
0
41
1
10
48.150747771018
20
18.9498917047552
30
0
41
1
10
48.2946659241172
20
18.9498917047552
30
0
41
1
10
48.3580030953371
20
18.9498917047552
30
0
41
1
10
48.5248358902415
20
18.9498917047552
30
0
41
1
10
48.6052641329736
20
18.9498917047552
30
0
41
1
10
48.66
20
18.9498917047552
30
0
0
SPLINE
5
171
100
AcDbEntity
8
1
62
256
6
ByLayer
370
-1
48
1
60
0
100
AcDbSpline
70
4
71
3
72
12
73
8
40
0
40
0
40
0
40
0
40
0.5
40
0.5
40
0.75
40
0.75
40
1
40
1
40
1
40
1
41
1
10
39.731
20
18.9498917047552
30
0
41
1
10
39.9407443534255
20
18.9498917047552
30
0
41
1
10
40.1593449563685
20
18.9498917047552
30
0
41
1
10
40.5017809780094
20
18.9498917047552
30
0
41
1
10
40.6188439525425
20
18.9498917047552
30
0
41
1
10
40.8544532018798
20
18.9498917047552
30
0
41
1
10
40.973232852942
20
18.9498917047552
30
0
41
1
10
41.0929839659498
20
18.9498917047552
30
0
0
SPLINE
5
172
100
AcDbEntity
8
1
62
256
6
ByLayer
370
-1
48
1
60
0
100
AcDbSpline
70
4
71
3
72
70
73
66
40
0
40
0
40
0
40
0
40
0.0312499999999991
40
0.0312499999999991
40
0.0624999999999982
40
0.0624999999999982
40
0.124999999999996
40
0.124999999999996
40
0.156249999999996
40
0.156249999999996
40
0.187499999999995
40
0.187499999999995
40
0.249999999999994
40
0.249999999999994
40
0.281249999999993
40
0.281249999999993
40
0.312499999999993
40
0.312499999999993
40
0.328124999999993
40
0.328124999999993
40
0.343749999999993
40
0.343749999999993
40
0.374999999999993
40
0.374999999999993
40
0.390624999999994
40
0.390624999999994
40
0.406249999999995
40
0.406249999999995
40
0.437499999999995
40
0.437499999999995
40
0.453124999999995
40
0.453124999999995
40
0.468749999999995
40
0.468749999999995
40
0.499999999999995
40
0.499999999999995
40
0.531249999999996
40
0.531249999999996
40
0.562499999999996
40
0.562499999999996
40
0.578124999999996
40
0.578124999999996
40
0.593749999999995
40
0.593749999999995
40
0.609374999999995
40
0.609374999999995
40
0.624999999999995
40
0.624999999999995
40
0.687499999999997
40
0.687499999999997
40
0.703124999999997
40
0.703124999999997
40
0.718749999999998
40
0.718749999999998
40
0.749999999999998
40
0.749999999999998
40
0.781249999999999
40
0.781249999999999
40
0.812499999999999
40
0.812499999999999
40
0.874999999999999
40
0.874999999999999
40
0.9375
40
0.9375
40
1
40
1
40
1
40
1
41
1
10
41.0929839659521
20
18.9498917047551
30
0
41
1
10
41.0693488577383
20
18.8221605526503
30
0
41
1
10
41.0504861390497
20
18.6932572110276
30
0
41
1
10
41.0226754833169
20
18.4362565921537
30
0
41
1
10
41.0136474965847
20
18.3077664576636
30
0
41
1
10
41.0013640789876
20
17.9224910267518
30
0
41
1
10
41.0127175842218
20
17.6659208497984
30
0
41
1
10
41.0629160334932
20
17.2818316378048
30
0
41
1
10
41.0852205659867
20
17.1539252301166
30
0
41
1
10
41.1422984918897
20
16.8983396362908
30
0
41
1
10
41.1771018627334
20
16.7708259400037
30
0
41
1
10
41.3005424976143
20
16.3949044218742
30
0
41
1
10
41.4082503008204
20
16.1511032828142
30
0
41
1
10
41.6184312708223
20
15.7964522665446
30
0
41
1
10
41.6970233897119
20
15.67979094831
30
0
41
1
10
41.8691179640493
20
15.4557058438348
30
0
41
1
10
41.9629399793074
20
15.3476269807443
30
0
41
1
10
42.1166599411268
20
15.191646668913
30
0
41
1
10
42.1700705088496
20
15.1406777522346
30
0
41
1
10
42.2815527985307
20
15.0408472852665
30
0
41
1
10
42.339880851141
20
14.9917887008546
30
0
41
1
10
42.5203853880874
20
14.8495175101484
30
0
41
1
10
42.6476068625097
20
14.7614191066976
30
0
41
1
10
42.8493463809675
20
14.639441575477
30
0
41
1
10
42.918416949446
20
14.6004829557042
30
0
41
1
10
43.0604024842749
20
14.5260629506628
30
0
41
1
10
43.1337387437822
20
14.4904247153553
30
0
41
1
10
43.3557476722378
20
14.3908337718561
30
0
41
1
10
43.5067561782062
20
14.3338156366699
30
0
41
1
10
43.7376973548615
20
14.2621688760236
30
0
41
1
10
43.8154203649107
20
14.2406140176568
30
0
41
1
10
43.9724027340243
20
14.2023248127206
30
0
41
1
10
44.0521193539955
20
14.1855292407291
30
0
41
1
10
44.2881425774265
20
14.1437373688839
30
0
41
1
10
44.4425237419543
20
14.1268380249174
30
0
41
1
10
44.7455119862382
20
14.1148868165289
30
0
41
1
10
44.8952848266946
20
14.1201783407516
30
0
41
1
10
45.1765041565226
20
14.1530100062947
30
0
41
1
10
45.3094426275356
20
14.1803244164213
30
0
41
1
10
45.4981024468565
20
14.2378742835781
30
0
41
1
10
45.5590037991019
20
14.2598167209549
30
0
41
1
10
45.6751350974328
20
14.3083644550907
30
0
41
1
10
45.7306654376582
20
14.3350564164204
30
0
41
1
10
45.8370160253779
20
14.3931488266232
30
0
41
1
10
45.8878353419018
20
14.4245500506576
30
0
41
1
10
45.9850347623569
20
14.4920065164808
30
0
41
1
10
46.0315899562765
20
14.5282267487647
30
0
41
1
10
46.251053898222
20
14.7184684818319
30
0
41
1
10
46.3856328466457
20
14.8993968219409
30
0
41
1
10
46.5178580819614
20
15.1556774878274
30
0
41
1
10
46.5425041544311
20
15.2085932542524
30
0
41
1
10
46.5878560258404
20
15.3161673833055
30
0
41
1
10
46.6086286896171
20
15.3709309098867
30
0
41
1
10
46.6658016701677
20
15.5379531889727
30
0
41
1
10
46.6970838844283
20
15.6529371324058
30
0
41
1
10
46.7481690418665
20
15.8893222769248
30
0
41
1
10
46.7679620253196
20
16.0107257385568
30
0
41
1
10
46.7974742122251
20
16.2592867413684
30
0
41
1
10
46.8071970856069
20
16.3867117759142
30
0
41
1
10
46.8225044183551
20
16.7750182315731
30
0
41
1
10
46.8144505829041
20
17.0394817625404
30
0
41
1
10
46.7672462158061
20
17.5767363808543
30
0
41
1
10
46.7280407926146
20
17.8495370628191
30
0
41
1
10
46.6178983557118
20
18.4015757594186
30
0
41
1
10
46.547865893571
20
18.6764420336837
30
0
41
1
10
46.4611332143907
20
18.9498917047537
30
0
0
SPLINE
5
173
100
AcDbEntity
8
1
62
256
6
ByLayer
370
-1
48
1
60
0
100
AcDbSpline
70
4
71
3
72
42
73
38
40
0
40
0
40
0
40
0
40
0.0624999999999978
40
0.0624999999999978
40
0.0937499999999975
40
0.0937499999999975
40
0.124999999999997
40
0.124999999999997
40
0.249999999999993
40
0.249999999999993
40
0.281249999999993
40
0.281249999999993
40
0.312499999999993
40
0.312499999999993
40
0.374999999999992
40
0.374999999999992
40
0.437499999999991
40
0.437499999999991
40
0.49999999999999
40
0.49999999999999
40
0.562499999999988
40
0.562499999999988
40
0.593749999999988
40
0.593749999999988
40
0.624999999999987
40
0.624999999999987
40
0.749999999999988
40
0.749999999999988
40
0.781249999999989
40
0.781249999999989
40
0.81249999999999
40
0.81249999999999
40
0.874999999999993
40
0.874999999999993
40
0.937499999999997
40
0.937499999999997
40
1
40
1
40
1
40
1
41
1
10
39.731
20
5.73896414439665
30
0
41
1
10
39.9435685270525
20
5.71161847127499
30
0
41
1
10
40.1630325031503
20
5.6835563530282
30
0
41
1
10
40.503027971346
20
5.64034109470603
30
0
41
1
10
40.6179559409135
20
5.6257753231142
30
0
41
1
10
40.8484030619826
20
5.59665136740259
30
0
41
1
10
40.9642793873928
20
5.58204773421653
30
0
41
1
10
41.5468813848078
20
5.50882406459539
30
0
41
1
10
42.0231367447465
20
5.4495959036837
30
0
41
1
10
42.6317803851724
20
5.37471042093333
30
0
41
1
10
42.753748086657
20
5.35974414109114
30
0
41
1
10
42.9958493974493
20
5.33011592738302
30
0
41
1
10
43.1163270405886
20
5.31541163701507
30
0
41
1
10
43.4760644740336
20
5.27162370382973
30
0
41
1
10
43.7136344603001
20
5.24286390808473
30
0
41
1
10
44.1842503551046
20
5.18621134572572
30
0
41
1
10
44.4173523358433
20
5.15831185355927
30
0
41
1
10
44.8786045993139
20
5.10344569806102
30
0
41
1
10
45.1020718814013
20
5.07703601013458
30
0
41
1
10
45.5352102779598
20
5.02618885862287
30
0
41
1
10
45.744879804615
20
5.00175162202305
30
0
41
1
10
46.0489873662406
20
4.96658202630087
30
0
41
1
10
46.1486193862575
20
4.95510716360639
30
0
41
1
10
46.3443464891362
20
4.93266305932505
30
0
41
1
10
46.4407605710026
20
4.92165769294581
30
0
41
1
10
46.9090040781421
20
4.86846749692643
30
0
41
1
10
47.2399935151572
20
4.83170137376086
30
0
41
1
10
47.60072469748
20
4.7927770800321
30
0
41
1
10
47.6701864007866
20
4.78534843428605
30
0
41
1
10
47.8036397635265
20
4.77121696759176
30
0
41
1
10
47.8675678902859
20
4.76452150092203
30
0
41
1
10
48.0486361514201
20
4.74578602129361
30
0
41
1
10
48.1560118340823
20
4.73499488684743
30
0
41
1
10
48.3449129564225
20
4.71670616433317
30
0
41
1
10
48.4264361325688
20
4.70920886465882
30
0
41
1
10
48.5634130245465
20
4.69753574188778
30
0
41
1
10
48.6189069946195
20
4.69336704649317
30
0
41
1
10
48.66
20
4.69096335244529
30
0
0
SPLINE
5
174
100
AcDbEntity
8
1
62
256
6
ByLayer
370
-1
48
1
60
0
100
AcDbSpline
70
4
71
3
72
8
73
4
40
0
40
0
40
0
40
0
40
1
40
1
40
1
40
1
41
1
10
34.4937896283837
20
1.60896454550303
30
0
41
1
10
34.008114598314
20
1.67130153190658
30
0
41
1
10
33.5225721763098
20
1.73362513428697
30
0
41
1
10
33.0371737263834
20
1.79593420568372
30
0
0
SPLINE
5
175
100
AcDbEntity
8
1
62
256
6
ByLayer
370
-1
48
1
60
0
100
AcDbSpline
70
4
71
3
72
8
73
4
40
0
40
0
40
0
40
0
40
1
40
1
40
1
40
1
41
1
10
33.037173726384
20
19.0178599557531
30
0
41
1
10
33.5250907843323
20
18.9738052269615
30
0
41
1
10
34.0312850353045
20
18.9498917047553
30
0
41
1
10
34.5557922758142
20
18.9498917047553
30
0
0
SPLINE
5
176
100
AcDbEntity
8
1
62
256
6
ByLayer
370
-1
48
1
60
0
100
AcDbSpline
70
4
71
3
72
8
73
4
40
0
40
0
40
0
40
0
40
1
40
1
40
1
40
1
41
1
10
34.5557922758142
20
18.9498917047552
30
0
41
1
10
36.2585068561382
20
18.9498917047552
30
0
41
1
10
37.9865548671312
20
18.9498917047552
30
0
41
1
10
39.7310000000001
20
18.9498917047552
30
0
0
SPLINE
5
177
100
AcDbEntity
8
1
62
256
6
ByLayer
370
-1
48
1
60
0
100
AcDbSpline
70
4
71
3
72
22
73
18
40
0
40
0
40
0
40
0
40
0.125
40
0.125
40
0.25
40
0.25
40
0.375
40
0.375
40
0.5
40
0.5
40
0.625
40
0.625
40
0.75
40
0.75
40
0.875
40
0.875
40
1
40
1
40
1
40
1
41
1
10
36.9565608043424
20
6.58081303737634
30
0
41
1
10
37.0181057931072
20
6.59469377395021
30
0
41
1
10
37.0801123508973
20
6.60382813653888
30
0
41
1
10
37.2051342398234
20
6.61169878767575
30
0
41
1
10
37.2671027760514
20
6.61031166720878
30
0
41
1
10
37.3880197062057
20
6.59692038712086
30
0
41
1
10
37.4472804695867
20
6.58494328678856
30
0
41
1
10
37.5633196970053
20
6.5499144469008
30
0
41
1
10
37.6203026022464
20
6.52662625891895
30
0
41
1
10
37.7272303673458
20
6.47038313944449
30
0
41
1
10
37.7777634715111
20
6.43731295445068
30
0
41
1
10
37.8729399796352
20
6.36112789876731
30
0
41
1
10
37.9178640058789
20
6.31756956225195
30
0
41
1
10
37.9984545266271
20
6.22324008735424
30
0
41
1
10
38.034519801061
20
6.17226464813359
30
0
41
1
10
38.0982467761121
20
6.06267998856373
30
0
41
1
10
38.126031714498
20
6.00353850855421
30
0
41
1
10
38.1485697540847
20
5.94256030335666
30
0
0
SPLINE
5
178
100
AcDbEntity
8
1
62
256
6
ByLayer
370
-1
48
1
60
0
100
AcDbSpline
70
4
71
3
72
14
73
10
40
0
40
0
40
0
40
0
40
0.50000000000002
40
0.50000000000002
40
0.75000000000002
40
0.75000000000002
40
0.87500000000001
40
0.87500000000001
40
1
40
1
40
1
40
1
41
1
10
40.6489847717795
20
23.053468856605
30
0
41
1
10
40.6703204809593
20
22.9732321283203
30
0
41
1
10
40.6817660501524
20
22.8902093548876
30
0
41
1
10
40.6773538244018
20
22.7665968460177
30
0
41
1
10
40.6722078506853
20
22.7253190281652
30
0
41
1
10
40.6554901769202
20
22.6662227138835
30
0
41
1
10
40.6484511772294
20
22.647124335118
30
0
41
1
10
40.6298777831984
20
22.6107471657007
30
0
41
1
10
40.6183411918509
20
22.5934981889338
30
0
41
1
10
40.603630604678
20
22.5790209744097
30
0
0
SPLINE
5
179
100
AcDbEntity
8
1
62
256
6
ByLayer
370
-1
48
1
60
0
100
AcDbSpline
70
4
71
3
72
14
73
10
40
0
40
0
40
0
40
0
40
0.25
40
0.25
40
0.5
40
0.5
40
0.75
40
0.75
40
1
40
1
40
1
40
1
41
1
10
47.1180343200667
20
-4.52141348663264
30
0
41
1
10
47.1100898546274
20
-4.59671936663773
30
0
41
1
10
47.0998761038652
20
-4.66556815362571
30
0
41
1
10
47.0751785018385
20
-4.79129224121331
30
0
41
1
10
47.0605153554863
20
-4.84850215447392
30
0
41
1
10
47.028093505966
20
-4.9468187746759
30
0
41
1
10
47.0102669644217
20
-4.98852469898927
30
0
41
1
10
46.9714759102012
20
-5.05781174120344
30
0
41
1
10
46.9508385333738
20
-5.08470942151652
30
0
41
1
10
46.9293628174593
20
-5.10437861486733
30
0
0
SPLINE
5
17A
100
AcDbEntity
8
1
62
256
6
ByLayer
370
-1
48
1
60
0
100
AcDbSpline
70
4
71
3
72
8
73
4
40
0
40
0
40
0
40
0
40
1
40
1
40
1
40
1
41
1
10
37.1721670183428
20
6.07098764016365
30
0
41
1
10
37.1933956762989
20
6.06750358176402
30
0
41
1
10
37.2276225671647
20
6.06249248535579
30
0
41
1
10
37.2765135825995
20
6.05575864124097
30
0
0
SPLINE
5
17B
100
AcDbEntity
8
1
62
256
6
ByLayer
370
-1
48
1
60
0
100
AcDbSpline
70
4
71
3
72
12
73
8
40
0
40
0
40
0
40
0
40
0.5
40
0.5
40
0.75
40
0.75
40
1
40
1
40
1
40
1
41
1
10
35.0797919001175
20
1.9370642821047
30
0
41
1
10
34.9747467092703
20
1.90084053408481
30
0
41
1
10
34.8729400378817
20
1.85639098926947
30
0
41
1
10
34.725944441356
20
1.77537585882197
30
0
41
1
10
34.6779051065033
20
1.74596439996037
30
0
41
1
10
34.5840114485273
20
1.68169866179736
30
0
41
1
10
34.5378840117289
20
1.6466066259222
30
0
41
1
10
34.4937896283837
20
1.60896454550303
30
0
0
SPLINE
5
17C
100
AcDbEntity
8
1
62
256
6
ByLayer
370
-1
48
1
60
0
100
AcDbSpline
70
4
71
3
72
8
73
4
40
0
40
0
40
0
40
0
40
1
40
1
40
1
40
1
41
1
10
36.5294091831117
20
4.83539208479465
30
0
41
1
10
36.5392880708671
20
4.81153027388868
30
0
41
1
10
36.5472129697683
20
4.78127942427514
30
0
41
1
10
36.5551456358015
20
4.74776337714982
30
0
0
SPLINE
5
17D
100
AcDbEntity
8
1
62
256
6
ByLayer
370
-1
48
1
60
0
100
AcDbSpline
70
4
71
3
72
14
73
10
40
0
40
0
40
0
40
0
40
0.499999999999999
40
0.499999999999999
40
0.749999999999998
40
0.749999999999998
40
0.874999999999999
40
0.874999999999999
40
1
40
1
40
1
40
1
41
1
10
36.5551456358016
20
4.74776337714954
30
0
41
1
10
36.5031335639289
20
4.82786997930108
30
0
41
1
10
36.4538818145159
20
4.9115544033825
30
0
41
1
10
36.3761080743519
20
5.03211695329114
30
0
41
1
10
36.3496263800729
20
5.07161061892157
30
0
41
1
10
36.3045577177725
20
5.12307078425184
30
0
41
1
10
36.2887629623176
20
5.13866470791817
30
0
41
1
10
36.2538619945516
20
5.16316216235316
30
0
41
1
10
36.2349196257513
20
5.17159785168494
30
0
41
1
10
36.2147643349749
20
5.17384918179408
30
0
0
SPLINE
5
17E
100
AcDbEntity
8
1
62
256
6
ByLayer
370
-1
48
1
60
0
100
AcDbSpline
70
4
71
3
72
8
73
4
40
0
40
0
40
0
40
0
40
1
40
1
40
1
40
1
41
1
10
38.6668150418735
20
5.86965974988692
30
0
41
1
10
38.7325686338506
20
5.86104712455267
30
0
41
1
10
38.8060935624911
20
5.85163796579852
30
0
41
1
10
38.8850532198973
20
5.84170914737331
30
0
0
SPLINE
5
17F
100
AcDbEntity
8
1
62
256
6
ByLayer
370
-1
48
1
60
0
100
AcDbSpline
70
4
71
3
72
8
73
4
40
0
40
0
40
0
40
0
40
1
40
1
40
1
40
1
41
1
10
35.7882540932322
20
-8.73331930255125
30
0
41
1
10
35.8103235968931
20
-8.73632754448246
30
0
41
1
10
35.8324138241067
20
-8.73918903916021
30
0
41
1
10
35.8545216409065
20
-8.7419033736451
30
0
0
SPLINE
5
180
100
AcDbEntity
8
1
62
256
6
ByLayer
370
-1
48
1
60
0
100
AcDbSpline
70
4
71
3
72
8
73
4
40
0
40
0
40
0
40
0
40
1
40
1
40
1
40
1
41
1
10
48.1072907046099
20
-4.37677401448423
30
0
41
1
10
48.0860620466538
20
-4.38201171706788
30
0
41
1
10
48.0518351557911
20
-4.38863802358364
30
0
41
1
10
48.0029441403563
20
-4.39683090155512
30
0
0
SPLINE
5
181
100
AcDbEntity
8
1
62
256
6
ByLayer
370
-1
48
1
60
0
100
AcDbSpline
70
4
71
3
72
40
73
36
40
0
40
0
40
0
40
0
40
0.124999999999999
40
0.124999999999999
40
0.15625
40
0.15625
40
0.1875
40
0.1875
40
0.250000000000001
40
0.250000000000001
40
0.312500000000002
40
0.312500000000002
40
0.343750000000001
40
0.343750000000001
40
0.375000000000001
40
0.375000000000001
40
0.500000000000001
40
0.500000000000001
40
0.531250000000001
40
0.531250000000001
40
0.562500000000001
40
0.562500000000001
40
0.625000000000001
40
0.625000000000001
40
0.687500000000001
40
0.687500000000001
40
0.718750000000001
40
0.718750000000001
40
0.750000000000001
40
0.750000000000001
40
0.8125
40
0.8125
40
0.875
40
0.875
40
1
40
1
40
1
40
1
41
1
10
24.5145047305487
20
2.75196841561763
30
0
41
1
10
24.1724773280512
20
2.78831952259759
30
0
41
1
10
23.8327311976194
20
2.78748619728927
30
0
41
1
10
23.4106723189694
20
2.73764244906948
30
0
41
1
10
23.32639337906
20
2.72520614471964
30
0
41
1
10
23.1581025580601
20
2.69521905676757
30
0
41
1
10
23.0738044743004
20
2.67759472097325
30
0
41
1
10
22.8237267791384
20
2.61729658045809
30
0
41
1
10
22.6610057237898
20
2.5673745695141
30
0
41
1
10
22.3435017923495
20
2.44809735572167
30
0
41
1
10
22.1887173617679
20
2.37874609862112
30
0
41
1
10
21.9627218750181
20
2.25952825806544
30
0
41
1
10
21.8884231782754
20
2.21725030341301
30
0
41
1
10
21.7419709085558
20
2.127418333235
30
0
41
1
10
21.6695701346195
20
2.07968622887222
30
0
41
1
10
21.3162231914905
20
1.82931387688191
30
0
41
1
10
21.0649383426756
20
1.59548688448061
30
0
41
1
10
20.7915505580491
20
1.25984533629605
30
0
41
1
10
20.7389416036384
20
1.19051515352834
30
0
41
1
10
20.6380414825672
20
1.04726527872549
30
0
41
1
10
20.5897803481693
20
0.97332380836238
30
0
41
1
10
20.4541254117482
20
0.748418054273941
30
0
41
1
10
20.3748957459025
20
0.593136258961778
30
0
41
1
10
20.2387413950197
20
0.271965793919008
30
0
41
1
10
20.1818129218165
20
0.106078933394457
30
0
41
1
10
20.1139824113774
20
-0.15108071867391
30
0
41
1
10
20.0943519606295
20
-0.238177900109065
30
0
41
1
10
20.0616684535296
20
-0.412150243379699
30
0
41
1
10
20.0485076591683
20
-0.499400883655539
30
0
41
1
10
20.0183824458136
20
-0.761929339181734
30
0
41
1
10
20.0107356106255
20
-0.93798028209622
30
0
41
1
10
20.0203192732839
20
-1.29214177019
30
0
41
1
10
20.0378876587089
20
-1.47131730749084
30
0
41
1
10
20.1261224065446
20
-1.99542259321225
30
0
41
1
10
20.2313043917827
20
-2.33185762341245
30
0
41
1
10
20.3810414178982
20
-2.65582155150202
30
0
0
SPLINE
5
182
100
AcDbEntity
8
1
62
256
6
ByLayer
370
-1
48
1
60
0
100
AcDbSpline
70
4
71
3
72
12
73
8
40
0
40
0
40
0
40
0
40
0.25
40
0.25
40
0.5
40
0.5
40
1
40
1
40
1
40
1
41
1
10
22.8445797724922
20
-6.76390026147848
30
0
41
1
10
22.599084638756
20
-6.44508606209379
30
0
41
1
10
22.3622246866837
20
-6.11648998977586
30
0
41
1
10
21.9115604785992
20
-5.45043401443303
30
0
41
1
10
21.6970675936005
20
-5.11217563228419
30
0
41
1
10
21.083657863666
20
-4.08299318892216
30
0
41
1
10
20.7147015112937
20
-3.37771270499491
30
0
41
1
10
20.3810414178982
20
-2.65582155150202
30
0
0
SPLINE
5
183
100
AcDbEntity
8
1
62
256
6
ByLayer
370
-1
48
1
60
0
100
AcDbSpline
70
4
71
3
72
32
73
28
40
0
40
0
40
0
40
0
40
0.125000000000004
40
0.125000000000004
40
0.187500000000006
40
0.187500000000006
40
0.218750000000007
40
0.218750000000007
40
0.250000000000008
40
0.250000000000008
40
0.375000000000009
40
0.375000000000009
40
0.43750000000001
40
0.43750000000001
40
0.46875000000001
40
0.46875000000001
40
0.50000000000001
40
0.50000000000001
40
0.625000000000007
40
0.625000000000007
40
0.750000000000005
40
0.750000000000005
40
0.812500000000004
40
0.812500000000004
40
0.875000000000003
40
0.875000000000003
40
1
40
1
40
1
40
1
41
1
10
30.0000000000001
20
-17.3049204689235
30
0
41
1
10
29.439099007415
20
-17.1448245545983
30
0
41
1
10
28.9158257610932
20
-16.9224180559594
30
0
41
1
10
28.1773739043079
20
-16.5112506185408
30
0
41
1
10
27.9390438021525
20
-16.3611272570298
30
0
41
1
10
27.5925736229791
20
-16.1173260697377
30
0
41
1
10
27.4790059968269
20
-16.0329793731129
30
0
41
1
10
27.2578130830225
20
-15.860147542574
30
0
41
1
10
27.1498622004382
20
-15.7714393782447
30
0
41
1
10
26.6225086080725
20
-15.3170669314624
30
0
41
1
10
26.2399423925005
20
-14.9192317074696
30
0
41
1
10
25.7144346139901
20
-14.2784465179803
30
0
41
1
10
25.5473947639761
20
-14.0574485845714
30
0
41
1
10
25.3081973247982
20
-13.715334760979
30
0
41
1
10
25.2303654848621
20
-13.5995097915667
30
0
41
1
10
25.0794467595884
20
-13.3661010928746
30
0
41
1
10
25.0062083273289
20
-13.2483060483323
30
0
41
1
10
24.6505138790673
20
-12.6540846600931
30
0
41
1
10
24.3993180049704
20
-12.1620201113428
30
0
41
1
10
23.9524579252476
20
-11.1479553061816
30
0
41
1
10
23.7568763765744
20
-10.625920561685
30
0
41
1
10
23.5001235833157
20
-9.82153689648072
30
0
41
1
10
23.4205957905416
20
-9.54956875368902
30
0
41
1
10
23.2735075095795
20
-8.99973860725984
30
0
41
1
10
23.2063468165035
20
-8.72343556680653
30
0
41
1
10
23.0224777473913
20
-7.89048094941734
30
0
41
1
10
22.9233065466314
20
-7.32979294689449
30
0
41
1
10
22.8445797724903
20
-6.76390026147732
30
0
0
SPLINE
5
184
100
AcDbEntity
8
1
62
256
6
ByLayer
370
-1
48
1
60
0
100
AcDbSpline
70
4
71
3
72
8
73
4
40
0
40
0
40
0
40
0
40
1
40
1
40
1
40
1
41
1
10
25.3404916624335
20
-25.3542783312338
30
0
41
1
10
26.8721073122518
20
-25.7037639976194
30
0
41
1
10
28.4232275215586
20
-25.9065611984167
30
0
41
1
10
30.0000000000001
20
-25.9164346881993
30
0
0
SPLINE
5
185
100
AcDbEntity
8
1
62
256
6
ByLayer
370
-1
48
1
60
0
100
AcDbSpline
70
4
71
3
72
10
73
6
40
0
40
0
40
0
40
0
40
0.5
40
0.5
40
1
40
1
40
1
40
1
41
1
10
24.5145047305487
20
-25.1593334690804
30
0
41
1
10
24.6506428624385
20
-25.1924571298792
30
0
41
1
10
24.7891335126767
20
-25.2256875741134
30
0
41
1
10
25.0652130037287
20
-25.2908851646908
30
0
41
1
10
25.2029795312998
20
-25.3229006688346
30
0
41
1
10
25.3404916624335
20
-25.3542783312338
30
0
0
SPLINE
5
186
100
AcDbEntity
8
1
62
256
6
ByLayer
370
-1
48
1
60
0
100
AcDbSpline
70
4
71
3
72
28
73
24
40
0
40
0
40
0
40
0
40
0.216620603321941
40
0.216620603321941
40
0.270775754152428
40
0.270775754152428
40
0.324930904982914
40
0.324930904982914
40
0.433241206643887
40
0.433241206643887
40
0.541551508304859
40
0.541551508304859
40
0.595706659135345
40
0.595706659135345
40
0.649861809965831
40
0.649861809965831
40
0.866482413287771
40
0.866482413287771
40
0.920637564118256
40
0.920637564118256
40
0.974792714948741
40
0.974792714948741
40
1
40
1
40
1
40
1
41
1
10
24.5145047305487
20
-25.1593334690804
30
0
41
1
10
24.1724773280512
20
-25.0701053829245
30
0
41
1
10
23.8327311976194
20
-24.9772026953043
30
0
41
1
10
23.4106723189694
20
-24.8575986915831
30
0
41
1
10
23.32639337906
20
-24.8335015323066
30
0
41
1
10
23.1581025580601
20
-24.7849717615836
30
0
41
1
10
23.0738044743004
20
-24.7604548899192
30
0
41
1
10
22.8237267791384
20
-24.6871280706759
30
0
41
1
10
22.6610057237898
20
-24.6386242504769
30
0
41
1
10
22.3435017923495
20
-24.5425527803639
30
0
41
1
10
22.1887173617679
20
-24.4949847441473
30
0
41
1
10
21.9627218750181
20
-24.4244471310774
30
0
41
1
10
21.8884231782754
20
-24.4010701791898
30
0
41
1
10
21.7419709085558
20
-24.3546049367186
30
0
41
1
10
21.6695701346195
20
-24.3314366628416
30
0
41
1
10
21.3162231914905
20
-24.2173350799503
30
0
41
1
10
21.0649383426756
20
-24.1329408530474
30
0
41
1
10
20.791550558049
20
-24.0359546284147
30
0
41
1
10
20.7389416036384
20
-24.0169868661279
30
0
41
1
10
20.6380414825672
20
-23.9799268772673
30
0
41
1
10
20.5897803481693
20
-23.961841282044
30
0
41
1
10
20.5235145296296
20
-23.9364385156898
30
0
41
1
10
20.5030740395615
20
-23.9285141142135
30
0
41
1
10
20.4832398792137
20
-23.9207324010486
30
0
0
SPLINE
5
187
100
AcDbEntity
8
1
62
256
6
ByLayer
370
-1
48
1
60
0
100
AcDbSpline
70
4
71
3
72
8
73
4
40
0
40
0
40
0
40
0
40
1
40
1
40
1
40
1
41
1
10
25.3404916624335
20
25.2455654699626
30
0
41
1
10
26.8721073122518
20
25.6036660325761
30
0
41
1
10
28.4232275215586
20
25.815041534317
30
0
41
1
10
30.0000000000001
20
25.8334451951644
30
0
0
SPLINE
5
188
100
AcDbEntity
8
1
62
256
6
ByLayer
370
-1
48
1
60
0
100
AcDbSpline
70
4
71
3
72
10
73
6
40
0
40
0
40
0
40
0
40
0.5
40
0.5
40
1
40
1
40
1
40
1
41
1
10
24.5145047305487
20
25.0504414524541
30
0
41
1
10
24.6506428624385
20
25.0828452725845
30
0
41
1
10
24.7891335126767
20
25.1157301496229
30
0
41
1
10
25.0652130037287
20
25.1809930430463
30
0
41
1
10
25.2029795312999
20
25.2134143414918
30
0
41
1
10
25.3404916624336
20
25.2455654699626
30
0
0
SPLINE
5
189
100
AcDbEntity
8
1
62
256
6
ByLayer
370
-1
48
1
60
0
100
AcDbSpline
70
4
71
3
72
40
73
36
40
0
40
0
40
0
40
0
40
0.125
40
0.125
40
0.15625
40
0.15625
40
0.187500000000001
40
0.187500000000001
40
0.250000000000002
40
0.250000000000002
40
0.312500000000003
40
0.312500000000003
40
0.343750000000003
40
0.343750000000003
40
0.375000000000002
40
0.375000000000002
40
0.500000000000002
40
0.500000000000002
40
0.531250000000002
40
0.531250000000002
40
0.562500000000002
40
0.562500000000002
40
0.625000000000002
40
0.625000000000002
40
0.687500000000002
40
0.687500000000002
40
0.718750000000002
40
0.718750000000002
40
0.750000000000002
40
0.750000000000002
40
0.812500000000001
40
0.812500000000001
40
0.875000000000001
40
0.875000000000001
40
1
40
1
40
1
40
1
41
1
10
24.5145047305487
20
25.0504414524541
30
0
41
1
10
24.1724773280513
20
24.9595710357749
30
0
41
1
10
23.8327311976194
20
24.8666600591916
30
0
41
1
10
23.4106723189694
20
24.7491909167426
30
0
41
1
10
23.32639337906
20
24.7256291971852
30
0
41
1
10
23.1581025580601
20
24.67839514003
30
0
41
1
10
23.0738044743005
20
24.6546417371589
30
0
41
1
10
22.8237267791385
20
24.5839320794055
30
0
41
1
10
22.6610057237898
20
24.5376009634698
30
0
41
1
10
22.3435017923495
20
24.4467302607866
30
0
41
1
10
22.188717361768
20
24.402190113968
30
0
41
1
10
21.9627218750182
20
24.3368630102984
30
0
41
1
10
21.8884231782755
20
24.315334641973
30
0
41
1
10
21.7419709085559
20
24.2727988110241
30
0
41
1
10
21.6695701346196
20
24.2517191609025
30
0
41
1
10
21.3162231914905
20
24.1485767659662
30
0
41
1
10
21.0649383426756
20
24.0744282358873
30
0
41
1
10
20.7915505580491
20
23.9921606468386
30
0
41
1
10
20.7389416036384
20
23.9762336843771
30
0
41
1
10
20.6380414825672
20
23.9454576206971
30
0
41
1
10
20.5897803481693
20
23.9306161121107
30
0
41
1
10
20.4541254117483
20
23.8884821787084
30
0
41
1
10
20.3748957459025
20
23.8632894554941
30
0
41
1
10
20.2387413950197
20
23.8184717501131
30
0
41
1
10
20.1818129218165
20
23.7988457718656
30
0
41
1
10
20.1139824113774
20
23.7736471446359
30
0
41
1
10
20.0943519606295
20
23.7659681625328
30
0
41
1
10
20.0616684535297
20
23.7522802844053
30
0
41
1
10
20.0485076591684
20
23.7462323844709
30
0
41
1
10
20.0183824458136
20
23.7304063737475
30
0
41
1
10
20.0107356106255
20
23.7229341072407
30
0
41
1
10
20.0203192732839
20
23.7140690784788
30
0
41
1
10
20.0378876587089
20
23.7127259895108
30
0
41
1
10
20.1261224065447
20
23.7178858454736
30
0
41
1
10
20.2313043917827
20
23.7331529125327
30
0
41
1
10
20.3810414178982
20
23.760075801589
30
0
0
SPLINE
5
18A
100
AcDbEntity
8
1
62
256
6
ByLayer
370
-1
48
1
60
0
100
AcDbSpline
70
4
71
3
72
12
73
8
40
0
40
0
40
0
40
0
40
0.25
40
0.25
40
0.5
40
0.5
40
1
40
1
40
1
40
1
41
1
10
22.8445797724901
20
23.8901103456927
30
0
41
1
10
22.5990846387541
20
23.8967848772906
30
0
41
1
10
22.362224686682
20
23.8994652636487
30
0
41
1
10
21.9115604785979
20
23.8962049667232
30
0
41
1
10
21.6970675935995
20
23.8903004631563
30
0
41
1
10
21.0836578636655
20
23.8589946122622
30
0
41
1
10
20.7147015112935
20
23.8200682691172
30
0
41
1
10
20.3810414178982
20
23.760075801589
30
0
0
SPLINE
5
18B
100
AcDbEntity
8
1
62
256
6
ByLayer
370
-1
48
1
60
0
100
AcDbSpline
70
4
71
3
72
32
73
28
40
0
40
0
40
0
40
0
40
0.125000000000001
40
0.125000000000001
40
0.187500000000002
40
0.187500000000002
40
0.218750000000002
40
0.218750000000002
40
0.250000000000002
40
0.250000000000002
40
0.375000000000003
40
0.375000000000003
40
0.437500000000003
40
0.437500000000003
40
0.468750000000003
40
0.468750000000003
40
0.500000000000003
40
0.500000000000003
40
0.625000000000003
40
0.625000000000003
40
0.750000000000002
40
0.750000000000002
40
0.812500000000001
40
0.812500000000001
40
0.875000000000001
40
0.875000000000001
40
1
40
1
40
1
40
1
41
1
10
30.0000000000001
20
19.5265564240982
30
0
41
1
10
29.4390990074149
20
19.6680559197078
30
0
41
1
10
28.9158257610931
20
19.8292613504371
30
0
41
1
10
28.1773739043077
20
20.094485916668
30
0
41
1
10
27.9390438021522
20
20.1868185469137
30
0
41
1
10
27.5925736229789
20
20.3305657584572
30
0
41
1
10
27.4790059968267
20
20.3793332717152
30
0
41
1
10
27.2578130830223
20
20.4774248950318
30
0
41
1
10
27.1498622004379
20
20.5268818316718
30
0
41
1
10
26.6225086080722
20
20.7759252809542
30
0
41
1
10
26.2399423925002
20
20.9807444634056
30
0
41
1
10
25.7144346139897
20
21.2913302440889
30
0
41
1
10
25.5473947639758
20
21.3954270097001
30
0
41
1
10
25.3081973247978
20
21.5518436040772
30
0
41
1
10
25.2303654848617
20
21.6040309091977
30
0
41
1
10
25.079446759588
20
21.7076472398732
30
0
41
1
10
25.0062083273286
20
21.7591738484501
30
0
41
1
10
24.6505138790669
20
22.0152412583721
30
0
41
1
10
24.39931800497
20
22.2150781356781
30
0
41
1
10
23.9524579252473
20
22.6008194169763
30
0
41
1
10
23.7568763765741
20
22.7867291352875
30
0
41
1
10
23.5001235833153
20
23.0522903870892
30
0
41
1
10
23.4205957905413
20
23.1386768137739
30
0
41
1
10
23.2735075095792
20
23.3061824261588
30
0
41
1
10
23.2063468165032
20
23.3868335160084
30
0
41
1
10
23.0224777473911
20
23.6192236217733
30
0
41
1
10
22.9233065466312
20
23.7614017828758
30
0
41
1
10
22.8445797724901
20
23.8901103456927
30
0
0
SPLINE
5
18C
100
AcDbEntity
8
1
62
256
6
ByLayer
370
-1
48
1
60
0
100
AcDbSpline
70
4
71
3
72
10
73
6
40
0
40
0
40
0
40
0
40
0.5
40
0.5
40
1
40
1
40
1
40
1
41
1
10
24.5145047305487
20
2.75196841561763
30
0
41
1
10
24.6506428624385
20
2.76869568151548
30
0
41
1
10
24.7891335126767
20
2.77691636944266
30
0
41
1
10
25.0652130037287
20
2.77614898954562
30
0
41
1
10
25.2029795312981
20
2.76727683213542
30
0
41
1
10
25.3404916624318
20
2.75003997316952
30
0
0
SPLINE
5
18D
100
AcDbEntity
8
1
62
256
6
ByLayer
370
-1
48
1
60
0
100
AcDbSpline
70
4
71
3
72
8
73
4
40
0
40
0
40
0
40
0
40
1
40
1
40
1
40
1
41
1
10
25.3404916624335
20
2.75003997316929
30
0
41
1
10
26.8721073122518
20
2.55805514442477
30
0
41
1
10
28.4232275215586
20
2.3652888954764
30
0
41
1
10
30.0000000000001
20
2.17149492778424
30
0
0
SPLINE
5
18E
100
AcDbEntity
8
1
62
256
6
ByLayer
370
-1
48
1
60
0
100
AcDbSpline
70
4
71
3
72
8
73
4
40
0
40
0
40
0
40
0
40
1
40
1
40
1
40
1
41
1
10
30.0000000000001
20
19.5265564240977
30
0
41
1
10
30.6977540313916
20
19.3505327678611
30
0
41
1
10
31.4137028496828
20
19.2135731641947
30
0
41
1
10
32.1470754130172
20
19.117167973331
30
0
0
SPLINE
5
18F
100
AcDbEntity
8
1
62
256
6
ByLayer
370
-1
48
1
60
0
100
AcDbSpline
70
4
71
3
72
24
73
20
40
0
40
0
40
0
40
0
40
0.0625000000000005
40
0.0625000000000005
40
0.125000000000001
40
0.125000000000001
40
0.250000000000001
40
0.250000000000001
40
0.375000000000001
40
0.375000000000001
40
0.500000000000001
40
0.500000000000001
40
0.625
40
0.625
40
0.75
40
0.75
40
0.875
40
0.875
40
1
40
1
40
1
40
1
41
1
10
32.2104603858162
20
0.160188901031091
30
0
41
1
10
32.0372721263412
20
0.286615758582229
30
0
41
1
10
31.8671011607297
20
0.40980663190166
30
0
41
1
10
31.5312285772739
20
0.647995725998385
30
0
41
1
10
31.3651380069406
20
0.763223435312653
30
0
41
1
10
30.8784060223794
20
1.08903606404525
30
0
41
1
10
30.5668177195778
20
1.28135157480872
30
0
41
1
10
29.9484009746887
20
1.61372127410675
30
0
41
1
10
29.6412169498665
20
1.75363521448298
30
0
41
1
10
29.0134462225065
20
1.98814670613834
30
0
41
1
10
28.6918880039613
20
2.08311785246846
30
0
41
1
10
28.0388455942175
20
2.24275329594897
30
0
41
1
10
27.7071487972499
20
2.30807502412463
30
0
41
1
10
27.0433982708649
20
2.42358823230282
30
0
41
1
10
26.7116645992033
20
2.47370679857681
30
0
41
1
10
26.0588264937023
20
2.56539876730133
30
0
41
1
10
25.737726921993
20
2.60686693986221
30
0
41
1
10
25.1125553951207
20
2.68376747108968
30
0
41
1
10
24.808428858131
20
2.71915051166815
30
0
41
1
10
24.5145047305487
20
2.75196841561763
30
0
0
SPLINE
5
190
100
AcDbEntity
8
1
62
256
6
ByLayer
370
-1
48
1
60
0
100
AcDbSpline
70
4
71
3
72
42
73
38
40
0
40
0
40
0
40
0
40
0.125000000000003
40
0.125000000000003
40
0.187500000000004
40
0.187500000000004
40
0.250000000000006
40
0.250000000000006
40
0.312500000000007
40
0.312500000000007
40
0.375000000000009
40
0.375000000000009
40
0.43750000000001
40
0.43750000000001
40
0.500000000000012
40
0.500000000000012
40
0.562500000000013
40
0.562500000000013
40
0.593750000000013
40
0.593750000000013
40
0.625000000000012
40
0.625000000000012
40
0.656250000000011
40
0.656250000000011
40
0.68750000000001
40
0.68750000000001
40
0.750000000000007
40
0.750000000000007
40
0.781250000000007
40
0.781250000000007
40
0.812500000000006
40
0.812500000000006
40
0.875000000000004
40
0.875000000000004
40
0.937500000000002
40
0.937500000000002
40
1
40
1
40
1
40
1
41
1
10
34.6951569179414
20
-1.61018961650353
30
0
41
1
10
34.4910419043345
20
-1.73654581895568
30
0
41
1
10
34.277266033024
20
-1.84033024675168
30
0
41
1
10
33.9412837481559
20
-1.96097925017389
30
0
41
1
10
33.8261651587934
20
-1.99536247872788
30
0
41
1
10
33.5960181924678
20
-2.05026698877924
30
0
41
1
10
33.4804283454942
20
-2.07105538074799
30
0
41
1
10
33.2480602803891
20
-2.09914734238259
30
0
41
1
10
33.1312833806849
20
-2.10646092612063
30
0
41
1
10
32.8963509824353
20
-2.10663201389966
30
0
41
1
10
32.7785362804355
20
-2.09937814858722
30
0
41
1
10
32.5478947640813
20
-2.06969210108326
30
0
41
1
10
32.4342864212491
20
-2.04730683467346
30
0
41
1
10
32.2109317037603
20
-1.98552859561991
30
0
41
1
10
32.1003035086036
20
-1.94570036852684
30
0
41
1
10
31.8906903348565
20
-1.84776509751441
30
0
41
1
10
31.7911607479471
20
-1.78978019483563
30
0
41
1
10
31.6524881869052
20
-1.68509281738284
30
0
41
1
10
31.6084160178873
20
-1.64741369865735
30
0
41
1
10
31.5267077091807
20
-1.56702850959459
30
0
41
1
10
31.4888451047817
20
-1.5241696943003
30
0
41
1
10
31.4202683437896
20
-1.43218103457454
30
0
41
1
10
31.3895654956639
20
-1.38284218492464
30
0
41
1
10
31.3389447542752
20
-1.28066021991526
30
0
41
1
10
31.3186803205486
20
-1.22743119227653
30
0
41
1
10
31.2752194790816
20
-1.06057687271584
30
0
41
1
10
31.2713767300188
20
-0.945147921827498
30
0
41
1
10
31.3028104378418
20
-0.774773334586428
30
0
41
1
10
31.3191092744512
20
-0.719667640796985
30
0
41
1
10
31.3617543036865
20
-0.612445231445975
30
0
41
1
10
31.3883288161159
20
-0.560091494558719
30
0
41
1
10
31.4784743900722
20
-0.41170480884702
30
0
41
1
10
31.5529242335591
20
-0.322290864528355
30
0
41
1
10
31.7208608605467
20
-0.158092918610748
30
0
41
1
10
31.8120705308579
20
-0.0855016849463084
30
0
41
1
10
32.0043377252559
20
0.0465753248680585
30
0
41
1
10
32.1054691796741
20
0.105967944368189
30
0
41
1
10
32.2104603858162
20
0.160188901031091
30
0
0
SPLINE
5
191
100
AcDbEntity
8
1
62
256
6
ByLayer
370
-1
48
1
60
0
100
AcDbSpline
70
4
71
3
72
8
73
4
40
0
40
0
40
0
40
0
40
1
40
1
40
1
40
1
41
1
10
36.5080702386754
20
-2.71694009447606
30
0
41
1
10
35.8798879370989
20
-2.36824495507617
30
0
41
1
10
35.2768251301305
20
-1.99632343624125
30
0
41
1
10
34.6951569179414
20
-1.61018961650356
30
0
0
SPLINE
5
192
100
AcDbEntity
8
1
62
256
6
ByLayer
370
-1
48
1
60
0
100
AcDbSpline
70
4
71
3
72
12
73
8
40
0
40
0
40
0
40
0
40
0.5
40
0.5
40
0.75
40
0.75
40
1
40
1
40
1
40
1
41
1
10
38.4064475597797
20
-4.08587566402016
30
0
41
1
10
38.114653494525
20
-3.86832778748771
30
0
41
1
10
37.8194963208867
20
-3.63133924653579
30
0
41
1
10
37.3500345613444
20
-3.27362278739133
30
0
41
1
10
37.188216843117
20
-3.15359889465429
30
0
41
1
10
36.8565646686879
20
-2.9249559197965
30
0
41
1
10
36.6862199423313
20
-2.81582848339511
30
0
41
1
10
36.5080702386754
20
-2.71694009447603
30
0
0
SPLINE
5
193
100
AcDbEntity
8
1
62
256
6
ByLayer
370
-1
48
1
60
0
100
AcDbSpline
70
4
71
3
72
10
73
6
40
0
40
0
40
0
40
0
40
0.5
40
0.5
40
1
40
1
40
1
40
1
41
1
10
45.2979526291586
20
5.04709910017351
30
0
41
1
10
45.3353967885844
20
5.04268191722829
30
0
41
1
10
45.3706413824696
20
5.03857344344675
30
0
41
1
10
45.4371717615643
20
5.03091211493347
30
0
41
1
10
45.4685960997172
20
5.02734422335004
30
0
41
1
10
45.4974384936049
20
5.02412255066372
30
0
0
SPLINE
5
194
100
AcDbEntity
8
1
62
256
6
ByLayer
370
-1
48
1
60
0
100
AcDbSpline
70
4
71
3
72
10
73
6
40
0
40
0
40
0
40
0
40
0.391400807416055
40
0.391400807416055
40
1
40
1
40
1
40
1
41
1
10
34.9679479205371
20
27.0296986375447
30
0
41
1
10
34.9016306649223
20
26.9988767355121
30
0
41
1
10
34.8368997156517
20
26.9690985702498
30
0
41
1
10
34.6759429011139
20
26.8958465993637
30
0
41
1
10
34.5821332857994
20
26.8539223479614
30
0
41
1
10
34.4937896283832
20
26.8152918910126
30
0
0
SPLINE
5
195
100
AcDbEntity
8
1
62
256
6
ByLayer
370
-1
48
1
60
0
100
AcDbSpline
70
4
71
3
72
8
73
4
40
0
40
0
40
0
40
0
40
1
40
1
40
1
40
1
41
1
10
49.2749478130823
20
-4.0859226618862
30
0
41
1
10
49.2748090050471
20
-4.08782211995836
30
0
41
1
10
49.2669867613305
20
-4.09064462068002
30
0
41
1
10
49.2521141351856
20
-4.09431411276691
30
0
0
SPLINE
5
196
100
AcDbEntity
8
1
62
256
6
ByLayer
370
-1
48
1
60
0
100
AcDbSpline
70
4
71
3
72
14
73
10
40
0
40
0
40
0
40
0
40
0.25
40
0.25
40
0.5
40
0.5
40
0.75
40
0.75
40
1
40
1
40
1
40
1
41
1
10
32.1470754130175
20
-17.7571077236956
30
0
41
1
10
32.228562699164
20
-17.7686590081268
30
0
41
1
10
32.310157585129
20
-17.7872454687887
30
0
41
1
10
32.468319717597
20
-17.8362556353839
30
0
41
1
10
32.5450868969099
20
-17.866585174424
30
0
41
1
10
32.69449739855
20
-17.9376243220219
30
0
41
1
10
32.7675613581853
20
-17.9786486861545
30
0
41
1
10
32.9069361806848
20
-18.0684167575197
30
0
41
1
10
32.9734476529556
20
-18.1171742766045
30
0
41
1
10
33.0371737263835
20
-18.1693254135377
30
0
0
SPLINE
5
197
100
AcDbEntity
8
1
62
256
6
ByLayer
370
-1
48
1
60
0
100
AcDbSpline
70
4
71
3
72
8
73
4
40
0
40
0
40
0
40
0
40
1
40
1
40
1
40
1
41
1
10
46.6126426810824
20
-4.61364311023416
30
0
41
1
10
46.5724642857203
20
-4.61956269011688
30
0
41
1
10
46.5296875355228
20
-4.62562055800481
30
0
41
1
10
46.4844921257097
20
-4.63180715027207
30
0
0
SPLINE
5
198
100
AcDbEntity
8
1
62
256
6
ByLayer
370
-1
48
1
60
0
100
AcDbSpline
70
4
71
3
72
8
73
4
40
0
40
0
40
0
40
0
40
1
40
1
40
1
40
1
41
1
10
48.6251542716295
20
-26.5218825262861
30
0
41
1
10
48.6831520437421
20
-26.463192602744
30
0
41
1
10
48.7292684679402
20
-26.3963641946311
30
0
41
1
10
48.7619807957535
20
-26.3203542499236
30
0
0
SPLINE
5
199
100
AcDbEntity
8
1
62
256
6
ByLayer
370
-1
48
1
60
0
100
AcDbSpline
70
4
71
3
72
22
73
18
40
0
40
0
40
0
40
0
40
0.0865929628463704
40
0.0865929628463704
40
0.177933666561733
40
0.177933666561733
40
0.269274370277095
40
0.269274370277095
40
0.45195577770782
40
0.45195577770782
40
0.634637185138545
40
0.634637185138545
40
0.725977888853908
40
0.725977888853908
40
0.817318592569271
40
0.817318592569271
40
1
40
1
40
1
40
1
41
1
10
37.0327931942435
20
1.16694218098073
30
0
41
1
10
37.1235675729679
20
1.12800488488011
30
0
41
1
10
37.2158187814046
20
1.08680329919986
30
0
41
1
10
37.4093160479229
20
0.998153197865975
30
0
41
1
10
37.5107820215021
20
0.950512010913798
30
0
41
1
10
37.7189674943787
20
0.851963329115137
30
0
41
1
10
37.8260320269058
20
0.800895217836
30
0
41
1
10
38.1540283777248
20
0.645561312563046
30
0
41
1
10
38.3794263982797
20
0.540430097450269
30
0
41
1
10
38.8459352514745
20
0.335296605381472
30
0
41
1
10
39.0870135469061
20
0.235279220644713
30
0
41
1
10
39.4609070507308
20
0.09308079656617
30
0
41
1
10
39.5875754562836
20
0.046964415619243
30
0
41
1
10
39.845006054647
20
-0.0422552181944695
30
0
41
1
10
39.9761165419129
20
-0.0854671332892281
30
0
41
1
10
40.3731671051284
20
-0.209329362440485
30
0
41
1
10
40.6403076412764
20
-0.283463981979139
30
0
41
1
10
40.9097502612299
20
-0.349307603736889
30
0
0
SPLINE
5
19A
100
AcDbEntity
8
1
62
256
6
ByLayer
370
-1
48
1
60
0
100
AcDbSpline
70
4
71
3
72
8
73
4
40
0
40
0
40
0
40
0
40
1
40
1
40
1
40
1
41
1
10
30.0000000000001
20
-17.3049204689234
30
0
41
1
10
30.6977540313919
20
-17.504077844479
30
0
41
1
10
31.4137028496832
20
-17.6531480083374
30
0
41
1
10
32.1470754130178
20
-17.7571077236956
30
0
0
SPLINE
5
19B
100
AcDbEntity
8
1
62
256
6
ByLayer
370
-1
48
1
60
0
100
AcDbSpline
70
4
71
3
72
8
73
4
40
0
40
0
40
0
40
0
40
1
40
1
40
1
40
1
41
1
10
34.5557922758142
20
-19.3185658336495
30
0
41
1
10
36.25881851609
20
-20.5103973861366
30
0
41
1
10
37.986831524152
20
-21.6654984208763
30
0
41
1
10
39.7310000000001
20
-22.7968509379484
30
0
0
SPLINE
5
19C
100
AcDbEntity
8
1
62
256
6
ByLayer
370
-1
48
1
60
0
100
AcDbSpline
70
4
71
3
72
10
73
6
40
0
40
0
40
0
40
0
40
0.5
40
0.5
40
1
40
1
40
1
40
1
41
1
10
48.6600000000001
20
-13.1991687078264
30
0
41
1
10
48.5779086147417
20
-12.3373705073162
30
0
41
1
10
48.4377828762096
20
-11.4890458452073
30
0
41
1
10
48.0819587751456
20
-9.80994182983
30
0
41
1
10
47.8657349927359
20
-8.97928446060212
30
0
41
1
10
47.6300357818517
20
-8.15314860180089
30
0
0
SPLINE
5
19D
100
AcDbEntity
8
1
62
256
6
ByLayer
370
-1
48
1
60
0
100
AcDbSpline
70
4
71
3
72
22
73
18
40
0
40
0
40
0
40
0
40
0.124999999999998
40
0.124999999999998
40
0.187499999999997
40
0.187499999999997
40
0.249999999999996
40
0.249999999999996
40
0.500000000000002
40
0.500000000000002
40
0.562500000000002
40
0.562500000000002
40
0.625000000000002
40
0.625000000000002
40
0.750000000000001
40
0.750000000000001
40
1
40
1
40
1
40
1
41
1
10
46.2924012974011
20
-21.975524354755
30
0
41
1
10
46.4720550508665
20
-21.794087125511
30
0
41
1
10
46.6411660538978
20
-21.6019594707634
30
0
41
1
10
46.8800219257522
20
-21.2987498995339
30
0
41
1
10
46.9569510080291
20
-21.1954159534909
30
0
41
1
10
47.10451717838
20
-20.9861345861837
30
0
41
1
10
47.1753488790012
20
-20.8799430425868
30
0
41
1
10
47.5156385985277
20
-20.3416977141528
30
0
41
1
10
47.7439072032032
20
-19.8880001850165
30
0
41
1
10
47.9833716154064
20
-19.2967743223502
30
0
41
1
10
48.0289476285419
20
-19.1773117077204
30
0
41
1
10
48.1156136597218
20
-18.9360292288496
30
0
41
1
10
48.15671378599
20
-18.8141390571079
30
0
41
1
10
48.2725847456722
20
-18.4480703376489
30
0
41
1
10
48.34032291377
20
-18.2024947285466
30
0
41
1
10
48.5181561863711
20
-17.4616846595671
30
0
41
1
10
48.6030032154897
20
-16.9623883797274
30
0
41
1
10
48.66
20
-16.458611652258
30
0
0
SPLINE
5
19E
100
AcDbEntity
8
1
62
256
6
ByLayer
370
-1
48
1
60
0
100
AcDbSpline
70
4
71
3
72
12
73
8
40
0
40
0
40
0
40
0
40
0.5
40
0.5
40
0.75
40
0.75
40
1
40
1
40
1
40
1
41
1
10
39.7310000000001
20
-22.7968509379484
30
0
41
1
10
39.9583091885863
20
-22.9442947349335
30
0
41
1
10
40.1959257103245
20
-23.0753872674879
30
0
41
1
10
40.5693909097454
20
-23.244993626675
30
0
41
1
10
40.6970828608898
20
-23.2970827383146
30
0
41
1
10
40.9536611672668
20
-23.3899845415483
30
0
41
1
10
41.0830683571327
20
-23.4310659884437
30
0
41
1
10
41.2135918441806
20
-23.4667863346732
30
0
0
SPLINE
5
19F
100
AcDbEntity
8
1
62
256
6
ByLayer
370
-1
48
1
60
0
100
AcDbSpline
70
4
71
3
72
38
73
34
40
0
40
0
40
0
40
0
40
0.0625000000000004
40
0.0625000000000004
40
0.125000000000001
40
0.125000000000001
40
0.187500000000001
40
0.187500000000001
40
0.250000000000002
40
0.250000000000002
40
0.375000000000001
40
0.375000000000001
40
0.437500000000001
40
0.437500000000001
40
0.500000000000001
40
0.500000000000001
40
0.562500000000002
40
0.562500000000002
40
0.593750000000002
40
0.593750000000002
40
0.625000000000002
40
0.625000000000002
40
0.750000000000002
40
0.750000000000002
40
0.781250000000002
40
0.781250000000002
40
0.812500000000002
40
0.812500000000002
40
0.875000000000001
40
0.875000000000001
40
0.937500000000001
40
0.937500000000001
40
1
40
1
40
1
40
1
41
1
10
39.7310000000001
20
-29.0952335525427
30
0
41
1
10
39.9446460312329
20
-29.2079671026853
30
0
41
1
10
40.1674496889874
20
-29.3095573817006
30
0
41
1
10
40.6184500887386
20
-29.4841946342867
30
0
41
1
10
40.8474407232571
20
-29.5578468940208
30
0
41
1
10
41.3123087532882
20
-29.678187149786
30
0
41
1
10
41.5481858087489
20
-29.7248764772484
30
0
41
1
10
42.0270083012956
20
-29.7905797552782
30
0
41
1
10
42.2713776518722
20
-29.8094948263153
30
0
41
1
10
42.9972755184366
20
-29.8223021612237
30
0
41
1
10
43.4759141050488
20
-29.7740846682287
30
0
41
1
10
44.185833925935
20
-29.6155733093999
30
0
41
1
10
44.4219676170604
20
-29.5477322052786
30
0
41
1
10
44.878963461542
20
-29.3861475240176
30
0
41
1
10
45.1013369720662
20
-29.292183893318
30
0
41
1
10
45.5339973291149
20
-29.078262795306
30
0
41
1
10
45.7442847787767
20
-28.9583066251137
30
0
41
1
10
46.0503936487836
20
-28.7583236235654
30
0
41
1
10
46.1511879687534
20
-28.6880620520436
30
0
41
1
10
46.3472762626319
20
-28.5423988864275
30
0
41
1
10
46.4427290726699
20
-28.466925176575
30
0
41
1
10
46.9073082313463
20
-28.0766231122179
30
0
41
1
10
47.2388956290415
20
-27.7235200441991
30
0
41
1
10
47.6023415289977
20
-27.2301025115878
30
0
41
1
10
47.6722445172297
20
-27.1290134808066
30
0
41
1
10
47.8050965256141
20
-26.9242285636397
30
0
41
1
10
47.8682702512313
20
-26.8202335877369
30
0
41
1
10
48.0482231070465
20
-26.5035339961936
30
0
41
1
10
48.1554647636849
20
-26.2861299164052
30
0
41
1
10
48.3447179793692
20
-25.8388899594198
30
0
41
1
10
48.4268895227364
20
-25.6085037721285
30
0
41
1
10
48.5645452432476
20
-25.1372370881677
30
0
41
1
10
48.6190940696981
20
-24.8998096185279
30
0
41
1
10
48.66
20
-24.6606679504576
30
0
0
SPLINE
5
1A0
100
AcDbEntity
8
1
62
256
6
ByLayer
370
-1
48
1
60
0
100
AcDbSpline
70
4
71
3
72
70
73
66
40
0
40
0
40
0
40
0
40
0.0625000000000003
40
0.0625000000000003
40
0.0937500000000007
40
0.0937500000000007
40
0.125000000000001
40
0.125000000000001
40
0.187500000000003
40
0.187500000000003
40
0.218750000000003
40
0.218750000000003
40
0.250000000000004
40
0.250000000000004
40
0.281250000000004
40
0.281250000000004
40
0.296875000000005
40
0.296875000000005
40
0.312500000000005
40
0.312500000000005
40
0.343750000000006
40
0.343750000000006
40
0.375000000000006
40
0.375000000000006
40
0.406250000000006
40
0.406250000000006
40
0.421875000000006
40
0.421875000000006
40
0.437500000000006
40
0.437500000000006
40
0.468750000000005
40
0.468750000000005
40
0.484375000000004
40
0.484375000000004
40
0.500000000000003
40
0.500000000000003
40
0.531250000000002
40
0.531250000000002
40
0.562500000000001
40
0.562500000000001
40
0.59375
40
0.59375
40
0.624999999999999
40
0.624999999999999
40
0.640624999999999
40
0.640624999999999
40
0.656249999999999
40
0.656249999999999
40
0.687499999999999
40
0.687499999999999
40
0.718749999999999
40
0.718749999999999
40
0.749999999999999
40
0.749999999999999
40
0.812499999999999
40
0.812499999999999
40
0.843749999999999
40
0.843749999999999
40
0.874999999999999
40
0.874999999999999
40
0.937499999999999
40
0.937499999999999
40
0.96875
40
0.96875
40
1
40
1
40
1
40
1
41
1
10
41.2135918441806
20
-23.4667863346732
30
0
41
1
10
41.1352401338454
20
-23.6640493006568
30
0
41
1
10
41.0794032321254
20
-23.8619784585955
30
0
41
1
10
41.0283807989573
20
-24.1613694661864
30
0
41
1
10
41.0168877487082
20
-24.2615812963903
30
0
41
1
10
41.0054726313657
20
-24.4630751260443
30
0
41
1
10
41.0056114661968
20
-24.5638621847242
30
0
41
1
10
41.0241877522853
20
-24.864111339059
30
0
41
1
10
41.06043392243
20
-25.0625144687171
30
0
41
1
10
41.1569821959999
20
-25.3568295495396
30
0
41
1
10
41.1962572805738
20
-25.4543685758654
30
0
41
1
10
41.2911233485864
20
-25.6478786818633
30
0
41
1
10
41.3466897069297
20
-25.7435812804091
30
0
41
1
10
41.4740194794316
20
-25.9287141919314
30
0
41
1
10
41.5459786394063
20
-26.0186062914168
30
0
41
1
10
41.6680411455692
20
-26.1483393562903
30
0
41
1
10
41.7110897257213
20
-26.1907279345326
30
0
41
1
10
41.8023015810558
20
-26.2735344928758
30
0
41
1
10
41.8506343711045
20
-26.3140809935146
30
0
41
1
10
42.0027704992819
20
-26.4313023602465
30
0
41
1
10
42.1130439942363
20
-26.5031926040416
30
0
41
1
10
42.3529426990825
20
-26.6319145161944
30
0
41
1
10
42.4828409410261
20
-26.6888799388331
30
0
41
1
10
42.763780720634
20
-26.7832980355759
30
0
41
1
10
42.9112214830742
20
-26.8195612723411
30
0
41
1
10
43.1432195897951
20
-26.8554904012294
30
0
41
1
10
43.2223666370592
20
-26.8643764669248
30
0
41
1
10
43.3844839351783
20
-26.8754149967726
30
0
41
1
10
43.4675474815662
20
-26.8775111430532
30
0
41
1
10
43.7164080310361
20
-26.8730114240461
30
0
41
1
10
43.8838649504525
20
-26.8559128474028
30
0
41
1
10
44.1373159276802
20
-26.8079901783756
30
0
41
1
10
44.2226590843942
20
-26.7881462260964
30
0
41
1
10
44.3918619475141
20
-26.7411867329138
30
0
41
1
10
44.4751219406157
20
-26.7142851735526
30
0
41
1
10
44.7210331033303
20
-26.6237085269379
30
0
41
1
10
44.8802690231036
20
-26.5499837005298
30
0
41
1
10
45.1868581852981
20
-26.3776913089899
30
0
41
1
10
45.3295671405364
20
-26.2818426352276
30
0
41
1
10
45.5962671957003
20
-26.0737814132262
30
0
41
1
10
45.7207851888724
20
-25.9607047516082
30
0
41
1
10
45.944200692906
20
-25.7290027420041
30
0
41
1
10
46.0443639366788
20
-25.6095386686926
30
0
41
1
10
46.1796464656381
20
-25.4265748859215
30
0
41
1
10
46.2220087158352
20
-25.3652327790628
30
0
41
1
10
46.3009337454002
20
-25.2433857023144
30
0
41
1
10
46.3376515299371
20
-25.1826718550105
30
0
41
1
10
46.4404170405643
20
-25.0013100275274
30
0
41
1
10
46.4991166930302
20
-24.881451335856
30
0
41
1
10
46.6001199445953
20
-24.6443562962285
30
0
41
1
10
46.6425128290695
20
-24.526602066183
30
0
41
1
10
46.7117577460796
20
-24.2986327692251
30
0
41
1
10
46.7388898847481
20
-24.1878871725671
30
0
41
1
10
46.8016232319233
20
-23.8641879194513
30
0
41
1
10
46.8188526930491
20
-23.6597276378576
30
0
41
1
10
46.815131986722
20
-23.3663482422373
30
0
41
1
10
46.8088443651721
20
-23.2709662003726
30
0
41
1
10
46.7870965915392
20
-23.0865381809591
30
0
41
1
10
46.7716348054911
20
-22.9971565698944
30
0
41
1
10
46.712069030634
20
-22.7364777245003
30
0
41
1
10
46.6549958592952
20
-22.5725535760189
30
0
41
1
10
46.5416710699781
20
-22.3392126255285
30
0
41
1
10
46.4992261460999
20
-22.2635466525326
30
0
41
1
10
46.4039848907448
20
-22.1163688481488
30
0
41
1
10
46.3510926115321
20
-22.0447318362212
30
0
41
1
10
46.2924012974011
20
-21.9755243547549
30
0
0
SPLINE
5
1A1
100
AcDbEntity
8
1
62
256
6
ByLayer
370
-1
48
1
60
0
100
AcDbSpline
70
4
71
3
72
26
73
22
40
0
40
0
40
0
40
0
40
0.0625000000000001
40
0.0625000000000001
40
0.125
40
0.125
40
0.25
40
0.25
40
0.374999999999999
40
0.374999999999999
40
0.437499999999999
40
0.437499999999999
40
0.499999999999999
40
0.499999999999999
40
0.749999999999999
40
0.749999999999999
40
0.874999999999999
40
0.874999999999999
40
0.937499999999999
40
0.937499999999999
40
1
40
1
40
1
40
1
41
1
10
22.8445797724901
20
23.8901103456927
30
0
41
1
10
23.0685210970495
20
23.6929121454959
30
0
41
1
10
23.2973003665334
20
23.500231189723
30
0
41
1
10
23.7603962791945
20
23.1273562598139
30
0
41
1
10
23.9952475168569
20
22.9466798376146
30
0
41
1
10
24.7097284483629
20
22.4216809774573
30
0
41
1
10
25.1992704125139
20
22.0943537696636
30
0
41
1
10
26.2052337906317
20
21.4845816686045
30
0
41
1
10
26.7216525191948
20
21.2021367702488
30
0
41
1
10
27.5171476470744
20
20.8126342842868
30
0
41
1
10
27.7860059078815
20
20.6884116474291
30
0
41
1
10
28.3299752933784
20
20.4519505275305
30
0
41
1
10
28.6035814861625
20
20.3403544489415
30
0
41
1
10
29.9796805910879
20
19.8149068857964
30
0
41
1
10
31.1062451635574
20
19.497871215447
30
0
41
1
10
32.83542492352
20
19.1748511426987
30
0
41
1
10
33.4183994000735
20
19.0927521897862
30
0
41
1
10
34.3030969813947
20
19.0090716736772
30
0
41
1
10
34.599955901048
20
18.9877737443455
30
0
41
1
10
35.1935716943793
20
18.9587664076618
30
0
41
1
10
35.4907348447485
20
18.9510064528428
30
0
41
1
10
35.7882540932323
20
18.9500033277009
30
0
0
SPLINE
5
1A2
100
AcDbEntity
8
1
62
256
6
ByLayer
370
-1
48
1
60
0
100
AcDbSpline
70
4
71
3
72
12
73
8
40
0
40
0
40
0
40
0
40
0.50000000000001
40
0.50000000000001
40
0.750000000000005
40
0.750000000000005
40
1
40
1
40
1
40
1
41
1
10
33.0371737263834
20
-26.1421991680032
30
0
41
1
10
32.8990780494022
20
-26.0728087978347
30
0
41
1
10
32.7551964971016
20
-26.020179756265
30
0
41
1
10
32.5307782505817
20
-25.9661380452994
30
0
41
1
10
32.4540326784395
20
-25.9522769183912
30
0
41
1
10
32.3006041117712
20
-25.9337052688795
30
0
41
1
10
32.2238562608068
20
-25.9289085529377
30
0
41
1
10
32.1470754130169
20
-25.9285246102212
30
0
0
SPLINE
5
1A3
100
AcDbEntity
8
1
62
256
6
ByLayer
370
-1
48
1
60
0
100
AcDbSpline
70
4
71
3
72
8
73
4
40
0
40
0
40
0
40
0
40
1
40
1
40
1
40
1
41
1
10
38.1485697540847
20
-28.2578828948286
30
0
41
1
10
38.6757128603478
20
-28.5376322999001
30
0
41
1
10
39.2031989944791
20
-28.8167313927887
30
0
41
1
10
39.7310000000001
20
-29.0952335525427
30
0
0
SPLINE
5
1A4
100
AcDbEntity
8
1
62
256
6
ByLayer
370
-1
48
1
60
0
100
AcDbSpline
70
4
71
3
72
22
73
18
40
0
40
0
40
0
40
0
40
0.125
40
0.125
40
0.25
40
0.25
40
0.375
40
0.375
40
0.5
40
0.5
40
0.625
40
0.625
40
0.75
40
0.75
40
0.875
40
0.875
40
1
40
1
40
1
40
1
41
1
10
36.9565608043424
20
-27.5276595727157
30
0
41
1
10
37.0187415215674
20
-27.5565153512056
30
0
41
1
10
37.0812935306446
20
-27.5865840442052
30
0
41
1
10
37.2049290086641
20
-27.6481466954397
30
0
41
1
10
37.2663523003502
20
-27.6797963430568
30
0
41
1
10
37.3883722620305
20
-27.7449181398968
30
0
41
1
10
37.4488103402334
20
-27.7783321130396
30
0
41
1
10
37.5643246933649
20
-27.8444847006701
30
0
41
1
10
37.6199863269926
20
-27.8775300142015
30
0
41
1
10
37.7270419522581
20
-27.9434811565754
30
0
41
1
10
37.7787083989357
20
-27.9765911033838
30
0
41
1
10
37.8737750520895
20
-28.0400692659182
30
0
41
1
10
37.9176738213612
20
-28.0707289368437
30
0
41
1
10
37.9982139201451
20
-28.1297799076925
30
0
41
1
10
38.0350412992313
20
-28.1583499331045
30
0
41
1
10
38.0987503298736
20
-28.2110928203184
30
0
41
1
10
38.1259752702206
20
-28.2354961281698
30
0
41
1
10
38.1485697540847
20
-28.2578828948286
30
0
0
SPLINE
5
1A5
100
AcDbEntity
8
1
62
256
6
ByLayer
370
-1
48
1
60
0
100
AcDbSpline
70
4
71
3
72
22
73
18
40
0
40
0
40
0
40
0
40
0.125
40
0.125
40
0.25
40
0.25
40
0.375
40
0.375
40
0.5
40
0.5
40
0.625
40
0.625
40
0.75
40
0.75
40
0.875
40
0.875
40
1
40
1
40
1
40
1
41
1
10
35.8857902088006
20
-27.2349319266795
30
0
41
1
10
35.8838856430784
20
-27.221436401517
30
0
41
1
10
35.889448562637
20
-27.2113733313202
30
0
41
1
10
35.915119122816
20
-27.1979525479604
30
0
41
1
10
35.9355125342565
20
-27.1946764990199
30
0
41
1
10
35.9889531465627
20
-27.1951323650575
30
0
41
1
10
36.0220738668363
20
-27.1987566727049
30
0
41
1
10
36.1009504594926
20
-27.2128563761716
30
0
41
1
10
36.1459597548025
20
-27.2232209487365
30
0
41
1
10
36.2450590287429
20
-27.2499950111968
30
0
41
1
10
36.299774975384
20
-27.2665861303818
30
0
41
1
10
36.4167885386499
20
-27.3054845854408
30
0
41
1
10
36.4783593980948
20
-27.3275258367653
30
0
41
1
10
36.6073173422895
20
-27.3767006077787
30
0
41
1
10
36.6752848386958
20
-27.4040864195469
30
0
41
1
10
36.813975130401
20
-27.4629043837628
30
0
41
1
10
36.884615709723
20
-27.4942725066539
30
0
41
1
10
36.9565608043424
20
-27.5276595727157
30
0
0
SPLINE
5
1A6
100
AcDbEntity
8
1
62
256
6
ByLayer
370
-1
48
1
60
0
100
AcDbSpline
70
4
71
3
72
8
73
4
40
0
40
0
40
0
40
0
40
1
40
1
40
1
40
1
41
1
10
35.4158209236724
20
-27.2826358616453
30
0
41
1
10
35.3878745632068
20
-27.2724147525488
30
0
41
1
10
35.3643395935592
20
-27.2643618813788
30
0
41
1
10
35.3455267300856
20
-27.2585951037939
30
0
0
SPLINE
5
1A7
100
AcDbEntity
8
1
62
256
6
ByLayer
370
-1
48
1
60
0
100
AcDbSpline
70
4
71
3
72
8
73
4
40
0
40
0
40
0
40
0
40
1
40
1
40
1
40
1
41
1
10
35.3455267300856
20
-27.2585951037939
30
0
41
1
10
35.2898683938541
20
-27.2360788909213
30
0
41
1
10
35.2452225379518
20
-27.2190203323472
30
0
41
1
10
35.2133042524068
20
-27.2080982190002
30
0
0
SPLINE
5
1A8
100
AcDbEntity
8
1
62
256
6
ByLayer
370
-1
48
1
60
0
100
AcDbSpline
70
4
71
3
72
10
73
6
40
0
40
0
40
0
40
0
40
0.5
40
0.5
40
1
40
1
40
1
40
1
41
1
10
35.2133042524068
20
-27.2080982190003
30
0
41
1
10
35.1855824941224
20
-27.1964213324253
30
0
41
1
10
35.1603808832447
20
-27.1859898903908
30
0
41
1
10
35.1155363337237
20
-27.1678317365439
30
0
41
1
10
35.0959281801744
20
-27.160122472302
30
0
41
1
10
35.0797919001177
20
-27.1540412352065
30
0
0
SPLINE
5
1A9
100
AcDbEntity
8
1
62
256
6
ByLayer
370
-1
48
1
60
0
100
AcDbSpline
70
4
71
3
72
10
73
6
40
0
40
0
40
0
40
0
40
0.5
40
0.5
40
1
40
1
40
1
40
1
41
1
10
35.0797919001177
20
-27.1540412352065
30
0
41
1
10
34.9755124594863
20
-27.1034949703202
30
0
41
1
10
34.8738335125023
20
-27.0545119755634
30
0
41
1
10
34.6768407546935
20
-26.9601169504593
30
0
41
1
10
34.5811414225531
20
-26.9145288285028
30
0
41
1
10
34.4937896283836
20
-26.8730716740504
30
0
0
SPLINE
5
1AA
100
AcDbEntity
8
1
62
256
6
ByLayer
370
-1
48
1
60
0
100
AcDbSpline
70
4
71
3
72
8
73
4
40
0
40
0
40
0
40
0
40
1
40
1
40
1
40
1
41
1
10
34.4937896283836
20
-26.8730716740504
30
0
41
1
10
34.008115716119
20
-26.6297195611002
30
0
41
1
10
33.5225733245097
20
-26.3861029492796
30
0
41
1
10
33.0371737263834
20
-26.1421991680032
30
0
0
SPLINE
5
1AB
100
AcDbEntity
8
1
62
256
6
ByLayer
370
-1
48
1
60
0
100
AcDbSpline
70
4
71
3
72
8
73
4
40
0
40
0
40
0
40
0
40
1
40
1
40
1
40
1
41
1
10
47.1915625523132
20
-7.6703758963672
30
0
41
1
10
46.8369962846513
20
-6.79501166714539
30
0
41
1
10
46.4860915989102
20
-5.91925685652515
30
0
41
1
10
46.1420000000001
20
-5.04277529308618
30
0
0
SPLINE
5
1AC
100
AcDbEntity
8
1
62
256
6
ByLayer
370
-1
48
1
60
0
100
AcDbSpline
70
4
71
3
72
10
73
6
40
0
40
0
40
0
40
0
40
0.499999999999998
40
0.499999999999998
40
1
40
1
40
1
40
1
41
1
10
47.3550208416976
20
-7.89220679635497
30
0
41
1
10
47.3169547777058
20
-7.85852744927786
30
0
41
1
10
47.2843340659742
20
-7.82306397872767
30
0
41
1
10
47.2295582885725
20
-7.74870805747938
30
0
41
1
10
47.2074379067563
20
-7.70956946516702
30
0
41
1
10
47.1915625523132
20
-7.6703758963672
30
0
0
SPLINE
5
1AD
100
AcDbEntity
8
1
62
256
6
ByLayer
370
-1
48
1
60
0
100
AcDbSpline
70
4
71
3
72
8
73
4
40
0
40
0
40
0
40
0
40
1
40
1
40
1
40
1
41
1
10
46.1420000000001
20
-5.04277529308618
30
0
41
1
10
46.1386250062205
20
-5.03963232729788
30
0
41
1
10
46.1352502067548
20
-5.03648927787873
30
0
41
1
10
46.1318756020541
20
-5.03334614463458
30
0
0
SPLINE
5
1AE
100
AcDbEntity
8
1
62
256
6
ByLayer
370
-1
48
1
60
0
100
AcDbSpline
70
4
71
3
72
8
73
4
40
0
40
0
40
0
40
0
40
1
40
1
40
1
40
1
41
1
10
47.6300357818516
20
-8.15314860180089
30
0
41
1
10
47.5431913893976
20
-8.06461773259261
30
0
41
1
10
47.4515628018613
20
-7.97762330236847
30
0
41
1
10
47.3550208416975
20
-7.892206796355
30
0
0
SPLINE
5
1AF
100
AcDbEntity
8
1
62
256
6
ByLayer
370
-1
48
1
60
0
100
AcDbSpline
70
4
71
3
72
8
73
4
40
0
40
0
40
0
40
0
40
1
40
1
40
1
40
1
41
1
10
39.6884443515685
20
-5.48532328042066
30
0
41
1
10
39.8461785146773
20
-5.7852067160706
30
0
41
1
10
40.007452805059
20
-6.08329297992066
30
0
41
1
10
40.1733487781766
20
-6.37903301233868
30
0
0
SPLINE
5
1B0
100
AcDbEntity
8
1
62
256
6
ByLayer
370
-1
48
1
60
0
100
AcDbSpline
70
4
71
3
72
12
73
8
40
0
40
0
40
0
40
0
40
0.499999999999998
40
0.499999999999998
40
0.749999999999999
40
0.749999999999999
40
1
40
1
40
1
40
1
41
1
10
38.7011744311963
20
-4.32935212248049
30
0
41
1
10
38.8997140393343
20
-4.51214799289036
30
0
41
1
10
39.0876145362383
20
-4.69772135055243
30
0
41
1
10
39.3421996537377
20
-4.98532329967642
30
0
41
1
10
39.4227067875773
20
-5.08312670497844
30
0
41
1
10
39.5688960340174
20
-5.28197684520578
30
0
41
1
10
39.6344174309357
20
-5.38260755760189
30
0
41
1
10
39.6884443515685
20
-5.48532328042066
30
0
0
SPLINE
5
1B1
100
AcDbEntity
8
1
62
256
6
ByLayer
370
-1
48
1
60
0
100
AcDbSpline
70
4
71
3
72
8
73
4
40
0
40
0
40
0
40
0
40
1
40
1
40
1
40
1
41
1
10
38.4064475597797
20
-4.08587566402016
30
0
41
1
10
38.5112803636449
20
-4.16403405237509
30
0
41
1
10
38.6096545703835
20
-4.24508957772179
30
0
41
1
10
38.7011744311981
20
-4.32935212248205
30
0
0
SPLINE
5
1B2
100
AcDbEntity
8
1
62
256
6
ByLayer
370
-1
48
1
60
0
100
AcDbSpline
70
4
71
3
72
12
73
8
40
0
40
0
40
0
40
0
40
0.256781590085834
40
0.256781590085834
40
0.628390795042917
40
0.628390795042917
40
1
40
1
40
1
40
1
41
1
10
45.7489110043905
20
0.090558788316315
30
0
41
1
10
45.7353974503217
20
0.0674256505082838
30
0
41
1
10
45.7225496374741
20
0.0433562408790635
30
0
41
1
10
45.6929391856531
20
-0.0181110243945568
30
0
41
1
10
45.6771263393224
20
-0.0565888194348929
30
0
41
1
10
45.6503251884961
20
-0.136261182847733
30
0
41
1
10
45.6392014868953
20
-0.177711882541615
30
0
41
1
10
45.6307038888951
20
-0.221017524479947
30
0
0
SPLINE
5
1B3
100
AcDbEntity
8
1
62
256
6
ByLayer
370
-1
48
1
60
0
100
AcDbSpline
70
4
71
3
72
8
73
4
40
0
40
0
40
0
40
0
40
1
40
1
40
1
40
1
41
1
10
45.6307038888963
20
-0.221017524480459
30
0
41
1
10
45.3797849128112
20
-0.266014439164167
30
0
41
1
10
45.1279007681945
20
-0.317633902499154
30
0
41
1
10
44.8736759136999
20
-0.373204096955703
30
0
0
SPLINE
5
1B4
100
AcDbEntity
8
1
62
256
6
ByLayer
370
-1
48
1
60
0
100
AcDbSpline
70
4
71
3
72
10
73
6
40
0
40
0
40
0
40
0
40
0.657343453477867
40
0.657343453477867
40
1
40
1
40
1
40
1
41
1
10
46.1351020054097
20
-0.12815403082061
30
0
41
1
10
46.0808074131697
20
-0.0940890514549722
30
0
41
1
10
46.0280584342793
20
-0.0558479898102462
30
0
41
1
10
45.9509226548351
20
0.0105625254308848
30
0
41
1
10
45.9250115193806
20
0.0348020934134752
30
0
41
1
10
45.8998058462171
20
0.060825064855095
30
0
0
SPLINE
5
1B5
100
AcDbEntity
8
1
62
256
6
ByLayer
370
-1
48
1
60
0
100
AcDbSpline
70
4
71
3
72
8
73
4
40
0
40
0
40
0
40
0
40
1
40
1
40
1
40
1
41
1
10
46.1351020054097
20
-0.12815403082061
30
0
41
1
10
46.1373626741055
20
-0.158231630396159
30
0
41
1
10
46.1396620120449
20
-0.188313831203146
30
0
41
1
10
46.1420000000001
20
-0.218400630953624
30
0
0
SPLINE
5
1B6
100
AcDbEntity
8
1
62
256
6
ByLayer
370
-1
48
1
60
0
100
AcDbSpline
70
4
71
3
72
40
73
36
40
0
40
0
40
0
40
0
40
0.0624999999999992
40
0.0624999999999992
40
0.124999999999998
40
0.124999999999998
40
0.187499999999998
40
0.187499999999998
40
0.249999999999997
40
0.249999999999997
40
0.312499999999996
40
0.312499999999996
40
0.343749999999996
40
0.343749999999996
40
0.374999999999996
40
0.374999999999996
40
0.437499999999996
40
0.437499999999996
40
0.468749999999996
40
0.468749999999996
40
0.499999999999997
40
0.499999999999997
40
0.562499999999997
40
0.562499999999997
40
0.624999999999997
40
0.624999999999997
40
0.687499999999998
40
0.687499999999998
40
0.749999999999998
40
0.749999999999998
40
0.874999999999999
40
0.874999999999999
40
0.9375
40
0.9375
40
1
40
1
40
1
40
1
41
1
10
45.6307038888957
20
-0.221017524480146
30
0
41
1
10
45.5571008521458
20
-0.275126644300826
30
0
41
1
10
45.4852835290883
20
-0.335332380435744
30
0
41
1
10
45.3460009571286
20
-0.469877444968063
30
0
41
1
10
45.2798185189765
20
-0.543000844431361
30
0
41
1
10
45.155412012804
20
-0.701829464490118
30
0
41
1
10
45.0971529526885
20
-0.787548161042622
30
0
41
1
10
44.9899887554405
20
-0.973463831388699
30
0
41
1
10
44.941142414964
20
-1.07395688064216
30
0
41
1
10
44.85776755547
20
-1.28410079219225
30
0
41
1
10
44.8227391036096
20
-1.39450182882416
30
0
41
1
10
44.7813412291603
20
-1.56884681165971
30
0
41
1
10
44.7693660725729
20
-1.62874329573191
30
0
41
1
10
44.7497481077069
20
-1.74934426625401
30
0
41
1
10
44.7420505333282
20
-1.81017425793917
30
0
41
1
10
44.7251901852744
20
-1.99421585648483
30
0
41
1
10
44.7222417203824
20
-2.11897346058566
30
0
41
1
10
44.7301977528543
20
-2.30916538974134
30
0
41
1
10
44.7349561441211
20
-2.37328848003372
30
0
41
1
10
44.748338210235
20
-2.50018038512616
30
0
41
1
10
44.7569588679999
20
-2.56320714063929
30
0
41
1
10
44.7882394891702
20
-2.75110983694225
30
0
41
1
10
44.8162981218578
20
-2.87481267018166
30
0
41
1
10
44.8854429211697
20
-3.11938169407981
30
0
41
1
10
44.9259580547364
20
-3.23815657013992
30
0
41
1
10
45.0162073904509
20
-3.46786200919556
30
0
41
1
10
45.0660558703931
20
-3.5791465024474
30
0
41
1
10
45.1739126413042
20
-3.79546054230994
30
0
41
1
10
45.2322506071581
20
-3.90100220130452
30
0
41
1
10
45.415765513102
20
-4.20494863022188
30
0
41
1
10
45.5484716178506
20
-4.39002742543573
30
0
41
1
10
45.7590751395349
20
-4.64679343776672
30
0
41
1
10
45.8312372853831
20
-4.72884945718417
30
0
41
1
10
45.979149065072
20
-4.88628851254919
30
0
41
1
10
46.0551656939707
20
-4.96189793554524
30
0
41
1
10
46.1318756020541
20
-5.03334614463458
30
0
0
SPLINE
5
1B7
100
AcDbEntity
8
1
62
256
6
ByLayer
370
-1
48
1
60
0
100
AcDbSpline
70
4
71
3
72
16
73
12
40
0
40
0
40
0
40
0
40
0.0120092172729281
40
0.0120092172729281
40
0.259006912954696
40
0.259006912954696
40
0.506004608636464
40
0.506004608636464
40
0.753002304318232
40
0.753002304318232
40
1
40
1
40
1
40
1
41
1
10
28.4129584241552
20
20.4248064292162
30
0
41
1
10
28.3971064891738
20
20.4429029856618
30
0
41
1
10
28.3812425103292
20
20.4609925530197
30
0
41
1
10
28.0388455942175
20
20.8509653364993
30
0
41
1
10
27.7071487972499
20
21.2206467001725
30
0
41
1
10
27.0433982708649
20
21.9618820540407
30
0
41
1
10
26.7116645992034
20
22.3337116120834
30
0
41
1
10
26.0588264937023
20
23.0874000125075
30
0
41
1
10
25.7377269219931
20
23.4692779627345
30
0
41
1
10
25.1125553951207
20
24.2480036111174
30
0
41
1
10
24.8084288581311
20
24.6448131643029
30
0
41
1
10
24.5145047305487
20
25.0504414524541
30
0
0
SPLINE
5
1B8
100
AcDbEntity
8
1
62
256
6
ByLayer
370
-1
48
1
60
0
100
AcDbSpline
70
4
71
3
72
16
73
12
40
0
40
0
40
0
40
0
40
0.146419907407551
40
0.146419907407551
40
0.363104622138445
40
0.363104622138445
40
0.57978933686934
40
0.57978933686934
40
0.796474051600234
40
0.796474051600234
40
1
40
1
40
1
40
1
41
1
10
35.1207821593034
20
18.9652179485239
30
0
41
1
10
35.0830663807089
20
19.0308895810509
30
0
41
1
10
35.0478226887225
20
19.097685179089
30
0
41
1
10
34.9673550315185
20
19.2645279590901
30
0
41
1
10
34.9250887912527
20
19.3657250877618
30
0
41
1
10
34.852044664023
20
19.5716447278738
30
0
41
1
10
34.8212451664573
20
19.6764644309478
30
0
41
1
10
34.7716976590597
20
19.8897327611014
30
0
41
1
10
34.7533620520579
20
19.9963585105768
30
0
41
1
10
34.7298479137216
20
20.2035840480987
30
0
41
1
10
34.7238864422892
20
20.3041495142139
30
0
41
1
10
34.7234608348891
20
20.405126652777
30
0
0
SPLINE
5
1B9
100
AcDbEntity
8
1
62
256
6
ByLayer
370
-1
48
1
60
0
100
AcDbSpline
70
4
71
3
72
12
73
8
40
0
40
0
40
0
40
0
40
0.250000000000001
40
0.250000000000001
40
0.500000000000001
40
0.500000000000001
40
1
40
1
40
1
40
1
41
1
10
33.0371737263834
20
26.0758405917608
30
0
41
1
10
32.9681438438176
20
26.0407478270356
30
0
41
1
10
32.897343695405
20
26.0097236011968
30
0
41
1
10
32.7521953255342
20
25.9558295593118
30
0
41
1
10
32.677671563928
20
25.9329668723038
30
0
41
1
10
32.4533728245324
20
25.8780158510876
30
0
41
1
10
32.3014423442223
20
25.8587560871685
30
0
41
1
10
32.1470754130169
20
25.8571492549854
30
0
0
SPLINE
5
1BA
100
AcDbEntity
8
1
62
256
6
ByLayer
370
-1
48
1
60
0
100
AcDbSpline
70
4
71
3
72
8
73
4
40
0
40
0
40
0
40
0
40
1
40
1
40
1
40
1
41
1
10
34.4937896283837
20
26.8152918910127
30
0
41
1
10
34.0081086226602
20
26.569076116631
30
0
41
1
10
33.5225660383501
20
26.3225997860414
30
0
41
1
10
33.0371737263834
20
26.0758405917608
30
0
0
SPLINE
5
1BB
100
AcDbEntity
8
1
62
256
6
ByLayer
370
-1
48
1
60
0
100
AcDbSpline
70
4
71
3
72
18
73
14
40
0
40
0
40
0
40
0
40
0.124999999999998
40
0.124999999999998
40
0.249999999999997
40
0.249999999999997
40
0.374999999999995
40
0.374999999999995
40
0.499999999999994
40
0.499999999999994
40
0.749999999999997
40
0.749999999999997
40
1
40
1
40
1
40
1
41
1
10
0.399996464112519
20
-5.92750353588747
30
0
41
1
10
0.400003535887436
20
-5.92749646411255
30
0
41
1
10
0.405184363910564
20
-5.92231563608942
30
0
41
1
10
0.423325439482767
20
-5.90417456051719
30
0
41
1
10
0.436353183381357
20
-5.89114681661863
30
0
41
1
10
0.467365609305574
20
-5.86013439069441
30
0
41
1
10
0.485631655434787
20
-5.84186834456517
30
0
41
1
10
0.526070669711629
20
-5.80142933028836
30
0
41
1
10
0.547955729746832
20
-5.77954427025316
30
0
41
1
10
0.617778604705336
20
-5.70972139529465
30
0
41
1
10
0.670472540986736
20
-5.65702745901325
30
0
41
1
10
0.78092789609795
20
-5.54657210390201
30
0
41
1
10
0.839543939432218
20
-5.48795606056777
30
0
41
1
10
0.899999999999977
20
-5.42750000000001
30
0
0
SPLINE
5
1BC
100
AcDbEntity
8
1
62
256
6
ByLayer
370
-1
48
1
60
0
100
AcDbSpline
70
4
71
3
72
14
73
10
40
0
40
0
40
0
40
0
40
0.436547316786287
40
0.436547316786287
40
0.654820975179428
40
0.654820975179428
40
0.873094633572568
40
0.873094633572568
40
1
40
1
40
1
40
1
41
1
10
36.7855769329486
20
3.70182885242971
30
0
41
1
10
36.5750120433869
20
3.59184277706277
30
0
41
1
10
36.3742687693451
20
3.4924061428608
30
0
41
1
10
36.0900471261818
20
3.36151172840624
30
0
41
1
10
35.9982776494827
20
3.32102123461692
30
0
41
1
10
35.8234917441138
20
3.24775307472876
30
0
41
1
10
35.7401270796447
20
3.21481155804906
30
0
41
1
10
35.6149512715674
20
3.16883083745591
30
0
41
1
10
35.5703438757771
20
3.15322406746088
30
0
41
1
10
35.527212681156
20
3.13897388907861
30
0
0
SPLINE
5
1BD
100
AcDbEntity
8
1
62
256
6
ByLayer
370
-1
48
1
60
0
100
AcDbSpline
70
4
71
3
72
18
73
14
40
0
40
0
40
0
40
0
40
0.125000000000003
40
0.125000000000003
40
0.250000000000006
40
0.250000000000006
40
0.375000000000008
40
0.375000000000008
40
0.500000000000011
40
0.500000000000011
40
0.750000000000006
40
0.750000000000006
40
1
40
1
40
1
40
1
41
1
10
37.2493558248406
20
4.36902742104155
30
0
41
1
10
37.2482353055091
20
4.33431346458019
30
0
41
1
10
37.2445807850482
20
4.29920425920136
30
0
41
1
10
37.2313917204864
20
4.22811686018403
30
0
41
1
10
37.2216588765797
20
4.19162898923148
30
0
41
1
10
37.1961360364614
20
4.12049299216994
30
0
41
1
10
37.1804882107438
20
4.08595135363305
30
0
41
1
10
37.1434284433604
20
4.0189110301034
30
0
41
1
10
37.1221605001275
20
3.9868434805893
30
0
41
1
10
37.0541187402963
20
3.89848972874924
30
0
41
1
10
37.0016997605284
20
3.84803534882886
30
0
41
1
10
36.8953992161468
20
3.76462663964335
30
0
41
1
10
36.840297673599
20
3.73041158299412
30
0
41
1
10
36.7855769329487
20
3.70182885242684
30
0
0
SPLINE
5
1BE
100
AcDbEntity
8
1
62
256
6
ByLayer
370
-1
48
1
60
0
100
AcDbSpline
70
4
71
3
72
10
73
6
40
0
40
0
40
0
40
0
40
0.5
40
0.5
40
1
40
1
40
1
40
1
41
1
10
37.2765135825887
20
6.05575864124873
30
0
41
1
10
37.278081444121
20
5.78346837495693
30
0
41
1
10
37.2757844781173
20
5.50532315605761
30
0
41
1
10
37.266074256241
20
4.94175233739301
30
0
41
1
10
37.2586375112063
20
4.65657628105117
30
0
41
1
10
37.2493558248406
20
4.36902742104155
30
0
0
SPLINE
5
1BF
100
AcDbEntity
8
1
62
256
6
ByLayer
370
-1
48
1
60
0
100
AcDbSpline
70
4
71
3
72
10
73
6
40
0
40
0
40
0
40
0
40
0.5
40
0.5
40
1
40
1
40
1
40
1
41
1
10
37.5621829819412
20
4.32715392178457
30
0
41
1
10
37.734711526969
20
4.59285323753926
30
0
41
1
10
37.9117159551373
20
4.85533695061045
30
0
41
1
10
38.2785139786213
20
5.37112870378155
30
0
41
1
10
38.4680148150851
20
5.62418865027314
30
0
41
1
10
38.6668150418734
20
5.86965974988678
30
0
0
SPLINE
5
1C0
100
AcDbEntity
8
1
62
256
6
ByLayer
370
-1
48
1
60
0
100
AcDbSpline
70
4
71
3
72
18
73
14
40
0
40
0
40
0
40
0
40
0.250000000000001
40
0.250000000000001
40
0.500000000000002
40
0.500000000000002
40
0.625000000000002
40
0.625000000000002
40
0.750000000000001
40
0.750000000000001
40
0.875000000000001
40
0.875000000000001
40
1
40
1
40
1
40
1
41
1
10
37.6073706477083
20
3.59182760182438
30
0
41
1
10
37.5671612305968
20
3.63310143071143
30
0
41
1
10
37.5319985147012
20
3.67888112234218
30
0
41
1
10
37.4762547227419
20
3.78496669315589
30
0
41
1
10
37.4566020439352
20
3.84364656256753
30
0
41
1
10
37.4453385733335
20
3.94286307606853
30
0
41
1
10
37.4447813363049
20
3.97775319152973
30
0
41
1
10
37.4507061370626
20
4.04815739911919
30
0
41
1
10
37.4572613327752
20
4.08457165608587
30
0
41
1
10
37.477189814831
20
4.15669267742226
30
0
41
1
10
37.4903435556406
20
4.19198654400913
30
0
41
1
10
37.5223925944133
20
4.26118948291574
30
0
41
1
10
37.5412998756967
20
4.29499328982016
30
0
41
1
10
37.5621829819412
20
4.32715392178457
30
0
0
SPLINE
5
1C1
100
AcDbEntity
8
1
62
256
6
ByLayer
370
-1
48
1
60
0
100
AcDbSpline
70
4
71
3
72
28
73
24
40
0
40
0
40
0
40
0
40
0.124999999999999
40
0.124999999999999
40
0.187499999999999
40
0.187499999999999
40
0.249999999999998
40
0.249999999999998
40
0.375
40
0.375
40
0.500000000000002
40
0.500000000000002
40
0.562500000000002
40
0.562500000000002
40
0.625000000000001
40
0.625000000000001
40
0.750000000000002
40
0.750000000000002
40
0.812500000000002
40
0.812500000000002
40
0.875000000000002
40
0.875000000000002
40
1
40
1
40
1
40
1
41
1
10
43.6732724947123
20
2.82906798504652
30
0
41
1
10
43.4111743334687
20
2.72259907255761
30
0
41
1
10
43.1412989317465
20
2.6288354889
30
0
41
1
10
42.7230646721804
20
2.51016376693124
30
0
41
1
10
42.5815507700207
20
2.47437062607932
30
0
41
1
10
42.2980098658805
20
2.41167405414822
30
0
41
1
10
42.1554830829159
20
2.38462028088324
30
0
41
1
10
41.7255285112586
20
2.31694345925814
30
0
41
1
10
41.4357474462983
20
2.2896860674322
30
0
41
1
10
40.848925454152
20
2.27641865531007
30
0
41
1
10
40.5631763365683
20
2.29072498788474
30
0
41
1
10
40.1461238743182
20
2.34300482494538
30
0
41
1
10
40.0090258192538
20
2.36558863373972
30
0
41
1
10
39.7387256714437
20
2.42122278329623
30
0
41
1
10
39.6047604978414
20
2.45452979210339
30
0
41
1
10
39.2168333885117
20
2.56811877851177
30
0
41
1
10
38.9754406321313
20
2.66194117236
30
0
41
1
10
38.6366112637097
20
2.82707632111524
30
0
41
1
10
38.5271754651739
20
2.88645207156463
30
0
41
1
10
38.3178299978471
20
3.0119564743712
30
0
41
1
10
38.2182424472505
20
3.0778325483443
30
0
41
1
10
37.933468635088
20
3.28404140626503
30
0
41
1
10
37.7621929199029
20
3.43290692031471
30
0
41
1
10
37.6073706477083
20
3.59182760182438
30
0
0
SPLINE
5
1C2
100
AcDbEntity
8
1
62
256
6
ByLayer
370
-1
48
1
60
0
100
AcDbSpline
70
4
71
3
72
18
73
14
40
0
40
0
40
0
40
0
40
0.125
40
0.125
40
0.250000000000001
40
0.250000000000001
40
0.375000000000001
40
0.375000000000001
40
0.500000000000001
40
0.500000000000001
40
0.750000000000001
40
0.750000000000001
40
1
40
1
40
1
40
1
41
1
10
44.0642000436468
20
3.50955479681369
30
0
41
1
10
44.0759488718276
20
3.47338239938901
30
0
41
1
10
44.0843259434882
20
3.43688097176135
30
0
41
1
10
44.0933810521293
20
3.36314816567938
30
0
41
1
10
44.0939841528789
20
3.32539104133397
30
0
41
1
10
44.0862605860136
20
3.25197179705677
30
0
41
1
10
44.0780873613573
20
3.21641647812507
30
0
41
1
10
44.0530467314583
20
3.1476141161547
30
0
41
1
10
44.0362074176744
20
3.11481284689532
30
0
41
1
10
43.9765778754036
20
3.02475973658016
30
0
41
1
10
43.9234791329487
20
2.97380243617897
30
0
41
1
10
43.806485506244
20
2.89042884683255
30
0
41
1
10
43.7413854908369
20
2.85673668973453
30
0
41
1
10
43.673272494714
20
2.82906798504345
30
0
0
SPLINE
5
1C3
100
AcDbEntity
8
1
62
256
6
ByLayer
370
-1
48
1
60
0
100
AcDbSpline
70
4
71
3
72
10
73
6
40
0
40
0
40
0
40
0
40
0.5
40
0.5
40
1
40
1
40
1
40
1
41
1
10
43.3987655168541
20
5.27463846172461
30
0
41
1
10
43.5270558686352
20
4.98803831698569
30
0
41
1
10
43.6443122847925
20
4.69637809863903
30
0
41
1
10
43.8643247547843
20
4.10681642993032
30
0
41
1
10
43.9668800463261
20
3.80918447615772
30
0
41
1
10
44.0642000436468
20
3.50955479681369
30
0
0
SPLINE
5
1C4
100
AcDbEntity
8
1
62
256
6
ByLayer
370
-1
48
1
60
0
100
AcDbSpline
70
4
71
3
72
24
73
20
40
0
40
0
40
0
40
0
40
0.15969613659453
40
0.15969613659453
40
0.239544204891795
40
0.239544204891795
40
0.319392273189061
40
0.319392273189061
40
0.479088409783594
40
0.479088409783594
40
0.638784546378126
40
0.638784546378126
40
0.718632614675393
40
0.718632614675393
40
0.79848068297266
40
0.79848068297266
40
0.958176819567196
40
0.958176819567196
40
1
40
1
40
1
40
1
41
1
10
47.9118558064785
20
-2.02901325426728
30
0
41
1
10
48.0890968434213
20
-1.86389404588965
30
0
41
1
10
48.2593188688639
20
-1.71070093060555
30
0
41
1
10
48.5026069051412
20
-1.5015335679642
30
0
41
1
10
48.5815682656891
20
-1.43538289591481
30
0
41
1
10
48.7328471921789
20
-1.31240301571836
30
0
41
1
10
48.8054620399575
20
-1.25531481228344
30
0
41
1
10
49.0138285793152
20
-1.09786974247959
30
0
41
1
10
49.1401864886324
20
-1.01121056312556
30
0
41
1
10
49.3639914176332
20
-0.88015748632148
30
0
41
1
10
49.4570861862289
20
-0.838349969949263
30
0
41
1
10
49.568959363741
20
-0.81060607646404
30
0
41
1
10
49.601609499278
20
-0.807205928545159
30
0
41
1
10
49.657489169113
20
-0.81227402490552
30
0
41
1
10
49.6808002854101
20
-0.820862135651453
30
0
41
1
10
49.7351905629415
20
-0.863896297724438
30
0
41
1
10
49.7513347312646
20
-0.915197955369393
30
0
41
1
10
49.7488329817853
20
-1.00559540583157
30
0
41
1
10
49.7470519238539
20
-1.02580764464759
30
0
41
1
10
49.7440473999959
20
-1.04736182605788
30
0
0
SPLINE
5
1C5
100
AcDbEntity
8
1
62
256
6
ByLayer
370
-1
48
1
60
0
100
AcDbSpline
70
4
71
3
72
10
73
6
40
0
40
0
40
0
40
0
40
0.5
40
0.5
40
1
40
1
40
1
40
1
41
1
10
44.49152988724
20
3.45835691370345
30
0
41
1
10
44.617208531944
20
3.73127125870326
30
0
41
1
10
44.7462850324143
20
4.00115681664681
30
0
41
1
10
45.0140553147415
20
4.53229669851177
30
0
41
1
10
45.1525355999312
20
4.79329039981388
30
0
41
1
10
45.2979526291585
20
5.04709910017337
30
0
0
SPLINE
5
1C6
100
AcDbEntity
8
1
62
256
6
ByLayer
370
-1
48
1
60
0
100
AcDbSpline
70
4
71
3
72
18
73
14
40
0
40
0
40
0
40
0
40
0.25
40
0.25
40
0.5
40
0.5
40
0.625
40
0.625
40
0.75
40
0.75
40
0.875
40
0.875
40
1
40
1
40
1
40
1
41
1
10
44.7958635857444
20
2.69457167424358
30
0
41
1
10
44.7343024922198
20
2.73776072852235
30
0
41
1
10
44.6762494705218
20
2.78569132459285
30
0
41
1
10
44.5716033925483
20
2.89660322170243
30
0
41
1
10
44.5267023449962
20
2.95788383224075
30
0
41
1
10
44.4779279521976
20
3.06117142040498
30
0
41
1
10
44.4649895502805
20
3.09744175323016
30
0
41
1
10
44.447793128206
20
3.17050304242252
30
0
41
1
10
44.4433147434096
20
3.20822785934399
30
0
41
1
10
44.4433146005668
20
3.28280801973938
30
0
41
1
10
44.4476583400454
20
3.31923844023757
30
0
41
1
10
44.4641347231747
20
3.39055061219645
30
0
41
1
10
44.4763175611313
20
3.4253229640961
30
0
41
1
10
44.49152988724
20
3.45835691370345
30
0
0
SPLINE
5
1C7
100
AcDbEntity
8
1
62
256
6
ByLayer
370
-1
48
1
60
0
100
AcDbSpline
70
4
71
3
72
28
73
24
40
0
40
0
40
0
40
0
40
0.125
40
0.125
40
0.1875
40
0.1875
40
0.250000000000001
40
0.250000000000001
40
0.375000000000001
40
0.375000000000001
40
0.500000000000001
40
0.500000000000001
40
0.5625
40
0.5625
40
0.624999999999999
40
0.624999999999999
40
0.749999999999998
40
0.749999999999998
40
0.812499999999998
40
0.812499999999998
40
0.874999999999998
40
0.874999999999998
40
1
40
1
40
1
40
1
41
1
10
49.2364119314772
20
2.19856592057954
30
0
41
1
10
49.1682167334859
20
2.06639078662892
30
0
41
1
10
49.0838239815059
20
1.94778353945742
30
0
41
1
10
48.9293445616602
20
1.79332757088397
30
0
41
1
10
48.8731960781239
20
1.74587120922891
30
0
41
1
10
48.7526875899131
20
1.66072409406669
30
0
41
1
10
48.6881505630723
20
1.6228393681362
30
0
41
1
10
48.4811114823762
20
1.52390561432907
30
0
41
1
10
48.3253004827638
20
1.47744719644319
30
0
41
1
10
47.9726874748583
20
1.42954888160517
30
0
41
1
10
47.7826175287531
20
1.42909779389888
30
0
41
1
10
47.4774576779983
20
1.46302086796629
30
0
41
1
10
47.372371065463
20
1.48011725825438
30
0
41
1
10
47.1553638221621
20
1.52605842659011
30
0
41
1
10
47.0427424859657
20
1.55514260657398
30
0
41
1
10
46.7014604897938
20
1.65824165842679
30
0
41
1
10
46.4686269563493
20
1.74788307399356
30
0
41
1
10
46.1121807488166
20
1.910546984988
30
0
41
1
10
45.9917030280955
20
1.96973820944638
30
0
41
1
10
45.7506589628227
20
2.09610223927783
30
0
41
1
10
45.6305161914013
20
2.16301510343772
30
0
41
1
10
45.2711217712196
20
2.37400518109655
30
0
41
1
10
45.0328983169828
20
2.52827661209852
30
0
41
1
10
44.7958635857444
20
2.69457167424358
30
0
0
SPLINE
5
1C8
100
AcDbEntity
8
1
62
256
6
ByLayer
370
-1
48
1
60
0
100
AcDbSpline
70
4
71
3
72
18
73
14
40
0
40
0
40
0
40
0
40
0.124999999999998
40
0.124999999999998
40
0.249999999999997
40
0.249999999999997
40
0.374999999999995
40
0.374999999999995
40
0.499999999999993
40
0.499999999999993
40
0.749999999999997
40
0.749999999999997
40
1
40
1
40
1
40
1
41
1
10
49.2513367280882
20
2.92669023752393
30
0
41
1
10
49.2600124380974
20
2.89107942460279
30
0
41
1
10
49.2677617565133
20
2.85481299009433
30
0
41
1
10
49.2812417218115
20
2.78079315258432
30
0
41
1
10
49.287031219696
20
2.74249830002418
30
0
41
1
10
49.2958609616041
20
2.66716849822322
30
0
41
1
10
49.2989275869942
20
2.63025690710117
30
0
41
1
10
49.302283184704
20
2.55794026477807
30
0
41
1
10
49.30251043258
20
2.52299110649855
30
0
41
1
10
49.2991935331577
20
2.42577153063695
30
0
41
1
10
49.2915956024749
20
2.36892805938464
30
0
41
1
10
49.2691442303347
20
2.27320538252985
30
0
41
1
10
49.2541342200834
20
2.23291505276262
30
0
41
1
10
49.2364119314785
20
2.19856592057656
30
0
0
SPLINE
5
1C9
100
AcDbEntity
8
1
62
256
6
ByLayer
370
-1
48
1
60
0
100
AcDbSpline
70
4
71
3
72
10
73
6
40
0
40
0
40
0
40
0
40
0.5
40
0.5
40
1
40
1
40
1
40
1
41
1
10
48.7619807957441
20
4.66016988159979
30
0
41
1
10
48.8560106882353
20
4.37961625698335
30
0
41
1
10
48.9420923274927
20
4.09351226697669
30
0
41
1
10
49.103897125356
20
3.51440799762366
30
0
41
1
10
49.1794725334757
20
3.22166809955132
30
0
41
1
10
49.2513367280882
20
2.92669023752393
30
0
0
SPLINE
5
1CA
100
AcDbEntity
8
1
62
256
6
ByLayer
370
-1
48
1
60
0
100
AcDbSpline
70
4
71
3
72
10
73
6
40
0
40
0
40
0
40
0
40
0.5
40
0.5
40
1
40
1
40
1
40
1
41
1
10
49.3658394145807
20
2.91736585367067
30
0
41
1
10
49.3537272288094
20
3.20747976187278
30
0
41
1
10
49.3402165490105
20
3.49517065203537
30
0
41
1
10
49.3091089790873
20
4.06365074545673
30
0
41
1
10
49.2915569143878
20
4.34414697175831
30
0
41
1
10
49.2708664487631
20
4.61872941140425
30
0
0
SPLINE
5
1CB
100
AcDbEntity
8
1
62
256
6
ByLayer
370
-1
48
1
60
0
100
AcDbSpline
70
4
71
3
72
18
73
14
40
0
40
0
40
0
40
0
40
0.250000000000002
40
0.250000000000002
40
0.500000000000004
40
0.500000000000004
40
0.625000000000003
40
0.625000000000003
40
0.750000000000002
40
0.750000000000002
40
0.875000000000001
40
0.875000000000001
40
1
40
1
40
1
40
1
41
1
10
49.5372093077497
20
2.17407086038196
30
0
41
1
10
49.5201857610856
20
2.2112337429605
30
0
41
1
10
49.5022446489398
20
2.25369015843359
30
0
41
1
10
49.4652194467682
20
2.35524172263456
30
0
41
1
10
49.4467181011532
20
2.41278923571963
30
0
41
1
10
49.4209660851605
20
2.51262312684335
30
0
41
1
10
49.4127744097029
20
2.54812193487106
30
0
41
1
10
49.398220035698
20
2.6205461833901
30
0
41
1
10
49.3916733102041
20
2.65839703593881
30
0
41
1
10
49.3807426399057
20
2.73413420442822
30
0
41
1
10
49.3763905328113
20
2.77157519857965
30
0
41
1
10
49.3696590918267
20
2.84568599384801
30
0
41
1
10
49.3673054911785
20
2.88225004389545
30
0
41
1
10
49.3658394145807
20
2.91736585367067
30
0
0
SPLINE
5
1CC
100
AcDbEntity
8
1
62
256
6
ByLayer
370
-1
48
1
60
0
100
AcDbSpline
70
4
71
3
72
12
73
8
40
0
40
0
40
0
40
0
40
0.122606416155683
40
0.122606416155683
40
0.415070944103788
40
0.415070944103788
40
1
40
1
40
1
40
1
41
1
10
49.7430231435306
20
1.57056226570305
30
0
41
1
10
49.7404056816638
20
1.58934047031121
30
0
41
1
10
49.7370071649825
20
1.60896550726898
30
0
41
1
10
49.7229242882405
20
1.67807130361413
30
0
41
1
10
49.7087451032538
20
1.73103359938077
30
0
41
1
10
49.6544881723209
20
1.90165363417446
30
0
41
1
10
49.6027567432679
20
2.03097895964245
30
0
41
1
10
49.5372093077497
20
2.17407086038196
30
0
0
SPLINE
5
1CD
100
AcDbEntity
8
1
62
256
6
ByLayer
370
-1
48
1
60
0
100
AcDbSpline
70
4
71
3
72
20
73
16
40
0
40
0
40
0
40
0
40
0.250082887027969
40
0.250082887027969
40
0.375124330541951
40
0.375124330541951
40
0.500165774055934
40
0.500165774055934
40
0.625207217569916
40
0.625207217569916
40
0.750248661083899
40
0.750248661083899
40
0.875290104597881
40
0.875290104597881
40
1
40
1
40
1
40
1
41
1
10
0.899999999999977
20
5.42750000000001
30
0
41
1
10
0.839411878670774
20
5.48808812132921
30
0
41
1
10
0.78157057408481
20
5.54592942591515
30
0
41
1
10
0.698617275826251
20
5.62888272417374
30
0
41
1
10
0.671415969498185
20
5.65608403050177
30
0
41
1
10
0.619609046773888
20
5.70789095322607
30
0
41
1
10
0.595009412587217
20
5.73249058741277
30
0
41
1
10
0.548586891942335
20
5.77891310805765
30
0
41
1
10
0.526757171056232
20
5.80074282894373
30
0
41
1
10
0.486400225068309
20
5.84109977493165
30
0
41
1
10
0.467836886277979
20
5.85966311372201
30
0
41
1
10
0.436544590529906
20
5.89095540947008
30
0
41
1
10
0.423455174942603
20
5.90404482505738
30
0
41
1
10
0.405236779569151
20
5.92226322043086
30
0
41
1
10
0.400019932173365
20
5.92748006782662
30
0
41
1
10
0.400003380810659
20
5.9274966191893
30
0
0
SPLINE
5
1CE
100
AcDbEntity
8
1
62
256
6
ByLayer
370
-1
48
1
60
0
100
AcDbSpline
70
4
71
3
72
20
73
16
40
0
40
0
40
0
40
0
40
0.250000000000002
40
0.250000000000002
40
0.375000000000002
40
0.375000000000002
40
0.500000000000001
40
0.500000000000001
40
0.625000000000001
40
0.625000000000001
40
0.750000000000001
40
0.750000000000001
40
0.875
40
0.875
40
1
40
1
40
1
40
1
41
1
10
43.5228990842769
20
3.07481134890554
30
0
41
1
10
43.5699167518503
20
3.08499410979132
30
0
41
1
10
43.6163968985253
20
3.09773814252225
30
0
41
1
10
43.6827744327027
20
3.12336377694754
30
0
41
1
10
43.7043730008699
20
3.13300979774036
30
0
41
1
10
43.7459925223596
20
3.15563937529959
30
0
41
1
10
43.7661804397771
20
3.16875164312165
30
0
41
1
10
43.8022463207631
20
3.19926397183443
30
0
41
1
10
43.8184690705739
20
3.21703949018536
30
0
41
1
10
43.842520881424
20
3.2573424365076
30
0
41
1
10
43.8501233642557
20
3.27979356898084
30
0
41
1
10
43.8543792069308
20
3.32623620057913
30
0
41
1
10
43.8510555338287
20
3.34992699814328
30
0
41
1
10
43.837085318759
20
3.39451739485691
30
0
41
1
10
43.8264255787315
20
3.41598659525889
30
0
41
1
10
43.8137302193272
20
3.43616274941232
30
0
0
SPLINE
5
1CF
100
AcDbEntity
8
1
62
256
6
ByLayer
370
-1
48
1
60
0
100
AcDbSpline
70
4
71
3
72
8
73
4
40
0
40
0
40
0
40
0
40
1
40
1
40
1
40
1
41
1
10
46.1420000000001
20
-0.218400630953624
30
0
41
1
10
46.1856652808275
20
-1.36927088133555
30
0
41
1
10
46.2568673984085
20
-2.52228168681768
30
0
41
1
10
46.3528626432816
20
-3.67721976722794
30
0
0
SPLINE
5
1D0
100
AcDbEntity
8
1
62
256
6
ByLayer
370
-1
48
1
60
0
100
AcDbSpline
70
4
71
3
72
18
73
14
40
0
40
0
40
0
40
0
40
0.124999999999998
40
0.124999999999998
40
0.249999999999995
40
0.249999999999995
40
0.374999999999993
40
0.374999999999993
40
0.49999999999999
40
0.49999999999999
40
0.749999999999995
40
0.749999999999995
40
1
40
1
40
1
40
1
41
1
10
37.7495954388817
20
4.19870016559329
30
0
41
1
10
37.7318923211525
20
4.18232463023571
30
0
41
1
10
37.7153861037684
20
4.16426953535768
30
0
41
1
10
37.6876195966825
20
4.12471174905659
30
0
41
1
10
37.6762732074651
20
4.10289873771816
30
0
41
1
10
37.6626647567369
20
4.05730871134287
30
0
41
1
10
37.6606582990858
20
4.03434290741194
30
0
41
1
10
37.6654308996474
20
3.99037269251815
30
0
41
1
10
37.6720657858243
20
3.96989032070905
30
0
41
1
10
37.6988778039022
20
3.91454890475131
30
0
41
1
10
37.7262756284515
20
3.88375020913546
30
0
41
1
10
37.7864982575075
20
3.83064106514738
30
0
41
1
10
37.8197578136404
20
3.80804630388525
30
0
41
1
10
37.8548037025729
20
3.78754860879781
30
0
0
SPLINE
5
1D1
100
AcDbEntity
8
1
62
256
6
ByLayer
370
-1
48
1
60
0
100
AcDbSpline
70
4
71
3
72
18
73
14
40
0
40
0
40
0
40
0
40
0.125
40
0.125
40
0.25
40
0.25
40
0.375
40
0.375
40
0.5
40
0.5
40
0.75
40
0.75
40
1
40
1
40
1
40
1
41
1
10
44.690987306031
20
3.33105961548406
30
0
41
1
10
44.6782856531017
20
3.31390430701012
30
0
41
1
10
44.6672367925159
20
3.29503404094126
30
0
41
1
10
44.6513484226334
20
3.25380515587784
30
0
41
1
10
44.6465176822862
20
3.23112456982921
30
0
41
1
10
44.646458704612
20
3.18385650409559
30
0
41
1
10
44.651244435604
20
3.16011032641862
30
0
41
1
10
44.6688880061259
20
3.11476999959274
30
0
41
1
10
44.6814445230034
20
3.09371355951674
30
0
41
1
10
44.7239631544658
20
3.03696706122827
30
0
41
1
10
44.7596665056591
20
3.00559420642051
30
0
41
1
10
44.8332416607013
20
2.95177125198447
30
0
41
1
10
44.8716413376076
20
2.92903191400941
30
0
41
1
10
44.9108306105455
20
2.90852491440464
30
0
0
SPLINE
5
1D2
100
AcDbEntity
8
1
62
256
6
ByLayer
370
-1
48
1
60
0
100
AcDbSpline
70
4
71
3
72
10
73
6
40
0
40
0
40
0
40
0
40
0.5
40
0.5
40
1
40
1
40
1
40
1
41
1
10
43.8137302193272
20
3.43616274941232
30
0
41
1
10
43.7186466982389
20
3.75316586064079
30
0
41
1
10
43.6182734707084
20
4.0680858262821
30
0
41
1
10
43.4019031373567
20
4.69177289946734
30
0
41
1
10
43.286054807342
20
5.00059859658859
30
0
41
1
10
43.1575924284893
20
5.30445674013001
30
0
0
SPLINE
5
1D3
100
AcDbEntity
8
1
62
256
6
ByLayer
370
-1
48
1
60
0
100
AcDbSpline
70
4
71
3
72
10
73
6
40
0
40
0
40
0
40
0
40
0.5
40
0.5
40
1
40
1
40
1
40
1
41
1
10
38.8850532198973
20
5.84170914737331
30
0
41
1
10
38.6793685809927
20
5.57986847421668
30
0
41
1
10
38.4845389208372
20
5.31010912381552
30
0
41
1
10
38.1080686211589
20
4.7609690686119
30
0
41
1
10
37.926556010173
20
4.48149496734274
30
0
41
1
10
37.7495954388817
20
4.19870016559329
30
0
0
SPLINE
5
1D4
100
AcDbEntity
8
1
62
256
6
ByLayer
370
-1
48
1
60
0
100
AcDbSpline
70
4
71
3
72
10
73
6
40
0
40
0
40
0
40
0
40
0.5
40
0.5
40
1
40
1
40
1
40
1
41
1
10
45.4974384936049
20
5.02412255066372
30
0
41
1
10
45.3508561778299
20
4.75321718665987
30
0
41
1
10
45.2123111313081
20
4.47487005908229
30
0
41
1
10
44.944986484376
20
3.90913390936541
30
0
41
1
10
44.8163016791601
20
3.62165711569526
30
0
41
1
10
44.690987306031
20
3.33105961548409
30
0
0
SPLINE
5
1D5
100
AcDbEntity
8
1
62
256
6
ByLayer
370
-1
48
1
60
0
100
AcDbSpline
70
4
71
3
72
20
73
16
40
0
40
0
40
0
40
0
40
0.25
40
0.25
40
0.375
40
0.375
40
0.5
40
0.5
40
0.625
40
0.625
40
0.75
40
0.75
40
0.875
40
0.875
40
1
40
1
40
1
40
1
41
1
10
49.0601644120994
20
2.4450475960187
30
0
41
1
10
49.0810463116231
20
2.45884888848408
30
0
41
1
10
49.1009029248305
20
2.47525750055311
30
0
41
1
10
49.1275002980192
20
2.50630978957798
30
0
41
1
10
49.1358464997917
20
2.5177554537689
30
0
41
1
10
49.1510641809766
20
2.54394731559356
30
0
41
1
10
49.1579874861238
20
2.55883752990499
30
0
41
1
10
49.1689535597163
20
2.59267846538572
30
0
41
1
10
49.1730853664068
20
2.6120381743622
30
0
41
1
10
49.1765851304725
20
2.65497394436272
30
0
41
1
10
49.1758680414308
20
2.67845450033997
30
0
41
1
10
49.1691760449804
20
2.7261532523496
30
0
41
1
10
49.1632677771188
20
2.75006641743863
30
0
41
1
10
49.1486334516383
20
2.79448925960872
30
0
41
1
10
49.139793343074
20
2.81557923042413
30
0
41
1
10
49.1302420692627
20
2.8351983539668
30
0
0
SPLINE
5
1D6
100
AcDbEntity
8
1
62
256
6
ByLayer
370
-1
48
1
60
0
100
AcDbSpline
70
4
71
3
72
10
73
6
40
0
40
0
40
0
40
0
40
0.5
40
0.5
40
1
40
1
40
1
40
1
41
1
10
49.1302420692627
20
2.8351983539668
30
0
41
1
10
49.0564063448709
20
3.1480407632576
30
0
41
1
10
48.9787363943585
20
3.45856722065605
30
0
41
1
10
48.8120715771215
20
4.07277965179139
30
0
41
1
10
48.7231845500452
20
4.37653076290673
30
0
41
1
10
48.6251542716244
20
4.67475916107088
30
0
0
SPLINE
5
1D7
100
AcDbEntity
8
1
62
256
6
ByLayer
370
-1
48
1
60
0
100
AcDbSpline
70
4
71
3
72
10
73
6
40
0
40
0
40
0
40
0
40
0.5
40
0.5
40
1
40
1
40
1
40
1
41
1
10
43.1575924284959
20
5.30445674011429
30
0
41
1
10
43.1969491769194
20
5.29950780768806
30
0
41
1
10
43.2367625781746
20
5.2945429986824
30
0
41
1
10
43.3173195699667
20
5.28458104046476
30
0
41
1
10
43.3582634470849
20
5.27955983167772
30
0
41
1
10
43.398765516873
20
5.27463846171605
30
0
0
SPLINE
5
1D8
100
AcDbEntity
8
1
62
256
6
ByLayer
370
-1
48
1
60
0
100
AcDbSpline
70
4
71
3
72
26
73
22
40
0
40
0
40
0
40
0
40
0.124999999999998
40
0.124999999999998
40
0.249999999999996
40
0.249999999999996
40
0.374999999999995
40
0.374999999999995
40
0.499999999999993
40
0.499999999999993
40
0.562499999999993
40
0.562499999999993
40
0.624999999999993
40
0.624999999999993
40
0.687499999999994
40
0.687499999999994
40
0.749999999999994
40
0.749999999999994
40
0.874999999999997
40
0.874999999999997
40
1
40
1
40
1
40
1
41
1
10
46.9293628174594
20
-5.10437861486775
30
0
41
1
10
46.9016830522742
20
-5.12972997709937
30
0
41
1
10
46.8725941733455
20
-5.14365605722637
30
0
41
1
10
46.8119107692456
20
-5.14837453901799
30
0
41
1
10
46.7811637417143
20
-5.13915735929737
30
0
41
1
10
46.7188113959799
20
-5.09796173715341
30
0
41
1
10
46.6868240333342
20
-5.0653195858055
30
0
41
1
10
46.6247014542059
20
-4.97815184318904
30
0
41
1
10
46.5943723549883
20
-4.92380722722092
30
0
41
1
10
46.5501678442768
20
-4.82437642433618
30
0
41
1
10
46.5356030286532
20
-4.788019759142
30
0
41
1
10
46.5078680839873
20
-4.71115235666812
30
0
41
1
10
46.4945848780079
20
-4.67041833226864
30
0
41
1
10
46.4692464645329
20
-4.58420922474713
30
0
41
1
10
46.4571905782278
20
-4.53873641276533
30
0
41
1
10
46.434436846203
20
-4.44265572563606
30
0
41
1
10
46.4237200427689
20
-4.39181462860708
30
0
41
1
10
46.3949687467352
20
-4.23678005162998
30
0
41
1
10
46.3798026710452
20
-4.12820436510327
30
0
41
1
10
46.358662231973
20
-3.90120917378476
30
0
41
1
10
46.3532232937853
20
-3.78872156262383
30
0
41
1
10
46.3528626432816
20
-3.67721976722794
30
0
0
SPLINE
5
1D9
100
AcDbEntity
8
1
62
256
6
ByLayer
370
-1
48
1
60
0
100
AcDbSpline
70
4
71
3
72
20
73
16
40
0
40
0
40
0
40
0
40
0.250000000000015
40
0.250000000000015
40
0.375000000000013
40
0.375000000000013
40
0.50000000000001
40
0.50000000000001
40
0.625000000000008
40
0.625000000000008
40
0.750000000000005
40
0.750000000000005
40
0.875000000000003
40
0.875000000000003
40
1
40
1
40
1
40
1
41
1
10
36.8387673079176
20
3.92355022582805
30
0
41
1
10
36.866827625772
20
3.93560494705912
30
0
41
1
10
36.8956761552173
20
3.95006041032886
30
0
41
1
10
36.939528702621
20
3.97779867651607
30
0
41
1
10
36.9542637732313
20
3.98807395991969
30
0
41
1
10
36.9840099723687
20
4.01174764603255
30
0
41
1
10
36.999154226081
20
4.02527722519969
30
0
41
1
10
37.0284665178405
20
4.05625447649243
30
0
41
1
10
37.0429406751791
20
4.07407883473968
30
0
41
1
10
37.0687080917058
20
4.11391922130184
30
0
41
1
10
37.0798472780045
20
4.1358523262862
30
0
41
1
10
37.0964583803725
20
4.18071699543006
30
0
41
1
10
37.1018507028537
20
4.20336035281395
30
0
41
1
10
37.1076855115925
20
4.245637320117
30
0
41
1
10
37.1082973391299
20
4.26581799704542
30
0
41
1
10
37.1073986801146
20
4.28466145408981
30
0
0
SPLINE
5
1DA
100
AcDbEntity
8
1
62
256
6
ByLayer
370
-1
48
1
60
0
100
AcDbSpline
70
4
71
3
72
10
73
6
40
0
40
0
40
0
40
0
40
0.5
40
0.5
40
1
40
1
40
1
40
1
41
1
10
37.1073986801146
20
4.28466145408981
30
0
41
1
10
37.1230167949577
20
4.58905276073645
30
0
41
1
10
37.1368472880916
20
4.89097196268821
30
0
41
1
10
37.1592282868362
20
5.48750866406905
30
0
41
1
10
37.1678290702581
20
5.78219569275714
30
0
41
1
10
37.172167018343
20
6.07098764017863
30
0
0
SPLINE
5
1DB
100
AcDbEntity
8
1
62
256
6
ByLayer
370
-1
48
1
60
0
100
AcDbSpline
70
4
71
3
72
8
73
4
40
0
40
0
40
0
40
0
40
1
40
1
40
1
40
1
41
1
10
35.3455267300856
20
2.50803349211071
30
0
41
1
10
35.2893600133045
20
2.41860046009128
30
0
41
1
10
35.2449227338437
20
2.32357242937488
30
0
41
1
10
35.2133042524068
20
2.22245007401221
30
0
0
SPLINE
5
1DC
100
AcDbEntity
8
1
62
256
6
ByLayer
370
-1
48
1
60
0
100
AcDbSpline
70
4
71
3
72
8
73
4
40
0
40
0
40
0
40
0
40
1
40
1
40
1
40
1
41
1
10
40.603630604678
20
22.5790209744097
30
0
41
1
10
40.5944493343304
20
22.5720474702534
30
0
41
1
10
40.5852681124045
20
22.565074059238
30
0
41
1
10
40.5760869362805
20
22.5581007362492
30
0
0
SPLINE
5
1DD
100
AcDbEntity
8
1
62
256
6
ByLayer
370
-1
48
1
60
0
100
AcDbSpline
70
4
71
3
72
16
73
12
40
0
40
0
40
0
40
0
40
0.25
40
0.25
40
0.499999999999999
40
0.499999999999999
40
0.749999999999999
40
0.749999999999999
40
0.875
40
0.875
40
1
40
1
40
1
40
1
41
1
10
40.7216271172128
20
22.0579801013527
30
0
41
1
10
40.6872701898249
20
22.0925977817789
30
0
41
1
10
40.6558747617652
20
22.1292849511662
30
0
41
1
10
40.599485688886
20
22.2071182373943
30
0
41
1
10
40.5743754968543
20
22.2481851203446
30
0
41
1
10
40.5339983730109
20
22.3371170596011
30
0
41
1
10
40.5184777771625
20
22.3846332548911
30
0
41
1
10
40.5160129534594
20
22.4575646986371
30
0
41
1
10
40.5190275523976
20
22.4825592838117
30
0
41
1
10
40.5380739616375
20
22.5270419572599
30
0
41
1
10
40.5546405916802
20
22.5460820835408
30
0
41
1
10
40.5760869362805
20
22.5581007362492
30
0
0
SPLINE
5
1DE
100
AcDbEntity
8
1
62
256
6
ByLayer
370
-1
48
1
60
0
100
AcDbSpline
70
4
71
3
72
18
73
14
40
0
40
0
40
0
40
0
40
0.125
40
0.125
40
0.25
40
0.25
40
0.375
40
0.375
40
0.5
40
0.5
40
0.75
40
0.75
40
1
40
1
40
1
40
1
41
1
10
41.2240570921793
20
21.905264437577
30
0
41
1
10
41.2113666389
20
21.8844863918541
30
0
41
1
10
41.191844050709
20
21.8685661872125
30
0
41
1
10
41.145954095765
20
21.8504752416415
30
0
41
1
10
41.12099561912
20
21.848061148337
30
0
41
1
10
41.0721764143315
20
21.8504705185332
30
0
41
1
10
41.0480097671904
20
21.8552771616574
30
0
41
1
10
41.0010157229774
20
21.8689694333975
30
0
41
1
10
40.9784096750057
20
21.8778031863021
30
0
41
1
10
40.9123898913323
20
21.9083332175587
30
0
41
1
10
40.8705653788475
20
21.9341958540466
30
0
41
1
10
40.7925044863175
20
21.9916140968728
30
0
41
1
10
40.7559488882278
20
22.0234033153147
30
0
41
1
10
40.7216271172128
20
22.0579801013527
30
0
0
SPLINE
5
1DF
100
AcDbEntity
8
1
62
256
6
ByLayer
370
-1
48
1
60
0
100
AcDbSpline
70
4
71
3
72
8
73
4
40
0
40
0
40
0
40
0
40
1
40
1
40
1
40
1
41
1
10
41.2240570921793
20
21.905264437577
30
0
41
1
10
41.2313434846776
20
21.9141467736858
30
0
41
1
10
41.2386298990594
20
21.9230292219193
30
0
41
1
10
41.2459163365547
20
21.9319117887919
30
0
0
SPLINE
5
1E0
100
AcDbEntity
8
1
62
256
6
ByLayer
370
-1
48
1
60
0
100
AcDbSpline
70
4
71
3
72
12
73
8
40
0
40
0
40
0
40
0
40
0.25
40
0.25
40
0.5
40
0.5
40
1
40
1
40
1
40
1
41
1
10
41.2459163365547
20
21.9319117887919
30
0
41
1
10
41.2759206079195
20
21.9602629462663
30
0
41
1
10
41.3151773387353
20
21.9761706114052
30
0
41
1
10
41.3955382215613
20
21.996898945525
30
0
41
1
10
41.4370657530659
20
22.0013011572638
30
0
41
1
10
41.5614531536498
20
22.0039967933785
30
0
41
1
10
41.644295192354
20
21.9919243681947
30
0
41
1
10
41.7239592634023
20
21.9704214941774
30
0
0
SPLINE
5
1E1
100
AcDbEntity
8
1
62
256
6
ByLayer
370
-1
48
1
60
0
100
AcDbSpline
70
4
71
3
72
12
73
8
40
0
40
0
40
0
40
0
40
0.250000000000003
40
0.250000000000003
40
0.500000000000006
40
0.500000000000006
40
1
40
1
40
1
40
1
41
1
10
42.1055376785708
20
21.6998471699237
30
0
41
1
10
42.0959993510659
20
21.7388733044924
30
0
41
1
10
42.0718964545749
20
21.7718856261166
30
0
41
1
10
42.0159404671824
20
21.8294142593754
30
0
41
1
10
41.9835051754737
20
21.8537835816784
30
0
41
1
10
41.8803234119954
20
21.9179141179555
30
0
41
1
10
41.803621474403
20
21.9489124150099
30
0
41
1
10
41.7239592634023
20
21.9704214941774
30
0
0
SPLINE
5
1E2
100
AcDbEntity
8
1
62
256
6
ByLayer
370
-1
48
1
60
0
100
AcDbSpline
70
4
71
3
72
8
73
4
40
0
40
0
40
0
40
0
40
1
40
1
40
1
40
1
41
1
10
42.1092007860411
20
21.6663097677478
30
0
41
1
10
42.1079798373951
20
21.6774887579573
30
0
41
1
10
42.1067588032413
20
21.6886678892831
30
0
41
1
10
42.1055376785709
20
21.6998471699237
30
0
0
SPLINE
5
1E3
100
AcDbEntity
8
1
62
256
6
ByLayer
370
-1
48
1
60
0
100
AcDbSpline
70
4
71
3
72
18
73
14
40
0
40
0
40
0
40
0
40
0.125
40
0.125
40
0.25
40
0.25
40
0.375
40
0.375
40
0.5
40
0.5
40
0.75
40
0.75
40
1
40
1
40
1
40
1
41
1
10
42.1092007860411
20
21.6663097677478
30
0
41
1
10
42.1084174801935
20
21.6423172513091
30
0
41
1
10
42.1160100528142
20
21.6190769986978
30
0
41
1
10
42.144426346468
20
21.5809262309499
30
0
41
1
10
42.1639366709807
20
21.5665072758675
30
0
41
1
10
42.2059539230623
20
21.5443943049902
30
0
41
1
10
42.2287078585944
20
21.5365341998581
30
0
41
1
10
42.275275421916
20
21.5249684449161
30
0
41
1
10
42.2988773179325
20
21.5213278345328
30
0
41
1
10
42.3703047101837
20
21.5147524276895
30
0
41
1
10
42.4189981103963
20
21.5161787177489
30
0
41
1
10
42.5146280894269
20
21.5267071220619
30
0
41
1
10
42.5619581414445
20
21.5358504492618
30
0
41
1
10
42.6088410798203
20
21.5485050946851
30
0
0
SPLINE
5
1E4
100
AcDbEntity
8
1
62
256
6
ByLayer
370
-1
48
1
60
0
100
AcDbSpline
70
4
71
3
72
18
73
14
40
0
40
0
40
0
40
0
40
0.124999999999997
40
0.124999999999997
40
0.249999999999995
40
0.249999999999995
40
0.374999999999992
40
0.374999999999992
40
0.49999999999999
40
0.49999999999999
40
0.749999999999995
40
0.749999999999995
40
1
40
1
40
1
40
1
41
1
10
42.994344479893
20
21.9052644375744
30
0
41
1
10
43.0054677064731
20
21.8844862258241
30
0
41
1
10
43.0090121415747
20
21.8601531321622
30
0
41
1
10
43.000988584341
20
21.812165009646
30
0
41
1
10
42.9903415860737
20
21.7896047401558
30
0
41
1
10
42.9634705254308
20
21.7488945808939
30
0
41
1
10
42.9471053953901
20
21.730473836328
30
0
41
1
10
42.9115908967357
20
21.6967490894004
30
0
41
1
10
42.8925983225895
20
21.6816096143414
30
0
41
1
10
42.8331049336739
20
21.6396906443518
30
0
41
1
10
42.7898647624795
20
21.6162984147131
30
0
41
1
10
42.7013539427657
20
21.5771159030797
30
0
41
1
10
42.6557231704506
20
21.5611633918982
30
0
41
1
10
42.6088410798203
20
21.5485050946851
30
0
0
SPLINE
5
1E5
100
AcDbEntity
8
1
62
256
6
ByLayer
370
-1
48
1
60
0
100
AcDbSpline
70
4
71
3
72
8
73
4
40
0
40
0
40
0
40
0
40
1
40
1
40
1
40
1
41
1
10
42.994344479893
20
21.9052644375744
30
0
41
1
10
42.9905352086797
20
21.9157446804858
30
0
41
1
10
42.9867258192854
20
21.9262250556929
30
0
41
1
10
42.9829163048028
20
21.936705570882
30
0
0
SPLINE
5
1E6
100
AcDbEntity
8
1
62
256
6
ByLayer
370
-1
48
1
60
0
100
AcDbSpline
70
4
71
3
72
12
73
8
40
0
40
0
40
0
40
0
40
0.25
40
0.25
40
0.5
40
0.5
40
1
40
1
40
1
40
1
41
1
10
42.9829163048028
20
21.936705570882
30
0
41
1
10
42.974185336488
20
21.9759496613035
30
0
41
1
10
42.9806758145189
20
22.0172210144935
30
0
41
1
10
43.0039368737947
20
22.0961351960681
30
0
41
1
10
43.0212767282293
20
22.1339418887042
30
0
41
1
10
43.0820116118286
20
22.2423235997381
30
0
41
1
10
43.1340864100841
20
22.3080866503683
30
0
41
1
10
43.1924017273793
20
22.3668443423276
30
0
0
SPLINE
5
1E7
100
AcDbEntity
8
1
62
256
6
ByLayer
370
-1
48
1
60
0
100
AcDbSpline
70
4
71
3
72
14
73
10
40
0
40
0
40
0
40
0
40
0.5
40
0.5
40
0.75
40
0.75
40
0.875
40
0.875
40
1
40
1
40
1
40
1
41
1
10
43.1924017273793
20
22.3668443423276
30
0
41
1
10
43.2507028146222
20
22.4255788251599
30
0
41
1
10
43.3155127735242
20
22.4775602765215
30
0
41
1
10
43.4213961053334
20
22.5370153960929
30
0
41
1
10
43.4583638460325
20
22.5537962529586
30
0
41
1
10
43.5155078302388
20
22.5699282697695
30
0
41
1
10
43.5347139040422
20
22.5737602549051
30
0
41
1
10
43.5736513162271
20
22.5766841895331
30
0
41
1
10
43.5933586428219
20
22.5757590144939
30
0
41
1
10
43.6122028024291
20
22.5707179002692
30
0
0
SPLINE
5
1E8
100
AcDbEntity
8
1
62
256
6
ByLayer
370
-1
48
1
60
0
100
AcDbSpline
70
4
71
3
72
8
73
4
40
0
40
0
40
0
40
0
40
1
40
1
40
1
40
1
41
1
10
43.6122028024292
20
22.5707179002692
30
0
41
1
10
43.6222402846657
20
22.5665121237848
30
0
41
1
10
43.6322775586307
20
22.5623064034745
30
0
41
1
10
43.642314635799
20
22.5581007362538
30
0
0
SPLINE
5
1E9
100
AcDbEntity
8
1
62
256
6
ByLayer
370
-1
48
1
60
0
100
AcDbSpline
70
4
71
3
72
16
73
12
40
0
40
0
40
0
40
0
40
0.249999999999998
40
0.249999999999998
40
0.499999999999995
40
0.499999999999995
40
0.749999999999993
40
0.749999999999993
40
0.874999999999996
40
0.874999999999996
40
1
40
1
40
1
40
1
41
1
10
43.9903775852023
20
22.9404166980876
30
0
41
1
10
43.9777998157342
20
22.8931303849062
30
0
41
1
10
43.9620463695812
20
22.8473444925532
30
0
41
1
10
43.9237100533779
20
22.7590101692608
30
0
41
1
10
43.9012468137013
20
22.7164035910004
30
0
41
1
10
43.8459594582432
20
22.6361447257588
30
0
41
1
10
43.8135351497359
20
22.5984611846358
30
0
41
1
10
43.753841511512
20
22.5588189450386
30
0
41
1
10
43.731591813334
20
22.548520249538
30
0
41
1
10
43.6857009295303
20
22.5418106948079
30
0
41
1
10
43.6621912978857
20
22.5460823716457
30
0
41
1
10
43.642314635799
20
22.5581007362538
30
0
0
SPLINE
5
1EA
100
AcDbEntity
8
1
62
256
6
ByLayer
370
-1
48
1
60
0
100
AcDbSpline
70
4
71
3
72
16
73
12
40
0
40
0
40
0
40
0
40
0.25
40
0.25
40
0.5
40
0.5
40
0.75
40
0.75
40
0.875
40
0.875
40
1
40
1
40
1
40
1
41
1
10
43.9903775852023
20
22.9404166980876
30
0
41
1
10
44.0029518496858
20
22.9877039908446
30
0
41
1
10
44.0120387766005
20
23.0353198352412
30
0
41
1
10
44.0227097534245
20
23.1312567493285
30
0
41
1
10
44.0244256603119
20
23.1795656446826
30
0
41
1
10
44.016462117949
20
23.277248001204
30
0
41
1
10
44.0071420203552
20
23.3264380919569
30
0
41
1
10
43.9752767117398
20
23.3914325383387
30
0
41
1
10
43.9611851639405
20
23.4118091234371
30
0
41
1
10
43.9249391339992
20
23.4413649701563
30
0
41
1
10
43.9025610989823
20
23.4498915384177
30
0
41
1
10
43.8794881737522
20
23.4498917047526
30
0
0
SPLINE
5
1EB
100
AcDbEntity
8
1
62
256
6
ByLayer
370
-1
48
1
60
0
100
AcDbSpline
70
4
71
3
72
8
73
4
40
0
40
0
40
0
40
0
40
1
40
1
40
1
40
1
41
1
10
43.8472956967842
20
23.4546854868454
30
0
41
1
10
43.8580267359806
20
23.4530875385289
30
0
41
1
10
43.8687575576422
20
23.4514896115553
30
0
41
1
10
43.8794881737522
20
23.4498917047526
30
0
0
SPLINE
5
1EC
100
AcDbEntity
8
1
62
256
6
ByLayer
370
-1
48
1
60
0
100
AcDbSpline
70
4
71
3
72
14
73
10
40
0
40
0
40
0
40
0
40
0.499999999999981
40
0.499999999999981
40
0.749999999999969
40
0.749999999999969
40
0.874999999999985
40
0.874999999999985
40
1
40
1
40
1
40
1
41
1
10
43.5858696997335
20
23.8463145529055
30
0
41
1
10
43.6072115658544
20
23.7660794867575
30
0
41
1
10
43.6374674059843
20
23.6881347612308
30
0
41
1
10
43.6994289706439
20
23.5824406166703
30
0
41
1
10
43.7230190499631
20
23.548920425193
30
0
41
1
10
43.7643215765529
20
23.505487327986
30
0
41
1
10
43.7789876281673
20
23.4922484762151
30
0
41
1
10
43.8111128309785
20
23.469557973215
30
0
41
1
10
43.828559731964
20
23.4601334218933
30
0
41
1
10
43.8472956967842
20
23.4546854868454
30
0
0
SPLINE
5
1ED
100
AcDbEntity
8
1
62
256
6
ByLayer
370
-1
48
1
60
0
100
AcDbSpline
70
4
71
3
72
14
73
10
40
0
40
0
40
0
40
0
40
0.500000000000025
40
0.500000000000025
40
0.750000000000027
40
0.750000000000027
40
0.875000000000014
40
0.875000000000014
40
1
40
1
40
1
40
1
41
1
10
43.5858696997335
20
23.8463145529055
30
0
41
1
10
43.5645337808446
20
23.9265512811902
30
0
41
1
10
43.5519800023842
20
24.0095740546229
30
0
41
1
10
43.5529570177589
20
24.1331865634928
30
0
41
1
10
43.5566544214049
20
24.1744643813453
30
0
41
1
10
43.5706890521245
20
24.233560695627
30
0
41
1
10
43.5767549545506
20
24.2526590743924
30
0
41
1
10
43.5931709953039
20
24.2890362438098
30
0
41
1
10
43.6035240197535
20
24.3062852205767
30
0
41
1
10
43.6169608523945
20
24.3207624351008
30
0
0
SPLINE
5
1EE
100
AcDbEntity
8
1
62
256
6
ByLayer
370
-1
48
1
60
0
100
AcDbSpline
70
4
71
3
72
8
73
4
40
0
40
0
40
0
40
0
40
1
40
1
40
1
40
1
41
1
10
43.6169608523945
20
24.3207624351008
30
0
41
1
10
43.625412297179
20
24.3277359392571
30
0
41
1
10
43.6338635548758
20
24.3347093502725
30
0
41
1
10
43.6423146357964
20
24.3416826732613
30
0
0
SPLINE
5
1EF
100
AcDbEntity
8
1
62
256
6
ByLayer
370
-1
48
1
60
0
100
AcDbSpline
70
4
71
3
72
16
73
12
40
0
40
0
40
0
40
0
40
0.25
40
0.25
40
0.5
40
0.5
40
0.75
40
0.75
40
0.875
40
0.875
40
1
40
1
40
1
40
1
41
1
10
43.4847001279769
20
24.8418033081577
30
0
41
1
10
43.5190571789563
20
24.8071856277315
30
0
41
1
10
43.5505646559164
20
24.7704984583443
30
0
41
1
10
43.6074501545908
20
24.6926651721162
30
0
41
1
10
43.6329357230878
20
24.6515982891659
30
0
41
1
10
43.6746026146782
20
24.5626663499093
30
0
41
1
10
43.6910017414467
20
24.5151501546193
30
0
41
1
10
43.6958180908571
20
24.4422187108734
30
0
41
1
10
43.6937930938021
20
24.4172241256988
30
0
41
1
10
43.677237751918
20
24.3727414522506
30
0
41
1
10
43.6621911327881
20
24.3537013259697
30
0
41
1
10
43.6423146357964
20
24.3416826732613
30
0
0
SPLINE
5
1F0
100
AcDbEntity
8
1
62
256
6
ByLayer
370
-1
48
1
60
0
100
AcDbSpline
70
4
71
3
72
18
73
14
40
0
40
0
40
0
40
0
40
0.124999999999994
40
0.124999999999994
40
0.249999999999988
40
0.249999999999988
40
0.374999999999982
40
0.374999999999982
40
0.499999999999976
40
0.499999999999976
40
0.749999999999988
40
0.749999999999988
40
1
40
1
40
1
40
1
41
1
10
42.9943444798976
20
24.9945189719334
30
0
41
1
10
43.0054679919021
20
25.0152970176564
30
0
41
1
10
43.023475364092
20
25.031217222298
30
0
41
1
10
43.0668492504996
20
25.0493081678689
30
0
41
1
10
43.0908363568832
20
25.0517222611734
30
0
41
1
10
43.1380938197868
20
25.0493128909773
30
0
41
1
10
43.1616598294628
20
25.0445062478531
30
0
41
1
10
43.207661841517
20
25.0308139761129
30
0
41
1
10
43.2298826112065
20
25.0219802232083
30
0
41
1
10
43.2949392246281
20
24.9914501919518
30
0
41
1
10
43.3363750818909
20
24.9655875554639
30
0
41
1
10
43.4139345183131
20
24.9081693126377
30
0
41
1
10
43.4503784804169
20
24.8763800941957
30
0
41
1
10
43.4847001279769
20
24.8418033081577
30
0
0
SPLINE
5
1F1
100
AcDbEntity
8
1
62
256
6
ByLayer
370
-1
48
1
60
0
100
AcDbSpline
70
4
71
3
72
8
73
4
40
0
40
0
40
0
40
0
40
1
40
1
40
1
40
1
41
1
10
42.9943444798976
20
24.9945189719334
30
0
41
1
10
42.9877881826027
20
24.9856366358247
30
0
41
1
10
42.98123173245
20
24.9767541875912
30
0
41
1
10
42.9746751205178
20
24.9678716207186
30
0
0
SPLINE
5
1F2
100
AcDbEntity
8
1
62
256
6
ByLayer
370
-1
48
1
60
0
100
AcDbSpline
70
4
71
3
72
12
73
8
40
0
40
0
40
0
40
0
40
0.25000000000001
40
0.25000000000001
40
0.50000000000002
40
0.50000000000002
40
1
40
1
40
1
40
1
41
1
10
42.9746751205178
20
24.9678716207186
30
0
41
1
10
42.9472176714967
20
24.9395204632442
30
0
41
1
10
42.9101044096319
20
24.9236127981052
30
0
41
1
10
42.8333358299635
20
24.9028844639855
30
0
41
1
10
42.7932486929658
20
24.8984822522467
30
0
41
1
10
42.6722943793117
20
24.895786616132
30
0
41
1
10
42.5905590693832
20
24.9078590413158
30
0
41
1
10
42.5108952081107
20
24.9293619153331
30
0
0
SPLINE
5
1F3
100
AcDbEntity
8
1
62
256
6
ByLayer
370
-1
48
1
60
0
100
AcDbSpline
70
4
71
3
72
12
73
8
40
0
40
0
40
0
40
0
40
0.249999999999994
40
0.249999999999994
40
0.499999999999988
40
0.499999999999988
40
1
40
1
40
1
40
1
41
1
10
42.1150537785016
20
25.1999362395867
30
0
41
1
10
42.1271389283503
20
25.1609101050181
30
0
41
1
10
42.1533852937922
20
25.1278977833939
30
0
41
1
10
42.2129335843425
20
25.070369150135
30
0
41
1
10
42.2468092705581
20
25.045999827832
30
0
41
1
10
42.353424120966
20
24.9818692915549
30
0
41
1
10
42.4312327873342
20
24.9508709945005
30
0
41
1
10
42.5108952081107
20
24.9293619153331
30
0
0
SPLINE
5
1F4
100
AcDbEntity
8
1
62
256
6
ByLayer
370
-1
48
1
60
0
100
AcDbSpline
70
4
71
3
72
8
73
4
40
0
40
0
40
0
40
0
40
1
40
1
40
1
40
1
41
1
10
42.1092007860358
20
25.2334736417627
30
0
41
1
10
42.1111518298852
20
25.2222946515532
30
0
41
1
10
42.113102828268
20
25.2111155202274
30
0
41
1
10
42.1150537785016
20
25.1999362395867
30
0
0
SPLINE
5
1F5
100
AcDbEntity
8
1
62
256
6
ByLayer
370
-1
48
1
60
0
100
AcDbSpline
70
4
71
3
72
18
73
14
40
0
40
0
40
0
40
0
40
0.124999999999991
40
0.124999999999991
40
0.249999999999982
40
0.249999999999982
40
0.374999999999973
40
0.374999999999973
40
0.499999999999964
40
0.499999999999964
40
0.749999999999982
40
0.749999999999982
40
1
40
1
40
1
40
1
41
1
10
42.1092007860358
20
25.2334736417627
30
0
41
1
10
42.1084171506086
20
25.2574661582014
30
0
41
1
10
42.0993093619868
20
25.2807064108127
30
0
41
1
10
42.0683769997967
20
25.3188571785606
30
0
41
1
10
42.0478953050226
20
25.333276133643
30
0
41
1
10
42.0043163110559
20
25.3553891045202
30
0
41
1
10
41.9809617380589
20
25.3632492096524
30
0
41
1
10
41.9334021425785
20
25.3748149645944
30
0
41
1
10
41.9094149682797
20
25.3784555749777
30
0
41
1
10
41.8370244057767
20
25.385030981821
30
0
41
1
10
41.7879423503421
20
25.3836046917616
30
0
41
1
10
41.6918109152037
20
25.3730762874486
30
0
41
1
10
41.6443692272003
20
25.3639329602487
30
0
41
1
10
41.5974861653695
20
25.3512783148254
30
0
0
SPLINE
5
1F6
100
AcDbEntity
8
1
62
256
6
ByLayer
370
-1
48
1
60
0
100
AcDbSpline
70
4
71
3
72
18
73
14
40
0
40
0
40
0
40
0
40
0.12499999999999
40
0.12499999999999
40
0.24999999999998
40
0.24999999999998
40
0.374999999999971
40
0.374999999999971
40
0.499999999999961
40
0.499999999999961
40
0.74999999999998
40
0.74999999999998
40
1
40
1
40
1
40
1
41
1
10
41.2240570921838
20
24.9945189719361
30
0
41
1
10
41.2113669243289
20
25.0152971836864
30
0
41
1
10
41.2063072732263
20
25.0396302773483
30
0
41
1
10
41.2118147619236
20
25.0876183998645
30
0
41
1
10
41.2214903899295
20
25.1101786693547
30
0
41
1
10
41.2467997086875
20
25.1508888286165
30
0
41
1
10
41.2625642012631
20
25.1693095731825
30
0
41
1
10
41.2970866677588
20
25.2030343201101
30
0
41
1
10
41.3156939636227
20
25.2181737951691
30
0
41
1
10
41.3742241822865
20
25.2600927651587
30
0
41
1
10
41.417075698259
20
25.2834849947974
30
0
41
1
10
41.5050850618649
20
25.3226675064308
30
0
41
1
10
41.5506041981942
20
25.3386200176123
30
0
41
1
10
41.5974861653695
20
25.3512783148254
30
0
0
SPLINE
5
1F7
100
AcDbEntity
8
1
62
256
6
ByLayer
370
-1
48
1
60
0
100
AcDbSpline
70
4
71
3
72
8
73
4
40
0
40
0
40
0
40
0
40
1
40
1
40
1
40
1
41
1
10
41.2240570921838
20
24.9945189719361
30
0
41
1
10
41.2285964586006
20
24.9840387290247
30
0
41
1
10
41.233135812224
20
24.9735583538175
30
0
41
1
10
41.2376751522697
20
24.9630778386285
30
0
0
SPLINE
5
1F8
100
AcDbEntity
8
1
62
256
6
ByLayer
370
-1
48
1
60
0
100
AcDbSpline
70
4
71
3
72
12
73
8
40
0
40
0
40
0
40
0
40
0.249999999999995
40
0.249999999999995
40
0.49999999999999
40
0.49999999999999
40
1
40
1
40
1
40
1
41
1
10
41.2376751522697
20
24.9630778386285
30
0
41
1
10
41.2489529429282
20
24.923833748207
30
0
41
1
10
41.2446059338482
20
24.8825623950169
30
0
41
1
10
41.2249371777302
20
24.8036482134423
30
0
41
1
10
41.2090377178025
20
24.7658415208062
30
0
41
1
10
41.1517359211329
20
24.6574598097723
30
0
41
1
10
41.1007678516531
20
24.5916967591421
30
0
41
1
10
41.0424527441337
20
24.5329390671828
30
0
0
SPLINE
5
1F9
100
AcDbEntity
8
1
62
256
6
ByLayer
370
-1
48
1
60
0
100
AcDbSpline
70
4
71
3
72
14
73
10
40
0
40
0
40
0
40
0
40
0.500000000000025
40
0.500000000000025
40
0.750000000000033
40
0.750000000000033
40
0.875000000000017
40
0.875000000000017
40
1
40
1
40
1
40
1
41
1
10
41.0424527441337
20
24.5329390671828
30
0
41
1
10
40.9841514471816
20
24.4742045843506
30
0
41
1
10
40.9182332790124
20
24.422223132989
30
0
41
1
10
40.8089147368273
20
24.3627680134176
30
0
41
1
10
40.7704984260577
20
24.3459871565519
30
0
41
1
10
40.7106713988059
20
24.329855139741
30
0
41
1
10
40.6904922277378
20
24.3260231546054
30
0
41
1
10
40.6493974622752
20
24.3230992199773
30
0
41
1
10
40.6285065687825
20
24.3240243950165
30
0
41
1
10
40.6083886546433
20
24.3290655092413
30
0
0
SPLINE
5
1FA
100
AcDbEntity
8
1
62
256
6
ByLayer
370
-1
48
1
60
0
100
AcDbSpline
70
4
71
3
72
8
73
4
40
0
40
0
40
0
40
0
40
1
40
1
40
1
40
1
41
1
10
40.6083886546433
20
24.3290655092413
30
0
41
1
10
40.5976213468437
20
24.3332712857256
30
0
41
1
10
40.5868541086495
20
24.3374770060359
30
0
41
1
10
40.5760869362778
20
24.3416826732567
30
0
0
SPLINE
5
1FB
100
AcDbEntity
8
1
62
256
6
ByLayer
370
-1
48
1
60
0
100
AcDbSpline
70
4
71
3
72
16
73
12
40
0
40
0
40
0
40
0
40
0.25000000000001
40
0.25000000000001
40
0.50000000000002
40
0.50000000000002
40
0.75000000000003
40
0.75000000000003
40
0.875000000000015
40
0.875000000000015
40
1
40
1
40
1
40
1
41
1
10
40.2159496599874
20
23.9593667114229
30
0
41
1
10
40.228527553047
20
24.0066530246043
30
0
41
1
10
40.2443930481004
20
24.0524389169573
30
0
41
1
10
40.2832257900988
20
24.1407732402497
30
0
41
1
10
40.3060644062408
20
24.1833798185101
30
0
41
1
10
40.362641529446
20
24.2636386837517
30
0
41
1
10
40.3959443688733
20
24.3013222248747
30
0
41
1
10
40.4579895328046
20
24.3409644644719
30
0
41
1
10
40.4812288328658
20
24.3512631599725
30
0
41
1
10
40.5296107840252
20
24.3579727147025
30
0
41
1
10
40.5546404265826
20
24.3537010378647
30
0
41
1
10
40.5760869362778
20
24.3416826732567
30
0
0
SPLINE
5
1FC
100
AcDbEntity
8
1
62
256
6
ByLayer
370
-1
48
1
60
0
100
AcDbSpline
70
4
71
3
72
16
73
12
40
0
40
0
40
0
40
0
40
0.250000000000004
40
0.250000000000004
40
0.500000000000008
40
0.500000000000008
40
0.750000000000012
40
0.750000000000012
40
0.875000000000006
40
0.875000000000006
40
1
40
1
40
1
40
1
41
1
10
40.2159496599874
20
23.9593667114229
30
0
41
1
10
40.2033755190954
20
23.9120794186659
30
0
41
1
10
40.1944006410811
20
23.8644635742692
30
0
41
1
10
40.1842260900522
20
23.7685266601819
30
0
41
1
10
40.1828855596302
20
23.7202177648279
30
0
41
1
10
40.1921388697402
20
23.6225354083065
30
0
41
1
10
40.2023374982541
20
23.5733453175536
30
0
41
1
10
40.2365543325768
20
23.5083508711717
30
0
41
1
10
40.2516354822593
20
23.4879742860733
30
0
41
1
10
40.2903725795563
20
23.4584184393542
30
0
41
1
10
40.314270625486
20
23.4498918710927
30
0
41
1
10
40.3389133983247
20
23.4498917047579
30
0
0
SPLINE
5
1FD
100
AcDbEntity
8
1
62
256
6
ByLayer
370
-1
48
1
60
0
100
AcDbSpline
70
4
71
3
72
8
73
4
40
0
40
0
40
0
40
0
40
1
40
1
40
1
40
1
41
1
10
40.3732957602883
20
23.4450979226651
30
0
41
1
10
40.3618348955288
20
23.4466958709816
30
0
41
1
10
40.3503741096381
20
23.4482937979552
30
0
41
1
10
40.3389133983247
20
23.4498917047579
30
0
0
SPLINE
5
1FE
100
AcDbEntity
8
1
62
256
6
ByLayer
370
-1
48
1
60
0
100
AcDbSpline
70
4
71
3
72
14
73
10
40
0
40
0
40
0
40
0
40
0.500000000000013
40
0.500000000000013
40
0.749999999999999
40
0.749999999999999
40
0.874999999999999
40
0.874999999999999
40
1
40
1
40
1
40
1
41
1
10
40.6489847717795
20
23.053468856605
30
0
41
1
10
40.6276426959494
20
23.1337039227529
30
0
41
1
10
40.5962786465523
20
23.2116486482797
30
0
41
1
10
40.5308818715168
20
23.3173427928402
30
0
41
1
10
40.5058432221272
20
23.3508629843175
30
0
41
1
10
40.4618576524919
20
23.3942960815245
30
0
41
1
10
40.4462185036128
20
23.4075349332954
30
0
41
1
10
40.4119359475239
20
23.4302254362954
30
0
41
1
10
40.3933054796404
20
23.4396499876171
30
0
41
1
10
40.3732957602883
20
23.4450979226651
30
0
0
SPLINE
5
1FF
100
AcDbEntity
8
1
62
256
6
ByLayer
370
-1
48
1
60
0
100
AcDbSpline
70
4
71
3
72
8
73
4
40
0
40
0
40
0
40
0
40
1
40
1
40
1
40
1
41
1
10
37.5638742721104
20
6.26020763120954
30
0
41
1
10
37.5787379182932
20
6.24097262691382
30
0
41
1
10
37.5958526824634
20
6.22116497193204
30
0
41
1
10
37.6151426312903
20
6.20120148145213
30
0
0
SPLINE
5
200
100
AcDbEntity
8
1
62
256
6
ByLayer
370
-1
48
1
60
0
100
AcDbSpline
70
4
71
3
72
50
73
46
40
0
40
0
40
0
40
0
40
0.062499999999999
40
0.062499999999999
40
0.124999999999998
40
0.124999999999998
40
0.187499999999997
40
0.187499999999997
40
0.249999999999996
40
0.249999999999996
40
0.281249999999995
40
0.281249999999995
40
0.312499999999995
40
0.312499999999995
40
0.343749999999994
40
0.343749999999994
40
0.374999999999994
40
0.374999999999994
40
0.406249999999993
40
0.406249999999993
40
0.437499999999992
40
0.437499999999992
40
0.468749999999992
40
0.468749999999992
40
0.499999999999991
40
0.499999999999991
40
0.53124999999999
40
0.53124999999999
40
0.56249999999999
40
0.56249999999999
40
0.593749999999989
40
0.593749999999989
40
0.624999999999989
40
0.624999999999989
40
0.68749999999999
40
0.68749999999999
40
0.749999999999992
40
0.749999999999992
40
0.812499999999994
40
0.812499999999994
40
0.874999999999996
40
0.874999999999996
40
0.937499999999998
40
0.937499999999998
40
1
40
1
40
1
40
1
41
1
10
34.6951569179414
20
-1.61018961650353
30
0
41
1
10
34.7715179549398
20
-1.52940829139806
30
0
41
1
10
34.8418203637171
20
-1.44037996170846
30
0
41
1
10
34.9689132844384
20
-1.2482305998337
30
0
41
1
10
35.0240123515303
20
-1.14789307413025
30
0
41
1
10
35.118842635338
20
-0.939459724413837
30
0
41
1
10
35.1588567352428
20
-0.82998845719851
30
0
41
1
10
35.2195722525125
20
-0.613080759721839
30
0
41
1
10
35.240853918701
20
-0.50496498337165
30
0
41
1
10
35.2577285921268
20
-0.343144131716286
30
0
41
1
10
35.2607412846718
20
-0.28944446182615
30
0
41
1
10
35.2611098696291
20
-0.18518723271157
30
0
41
1
10
35.2585153594595
20
-0.134246188044074
30
0
41
1
10
35.2472893839081
20
-0.0346760881380987
30
0
41
1
10
35.2386631152854
20
0.0139531605153991
30
0
41
1
10
35.2144185639948
20
0.108886115925117
30
0
41
1
10
35.1987945652683
20
0.154906412119686
30
0
41
1
10
35.1607218379869
20
0.241635257424122
30
0
41
1
10
35.1381893338749
20
0.28271635089618
30
0
41
1
10
35.0853229631218
20
0.36035253822692
30
0
41
1
10
35.0547212059497
20
0.397064822006513
30
0
41
1
10
34.9872742905533
20
0.463520294176732
30
0
41
1
10
34.9502564606915
20
0.493608164074942
30
0
41
1
10
34.8696287528698
20
0.548001405303211
30
0
41
1
10
34.8257455938693
20
0.572416608418933
30
0
41
1
10
34.7328673305026
20
0.615131593866465
30
0
41
1
10
34.683940755048
20
0.633413643921443
30
0
41
1
10
34.5838908772339
20
0.664115980561945
30
0
41
1
10
34.5324888756506
20
0.676673044479713
30
0
41
1
10
34.4273430654934
20
0.697128801849232
30
0
41
1
10
34.3735982707499
20
0.705023425556789
30
0
41
1
10
34.2640822769463
20
0.716759730444437
30
0
41
1
10
34.2080639199964
20
0.720598384892241
30
0
41
1
10
34.0401142674432
20
0.726572106573144
30
0
41
1
10
33.9277348882767
20
0.723393332168229
30
0
41
1
10
33.7025800089342
20
0.705643100053948
30
0
41
1
10
33.5898020823011
20
0.691026350165998
30
0
41
1
10
33.3641760684181
20
0.650968252627564
30
0
41
1
10
33.2517334284044
20
0.625534265503205
30
0
41
1
10
33.0311901877675
20
0.564466098188944
30
0
41
1
10
32.9225863605696
20
0.528752243958678
30
0
41
1
10
32.7091918301371
20
0.445679824218729
30
0
41
1
10
32.6039701349632
20
0.398121604747132
30
0
41
1
10
32.4002904591487
20
0.289417887312851
30
0
41
1
10
32.3026710210474
20
0.228814910594593
30
0
41
1
10
32.2104603858159
20
0.160188901031603
30
0
0
SPLINE
5
201
100
AcDbEntity
8
1
62
256
6
ByLayer
370
-1
48
1
60
0
100
AcDbSpline
70
4
71
3
72
8
73
4
40
0
40
0
40
0
40
0
40
1
40
1
40
1
40
1
41
1
10
33.0371737263835
20
-18.1693254135377
30
0
41
1
10
33.5299729963961
20
-18.5726146926119
30
0
41
1
10
34.0365432925779
20
-18.9551789948668
30
0
41
1
10
34.5557922758142
20
-19.3185658336495
30
0
0
SPLINE
5
202
100
AcDbEntity
8
1
62
256
6
ByLayer
370
-1
48
1
60
0
100
AcDbSpline
70
4
71
3
72
18
73
14
40
0
40
0
40
0
40
0
40
0.125000000000001
40
0.125000000000001
40
0.250000000000001
40
0.250000000000001
40
0.499999999999997
40
0.499999999999997
40
0.624999999999998
40
0.624999999999998
40
0.749999999999999
40
0.749999999999999
40
1
40
1
40
1
40
1
41
1
10
44.8736759136998
20
-0.373204096955646
30
0
41
1
10
44.7191802555218
20
-0.406974806687032
30
0
41
1
10
44.5615691174107
20
-0.438256285668729
30
0
41
1
10
44.2401263057228
20
-0.493420050739047
30
0
41
1
10
44.0755576883057
20
-0.517372866145195
30
0
41
1
10
43.580257181802
20
-0.574772222460581
30
0
41
1
10
43.247152311424
20
-0.593989889771279
30
0
41
1
10
42.7441984332087
20
-0.59264622664395
30
0
41
1
10
42.5759903445959
20
-0.587207572199702
30
0
41
1
10
42.2385378617292
20
-0.566213447494249
30
0
41
1
10
42.0690875780905
20
-0.550599842826415
30
0
41
1
10
41.5660423129175
20
-0.489215422749254
30
0
41
1
10
41.2354569466661
20
-0.428900460292198
30
0
41
1
10
40.9097502612299
20
-0.349307603736918
30
0
0
SPLINE
5
203
100
AcDbEntity
8
1
62
256
6
ByLayer
370
-1
48
1
60
0
100
AcDbSpline
70
4
71
3
72
26
73
22
40
0
40
0
40
0
40
0
40
0.0625000000000001
40
0.0625000000000001
40
0.125
40
0.125
40
0.25
40
0.25
40
0.375
40
0.375
40
0.4375
40
0.4375
40
0.5
40
0.5
40
0.750000000000001
40
0.750000000000001
40
0.875000000000001
40
0.875000000000001
40
0.937500000000001
40
0.937500000000001
40
1
40
1
40
1
40
1
41
1
10
22.8445797724945
20
-6.76390026147615
30
0
41
1
10
23.0685210970538
20
-6.78948432872613
30
0
41
1
10
23.2973003665377
20
-6.8177623299917
30
0
41
1
10
23.7603962791987
20
-6.87836236136249
30
0
41
1
10
23.995247516861
20
-6.91074367429837
30
0
41
1
10
24.7097284483668
20
-7.01301983342236
30
0
41
1
10
25.1992704125177
20
-7.08800136218372
30
0
41
1
10
26.2052337906353
20
-7.24698149362578
30
0
41
1
10
26.7216525191982
20
-7.33099696108599
30
0
41
1
10
27.5171476470775
20
-7.46133041802423
30
0
41
1
10
27.7860059078846
20
-7.50553631240908
30
0
41
1
10
28.3299752933812
20
-7.5949288937156
30
0
41
1
10
28.6035814861652
20
-7.63986751334909
30
0
41
1
10
29.9796805910901
20
-7.86501235624158
30
0
41
1
10
31.1062451635592
20
-8.0461766496723
30
0
41
1
10
32.8354249235211
20
-8.31056577226084
30
0
41
1
10
33.4183994000744
20
-8.39754692755301
30
0
41
1
10
34.3030969813953
20
-8.52574650784399
30
0
41
1
10
34.5999559010484
20
-8.56813781615693
30
0
41
1
10
35.1935716943795
20
-8.65161713143058
30
0
41
1
10
35.4907348447486
20
-8.69276515632365
30
0
41
1
10
35.7882540932322
20
-8.73331930255122
30
0
0
SPLINE
5
204
100
AcDbEntity
8
1
62
256
6
ByLayer
370
-1
48
1
60
0
100
AcDbSpline
70
4
71
3
72
8
73
4
40
0
40
0
40
0
40
0
40
1
40
1
40
1
40
1
41
1
10
35.2133042524069
20
2.22245007401216
30
0
41
1
10
35.1572202041933
20
2.13384164403666
30
0
41
1
10
35.1121570807589
20
2.03901903381089
30
0
41
1
10
35.0797919001178
20
1.93706428210402
30
0
0
SPLINE
5
205
100
AcDbEntity
8
1
62
256
6
ByLayer
370
-1
48
1
60
0
100
AcDbSpline
70
4
71
3
72
8
73
4
40
0
40
0
40
0
40
0
40
1
40
1
40
1
40
1
41
1
10
48.6251542716295
20
4.67475916105539
30
0
41
1
10
48.6831520437421
20
4.66828085557873
30
0
41
1
10
48.7292684679402
20
4.66335158609874
30
0
41
1
10
48.7619807957535
20
4.66016988159259
30
0
0
SPLINE
5
206
100
AcDbEntity
8
1
62
256
6
ByLayer
370
-1
48
1
60
0
100
AcDbSpline
70
4
71
3
72
10
73
6
40
0
40
0
40
0
40
0
40
0.5
40
0.5
40
1
40
1
40
1
40
1
41
1
10
45.2979526291586
20
-29.8257224880491
30
0
41
1
10
45.3353967885844
20
-29.8091561891653
30
0
41
1
10
45.3706413824696
20
-29.7890897883185
30
0
41
1
10
45.4371717615643
20
-29.7426574543948
30
0
41
1
10
45.4685960997172
20
-29.7161113909053
30
0
41
1
10
45.4974384936049
20
-29.6869247888967
30
0
0
SPLINE
5
207
100
AcDbEntity
8
1
62
256
6
ByLayer
370
-1
48
1
60
0
100
AcDbSpline
70
4
71
3
72
10
73
6
40
0
40
0
40
0
40
0
40
0.5
40
0.5
40
1
40
1
40
1
40
1
41
1
10
43.1575924284959
20
-30.3306140544148
30
0
41
1
10
43.1969491769194
20
-30.341016112592
30
0
41
1
10
43.2367625781746
20
-30.3477640655567
30
0
41
1
10
43.3173195699667
20
-30.3538166591481
30
0
41
1
10
43.3582634470849
20
-30.353071969809
30
0
41
1
10
43.398765516873
20
-30.3481869251831
30
0
0
SPLINE
5
208
100
AcDbEntity
8
1
62
256
6
ByLayer
370
-1
48
1
60
0
100
AcDbSpline
70
4
71
3
72
8
73
4
40
0
40
0
40
0
40
0
40
1
40
1
40
1
40
1
41
1
10
38.6668150418735
20
-29.097524050234
30
0
41
1
10
38.7325686338506
20
-29.1461957534192
30
0
41
1
10
38.8060935624911
20
-29.1805052122201
30
0
41
1
10
38.8850532198973
20
-29.2013743892452
30
0
0
SPLINE
5
209
100
AcDbEntity
8
1
62
256
6
ByLayer
370
-1
48
1
60
0
100
AcDbSpline
70
4
71
3
72
8
73
4
40
0
40
0
40
0
40
0
40
1
40
1
40
1
40
1
41
1
10
37.2577696276085
20
-27.6788481273773
30
0
41
1
10
37.2637605272285
20
-27.6879045198029
30
0
41
1
10
37.2700072034763
20
-27.6968364372504
30
0
41
1
10
37.2765135825995
20
-27.7056419689915
30
0
0
SPLINE
5
20A
100
AcDbEntity
8
1
62
256
6
ByLayer
370
-1
48
1
60
0
100
AcDbSpline
70
4
71
3
72
8
73
4
40
0
40
0
40
0
40
0
40
1
40
1
40
1
40
1
41
1
10
49.2708664487631
20
4.61872941140442
30
0
41
1
10
49.2802072184149
20
4.6184865742253
30
0
41
1
10
49.2733427931434
20
4.62021940600823
30
0
41
1
10
49.2521141351856
20
4.62370346440815
30
0
0
SPLINE
5
20B
100
AcDbEntity
8
1
62
256
6
ByLayer
370
-1
48
1
60
0
100
AcDbSpline
70
4
71
3
72
12
73
8
40
0
40
0
40
0
40
0
40
0.55088830783216
40
0.55088830783216
40
0.826332461748235
40
0.826332461748235
40
1
40
1
40
1
40
1
41
1
10
36.7855769329486
20
-28.3759661429253
30
0
41
1
10
36.5750120433869
20
-28.1984704818955
30
0
41
1
10
36.3742687693451
20
-28.0058701807564
30
0
41
1
10
36.0900471261818
20
-27.690935180589
30
0
41
1
10
35.9982776494827
20
-27.5816796279399
30
0
41
1
10
35.8557834403821
20
-27.3986797820445
30
0
41
1
10
35.8022835503726
20
-27.3265832524268
30
0
41
1
10
35.7504305339978
20
-27.2531164360756
30
0
0
SPLINE
5
20C
100
AcDbEntity
8
1
62
256
6
ByLayer
370
-1
48
1
60
0
100
AcDbSpline
70
4
71
3
72
18
73
14
40
0
40
0
40
0
40
0
40
0.125000000000002
40
0.125000000000002
40
0.250000000000005
40
0.250000000000005
40
0.375000000000007
40
0.375000000000007
40
0.50000000000001
40
0.50000000000001
40
0.750000000000005
40
0.750000000000005
40
1
40
1
40
1
40
1
41
1
10
37.2493558248406
20
-28.5392009392956
30
0
41
1
10
37.2482353055091
20
-28.5544258653239
30
0
41
1
10
37.2445807850482
20
-28.5672375151542
30
0
41
1
10
37.2313917204864
20
-28.5874048510997
30
0
41
1
10
37.2216588765797
20
-28.5948037901145
30
0
41
1
10
37.1961360364614
20
-28.6027488771721
30
0
41
1
10
37.1804882107438
20
-28.6033866895015
30
0
41
1
10
37.1434284433604
20
-28.5979051399715
30
0
41
1
10
37.1221605001275
20
-28.5917221771327
30
0
41
1
10
37.0541187402963
20
-28.5648785617079
30
0
41
1
10
37.0016997605285
20
-28.5354152198766
30
0
41
1
10
36.8953992161468
20
-28.4643463381856
30
0
41
1
10
36.840297673599
20
-28.4220929879772
30
0
41
1
10
36.7855769329487
20
-28.3759661429273
30
0
0
SPLINE
5
20D
100
AcDbEntity
8
1
62
256
6
ByLayer
370
-1
48
1
60
0
100
AcDbSpline
70
4
71
3
72
10
73
6
40
0
40
0
40
0
40
0
40
0.5
40
0.5
40
1
40
1
40
1
40
1
41
1
10
37.2765135825887
20
-27.7056419689733
30
0
41
1
10
37.278081444121
20
-27.860942469817
30
0
41
1
10
37.2757844781173
20
-28.0058551860986
30
0
41
1
10
37.266074256241
20
-28.2820404959121
30
0
41
1
10
37.2586375112063
20
-28.4130871058573
30
0
41
1
10
37.2493558248406
20
-28.5392009392956
30
0
0
SPLINE
5
20E
100
AcDbEntity
8
1
62
256
6
ByLayer
370
-1
48
1
60
0
100
AcDbSpline
70
4
71
3
72
10
73
6
40
0
40
0
40
0
40
0
40
0.5
40
0.5
40
1
40
1
40
1
40
1
41
1
10
37.5621829819412
20
-28.8523837469458
30
0
41
1
10
37.7347115269689
20
-28.8897014872318
30
0
41
1
10
37.9117159551373
20
-28.9284129151065
30
0
41
1
10
38.2785139786212
20
-29.0097112858218
30
0
41
1
10
38.4680148150851
20
-29.0522292969215
30
0
41
1
10
38.6668150418734
20
-29.097524050234
30
0
0
SPLINE
5
20F
100
AcDbEntity
8
1
62
256
6
ByLayer
370
-1
48
1
60
0
100
AcDbSpline
70
4
71
3
72
18
73
14
40
0
40
0
40
0
40
0
40
0.250000000000001
40
0.250000000000001
40
0.500000000000001
40
0.500000000000001
40
0.625000000000001
40
0.625000000000001
40
0.750000000000001
40
0.750000000000001
40
0.875
40
0.875
40
1
40
1
40
1
40
1
41
1
10
37.6073706477083
20
-29.1986941480101
30
0
41
1
10
37.5671612305968
20
-29.1497867150307
30
0
41
1
10
37.5319985147012
20
-29.1018613620447
30
0
41
1
10
37.4762547227419
20
-29.0103468823896
30
0
41
1
10
37.4566020439352
20
-28.968219125071
30
0
41
1
10
37.4453385733335
20
-28.9155783742527
30
0
41
1
10
37.4447813363049
20
-28.8999558136422
30
0
41
1
10
37.4507061370626
20
-28.8746298634393
30
0
41
1
10
37.4572613327752
20
-28.8646036170466
30
0
41
1
10
37.477189814831
20
-28.8509566999775
30
0
41
1
10
37.4903435556406
20
-28.8473200517682
30
0
41
1
10
37.5223925944133
20
-28.84574806581
30
0
41
1
10
37.5412998756967
20
-28.8478667533372
30
0
41
1
10
37.5621829819412
20
-28.8523837469458
30
0
0
SPLINE
5
210
100
AcDbEntity
8
1
62
256
6
ByLayer
370
-1
48
1
60
0
100
AcDbSpline
70
4
71
3
72
28
73
24
40
0
40
0
40
0
40
0
40
0.124999999999998
40
0.124999999999998
40
0.187499999999997
40
0.187499999999997
40
0.249999999999996
40
0.249999999999996
40
0.374999999999998
40
0.374999999999998
40
0.499999999999999
40
0.499999999999999
40
0.562499999999999
40
0.562499999999999
40
0.625
40
0.625
40
0.750000000000001
40
0.750000000000001
40
0.8125
40
0.8125
40
0.874999999999999
40
0.874999999999999
40
1
40
1
40
1
40
1
41
1
10
43.6732724947123
20
-30.8019227285398
30
0
41
1
10
43.4111743334687
20
-30.8800156256818
30
0
41
1
10
43.1412989317465
20
-30.9435395167142
30
0
41
1
10
42.7230646721804
20
-31.0137541765651
30
0
41
1
10
42.5815507700207
20
-31.0328905397353
30
0
41
1
10
42.2980098658805
20
-31.0616908720689
30
0
41
1
10
42.1554830829159
20
-31.0714477749929
30
0
41
1
10
41.7255285112586
20
-31.0861614231441
30
0
41
1
10
41.4357474462983
20
-31.0766902149167
30
0
41
1
10
40.848925454152
20
-31.0133151396256
30
0
41
1
10
40.5631763365683
20
-30.9605675376617
30
0
41
1
10
40.1461238743182
20
-30.850511126768
30
0
41
1
10
40.0090258192538
20
-30.8086465627497
30
0
41
1
10
39.7387256714437
20
-30.7144045841894
30
0
41
1
10
39.6047604978414
20
-30.6616561606369
30
0
41
1
10
39.2168333885117
20
-30.4908443916269
30
0
41
1
10
38.9754406321313
20
-30.3601657576133
30
0
41
1
10
38.6366112637097
20
-30.1414313098156
30
0
41
1
10
38.5271754651739
20
-30.0644065757867
30
0
41
1
10
38.3178299978471
20
-29.9044600394184
30
0
41
1
10
38.2182424472505
20
-29.8218471199588
30
0
41
1
10
37.933468635088
20
-29.5667363365718
30
0
41
1
10
37.7621929199029
20
-29.3870072459112
30
0
41
1
10
37.6073706477083
20
-29.1986941480101
30
0
0
SPLINE
5
211
100
AcDbEntity
8
1
62
256
6
ByLayer
370
-1
48
1
60
0
100
AcDbSpline
70
4
71
3
72
18
73
14
40
0
40
0
40
0
40
0
40
0.125
40
0.125
40
0.25
40
0.25
40
0.375
40
0.375
40
0.5
40
0.5
40
0.75
40
0.75
40
1
40
1
40
1
40
1
41
1
10
44.0642000436468
20
-30.5708783496184
30
0
41
1
10
44.0759488718276
20
-30.5749833956938
30
0
41
1
10
44.0843259434882
20
-30.5800086459093
30
0
41
1
10
44.0933810521293
20
-30.5922720583721
30
0
41
1
10
44.0939841528789
20
-30.5996366118708
30
0
41
1
10
44.0862605860136
20
-30.6163810657752
30
0
41
1
10
44.0780873613573
20
-30.6256983419526
30
0
41
1
10
44.0530467314583
20
-30.6461707347553
30
0
41
1
10
44.0362074176744
20
-30.6572258441379
30
0
41
1
10
43.9765778754036
20
-30.6908974815874
30
0
41
1
10
43.9234791329487
20
-30.714716021293
30
0
41
1
10
43.806485506244
20
-30.7598003286017
30
0
41
1
10
43.7413854908369
20
-30.7816282664387
30
0
41
1
10
43.673272494714
20
-30.8019227285403
30
0
0
SPLINE
5
212
100
AcDbEntity
8
1
62
256
6
ByLayer
370
-1
48
1
60
0
100
AcDbSpline
70
4
71
3
72
10
73
6
40
0
40
0
40
0
40
0
40
0.5
40
0.5
40
1
40
1
40
1
40
1
41
1
10
43.3987655168541
20
-30.3481869251841
30
0
41
1
10
43.5270558686352
20
-30.3893427602183
30
0
41
1
10
43.6443122847925
20
-30.4279019767059
30
0
41
1
10
43.8643247547843
20
-30.5016981431337
30
0
41
1
10
43.9668800463261
20
-30.5368746969216
30
0
41
1
10
44.0642000436468
20
-30.5708783496184
30
0
0
SPLINE
5
213
100
AcDbEntity
8
1
62
256
6
ByLayer
370
-1
48
1
60
0
100
AcDbSpline
70
4
71
3
72
10
73
6
40
0
40
0
40
0
40
0
40
0.5
40
0.5
40
1
40
1
40
1
40
1
41
1
10
44.49152988724
20
-30.4533203455871
30
0
41
1
10
44.617208531944
20
-30.3579695994672
30
0
41
1
10
44.7462850324143
20
-30.2590702843183
30
0
41
1
10
45.0140553147415
20
-30.0510807069892
30
0
41
1
10
45.1525355999312
20
-29.942175258139
30
0
41
1
10
45.2979526291585
20
-29.8257224880492
30
0
0
SPLINE
5
214
100
AcDbEntity
8
1
62
256
6
ByLayer
370
-1
48
1
60
0
100
AcDbSpline
70
4
71
3
72
18
73
14
40
0
40
0
40
0
40
0
40
0.250000000000001
40
0.250000000000001
40
0.500000000000001
40
0.500000000000001
40
0.625000000000001
40
0.625000000000001
40
0.750000000000001
40
0.750000000000001
40
0.875
40
0.875
40
1
40
1
40
1
40
1
41
1
10
44.7958635857444
20
-30.4930990646096
30
0
41
1
10
44.7343024922198
20
-30.5084784965489
30
0
41
1
10
44.6762494705218
20
-30.5205987646502
30
0
41
1
10
44.5716033925483
20
-30.5363587242799
30
0
41
1
10
44.5267023449962
20
-30.5397226709128
30
0
41
1
10
44.4779279521976
20
-30.535840596944
30
0
41
1
10
44.4649895502805
20
-30.5329967327136
30
0
41
1
10
44.447793128206
20
-30.5243026044155
30
0
41
1
10
44.4433147434096
20
-30.5183438744095
30
0
41
1
10
44.4433146005667
20
-30.5036815635657
30
0
41
1
10
44.4476583400454
20
-30.4951054539521
30
0
41
1
10
44.4641347231747
20
-30.4756939495771
30
0
41
1
10
44.4763175611313
20
-30.464861738702
30
0
41
1
10
44.49152988724
20
-30.4533203455871
30
0
0
SPLINE
5
215
100
AcDbEntity
8
1
62
256
6
ByLayer
370
-1
48
1
60
0
100
AcDbSpline
70
4
71
3
72
28
73
24
40
0
40
0
40
0
40
0
40
0.125000000000002
40
0.125000000000002
40
0.187500000000003
40
0.187500000000003
40
0.250000000000004
40
0.250000000000004
40
0.375000000000004
40
0.375000000000004
40
0.500000000000005
40
0.500000000000005
40
0.562500000000005
40
0.562500000000005
40
0.625000000000005
40
0.625000000000005
40
0.750000000000002
40
0.750000000000002
40
0.812500000000001
40
0.812500000000001
40
0.875
40
0.875
40
1
40
1
40
1
40
1
41
1
10
49.2364119314772
20
-25.9995567542271
30
0
41
1
10
49.1682167334859
20
-26.2491788167581
30
0
41
1
10
49.0838239815058
20
-26.49983830775
30
0
41
1
10
48.9293445616602
20
-26.8776589776351
30
0
41
1
10
48.8731960781239
20
-27.0037576541325
30
0
41
1
10
48.7526875899131
20
-27.2528199933034
30
0
41
1
10
48.6881505630723
20
-27.3762385429855
30
0
41
1
10
48.4811114823762
20
-27.7430112882148
30
0
41
1
10
48.3253004827638
20
-27.9829136604378
30
0
41
1
10
47.9726874748584
20
-28.452109893575
30
0
41
1
10
47.7826175287531
20
-28.6723517016806
30
0
41
1
10
47.4774576779983
20
-28.9813632158979
30
0
41
1
10
47.372371065463
20
-29.0808073652887
30
0
41
1
10
47.1553638221621
20
-29.2724699362195
30
0
41
1
10
47.0427424859657
20
-29.3651899754622
30
0
41
1
10
46.7014604897938
20
-29.6268887597094
30
0
41
1
10
46.4686269563492
20
-29.7805635590069
30
0
41
1
10
46.1121807488166
20
-29.9829840430469
30
0
41
1
10
45.9917030280955
20
-30.0459627803065
30
0
41
1
10
45.7506589628227
20
-30.1616950189916
30
0
41
1
10
45.6305161914012
20
-30.2142940608036
30
0
41
1
10
45.2711217712196
20
-30.3575950728055
30
0
41
1
10
45.0328983169828
20
-30.4338821256697
30
0
41
1
10
44.7958635857444
20
-30.4930990646096
30
0
0
SPLINE
5
216
100
AcDbEntity
8
1
62
256
6
ByLayer
370
-1
48
1
60
0
100
AcDbSpline
70
4
71
3
72
18
73
14
40
0
40
0
40
0
40
0
40
0.125
40
0.125
40
0.25
40
0.25
40
0.375
40
0.375
40
0.499999999999999
40
0.499999999999999
40
0.75
40
0.75
40
1
40
1
40
1
40
1
41
1
10
49.2513367280882
20
-25.6367094760864
30
0
41
1
10
49.2600124380974
20
-25.6240878898232
30
0
41
1
10
49.2677617565133
20
-25.6147680440197
30
0
41
1
10
49.2812417218115
20
-25.6037257314164
30
0
41
1
10
49.287031219696
20
-25.6020633015588
30
0
41
1
10
49.2958609616041
20
-25.6076507546884
30
0
41
1
10
49.2989275869942
20
-25.6147517595311
30
0
41
1
10
49.302283184704
20
-25.6376033611538
30
0
41
1
10
49.30251043258
20
-25.6533369539785
30
0
41
1
10
49.2991935331577
20
-25.7096521087342
30
0
41
1
10
49.2915956024749
20
-25.7604566525119
30
0
41
1
10
49.2691442303347
20
-25.8723992968461
30
0
41
1
10
49.2541342200834
20
-25.9346859955116
30
0
41
1
10
49.2364119314785
20
-25.9995567542255
30
0
0
SPLINE
5
217
100
AcDbEntity
8
1
62
256
6
ByLayer
370
-1
48
1
60
0
100
AcDbSpline
70
4
71
3
72
10
73
6
40
0
40
0
40
0
40
0
40
0.5
40
0.5
40
1
40
1
40
1
40
1
41
1
10
48.7619807957441
20
-26.3203542499432
30
0
41
1
10
48.8560106882353
20
-26.1945026399075
30
0
41
1
10
48.9420923274927
20
-26.0761631905652
30
0
41
1
10
49.103897125356
20
-25.8494532207048
30
0
41
1
10
49.1794725334757
20
-25.7412588594316
30
0
41
1
10
49.2513367280882
20
-25.6367094760864
30
0
0
SPLINE
5
218
100
AcDbEntity
8
1
62
256
6
ByLayer
370
-1
48
1
60
0
100
AcDbSpline
70
4
71
3
72
10
73
6
40
0
40
0
40
0
40
0
40
0.5
40
0.5
40
1
40
1
40
1
40
1
41
1
10
49.3658394145807
20
-25.2059686644049
30
0
41
1
10
49.3537272288094
20
-25.0857394613446
30
0
41
1
10
49.3402165490105
20
-24.960453245254
30
0
41
1
10
49.3091089790873
20
-24.6954869391408
30
0
41
1
10
49.2915569143878
20
-24.5560482626752
30
0
41
1
10
49.2708664487631
20
-24.4060077315473
30
0
0
SPLINE
5
219
100
AcDbEntity
8
1
62
256
6
ByLayer
370
-1
48
1
60
0
100
AcDbSpline
70
4
71
3
72
18
73
14
40
0
40
0
40
0
40
0
40
0.25
40
0.25
40
0.5
40
0.5
40
0.625
40
0.625
40
0.75
40
0.75
40
0.874999999999999
40
0.874999999999999
40
1
40
1
40
1
40
1
41
1
10
49.5372093077497
20
-24.8680050852121
30
0
41
1
10
49.5201857610856
20
-24.9338418169829
30
0
41
1
10
49.5022446489398
20
-24.9956597026829
30
0
41
1
10
49.4652194467682
20
-25.1071872257743
30
0
41
1
10
49.4467181011532
20
-25.1550949819485
30
0
41
1
10
49.4209660851606
20
-25.2080644241864
30
0
41
1
10
49.4127744097028
20
-25.222343341487
30
0
41
1
10
49.398220035698
20
-25.2420428798872
30
0
41
1
10
49.3916733102041
20
-25.2477171013084
30
0
41
1
10
49.3807426399057
20
-25.2499237993796
30
0
41
1
10
49.3763905328113
20
-25.246580672399
30
0
41
1
10
49.3696590918267
20
-25.2319071185734
30
0
41
1
10
49.3673054911785
20
-25.2205213821641
30
0
41
1
10
49.3658394145807
20
-25.2059686644049
30
0
0
SPLINE
5
21A
100
AcDbEntity
8
1
62
256
6
ByLayer
370
-1
48
1
60
0
100
AcDbSpline
70
4
71
3
72
24
73
20
40
0
40
0
40
0
40
0
40
0.0742168848070521
40
0.0742168848070521
40
0.228514070672545
40
0.228514070672545
40
0.382811256538038
40
0.382811256538038
40
0.459959849470783
40
0.459959849470783
40
0.537108442403529
40
0.537108442403529
40
0.691405628269018
40
0.691405628269018
40
0.768554221201764
40
0.768554221201764
40
0.845702814134509
40
0.845702814134509
40
1
40
1
40
1
40
1
41
1
10
48.6658176983345
20
-19.6437718205518
30
0
41
1
10
48.7383614742883
20
-19.7479648257324
30
0
41
1
10
48.8081014049082
20
-19.8555974911898
30
0
41
1
10
49.0138285793152
20
-20.1980532150819
30
0
41
1
10
49.1401864886324
20
-20.4447009464958
30
0
41
1
10
49.3639914176333
20
-20.9735466502682
30
0
41
1
10
49.4570861862289
20
-21.2456106074071
30
0
41
1
10
49.568959363741
20
-21.6646715733722
30
0
41
1
10
49.601609499278
20
-21.8062089973743
30
0
41
1
10
49.657489169113
20
-22.093039845767
30
0
41
1
10
49.6808002854101
20
-22.2392127745832
30
0
41
1
10
49.7351905629414
20
-22.6744968060454
30
0
41
1
10
49.7513347312646
20
-22.9615663444902
30
0
41
1
10
49.7483609240947
20
-23.3879648228796
30
0
41
1
10
49.7427702541265
20
-23.5299203417277
30
0
41
1
10
49.7229242882405
20
-23.80984344461
30
0
41
1
10
49.7087451032538
20
-23.9473386106759
30
0
41
1
10
49.6544881723209
20
-24.3530424675172
30
0
41
1
10
49.6027567432679
20
-24.6145074436434
30
0
41
1
10
49.5372093077497
20
-24.8680050852121
30
0
0
SPLINE
5
21B
100
AcDbEntity
8
1
62
256
6
ByLayer
370
-1
48
1
60
0
100
AcDbSpline
70
4
71
3
72
10
73
6
40
0
40
0
40
0
40
0
40
0.594276484630886
40
0.594276484630886
40
1
40
1
40
1
40
1
41
1
10
37.1073986801146
20
-28.3340923845991
30
0
41
1
10
37.1230167949577
20
-28.2063982177962
30
0
41
1
10
37.1368472880916
20
-28.0736768698853
30
0
41
1
10
37.1556777477542
20
-27.8378513101157
30
0
41
1
10
37.1621106298634
20
-27.7387767685707
30
0
41
1
10
37.1668040168897
20
-27.6348103884606
30
0
0
SPLINE
5
21C
100
AcDbEntity
8
1
62
256
6
ByLayer
370
-1
48
1
60
0
100
AcDbSpline
70
4
71
3
72
10
73
6
40
0
40
0
40
0
40
0
40
0.5
40
0.5
40
1
40
1
40
1
40
1
41
1
10
38.8850532198972
20
-29.2013743892452
30
0
41
1
10
38.6793685809927
20
-29.1592152385771
30
0
41
1
10
38.4845389208372
20
-29.1202030690476
30
0
41
1
10
38.1080686211589
20
-29.0460023762737
30
0
41
1
10
37.926556010173
20
-29.0108509699505
30
0
41
1
10
37.7495954388817
20
-28.9770192514307
30
0
0
SPLINE
5
21D
100
AcDbEntity
8
1
62
256
6
ByLayer
370
-1
48
1
60
0
100
AcDbSpline
70
4
71
3
72
10
73
6
40
0
40
0
40
0
40
0
40
0.5
40
0.5
40
1
40
1
40
1
40
1
41
1
10
43.8137302193272
20
-30.5797807931454
30
0
41
1
10
43.7186466982389
20
-30.5417107771717
30
0
41
1
10
43.6182734707084
20
-30.5023592581006
30
0
41
1
10
43.4019031373567
20
-30.4198711236323
30
0
41
1
10
43.286054807342
20
-30.3767705511912
30
0
41
1
10
43.1575924284893
20
-30.3306140544125
30
0
0
SPLINE
5
21E
100
AcDbEntity
8
1
62
256
6
ByLayer
370
-1
48
1
60
0
100
AcDbSpline
70
4
71
3
72
20
73
16
40
0
40
0
40
0
40
0
40
0.250000000000017
40
0.250000000000017
40
0.375000000000014
40
0.375000000000014
40
0.500000000000011
40
0.500000000000011
40
0.625000000000008
40
0.625000000000008
40
0.750000000000006
40
0.750000000000006
40
0.875000000000003
40
0.875000000000003
40
1
40
1
40
1
40
1
41
1
10
36.8387673079176
20
-28.1640528222722
30
0
41
1
10
36.866827625772
20
-28.2018221250879
30
0
41
1
10
36.8956761552173
20
-28.2384390051479
30
0
41
1
10
36.939528702621
20
-28.2889793231678
30
0
41
1
10
36.9542637732314
20
-28.3051170648484
30
0
41
1
10
36.9840099723687
20
-28.3353145836354
30
0
41
1
10
36.999154226081
20
-28.3494864188715
30
0
41
1
10
37.0284665178405
20
-28.3732947984152
30
0
41
1
10
37.0429406751791
20
-28.3831415613094
30
0
41
1
10
37.0687080917058
20
-28.3948475094363
30
0
41
1
10
37.0798472780046
20
-28.3965364513317
30
0
41
1
10
37.0964583803725
20
-28.3905074977051
30
0
41
1
10
37.1018507028537
20
-28.3828707966052
30
0
41
1
10
37.1076855115925
20
-28.3620863939889
30
0
41
1
10
37.1082973391299
20
-28.3488091252963
30
0
41
1
10
37.1073986801146
20
-28.3340923845991
30
0
0
SPLINE
5
21F
100
AcDbEntity
8
1
62
256
6
ByLayer
370
-1
48
1
60
0
100
AcDbSpline
70
4
71
3
72
18
73
14
40
0
40
0
40
0
40
0
40
0.125000000000003
40
0.125000000000003
40
0.250000000000006
40
0.250000000000006
40
0.375000000000009
40
0.375000000000009
40
0.500000000000012
40
0.500000000000012
40
0.750000000000006
40
0.750000000000006
40
1
40
1
40
1
40
1
41
1
10
37.7495954388817
20
-28.9770192514307
30
0
41
1
10
37.7318923211525
20
-28.9731293174401
30
0
41
1
10
37.7153861037684
20
-28.9704982905244
30
0
41
1
10
37.6876195966825
20
-28.969448727865
30
0
41
1
10
37.6762732074651
20
-28.9710993071205
30
0
41
1
10
37.6626647567369
20
-28.9802534095923
30
0
41
1
10
37.6606582990858
20
-28.9876011228498
30
0
41
1
10
37.6654308996474
20
-29.0064442234301
30
0
41
1
10
37.6720657858243
20
-29.0176607693032
30
0
41
1
10
37.6988778039021
20
-29.0527115197041
30
0
41
1
10
37.7262756284515
20
-29.0788525119228
30
0
41
1
10
37.7864982575075
20
-29.1302310904169
30
0
41
1
10
37.8197578136404
20
-29.1558331747433
30
0
41
1
10
37.8548037025729
20
-29.1812443401127
30
0
0
SPLINE
5
220
100
AcDbEntity
8
1
62
256
6
ByLayer
370
-1
48
1
60
0
100
AcDbSpline
70
4
71
3
72
20
73
16
40
0
40
0
40
0
40
0
40
0.25
40
0.25
40
0.375
40
0.375
40
0.5
40
0.5
40
0.625
40
0.625
40
0.75
40
0.75
40
0.875
40
0.875
40
1
40
1
40
1
40
1
41
1
10
43.5228990842769
20
-30.6793319686827
30
0
41
1
10
43.5699167518503
20
-30.6756061459208
30
0
41
1
10
43.6163968985252
20
-30.6709385679357
30
0
41
1
10
43.6827744327027
20
-30.6620331063684
30
0
41
1
10
43.7043730008699
20
-30.6587427305699
30
0
41
1
10
43.7459925223596
20
-30.6512908210154
30
0
41
1
10
43.7661804397771
20
-30.647087678896
30
0
41
1
10
43.802246320763
20
-30.6377627509118
30
0
41
1
10
43.8184690705739
20
-30.6325312622471
30
0
41
1
10
43.842520881424
20
-30.6213568947139
30
0
41
1
10
43.8501233642557
20
-30.6154507933935
30
0
41
1
10
43.8543792069308
20
-30.6039443791366
30
0
41
1
10
43.8510555338287
20
-30.5984158647614
30
0
41
1
10
43.837085318759
20
-30.5884756868365
30
0
41
1
10
43.8264255787315
20
-30.5839243035045
30
0
41
1
10
43.8137302193272
20
-30.5797807931454
30
0
0
SPLINE
5
221
100
AcDbEntity
8
1
62
256
6
ByLayer
370
-1
48
1
60
0
100
AcDbSpline
70
4
71
3
72
18
73
14
40
0
40
0
40
0
40
0
40
0.0591331543100461
40
0.0591331543100461
40
0.193542703694323
40
0.193542703694323
40
0.327952253078601
40
0.327952253078601
40
0.462361802462878
40
0.462361802462878
40
0.731180901231439
40
0.731180901231439
40
1
40
1
40
1
40
1
41
1
10
49.3701922509427
20
-24.9837417356825
30
0
41
1
10
49.3715436751577
20
-24.9888174962541
30
0
41
1
10
49.3729524352381
20
-24.9933397028302
30
0
41
1
10
49.37776288724
20
-25.0058701202463
30
0
41
1
10
49.3814748087794
20
-25.0109732405559
30
0
41
1
10
49.3893220703609
20
-25.0101732640741
30
0
41
1
10
49.3933174471144
20
-25.0042693932947
30
0
41
1
10
49.4009679479502
20
-24.983236462216
30
0
41
1
10
49.4045265287121
20
-24.9684592813768
30
0
41
1
10
49.4139866844146
20
-24.9185880838766
30
0
41
1
10
49.4190100514616
20
-24.8768836728004
30
0
41
1
10
49.4269039701389
20
-24.7907596139968
30
0
41
1
10
49.4298402090408
20
-24.7457383504652
30
0
41
1
10
49.4320595437128
20
-24.6996509752686
30
0
0
SPLINE
5
222
100
AcDbEntity
8
1
62
256
6
ByLayer
370
-1
48
1
60
0
100
AcDbSpline
70
4
71
3
72
18
73
14
40
0
40
0
40
0
40
0
40
0.0479920433257422
40
0.0479920433257422
40
0.183993179993493
40
0.183993179993493
40
0.319994316661244
40
0.319994316661244
40
0.455995453328995
40
0.455995453328995
40
0.727997726664497
40
0.727997726664497
40
1
40
1
40
1
40
1
41
1
10
44.6687986550075
20
-30.3590850454969
30
0
41
1
10
44.6652858980603
20
-30.3626168399503
30
0
41
1
10
44.6620959493498
20
-30.3660073904343
30
0
41
1
10
44.6513484226334
20
-30.3783289636392
30
0
41
1
10
44.6465176822862
20
-30.3860866543748
30
0
41
1
10
44.6464587046119
20
-30.3964826943224
30
0
41
1
10
44.651244435604
20
-30.3989280516098
30
0
41
1
10
44.6688880061259
20
-30.3986076271869
30
0
41
1
10
44.6814445230034
20
-30.3958931805244
30
0
41
1
10
44.7239631544658
20
-30.3833095373717
30
0
41
1
10
44.7596665056591
20
-30.3689214322544
30
0
41
1
10
44.8332416607013
20
-30.3361306333009
30
0
41
1
10
44.8716413376076
20
-30.3175006456535
30
0
41
1
10
44.9108306105455
20
-30.2975134217063
30
0
0
SPLINE
5
223
100
AcDbEntity
8
1
62
256
6
ByLayer
370
-1
48
1
60
0
100
AcDbSpline
70
4
71
3
72
20
73
16
40
0
40
0
40
0
40
0
40
0.272826570719068
40
0.272826570719068
40
0.409239856078593
40
0.409239856078593
40
0.545653141438119
40
0.545653141438119
40
0.682066426797645
40
0.682066426797645
40
0.818479712157171
40
0.818479712157171
40
0.954892997516696
40
0.954892997516696
40
1
40
1
40
1
40
1
41
1
10
49.0601644120994
20
-26.0986610400855
30
0
41
1
10
49.0810463116231
20
-26.0578550796025
30
0
41
1
10
49.1009029248305
20
-26.0173673738989
30
0
41
1
10
49.1275002980192
20
-25.9593798816274
30
0
41
1
10
49.1358464997917
20
-25.9404827080546
30
0
41
1
10
49.1510641809766
20
-25.904030866476
30
0
41
1
10
49.1579874861238
20
-25.8863289729082
30
0
41
1
10
49.1689535597163
20
-25.8547041205938
30
0
41
1
10
49.1730853664068
20
-25.8404792779971
30
0
41
1
10
49.1765851304725
20
-25.8194665423668
30
0
41
1
10
49.1758680414308
20
-25.8128811793563
30
0
41
1
10
49.1691760449804
20
-25.8094316856502
30
0
41
1
10
49.1632677771188
20
-25.8125452960517
30
0
41
1
10
49.1535310899384
20
-25.8209922254117
30
0
41
1
10
49.1509450483162
20
-25.8234464561498
30
0
41
1
10
49.1482218390016
20
-25.826202819893
30
0
0
SPLINE
5
224
100
AcDbEntity
8
1
62
256
6
ByLayer
370
-1
48
1
60
0
100
AcDbSpline
70
4
71
3
72
14
73
10
40
0
40
0
40
0
40
0
40
0.25
40
0.25
40
0.5
40
0.5
40
0.75
40
0.75
40
1
40
1
40
1
40
1
41
1
10
32.147075413017
20
19.1171679733311
30
0
41
1
10
32.2284560394387
20
19.106470116314
30
0
41
1
10
32.3101613476849
20
19.0961509369296
30
0
41
1
10
32.4682591920769
20
19.0770057204043
30
0
41
1
10
32.5449471167859
20
19.0681324857021
30
0
41
1
10
32.6941296627956
20
19.0516268217403
30
0
41
1
10
32.7670381280552
20
19.0439540142256
30
0
41
1
10
32.9067991465845
20
19.0299402784506
30
0
41
1
10
32.9734107223198
20
19.023617208559
30
0
41
1
10
33.0371737263845
20
19.0178599557529
30
0
0
SPLINE
5
225
100
AcDbEntity
8
1
62
256
6
ByLayer
370
-1
48
1
60
0
100
AcDbSpline
70
4
71
3
72
12
73
8
40
0
40
0
40
0
40
0
40
0.5
40
0.5
40
0.75
40
0.75
40
1
40
1
40
1
40
1
41
1
10
33.0371737263835
20
1.79593420568372
30
0
41
1
10
32.8996301186779
20
1.81359024573493
30
0
41
1
10
32.7556570304361
20
1.83185688867951
30
0
41
1
10
32.5298509974762
20
1.86019195829814
30
0
41
1
10
32.4531773653621
20
1.86976195723287
30
0
41
1
10
32.3003978917588
20
1.88873194052263
30
0
41
1
10
32.2238268223127
20
1.89819041515563
30
0
41
1
10
32.1470754130169
20
1.90762251795727
30
0
0
SPLINE
5
226
100
AcDbEntity
8
1
62
256
6
ByLayer
370
-1
48
1
60
0
100
AcDbSpline
70
4
71
3
72
8
73
4
40
0
40
0
40
0
40
0
40
1
40
1
40
1
40
1
41
1
10
49.2708664487631
20
-24.4060077315472
30
0
41
1
10
49.2802072184149
20
-24.3238206426985
30
0
41
1
10
49.2733427931434
20
-24.2429893024433
30
0
41
1
10
49.2521141351856
20
-24.1633596933835
30
0
0
SPLINE
5
227
100
AcDbEntity
8
1
62
256
6
ByLayer
370
-1
48
1
60
0
100
AcDbSpline
70
4
71
3
72
18
73
14
40
0
40
0
40
0
40
0
40
0.125
40
0.125
40
0.25
40
0.25
40
0.375
40
0.375
40
0.5
40
0.5
40
0.75
40
0.75
40
1
40
1
40
1
40
1
41
1
10
47.6236291937233
20
-2.79406403414353
30
0
41
1
10
47.6163624380487
20
-2.76085804259242
30
0
41
1
10
47.6114524110983
20
-2.72655141341511
30
0
41
1
10
47.6071130598509
20
-2.65543708600995
30
0
41
1
10
47.6077530102139
20
-2.61809000948872
30
0
41
1
10
47.6153367876425
20
-2.54341276669402
30
0
41
1
10
47.6221686620175
20
-2.50622404843941
30
0
41
1
10
47.6419013498518
20
-2.43213523769327
30
0
41
1
10
47.6547665299386
20
-2.39568448428992
30
0
41
1
10
47.6993500558044
20
-2.29254233893198
30
0
41
1
10
47.7379326995808
20
-2.22974628683409
30
0
41
1
10
47.8207166643282
20
-2.12020876210826
30
0
41
1
10
47.8657951320921
20
-2.07192375751518
30
0
41
1
10
47.9118558064777
20
-2.02901325426464
30
0
0
SPLINE
5
228
100
AcDbEntity
8
1
62
256
6
ByLayer
370
-1
48
1
60
0
100
AcDbSpline
70
4
71
3
72
10
73
6
40
0
40
0
40
0
40
0
40
0.5
40
0.5
40
1
40
1
40
1
40
1
41
1
10
48.0029441403687
20
-4.39683090155921
30
0
41
1
10
47.9359910833213
20
-4.14043974251717
30
0
41
1
10
47.8713445635176
20
-3.87699347185031
30
0
41
1
10
47.7452189973843
20
-3.34122153140035
30
0
41
1
10
47.6838224855055
20
-3.06912184919364
30
0
41
1
10
47.6236291937233
20
-2.79406403414353
30
0
0
SPLINE
5
229
100
AcDbEntity
8
1
62
256
6
ByLayer
370
-1
48
1
60
0
100
AcDbSpline
70
4
71
3
72
10
73
6
40
0
40
0
40
0
40
0
40
0.5
40
0.5
40
1
40
1
40
1
40
1
41
1
10
47.3108020366227
20
-2.84284823588149
30
0
41
1
10
47.2077489206998
20
-3.14336555175041
30
0
41
1
10
47.0995789883298
20
-3.44191354594511
30
0
41
1
10
46.8686213073129
20
-4.03338986332369
30
0
41
1
10
46.7460574439985
20
-4.32600425891059
30
0
41
1
10
46.6126426810825
20
-4.61364311023402
30
0
0
SPLINE
5
22A
100
AcDbEntity
8
1
62
256
6
ByLayer
370
-1
48
1
60
0
100
AcDbSpline
70
4
71
3
72
18
73
14
40
0
40
0
40
0
40
0
40
0.250000000000001
40
0.250000000000001
40
0.500000000000001
40
0.500000000000001
40
0.625000000000001
40
0.625000000000001
40
0.750000000000001
40
0.750000000000001
40
0.875
40
0.875
40
1
40
1
40
1
40
1
41
1
10
47.0900620917188
20
-2.15716884900337
30
0
41
1
10
47.1389277683285
20
-2.18526024495617
30
0
41
1
10
47.1839888715371
20
-2.21897602102311
30
0
41
1
10
47.2634868311817
20
-2.30418260657558
30
0
41
1
10
47.2966335562491
20
-2.35438787941735
30
0
41
1
10
47.3314148392593
20
-2.44539820797615
30
0
41
1
10
47.3403510551497
20
-2.47835167688609
30
0
41
1
10
47.3515599520467
20
-2.54682305727008
30
0
41
1
10
47.3539784663642
20
-2.58321583533032
30
0
41
1
10
47.3520458935089
20
-2.6572448551529
30
0
41
1
10
47.3478079411725
20
-2.69442766882517
30
0
41
1
10
47.3334413317174
20
-2.76909014779329
30
0
41
1
10
47.3232757357911
20
-2.80647318249774
30
0
41
1
10
47.3108020366227
20
-2.84284823588149
30
0
0
SPLINE
5
22B
100
AcDbEntity
8
1
62
256
6
ByLayer
370
-1
48
1
60
0
100
AcDbSpline
70
4
71
3
72
10
73
6
40
0
40
0
40
0
40
0
40
0.280899508374315
40
0.280899508374315
40
1
40
1
40
1
40
1
41
1
10
46.2217069570783
20
-1.78811923137363
30
0
41
1
10
46.3113249750374
20
-1.8144716663997
30
0
41
1
10
46.3984344657982
20
-1.84330324658481
30
0
41
1
10
46.7002014372906
20
-1.95417864144167
30
0
41
1
10
46.9019097724732
20
-2.0490057851502
30
0
41
1
10
47.0900620917188
20
-2.15716884900337
30
0
0
SPLINE
5
22C
100
AcDbEntity
8
1
62
256
6
ByLayer
370
-1
48
1
60
0
100
AcDbSpline
70
4
71
3
72
18
73
14
40
0
40
0
40
0
40
0
40
0.125
40
0.125
40
0.25
40
0.25
40
0.375
40
0.375
40
0.5
40
0.5
40
0.75
40
0.75
40
1
40
1
40
1
40
1
41
1
10
47.0982256212186
20
-2.76927378686148
30
0
41
1
10
47.1114326040949
20
-2.74897350220249
30
0
41
1
10
47.1230754399843
20
-2.72739193058373
30
0
41
1
10
47.1404485258956
20
-2.68234419090018
30
0
41
1
10
47.1461874604515
20
-2.65855986208374
30
0
41
1
10
47.1483914882349
20
-2.61154230609821
30
0
41
1
10
47.1448043221064
20
-2.58914925444859
30
0
41
1
10
47.1295907832959
20
-2.54856695856742
30
0
41
1
10
47.1182297972417
20
-2.53083596429133
30
0
41
1
10
47.0789248637999
20
-2.48528404030111
30
0
41
1
10
47.0449627200565
20
-2.46323976856118
30
0
41
1
10
46.9738228763828
20
-2.42863979815465
30
0
41
1
10
46.9361555565068
20
-2.41592994588368
30
0
41
1
10
46.8972615689074
20
-2.40567343894657
30
0
0
SPLINE
5
22D
100
AcDbEntity
8
1
62
256
6
ByLayer
370
-1
48
1
60
0
100
AcDbSpline
70
4
71
3
72
10
73
6
40
0
40
0
40
0
40
0
40
0.459304301845964
40
0.459304301845964
40
1
40
1
40
1
40
1
41
1
10
46.455057437007
20
-4.50582478360701
30
0
41
1
10
46.5676208005179
20
-4.24551084205805
30
0
41
1
10
46.6717384879658
20
-3.98186827961538
30
0
41
1
10
46.8865518023245
20
-3.40318502312238
30
0
41
1
10
46.9949968730064
20
-3.08725733690832
30
0
41
1
10
47.0982256212186
20
-2.7692737868615
30
0
0
SPLINE
5
22E
100
AcDbEntity
8
1
62
256
6
ByLayer
370
-1
48
1
60
0
100
AcDbSpline
70
4
71
3
72
20
73
16
40
0
40
0
40
0
40
0
40
0.249999999999996
40
0.249999999999996
40
0.374999999999996
40
0.374999999999996
40
0.499999999999997
40
0.499999999999997
40
0.624999999999998
40
0.624999999999998
40
0.749999999999999
40
0.749999999999999
40
0.874999999999999
40
0.874999999999999
40
1
40
1
40
1
40
1
41
1
10
47.9132979635626
20
-2.24722643930187
30
0
41
1
10
47.8890867453176
20
-2.26732820788902
30
0
41
1
10
47.8646882078278
20
-2.28989393115015
30
0
41
1
10
47.8289804332538
20
-2.32955196452264
30
0
41
1
10
47.8172107710751
20
-2.34376493665141
30
0
41
1
10
47.7941532896029
20
-2.37518978125649
30
0
41
1
10
47.7827683187744
20
-2.39256570172302
30
0
41
1
10
47.761880995747
20
-2.43067581533751
30
0
41
1
10
47.7521732668448
20
-2.45185780138854
30
0
41
1
10
47.7368365898027
20
-2.49716102679764
30
0
41
1
10
47.7313366323547
20
-2.52115731704674
30
0
41
1
10
47.7260520564715
20
-2.56833526806187
30
0
41
1
10
47.7262751894339
20
-2.5912222720512
30
0
41
1
10
47.7307817773511
20
-2.6326456633179
30
0
41
1
10
47.7350328678148
20
-2.65174684777622
30
0
41
1
10
47.7404223799856
20
-2.66912565226372
30
0
0
SPLINE
5
22F
100
AcDbEntity
8
1
62
256
6
ByLayer
370
-1
48
1
60
0
100
AcDbSpline
70
4
71
3
72
10
73
6
40
0
40
0
40
0
40
0
40
0.5
40
0.5
40
1
40
1
40
1
40
1
41
1
10
47.7404223799856
20
-2.66912565226372
30
0
41
1
10
47.7985360882218
20
-2.96194846173697
30
0
41
1
10
47.857773135392
20
-3.25172676136682
30
0
41
1
10
47.9795651663659
20
-3.82229098046966
30
0
41
1
10
48.0420885556647
20
-4.10316252840082
30
0
41
1
10
48.1072907046133
20
-4.37677401449841
30
0
0
SPLINE
5
230
100
AcDbEntity
8
1
62
256
6
ByLayer
370
-1
48
1
60
0
100
AcDbSpline
70
4
71
3
72
18
73
14
40
0
40
0
40
0
40
0
40
0.124999999999999
40
0.124999999999999
40
0.249999999999998
40
0.249999999999998
40
0.374999999999998
40
0.374999999999998
40
0.499999999999997
40
0.499999999999997
40
0.749999999999998
40
0.749999999999998
40
1
40
1
40
1
40
1
41
1
10
49.3653023971995
20
-2.26822238829442
30
0
41
1
10
49.368055794573
20
-2.24881249754375
30
0
41
1
10
49.3710814606239
20
-2.22791369754671
30
0
41
1
10
49.37776288724
20
-2.18351715015896
30
0
41
1
10
49.3814748087794
20
-2.15969268662656
30
0
41
1
10
49.3893220703609
20
-2.11157098983193
30
0
41
1
10
49.3933174471144
20
-2.08813228365298
30
0
41
1
10
49.4009679479502
20
-2.04468895303972
30
0
41
1
10
49.4045265287121
20
-2.02518608006488
30
0
41
1
10
49.4139866844146
20
-1.97398269906645
30
0
41
1
10
49.4190100514616
20
-1.94758345397469
30
0
41
1
10
49.4269039701389
20
-1.90428853380362
30
0
41
1
10
49.4298402090408
20
-1.88717763935176
30
0
41
1
10
49.4320595437128
20
-1.87250555639179
30
0
0
SPLINE
5
231
100
AcDbEntity
8
1
62
256
6
ByLayer
370
-1
48
1
60
0
100
AcDbSpline
70
4
71
3
72
10
73
6
40
0
40
0
40
0
40
0
40
0.5
40
0.5
40
1
40
1
40
1
40
1
41
1
10
49.2521141351856
20
-4.09431411276691
30
0
41
1
10
49.2764464097984
20
-3.79861198473719
30
0
41
1
10
49.2971689370719
20
-3.49720134511193
30
0
41
1
10
49.3342280749588
20
-2.88744410781325
30
0
41
1
10
49.3505221105768
20
-2.57903018136807
30
0
41
1
10
49.3653023971995
20
-2.26822238829442
30
0
0
LINE
5
45
100
AcDbEntity
8
1
62
256
6
ByLayer
370
-1
48
1
60
0
100
AcDbLine
10
43.775738
20
22.575843
30
0
11
43.570325
21
22.575843
31
0
39
0
210
0
220
0
230
1
0
LINE
5
47
100
AcDbEntity
8
1
62
256
6
ByLayer
370
-1
48
1
60
0
100
AcDbLine
10
42.737886
20
24.897418
30
0
11
42.956686
21
24.897418
31
0
39
0
210
0
220
0
230
1
0
LINE
5
48
100
AcDbEntity
8
1
62
256
6
ByLayer
370
-1
48
1
60
0
100
AcDbLine
10
42.161019
20
19.874892
30
0
11
42.249406
21
19.874892
31
0
39
0
210
0
220
0
230
1
0
LINE
5
49
100
AcDbEntity
8
1
62
256
6
ByLayer
370
-1
48
1
60
0
100
AcDbLine
10
42.249406
20
27.024892
30
0
11
42.161019
21
27.024892
31
0
39
0
210
0
220
0
230
1
0
LINE
5
4A
100
AcDbEntity
8
1
62
256
6
ByLayer
370
-1
48
1
60
0
100
AcDbLine
10
41.712742
20
22.002366
30
0
11
41.493942
21
22.002366
31
0
39
0
210
0
220
0
230
1
0
LINE
5
4B
100
AcDbEntity
8
1
62
256
6
ByLayer
370
-1
48
1
60
0
100
AcDbLine
10
40.652886
20
24.323941
30
0
11
40.875995
21
24.323941
31
0
39
0
210
0
220
0
230
1
0
LINE
5
4C
100
AcDbEntity
8
1
62
256
6
ByLayer
370
-1
48
1
60
0
100
AcDbLine
10
49.936491
20
0.798905
30
0
11
49.849794
21
0.810906
31
0
39
0
210
0
220
0
230
1
0
LINE
5
4D
100
AcDbEntity
8
1
62
256
6
ByLayer
370
-1
48
1
60
0
100
AcDbLine
10
49.743596
20
-1.050615
30
0
11
49.851896
21
-0.280449
31
0
39
0
210
0
220
0
230
1
0
LINE
5
4E
100
AcDbEntity
8
1
62
256
6
ByLayer
370
-1
48
1
60
0
100
AcDbLine
10
49.927557
20
0.257603
30
0
11
49.99991
21
0.772129
31
0
39
0
210
0
220
0
230
1
0
LINE
5
4F
100
AcDbEntity
8
1
62
256
6
ByLayer
370
-1
48
1
60
0
100
AcDbLine
10
0.9
20
-21.5
30
0
11
15
21
-21.5
31
0
39
0
210
0
220
0
230
1
0
LINE
5
50
100
AcDbEntity
8
1
62
256
6
ByLayer
370
-1
48
1
60
0
100
AcDbLine
10
15
20
21.5
30
0
11
0.9
21
21.5
31
0
39
0
210
0
220
0
230
1
0
LINE
5
51
100
AcDbEntity
8
1
62
256
6
ByLayer
370
-1
48
1
60
0
100
AcDbLine
10
0.4
20
20.5
30
0
11
0
21
20.5
31
0
39
0
210
0
220
0
230
1
0
LINE
5
52
100
AcDbEntity
8
1
62
256
6
ByLayer
370
-1
48
1
60
0
100
AcDbLine
10
0
20
-20.5
30
0
11
0.4
21
-20.5
31
0
39
0
210
0
220
0
230
1
0
LINE
5
53
100
AcDbEntity
8
1
62
256
6
ByLayer
370
-1
48
1
60
0
100
AcDbLine
10
34.239735
20
1.641574
30
0
11
34.490778
21
1.540209
31
0
39
0
210
0
220
0
230
1
0
LINE
5
54
100
AcDbEntity
8
1
62
256
6
ByLayer
370
-1
48
1
60
0
100
AcDbLine
10
49.60278
20
-0.315424
30
0
11
49.99297
21
-0.260677
31
0
39
0
210
0
220
0
230
1
0
LINE
5
55
100
AcDbEntity
8
1
62
256
6
ByLayer
370
-1
48
1
60
0
100
AcDbLine
10
49.99999
20
-0.257699
30
0
11
49.742611
21
1.573535
31
0
39
0
210
0
220
0
230
1
0
LINE
5
56
100
AcDbEntity
8
81
62
256
6
ByLayer
370
-1
48
1
60
0
100
AcDbLine
10
50
20
31.465
30
0
11
55
21
31.465
31
0
39
0
210
0
220
0
230
1
0
LINE
5
57
100
AcDbEntity
8
SK4
62
256
6
ByLayer
370
-1
48
0.05
60
0
100
AcDbLine
10
55
20
0
30
0
11
0.5
21
0
31
0
39
0
210
0
220
0
230
1
0
LINE
5
59
100
AcDbEntity
8
80
62
256
6
ByLayer
370
-1
48
1
60
0
100
AcDbLine
10
0
20
0
30
0
11
-5
21
0
31
0
39
0
210
0
220
0
230
1
0
LINE
5
5A
100
AcDbEntity
8
1
62
256
6
ByLayer
370
-1
48
1
60
0
100
AcDbLine
10
40.597714
20
23.445098
30
0
11
40.373296
21
23.445098
31
0
39
0
210
0
220
0
230
1
0
LINE
5
5B
100
AcDbEntity
8
1
62
256
6
ByLayer
370
-1
48
1
60
0
100
AcDbLine
10
39.731
20
18.949892
30
0
11
39.731
21
5.738964
31
0
39
0
210
0
220
0
230
1
0
LINE
5
5C
100
AcDbEntity
8
1
62
256
6
ByLayer
370
-1
48
1
60
0
100
AcDbLine
10
33.037174
20
19.01786
30
0
11
33.037174
21
1.795934
31
0
39
0
210
0
220
0
230
1
0
LINE
5
5D
100
AcDbEntity
8
1
62
256
6
ByLayer
370
-1
48
1
60
0
100
AcDbLine
10
48.66
20
18.949892
30
0
11
48.66
21
4.690963
31
0
39
0
210
0
220
0
230
1
0
LINE
5
5E
100
AcDbEntity
8
1
62
256
6
ByLayer
370
-1
48
1
60
0
100
AcDbLine
10
49.999993
20
-0.257957
30
0
11
49.999991
21
-0.257703
31
0
39
0
210
0
220
0
230
1
0
LINE
5
5F
100
AcDbEntity
8
1
62
256
6
ByLayer
370
-1
48
1
60
0
100
AcDbLine
10
34.485177
20
1.544903
30
0
11
34.484915
21
1.544341
31
0
39
0
210
0
220
0
230
1
0
LINE
5
60
100
AcDbEntity
8
1
62
256
6
ByLayer
370
-1
48
1
60
0
100
AcDbLine
10
36.214764
20
5.173849
30
0
11
35.88579
21
5.210595
31
0
39
0
210
0
220
0
230
1
0
LINE
5
61
100
AcDbEntity
8
1
62
256
6
ByLayer
370
-1
48
1
60
0
100
AcDbLine
10
32.147075
20
1.907623
30
0
11
32.147075
21
19.117168
31
0
39
0
210
0
220
0
230
1
0
LINE
5
62
100
AcDbEntity
8
1
62
256
6
ByLayer
370
-1
48
1
60
0
100
AcDbLine
10
41.092984
20
18.949892
30
0
11
46.461133
21
18.949892
31
0
39
0
210
0
220
0
230
1
0
LINE
5
63
100
AcDbEntity
8
1
62
256
6
ByLayer
370
-1
48
1
60
0
100
AcDbLine
10
48.66
20
-13.199402
30
0
11
48.66
21
-4.240451
31
0
39
0
210
0
220
0
230
1
0
LINE
5
64
100
AcDbEntity
8
1
62
256
6
ByLayer
370
-1
48
1
60
0
100
AcDbLine
10
48.625154
20
4.674759
30
0
11
45.497438
21
5.024123
31
0
39
0
210
0
220
0
230
1
0
LINE
5
65
100
AcDbEntity
8
1
62
256
6
ByLayer
370
-1
48
1
60
0
100
AcDbLine
10
30
20
-25.916435
30
0
11
30
21
-17.30492
31
0
39
0
210
0
220
0
230
1
0
LINE
5
66
100
AcDbEntity
8
1
62
256
6
ByLayer
370
-1
48
1
60
0
100
AcDbLine
10
30
20
2.171495
30
0
11
30
21
19.526556
31
0
39
0
210
0
220
0
230
1
0
LINE
5
67
100
AcDbEntity
8
1
62
256
6
ByLayer
370
-1
48
1
60
0
100
AcDbLine
10
15.360698
20
-21.58593
30
0
11
15.360698
21
2.611343
31
0
39
0
210
0
220
0
230
1
0
LINE
5
68
100
AcDbEntity
8
1
62
256
6
ByLayer
370
-1
48
1
60
0
100
AcDbLine
10
15.360698
20
2.611343
30
0
11
15.360698
21
21.58593
31
0
39
0
210
0
220
0
230
1
0
LINE
5
69
100
AcDbEntity
8
1
62
256
6
ByLayer
370
-1
48
1
60
0
100
AcDbLine
10
34.555792
20
-19.318566
30
0
11
35.854522
21
-8.741903
31
0
39
0
210
0
220
0
230
1
0
LINE
5
6A
100
AcDbEntity
8
1
62
256
6
ByLayer
370
-1
48
1
60
0
100
AcDbLine
10
35.788254
20
-8.733319
30
0
11
36.217589
21
-5.204377
31
0
39
0
210
0
220
0
230
1
0
LINE
5
6B
100
AcDbEntity
8
1
62
256
6
ByLayer
370
-1
48
1
60
0
100
AcDbLine
10
40.564427
20
23.449892
30
0
11
40.597714
21
23.445098
31
0
39
0
210
0
220
0
230
1
0
LINE
5
6C
100
AcDbEntity
8
1
62
256
6
ByLayer
370
-1
48
1
60
0
100
AcDbLine
10
15
20
-21.5
30
0
11
15
21
2.600947
31
0
39
0
210
0
220
0
230
1
0
LINE
5
6D
100
AcDbEntity
8
1
62
256
6
ByLayer
370
-1
48
1
60
0
100
AcDbLine
10
15
20
2.600947
30
0
11
15
21
21.5
31
0
39
0
210
0
220
0
230
1
0
LINE
5
6E
100
AcDbEntity
8
1
62
256
6
ByLayer
370
-1
48
1
60
0
100
AcDbLine
10
0.9
20
-21.5
30
0
11
0.9
21
-5.4275
31
0
39
0
210
0
220
0
230
1
0
LINE
5
6F
100
AcDbEntity
8
1
62
256
6
ByLayer
370
-1
48
1
60
0
100
AcDbLine
10
41.44957
20
24.994519
30
0
11
41.462094
21
24.963078
31
0
39
0
210
0
220
0
230
1
0
LINE
5
70
100
AcDbEntity
8
1
62
256
6
ByLayer
370
-1
48
1
60
0
100
AcDbLine
10
40.953178
20
22.05798
30
0
11
40.721627
21
22.05798
31
0
39
0
210
0
220
0
230
1
0
LINE
5
71
100
AcDbEntity
8
1
62
256
6
ByLayer
370
-1
48
1
60
0
100
AcDbLine
10
1.1
20
-5.2275
30
0
11
0.9
21
-5.4275
31
0
39
0
210
0
220
0
230
1
0
LINE
5
72
100
AcDbEntity
8
1
62
256
6
ByLayer
370
-1
48
1
60
0
100
AcDbLine
10
0.9
20
21.5
30
0
11
0.9
21
5.4275
31
0
39
0
210
0
220
0
230
1
0
LINE
5
73
100
AcDbEntity
8
1
62
256
6
ByLayer
370
-1
48
1
60
0
100
AcDbLine
10
1.1
20
-5.2275
30
0
11
5.75
21
-5.2275
31
0
39
0
210
0
220
0
230
1
0
LINE
5
74
100
AcDbEntity
8
1
62
256
6
ByLayer
370
-1
48
1
60
0
100
AcDbLine
10
5.75
20
-5.2275
30
0
11
6.55
21
-4.4275
31
0
39
0
210
0
220
0
230
1
0
LINE
5
75
100
AcDbEntity
8
1
62
256
6
ByLayer
370
-1
48
1
60
0
100
AcDbLine
10
6.55
20
4.4275
30
0
11
6.55
21
-4.4275
31
0
39
0
210
0
220
0
230
1
0
LINE
5
76
100
AcDbEntity
8
1
62
256
6
ByLayer
370
-1
48
1
60
0
100
AcDbLine
10
6.55
20
4.4275
30
0
11
5.75
21
5.2275
31
0
39
0
210
0
220
0
230
1
0
LINE
5
77
100
AcDbEntity
8
1
62
256
6
ByLayer
370
-1
48
1
60
0
100
AcDbLine
10
48.660008
20
4.72088
30
0
11
49.252114
21
4.623703
31
0
39
0
210
0
220
0
230
1
0
LINE
5
78
100
AcDbEntity
8
1
62
256
6
ByLayer
370
-1
48
1
60
0
100
AcDbLine
10
43.854898
20
23.449892
30
0
11
43.854892
21
23.453952
31
0
39
0
210
0
220
0
230
1
0
LINE
5
79
100
AcDbEntity
8
1
62
256
6
ByLayer
370
-1
48
1
60
0
100
AcDbLine
10
0
20
-20.5
30
0
11
0
21
-6.3275
31
0
39
0
210
0
220
0
230
1
0
LINE
5
7A
100
AcDbEntity
8
1
62
256
6
ByLayer
370
-1
48
1
60
0
100
AcDbLine
10
0
20
-6.3275
30
0
11
0.4
21
-5.9275
31
0
39
0
210
0
220
0
230
1
0
LINE
5
7B
100
AcDbEntity
8
1
62
256
6
ByLayer
370
-1
48
1
60
0
100
AcDbLine
10
40.69061
20
-7.301146
30
0
11
37.95995
21
-8.433279
31
0
39
0
210
0
220
0
230
1
0
LINE
5
7C
100
AcDbEntity
8
1
62
256
6
ByLayer
370
-1
48
1
60
0
100
AcDbLine
10
32.147075
20
-25.928525
30
0
11
32.147075
21
-17.757108
31
0
39
0
210
0
220
0
230
1
0
LINE
5
7D
100
AcDbEntity
8
1
62
256
6
ByLayer
370
-1
48
1
60
0
100
AcDbLine
10
40.69061
20
-7.301146
30
0
11
47.630036
21
-8.153149
31
0
39
0
210
0
220
0
230
1
0
LINE
5
7E
100
AcDbEntity
8
1
62
256
6
ByLayer
370
-1
48
1
60
0
100
AcDbLine
10
48.66
20
-16.458612
30
0
11
48.66
21
-13.199169
31
0
39
0
210
0
220
0
230
1
0
LINE
5
7F
100
AcDbEntity
8
1
62
256
6
ByLayer
370
-1
48
1
60
0
100
AcDbLine
10
39.731
20
-22.796851
30
0
11
39.731
21
-29.095234
31
0
39
0
210
0
220
0
230
1
0
LINE
5
80
100
AcDbEntity
8
1
62
256
6
ByLayer
370
-1
48
1
60
0
100
AcDbLine
10
33.037174
20
-18.169325
30
0
11
33.037174
21
-26.142199
31
0
39
0
210
0
220
0
230
1
0
LINE
5
81
100
AcDbEntity
8
1
62
256
6
ByLayer
370
-1
48
1
60
0
100
AcDbLine
10
48.66
20
-16.458612
30
0
11
48.66
21
-24.660668
31
0
39
0
210
0
220
0
230
1
0
LINE
5
82
100
AcDbEntity
8
1
62
256
6
ByLayer
370
-1
48
1
60
0
100
AcDbLine
10
40.173349
20
-6.379033
30
0
11
40.421405
21
-4.332231
31
0
39
0
210
0
220
0
230
1
0
LINE
5
83
100
AcDbEntity
8
1
62
256
6
ByLayer
370
-1
48
1
60
0
100
AcDbLine
10
46.131876
20
-5.033346
30
0
11
40.421405
21
-4.332231
31
0
39
0
210
0
220
0
230
1
0
LINE
5
84
100
AcDbEntity
8
1
62
256
6
ByLayer
370
-1
48
1
60
0
100
AcDbLine
10
37.95995
20
-8.433279
30
0
11
38.339613
21
-5.312618
31
0
39
0
210
0
220
0
230
1
0
LINE
5
85
100
AcDbEntity
8
1
62
256
6
ByLayer
370
-1
48
1
60
0
100
AcDbLine
10
38.339613
20
-5.312618
30
0
11
39.688444
21
-5.485323
31
0
39
0
210
0
220
0
230
1
0
LINE
5
86
100
AcDbEntity
8
1
62
256
6
ByLayer
370
-1
48
1
60
0
100
AcDbLine
10
40.69061
20
-7.301146
30
0
11
40.173349
21
-6.379033
31
0
39
0
210
0
220
0
230
1
0
LINE
5
87
100
AcDbEntity
8
1
62
256
6
ByLayer
370
-1
48
1
60
0
100
AcDbLine
10
0
20
6.3275
30
0
11
0
21
20.5
31
0
39
0
210
0
220
0
230
1
0
LINE
5
88
100
AcDbEntity
8
1
62
256
6
ByLayer
370
-1
48
1
60
0
100
AcDbLine
10
0.4
20
5.9275
30
0
11
0
21
6.3275
31
0
39
0
210
0
220
0
230
1
0
LINE
5
89
100
AcDbEntity
8
1
62
256
6
ByLayer
370
-1
48
1
60
0
100
AcDbLine
10
35.922157
20
-27.198131
30
0
11
35.88579
21
-27.234932
31
0
39
0
210
0
220
0
230
1
0
LINE
5
8A
100
AcDbEntity
8
1
62
256
6
ByLayer
370
-1
48
1
60
0
100
AcDbLine
10
46.142
20
-5.034153
30
0
11
46.142
21
-0.218401
31
0
39
0
210
0
220
0
230
1
0
LINE
5
8B
100
AcDbEntity
8
1
62
256
6
ByLayer
370
-1
48
1
60
0
100
AcDbLine
10
0.4
20
-5.9275
30
0
11
0.4
21
-21
31
0
39
0
210
0
220
0
230
1
0
LINE
5
8C
100
AcDbEntity
8
1
62
256
6
ByLayer
370
-1
48
1
60
0
100
AcDbLine
10
47.191563
20
-7.672084
30
0
11
47.191563
21
-4.526609
31
0
39
0
210
0
220
0
230
1
0
LINE
5
8D
100
AcDbEntity
8
1
62
256
6
ByLayer
370
-1
48
1
60
0
100
AcDbLine
10
47.355021
20
-4.501523
30
0
11
47.355021
21
-7.896083
31
0
39
0
210
0
220
0
230
1
0
LINE
5
8E
100
AcDbEntity
8
1
62
256
6
ByLayer
370
-1
48
1
60
0
100
AcDbLine
10
34.305268
20
26.293444
30
0
11
34.49379
21
26.815292
31
0
39
0
210
0
220
0
230
1
0
LINE
5
8F
100
AcDbEntity
8
1
62
256
6
ByLayer
370
-1
48
1
60
0
100
AcDbLine
10
37.741295
20
6.061284
30
0
11
38.125394
21
5.998246
31
0
39
0
210
0
220
0
230
1
0
LINE
5
90
100
AcDbEntity
8
1
62
256
6
ByLayer
370
-1
48
1
60
0
100
AcDbLine
10
0.4
20
21
30
0
11
0.4
21
5.9275
31
0
39
0
210
0
220
0
230
1
0
LINE
5
91
100
AcDbEntity
8
1
62
256
6
ByLayer
370
-1
48
1
60
0
100
AcDbLine
10
36.795539
20
6.192045
30
0
11
37.717629
21
6.089048
31
0
39
0
210
0
220
0
230
1
0
LINE
5
92
100
AcDbEntity
8
1
62
256
6
ByLayer
370
-1
48
1
60
0
100
AcDbLine
10
5.75
20
5.2275
30
0
11
1.1
21
5.2275
31
0
39
0
210
0
220
0
230
1
0
LINE
5
93
100
AcDbEntity
8
1
62
256
6
ByLayer
370
-1
48
1
60
0
100
AcDbLine
10
49.744047
20
-1.047362
30
0
11
49.743564
21
-1.050767
31
0
39
0
210
0
220
0
230
1
0
LINE
5
94
100
AcDbEntity
8
1
62
256
6
ByLayer
370
-1
48
1
60
0
100
AcDbLine
10
48.66
20
18.949955
30
0
11
48.66
21
18.958711
31
0
39
0
210
0
220
0
230
1
0
LINE
5
95
100
AcDbEntity
8
1
62
256
6
ByLayer
370
-1
48
1
60
0
100
AcDbLine
10
43.522899
20
3.074811
30
0
11
37.854804
21
3.787549
31
0
39
0
210
0
220
0
230
1
0
LINE
5
96
100
AcDbEntity
8
1
62
256
6
ByLayer
370
-1
48
1
60
0
100
AcDbLine
10
43.81373
20
3.436163
30
0
11
37.749595
21
4.1987
31
0
39
0
210
0
220
0
230
1
0
LINE
5
97
100
AcDbEntity
8
1
62
256
6
ByLayer
370
-1
48
1
60
0
100
AcDbLine
10
49.060164
20
2.445048
30
0
11
44.910831
21
2.908525
31
0
39
0
210
0
220
0
230
1
0
LINE
5
98
100
AcDbEntity
8
1
62
256
6
ByLayer
370
-1
48
1
60
0
100
AcDbLine
10
49.130242
20
2.835198
30
0
11
44.690987
21
3.33106
31
0
39
0
210
0
220
0
230
1
0
LINE
5
99
100
AcDbEntity
8
1
62
256
6
ByLayer
370
-1
48
1
60
0
100
AcDbLine
10
43.157592
20
5.304457
30
0
11
38.885053
21
5.841709
31
0
39
0
210
0
220
0
230
1
0
LINE
5
9A
100
AcDbEntity
8
1
62
256
6
ByLayer
370
-1
48
1
60
0
100
AcDbLine
10
37.107399
20
4.284661
30
0
11
36.257129
21
4.424208
31
0
39
0
210
0
220
0
230
1
0
LINE
5
9B
100
AcDbEntity
8
1
62
256
6
ByLayer
370
-1
48
1
60
0
100
AcDbLine
10
36.838767
20
3.92355
30
0
11
35.878246
21
4.081192
31
0
39
0
210
0
220
0
230
1
0
LINE
5
9C
100
AcDbEntity
8
1
62
256
6
ByLayer
370
-1
48
1
60
0
100
AcDbLine
10
48.660008
20
-21.942344
30
0
11
49.252114
21
-24.16336
31
0
39
0
210
0
220
0
230
1
0
LINE
5
9D
100
AcDbEntity
8
1
62
256
6
ByLayer
370
-1
48
1
60
0
100
AcDbLine
10
40.828049
20
22.579021
30
0
11
40.603631
21
22.579021
31
0
39
0
210
0
220
0
230
1
0
LINE
5
9E
100
AcDbEntity
8
1
62
256
6
ByLayer
370
-1
48
1
60
0
100
AcDbLine
10
37.172167
20
6.070988
30
0
11
36.746185
21
6.1409
31
0
39
0
210
0
220
0
230
1
0
LINE
5
9F
100
AcDbEntity
8
1
62
256
6
ByLayer
370
-1
48
1
60
0
100
AcDbLine
10
0.9
20
5.4275
30
0
11
1.1
21
5.2275
31
0
39
0
210
0
220
0
230
1
0
LINE
5
A0
100
AcDbEntity
8
1
62
256
6
ByLayer
370
-1
48
1
60
0
100
AcDbLine
10
43.746128
20
22.558101
30
0
11
43.642315
21
22.558101
31
0
39
0
210
0
220
0
230
1
0
LINE
5
A1
100
AcDbEntity
8
1
62
256
6
ByLayer
370
-1
48
1
60
0
100
AcDbLine
10
48.107291
20
-4.376774
30
0
11
49.252114
21
-4.094314
31
0
39
0
210
0
220
0
230
1
0
LINE
5
A2
100
AcDbEntity
8
1
62
256
6
ByLayer
370
-1
48
1
60
0
100
AcDbLine
10
48.625154
20
-26.521883
30
0
11
45.497438
21
-29.686925
31
0
39
0
210
0
220
0
230
1
0
LINE
5
A3
100
AcDbEntity
8
1
62
256
6
ByLayer
370
-1
48
1
60
0
100
AcDbLine
10
43.769201
20
22.570718
30
0
11
43.612203
21
22.570718
31
0
39
0
210
0
220
0
230
1
0
LINE
5
A4
100
AcDbEntity
8
1
62
256
6
ByLayer
370
-1
48
1
60
0
100
AcDbLine
10
41.941246
20
21.970421
30
0
11
41.723959
21
21.970421
31
0
39
0
210
0
220
0
230
1
0
LINE
5
A5
100
AcDbEntity
8
1
62
256
6
ByLayer
370
-1
48
1
60
0
100
AcDbLine
10
42.329956
20
21.699847
30
0
11
42.105538
21
21.699847
31
0
39
0
210
0
220
0
230
1
0
LINE
5
A6
100
AcDbEntity
8
1
62
256
6
ByLayer
370
-1
48
1
60
0
100
AcDbLine
10
42.334714
20
21.66631
30
0
11
42.329956
21
21.699847
31
0
39
0
210
0
220
0
230
1
0
LINE
5
A7
100
AcDbEntity
8
1
62
256
6
ByLayer
370
-1
48
1
60
0
100
AcDbLine
10
41.462094
20
24.963078
30
0
11
41.237675
21
24.963078
31
0
39
0
210
0
220
0
230
1
0
LINE
5
A8
100
AcDbEntity
8
1
62
256
6
ByLayer
370
-1
48
1
60
0
100
AcDbLine
10
41.25974
20
24.532939
30
0
11
41.042453
21
24.532939
31
0
39
0
210
0
220
0
230
1
0
LINE
5
A9
100
AcDbEntity
8
1
62
256
6
ByLayer
370
-1
48
1
60
0
100
AcDbLine
10
40.564427
20
23.449892
30
0
11
40.338913
21
23.449892
31
0
39
0
210
0
220
0
230
1
0
LINE
5
AA
100
AcDbEntity
8
1
62
256
6
ByLayer
370
-1
48
1
60
0
100
AcDbLine
10
40.866272
20
23.053469
30
0
11
40.648985
21
23.053469
31
0
39
0
210
0
220
0
230
1
0
LINE
5
AB
100
AcDbEntity
8
1
62
256
6
ByLayer
370
-1
48
1
60
0
100
AcDbLine
10
40.8016
20
22.558101
30
0
11
40.576087
21
22.558101
31
0
39
0
210
0
220
0
230
1
0
LINE
5
AC
100
AcDbEntity
8
1
62
256
6
ByLayer
370
-1
48
1
60
0
100
AcDbLine
10
42.334714
20
21.66631
30
0
11
42.109201
21
21.66631
31
0
39
0
210
0
220
0
230
1
0
LINE
5
AD
100
AcDbEntity
8
1
62
256
6
ByLayer
370
-1
48
1
60
0
100
AcDbLine
10
40.8016
20
22.558101
30
0
11
40.828049
21
22.579021
31
0
39
0
210
0
220
0
230
1
0
LINE
5
AE
100
AcDbEntity
8
1
62
256
6
ByLayer
370
-1
48
1
60
0
100
AcDbLine
10
40.4475
20
23.959367
30
0
11
40.21595
21
23.959367
31
0
39
0
210
0
220
0
230
1
0
LINE
5
AF
100
AcDbEntity
8
1
62
256
6
ByLayer
370
-1
48
1
60
0
100
AcDbLine
10
43.157592
20
-30.330614
30
0
11
38.885053
21
-29.201374
31
0
39
0
210
0
220
0
230
1
0
LINE
5
B0
100
AcDbEntity
8
1
62
256
6
ByLayer
370
-1
48
1
60
0
100
AcDbLine
10
41.44957
20
24.994519
30
0
11
41.224057
21
24.994519
31
0
39
0
210
0
220
0
230
1
0
LINE
5
B1
100
AcDbEntity
8
1
62
256
6
ByLayer
370
-1
48
1
60
0
100
AcDbLine
10
37.107399
20
-28.334092
30
0
11
36.883927
21
-27.49584
31
0
39
0
210
0
220
0
230
1
0
LINE
5
B2
100
AcDbEntity
8
1
62
256
6
ByLayer
370
-1
48
1
60
0
100
AcDbLine
10
43.81373
20
-30.579781
30
0
11
37.749595
21
-28.977019
31
0
39
0
210
0
220
0
230
1
0
LINE
5
B3
100
AcDbEntity
8
1
62
256
6
ByLayer
370
-1
48
1
60
0
100
AcDbLine
10
36.838767
20
-28.164053
30
0
11
36.631765
21
-27.387578
31
0
39
0
210
0
220
0
230
1
0
LINE
5
B4
100
AcDbEntity
8
1
62
256
6
ByLayer
370
-1
48
1
60
0
100
AcDbLine
10
43.522899
20
-30.679332
30
0
11
37.854804
21
-29.181244
31
0
39
0
210
0
220
0
230
1
0
LINE
5
B5
100
AcDbEntity
8
1
62
256
6
ByLayer
370
-1
48
1
60
0
100
AcDbLine
10
48.660007
20
-21.803647
30
0
11
49.43206
21
-24.699651
31
0
39
0
210
0
220
0
230
1
0
LINE
5
B6
100
AcDbEntity
8
1
62
256
6
ByLayer
370
-1
48
1
60
0
100
AcDbLine
10
49.060164
20
-26.098661
30
0
11
44.910831
21
-30.297513
31
0
39
0
210
0
220
0
230
1
0
LINE
5
B7
100
AcDbEntity
8
1
62
256
6
ByLayer
370
-1
48
1
60
0
100
AcDbLine
10
41.829037
20
25.351278
30
0
11
41.597486
21
25.351278
31
0
39
0
210
0
220
0
230
1
0
LINE
5
B8
100
AcDbEntity
8
1
62
256
6
ByLayer
370
-1
48
1
60
0
100
AcDbLine
10
43.199093
20
24.967872
30
0
11
42.974675
21
24.967872
31
0
39
0
210
0
220
0
230
1
0
LINE
5
B9
100
AcDbEntity
8
1
62
256
6
ByLayer
370
-1
48
1
60
0
100
AcDbLine
10
46.266952
20
-2.488636
30
0
11
46.897262
21
-2.405673
31
0
39
0
210
0
220
0
230
1
0
LINE
5
BA
100
AcDbEntity
8
1
62
256
6
ByLayer
370
-1
48
1
60
0
100
AcDbLine
10
46.294823
20
-2.875019
30
0
11
47.098226
21
-2.769274
31
0
39
0
210
0
220
0
230
1
0
LINE
5
BB
100
AcDbEntity
8
1
62
256
6
ByLayer
370
-1
48
1
60
0
100
AcDbLine
10
47.913298
20
-2.247226
30
0
11
49.43206
21
-1.872506
31
0
39
0
210
0
220
0
230
1
0
LINE
5
BC
100
AcDbEntity
8
1
62
256
6
ByLayer
370
-1
48
1
60
0
100
AcDbLine
10
47.740422
20
-2.669126
30
0
11
49.365302
21
-2.268222
31
0
39
0
210
0
220
0
230
1
0
LINE
5
BD
100
AcDbEntity
8
1
62
256
6
ByLayer
370
-1
48
1
60
0
100
AcDbLine
10
43.219858
20
24.994519
30
0
11
43.199093
21
24.967872
31
0
39
0
210
0
220
0
230
1
0
LINE
5
BE
100
AcDbEntity
8
1
62
256
6
ByLayer
370
-1
48
1
60
0
100
AcDbLine
10
43.219858
20
24.994519
30
0
11
42.994344
21
24.994519
31
0
39
0
210
0
220
0
230
1
0
MTEXT
5
232
100
AcDbEntity
8
SK6
62
256
6
ByLayer
370
-1
48
1
60
0
100
AcDbMText
10
3.994737
20
-46.465
30
0
210
0
220
0
230
1
1
\W00.733;\fsimplex.shx,bigfont.shx;R300-063Q22-16M 
40
4
41
0
44
1.084337
50
0
71
7
72
5
7
DEFAULT
0
DIMENSION
5
266
100
AcDbEntity
8
2
62
256
6
ByLayer
370
-3
48
1
60
0
100
AcDbDimension
2
DimnDraft3D1
10
-19.85
20
-11
30
0
11
-19.85
21
0
31
0
70
32
71
5
72
1
41
1
210
0
220
0
230
1
3
Standard
100
AcDbAlignedDimension
13
0
23
11
33
0
14
0
24
-11
34
0
50
90
100
AcDbRotatedDimension
1001
ACAD
1000
DSTYLE
1002
{
1070
    74
1070
     0
1070
   279
1070
     0
1070
   172
1070
     1
1070
   173
1070
     1
1070
   340
1005
233
1070
   271
1070
     3
1070
   272
1070
     3
1070
    77
1070
     1
1070
    73
1070
     0
1070
   171
1070
     3
1070
   274
1070
     4
1070
   177
1070
     7
1070
   176
1070
     7
1070
   178
1070
     7
1070
    78
1070
     8
1070
    48
1040
-0.005
1070
    41
1041
3.5
1070
   147
1041
1.75
1070
    42
1041
0.0
1070
    44
1041
2.0
1070
   140
1041
3.5
1070
   343
1005
267
1070
   344
1005
267
1002
}
0
DIMENSION
5
27C
100
AcDbEntity
8
SK2
62
256
6
ByLayer
370
-3
48
1
60
0
100
AcDbDimension
2
DimnDraft3D2
10
76.85
20
-23.4849
30
0
11
76.85
21
0
31
0
70
32
71
5
72
1
41
1
210
0
220
0
230
1
3
Standard
100
AcDbAlignedDimension
13
50
23
23.4849
33
0
14
50
24
-23.4849
34
0
50
90
100
AcDbRotatedDimension
1001
ACAD
1000
DSTYLE
1002
{
1070
    74
1070
     0
1070
   279
1070
     0
1070
   172
1070
     1
1070
   173
1070
     1
1070
   340
1005
233
1070
   271
1070
     3
1070
   272
1070
     3
1070
    77
1070
     1
1070
    73
1070
     0
1070
   171
1070
     3
1070
   274
1070
     4
1070
   177
1070
     7
1070
   176
1070
     7
1070
   178
1070
     7
1070
    78
1070
     8
1070
    48
1040
-0.005
1070
    41
1041
3.5
1070
   147
1041
1.75
1070
    42
1041
0.0
1070
    44
1041
2.0
1070
   140
1041
3.5
1070
   343
1005
267
1070
   344
1005
267
1002
}
0
DIMENSION
5
28A
100
AcDbEntity
8
SK2
62
256
6
ByLayer
370
-3
48
1
60
0
100
AcDbDimension
2
DimnDraft3D3
10
86.85
20
31.465
30
0
11
86.85
21
0
31
0
70
32
71
5
72
1
41
1
210
0
220
0
230
1
3
Standard
100
AcDbAlignedDimension
13
50
23
-31.465
33
0
14
50
24
31.465
34
0
50
90
100
AcDbRotatedDimension
1001
ACAD
1000
DSTYLE
1002
{
1070
    74
1070
     0
1070
   279
1070
     0
1070
   172
1070
     1
1070
   173
1070
     1
1070
   340
1005
233
1070
   271
1070
     3
1070
   272
1070
     3
1070
    77
1070
     1
1070
    73
1070
     0
1070
   171
1070
     3
1070
   274
1070
     4
1070
   177
1070
     7
1070
   176
1070
     7
1070
   178
1070
     7
1070
    78
1070
     8
1070
    48
1040
-0.005
1070
    41
1041
3.5
1070
   147
1041
1.75
1070
    42
1041
0.0
1070
    44
1041
2.0
1070
   140
1041
3.5
1070
   343
1005
267
1070
   344
1005
267
1002
}
0
DIMENSION
5
298
100
AcDbEntity
8
2
62
256
6
ByLayer
370
-3
48
1
60
0
100
AcDbDimension
2
DimnDraft3D4
10
42
20
46.315
30
0
11
62.730921
21
46.315
31
0
70
32
71
5
72
1
41
1
210
0
220
0
230
1
3
Standard
100
AcDbAlignedDimension
13
50
23
31.465
33
0
14
42
24
31.465
34
0
50
0
100
AcDbRotatedDimension
1001
ACAD
1000
DSTYLE
1002
{
1070
   279
1070
     0
1070
   172
1070
     1
1070
   173
1070
     1
1070
   340
1005
233
1070
   271
1070
     3
1070
   272
1070
     3
1070
    77
1070
     1
1070
    73
1070
     0
1070
   171
1070
     3
1070
   274
1070
     4
1070
   177
1070
     7
1070
   176
1070
     7
1070
   178
1070
     7
1070
    78
1070
     8
1070
    48
1040
-0.005
1070
    41
1041
3.5
1070
   147
1041
1.75
1070
    42
1041
0.0
1070
    44
1041
2.0
1070
   140
1041
3.5
1070
   343
1005
267
1070
   344
1005
267
1002
}
0
DIMENSION
5
2A6
100
AcDbEntity
8
SK2
62
256
6
ByLayer
370
-3
48
1
60
0
100
AcDbDimension
2
DimnDraft3D5
10
0
20
66.315
30
0
11
25
21
66.315
31
0
70
32
71
5
72
1
41
1
210
0
220
0
230
1
3
Standard
100
AcDbAlignedDimension
13
50
23
31.465
33
0
14
0
24
21.5
34
0
50
0
100
AcDbRotatedDimension
1001
ACAD
1000
DSTYLE
1002
{
1070
   279
1070
     0
1070
   172
1070
     1
1070
   173
1070
     1
1070
   340
1005
233
1070
   271
1070
     3
1070
   272
1070
     3
1070
    77
1070
     1
1070
    73
1070
     0
1070
   171
1070
     3
1070
   274
1070
     4
1070
   177
1070
     7
1070
   176
1070
     7
1070
   178
1070
     7
1070
    78
1070
     8
1070
    48
1040
-0.005
1070
    41
1041
3.5
1070
   147
1041
1.75
1070
    42
1041
0.0
1070
    44
1041
2.0
1070
   140
1041
3.5
1070
   343
1005
267
1070
   344
1005
267
1002
}
0
ENDSEC
0
SECTION
2
OBJECTS
0
DICTIONARY
5
2d6
330
0
100
AcDbDictionary
280
0
281
1
3
ACAD_GROUP
350
2d7
3
ACAD_MLINESTYLE
350
2d8
0
DICTIONARY
5
2d7
330
0
100
AcDbDictionary
280
0
281
1
0
DICTIONARY
5
2d8
330
0
100
AcDbDictionary
280
0
281
1
3
Standard
350
18
0
MLINESTYLE
5
18
330
2d8
100
AcDbMlineStyle
2
Standard
70
0
3

62
256
51
90
52
90
71
2
49
-0.5
62
256
6
ByLayer
49
0.5
62
256
6
ByLayer
0
RASTERVARIABLES
5
2c5
330

100
AcDbRasterVariables
90
0
70
1
71
1
72
1
0
ENDSEC
0
EOF
