0
SECTION
2
HEADER
9
$ACADVER
1
AC1015
9
$DWGCODEPAGE
3
ANSI_1252
9
$HANDSEED
5
272
9
$ANGBASE
50
0
9
$ANGDIR
70
0
9
$ATTMODE
70
1
9
$AUNITS
70
0
9
$AUPREC
70
0
9
$CECOLOR
62
256
9
$CELTSCALE
40
1
9
$CELTYPE
6
ByLayer
9
$CELWEIGHT
370
-1
9
$CLAYER
8
0
9
$CMLJUST
70
0
9
$CMLSCALE
40
1
9
$CMLSTYLE
2
Standard
9
$DIMSTYLE
2
Standard
9
$TEXTSIZE
40
0.2
9
$TEXTSTYLE
7
Standard
9
$LUNITS
70
2
9
$LUPREC
70
4
9
$EXTNAMES
290
1
9
$INSUNITS
70
4
9
$LTSCALE
40
1
9
$LWDISPLAY
290
0
9
$PDMODE
70
0
9
$PDSIZE
40
0
9
$PLINEGEN
70
0
0
ENDSEC
0
SECTION
2
CLASSES
0
CLASS
1
RASTERVARIABLES
2
AcDbRasterVariables
3
ISM
90
0
280
0
281
0
0
ENDSEC
0
SECTION
2
TABLES
0
TABLE
2
VPORT
5
268
100
AcDbSymbolTable
0
VPORT
5
1
100
AcDbSymbolTableRecord
100
AcDbViewportTableRecord
2
*Active
70
0
10
0
20
0
11
1
21
1
12
-1
22
1
13
0
23
0
14
0.5
24
0.5
15
10
25
10
16
0
26
0
36
1
17
0
27
0
37
0
0
ENDTAB
0
TABLE
2
LTYPE
5
269
100
AcDbSymbolTable
0
LTYPE
5
14
100
AcDbSymbolTableRecord
100
AcDbLinetypeTableRecord
70
0
2
ByBlock
3

72
65
73
0
40
0
0
LTYPE
5
15
100
AcDbSymbolTableRecord
100
AcDbLinetypeTableRecord
70
0
2
ByLayer
3

72
65
73
0
40
0
0
LTYPE
5
16
100
AcDbSymbolTableRecord
100
AcDbLinetypeTableRecord
70
0
2
CONTINUOUS
3
Solid line
72
65
73
0
40
0
0
LTYPE
5
3B
100
AcDbSymbolTableRecord
100
AcDbLinetypeTableRecord
70
0
2
DASHED
3
__ __ __ __ __ __ __ __ __
72
65
73
2
40
25.72
49
12.86
74
0
49
-12.86
74
0
0
LTYPE
5
3C
100
AcDbSymbolTableRecord
100
AcDbLinetypeTableRecord
70
0
2
HIDDEN
3
_ _ _ _ _ _ _ _ _ _ _ _ _ _ _
72
65
73
2
40
0.5
49
0.25
74
0
49
-0.25
74
0
0
LTYPE
5
3D
100
AcDbSymbolTableRecord
100
AcDbLinetypeTableRecord
70
0
2
PHANTOM
3
____ _ _ ____ _ _ _____ _ _ ____
72
65
73
6
40
50.5
49
18
74
0
49
-6.5
74
0
49
6.5
74
0
49
-6.5
74
0
49
6.5
74
0
49
-6.5
74
0
0
LTYPE
5
3E
100
AcDbSymbolTableRecord
100
AcDbLinetypeTableRecord
70
0
2
CENTER
3
____ _ ____ _ ____ _ ____
72
65
73
4
40
47.5
49
22
74
0
49
-8.5
74
0
49
8.5
74
0
49
-8.5
74
0
0
LTYPE
5
3F
100
AcDbSymbolTableRecord
100
AcDbLinetypeTableRecord
70
0
2
DOT
3
.........................
72
65
73
2
40
10
49
0
74
0
49
-10
74
0
0
LTYPE
5
40
100
AcDbSymbolTableRecord
100
AcDbLinetypeTableRecord
70
0
2
DASHDOT
3
_._._._._._._._._._._._._._._._.
72
65
73
4
40
70
49
31
74
0
49
-13
74
0
49
13
74
0
49
-13
74
0
0
ENDTAB
0
TABLE
2
LAYER
5
26a
100
AcDbSymbolTable
0
LAYER
5
10
100
AcDbSymbolTableRecord
100
AcDbLayerTableRecord
2
0
70
0
62
7
6
CONTINUOUS
290
1
370
-3
390
0
0
LAYER
5
42
100
AcDbSymbolTableRecord
100
AcDbLayerTableRecord
2
81
70
0
62
-3
6
CONTINUOUS
290
1
370
-3
390
0
0
LAYER
5
44
100
AcDbSymbolTableRecord
100
AcDbLayerTableRecord
2
80
70
0
62
-6
6
CONTINUOUS
290
1
370
-3
390
0
0
LAYER
5
46
100
AcDbSymbolTableRecord
100
AcDbLayerTableRecord
2
1
70
0
62
4
6
CONTINUOUS
290
1
370
-3
390
0
0
LAYER
5
1E9
100
AcDbSymbolTableRecord
100
AcDbLayerTableRecord
2
2
70
0
62
7
6
CONTINUOUS
290
1
370
-3
390
0
0
LAYER
5
255
100
AcDbSymbolTableRecord
100
AcDbLayerTableRecord
2
SK4
70
0
62
2
6
CENTER
290
1
370
-3
390
0
0
LAYER
5
256
100
AcDbSymbolTableRecord
100
AcDbLayerTableRecord
2
SK6
70
0
62
5
6
CONTINUOUS
290
1
370
-3
390
0
0
LAYER
5
257
100
AcDbSymbolTableRecord
100
AcDbLayerTableRecord
2
SK2
70
0
62
7
6
CONTINUOUS
290
1
370
-3
390
0
0
ENDTAB
0
TABLE
2
STYLE
5
26b
100
AcDbSymbolTable
0
STYLE
5
11
100
AcDbSymbolTableRecord
100
AcDbTextStyleTableRecord
2
Standard
3
txt
70
0
71
0
40
0
41
1
42
0
50
0
0
STYLE
5
1C2
100
AcDbSymbolTableRecord
100
AcDbTextStyleTableRecord
2
DEFAULT
3
simplex.shx
70
0
71
0
40
0
41
1
42
0
50
0
0
STYLE
5
1E5
100
AcDbSymbolTableRecord
100
AcDbTextStyleTableRecord
2
DWGDirectTextStyle
3
SIMPLEX
70
0
71
0
40
0
41
1
42
0
50
0
0
ENDTAB
0
TABLE
2
DIMSTYLE
5
26c
100
AcDbSymbolTable
100
AcDbDimStyleTable
0
DIMSTYLE
105
27
100
AcDbSymbolTableRecord
100
AcDbDimStyleTableRecord
2
Standard
70
0
3
<>
41
0.18
42
0.0625
44
0.18
140
0.18
147
0.09
73
0
74
0
77
1
271
2
275
0
278
52
280
0
340
11
0
ENDTAB
0
TABLE
2
VIEW
5
26d
100
AcDbSymbolTable
0
ENDTAB
0
TABLE
2
UCS
5
26e
100
AcDbSymbolTable
0
ENDTAB
0
TABLE
2
APPID
5
26f
100
AcDbSymbolTable
0
APPID
5
12
100
AcDbSymbolTableRecord
100
AcDbRegAppTableRecord
2
ACAD
70
0
0
ENDTAB
0
TABLE
2
BLOCK_RECORD
5
270
100
AcDbSymbolTable
0
BLOCK_RECORD
5
1F
100
AcDbSymbolTableRecord
100
AcDbBlockTableRecord
2
*Model_Space
340
0
70
0
0
BLOCK_RECORD
5
1B
100
AcDbSymbolTableRecord
100
AcDbBlockTableRecord
2
*Paper_Space
340
0
70
0
0
BLOCK_RECORD
5
23
100
AcDbSymbolTableRecord
100
AcDbBlockTableRecord
2
*Paper_Space0
340
0
70
0
0
BLOCK_RECORD
5
1E7
100
AcDbSymbolTableRecord
100
AcDbBlockTableRecord
2
DimnDraft3D1
340
0
70
0
0
BLOCK_RECORD
5
1F6
100
AcDbSymbolTableRecord
100
AcDbBlockTableRecord
2
_CLOSED
340
0
70
0
0
BLOCK_RECORD
5
1FD
100
AcDbSymbolTableRecord
100
AcDbBlockTableRecord
2
DimnDraft3D2
340
0
70
0
0
BLOCK_RECORD
5
20C
100
AcDbSymbolTableRecord
100
AcDbBlockTableRecord
2
DimnDraft3D3
340
0
70
0
0
BLOCK_RECORD
5
21A
100
AcDbSymbolTableRecord
100
AcDbBlockTableRecord
2
DimnDraft3D4
340
0
70
0
0
BLOCK_RECORD
5
228
100
AcDbSymbolTableRecord
100
AcDbBlockTableRecord
2
DimnDraft3D5
340
0
70
0
0
ENDTAB
0
ENDSEC
0
SECTION
2
BLOCKS
0
BLOCK
5
20
100
AcDbEntity
8
0
100
AcDbBlockBegin
2
*Model_Space
70
0
10
0
20
0
30
0
3
*Model_Space
0
ENDBLK
5
21
100
AcDbEntity
8
0
100
AcDbBlockEnd
0
BLOCK
5
1C
100
AcDbEntity
8
0
100
AcDbBlockBegin
2
*Paper_Space
70
0
10
0
20
0
30
0
3
*Paper_Space
0
ENDBLK
5
1D
100
AcDbEntity
8
0
100
AcDbBlockEnd
0
BLOCK
5
24
100
AcDbEntity
8
0
100
AcDbBlockBegin
2
*Paper_Space0
70
0
10
0
20
0
30
0
3
*Paper_Space0
0
ENDBLK
5
25
100
AcDbEntity
8
0
100
AcDbBlockEnd
0
BLOCK
5
1F3
100
AcDbEntity
8
0
100
AcDbBlockBegin
2
DimnDraft3D1
70
0
10
0
20
0
30
0
3
DimnDraft3D1
0
MTEXT
5
1E8
100
AcDbEntity
8
2
62
256
6
ByLayer
370
-1
48
1
60
0
100
AcDbMText
10
-20.725
20
-3.140789
30
0
210
0
220
0
230
1
1
\W01.000;\fsimplex.shx,bigfont.shx;22.0 
40
3.5
41
0
44
1.084337
50
90
71
7
72
5
7
DEFAULT
0
LINE
5
1EA
100
AcDbEntity
8
2
62
256
6
ByLayer
370
-1
48
1
60
0
100
AcDbLine
10
0
20
11
30
0
11
-21.85
21
11
31
0
39
0
210
0
220
0
230
1
0
LINE
5
1EB
100
AcDbEntity
8
2
62
256
6
ByLayer
370
-1
48
1
60
0
100
AcDbLine
10
0
20
-11
30
0
11
-21.85
21
-11
31
0
39
0
210
0
220
0
230
1
0
LINE
5
1EC
100
AcDbEntity
8
2
62
256
6
ByLayer
370
-1
48
1
60
0
100
AcDbLine
10
-19.85
20
11
30
0
11
-19.85
21
-11
31
0
39
0
210
0
220
0
230
1
0
LINE
5
1ED
100
AcDbEntity
8
2
62
256
6
ByLayer
370
-1
48
1
60
0
100
AcDbLine
10
-19.85
20
11
30
0
11
-18.912178
21
7.500003
31
0
39
0
210
0
220
0
230
1
0
LINE
5
1EE
100
AcDbEntity
8
2
62
256
6
ByLayer
370
-1
48
1
60
0
100
AcDbLine
10
-19.85
20
11
30
0
11
-20.787822
21
7.499997
31
0
39
0
210
0
220
0
230
1
0
LINE
5
1EF
100
AcDbEntity
8
2
62
256
6
ByLayer
370
-1
48
1
60
0
100
AcDbLine
10
-18.912178
20
7.500003
30
0
11
-20.787822
21
7.499997
31
0
39
0
210
0
220
0
230
1
0
LINE
5
1F0
100
AcDbEntity
8
2
62
256
6
ByLayer
370
-1
48
1
60
0
100
AcDbLine
10
-19.85
20
-11
30
0
11
-20.787822
21
-7.500003
31
0
39
0
210
0
220
0
230
1
0
LINE
5
1F1
100
AcDbEntity
8
2
62
256
6
ByLayer
370
-1
48
1
60
0
100
AcDbLine
10
-19.85
20
-11
30
0
11
-18.912178
21
-7.499997
31
0
39
0
210
0
220
0
230
1
0
LINE
5
1F2
100
AcDbEntity
8
2
62
256
6
ByLayer
370
-1
48
1
60
0
100
AcDbLine
10
-20.787822
20
-7.500003
30
0
11
-18.912178
21
-7.499997
31
0
39
0
210
0
220
0
230
1
0
ENDBLK
5
1F4
100
AcDbEntity
8
0
100
AcDbBlockEnd
0
BLOCK
5
1F7
100
AcDbEntity
8
0
100
AcDbBlockBegin
2
_CLOSED
70
0
10
0
20
0
30
0
3
_CLOSED
0
LINE
5
1F9
100
AcDbEntity
8
0
62
256
6
ByLayer
370
-2
48
1
60
0
100
AcDbLine
10
-1
20
0.166667
30
0
11
0
21
0
31
0
39
0
210
0
220
0
230
1
0
LINE
5
1FA
100
AcDbEntity
8
0
62
256
6
ByLayer
370
-2
48
1
60
0
100
AcDbLine
10
0
20
0
30
0
11
-1
21
-0.166667
31
0
39
0
210
0
220
0
230
1
0
LINE
5
1FB
100
AcDbEntity
8
0
62
256
6
ByLayer
370
-2
48
1
60
0
100
AcDbLine
10
-1
20
0.166667
30
0
11
-1
21
-0.166667
31
0
39
0
210
0
220
0
230
1
0
LINE
5
1FC
100
AcDbEntity
8
0
62
256
6
ByLayer
370
-2
48
1
60
0
100
AcDbLine
10
0
20
0
30
0
11
-1
21
0
31
0
39
0
210
0
220
0
230
1
0
ENDBLK
5
1F8
100
AcDbEntity
8
0
100
AcDbBlockEnd
0
BLOCK
5
209
100
AcDbEntity
8
0
100
AcDbBlockBegin
2
DimnDraft3D2
70
0
10
0
20
0
30
0
3
DimnDraft3D2
0
MTEXT
5
1FE
100
AcDbEntity
8
SK2
62
256
6
ByLayer
370
-1
48
1
60
0
100
AcDbMText
10
75.975
20
-3.140789
30
0
210
0
220
0
230
1
1
\W01.000;\fsimplex.shx,bigfont.shx;38.0 
40
3.5
41
0
44
1.084337
50
90
71
7
72
5
7
DEFAULT
0
LINE
5
200
100
AcDbEntity
8
SK2
62
256
6
ByLayer
370
-1
48
1
60
0
100
AcDbLine
10
50
20
18.9893
30
0
11
78.85
21
18.9893
31
0
39
0
210
0
220
0
230
1
0
LINE
5
201
100
AcDbEntity
8
SK2
62
256
6
ByLayer
370
-1
48
1
60
0
100
AcDbLine
10
50
20
-18.9893
30
0
11
78.85
21
-18.9893
31
0
39
0
210
0
220
0
230
1
0
LINE
5
202
100
AcDbEntity
8
SK2
62
256
6
ByLayer
370
-1
48
1
60
0
100
AcDbLine
10
76.85
20
18.9893
30
0
11
76.85
21
-18.9893
31
0
39
0
210
0
220
0
230
1
0
LINE
5
203
100
AcDbEntity
8
SK2
62
256
6
ByLayer
370
-1
48
1
60
0
100
AcDbLine
10
76.85
20
18.9893
30
0
11
77.787822
21
15.489303
31
0
39
0
210
0
220
0
230
1
0
LINE
5
204
100
AcDbEntity
8
SK2
62
256
6
ByLayer
370
-1
48
1
60
0
100
AcDbLine
10
76.85
20
18.9893
30
0
11
75.912178
21
15.489297
31
0
39
0
210
0
220
0
230
1
0
LINE
5
205
100
AcDbEntity
8
SK2
62
256
6
ByLayer
370
-1
48
1
60
0
100
AcDbLine
10
77.787822
20
15.489303
30
0
11
75.912178
21
15.489297
31
0
39
0
210
0
220
0
230
1
0
LINE
5
206
100
AcDbEntity
8
SK2
62
256
6
ByLayer
370
-1
48
1
60
0
100
AcDbLine
10
76.85
20
-18.9893
30
0
11
75.912178
21
-15.489303
31
0
39
0
210
0
220
0
230
1
0
LINE
5
207
100
AcDbEntity
8
SK2
62
256
6
ByLayer
370
-1
48
1
60
0
100
AcDbLine
10
76.85
20
-18.9893
30
0
11
77.787822
21
-15.489297
31
0
39
0
210
0
220
0
230
1
0
LINE
5
208
100
AcDbEntity
8
SK2
62
256
6
ByLayer
370
-1
48
1
60
0
100
AcDbLine
10
75.912178
20
-15.489303
30
0
11
77.787822
21
-15.489297
31
0
39
0
210
0
220
0
230
1
0
ENDBLK
5
20A
100
AcDbEntity
8
0
100
AcDbBlockEnd
0
BLOCK
5
217
100
AcDbEntity
8
0
100
AcDbBlockBegin
2
DimnDraft3D3
70
0
10
0
20
0
30
0
3
DimnDraft3D3
0
MTEXT
5
20D
100
AcDbEntity
8
SK2
62
256
6
ByLayer
370
-1
48
1
60
0
100
AcDbMText
10
85.975
20
-3.140789
30
0
210
0
220
0
230
1
1
\W01.000;\fsimplex.shx,bigfont.shx;50.0 
40
3.5
41
0
44
1.084337
50
90
71
7
72
5
7
DEFAULT
0
LINE
5
20E
100
AcDbEntity
8
SK2
62
256
6
ByLayer
370
-1
48
1
60
0
100
AcDbLine
10
50
20
-24.965
30
0
11
88.85
21
-24.965
31
0
39
0
210
0
220
0
230
1
0
LINE
5
20F
100
AcDbEntity
8
SK2
62
256
6
ByLayer
370
-1
48
1
60
0
100
AcDbLine
10
50
20
24.965
30
0
11
88.85
21
24.965
31
0
39
0
210
0
220
0
230
1
0
LINE
5
210
100
AcDbEntity
8
SK2
62
256
6
ByLayer
370
-1
48
1
60
0
100
AcDbLine
10
86.85
20
-24.965
30
0
11
86.85
21
24.965
31
0
39
0
210
0
220
0
230
1
0
LINE
5
211
100
AcDbEntity
8
SK2
62
256
6
ByLayer
370
-1
48
1
60
0
100
AcDbLine
10
86.85
20
-24.965
30
0
11
85.912178
21
-21.465003
31
0
39
0
210
0
220
0
230
1
0
LINE
5
212
100
AcDbEntity
8
SK2
62
256
6
ByLayer
370
-1
48
1
60
0
100
AcDbLine
10
86.85
20
-24.965
30
0
11
87.787822
21
-21.464997
31
0
39
0
210
0
220
0
230
1
0
LINE
5
213
100
AcDbEntity
8
SK2
62
256
6
ByLayer
370
-1
48
1
60
0
100
AcDbLine
10
85.912178
20
-21.465003
30
0
11
87.787822
21
-21.464997
31
0
39
0
210
0
220
0
230
1
0
LINE
5
214
100
AcDbEntity
8
SK2
62
256
6
ByLayer
370
-1
48
1
60
0
100
AcDbLine
10
86.85
20
24.965
30
0
11
87.787822
21
21.465003
31
0
39
0
210
0
220
0
230
1
0
LINE
5
215
100
AcDbEntity
8
SK2
62
256
6
ByLayer
370
-1
48
1
60
0
100
AcDbLine
10
86.85
20
24.965
30
0
11
85.912178
21
21.464997
31
0
39
0
210
0
220
0
230
1
0
LINE
5
216
100
AcDbEntity
8
SK2
62
256
6
ByLayer
370
-1
48
1
60
0
100
AcDbLine
10
87.787822
20
21.465003
30
0
11
85.912178
21
21.464997
31
0
39
0
210
0
220
0
230
1
0
ENDBLK
5
218
100
AcDbEntity
8
0
100
AcDbBlockEnd
0
BLOCK
5
225
100
AcDbEntity
8
0
100
AcDbBlockBegin
2
DimnDraft3D4
70
0
10
0
20
0
30
0
3
DimnDraft3D4
0
MTEXT
5
21B
100
AcDbEntity
8
2
62
256
6
ByLayer
370
-1
48
1
60
0
100
AcDbMText
10
60.875
20
40.69
30
0
210
0
220
0
230
1
1
\W01.000;\fsimplex.shx,bigfont.shx;6.0 
40
3.5
41
0
44
1.084337
50
0
71
7
72
5
7
DEFAULT
0
LINE
5
21C
100
AcDbEntity
8
2
62
256
6
ByLayer
370
-1
48
1
60
0
100
AcDbLine
10
50
20
24.965
30
0
11
50
21
41.815
31
0
39
0
210
0
220
0
230
1
0
LINE
5
21D
100
AcDbEntity
8
2
62
256
6
ByLayer
370
-1
48
1
60
0
100
AcDbLine
10
44
20
24.965
30
0
11
44
21
41.815
31
0
39
0
210
0
220
0
230
1
0
LINE
5
21E
100
AcDbEntity
8
2
62
256
6
ByLayer
370
-1
48
1
60
0
100
AcDbLine
10
35.25
20
39.815
30
0
11
65.461842
21
39.815
31
0
39
0
210
0
220
0
230
1
0
LINE
5
21F
100
AcDbEntity
8
2
62
256
6
ByLayer
370
-1
48
1
60
0
100
AcDbLine
10
50
20
39.815
30
0
11
53.499997
21
40.752822
31
0
39
0
210
0
220
0
230
1
0
LINE
5
220
100
AcDbEntity
8
2
62
256
6
ByLayer
370
-1
48
1
60
0
100
AcDbLine
10
50
20
39.815
30
0
11
53.500003
21
38.877178
31
0
39
0
210
0
220
0
230
1
0
LINE
5
221
100
AcDbEntity
8
2
62
256
6
ByLayer
370
-1
48
1
60
0
100
AcDbLine
10
53.499997
20
40.752822
30
0
11
53.500003
21
38.877178
31
0
39
0
210
0
220
0
230
1
0
LINE
5
222
100
AcDbEntity
8
2
62
256
6
ByLayer
370
-1
48
1
60
0
100
AcDbLine
10
44
20
39.815
30
0
11
40.500003
21
38.877178
31
0
39
0
210
0
220
0
230
1
0
LINE
5
223
100
AcDbEntity
8
2
62
256
6
ByLayer
370
-1
48
1
60
0
100
AcDbLine
10
44
20
39.815
30
0
11
40.499997
21
40.752822
31
0
39
0
210
0
220
0
230
1
0
LINE
5
224
100
AcDbEntity
8
2
62
256
6
ByLayer
370
-1
48
1
60
0
100
AcDbLine
10
40.500003
20
38.877178
30
0
11
40.499997
21
40.752822
31
0
39
0
210
0
220
0
230
1
0
ENDBLK
5
226
100
AcDbEntity
8
0
100
AcDbBlockEnd
0
BLOCK
5
233
100
AcDbEntity
8
0
100
AcDbBlockBegin
2
DimnDraft3D5
70
0
10
0
20
0
30
0
3
DimnDraft3D5
0
MTEXT
5
229
100
AcDbEntity
8
SK2
62
256
6
ByLayer
370
-1
48
1
60
0
100
AcDbMText
10
21.859211
20
60.69
30
0
210
0
220
0
230
1
1
\W01.000;\fsimplex.shx,bigfont.shx;50.0 
40
3.5
41
0
44
1.084337
50
0
71
7
72
5
7
DEFAULT
0
LINE
5
22A
100
AcDbEntity
8
SK2
62
256
6
ByLayer
370
-1
48
1
60
0
100
AcDbLine
10
50
20
24.965
30
0
11
50
21
61.815
31
0
39
0
210
0
220
0
230
1
0
LINE
5
22B
100
AcDbEntity
8
SK2
62
256
6
ByLayer
370
-1
48
1
60
0
100
AcDbLine
10
0
20
21.5
30
0
11
0
21
61.815
31
0
39
0
210
0
220
0
230
1
0
LINE
5
22C
100
AcDbEntity
8
SK2
62
256
6
ByLayer
370
-1
48
1
60
0
100
AcDbLine
10
50
20
59.815
30
0
11
0
21
59.815
31
0
39
0
210
0
220
0
230
1
0
LINE
5
22D
100
AcDbEntity
8
SK2
62
256
6
ByLayer
370
-1
48
1
60
0
100
AcDbLine
10
50
20
59.815
30
0
11
46.500003
21
58.877178
31
0
39
0
210
0
220
0
230
1
0
LINE
5
22E
100
AcDbEntity
8
SK2
62
256
6
ByLayer
370
-1
48
1
60
0
100
AcDbLine
10
50
20
59.815
30
0
11
46.499997
21
60.752822
31
0
39
0
210
0
220
0
230
1
0
LINE
5
22F
100
AcDbEntity
8
SK2
62
256
6
ByLayer
370
-1
48
1
60
0
100
AcDbLine
10
46.500003
20
58.877178
30
0
11
46.499997
21
60.752822
31
0
39
0
210
0
220
0
230
1
0
LINE
5
230
100
AcDbEntity
8
SK2
62
256
6
ByLayer
370
-1
48
1
60
0
100
AcDbLine
10
0
20
59.815
30
0
11
3.499997
21
60.752822
31
0
39
0
210
0
220
0
230
1
0
LINE
5
231
100
AcDbEntity
8
SK2
62
256
6
ByLayer
370
-1
48
1
60
0
100
AcDbLine
10
0
20
59.815
30
0
11
3.500003
21
58.877178
31
0
39
0
210
0
220
0
230
1
0
LINE
5
232
100
AcDbEntity
8
SK2
62
256
6
ByLayer
370
-1
48
1
60
0
100
AcDbLine
10
3.499997
20
60.752822
30
0
11
3.500003
21
58.877178
31
0
39
0
210
0
220
0
230
1
0
ENDBLK
5
234
100
AcDbEntity
8
0
100
AcDbBlockEnd
0
ENDSEC
0
SECTION
2
ENTITIES
0
ARC
5
B7
100
AcDbEntity
8
1
62
256
6
ByLayer
370
-1
48
1
60
0
100
AcDbCircle
39
0
10
-14
20
-22.3
30
0
40
0.800000000000003
210
0
220
0
230
-1
100
AcDbArc
50
90
51
90.631655
0
ARC
5
B8
100
AcDbEntity
8
1
62
256
6
ByLayer
370
-1
48
1
60
0
100
AcDbCircle
39
0
10
0.9
20
-21
30
0
40
0.5
210
0
220
0
230
1
100
AcDbArc
50
180
51
270
0
ARC
5
B9
100
AcDbEntity
8
1
62
256
6
ByLayer
370
-1
48
1
60
0
100
AcDbCircle
39
0
10
0.9
20
21
30
0
40
0.5
210
0
220
0
230
1
100
AcDbArc
50
90
51
180
0
ARC
5
BA
100
AcDbEntity
8
1
62
256
6
ByLayer
370
-1
48
1
60
0
100
AcDbCircle
39
0
10
-14
20
22.3
30
0
40
0.800000000000003
210
0
220
0
230
-1
100
AcDbArc
50
269.368345
51
270
0
ELLIPSE
5
BB
100
AcDbEntity
8
1
62
256
6
ByLayer
370
-1
48
1
60
0
100
AcDbEllipse
10
49.999978
20
-3.6E-05
30
0
11
176.359910948353
21
1.2118913984725
31
0
210
0
220
0
230
-1
40
0.122592
41
1.63987000142224
42
1.65110532177707
0
ELLIPSE
5
BC
100
AcDbEntity
8
1
62
256
6
ByLayer
370
-1
48
1
60
0
100
AcDbEllipse
10
40.081045
20
16.257713
30
0
11
0.168859040130786
21
1.39789199373878
31
0
210
0
220
0
230
-1
40
0.670081
41
-2.70698041983928
42
-2.42611230398296
0
ELLIPSE
5
BD
100
AcDbEntity
8
1
62
256
6
ByLayer
370
-1
48
1
60
0
100
AcDbEllipse
10
44.962432
20
-19.281237
30
0
11
-0.593876373003394
21
-1.32280416297664
31
0
210
0
220
0
230
1
40
0.991037
41
0
42
6.28318530717959
0
ELLIPSE
5
BE
100
AcDbEntity
8
1
62
256
6
ByLayer
370
-1
48
1
60
0
100
AcDbEllipse
10
40.406824
20
2.050743
30
0
11
0.221745631953214
21
1.48369029141869
31
0
210
0
220
0
230
-1
40
0.789567
41
-0.679628033865648
42
-0.667007976619344
0
ELLIPSE
5
BF
100
AcDbEntity
8
1
62
256
6
ByLayer
370
-1
48
1
60
0
100
AcDbEllipse
10
40.191705
20
4.378007
30
0
11
-0.215016103769269
21
-1.23136837506892
31
0
210
0
220
0
230
1
40
0.965399
41
2.19259034686955
42
2.87016382487113
0
ELLIPSE
5
C0
100
AcDbEntity
8
1
62
256
6
ByLayer
370
-1
48
1
60
0
100
AcDbEllipse
10
39.078601
20
-3.03352
30
0
11
5.9558713909809
21
-0.72636463649784
31
0
210
0
220
0
230
-1
40
0.415541
41
1.22366318710181
42
1.63999542334541
0
ELLIPSE
5
C1
100
AcDbEntity
8
1
62
256
6
ByLayer
370
-1
48
1
60
0
100
AcDbEllipse
10
42.686569
20
-2.323642
30
0
11
-0.365573793656575
21
-2.97764265844502
31
0
210
0
220
0
230
1
40
0.00168
41
-2.40043277368583
42
-0.82265365939366
0
ELLIPSE
5
C2
100
AcDbEntity
8
1
62
256
6
ByLayer
370
-1
48
1
60
0
100
AcDbEllipse
10
45.839835
20
-19.771697
30
0
11
2.39178967762158
21
-0.796437697719269
31
0
210
0
220
0
230
-1
40
0.991622
41
3.04784397843359
42
-1.16750397372996
0
ELLIPSE
5
C3
100
AcDbEntity
8
1
62
256
6
ByLayer
370
-1
48
1
60
0
100
AcDbEllipse
10
43.03999
20
32.454289
30
0
11
-3.01818096806876E-15
21
18.7681145747869
31
0
210
0
220
0
230
1
40
0.992546
41
2.19599707792068
42
2.2909694664335
0
ELLIPSE
5
C4
100
AcDbEntity
8
1
62
256
6
ByLayer
370
-1
48
1
60
0
100
AcDbEllipse
10
44.044723
20
18.954289
30
0
11
-1.15259653211786E-15
21
-6.27465050855049
31
0
210
0
220
0
230
1
40
0.992546
41
-1.91986217719376
42
-1.0902261823717
0
ELLIPSE
5
C5
100
AcDbEntity
8
1
62
256
6
ByLayer
370
-1
48
1
60
0
100
AcDbEllipse
10
39.784848
20
16.076637
30
0
11
0.810080973988258
21
1.00364144681633
31
0
210
0
220
0
230
-1
40
0.965155
41
-2.6516476790681
42
-2.25070860758591
0
ELLIPSE
5
C6
100
AcDbEntity
8
1
62
256
6
ByLayer
370
-1
48
1
60
0
100
AcDbEllipse
10
40.731174
20
4.339742
30
0
11
0.135302446019976
21
1.24265572388374
31
0
210
0
220
0
230
1
40
0.708228
41
0.639760290756288
42
1.097926727522
0
ELLIPSE
5
C7
100
AcDbEntity
8
1
62
256
6
ByLayer
370
-1
48
1
60
0
100
AcDbEllipse
10
39.534771
20
0.724641
30
0
11
1.13772029391427
21
9.26386710334886
31
0
210
0
220
0
230
-1
40
0.642847
41
2.79250160764285
42
3.05813737142896
0
ELLIPSE
5
C8
100
AcDbEntity
8
1
62
256
6
ByLayer
370
-1
48
1
60
0
100
AcDbEllipse
10
49.999301
20
7E-05
30
0
11
176.355371765101
21
-21.651720913186
31
0
210
0
220
0
230
-1
40
0.001668
41
1.63882076502682
42
1.65005637672157
0
ELLIPSE
5
C9
100
AcDbEntity
8
1
62
256
6
ByLayer
370
-1
48
1
60
0
100
AcDbEllipse
10
39.757543
20
-3.08305
30
0
11
-0.513214929372737
21
-3.96693968145079
31
0
210
0
220
0
230
1
40
0.427594
41
0.93739643100822
42
1.6278006478029
0
ELLIPSE
5
CA
100
AcDbEntity
8
1
62
256
6
ByLayer
370
-1
48
1
60
0
100
AcDbEllipse
10
39.69187
20
16.019796
30
0
11
-0.651986915995138
21
1.06649569214843
31
0
210
0
220
0
230
1
40
0.936422
41
1.43524198908261
42
1.81893419700099
0
ELLIPSE
5
CB
100
AcDbEntity
8
1
62
256
6
ByLayer
370
-1
48
1
60
0
100
AcDbEllipse
10
45.137891
20
-19.456558
30
0
11
1.02392478104033
21
2.28069683271835
31
0
210
0
220
0
230
1
40
0.991037
41
2.75388912353693
42
-3.094087369472
0
ELLIPSE
5
CC
100
AcDbEntity
8
1
62
256
6
ByLayer
370
-1
48
1
60
0
100
AcDbEllipse
10
45.137891
20
-19.456558
30
0
11
1.02392478104033
21
2.28069683271835
31
0
210
0
220
0
230
1
40
0.991037
41
-3.094087369472
42
-0.155421837024945
0
ELLIPSE
5
CD
100
AcDbEntity
8
1
62
256
6
ByLayer
370
-1
48
1
60
0
100
AcDbEllipse
10
41.770387
20
4.226591
30
0
11
0.135302446019976
21
1.24265572388374
31
0
210
0
220
0
230
1
40
0.708228
41
0.896162391945942
42
1.09223713072734
0
ELLIPSE
5
CE
100
AcDbEntity
8
1
62
256
6
ByLayer
370
-1
48
1
60
0
100
AcDbEllipse
10
39.130398
20
20.712509
30
0
11
-1.41076497428718
21
0.509649082530792
31
0
210
0
220
0
230
1
40
0.041682
41
-1.05403757758746
42
-0.828527915319256
0
ELLIPSE
5
CF
100
AcDbEntity
8
1
62
256
6
ByLayer
370
-1
48
1
60
0
100
AcDbEllipse
10
40.766942
20
41.139323
30
0
11
-1.59861006068249E-15
21
26.1081457840347
31
0
210
0
220
0
230
-1
40
0.760334
41
-2.50943632247151
42
-2.42424793969914
0
ELLIPSE
5
D0
100
AcDbEntity
8
1
62
256
6
ByLayer
370
-1
48
1
60
0
100
AcDbEllipse
10
39.728431
20
16.019796
30
0
11
-2.22902746259147E-16
21
-1.21346610995116
31
0
210
0
220
0
230
1
40
0.992546
41
-1.18127486608739
42
-0.78539816339744
0
ELLIPSE
5
D1
100
AcDbEntity
8
1
62
256
6
ByLayer
370
-1
48
1
60
0
100
AcDbEllipse
10
43.052177
20
32.454289
30
0
11
-3.30643715532042E-15
21
-18
31
0
210
0
220
0
230
1
40
0.992546
41
-0.91497644867136
42
-0.220367665214919
0
ELLIPSE
5
D2
100
AcDbEntity
8
1
62
256
6
ByLayer
370
-1
48
1
60
0
100
AcDbEllipse
10
43.03999
20
0.30629
30
0
11
-18.6281935924912
21
2.28747200485557
31
0
210
0
220
0
230
1
40
0.013685
41
-0.718492687900975
42
-0.623520299388253
0
ELLIPSE
5
D3
100
AcDbEntity
8
1
62
256
6
ByLayer
370
-1
48
1
60
0
100
AcDbEllipse
10
31.547516
20
-2.020894
30
0
11
12.103767706076
21
-4.37945815993018
31
0
210
0
220
0
230
-1
40
0.228086
41
-0.528958625595827
42
-0.138608600348193
0
ELLIPSE
5
D4
100
AcDbEntity
8
1
62
256
6
ByLayer
370
-1
48
1
60
0
100
AcDbEllipse
10
45.670173
20
-0.652329
30
0
11
-0.190195690095476
21
-1.48789300672767
31
0
210
0
220
0
230
1
40
0.340409
41
1.90816198220696
42
2.16620278101168
0
ELLIPSE
5
D5
100
AcDbEntity
8
1
62
256
6
ByLayer
370
-1
48
1
60
0
100
AcDbEllipse
10
39.69187
20
16.019796
30
0
11
0.887183758581781
21
0.88057082537903
31
0
210
0
220
0
230
1
40
0.086175
41
-2.81262218045084
42
-2.79318864369065
0
ELLIPSE
5
D6
100
AcDbEntity
8
1
62
256
6
ByLayer
370
-1
48
1
60
0
100
AcDbEllipse
10
39.69187
20
16.019796
30
0
11
1.48413270211736
21
-0.179276528239107
31
0
210
0
220
0
230
-1
40
0.71497
41
1.54220058379875
42
2.05792355014052
0
ELLIPSE
5
D7
100
AcDbEntity
8
1
62
256
6
ByLayer
370
-1
48
1
60
0
100
AcDbEllipse
10
38.945172
20
-2.981223
30
0
11
-0.48265258497986
21
-3.97077404068933
31
0
210
0
220
0
230
1
40
0.08927
41
-2.49136731818967
42
-0.888300950003384
0
ELLIPSE
5
D8
100
AcDbEntity
8
1
62
256
6
ByLayer
370
-1
48
1
60
0
100
AcDbEllipse
10
49.999989
20
1.9E-05
30
0
11
176.360042595185
21
1.41994456211272E-06
31
0
210
0
220
0
230
-1
40
0.122785
41
-1.65026293336596
42
-1.63902761738572
0
ELLIPSE
5
D9
100
AcDbEntity
8
1
62
256
6
ByLayer
370
-1
48
1
60
0
100
AcDbEllipse
10
40.279465
20
-3.504195
30
0
11
23.8217030001373
21
-2.9201486098148
31
0
210
0
220
0
230
-1
40
0.090487
41
1.64012428425251
42
2.40236045188558
0
ELLIPSE
5
DA
100
AcDbEntity
8
1
62
256
6
ByLayer
370
-1
48
1
60
0
100
AcDbEllipse
10
44.044723
20
-18.965777
30
0
11
2.4574194744968
21
5.47367239852404
31
0
210
0
220
0
230
1
40
0.991037
41
2.46601122696493
42
-0.588500370856144
0
ELLIPSE
5
DB
100
AcDbEntity
8
1
62
256
6
ByLayer
370
-1
48
1
60
0
100
AcDbEllipse
10
44.044723
20
-18.965777
30
0
11
2.4574194744968
21
5.47367239852404
31
0
210
0
220
0
230
1
40
0.991037
41
-0.373497657907156
42
0
0
ELLIPSE
5
DC
100
AcDbEntity
8
1
62
256
6
ByLayer
370
-1
48
1
60
0
100
AcDbEllipse
10
44.044723
20
-18.965777
30
0
11
2.4574194744968
21
5.47367239852404
31
0
210
0
220
0
230
1
40
0.991037
41
0
42
1.98942489919128
0
ELLIPSE
5
DD
100
AcDbEntity
8
1
62
256
6
ByLayer
370
-1
48
1
60
0
100
AcDbEllipse
10
44.439552
20
-20.434745
30
0
11
3.87296078267555
21
2.52341314889531
31
0
210
0
220
0
230
-1
40
0.8683
41
1.95570894359623
42
2.99387155525952
0
ELLIPSE
5
DE
100
AcDbEntity
8
1
62
256
6
ByLayer
370
-1
48
1
60
0
100
AcDbEllipse
10
44.528544
20
-19.18299
30
0
11
2.02173608321112
21
4.50322832980676
31
0
210
0
220
0
230
1
40
0.991037
41
-1.69625340249368
42
-1.11822465315278
0
ELLIPSE
5
DF
100
AcDbEntity
8
1
62
256
6
ByLayer
370
-1
48
1
60
0
100
AcDbEllipse
10
45.584594
20
-20.118347
30
0
11
2.22745798486557
21
3.7031273234359
31
0
210
0
220
0
230
-1
40
0.88765
41
1.31799100930582
42
2.35615362096921
0
ELLIPSE
5
E0
100
AcDbEntity
8
1
62
256
6
ByLayer
370
-1
48
1
60
0
100
AcDbEllipse
10
44.528544
20
-19.18299
30
0
11
2.02173608321112
21
4.50322832980676
31
0
210
0
220
0
230
1
40
0.991037
41
2.54945463068322
42
3.07056555163394
0
ELLIPSE
5
E1
100
AcDbEntity
8
1
62
256
6
ByLayer
370
-1
48
1
60
0
100
AcDbEllipse
10
43.601322
20
-19.597178
30
0
11
4.94118637954759
21
-0.0367607489368894
31
0
210
0
220
0
230
-1
40
0.857874
41
2.39097568418254
42
2.59886772862498
0
ELLIPSE
5
E2
100
AcDbEntity
8
1
62
256
6
ByLayer
370
-1
48
1
60
0
100
AcDbEllipse
10
45.891407
20
-18.964383
30
0
11
0.788010454397006
21
4.31720207708601
31
0
210
0
220
0
230
-1
40
0.882331
41
0.765973049283126
42
1.59833624713192
0
ELLIPSE
5
E3
100
AcDbEntity
8
1
62
256
6
ByLayer
370
-1
48
1
60
0
100
AcDbEllipse
10
44.528544
20
-19.18299
30
0
11
2.02173608321112
21
4.50322832980676
31
0
210
0
220
0
230
1
40
0.991037
41
-2.74345095369027
42
-2.16542220434938
0
ELLIPSE
5
E4
100
AcDbEntity
8
1
62
256
6
ByLayer
370
-1
48
1
60
0
100
AcDbEllipse
10
43.601322
20
6.32
30
0
11
4.91397825255863
21
3.86374296902923
31
0
210
0
220
0
230
-1
40
0.134269
41
2.50254104434652
42
2.8169261027265
0
ELLIPSE
5
E5
100
AcDbEntity
8
1
62
256
6
ByLayer
370
-1
48
1
60
0
100
AcDbEllipse
10
44.439552
20
6.205445
30
0
11
3.62336705792546
21
3.39611206626183
31
0
210
0
220
0
230
-1
40
0.760574
41
2.06017595023851
42
3.0983385619017
0
ELLIPSE
5
E6
100
AcDbEntity
8
1
62
256
6
ByLayer
370
-1
48
1
60
0
100
AcDbEllipse
10
44.528544
20
4.409845
30
0
11
-4.89944079109201
21
0.601632874031754
31
0
210
0
220
0
230
1
40
0.013685
41
2.59245934285761
42
-3.11269721498117
0
ELLIPSE
5
E7
100
AcDbEntity
8
1
62
256
6
ByLayer
370
-1
48
1
60
0
100
AcDbEllipse
10
44.044723
20
0.469811
30
0
11
-5.95526850124296
21
0.731284539767855
31
0
210
0
220
0
230
1
40
0.013685
41
0.322689196448087
42
-3.13796413538302
0
ELLIPSE
5
E8
100
AcDbEntity
8
1
62
256
6
ByLayer
370
-1
48
1
60
0
100
AcDbEllipse
10
45.584594
20
6.069126
30
0
11
3.48937995863479
21
-4.6497032216289
31
0
210
0
220
0
230
-1
40
0.407535
41
-0.154737490978863
42
0.883425120684067
0
ELLIPSE
5
E9
100
AcDbEntity
8
1
62
256
6
ByLayer
370
-1
48
1
60
0
100
AcDbEllipse
10
45.891407
20
6.047364
30
0
11
3.8438859262381
21
-4.91410731713733
31
0
210
0
220
0
230
-1
40
0.121334
41
-0.385421758581293
42
-0.206874168409097
0
ELLIPSE
5
EA
100
AcDbEntity
8
1
62
256
6
ByLayer
370
-1
48
1
60
0
100
AcDbEllipse
10
44.528544
20
4.409845
30
0
11
-4.89944079109201
21
0.601632874031754
31
0
210
0
220
0
230
1
40
0.013685
41
1.545261791661
42
2.12329054100189
0
ELLIPSE
5
EB
100
AcDbEntity
8
1
62
256
6
ByLayer
370
-1
48
1
60
0
100
AcDbEllipse
10
44.528544
20
-3.883821
30
0
11
4.89938538641941
21
0.602083894380125
31
0
210
0
220
0
230
1
40
0.041044
41
-1.0495254012748
42
-0.501427663485312
0
ELLIPSE
5
EC
100
AcDbEntity
8
1
62
256
6
ByLayer
370
-1
48
1
60
0
100
AcDbEllipse
10
45.053178
20
-5.666376
30
0
11
3.0260198205836
21
3.7793828143917
31
0
210
0
220
0
230
-1
40
0.755638
41
-0.385234108640271
42
-0.150090153518223
0
ELLIPSE
5
ED
100
AcDbEntity
8
1
62
256
6
ByLayer
370
-1
48
1
60
0
100
AcDbEllipse
10
44.044723
20
0.053217
30
0
11
5.95520115688354
21
0.73183275483741
31
0
210
0
220
0
230
1
40
0.041044
41
-0.219972791252989
42
-5.97344925619796E-15
0
ELLIPSE
5
EE
100
AcDbEntity
8
1
62
256
6
ByLayer
370
-1
48
1
60
0
100
AcDbEllipse
10
44.044723
20
0.053217
30
0
11
5.95520115688354
21
0.73183275483741
31
0
210
0
220
0
230
1
40
0.041044
41
0
42
0.221518983393736
0
ELLIPSE
5
EF
100
AcDbEntity
8
1
62
256
6
ByLayer
370
-1
48
1
60
0
100
AcDbEllipse
10
45.891407
20
-5.528619
30
0
11
3.85257522439456
21
4.88816813864005
31
0
210
0
220
0
230
-1
40
0.109907
41
-0.668072470726918
42
0.370090140935868
0
ELLIPSE
5
F0
100
AcDbEntity
8
1
62
256
6
ByLayer
370
-1
48
1
60
0
100
AcDbEllipse
10
44.528544
20
4.409845
30
0
11
-4.89944079109201
21
0.601632874031754
31
0
210
0
220
0
230
1
40
0.013685
41
-0.549133310732216
42
-0.298313809592375
0
ELLIPSE
5
F1
100
AcDbEntity
8
1
62
256
6
ByLayer
370
-1
48
1
60
0
100
AcDbEllipse
10
44.528544
20
4.409845
30
0
11
-4.89944079109201
21
0.601632874031754
31
0
210
0
220
0
230
1
40
0.013685
41
0.498064240464405
42
1.07609298980563
0
ELLIPSE
5
F2
100
AcDbEntity
8
1
62
256
6
ByLayer
370
-1
48
1
60
0
100
AcDbEllipse
10
45.097928
20
-19.438616
30
0
11
0.552919381761779
21
1.23157628966791
31
0
210
0
220
0
230
1
40
0.991037
41
1.9894249324681
42
3.10954679114423
0
ELLIPSE
5
F3
100
AcDbEntity
8
1
62
256
6
ByLayer
370
-1
48
1
60
0
100
AcDbEllipse
10
45.097928
20
-19.438616
30
0
11
0.552919381761779
21
1.23157628966791
31
0
210
0
220
0
230
1
40
0.991037
41
-0.688049291858642
42
0
0
ELLIPSE
5
F4
100
AcDbEntity
8
1
62
256
6
ByLayer
370
-1
48
1
60
0
100
AcDbEllipse
10
45.097928
20
-19.438616
30
0
11
0.552919381761779
21
1.23157628966791
31
0
210
0
220
0
230
1
40
0.991037
41
0
42
1.98942462100301
0
ELLIPSE
5
F5
100
AcDbEntity
8
1
62
256
6
ByLayer
370
-1
48
1
60
0
100
AcDbEllipse
10
44.044723
20
18.954289
30
0
11
-9.64885723403475E-16
21
6
31
0
210
0
220
0
230
1
40
0.992546
41
-2.35619452144438
42
-1.57079643049215
0
ELLIPSE
5
F6
100
AcDbEntity
8
1
62
256
6
ByLayer
370
-1
48
1
60
0
100
AcDbEllipse
10
44.044723
20
18.954289
30
0
11
-9.64885723403475E-16
21
6
31
0
210
0
220
0
230
1
40
0.992546
41
-2.39526806086179
42
-2.35619452144438
0
ELLIPSE
5
F7
100
AcDbEntity
8
1
62
256
6
ByLayer
370
-1
48
1
60
0
100
AcDbEllipse
10
44.044723
20
18.954289
30
0
11
-9.64885723403475E-16
21
6
31
0
210
0
220
0
230
1
40
0.992546
41
-1.57079626382547
42
0
0
ELLIPSE
5
F8
100
AcDbEntity
8
1
62
256
6
ByLayer
370
-1
48
1
60
0
100
AcDbEllipse
10
44.044723
20
18.954289
30
0
11
-9.64885723403475E-16
21
6
31
0
210
0
220
0
230
1
40
0.992546
41
0
42
2.39399178116072
0
ELLIPSE
5
F9
100
AcDbEntity
8
1
62
256
6
ByLayer
370
-1
48
1
60
0
100
AcDbEllipse
10
44.203826
20
18.954289
30
0
11
-4.70142439994029E-16
21
2.92351163619053
31
0
210
0
220
0
230
1
40
0.992546
41
0
42
6.28318530717959
0
ELLIPSE
5
FA
100
AcDbEntity
8
1
62
256
6
ByLayer
370
-1
48
1
60
0
100
AcDbEllipse
10
44.044723
20
18.954289
30
0
11
-4.993261741809E-16
21
3.10498639623111
31
0
210
0
220
0
230
1
40
0.992546
41
0
42
6.28318530717959
0
ELLIPSE
5
FB
100
AcDbEntity
8
1
62
256
6
ByLayer
370
-1
48
1
60
0
100
AcDbEllipse
10
44.174184
20
18.954289
30
0
11
-5.53285956757193E-16
21
-3.01204793976021
31
0
210
0
220
0
230
1
40
0.992546
41
-1.57079629928044
42
0
0
ELLIPSE
5
FC
100
AcDbEntity
8
1
62
256
6
ByLayer
370
-1
48
1
60
0
100
AcDbEllipse
10
44.174184
20
18.954289
30
0
11
-5.53285956757193E-16
21
-3.01204793976021
31
0
210
0
220
0
230
1
40
0.992546
41
0
42
0.377187455009918
0
ELLIPSE
5
FD
100
AcDbEntity
8
1
62
256
6
ByLayer
370
-1
48
1
60
0
100
AcDbEllipse
10
44.174184
20
18.954289
30
0
11
-5.53285956757193E-16
21
-3.01204793976021
31
0
210
0
220
0
230
1
40
0.992546
41
0.377187565780978
42
0.778035234873553
0
ELLIPSE
5
FE
100
AcDbEntity
8
1
62
256
6
ByLayer
370
-1
48
1
60
0
100
AcDbEllipse
10
44.174184
20
18.954289
30
0
11
-5.53285956757193E-16
21
-3.01204793976021
31
0
210
0
220
0
230
1
40
0.992546
41
2.36355758442841
42
2.74398465724528
0
ELLIPSE
5
FF
100
AcDbEntity
8
1
62
256
6
ByLayer
370
-1
48
1
60
0
100
AcDbEllipse
10
44.174184
20
18.954289
30
0
11
-5.53285956757193E-16
21
-3.01204793976021
31
0
210
0
220
0
230
1
40
0.992546
41
2.74398499136116
42
-2.35619434077795
0
ELLIPSE
5
100
100
AcDbEntity
8
1
62
256
6
ByLayer
370
-1
48
1
60
0
100
AcDbEllipse
10
44.174184
20
18.954289
30
0
11
-5.53285956757193E-16
21
-3.01204793976021
31
0
210
0
220
0
230
1
40
0.992546
41
0
42
6.28318530717959
0
ELLIPSE
5
101
100
AcDbEntity
8
1
62
256
6
ByLayer
370
-1
48
1
60
0
100
AcDbEllipse
10
44.174184
20
18.954289
30
0
11
-5.53285956757193E-16
21
-3.01204793976021
31
0
210
0
220
0
230
1
40
0.992546
41
-2.35619434077796
42
-1.57079629928046
0
ELLIPSE
5
102
100
AcDbEntity
8
1
62
256
6
ByLayer
370
-1
48
1
60
0
100
AcDbEllipse
10
43.23123
20
20.003141
30
0
11
0.275937549885229
21
0.279325298769356
31
0
210
0
220
0
230
-1
40
0.489701
41
0.165342589934374
42
1.57561605139557
0
ELLIPSE
5
103
100
AcDbEntity
8
1
62
256
6
ByLayer
370
-1
48
1
60
0
100
AcDbEllipse
10
44.653308
20
20.387047
30
0
11
0.377712021631099
21
-0.10245434681906
31
0
210
0
220
0
230
-1
40
0.492901
41
0.158087208354565
42
1.06769140313803
0
ELLIPSE
5
104
100
AcDbEntity
8
1
62
256
6
ByLayer
370
-1
48
1
60
0
100
AcDbEllipse
10
44.080319
20
18.954289
30
0
11
-2.69589071118931E-16
21
1.6764
31
0
210
0
220
0
230
1
40
0.992546
41
-0.785398163397448
42
0.261799387799156
0
ELLIPSE
5
105
100
AcDbEntity
8
1
62
256
6
ByLayer
370
-1
48
1
60
0
100
AcDbEllipse
10
44.272263
20
18.954289
30
0
11
-2.37016436750552E-16
21
-1.2903
31
0
210
0
220
0
230
1
40
0.992546
41
-0.26179938779915
42
0.475100286412929
0
ELLIPSE
5
106
100
AcDbEntity
8
1
62
256
6
ByLayer
370
-1
48
1
60
0
100
AcDbEllipse
10
44.080319
20
18.954289
30
0
11
-2.69589071118931E-16
21
1.6764
31
0
210
0
220
0
230
1
40
0.992546
41
-1.83259571459403
42
-0.785398163397448
0
ELLIPSE
5
107
100
AcDbEntity
8
1
62
256
6
ByLayer
370
-1
48
1
60
0
100
AcDbEllipse
10
42.850185
20
18.570383
30
0
11
0.100798747173096
21
-0.38078940721941
31
0
210
0
220
0
230
-1
40
0.486555
41
-1.57318104467131
42
-0.162907583209992
0
ELLIPSE
5
108
100
AcDbEntity
8
1
62
256
6
ByLayer
370
-1
48
1
60
0
100
AcDbEllipse
10
43.891218
20
17.521531
30
0
11
0.377712021631611
21
-0.102454346819026
31
0
210
0
220
0
230
-1
40
0.492901
41
-1.57323198377427
42
-0.162958522315493
0
ELLIPSE
5
109
100
AcDbEntity
8
1
62
256
6
ByLayer
370
-1
48
1
60
0
100
AcDbEllipse
10
44.080319
20
18.954289
30
0
11
-3.30643715532042E-16
21
-1.8
31
0
210
0
220
0
230
1
40
0.992546
41
0
42
6.28318530717959
0
ELLIPSE
5
10A
100
AcDbEntity
8
1
62
256
6
ByLayer
370
-1
48
1
60
0
100
AcDbEllipse
10
44.272263
20
18.954289
30
0
11
-2.37016436750552E-16
21
-1.2903
31
0
210
0
220
0
230
1
40
0.992546
41
0.957237121278295
42
1.57732520571867
0
ELLIPSE
5
10B
100
AcDbEntity
8
1
62
256
6
ByLayer
370
-1
48
1
60
0
100
AcDbEllipse
10
44.263123
20
18.954289
30
0
11
-4.82188751817561E-16
21
-2.625
31
0
210
0
220
0
230
1
40
0.992546
41
-0.78539812522846
42
0
0
ELLIPSE
5
10C
100
AcDbEntity
8
1
62
256
6
ByLayer
370
-1
48
1
60
0
100
AcDbEllipse
10
44.263123
20
18.954289
30
0
11
-4.82188751817561E-16
21
-2.625
31
0
210
0
220
0
230
1
40
0.992546
41
0
42
-3.14159254059112
0
ELLIPSE
5
10D
100
AcDbEntity
8
1
62
256
6
ByLayer
370
-1
48
1
60
0
100
AcDbEllipse
10
43.23123
20
20.003141
30
0
11
0.275937549885823
21
0.279325298769637
31
0
210
0
220
0
230
-1
40
0.489701
41
1.57561605139428
42
2.6910087049337
0
ELLIPSE
5
10E
100
AcDbEntity
8
1
62
256
6
ByLayer
370
-1
48
1
60
0
100
AcDbEllipse
10
43.231159
20
17.905367
30
0
11
0.275937549885785
21
-0.279325298769527
31
0
210
0
220
0
230
-1
40
0.489701
41
0.829282752327669
42
-3.08926726847647
0
ELLIPSE
5
10F
100
AcDbEntity
8
1
62
256
6
ByLayer
370
-1
48
1
60
0
100
AcDbEllipse
10
42.850185
20
18.570383
30
0
11
0.100798747173463
21
-0.380789407220024
31
0
210
0
220
0
230
-1
40
0.486555
41
-2.98345450612944
42
-1.57318104467002
0
ELLIPSE
5
110
100
AcDbEntity
8
1
62
256
6
ByLayer
370
-1
48
1
60
0
100
AcDbEllipse
10
45.313367
20
20.003211
30
0
11
0.275937549885785
21
-0.279325298769524
31
0
210
0
220
0
230
-1
40
0.489701
41
3.07962781927839
42
-3.07164101755504
0
ELLIPSE
5
111
100
AcDbEntity
8
1
62
256
6
ByLayer
370
-1
48
1
60
0
100
AcDbEllipse
10
44.653334
20
17.521435
30
0
11
0.377712021631174
21
0.10245434681913
31
0
210
0
220
0
230
-1
40
0.492901
41
2.34655391278999
42
-3.08201188689687
0
ELLIPSE
5
112
100
AcDbEntity
8
1
62
256
6
ByLayer
370
-1
48
1
60
0
100
AcDbEllipse
10
44.080319
20
18.954289
30
0
11
-2.69589071118931E-16
21
1.6764
31
0
210
0
220
0
230
1
40
0.992546
41
0.261799387799156
42
1.30899693899575
0
ELLIPSE
5
113
100
AcDbEntity
8
1
62
256
6
ByLayer
370
-1
48
1
60
0
100
AcDbEllipse
10
43.891193
20
20.387144
30
0
11
0.377712021631173
21
0.102454346819136
31
0
210
0
220
0
230
-1
40
0.492901
41
3.08688320085807
42
-1.32589949761851
0
ELLIPSE
5
114
100
AcDbEntity
8
1
62
256
6
ByLayer
370
-1
48
1
60
0
100
AcDbEllipse
10
42.850089
20
19.338221
30
0
11
0.100798747173533
21
0.380789407219868
31
0
210
0
220
0
230
-1
40
0.486555
41
3.08683226175206
42
-0.442234009222783
0
ELLIPSE
5
115
100
AcDbEntity
8
1
62
256
6
ByLayer
370
-1
48
1
60
0
100
AcDbEllipse
10
44.080319
20
18.954289
30
0
11
-2.69589071118931E-16
21
1.6764
31
0
210
0
220
0
230
1
40
0.992546
41
-2.87979326579065
42
-1.83259571459403
0
ELLIPSE
5
116
100
AcDbEntity
8
1
62
256
6
ByLayer
370
-1
48
1
60
0
100
AcDbEllipse
10
44.086264
20
18.954289
30
0
11
-4.82188751817561E-16
21
-2.625
31
0
210
0
220
0
230
1
40
0.992546
41
0
42
6.28318530717959
0
ELLIPSE
5
117
100
AcDbEntity
8
1
62
256
6
ByLayer
370
-1
48
1
60
0
100
AcDbEllipse
10
44.080319
20
18.954289
30
0
11
-2.69589071118931E-16
21
1.6764
31
0
210
0
220
0
230
1
40
0.992546
41
2.35619449019235
42
-2.87979326579065
0
ELLIPSE
5
118
100
AcDbEntity
8
1
62
256
6
ByLayer
370
-1
48
1
60
0
100
AcDbEllipse
10
44.272263
20
18.954289
30
0
11
-2.37016436750552E-16
21
-1.2903
31
0
210
0
220
0
230
1
40
0.992546
41
-1.30899693899575
42
-0.26179938779915
0
ELLIPSE
5
119
100
AcDbEntity
8
1
62
256
6
ByLayer
370
-1
48
1
60
0
100
AcDbEllipse
10
44.080319
20
18.954289
30
0
11
-2.69589071118931E-16
21
1.6764
31
0
210
0
220
0
230
1
40
0.992546
41
1.30899693899575
42
2.35619449019235
0
ELLIPSE
5
11A
100
AcDbEntity
8
1
62
256
6
ByLayer
370
-1
48
1
60
0
100
AcDbEllipse
10
44.272263
20
18.954289
30
0
11
-2.37016436750552E-16
21
-1.2903
31
0
210
0
220
0
230
1
40
0.992546
41
2.14295916636308
42
2.81056393613353
0
ELLIPSE
5
11B
100
AcDbEntity
8
1
62
256
6
ByLayer
370
-1
48
1
60
0
100
AcDbEllipse
10
43.891218
20
17.521531
30
0
11
0.377712021630394
21
-0.102454346818354
31
0
210
0
220
0
230
-1
40
0.492901
41
-2.07390247203223
42
-1.57323198377252
0
ELLIPSE
5
11C
100
AcDbEntity
8
1
62
256
6
ByLayer
370
-1
48
1
60
0
100
AcDbEllipse
10
44.272263
20
18.954289
30
0
11
-2.37016436750552E-16
21
-1.2903
31
0
210
0
220
0
230
1
40
0.992546
41
3.08888947459166
42
-2.35619449019235
0
ELLIPSE
5
11D
100
AcDbEntity
8
1
62
256
6
ByLayer
370
-1
48
1
60
0
100
AcDbEllipse
10
44.272263
20
18.954289
30
0
11
-2.07498674817917E-16
21
1.2903
31
0
210
0
220
0
230
1
40
0.992546
41
0.785398163397453
42
1.83259571459404
0
POINT
5
41
100
AcDbEntity
8
81
62
256
6
ByLayer
370
-1
48
1
60
0
100
AcDbPoint
10
50
20
24.965
30
0
39
0
210
0
220
0
230
1
50
360
0
POINT
5
43
100
AcDbEntity
8
80
62
256
6
ByLayer
370
-1
48
1
60
0
100
AcDbPoint
10
0
20
0
30
0
39
0
210
0
220
0
230
1
50
360
0
SPLINE
5
11E
100
AcDbEntity
8
1
62
256
6
ByLayer
370
-1
48
1
60
0
100
AcDbSpline
70
4
71
3
72
28
73
24
40
0
40
0
40
0
40
0
40
0.0500029947647122
40
0.105853859504873
40
0.162104476871801
40
0.218616621834064
40
0.275294866749212
40
0.336615900979133
40
0.39601515051277
40
0.453562665165417
40
0.509407747841838
40
0.56362782105496
40
0.616244533553424
40
0.667230725974319
40
0.716509440967471
40
0.763943496231553
40
0.809306967109922
40
0.852211336602608
40
0.891920508624371
40
0.927072743558492
40
0.95626017416117
40
0.980135428170327
40
1
40
1
40
1
40
1
41
1
10
39.7960908269728
20
3.59707392641766
30
0
41
1
10
39.7722524822951
20
3.63461386161637
30
0
41
1
10
39.7264811780377
20
3.71625946452949
30
0
41
1
10
39.6716640337422
20
3.84941550696578
30
0
41
1
10
39.631276859029
20
3.99344976728702
30
0
41
1
10
39.6083632355509
20
4.14209688961876
30
0
41
1
10
39.6032998630931
20
4.29689635861422
30
0
41
1
10
39.6179032101097
20
4.45375010865192
30
0
41
1
10
39.6526325196814
20
4.60815596423126
30
0
41
1
10
39.7045925486591
20
4.75246280742746
30
0
41
1
10
39.7714564148256
20
4.88533831444869
30
0
41
1
10
39.8509539274763
20
5.00581885160085
30
0
41
1
10
39.9408083470103
20
5.11317764798071
30
0
41
1
10
40.0387242763044
20
5.20694495739187
30
0
41
1
10
40.1423753371508
20
5.28691690818434
30
0
41
1
10
40.2493712869462
20
5.35315671217788
30
0
41
1
10
40.3571606475739
20
5.40598647921681
30
0
41
1
10
40.4627623911752
20
5.44597218427381
30
0
41
1
10
40.5622248424072
20
5.47396598184261
30
0
41
1
10
40.650570189425
20
5.49144166932754
30
0
41
1
10
40.723713431781
20
5.50086909891974
30
0
41
1
10
40.7795473200777
20
5.50506011037902
30
0
41
1
10
40.8076873756862
20
5.50605117339941
30
0
41
1
10
40.8188392209387
20
5.50629927350124
30
0
0
SPLINE
5
11F
100
AcDbEntity
8
1
62
256
6
ByLayer
370
-1
48
1
60
0
100
AcDbSpline
70
4
71
1
72
4
73
2
40
0
40
0
40
1
40
1
41
1
10
22.3031766005507
20
21.5829975874375
30
0
41
1
10
14.008819385048
20
21.5000486149475
30
0
0
SPLINE
5
120
100
AcDbEntity
8
1
62
256
6
ByLayer
370
-1
48
1
60
0
100
AcDbSpline
70
4
71
1
72
4
73
2
40
0
40
0
40
1
40
1
41
1
10
14.008819385048
20
-21.5000486149475
30
0
41
1
10
23.0407324968223
20
-21.5860270731185
30
0
0
SPLINE
5
121
100
AcDbEntity
8
1
62
256
6
ByLayer
370
-1
48
1
60
0
100
AcDbSpline
70
4
71
1
72
4
73
2
40
0
40
0
40
1
40
1
41
1
10
41.1492032939278
20
5.10448754729748
30
0
41
1
10
41.3515877128551
20
4.81379817324935
30
0
0
SPLINE
5
122
100
AcDbEntity
8
1
62
256
6
ByLayer
370
-1
48
1
60
0
100
AcDbSpline
70
4
71
3
72
12
73
8
40
0
40
0
40
0
40
0
40
0.165779438506875
40
0.377583651107038
40
0.601786870072311
40
0.835720152800473
40
1
40
1
40
1
40
1
41
1
10
40.7054695014357
20
5.49849743618887
30
0
41
1
10
40.7343311426977
20
5.48325857389762
30
0
41
1
10
40.7991082136569
20
5.44573112804633
30
0
41
1
10
40.8971441002112
20
5.37647333491608
30
0
41
1
10
40.9976290244282
20
5.28802792729621
30
0
41
1
10
41.0824215449556
20
5.19650968014452
30
0
41
1
10
41.1289485072212
20
5.13201916998855
30
0
41
1
10
41.1470150194081
20
5.10445006258763
30
0
0
SPLINE
5
123
100
AcDbEntity
8
1
62
256
6
ByLayer
370
-1
48
1
60
0
100
AcDbSpline
70
4
71
3
72
18
73
14
40
0
40
0
40
0
40
0
40
0.125000000000002
40
0.125000000000002
40
0.250000000000004
40
0.250000000000004
40
0.500000000000004
40
0.500000000000004
40
0.625000000000003
40
0.625000000000003
40
0.750000000000002
40
0.750000000000002
40
1
40
1
40
1
40
1
41
1
10
47.6689179293472
20
14.5542891718632
30
0
41
1
10
47.7763507878208
20
14.5542891718632
30
0
41
1
10
47.877443014065
20
14.5542891718632
30
0
41
1
10
48.0676879355223
20
14.5542891718632
30
0
41
1
10
48.1569916602494
20
14.5542891718632
30
0
41
1
10
48.4037262301391
20
14.5542891718632
30
0
41
1
10
48.5418382721529
20
14.5542891718632
30
0
41
1
10
48.7156622822477
20
14.5542891718632
30
0
41
1
10
48.7680041870689
20
14.5542891718632
30
0
41
1
10
48.8621426597813
20
14.5542891718632
30
0
41
1
10
48.9040179372764
20
14.5542891718632
30
0
41
1
10
49.0140063219149
20
14.5542891718632
30
0
41
1
10
49.0659498677585
20
14.5542891718632
30
0
41
1
10
49.1000000000001
20
14.5542891718632
30
0
0
SPLINE
5
124
100
AcDbEntity
8
1
62
256
6
ByLayer
370
-1
48
1
60
0
100
AcDbSpline
70
4
71
3
72
8
73
4
40
0
40
0
40
0
40
0
40
1
40
1
40
1
40
1
41
1
10
35.9989999999988
20
-21.6478980027151
30
0
41
0.959015345778718
10
35.9989999999988
20
-21.5215443951059
30
0
41
0.959015345778718
10
35.9989999999988
20
-19.6095369515469
30
0
41
1
10
35.9989999999988
20
-16.1469645638664
30
0
0
SPLINE
5
125
100
AcDbEntity
8
1
62
256
6
ByLayer
370
-1
48
1
60
0
100
AcDbSpline
70
4
71
3
72
42
73
38
40
0
40
0
40
0
40
0
40
0.125
40
0.125
40
0.187499999999999
40
0.187499999999999
40
0.249999999999998
40
0.249999999999998
40
0.374999999999998
40
0.374999999999998
40
0.406249999999998
40
0.406249999999998
40
0.437499999999997
40
0.437499999999997
40
0.499999999999998
40
0.499999999999998
40
0.562499999999998
40
0.562499999999998
40
0.593749999999998
40
0.593749999999998
40
0.624999999999998
40
0.624999999999998
40
0.687499999999998
40
0.687499999999998
40
0.718749999999998
40
0.718749999999998
40
0.749999999999998
40
0.749999999999998
40
0.812499999999998
40
0.812499999999998
40
0.843749999999999
40
0.843749999999999
40
0.874999999999999
40
0.874999999999999
40
0.9375
40
0.9375
40
1
40
1
40
1
40
1
41
1
10
27.7172215685164
20
21.4654267894834
30
0
41
1
10
27.3401693241396
20
21.4573620599109
30
0
41
1
10
26.9640970489966
20
21.4529881079137
30
0
41
1
10
26.4014823557811
20
21.4523792929995
30
0
41
1
10
26.2141949125364
20
21.4531627375457
30
0
41
1
10
25.8401518906754
20
21.4567042270002
30
0
41
1
10
25.6524903078467
20
21.4594855362903
30
0
41
1
10
25.1000435682111
20
21.4704971045417
30
0
41
1
10
24.7441466533255
20
21.4814076093752
30
0
41
1
10
24.3169406359225
20
21.4978924307431
30
0
41
1
10
24.2323955282963
20
21.5013284200531
30
0
41
1
10
24.065213243039
20
21.5084216206317
30
0
41
1
10
23.9824554427147
20
21.5120852423929
30
0
41
1
10
23.7403930025406
20
21.5231595442079
30
0
41
1
10
23.5862521127757
20
21.5306992577844
30
0
41
1
10
23.2935760537682
20
21.5453732331054
30
0
41
1
10
23.1550240144207
20
21.5525115975759
30
0
41
1
10
22.960561585855
20
21.5622368138523
30
0
41
1
10
22.8981101901868
20
21.565305140205
30
0
41
1
10
22.7800338951729
20
21.5708816695327
30
0
41
1
10
22.7241396705297
20
21.5734035388546
30
0
41
1
10
22.5661948085414
20
21.5799882032441
30
0
41
1
10
22.4738113255499
20
21.5830786650576
30
0
41
1
10
22.356906955717
20
21.5849226130429
30
0
41
1
10
22.3217439684833
20
21.5850612566075
30
0
41
1
10
22.2603597903138
20
21.5842897234549
30
0
41
1
10
22.2339324128227
20
21.5833836808442
30
0
41
1
10
22.167436138735
20
21.5790013510505
30
0
41
1
10
22.1400833996976
20
21.5738630788841
30
0
41
1
10
22.1256869719691
20
21.5623932123173
30
0
41
1
10
22.1254170859779
20
21.5579476914725
30
0
41
1
10
22.133672145967
20
21.5479932000752
30
0
41
1
10
22.1421632512246
20
21.5424650267351
30
0
41
1
10
22.1802184994636
20
21.5242882587293
30
0
41
1
10
22.222491056389
20
21.5099968734183
30
0
41
1
10
22.3385414988902
20
21.4776999601696
30
0
41
1
10
22.4113632598338
20
21.4599455355401
30
0
41
1
10
22.4975379790778
20
21.4409224813816
30
0
0
SPLINE
5
126
100
AcDbEntity
8
1
62
256
6
ByLayer
370
-1
48
1
60
0
100
AcDbSpline
70
4
71
3
72
8
73
4
40
0
40
0
40
0
40
0
40
1
40
1
40
1
40
1
41
1
10
39.1469133726311
20
14.8895805090989
30
0
41
1
10
39.2569714413901
20
14.7786959234531
30
0
41
1
10
39.365761425952
20
14.6673366346764
30
0
41
1
10
39.4732350668988
20
14.555582409207
30
0
0
SPLINE
5
127
100
AcDbEntity
8
1
62
256
6
ByLayer
370
-1
48
1
60
0
100
AcDbSpline
70
4
71
3
72
12
73
8
40
0
40
0
40
0
40
0
40
0.499999999999999
40
0.499999999999999
40
0.75
40
0.75
40
1
40
1
40
1
40
1
41
1
10
40.9140271904616
20
5.49636361034666
30
0
41
1
10
41.0180526127381
20
5.47446348452877
30
0
41
1
10
41.1146523933785
20
5.43368028594435
30
0
41
1
10
41.2486405015986
20
5.34389581438998
30
0
41
1
10
41.2910532388005
20
5.30930543418458
30
0
41
1
10
41.3698205473099
20
5.23204837436634
30
0
41
1
10
41.4066350977495
20
5.18887151081842
30
0
41
1
10
41.4397604049476
20
5.14249576550475
30
0
0
SPLINE
5
128
100
AcDbEntity
8
1
62
256
6
ByLayer
370
-1
48
1
60
0
100
AcDbSpline
70
4
71
3
72
30
73
26
40
0
40
0
40
0
40
0
40
0.125
40
0.125
40
0.25
40
0.25
40
0.3125
40
0.3125
40
0.374999999999999
40
0.374999999999999
40
0.437499999999999
40
0.437499999999999
40
0.499999999999999
40
0.499999999999999
40
0.624999999999999
40
0.624999999999999
40
0.687499999999999
40
0.687499999999999
40
0.749999999999999
40
0.749999999999999
40
0.812499999999999
40
0.812499999999999
40
0.874999999999999
40
0.874999999999999
40
1
40
1
40
1
40
1
41
1
10
46.5386334771394
20
-0.166158245754957
30
0
41
1
10
46.473093325193
20
-0.271062308735651
30
0
41
1
10
46.4122158618035
20
-0.398966025436181
30
0
41
1
10
46.3021620003032
20
-0.705236397518831
30
0
41
1
10
46.2553857840945
20
-0.877084637401396
30
0
41
1
10
46.1989341192492
20
-1.16237018762885
30
0
41
1
10
46.1823595351512
20
-1.26254011447242
30
0
41
1
10
46.1545195626044
20
-1.4709408901555
30
0
41
1
10
46.1434360835083
20
-1.57763044937576
30
0
41
1
10
46.1268784665757
20
-1.79580523867727
30
0
41
1
10
46.1214048643714
20
-1.90729106298932
30
0
41
1
10
46.1161697150393
20
-2.13507317972929
30
0
41
1
10
46.1164502175093
20
-2.25217105240623
30
0
41
1
10
46.1259006806209
20
-2.60230509924906
30
0
41
1
10
46.1433968243637
20
-2.83554020598464
30
0
41
1
10
46.18517314992
20
-3.18515940727028
30
0
41
1
10
46.2016627419225
20
-3.30103462752444
30
0
41
1
10
46.2387652152695
20
-3.52731289953556
30
0
41
1
10
46.2594522827983
20
-3.63836086869264
30
0
41
1
10
46.3047834220128
20
-3.85643736666629
30
0
41
1
10
46.3294546056856
20
-3.96357054716984
30
0
41
1
10
46.3824821473101
20
-4.17338901400623
30
0
41
1
10
46.4104426772091
20
-4.27453606820652
30
0
41
1
10
46.4981760128677
20
-4.56733820133996
30
0
41
1
10
46.5618058691409
20
-4.74862374417711
30
0
41
1
10
46.629850140804
20
-4.91556990187877
30
0
0
SPLINE
5
129
100
AcDbEntity
8
1
62
256
6
ByLayer
370
-1
48
1
60
0
100
AcDbSpline
70
4
71
3
72
8
73
4
40
0
40
0
40
0
40
0
40
1
40
1
40
1
40
1
41
1
10
35.9999999999983
20
-16.1470090798999
30
0
41
1
10
36.6491814346395
20
-16.2048257430127
30
0
41
1
10
37.3012852743218
20
-16.2329029369516
30
0
41
1
10
37.9562038879097
20
-16.2329029369516
30
0
0
SPLINE
5
12A
100
AcDbEntity
8
1
62
256
6
ByLayer
370
-1
48
1
60
0
100
AcDbSpline
70
4
71
3
72
8
73
4
40
0
40
0
40
0
40
0
40
1
40
1
40
1
40
1
41
1
10
27.9353790427676
20
21.4700612551482
30
0
41
1
10
27.8626596641197
20
21.468527008587
30
0
41
1
10
27.7899405049367
20
21.4669821669298
30
0
41
1
10
27.7172215685164
20
21.4654267894834
30
0
0
SPLINE
5
12B
100
AcDbEntity
8
1
62
256
6
ByLayer
370
-1
48
1
60
0
100
AcDbSpline
70
4
71
3
72
42
73
38
40
0
40
0
40
0
40
0
40
0.125
40
0.125
40
0.1875
40
0.1875
40
0.25
40
0.25
40
0.374999999999999
40
0.374999999999999
40
0.406249999999999
40
0.406249999999999
40
0.437499999999998
40
0.437499999999998
40
0.499999999999998
40
0.499999999999998
40
0.562499999999998
40
0.562499999999998
40
0.593749999999998
40
0.593749999999998
40
0.624999999999998
40
0.624999999999998
40
0.687499999999999
40
0.687499999999999
40
0.718749999999999
40
0.718749999999999
40
0.749999999999999
40
0.749999999999999
40
0.812499999999999
40
0.812499999999999
40
0.843749999999999
40
0.843749999999999
40
0.874999999999999
40
0.874999999999999
40
0.9375
40
0.9375
40
1
40
1
40
1
40
1
41
1
10
27.7172215685164
20
2.33902159593839
30
0
41
1
10
27.3401693241396
20
2.38542458332986
30
0
41
1
10
26.9640970489966
20
2.40004308150281
30
0
41
1
10
26.401482355781
20
2.37348625428143
30
0
41
1
10
26.2141949125363
20
2.356495135909
30
0
41
1
10
25.8401518906753
20
2.30526554530982
30
0
41
1
10
25.6524903078467
20
2.2707765428963
30
0
41
1
10
25.100043568211
20
2.14137678532063
30
0
41
1
10
24.7441466533255
20
2.02115121920571
30
0
41
1
10
24.3169406359225
20
1.82233723314653
30
0
41
1
10
24.2323955282962
20
1.78011218201669
30
0
41
1
10
24.0652132430389
20
1.6904142959398
30
0
41
1
10
23.9824554427146
20
1.6428457341637
30
0
41
1
10
23.7403930025405
20
1.49368635288246
30
0
41
1
10
23.5862521127756
20
1.38517507956527
30
0
41
1
10
23.2935760537681
20
1.14854736138676
30
0
41
1
10
23.1550240144206
20
1.0204522837781
30
0
41
1
10
22.960561585855
20
0.811488581900676
30
0
41
1
10
22.8981101901867
20
0.739100837940896
30
0
41
1
10
22.7800338951728
20
0.590857482030884
30
0
41
1
10
22.7241396705296
20
0.514723021958844
30
0
41
1
10
22.5661948085414
20
0.280083712291002
30
0
41
1
10
22.4738113255499
20
0.115388196967786
30
0
41
1
10
22.3569069557169
20
-0.145539169000472
30
0
41
1
10
22.3217439684832
20
-0.234580332704496
30
0
41
1
10
22.2603597903137
20
-0.413606452989114
30
0
41
1
10
22.2339324128227
20
-0.504031378099967
30
0
41
1
10
22.167436138735
20
-0.778036513868813
30
0
41
1
10
22.1400833996975
20
-0.964331973127685
30
0
41
1
10
22.1256869719691
20
-1.24945262291507
30
0
41
1
10
22.1254170859778
20
-1.34512125486819
30
0
41
1
10
22.133672145967
20
-1.53415334027986
30
0
41
1
10
22.1421632512246
20
-1.62802370831744
30
0
41
1
10
22.1802184994635
20
-1.90777278182787
30
0
41
1
10
22.222491056389
20
-2.09235498405172
30
0
41
1
10
22.3385414988902
20
-2.4543636117873
30
0
41
1
10
22.4113632598338
20
-2.6291976099904
30
0
41
1
10
22.4975379790777
20
-2.7984837725115
30
0
0
SPLINE
5
12C
100
AcDbEntity
8
1
62
256
6
ByLayer
370
-1
48
1
60
0
100
AcDbSpline
70
4
71
3
72
8
73
4
40
0
40
0
40
0
40
0
40
1
40
1
40
1
40
1
41
1
10
38.9263975011265
20
-21.7319024829253
30
0
41
1
10
38.8752046930542
20
-21.7251745300519
30
0
41
1
10
38.8348563016561
20
-21.7209740935103
30
0
41
1
10
38.8057458992595
20
-21.7183108322068
30
0
0
SPLINE
5
12D
100
AcDbEntity
8
1
62
256
6
ByLayer
370
-1
48
1
60
0
100
AcDbSpline
70
4
71
3
72
14
73
10
40
0
40
0
40
0
40
0
40
0.25
40
0.25
40
0.5
40
0.5
40
0.75
40
0.75
40
1
40
1
40
1
40
1
41
1
10
47.3561839928342
20
-4.30108229174269
30
0
41
1
10
47.3202771850056
20
-4.27640532958756
30
0
41
1
10
47.2848863274322
20
-4.24552453802107
30
0
41
1
10
47.2152044813467
20
-4.17098901939434
30
0
41
1
10
47.1805317639812
20
-4.12672334469849
30
0
41
1
10
47.1147135640277
20
-4.02716872370172
30
0
41
1
10
47.0835932997501
20
-3.97214401979528
30
0
41
1
10
47.0251580805618
20
-3.85130029547392
30
0
41
1
10
46.9975618851965
20
-3.78456918159631
30
0
41
1
10
46.9731999999984
20
-3.71473593875652
30
0
0
SPLINE
5
12E
100
AcDbEntity
8
1
62
256
6
ByLayer
370
-1
48
1
60
0
100
AcDbSpline
70
4
71
3
72
8
73
4
40
0
40
0
40
0
40
0
40
1
40
1
40
1
40
1
41
1
10
39.8563270966745
20
-21.8701585283275
30
0
41
1
10
39.8668113526867
20
-21.7970473323008
30
0
41
1
10
39.8770717477822
20
-21.723477057117
30
0
41
1
10
39.8852793410742
20
-21.6490656630094
30
0
0
SPLINE
5
12F
100
AcDbEntity
8
1
62
256
6
ByLayer
370
-1
48
1
60
0
100
AcDbSpline
70
4
71
3
72
18
73
14
40
0
40
0
40
0
40
0
40
0.125000000000002
40
0.125000000000002
40
0.250000000000003
40
0.250000000000003
40
0.375000000000005
40
0.375000000000005
40
0.500000000000007
40
0.500000000000007
40
0.750000000000003
40
0.750000000000003
40
1
40
1
40
1
40
1
41
1
10
0.399996464112519
20
-5.92750353588744
30
0
41
1
10
0.400003535887436
20
-5.92749646411252
30
0
41
1
10
0.405184363910564
20
-5.92231563608939
30
0
41
1
10
0.423325439482767
20
-5.90417456051719
30
0
41
1
10
0.436353183381357
20
-5.8911468166186
30
0
41
1
10
0.467365609305546
20
-5.86013439069441
30
0
41
1
10
0.485631655434787
20
-5.84186834456517
30
0
41
1
10
0.526070669711629
20
-5.80142933028833
30
0
41
1
10
0.547955729746803
20
-5.77954427025316
30
0
41
1
10
0.617778604705336
20
-5.70972139529462
30
0
41
1
10
0.670472540986736
20
-5.65702745901322
30
0
41
1
10
0.78092789609795
20
-5.54657210390201
30
0
41
1
10
0.839543939432218
20
-5.48795606056774
30
0
41
1
10
0.899999999999977
20
-5.42749999999998
30
0
0
SPLINE
5
130
100
AcDbEntity
8
1
62
256
6
ByLayer
370
-1
48
1
60
0
100
AcDbSpline
70
4
71
3
72
24
73
20
40
0
40
0
40
0
40
0
40
0.125000000000001
40
0.125000000000001
40
0.187500000000002
40
0.187500000000002
40
0.250000000000002
40
0.250000000000002
40
0.375000000000002
40
0.375000000000002
40
0.500000000000003
40
0.500000000000003
40
0.562500000000003
40
0.562500000000003
40
0.625000000000003
40
0.625000000000003
40
0.750000000000002
40
0.750000000000002
40
1
40
1
40
1
40
1
41
1
10
24.5540548584109
20
20.8499371882563
30
0
41
1
10
24.9889081613673
20
20.3832611941523
30
0
41
1
10
25.4444307411061
20
19.9375899844331
30
0
41
1
10
26.1600449623781
20
19.3010360206386
30
0
41
1
10
26.4039781494851
20
19.0941861041065
30
0
41
1
10
26.9029489094863
20
18.6913471256966
30
0
41
1
10
27.1563733546637
20
18.4966722549316
30
0
41
1
10
27.9270551272895
20
17.9335261001833
30
0
41
1
10
28.4553116809734
20
17.5853883354064
30
0
41
1
10
29.5411273721507
20
16.9424732366459
30
0
41
1
10
30.0986833729017
20
16.6476994150524
30
0
41
1
10
30.9577208045188
20
16.2458848473244
30
0
41
1
10
31.2478555433679
20
16.1186835235132
30
0
41
1
10
31.8358916371285
20
15.8779626644223
30
0
41
1
10
32.1339971234894
20
15.7644198633217
30
0
41
1
10
33.0311272336466
20
15.4477423269346
30
0
41
1
10
33.635869740266
20
15.2672387879435
30
0
41
1
10
35.4700596083274
20
14.8155198122868
30
0
41
1
10
36.7193373598596
20
14.6332403589709
30
0
41
1
10
37.9965217820132
20
14.5746980870873
30
0
0
SPLINE
5
131
100
AcDbEntity
8
1
62
256
6
ByLayer
370
-1
48
1
60
0
100
AcDbSpline
70
4
71
3
72
8
73
4
40
0
40
0
40
0
40
0
40
1
40
1
40
1
40
1
41
1
10
46.8881289885408
20
-2.64363235868711
30
0
41
1
10
46.8103830972116
20
-1.7721406377544
30
0
41
1
10
46.7512267021353
20
-0.901724593643536
30
0
41
1
10
46.7124608366004
20
-0.0324884427215295
30
0
0
SPLINE
5
132
100
AcDbEntity
8
1
62
256
6
ByLayer
370
-1
48
1
60
0
100
AcDbSpline
70
4
71
3
72
8
73
4
40
0
40
0
40
0
40
0
40
1
40
1
40
1
40
1
41
1
10
40.9140271904695
20
-17.4998374633813
30
0
41
1
10
41.16356063404
20
-17.7366147539352
30
0
41
1
10
41.4140860600469
20
-17.9723208539202
30
0
41
1
10
41.6655112113904
20
-18.2070553870107
30
0
0
SPLINE
5
133
100
AcDbEntity
8
1
62
256
6
ByLayer
370
-1
48
1
60
0
100
AcDbSpline
70
4
71
3
72
22
73
18
40
0
40
0
40
0
40
0
40
0.223507439681199
40
0.223507439681199
40
0.3352611595218
40
0.3352611595218
40
0.4470148793624
40
0.4470148793624
40
0.670522319043601
40
0.670522319043601
40
0.726399178963902
40
0.726399178963902
40
0.782276038884202
40
0.782276038884202
40
0.894029758724805
40
0.894029758724805
40
1
40
1
40
1
40
1
41
1
10
27.7172215685164
20
-21.5780540382892
30
0
41
1
10
27.3401693241396
20
-21.5725536233726
30
0
41
1
10
26.9640970489966
20
-21.5689889105752
30
0
41
1
10
26.401482355781
20
-21.5669164889878
30
0
41
1
10
26.2141949125363
20
-21.5667626227387
30
0
41
1
10
25.8401518906753
20
-21.5674771478714
30
0
41
1
10
25.6524903078467
20
-21.5683549742938
30
0
41
1
10
25.100043568211
20
-21.5722244010206
30
0
41
1
10
24.7441466533255
20
-21.5764986114965
30
0
41
1
10
24.3169406359225
20
-21.5820103446834
30
0
41
1
10
24.2323955282962
20
-21.5831158673509
30
0
41
1
10
24.0652132430389
20
-21.5852586577398
30
0
41
1
10
23.9824554427146
20
-21.5862970536892
30
0
41
1
10
23.7403930025405
20
-21.589139824375
30
0
41
1
10
23.5862521127756
20
-21.5906916120537
30
0
41
1
10
23.3011493395446
20
-21.5922673597385
30
0
41
1
10
23.1693855578211
20
-21.5923709772384
30
0
41
1
10
23.0455814724485
20
-21.5913551822556
30
0
0
SPLINE
5
134
100
AcDbEntity
8
1
62
256
6
ByLayer
370
-1
48
1
60
0
100
AcDbSpline
70
4
71
3
72
8
73
4
40
0
40
0
40
0
40
0
40
1
40
1
40
1
40
1
41
1
10
38.8057458992599
20
-21.7183108322068
30
0
41
1
10
38.6515720382108
20
-21.6936688353881
30
0
41
1
10
38.5094203618281
20
-21.6787796192322
30
0
41
1
10
38.3815176560224
20
-21.6695213265212
30
0
0
SPLINE
5
135
100
AcDbEntity
8
1
62
256
6
ByLayer
370
-1
48
1
60
0
100
AcDbSpline
70
4
71
3
72
8
73
4
40
0
40
0
40
0
40
0
40
1
40
1
40
1
40
1
41
1
10
39.845644987387
20
3.32805614849778
30
0
41
1
10
39.8492097098357
20
3.32697498017677
30
0
41
1
10
39.852770370118
20
3.32587484134419
30
0
41
1
10
39.8563270966744
20
3.32475633182375
30
0
0
SPLINE
5
136
100
AcDbEntity
8
1
62
256
6
ByLayer
370
-1
48
1
60
0
100
AcDbSpline
70
4
71
3
72
8
73
4
40
0
40
0
40
0
40
0
40
1
40
1
40
1
40
1
41
1
10
38.7316875347711
20
21.6492803811451
30
0
41
1
10
38.6058266830643
20
21.6342998261794
30
0
41
1
10
38.4884203957069
20
21.6265533403292
30
0
41
1
10
38.3815176560225
20
21.6237615388426
30
0
0
SPLINE
5
137
100
AcDbEntity
8
1
62
256
6
ByLayer
370
-1
48
1
60
0
100
AcDbSpline
70
4
71
3
72
10
73
6
40
0
40
0
40
0
40
0
40
0.5
40
0.5
40
1
40
1
40
1
40
1
41
1
10
38.8057458992599
20
1.37795068396653
30
0
41
1
10
38.7297206133527
20
1.34831580479067
30
0
41
1
10
38.6557075579405
20
1.31287036269728
30
0
41
1
10
38.5123815894499
20
1.22892603733669
30
0
41
1
10
38.4445242845229
20
1.18119735447215
30
0
41
1
10
38.3815176560224
20
1.12829348807958
30
0
0
SPLINE
5
138
100
AcDbEntity
8
1
62
256
6
ByLayer
370
-1
48
1
60
0
100
AcDbSpline
70
4
71
3
72
8
73
4
40
0
40
0
40
0
40
0
40
1
40
1
40
1
40
1
41
1
10
38.3815176560224
20
-21.6695213265212
30
0
41
1
10
38.2471420144491
20
-21.658403883053
30
0
41
1
10
38.1119926605871
20
-21.6526667658916
30
0
41
1
10
37.9760497525626
20
-21.6524479536596
30
0
0
SPLINE
5
139
100
AcDbEntity
8
1
62
256
6
ByLayer
370
-1
48
1
60
0
100
AcDbSpline
70
4
71
3
72
18
73
14
40
0
40
0
40
0
40
0
40
0.125000000000001
40
0.125000000000001
40
0.250000000000002
40
0.250000000000002
40
0.500000000000003
40
0.500000000000003
40
0.625000000000004
40
0.625000000000004
40
0.750000000000005
40
0.750000000000005
40
1
40
1
40
1
40
1
41
1
10
46.2110691864348
20
-0.22092785442436
30
0
41
1
10
46.0861488667888
20
-0.243756301002264
30
0
41
1
10
45.9585683380344
20
-0.265576633600205
30
0
41
1
10
45.6977270403852
20
-0.304765291281285
30
0
41
1
10
45.5641324106791
20
-0.322168117841301
30
0
41
1
10
45.1566381572629
20
-0.364225283235129
30
0
41
1
10
44.8822881102771
20
-0.377940205176458
30
0
41
1
10
44.4675191198839
20
-0.371481089702513
30
0
41
1
10
44.3287156581719
20
-0.364869849321309
30
0
41
1
10
44.0500506770875
20
-0.342162364423473
30
0
41
1
10
43.9095869843737
20
-0.325972695490122
30
0
41
1
10
43.4908282836464
20
-0.26313533013743
30
0
41
1
10
43.2185851252444
20
-0.202832405982946
30
0
41
1
10
42.952869609277
20
-0.126662056712689
30
0
0
SPLINE
5
13A
100
AcDbEntity
8
1
62
256
6
ByLayer
370
-1
48
1
60
0
100
AcDbSpline
70
4
71
3
72
43
73
39
40
0
40
0
40
0
40
0
40
0.0625
40
0.0625
40
0.0937500000000007
40
0.0937500000000007
40
0.125000000000001
40
0.125000000000001
40
0.250000000000006
40
0.250000000000006
40
0.281250000000006
40
0.281250000000006
40
0.312500000000007
40
0.312500000000007
40
0.375000000000007
40
0.375000000000007
40
0.406250000000007
40
0.406250000000007
40
0.437500000000007
40
0.437500000000007
40
0.500000000000008
40
0.562500000000008
40
0.562500000000008
40
0.593750000000007
40
0.593750000000007
40
0.625000000000006
40
0.625000000000006
40
0.687500000000004
40
0.687500000000004
40
0.718750000000003
40
0.718750000000003
40
0.750000000000002
40
0.750000000000002
40
0.875
40
0.875
40
0.9375
40
0.9375
40
1
40
1
40
1
40
1
41
1
10
49.1000000000001
20
3.8396648364473
30
0
41
1
10
49.0713397735449
20
3.84046027467656
30
0
41
1
10
49.030554491773
20
3.84276894655139
30
0
41
1
10
48.9505165734988
20
3.84858572341258
30
0
41
1
10
48.9205783735902
20
3.85092700458949
30
0
41
1
10
48.8546782558017
20
3.8563824340504
30
0
41
1
10
48.8188616760967
20
3.85948358700605
30
0
41
1
10
48.6257234321893
20
3.87682042282145
30
0
41
1
10
48.4269088746357
20
3.89646162459221
30
0
41
1
10
48.1206927228708
20
3.92852977268709
30
0
41
1
10
48.0566957882001
20
3.93530719564475
30
0
41
1
10
47.9247293351298
20
3.94942526854223
30
0
41
1
10
47.8565568873752
20
3.95678709613549
30
0
41
1
10
47.6455696307291
20
3.97976743251004
30
0
41
1
10
47.4963109227312
20
3.9962771968521
30
0
41
1
10
47.2594357667268
20
4.02283808808622
30
0
41
1
10
47.1783064180716
20
4.03199198439242
30
0
41
1
10
47.0116096755914
20
4.05091360294648
30
0
41
1
10
46.925829307619
20
4.0607061222039
30
0
41
1
10
46.665506099361
20
4.09058600011716
30
0
41
1
10
46.3083637060117
20
4.13199942708701
30
0
41
1
10
45.9316922132874
20
4.17647223250921
30
0
41
1
10
45.6417090612032
20
4.21099856089609
30
0
41
1
10
45.5434373961364
20
4.22274660743901
30
0
41
1
10
45.3467331539266
20
4.246355752455
30
0
41
1
10
45.2482038657809
20
4.25822796870938
30
0
41
1
10
44.9520972329793
20
4.29404268724599
30
0
41
1
10
44.7540031604571
20
4.31818248022387
30
0
41
1
10
44.4558393044766
20
4.3547826624802
30
0
41
1
10
44.3562803775138
20
4.36704800279787
30
0
41
1
10
44.1568162684621
20
4.39171088631815
30
0
41
1
10
44.0565872699067
20
4.40414880883813
30
0
41
1
10
43.5586393759156
20
4.46616800487399
30
0
41
1
10
43.1744165611088
20
4.51473541388199
30
0
41
1
10
42.6185264209866
20
4.5860708872903
30
0
41
1
10
42.4358285693918
20
4.6097066610026
30
0
41
1
10
42.0867596709222
20
4.65524919726548
30
0
41
1
10
41.9193259671048
20
4.67729049405852
30
0
41
1
10
41.7588223541799
20
4.69861936315189
30
0
0
SPLINE
5
13B
100
AcDbEntity
8
1
62
256
6
ByLayer
370
-1
48
1
60
0
100
AcDbSpline
70
4
71
3
72
8
73
4
40
0
40
0
40
0
40
0
40
1
40
1
40
1
40
1
41
1
10
40.9140271904695
20
14.5542891718632
30
0
41
1
10
41.1635664481512
20
14.5542891718632
30
0
41
1
10
41.4140917305554
20
14.5542891718632
30
0
41
1
10
41.6655112113904
20
14.5542891718632
30
0
0
SPLINE
5
13C
100
AcDbEntity
8
1
62
256
6
ByLayer
370
-1
48
1
60
0
100
AcDbSpline
70
4
71
3
72
8
73
4
40
0
40
0
40
0
40
0
40
1
40
1
40
1
40
1
41
1
10
41.4401701036046
20
-22.6016865145715
30
0
41
1
10
41.5148572382119
20
-22.676963055879
30
0
41
1
10
41.5899773030346
20
-22.751629551247
30
0
41
1
10
41.6655112113899
20
-22.8256902178554
30
0
0
SPLINE
5
13D
100
AcDbEntity
8
1
62
256
6
ByLayer
370
-1
48
1
60
0
100
AcDbSpline
70
4
71
3
72
68
73
64
40
0
40
0
40
0
40
0
40
0.0624999999999986
40
0.0624999999999986
40
0.0937499999999981
40
0.0937499999999981
40
0.124999999999998
40
0.124999999999998
40
0.187499999999997
40
0.187499999999997
40
0.249999999999996
40
0.249999999999996
40
0.281249999999997
40
0.281249999999997
40
0.312499999999997
40
0.312499999999997
40
0.343749999999997
40
0.343749999999997
40
0.374999999999997
40
0.374999999999997
40
0.406249999999998
40
0.406249999999998
40
0.437499999999998
40
0.437499999999998
40
0.453124999999998
40
0.453124999999998
40
0.468749999999998
40
0.468749999999998
40
0.484374999999998
40
0.484374999999998
40
0.499999999999998
40
0.499999999999998
40
0.531249999999999
40
0.531249999999999
40
0.546875
40
0.546875
40
0.5625
40
0.5625
40
0.578125
40
0.578125
40
0.59375
40
0.59375
40
0.625
40
0.625
40
0.640624999999999
40
0.640624999999999
40
0.656249999999999
40
0.656249999999999
40
0.687499999999999
40
0.687499999999999
40
0.718749999999999
40
0.718749999999999
40
0.749999999999999
40
0.749999999999999
40
0.8125
40
0.8125
40
0.84375
40
0.84375
40
0.875
40
0.875
40
0.9375
40
0.9375
40
1
40
1
40
1
40
1
41
1
10
43.3846169043134
20
-19.2007795474973
30
0
41
1
10
43.313820090725
20
-19.3639991716721
30
0
41
1
10
43.262484337148
20
-19.5273400090678
30
0
41
1
10
43.2131646745546
20
-19.7740301401871
30
0
41
1
10
43.201393366411
20
-19.8565380036172
30
0
41
1
10
43.1875775042235
20
-20.0223439314008
30
0
41
1
10
43.1856036345702
20
-20.1049924447605
30
0
41
1
10
43.1948479023271
20
-20.3512579809522
30
0
41
1
10
43.220960239902
20
-20.5137463286421
30
0
41
1
10
43.3195649129836
20
-20.834843260086
30
0
41
1
10
43.3918312519765
20
-20.99355171482
30
0
41
1
10
43.5471047346451
20
-21.2257444442328
30
0
41
1
10
43.6064290991743
20
-21.3014317359336
30
0
41
1
10
43.7403934078332
20
-21.4459763365836
30
0
41
1
10
43.8152313128615
20
-21.515173061376
30
0
41
1
10
43.9830668584192
20
-21.6454185987125
30
0
41
1
10
44.0767451350917
20
-21.7067311044678
30
0
41
1
10
44.2794336539368
20
-21.8149432187977
30
0
41
1
10
44.3888287550005
20
-21.8622993345206
30
0
41
1
10
44.625576382571
20
-21.9401876748852
30
0
41
1
10
44.7539456554533
20
-21.9706829909962
30
0
41
1
10
45.019916385962
20
-22.0085069319755
30
0
41
1
10
45.1584977221229
20
-22.0163542504476
30
0
41
1
10
45.3754490801174
20
-22.0085869093761
30
0
41
1
10
45.4485393304894
20
-22.0027147664078
30
0
41
1
10
45.5942719254945
20
-21.9844751045254
30
0
41
1
10
45.6672148906152
20
-21.9720993855974
30
0
41
1
10
45.8132330528508
20
-21.9406966130178
30
0
41
1
10
45.8863081431087
20
-21.9216706730038
30
0
41
1
10
46.032594304377
20
-21.8766546065038
30
0
41
1
10
46.1059551717138
20
-21.8505459861495
30
0
41
1
10
46.3200170553035
20
-21.7638740639102
30
0
41
1
10
46.4568446028436
20
-21.6944674230462
30
0
41
1
10
46.6536348734947
20
-21.5736932840232
30
0
41
1
10
46.7177627378628
20
-21.5306124252822
30
0
41
1
10
46.8400528828794
20
-21.4413386810147
30
0
41
1
10
46.898658207202
20
-21.3948868956539
30
0
41
1
10
47.0111135163697
20
-21.2987209703072
30
0
41
1
10
47.0649622979008
20
-21.2490058986586
30
0
41
1
10
47.1681158048962
20
-21.1466086996442
30
0
41
1
10
47.2170783266789
20
-21.0942364473346
30
0
41
1
10
47.3549243420595
20
-20.9363033182255
30
0
41
1
10
47.4356998396474
20
-20.8290841023011
30
0
41
1
10
47.5429381450995
20
-20.6669493486932
30
0
41
1
10
47.5761816608575
20
-20.6129086973589
30
0
41
1
10
47.6374669878177
20
-20.50632379527
30
0
41
1
10
47.665646679182
20
-20.4535720202508
30
0
41
1
10
47.7436840954982
20
-20.2969939002548
30
0
41
1
10
47.7870819490155
20
-20.1948525071312
30
0
41
1
10
47.8599880401255
20
-19.9951357405798
30
0
41
1
10
47.8894734007991
20
-19.8973457582124
30
0
41
1
10
47.9359558237753
20
-19.7101465384664
30
0
41
1
10
47.9531878832909
20
-19.6201389242593
30
0
41
1
10
47.9902579379523
20
-19.3591993099241
30
0
41
1
10
47.9957357914601
20
-19.1972737966033
30
0
41
1
10
47.9812716364451
20
-18.9674805175005
30
0
41
1
10
47.9725810490232
20
-18.8932916879027
30
0
41
1
10
47.9481706825538
20
-18.7502943206044
30
0
41
1
10
47.9324367517692
20
-18.6812684990784
30
0
41
1
10
47.8749211246778
20
-18.4805769920993
30
0
41
1
10
47.823005680494
20
-18.3552010091089
30
0
41
1
10
47.6890086769001
20
-18.1184121097661
30
0
41
1
10
47.6070706693114
20
-18.0069711160727
30
0
41
1
10
47.5048948019247
20
-17.9027832260977
30
0
0
SPLINE
5
13E
100
AcDbEntity
8
1
62
256
6
ByLayer
370
-1
48
1
60
0
100
AcDbSpline
70
4
71
3
72
39
73
35
40
0
40
0
40
0
40
0
40
0.0625
40
0.0625
40
0.125
40
0.1875
40
0.1875
40
0.21875
40
0.21875
40
0.25
40
0.25
40
0.375000000000001
40
0.375000000000001
40
0.40625
40
0.40625
40
0.4375
40
0.4375
40
0.499999999999999
40
0.499999999999999
40
0.531249999999998
40
0.531249999999998
40
0.562499999999997
40
0.562499999999997
40
0.624999999999997
40
0.624999999999997
40
0.687499999999996
40
0.687499999999996
40
0.749999999999996
40
0.749999999999996
40
0.874999999999997
40
0.874999999999997
40
0.937499999999998
40
0.937499999999998
40
1
40
1
40
1
40
1
41
1
10
49.1000000000001
20
-19.7986856027125
30
0
41
1
10
49.0712927929398
20
-19.996417143285
30
0
41
1
10
49.0301734466302
20
-20.1936887944346
30
0
41
1
10
48.9225268556099
20
-20.5839454990811
30
0
41
1
10
48.7914224206428
20
-20.9633497335507
30
0
41
1
10
48.6146922197786
20
-21.3216457935086
30
0
41
1
10
48.4647046695848
20
-21.5822994929746
30
0
41
1
10
48.4117938297573
20
-21.6678354768937
30
0
41
1
10
48.2999782861675
20
-21.8361344605758
30
0
41
1
10
48.2410691312807
20
-21.9188453857115
30
0
41
1
10
47.935932918143
20
-22.3191908837754
30
0
41
1
10
47.655167832115
20
-22.6029791091424
30
0
41
1
10
47.2579314748924
20
-22.9116464260632
30
0
41
1
10
47.175829149033
20
-22.9712322170007
30
0
41
1
10
47.0089936518719
20
-23.0841219299358
30
0
41
1
10
46.9241389659242
20
-23.1375523736411
30
0
41
1
10
46.6653562935781
20
-23.2889938789497
30
0
41
1
10
46.4872265482439
20
-23.3781904744192
30
0
41
1
10
46.2116697125439
20
-23.4944430750181
30
0
41
1
10
46.1184194904897
20
-23.5302613306339
30
0
41
1
10
45.9290793179869
20
-23.5959406486649
30
0
41
1
10
45.8326472752707
20
-23.6258911043612
30
0
41
1
10
45.5416453278863
20
-23.7058451249852
30
0
41
1
10
45.3461915169549
20
-23.7458849021277
30
0
41
1
10
44.9524894625454
20
-23.8004484735185
30
0
41
1
10
44.7542408758307
20
-23.8149691336708
30
0
41
1
10
44.3549195028898
20
-23.8182226687194
30
0
41
1
10
44.1530191422154
20
-23.8066868722008
30
0
41
1
10
43.5596571003655
20
-23.7341276888156
30
0
41
1
10
43.1752154186498
20
-23.6362131061935
30
0
41
1
10
42.615357371142
20
-23.4145614895195
30
0
41
1
10
42.434732045573
20
-23.3292635788972
30
0
41
1
10
42.0871204288871
20
-23.1378483975363
30
0
41
1
10
41.9197606189519
20
-23.0315789278357
30
0
41
1
10
41.75882235418
20
-22.9147876461756
30
0
0
SPLINE
5
13F
100
AcDbEntity
8
1
62
256
6
ByLayer
370
-1
48
1
60
0
100
AcDbSpline
70
4
71
3
72
8
73
4
40
0
40
0
40
0
40
0
40
1
40
1
40
1
40
1
41
1
10
41.4401701036046
20
5.14192176302038
30
0
41
1
10
41.514857238212
20
5.03720570108257
30
0
41
1
10
41.5899773030349
20
4.93233605349889
30
0
41
1
10
41.6655112113904
20
4.82731831427401
30
0
0
SPLINE
5
140
100
AcDbEntity
8
1
62
256
6
ByLayer
370
-1
48
1
60
0
100
AcDbSpline
70
4
71
3
72
8
73
4
40
0
40
0
40
0
40
0
40
1
40
1
40
1
40
1
41
1
10
42.4342096843122
20
-4.34881832182111
30
0
41
1
10
42.4563714160582
20
-4.36904054921885
30
0
41
1
10
42.4786940161756
20
-4.388995124769
30
0
41
1
10
42.5011742307211
20
-4.40868042978352
30
0
0
SPLINE
5
141
100
AcDbEntity
8
1
62
256
6
ByLayer
370
-1
48
1
60
0
100
AcDbSpline
70
4
71
3
72
10
73
6
40
0
40
0
40
0
40
0
40
0.5
40
0.5
40
1
40
1
40
1
40
1
41
1
10
49.1
20
-12.0407518787004
30
0
41
1
10
49.0438441247407
20
-11.4123051971024
30
0
41
1
10
48.9358247763877
20
-10.7963296113547
30
0
41
1
10
48.6382457033491
20
-9.58398564678663
30
0
41
1
10
48.4485754467807
20
-8.98764384647367
30
0
41
1
10
48.2218777619769
20
-8.40020566520261
30
0
0
SPLINE
5
142
100
AcDbEntity
8
1
62
256
6
ByLayer
370
-1
48
1
60
0
100
AcDbSpline
70
4
71
3
72
14
73
10
40
0
40
0
40
0
40
0
40
0.124999999999995
40
0.124999999999995
40
0.249999999999991
40
0.249999999999991
40
0.499999999999993
40
0.499999999999993
40
1
40
1
40
1
40
1
41
1
10
41.6655112113901
20
-18.207055387011
30
0
41
1
10
41.7266170148936
20
-18.2641047401799
30
0
41
1
10
41.7893572809568
20
-18.3196928241615
30
0
41
1
10
41.9182809657763
20
-18.4277906879402
30
0
41
1
10
41.9845849511212
20
-18.4803713472518
30
0
41
1
10
42.1862262912758
20
-18.6312624692433
30
0
41
1
10
42.3250583388448
20
-18.7234309913608
30
0
41
1
10
42.7550657826732
20
-18.974090129841
30
0
41
1
10
43.0595453020067
20
-19.1071306393374
30
0
41
1
10
43.3846169043134
20
-19.2007795474973
30
0
0
SPLINE
5
143
100
AcDbEntity
8
1
62
256
6
ByLayer
370
-1
48
1
60
0
100
AcDbSpline
70
4
71
3
72
38
73
34
40
0
40
0
40
0
40
0
40
0.125000000000002
40
0.125000000000002
40
0.187500000000003
40
0.187500000000003
40
0.218750000000004
40
0.218750000000004
40
0.250000000000005
40
0.250000000000005
40
0.375000000000004
40
0.375000000000004
40
0.437500000000004
40
0.437500000000004
40
0.468750000000004
40
0.468750000000004
40
0.500000000000003
40
0.500000000000003
40
0.625000000000003
40
0.625000000000003
40
0.687500000000002
40
0.687500000000002
40
0.718750000000002
40
0.718750000000002
40
0.750000000000002
40
0.750000000000002
40
0.875000000000001
40
0.875000000000001
40
0.90625
40
0.90625
40
0.9375
40
0.9375
40
1
40
1
40
1
40
1
41
1
10
35.9989999999988
20
-16.1469199950954
30
0
41
1
10
35.2466311034423
20
-16.079877350973
30
0
41
1
10
34.5115754933977
20
-15.9731272125464
30
0
41
1
10
33.4353602389796
20
-15.74851528294
30
0
41
1
10
33.0810386271946
20
-15.6628152072876
30
0
41
1
10
32.5564383748068
20
-15.5166009432505
30
0
41
1
10
32.3827201394892
20
-15.4649128500672
30
0
41
1
10
32.0376425284348
20
-15.3553216471728
30
0
41
1
10
31.865861052132
20
-15.297260283446
30
0
41
1
10
31.019551273567
20
-14.9928887900309
30
0
41
1
10
30.3819611637147
20
-14.7048519227656
30
0
41
1
10
29.4845605615036
20
-14.1975119413762
30
0
41
1
10
29.1952950685069
20
-14.0157889860984
30
0
41
1
10
28.776486865857
20
-13.7226369471412
30
0
41
1
10
28.6394012039649
20
-13.6214873434388
30
0
41
1
10
28.3703371032803
20
-13.4119923538067
30
0
41
1
10
28.2383503891676
20
-13.3035964295402
30
0
41
1
10
27.5985281997823
20
-12.7492983076073
30
0
41
1
10
27.1445735787211
20
-12.2619076825343
30
0
41
1
10
26.5427526568609
20
-11.4615839312963
30
0
41
1
10
26.3553728168415
20
-11.1832426790764
30
0
41
1
10
26.0935134526257
20
-10.7477088355518
30
0
41
1
10
26.0092332418339
20
-10.5991434206513
30
0
41
1
10
25.8481303255823
20
-10.2980247590893
30
0
41
1
10
25.7713218051574
20
-10.1455571594002
30
0
41
1
10
25.4050590755886
20
-9.37379274657491
30
0
41
1
10
25.1685823006397
20
-8.7263253239804
30
0
41
1
10
24.9326105883009
20
-7.88015926263824
30
0
41
1
10
24.8884192458113
20
-7.70907764463186
30
0
41
1
10
24.8058498436969
20
-7.3632081317117
30
0
41
1
10
24.7674193990423
20
-7.18815470467212
30
0
41
1
10
24.6609721473646
20
-6.6592558997348
30
0
41
1
10
24.6020962365869
20
-6.30350418702116
30
0
41
1
10
24.5540548584108
20
-5.944687552532
30
0
0
SPLINE
5
144
100
AcDbEntity
8
1
62
256
6
ByLayer
370
-1
48
1
60
0
100
AcDbSpline
70
4
71
3
72
8
73
4
40
0
40
0
40
0
40
0
40
1
40
1
40
1
40
1
41
1
10
39.8430245904089
20
-21.883420092779
30
0
41
1
10
39.8438974040789
20
-21.8832857490878
30
0
41
1
10
39.8447708700934
20
-21.8831506334907
30
0
41
1
10
39.8456449873868
20
-21.883014747249
30
0
0
SPLINE
5
145
100
AcDbEntity
8
1
62
256
6
ByLayer
370
-1
48
1
60
0
100
AcDbSpline
70
4
71
3
72
8
73
4
40
0
40
0
40
0
40
0
40
1
40
1
40
1
40
1
41
1
10
27.9353790427676
20
2.31217387395961
30
0
41
1
10
27.8626596641196
20
2.32112299588945
30
0
41
1
10
27.7899405049367
20
2.3300722369566
30
0
41
1
10
27.7172215685164
20
2.33902159593842
30
0
0
SPLINE
5
146
100
AcDbEntity
8
1
62
256
6
ByLayer
370
-1
48
1
60
0
100
AcDbSpline
70
4
71
3
72
10
73
6
40
0
40
0
40
0
40
0
40
0.5
40
0.5
40
1
40
1
40
1
40
1
41
1
10
40.9140271904591
20
-22.1387697425352
30
0
41
1
10
41.0180445848947
20
-22.2211533326524
30
0
41
1
10
41.1149832276124
20
-22.3021087578178
30
0
41
1
10
41.2947223833685
20
-22.4605332167468
30
0
41
1
10
41.3730653244787
20
-22.5340748380747
30
0
41
1
10
41.439760408585
20
-22.6012736558186
30
0
0
SPLINE
5
147
100
AcDbEntity
8
1
62
256
6
ByLayer
370
-1
48
1
60
0
100
AcDbSpline
70
4
71
3
72
8
73
4
40
0
40
0
40
0
40
0
40
1
40
1
40
1
40
1
41
1
10
41.66551121139
20
4.82731831427577
30
0
41
1
10
41.6962862728343
20
4.78453054587146
30
0
41
1
10
41.7273926988884
20
4.74162809675158
30
0
41
1
10
41.7588223541799
20
4.69861936315232
30
0
0
SPLINE
5
148
100
AcDbEntity
8
1
62
256
6
ByLayer
370
-1
48
1
60
0
100
AcDbSpline
70
4
71
3
72
8
73
4
40
0
40
0
40
0
40
0
40
1
40
1
40
1
40
1
41
1
10
28.8926445007081
20
21.4777228308795
30
0
41
1
10
31.2612426131337
20
21.5260192560974
30
0
41
1
10
33.6300171870556
20
21.5627880589032
30
0
41
1
10
35.9989999999988
20
21.585953322935
30
0
0
SPLINE
5
149
100
AcDbEntity
8
1
62
256
6
ByLayer
370
-1
48
1
60
0
100
AcDbSpline
70
4
71
3
72
8
73
4
40
0
40
0
40
0
40
0
40
1
40
1
40
1
40
1
41
1
10
48.0807949136943
20
-3.5741033370013
30
0
41
1
10
48.0230186616748
20
-3.72703001994495
30
0
41
1
10
47.9659759416953
20
-3.87885738240152
30
0
41
1
10
47.9096504437574
20
-4.02945731239265
30
0
0
SPLINE
5
14A
100
AcDbEntity
8
1
62
256
6
ByLayer
370
-1
48
1
60
0
100
AcDbSpline
70
4
71
3
72
10
73
6
40
0
40
0
40
0
40
0
40
0.598052989958071
40
0.598052989958071
40
1
40
1
40
1
40
1
41
1
10
41.3638086319104
20
4.8107919182722
30
0
41
1
10
41.3582281753995
20
4.81176635292599
30
0
41
1
10
41.3556545664118
20
4.81238059352694
30
0
41
1
10
41.3525810219778
20
4.81325647211941
30
0
41
1
10
41.351875292544
20
4.81354334842024
30
0
41
1
10
41.3516072837316
20
4.81377614376063
30
0
0
SPLINE
5
14B
100
AcDbEntity
8
1
62
256
6
ByLayer
370
-1
48
1
60
0
100
AcDbSpline
70
4
71
3
72
18
73
14
40
0
40
0
40
0
40
0
40
0.250000000000004
40
0.250000000000004
40
0.375000000000003
40
0.375000000000003
40
0.500000000000002
40
0.500000000000002
40
0.75
40
0.75
40
0.875
40
0.875
40
1
40
1
40
1
40
1
41
1
10
37.9760497525626
20
-16.2329029369516
30
0
41
1
10
38.2498190793678
20
-16.2329029369516
30
0
41
1
10
38.519854962684
20
-16.2630930194339
30
0
41
1
10
38.9195736880456
20
-16.3515198427283
30
0
41
1
10
39.0525709466334
20
-16.3884457323852
30
0
41
1
10
39.3135987102748
20
-16.4756498601938
30
0
41
1
10
39.4409509059334
20
-16.5256089275336
30
0
41
1
10
39.8142880992136
20
-16.6930176658396
30
0
41
1
10
40.0516122433562
20
-16.827881169962
30
0
41
1
10
40.3919832551858
20
-17.061572935105
30
0
41
1
10
40.5018601599395
20
-17.1441025387483
30
0
41
1
10
40.7134841129422
20
-17.3163972099323
30
0
41
1
10
40.8155080922171
20
-17.4063546627665
30
0
41
1
10
40.9140271904695
20
-17.4998374633813
30
0
0
SPLINE
5
14C
100
AcDbEntity
8
1
62
256
6
ByLayer
370
-1
48
1
60
0
100
AcDbSpline
70
4
71
3
72
8
73
4
40
0
40
0
40
0
40
0
40
1
40
1
40
1
40
1
41
1
10
24.5540548584108
20
-5.944687552532
30
0
41
1
10
23.7499129227845
20
-4.97312246300783
30
0
41
1
10
23.0698562832794
20
-3.92277602793098
30
0
41
1
10
22.4975379790777
20
-2.79848377251153
30
0
0
SPLINE
5
14D
100
AcDbEntity
8
1
62
256
6
ByLayer
370
-1
48
1
60
0
100
AcDbSpline
70
4
71
3
72
8
73
4
40
0
40
0
40
0
40
0
40
1
40
1
40
1
40
1
41
1
10
38.3815176560226
20
21.6237615388426
30
0
41
1
10
38.2470818673143
20
21.6117108766405
30
0
41
1
10
38.1119313513077
20
21.6050537578422
30
0
41
1
10
37.9760497525626
20
21.6039136054321
30
0
0
SPLINE
5
14E
100
AcDbEntity
8
1
62
256
6
ByLayer
370
-1
48
1
60
0
100
AcDbSpline
70
4
71
3
72
38
73
34
40
0
40
0
40
0
40
0
40
0.125000000000002
40
0.125000000000002
40
0.187500000000003
40
0.187500000000003
40
0.218750000000004
40
0.218750000000004
40
0.250000000000004
40
0.250000000000004
40
0.375000000000005
40
0.375000000000005
40
0.437500000000005
40
0.437500000000005
40
0.468750000000005
40
0.468750000000005
40
0.500000000000005
40
0.500000000000005
40
0.625000000000004
40
0.625000000000004
40
0.687500000000004
40
0.687500000000004
40
0.718750000000003
40
0.718750000000003
40
0.750000000000003
40
0.750000000000003
40
0.875000000000002
40
0.875000000000002
40
0.906250000000001
40
0.906250000000001
40
0.937500000000001
40
0.937500000000001
40
1
40
1
40
1
40
1
41
1
10
35.9989999999988
20
14.6498978769737
30
0
41
1
10
35.2466311034424
20
14.7239930066896
30
0
41
1
10
34.5115754933975
20
14.8401270551747
30
0
41
1
10
33.4353602389795
20
15.0744578866368
30
0
41
1
10
33.0810386271945
20
15.1626134518042
30
0
41
1
10
32.5564383748067
20
15.3097321076871
30
0
41
1
10
32.3827201394892
20
15.3612536642705
30
0
41
1
10
32.0376425284348
20
15.4692427430213
30
0
41
1
10
31.8658610521319
20
15.5258616542966
30
0
41
1
10
31.019551273567
20
15.8189872975241
30
0
41
1
10
30.3819611637146
20
16.0854698065408
30
0
41
1
10
29.4845605615035
20
16.5229634670504
30
0
41
1
10
29.1952950685069
20
16.6750967025169
30
0
41
1
10
28.776486865857
20
16.911450997603
30
0
41
1
10
28.6394012039649
20
16.9915942146248
30
0
41
1
10
28.3703371032803
20
17.154369815047
30
0
41
1
10
28.2383503891676
20
17.237027883674
30
0
41
1
10
27.5985281997823
20
17.6511342508916
30
0
41
1
10
27.1445735787211
20
17.9886559429581
30
0
41
1
10
26.5427526568609
20
18.4894787249483
30
0
41
1
10
26.3553728168416
20
18.6555215500597
30
0
41
1
10
26.0935134526257
20
18.9014201916411
30
0
41
1
10
26.009233241834
20
18.9830593314117
30
0
41
1
10
25.8481303255823
20
19.1438336547832
30
0
41
1
10
25.7713218051574
20
19.2229372244414
30
0
41
1
10
25.4050590755887
20
19.6115446205462
30
0
41
1
10
25.1685823006398
20
19.9002703966984
30
0
41
1
10
24.932610588301
20
20.2262671071378
30
0
41
1
10
24.8884192458114
20
20.2897230992616
30
0
41
1
10
24.805849843697
20
20.4129723086812
30
0
41
1
10
24.7674193990424
20
20.4728517714322
30
0
41
1
10
24.6609721473646
20
20.6461263096362
30
0
41
1
10
24.602096236587
20
20.7525942942641
30
0
41
1
10
24.5540548584109
20
20.8499371882563
30
0
0
SPLINE
5
14F
100
AcDbEntity
8
1
62
256
6
ByLayer
370
-1
48
1
60
0
100
AcDbSpline
70
4
71
3
72
8
73
4
40
0
40
0
40
0
40
0
40
1
40
1
40
1
40
1
41
1
10
46.6606842215113
20
0.0731839884331009
30
0
41
1
10
46.6772385553575
20
0.0345754469833253
30
0
41
1
10
46.6946079977871
20
-0.000718583481671
30
0
41
1
10
46.7124608366004
20
-0.0324884427215295
30
0
0
SPLINE
5
150
100
AcDbEntity
8
1
62
256
6
ByLayer
370
-1
48
1
60
0
100
AcDbSpline
70
4
71
3
72
8
73
4
40
0
40
0
40
0
40
0
40
1
40
1
40
1
40
1
41
1
10
38.3815176560224
20
1.12829348807958
30
0
41
1
10
38.2470600260216
20
1.14496741733422
30
0
41
1
10
38.1119091152536
20
1.16165204689136
30
0
41
1
10
37.9760497525626
20
1.17834761090717
30
0
0
SPLINE
5
151
100
AcDbEntity
8
1
62
256
6
ByLayer
370
-1
48
1
60
0
100
AcDbSpline
70
4
71
3
72
12
73
8
40
0
40
0
40
0
40
0
40
0.500000000000011
40
0.500000000000011
40
0.750000000000006
40
0.750000000000006
40
1
40
1
40
1
40
1
41
1
10
40.2429088284492
20
0.857719006265512
30
0
41
1
10
40.3115459113993
20
0.829210919239642
30
0
41
1
10
40.3890363812714
20
0.80079018561662
30
0
41
1
10
40.5195265984149
20
0.761013774656305
30
0
41
1
10
40.5652143062167
20
0.748317547291208
30
0
41
1
10
40.6587789855854
20
0.724990083105553
30
0
41
1
10
40.7069569358254
20
0.714263329081717
30
0
41
1
10
40.7565602353986
20
0.704601768942922
30
0
0
SPLINE
5
152
100
AcDbEntity
8
1
62
256
6
ByLayer
370
-1
48
1
60
0
100
AcDbSpline
70
4
71
3
72
24
73
20
40
0
40
0
40
0
40
0
40
0.250000000000004
40
0.250000000000004
40
0.312500000000004
40
0.312500000000004
40
0.375000000000005
40
0.375000000000005
40
0.500000000000005
40
0.500000000000005
40
0.625000000000005
40
0.625000000000005
40
0.750000000000004
40
0.750000000000004
40
0.875000000000004
40
0.875000000000004
40
0.937500000000002
40
0.937500000000002
40
1
40
1
40
1
40
1
41
1
10
41.480265422605
20
-3.07613069003872
30
0
41
1
10
41.3112604919527
20
-2.76117578753147
30
0
41
1
10
41.1448480888253
20
-2.44299855086501
30
0
41
1
10
40.9306227572668
20
-2.04650578439987
30
0
41
1
10
40.8874629786178
20
-1.96726953893636
30
0
41
1
10
40.8002315635129
20
-1.80907285410936
30
0
41
1
10
40.7559932307338
20
-1.72982045885993
30
0
41
1
10
40.6229435275575
20
-1.49541667284333
30
0
41
1
10
40.5337954690814
20
-1.34350913732467
30
0
41
1
10
40.3517727510237
20
-1.04943131380276
30
0
41
1
10
40.2589405938542
20
-0.907246420123812
30
0
41
1
10
40.065463506858
20
-0.634424783631374
30
0
41
1
10
39.9646674121745
20
-0.50368416175175
30
0
41
1
10
39.7534314407968
20
-0.262500422123537
30
0
41
1
10
39.642628995831
20
-0.151160522143527
30
0
41
1
10
39.4596761509389
20
-0.0014889710957675
30
0
41
1
10
39.3955319208135
20
0.0456720420498584
30
0
41
1
10
39.2606531001182
20
0.131917269042049
30
0
41
1
10
39.1899818798556
20
0.171024622302952
30
0
41
1
10
39.1147529997704
20
0.205387033380106
30
0
0
SPLINE
5
153
100
AcDbEntity
8
1
62
256
6
ByLayer
370
-1
48
1
60
0
100
AcDbSpline
70
4
71
3
72
8
73
4
40
0
40
0
40
0
40
0
40
1
40
1
40
1
40
1
41
1
10
39.8563270966745
20
3.32475633182375
30
0
41
1
10
39.8668113526867
20
3.3445332420805
30
0
41
1
10
39.8770717477822
20
3.36292532779356
30
0
41
1
10
39.8852793410742
20
3.37943695944531
30
0
0
SPLINE
5
154
100
AcDbEntity
8
1
62
256
6
ByLayer
370
-1
48
1
60
0
100
AcDbSpline
70
4
71
3
72
12
73
8
40
0
40
0
40
0
40
0
40
0.250000000000002
40
0.250000000000002
40
0.500000000000003
40
0.500000000000003
40
1
40
1
40
1
40
1
41
1
10
41.6655112113904
20
14.5542891718632
30
0
41
1
10
41.7798123765717
20
14.5542891718632
30
0
41
1
10
41.8997158930296
20
14.5542891718632
30
0
41
1
10
42.151675533863
20
14.5542891718632
30
0
41
1
10
42.2813975455988
20
14.5542891718632
30
0
41
1
10
42.6819104524537
20
14.5542891718632
30
0
41
1
10
42.9639130352731
20
14.5542891718632
30
0
41
1
10
43.2625967659289
20
14.5542891718632
30
0
0
SPLINE
5
155
100
AcDbEntity
8
1
62
256
6
ByLayer
370
-1
48
1
60
0
100
AcDbSpline
70
4
71
3
72
8
73
4
40
0
40
0
40
0
40
0
40
1
40
1
40
1
40
1
41
1
10
47.9580777994848
20
-7.34705640849228
30
0
41
1
10
47.626905284329
20
-6.81591469804115
30
0
41
1
10
47.2982085871843
20
-6.28410588491485
30
0
41
1
10
46.9731999999985
20
-5.75130332022485
30
0
0
SPLINE
5
156
100
AcDbEntity
8
1
62
256
6
ByLayer
370
-1
48
1
60
0
100
AcDbSpline
70
4
71
3
72
14
73
10
40
0
40
0
40
0
40
0
40
0.250000000000008
40
0.250000000000008
40
0.375000000000009
40
0.375000000000009
40
0.50000000000001
40
0.50000000000001
40
1
40
1
40
1
40
1
41
1
10
40.7565602354039
20
0.704601768944258
30
0
41
1
10
40.9145773042528
20
0.640515610038108
30
0
41
1
10
41.0779451250442
20
0.571208875630617
30
0
41
1
10
41.3342603474173
20
0.463127331645069
30
0
41
1
10
41.4215715714597
20
0.426419320544369
30
0
41
1
10
41.6004238087242
20
0.352304942367368
30
0
41
1
10
41.6919102299743
20
0.314931025717783
30
0
41
1
10
42.1535649976372
20
0.130873160285631
30
0
41
1
10
42.5420467376772
20
-0.0088950474948319
30
0
41
1
10
42.9528696092773
20
-0.126662056711695
30
0
0
SPLINE
5
157
100
AcDbEntity
8
1
62
256
6
ByLayer
370
-1
48
1
60
0
100
AcDbSpline
70
4
71
3
72
12
73
8
40
0
40
0
40
0
40
0
40
0.499999999999999
40
0.499999999999999
40
0.75
40
0.75
40
1
40
1
40
1
40
1
41
1
10
42.4342096843122
20
-4.34881832182123
30
0
41
1
10
42.2460765608871
20
-4.17714984182436
30
0
41
1
10
42.0749899306894
20
-3.9856907357912
30
0
41
1
10
41.8385084189291
20
-3.66731548806249
30
0
41
1
10
41.7630046596024
20
-3.55600852730117
30
0
41
1
10
41.6173791676997
20
-3.32288868919164
30
0
41
1
10
41.5472994097945
20
-3.20105416309269
30
0
41
1
10
41.4802654226042
20
-3.07613069003952
30
0
0
SPLINE
5
158
100
AcDbEntity
8
1
62
256
6
ByLayer
370
-1
48
1
60
0
100
AcDbSpline
70
4
71
3
72
8
73
4
40
0
40
0
40
0
40
0
40
1
40
1
40
1
40
1
41
1
10
46.2110691864347
20
-0.220927854423962
30
0
41
1
10
46.3203779008536
20
-0.200952335992014
30
0
41
1
10
46.429509751192
20
-0.182648880225031
30
0
41
1
10
46.5386334771394
20
-0.166158245754957
30
0
0
SPLINE
5
159
100
AcDbEntity
8
1
62
256
6
ByLayer
370
-1
48
1
60
0
100
AcDbSpline
70
4
71
3
72
8
73
4
40
0
40
0
40
0
40
0
40
1
40
1
40
1
40
1
41
1
10
24.5540548584109
20
20.8499371882563
30
0
41
1
10
23.7499129227846
20
21.1079121708319
30
0
41
1
10
23.0698562832794
20
21.3145833161107
30
0
41
1
10
22.4975379790778
20
21.4409224813816
30
0
0
SPLINE
5
15A
100
AcDbEntity
8
1
62
256
6
ByLayer
370
-1
48
1
60
0
100
AcDbSpline
70
4
71
3
72
20
73
16
40
0
40
0
40
0
40
0
40
0.250082887107607
40
0.250082887107607
40
0.375124330661411
40
0.375124330661411
40
0.500165774215215
40
0.500165774215215
40
0.62520721776902
40
0.62520721776902
40
0.750248661322824
40
0.750248661322824
40
0.875290104876629
40
0.875290104876629
40
1
40
1
40
1
40
1
41
1
10
0.899999999999977
20
5.42749999999998
30
0
41
1
10
0.839411878670774
20
5.48808812132918
30
0
41
1
10
0.78157057408481
20
5.54592942591515
30
0
41
1
10
0.698617275826251
20
5.62888272417371
30
0
41
1
10
0.671415969498185
20
5.65608403050177
30
0
41
1
10
0.619609046773888
20
5.70789095322607
30
0
41
1
10
0.595009412587217
20
5.73249058741274
30
0
41
1
10
0.548586891942335
20
5.77891310805762
30
0
41
1
10
0.526757171056232
20
5.80074282894373
30
0
41
1
10
0.486400225068309
20
5.84109977493165
30
0
41
1
10
0.467836886277979
20
5.85966311372198
30
0
41
1
10
0.436544590529906
20
5.89095540947008
30
0
41
1
10
0.423455174942603
20
5.90404482505735
30
0
41
1
10
0.405236779592343
20
5.92226322040759
30
0
41
1
10
0.400019932199967
20
5.92748006779996
30
0
41
1
10
0.400003380810801
20
5.92749661918918
30
0
0
SPLINE
5
15B
100
AcDbEntity
8
1
62
256
6
ByLayer
370
-1
48
1
60
0
100
AcDbSpline
70
4
71
3
72
10
73
6
40
0
40
0
40
0
40
0
40
0.766813296003269
40
0.766813296003269
40
1
40
1
40
1
40
1
41
1
10
39.885279341077
20
3.37943695944182
30
0
41
1
10
39.860314469616
20
3.44134141800808
30
0
41
1
10
39.8394589579186
20
3.50495053007347
30
0
41
1
10
39.8099414514273
20
3.5706619026428
30
0
41
1
10
39.8028409794947
20
3.58472805052597
30
0
41
1
10
39.7952337490522
20
3.59705029033398
30
0
0
SPLINE
5
15C
100
AcDbEntity
8
1
62
256
6
ByLayer
370
-1
48
1
60
0
100
AcDbSpline
70
4
71
3
72
8
73
4
40
0
40
0
40
0
40
0
40
1
40
1
40
1
40
1
41
1
10
39.046772834123
20
1.952880317894
30
0
41
1
10
38.9954016044106
20
1.86214851471101
30
0
41
1
10
38.9552056098137
20
1.76634771931234
30
0
41
1
10
38.9263975011265
20
1.66539326975828
30
0
0
SPLINE
5
15D
100
AcDbEntity
8
1
62
256
6
ByLayer
370
-1
48
1
60
0
100
AcDbSpline
70
4
71
3
72
24
73
20
40
0
40
0
40
0
40
0
40
0.125000000000001
40
0.125000000000001
40
0.187500000000001
40
0.187500000000001
40
0.250000000000001
40
0.250000000000001
40
0.375
40
0.375
40
0.499999999999999
40
0.499999999999999
40
0.562499999999999
40
0.562499999999999
40
0.624999999999999
40
0.624999999999999
40
0.749999999999999
40
0.749999999999999
40
1
40
1
40
1
40
1
41
1
10
24.5540548584108
20
-5.94468755253197
30
0
41
1
10
24.9889081613673
20
-5.99925342410606
30
0
41
1
10
25.4444307411061
20
-6.06969480375136
30
0
41
1
10
26.1600449623781
20
-6.19256464728599
30
0
41
1
10
26.403978149485
20
-6.23641494043127
30
0
41
1
10
26.9029489094862
20
-6.32906360734151
30
0
41
1
10
27.1563733546637
20
-6.37756201182617
30
0
41
1
10
27.9270551272895
20
-6.52800764875587
30
0
41
1
10
28.4553116809733
20
-6.63495772261641
30
0
41
1
10
29.5411273721507
20
-6.85702479260417
30
0
41
1
10
30.0986833729016
20
-6.97216648549573
30
0
41
1
10
30.9577208045188
20
-7.14844261100072
30
0
41
1
10
31.2478555433679
20
-7.20780595725037
30
0
41
1
10
31.8358916371285
20
-7.3274184279976
30
0
41
1
10
32.1339971234893
20
-7.38770598208603
30
0
41
1
10
33.0311272336466
20
-7.56767229109991
30
0
41
1
10
33.635869740266
20
-7.68702534522686
30
0
41
1
10
35.4700596083274
20
-8.04095628862308
30
0
41
1
10
36.7193373598595
20
-8.27114206945387
30
0
41
1
10
37.9965217820131
20
-8.49356993766
30
0
0
SPLINE
5
15E
100
AcDbEntity
8
1
62
256
6
ByLayer
370
-1
48
1
60
0
100
AcDbSpline
70
4
71
3
72
8
73
4
40
0
40
0
40
0
40
0
40
1
40
1
40
1
40
1
41
1
10
27.9353790427676
20
21.4700612551482
30
0
41
1
10
28.2548725549018
20
21.468584656754
30
0
41
1
10
28.5739552368665
20
21.4712246613006
30
0
41
1
10
28.8926445007197
20
21.4777228308797
30
0
0
SPLINE
5
15F
100
AcDbEntity
8
1
62
256
6
ByLayer
370
-1
48
1
60
0
100
AcDbSpline
70
4
71
3
72
8
73
4
40
0
40
0
40
0
40
0
40
1
40
1
40
1
40
1
41
1
10
39.0567682785896
20
-21.7452814432527
30
0
41
1
10
39.0532906015756
20
-21.7450680967256
30
0
41
1
10
39.0499584797728
20
-21.7448854294205
30
0
41
1
10
39.0467728341232
20
-21.7447324235901
30
0
0
SPLINE
5
160
100
AcDbEntity
8
1
62
256
6
ByLayer
370
-1
48
1
60
0
100
AcDbSpline
70
4
71
3
72
8
73
4
40
0
40
0
40
0
40
0
40
1
40
1
40
1
40
1
41
1
10
39.8430245904089
20
3.31480760092916
30
0
41
1
10
39.8438974057578
20
3.31922392582484
30
0
41
1
10
39.8447708717739
20
3.32364010826962
30
0
41
1
10
39.8456449873868
20
3.32805614849784
30
0
0
SPLINE
5
161
100
AcDbEntity
8
1
62
256
6
ByLayer
370
-1
48
1
60
0
100
AcDbSpline
70
4
71
3
72
10
73
6
40
0
40
0
40
0
40
0
40
0.664772176404925
40
0.664772176404925
40
1
40
1
40
1
40
1
41
1
10
46.5386334771394
20
-0.166158245754929
30
0
41
1
10
46.5477245356434
20
-0.106662793141794
30
0
41
1
10
46.5584806147995
20
-0.0498406964425158
30
0
41
1
10
46.5769966518984
20
0.0318208331108849
30
0
41
1
10
46.5835891137481
20
0.0584719711622199
30
0
41
1
10
46.5905013641449
20
0.084275156335508
30
0
0
SPLINE
5
162
100
AcDbEntity
8
1
62
256
6
ByLayer
370
-1
48
1
60
0
100
AcDbSpline
70
4
71
3
72
18
73
14
40
0
40
0
40
0
40
0
40
0.125
40
0.125
40
0.250000000000001
40
0.250000000000001
40
0.500000000000001
40
0.500000000000001
40
0.625000000000001
40
0.625000000000001
40
0.750000000000002
40
0.750000000000002
40
1
40
1
40
1
40
1
41
1
10
47.5048948019245
20
-17.9027832260976
30
0
41
1
10
47.625712383907
20
-17.7686812725921
30
0
41
1
10
47.7392050731049
20
-17.6283939186831
30
0
41
1
10
47.9525505819708
20
-17.336301219138
30
0
41
1
10
48.0528208484229
20
-17.1837301350511
30
0
41
1
10
48.3302393133101
20
-16.7162625295256
30
0
41
1
10
48.4846234242451
20
-16.3919139847727
30
0
41
1
10
48.6782018970895
20
-15.8895967132826
30
0
41
1
10
48.7363374386311
20
-15.719501243294
30
0
41
1
10
48.8406188823086
20
-15.3743265847103
30
0
41
1
10
48.8868898595362
20
-15.1986554396973
30
0
41
1
10
49.0075980851348
20
-14.6690045282821
30
0
41
1
10
49.0638571863851
20
-14.3142353880544
30
0
41
1
10
49.1000000000001
20
-13.9580800249741
30
0
0
SPLINE
5
163
100
AcDbEntity
8
1
62
256
6
ByLayer
370
-1
48
1
60
0
100
AcDbSpline
70
4
71
3
72
8
73
4
40
0
40
0
40
0
40
0
40
1
40
1
40
1
40
1
41
1
10
27.9353790427676
20
2.31217387395961
30
0
41
1
10
28.2548725549017
20
2.34059938079201
30
0
41
1
10
28.573955236867
20
2.33449939439183
30
0
41
1
10
28.8926445007202
20
2.29528339797369
30
0
0
SPLINE
5
164
100
AcDbEntity
8
1
62
256
6
ByLayer
370
-1
48
1
60
0
100
AcDbSpline
70
4
71
3
72
8
73
4
40
0
40
0
40
0
40
0
40
1
40
1
40
1
40
1
41
1
10
28.8926445007081
20
-21.5879294565566
30
0
41
1
10
31.2612426131337
20
-21.6201207533404
30
0
41
1
10
33.6300171870556
20
-21.640800761191
30
0
41
1
10
35.9989999999988
20
-21.6478965051106
30
0
0
SPLINE
5
165
100
AcDbEntity
8
1
62
256
6
ByLayer
370
-1
48
1
60
0
100
AcDbSpline
70
4
71
3
72
8
73
4
40
0
40
0
40
0
40
0
40
1
40
1
40
1
40
1
41
1
10
27.9353790427676
20
-21.5812048733594
30
0
41
1
10
27.8626596641196
20
-21.5801651557428
30
0
41
1
10
27.7899405049367
20
-21.5791148576546
30
0
41
1
10
27.7172215685164
20
-21.5780540382892
30
0
0
SPLINE
5
166
100
AcDbEntity
8
1
62
256
6
ByLayer
370
-1
48
1
60
0
100
AcDbSpline
70
4
71
3
72
88
73
84
40
-0.03125
40
-0.03125
40
0
40
0
40
0.0312500000000019
40
0.0312500000000019
40
0.0625000000000037
40
0.0625000000000037
40
0.0937500000000056
40
0.0937500000000056
40
0.125000000000007
40
0.125000000000007
40
0.156250000000009
40
0.156250000000009
40
0.187500000000011
40
0.187500000000011
40
0.250000000000015
40
0.250000000000015
40
0.265625000000015
40
0.265625000000015
40
0.281250000000014
40
0.281250000000014
40
0.312500000000014
40
0.312500000000014
40
0.343750000000013
40
0.343750000000013
40
0.375000000000012
40
0.375000000000012
40
0.390625000000011
40
0.390625000000011
40
0.406250000000011
40
0.406250000000011
40
0.421875000000011
40
0.421875000000011
40
0.437500000000011
40
0.437500000000011
40
0.45312500000001
40
0.45312500000001
40
0.46875000000001
40
0.46875000000001
40
0.48437500000001
40
0.48437500000001
40
0.50000000000001
40
0.50000000000001
40
0.51562500000001
40
0.51562500000001
40
0.531250000000009
40
0.531250000000009
40
0.546875000000009
40
0.546875000000009
40
0.562500000000009
40
0.562500000000009
40
0.593750000000008
40
0.593750000000008
40
0.625000000000007
40
0.625000000000007
40
0.687500000000004
40
0.687500000000004
40
0.718750000000003
40
0.718750000000003
40
0.750000000000002
40
0.750000000000002
40
0.781250000000001
40
0.781250000000001
40
0.8125
40
0.8125
40
0.843749999999999
40
0.843749999999999
40
0.859374999999999
40
0.859374999999999
40
0.874999999999999
40
0.874999999999999
40
0.890624999999999
40
0.890624999999999
40
0.906249999999999
40
0.906249999999999
40
0.921875
40
0.921875
40
0.9375
40
0.9375
40
0.953125
40
0.953125
40
0.96875
40
0.96875
40
1
40
1
40
1.03125
40
1.03125
41
1
10
34.3481913362547
20
-0.177284172779593
30
0
41
1
10
34.2585498295029
20
-0.373677561671826
30
0
41
1
10
34.2053468367088
20
-0.470671060682434
30
0
41
1
10
34.0855731338355
20
-0.663053804251689
30
0
41
1
10
34.0189247242978
20
-0.758418420398129
30
0
41
1
10
33.8722943485975
20
-0.94723385436987
30
0
41
1
10
33.7938726699424
20
-1.03857983432144
30
0
41
1
10
33.6283065129987
20
-1.21332036570996
30
0
41
1
10
33.5404394928199
20
-1.29740780964914
30
0
41
1
10
33.3568681120801
20
-1.4553696294391
30
0
41
1
10
33.2622471216998
20
-1.52839337758144
30
0
41
1
10
33.0668071584664
20
-1.66233306212581
30
0
41
1
10
32.9657500456753
20
-1.72337177254775
30
0
41
1
10
32.6534258486836
20
-1.88610920524496
30
0
41
1
10
32.4408173879854
20
-1.96398236421123
30
0
41
1
10
32.1667272751387
20
-2.02191918667043
30
0
41
1
10
32.1114215793752
20
-2.03148880066081
30
0
41
1
10
32.0016647553878
20
-2.04625019959079
30
0
41
1
10
31.9469977655515
20
-2.05149538842326
30
0
41
1
10
31.7835644882069
20
-2.0608530322985
30
0
41
1
10
31.6753554523829
20
-2.05864288361624
30
0
41
1
10
31.4603245217492
20
-2.03631629938815
30
0
41
1
10
31.3526784284846
20
-2.01589479941231
30
0
41
1
10
31.1459022633126
20
-1.95629565205172
30
0
41
1
10
31.0461564128254
20
-1.91724873748919
30
0
41
1
10
30.9031730644788
20
-1.8425131345692
30
0
41
1
10
30.8563784021768
20
-1.81469769947637
30
0
41
1
10
30.7669600559874
20
-1.75385366966643
30
0
41
1
10
30.7243283831116
20
-1.72087535127227
30
0
41
1
10
30.6437460572089
20
-1.64930594414261
30
0
41
1
10
30.6057890145086
20
-1.61072140491896
30
0
41
1
10
30.5354513889038
20
-1.5270498806714
30
0
41
1
10
30.5033227408516
20
-1.48214174541403
30
0
41
1
10
30.4476515832082
20
-1.38784806047428
30
0
41
1
10
30.4238493543605
20
-1.33818390299137
30
0
41
1
10
30.3856591936485
20
-1.23315949904443
30
0
41
1
10
30.3715866943795
20
-1.17827045013237
30
0
41
1
10
30.3549438036614
20
-1.06731031607924
30
0
41
1
10
30.3521737748621
20
-1.01073841740518
30
0
41
1
10
30.3583578610413
20
-0.895422291816459
30
0
41
1
10
30.3674114540653
20
-0.837302355298448
30
0
41
1
10
30.3960407589621
20
-0.72415561660921
30
0
41
1
10
30.4157134507366
20
-0.668364429962935
30
0
41
1
10
30.4645800110615
20
-0.559305145850601
30
0
41
1
10
30.4932129144211
20
-0.507172362367101
30
0
41
1
10
30.5574293904639
20
-0.406911297128062
30
0
41
1
10
30.5930229184035
20
-0.358788401575424
30
0
41
1
10
30.670250665016
20
-0.266049819423642
30
0
41
1
10
30.7117903162436
20
-0.221613557002456
30
0
41
1
10
30.84131502515
20
-0.0957178955819984
30
0
41
1
10
30.935056804323
20
-0.0204291232476521
30
0
41
1
10
31.1334076885851
20
0.11740751395206
30
0
41
1
10
31.2383834458643
20
0.179958323518633
30
0
41
1
10
31.5585253094542
20
0.348040413199186
30
0
41
1
10
31.781455456134
20
0.436512969586261
30
0
41
1
10
32.1257485982995
20
0.544457904090166
30
0
41
1
10
32.2426246824976
20
0.576252864210574
30
0
41
1
10
32.4764600062051
20
0.631163922204536
30
0
41
1
10
32.5936396374084
20
0.654382648482226
30
0
41
1
10
32.8282992855994
20
0.692624659596532
30
0
41
1
10
32.9457809272919
20
0.707660719032276
30
0
41
1
10
33.1807893724687
20
0.728841073718058
30
0
41
1
10
33.2983191368211
20
0.735035196378249
30
0
41
1
10
33.5330709532057
20
0.736052640266195
30
0
41
1
10
33.6476738874043
20
0.730910041082922
30
0
41
1
10
33.813092529726
20
0.71127306482478
30
0
41
1
10
33.8671389259038
20
0.702713062724627
30
0
41
1
10
33.97235613166
20
0.680340444197554
30
0
41
1
10
34.024037140452
20
0.666344474942946
30
0
41
1
10
34.1204445949378
20
0.632122382442844
30
0
41
1
10
34.165160561994
20
0.611987162971303
30
0
41
1
10
34.2462573562021
20
0.56413188822512
30
0
41
1
10
34.2823950877281
20
0.536323574914434
30
0
41
1
10
34.3420059607464
20
0.474720075865491
30
0
41
1
10
34.3660863077916
20
0.440533345396176
30
0
41
1
10
34.4025855447299
20
0.365450658090509
30
0
41
1
10
34.414522538682
20
0.325714973340951
30
0
41
1
10
34.4279487363919
20
0.24193640839033
30
0
41
1
10
34.4293425366504
20
0.197627959884784
30
0
41
1
10
34.4233953630025
20
0.107750993225324
30
0
41
1
10
34.4161503277917
20
0.0618404863136846
30
0
41
1
10
34.3839244980525
20
-0.0789097312141962
30
0
41
1
10
34.3481913362547
20
-0.177284172779593
30
0
41
1
10
34.2585498295029
20
-0.373677561671826
30
0
0
SPLINE
5
167
100
AcDbEntity
8
1
62
256
6
ByLayer
370
-1
48
1
60
0
100
AcDbSpline
70
4
71
3
72
10
73
6
40
0
40
0
40
0
40
0
40
0.5
40
0.5
40
1
40
1
40
1
40
1
41
1
10
48.2218777619772
20
-8.40020566520252
30
0
41
1
10
48.2041083759437
20
-8.35416013181799
30
0
41
1
10
48.1882041176695
20
-8.30757825924309
30
0
41
1
10
48.1595055419513
20
-8.21352021441939
30
0
41
1
10
48.1467149301597
20
-8.1660429765671
30
0
41
1
10
48.1352762401494
20
-8.11817697787527
30
0
0
SPLINE
5
168
100
AcDbEntity
8
1
62
256
6
ByLayer
370
-1
48
1
60
0
100
AcDbSpline
70
4
71
3
72
8
73
4
40
0
40
0
40
0
40
0
40
1
40
1
40
1
40
1
41
1
10
46.9731999999985
20
-5.75130332022485
30
0
41
1
10
46.8579607189607
20
-5.47285155758993
30
0
41
1
10
46.7434488791872
20
-5.19428363382565
30
0
41
1
10
46.629850140804
20
-4.91556990187877
30
0
0
SPLINE
5
169
100
AcDbEntity
8
1
62
256
6
ByLayer
370
-1
48
1
60
0
100
AcDbSpline
70
4
71
3
72
8
73
4
40
0
40
0
40
0
40
0
40
1
40
1
40
1
40
1
41
1
10
35.9999999999982
20
14.6497994203609
30
0
41
1
10
36.6491814346395
20
14.5858999857839
30
0
41
1
10
37.3012852743217
20
14.5542891718632
30
0
41
1
10
37.9562038879097
20
14.5542891718632
30
0
0
SPLINE
5
16A
100
AcDbEntity
8
1
62
256
6
ByLayer
370
-1
48
1
60
0
100
AcDbSpline
70
4
71
3
72
16
73
12
40
0
40
0
40
0
40
0
40
0.0387152402983944
40
0.0387152402983944
40
0.230972192238716
40
0.230972192238716
40
0.423229144179037
40
0.423229144179037
40
0.615486096119358
40
0.615486096119358
40
1
40
1
40
1
40
1
41
1
10
35.4193894377987
20
14.8692369534927
30
0
41
1
10
35.3297622867068
20
14.9260846129148
30
0
41
1
10
35.2401108892989
20
14.9831128080552
30
0
41
1
10
34.7052751636996
20
15.3245081799755
30
0
41
1
10
34.2602016571016
20
15.6141430146457
30
0
41
1
10
33.3844206590184
20
16.2102541334687
30
0
41
1
10
32.9532026630916
20
16.5171766607436
30
0
41
1
10
32.1102101100932
20
17.1553085499531
30
0
41
1
10
31.6983930634242
20
17.4864782843699
30
0
41
1
10
30.496938556155
20
18.5217607321013
30
0
41
1
10
29.7414781716834
20
19.2678313049182
30
0
41
1
10
29.0373144758345
20
20.0764392887912
30
0
0
SPLINE
5
16B
100
AcDbEntity
8
1
62
256
6
ByLayer
370
-1
48
1
60
0
100
AcDbSpline
70
4
71
3
72
38
73
34
40
0
40
0
40
0
40
0
40
0.0625
40
0.0625
40
0.125
40
0.125
40
0.1875
40
0.1875
40
0.25
40
0.25
40
0.3125
40
0.3125
40
0.375
40
0.375
40
0.4375
40
0.4375
40
0.5
40
0.5
40
0.5625
40
0.5625
40
0.625
40
0.625
40
0.6875
40
0.6875
40
0.75
40
0.75
40
0.8125
40
0.8125
40
0.875
40
0.875
40
0.9375
40
0.9375
40
1
40
1
40
1
40
1
41
1
10
39.8456449873869
20
3.32805614849781
30
0
41
1
10
39.8002159502619
20
3.37242491964176
30
0
41
1
10
39.7575917540066
20
3.42174538760503
30
0
41
1
10
39.6816433811005
20
3.52672574102172
30
0
41
1
10
39.6482108070592
20
3.58230636344541
30
0
41
1
10
39.5907041656189
20
3.6995392240031
30
0
41
1
10
39.5664713488219
20
3.76182514833124
30
0
41
1
10
39.5292264873132
20
3.88941541756148
30
0
41
1
10
39.5161554511046
20
3.95445951658152
30
0
41
1
10
39.5008714610022
20
4.08690626528903
30
0
41
1
10
39.4987074124154
20
4.15490264514594
30
0
41
1
10
39.5053241699109
20
4.29013854676327
30
0
41
1
10
39.5139674011173
20
4.35711692756519
30
0
41
1
10
39.5412439425428
20
4.4899042330529
30
0
41
1
10
39.5600754131548
20
4.55622119456709
30
0
41
1
10
39.606872813262
20
4.68501114338724
30
0
41
1
10
39.6346683016834
20
4.74729222044195
30
0
41
1
10
39.6988075402245
20
4.86777035791454
30
0
41
1
10
39.7353912187952
20
4.92628763024666
30
0
41
1
10
39.8166181286961
20
5.03756675523724
30
0
41
1
10
39.8605778325394
20
5.08948166086157
30
0
41
1
10
39.9549295869507
20
5.18597627412592
30
0
41
1
10
40.005320933379
20
5.23055759098619
30
0
41
1
10
40.1127345847891
20
5.31197088859037
30
0
41
1
10
40.1684875055458
20
5.34778490750691
30
0
41
1
10
40.2821635473842
20
5.4091314768597
30
0
41
1
10
40.3403224480206
20
5.43484553031439
30
0
41
1
10
40.4591196027402
20
5.4761924577445
30
0
41
1
10
40.5183614372533
20
5.49130368093859
30
0
41
1
10
40.6350939181867
20
5.5108123881316
30
0
41
1
10
40.6929947501812
20
5.51528230660765
30
0
41
1
10
40.8067123385548
20
5.51357324049789
30
0
41
1
10
40.8613649132943
20
5.50745042422847
30
0
41
1
10
40.9140271904525
20
5.49636361034857
30
0
0
SPLINE
5
16C
100
AcDbEntity
8
1
62
256
6
ByLayer
370
-1
48
1
60
0
100
AcDbSpline
70
4
71
3
72
18
73
14
40
0
40
0
40
0
40
0
40
0.124999999999998
40
0.124999999999998
40
0.249999999999997
40
0.249999999999997
40
0.499999999999995
40
0.499999999999995
40
0.624999999999994
40
0.624999999999994
40
0.749999999999993
40
0.749999999999993
40
1
40
1
40
1
40
1
41
1
10
47.909430676564
20
-4.03004441494988
30
0
41
1
10
47.8943398846043
20
-4.07032488783767
30
0
41
1
10
47.8775560657463
20
-4.1079561823727
30
0
41
1
10
47.8417375285565
20
-4.17540691187048
30
0
41
1
10
47.8226388625481
20
-4.20548398636808
30
0
41
1
10
47.7617933124379
20
-4.2850679237358
30
0
41
1
10
47.7160417357787
20
-4.32390299142264
30
0
41
1
10
47.6439461082115
20
-4.35799532788684
30
0
41
1
10
47.6192018764662
20
-4.36552394587488
30
0
41
1
10
47.5682537732121
20
-4.37291860973616
30
0
41
1
10
47.5420530497234
20
-4.37271295179434
30
0
41
1
10
47.4633980930378
20
-4.36082382513217
30
0
41
1
10
47.4099212801746
20
-4.33801325515074
30
0
41
1
10
47.3561839928328
20
-4.30108229174147
30
0
0
SPLINE
5
16D
100
AcDbEntity
8
1
62
256
6
ByLayer
370
-1
48
1
60
0
100
AcDbSpline
70
4
71
3
72
8
73
4
40
0
40
0
40
0
40
0
40
1
40
1
40
1
40
1
41
1
10
39.885279341077
20
-21.6490656630082
30
0
41
1
10
39.8835237986802
20
-21.6408964565933
30
0
41
1
10
39.881788576959
20
-21.6327271814163
30
0
41
1
10
39.8800716283691
20
-21.6245558306341
30
0
0
SPLINE
5
16E
100
AcDbEntity
8
1
62
256
6
ByLayer
370
-1
48
1
60
0
100
AcDbSpline
70
4
71
3
72
8
73
4
40
0
40
0
40
0
40
0
40
1
40
1
40
1
40
1
41
1
10
48.1352762401497
20
-8.11817697787518
30
0
41
1
10
48.0740277250267
20
-7.86187828089967
30
0
41
1
10
48.01490079516
20
-7.60485874304726
30
0
41
1
10
47.9580777994848
20
-7.34705640849228
30
0
0
SPLINE
5
16F
100
AcDbEntity
8
1
62
256
6
ByLayer
370
-1
48
1
60
0
100
AcDbSpline
70
4
71
3
72
8
73
4
40
0
40
0
40
0
40
0
40
1
40
1
40
1
40
1
41
1
10
39.0467728341232
20
-21.7447324235901
30
0
41
1
10
38.9955893024996
20
-21.7378724993183
30
0
41
1
10
38.9552526477849
20
-21.7339215282066
30
0
41
1
10
38.9263975011265
20
-21.7319024829253
30
0
0
SPLINE
5
170
100
AcDbEntity
8
1
62
256
6
ByLayer
370
-1
48
1
60
0
100
AcDbSpline
70
4
71
3
72
18
73
14
40
0
40
0
40
0
40
0
40
0.0995039818722095
40
0.198247333590216
40
0.296253788821065
40
0.393546535942613
40
0.490148193014553
40
0.58608078350079
40
0.681365712742365
40
0.776023745188881
40
0.870074982405562
40
0.963538841882083
40
1
40
1
40
1
40
1
41
1
10
47.9093623632545
20
-4.03004906001595
30
0
41
1
10
47.8847305772719
20
-4.03169750858299
30
0
41
1
10
47.8356552960547
20
-4.03498180461648
30
0
41
1
10
47.7602564216836
20
-4.03966948041423
30
0
41
1
10
47.6840176434192
20
-4.04413675248597
30
0
41
1
10
47.606866480978
20
-4.04835268183049
30
0
41
1
10
47.5289192091614
20
-4.05230388831112
30
0
41
1
10
47.4502376820281
20
-4.05597172166364
30
0
41
1
10
47.3708940406914
20
-4.05933831161633
30
0
41
1
10
47.2909538311214
20
-4.06238496577672
30
0
41
1
10
47.2104807552147
20
-4.06509259775547
30
0
41
1
10
47.1458263061772
20
-4.06696886615978
30
0
41
1
10
47.1080268214363
20
-4.06793883717111
30
0
41
1
10
47.0973964408864
20
-4.06820143682768
30
0
0
SPLINE
5
171
100
AcDbEntity
8
1
62
256
6
ByLayer
370
-1
48
1
60
0
100
AcDbSpline
70
4
71
3
72
8
73
4
40
0
40
0
40
0
40
0
40
1
40
1
40
1
40
1
41
1
10
38.5222655387975
20
16.0536135181283
30
0
41
1
10
38.5502853444459
20
16.1779817830314
30
0
41
1
10
38.589145899331
20
16.3037853958603
30
0
41
1
10
38.6425848402547
20
16.4299662592182
30
0
0
SPLINE
5
172
100
AcDbEntity
8
1
62
256
6
ByLayer
370
-1
48
1
60
0
100
AcDbSpline
70
4
71
3
72
20
73
16
40
0
40
0
40
0
40
0
40
0.25995257923631
40
0.25995257923631
40
0.389928868854471
40
0.389928868854471
40
0.519905158472631
40
0.519905158472631
40
0.649881448090791
40
0.649881448090791
40
0.779857737708951
40
0.779857737708951
40
0.909834027327111
40
0.909834027327111
40
1
40
1
40
1
40
1
41
1
10
39.8430245904089
20
-21.8834200927789
30
0
41
1
10
39.7237069574125
20
-21.8414016346158
30
0
41
1
10
39.6118862170281
20
-21.8093310109014
30
0
41
1
10
39.4588516355475
20
-21.7734026299416
30
0
41
1
10
39.4109476292631
20
-21.763626887663
30
0
41
1
10
39.3237625808414
20
-21.7480812612333
30
0
41
1
10
39.2841161407745
20
-21.7422256453934
30
0
41
1
10
39.2130809211889
20
-21.733641379143
30
0
41
1
10
39.1817722045596
20
-21.7309419107759
30
0
41
1
10
39.1297817467039
20
-21.7281874307001
30
0
41
1
10
39.1087382464975
20
-21.7280851532207
30
0
41
1
10
39.0764891972373
20
-21.7299071672292
30
0
41
1
10
39.0653312913127
20
-21.7318584503065
30
0
41
1
10
39.0553140942806
20
-21.7365322049147
30
0
41
1
10
39.053653728812
20
-21.7388353839737
30
0
41
1
10
39.0543917915084
20
-21.7415143431104
30
0
0
SPLINE
5
173
100
AcDbEntity
8
1
62
256
6
ByLayer
370
-1
48
1
60
0
100
AcDbSpline
70
4
71
3
72
38
73
34
40
0
40
0
40
0
40
0
40
0.0624999999999998
40
0.0624999999999998
40
0.125
40
0.125
40
0.1875
40
0.1875
40
0.249999999999999
40
0.249999999999999
40
0.312499999999999
40
0.312499999999999
40
0.374999999999999
40
0.374999999999999
40
0.437499999999999
40
0.437499999999999
40
0.499999999999999
40
0.499999999999999
40
0.562499999999999
40
0.562499999999999
40
0.624999999999999
40
0.624999999999999
40
0.687499999999999
40
0.687499999999999
40
0.749999999999999
40
0.749999999999999
40
0.812499999999999
40
0.812499999999999
40
0.875
40
0.875
40
0.9375
40
0.9375
40
1
40
1
40
1
40
1
41
1
10
39.8456449873871
20
-21.8830147472487
30
0
41
1
10
39.8001452358604
20
-21.8595217187226
30
0
41
1
10
39.7582848285616
20
-21.8376955199979
30
0
41
1
10
39.6823096447849
20
-21.7966478434541
30
0
41
1
10
39.6481457960771
20
-21.7773709743399
30
0
41
1
10
39.5905815297113
20
-21.7421806014578
30
0
41
1
10
39.5668004644836
20
-21.7260719692318
30
0
41
1
10
39.529567213255
20
-21.6963037255533
30
0
41
1
10
39.5161554530801
20
-21.6825862908561
30
0
41
1
10
39.5008459426051
20
-21.6582828001837
30
0
41
1
10
39.4987248049743
20
-21.6475574170485
30
0
41
1
10
39.5052013018022
20
-21.6287894155364
30
0
41
1
10
39.5139429637671
20
-21.6207317039524
30
0
41
1
10
39.5412645387223
20
-21.6079234295637
30
0
41
1
10
39.5598104474353
20
-21.6030857971127
30
0
41
1
10
39.6063549928903
20
-21.596882022327
30
0
41
1
10
39.6346187499885
20
-21.5955424556284
30
0
41
1
10
39.6989422915803
20
-21.5971088274643
30
0
41
1
10
39.7350997984045
20
-21.5999714322869
30
0
41
1
10
39.8154288188775
20
-21.6106933233824
30
0
41
1
10
39.8601149569483
20
-21.6186754559942
30
0
41
1
10
39.9553254889388
20
-21.6403558718406
30
0
41
1
10
40.0056522461544
20
-21.6539644608509
30
0
41
1
10
40.1114651248114
20
-21.687467223326
30
0
41
1
10
40.1674302373178
20
-21.7075552197485
30
0
41
1
10
40.2823944523586
20
-21.7542446052619
30
0
41
1
10
40.3405421471406
20
-21.7804609008774
30
0
41
1
10
40.4578726604248
20
-21.838822197574
30
0
41
1
10
40.5175998842205
20
-21.8712965306549
30
0
41
1
10
40.6352160790156
20
-21.9409406155468
30
0
41
1
10
40.6927438472038
20
-21.9778339760449
30
0
41
1
10
40.8053783979634
20
-22.0555381641531
30
0
41
1
10
40.8607913750785
20
-22.0966060484951
30
0
41
1
10
40.9140271904555
20
-22.1387697425324
30
0
0
SPLINE
5
174
100
AcDbEntity
8
1
62
256
6
ByLayer
370
-1
48
1
60
0
100
AcDbSpline
70
4
71
3
72
8
73
4
40
0
40
0
40
0
40
0
40
1
40
1
40
1
40
1
41
1
10
41.6655112113904
20
-22.8256902178559
30
0
41
1
10
41.6962862728344
20
-22.8558650309309
30
0
41
1
10
41.7273926988888
20
-22.8855684756984
30
0
41
1
10
41.7588223541799
20
-22.9147876461755
30
0
0
SPLINE
5
175
100
AcDbEntity
8
1
62
256
6
ByLayer
370
-1
48
1
60
0
100
AcDbSpline
70
4
71
3
72
8
73
4
40
0
40
0
40
0
40
0
40
1
40
1
40
1
40
1
41
1
10
39.0567682785897
20
1.98647825392962
30
0
41
1
10
39.0532846051264
20
1.97531934032548
30
0
41
1
10
39.0499529972514
20
1.96411998514918
30
0
41
1
10
39.0467728341232
20
1.95288031789389
30
0
0
SPLINE
5
176
100
AcDbEntity
8
1
62
256
6
ByLayer
370
-1
48
1
60
0
100
AcDbSpline
70
4
71
3
72
8
73
4
40
0
40
0
40
0
40
0
40
1
40
1
40
1
40
1
41
1
10
39.8456449873868
20
-21.883014747249
30
0
41
1
10
39.8492097098356
20
-21.8787284159691
30
0
41
1
10
39.8527703701179
20
-21.8744430195146
30
0
41
1
10
39.8563270966744
20
-21.8701585283275
30
0
0
SPLINE
5
177
100
AcDbEntity
8
1
62
256
6
ByLayer
370
-1
48
1
60
0
100
AcDbSpline
70
4
71
3
72
10
73
6
40
0
40
0
40
0
40
0
40
0.919326922282274
40
0.919326922282274
40
1
40
1
40
1
40
1
41
1
10
40.7565602353956
20
0.704601768935618
30
0
41
1
10
40.810844410714
20
0.72377503603505
30
0
41
1
10
40.8655235650884
20
0.746996599036635
30
0
41
1
10
40.9233587218248
20
0.774262286594563
30
0
41
1
10
40.9280166748061
20
0.776477318657243
30
0
41
1
10
40.9326671500376
20
0.778707159708176
30
0
0
SPLINE
5
178
100
AcDbEntity
8
1
62
256
6
ByLayer
370
-1
48
1
60
0
100
AcDbSpline
70
4
71
3
72
65
73
61
40
0
40
0
40
0
40
0
40
0.0312500000000004
40
0.0312500000000004
40
0.0625000000000007
40
0.0625000000000007
40
0.125000000000002
40
0.125000000000002
40
0.187500000000003
40
0.187500000000003
40
0.218750000000004
40
0.218750000000004
40
0.250000000000005
40
0.250000000000005
40
0.281250000000006
40
0.281250000000006
40
0.312500000000007
40
0.312500000000007
40
0.343750000000008
40
0.343750000000008
40
0.359375000000008
40
0.359375000000008
40
0.375000000000008
40
0.375000000000008
40
0.406250000000008
40
0.406250000000008
40
0.437500000000007
40
0.437500000000007
40
0.468750000000006
40
0.468750000000006
40
0.484375000000006
40
0.484375000000006
40
0.500000000000006
40
0.515625000000006
40
0.515625000000006
40
0.531250000000005
40
0.531250000000005
40
0.562500000000005
40
0.562500000000005
40
0.593750000000004
40
0.593750000000004
40
0.625000000000004
40
0.625000000000004
40
0.656250000000003
40
0.656250000000003
40
0.687500000000003
40
0.687500000000003
40
0.718750000000002
40
0.718750000000002
40
0.750000000000002
40
0.750000000000002
40
0.781250000000001
40
0.781250000000001
40
0.812500000000001
40
0.812500000000001
40
0.875
40
0.875
40
0.9375
40
0.9375
40
1
40
1
40
1
40
1
41
1
10
43.2625967659297
20
14.5542891718632
30
0
41
1
10
43.2425181077604
20
14.4413464963724
30
0
41
1
10
43.226367712546
20
14.327504963597
30
0
41
1
10
43.2020629161724
20
14.0981205655769
30
0
41
1
10
43.1939545517937
20
13.982715852034
30
0
41
1
10
43.1821967686639
20
13.6384020873907
30
0
41
1
10
43.1907942534801
20
13.4099998139038
30
0
41
1
10
43.24421199847
20
12.9561016064957
30
0
41
1
10
43.2889417348867
20
12.7306201671839
30
0
41
1
10
43.3900049205746
20
12.3947058055547
30
0
41
1
10
43.4296626484732
20
12.2825541807414
30
0
41
1
10
43.5209470949135
20
12.0624266565582
30
0
41
1
10
43.5725131379366
20
11.954396944829
30
0
41
1
10
43.6888650568108
20
11.7425471689736
30
0
41
1
10
43.7536406064478
20
11.6387264935471
30
0
41
1
10
43.898430815684
20
11.4354641531652
30
0
41
1
10
43.9787026217222
20
11.3359107966508
30
0
41
1
10
44.152222567781
20
11.1465245298514
30
0
41
1
10
44.2458791000159
20
11.0560274645739
30
0
41
1
10
44.3978694627081
20
10.9267595305598
30
0
41
1
10
44.4504565439554
20
10.8847520172657
30
0
41
1
10
44.5597756211257
20
10.802970942791
30
0
41
1
10
44.6163361875867
20
10.7633528356739
30
0
41
1
10
44.7893522291767
20
10.6500364285803
30
0
41
1
10
44.9100132768322
20
10.5811503054483
30
0
41
1
10
45.1625791562998
20
10.4569500452561
30
0
41
1
10
45.2953885171106
20
10.4015088143173
30
0
41
1
10
45.5606008612681
20
10.3097267974635
30
0
41
1
10
45.6943473718001
20
10.2725844852067
30
0
41
1
10
45.8966818694123
20
10.230605783457
30
0
41
1
10
45.964768247011
20
10.2188967109343
30
0
41
1
10
46.0981617014113
20
10.2008290125153
30
0
41
1
10
46.22945194506
20
10.1879221244732
30
0
41
1
10
46.3566546971834
20
10.1852532585024
30
0
41
1
10
46.481834074878
20
10.1878395763801
30
0
41
1
10
46.5437519129259
20
10.19180357722
30
0
41
1
10
46.7238274308507
20
10.2117304166646
30
0
41
1
10
46.8355006726004
20
10.2354135153552
30
0
41
1
10
47.0438784722915
20
10.3033150024156
30
0
41
1
10
47.1408317018825
20
10.3480114684237
30
0
41
1
10
47.3141827782462
20
10.4545409274898
30
0
41
1
10
47.3916667686103
20
10.5166234133024
30
0
41
1
10
47.5308361681637
20
10.6577896049158
30
0
41
1
10
47.591091626982
20
10.7354664537258
30
0
41
1
10
47.6960414521901
20
10.9021832048631
30
0
41
1
10
47.740889452774
20
10.9914198521626
30
0
41
1
10
47.818070440061
20
11.1804626364165
30
0
41
1
10
47.8504187816905
20
11.2805610713765
30
0
41
1
10
47.9037531771093
20
11.4870556622166
30
0
41
1
10
47.9249093018659
20
11.593792995178
30
0
41
1
10
47.9580710546964
20
11.8133261920604
30
0
41
1
10
47.969837007803
20
11.9243297173706
30
0
41
1
10
47.9857046850242
20
12.1500029683239
30
0
41
1
10
47.9897546833113
20
12.264428551168
30
0
41
1
10
47.9917664475328
20
12.6117336494749
30
0
41
1
10
47.9797400992598
20
12.8486045513372
30
0
41
1
10
47.9321136147078
20
13.3301951656133
30
0
41
1
10
47.896212581562
20
13.5760521283477
30
0
41
1
10
47.8009555708944
20
14.0661935397514
30
0
41
1
10
47.7416888883497
20
14.3108747934726
30
0
41
1
10
47.6689179293472
20
14.5542891718632
30
0
0
SPLINE
5
179
100
AcDbEntity
8
1
62
256
6
ByLayer
370
-1
48
1
60
0
100
AcDbSpline
70
4
71
3
72
8
73
4
40
0
40
0
40
0
40
0
40
1
40
1
40
1
40
1
41
1
10
27.9353790427676
20
-21.5812048733594
30
0
41
1
10
28.2548725549017
20
-21.5812964871092
30
0
41
1
10
28.5739552368679
20
-21.5835981938488
30
0
41
1
10
28.8926445007211
20
-21.5879294565568
30
0
0
SPLINE
5
17A
100
AcDbEntity
8
1
62
256
6
ByLayer
370
-1
48
1
60
0
100
AcDbSpline
70
4
71
3
72
18
73
14
40
0
40
0
40
0
40
0
40
0.250000000000003
40
0.250000000000003
40
0.375000000000002
40
0.375000000000002
40
0.500000000000001
40
0.500000000000001
40
0.750000000000004
40
0.750000000000004
40
0.875000000000002
40
0.875000000000002
40
1
40
1
40
1
40
1
41
1
10
37.9760497525626
20
14.5542891718632
30
0
41
1
10
38.2519296751543
20
14.5542891718632
30
0
41
1
10
38.5222468445543
20
14.5542891718632
30
0
41
1
10
38.9200643694437
20
14.5542891718632
30
0
41
1
10
39.0513873175754
20
14.5542891718632
30
0
41
1
10
39.3115105271195
20
14.5542891718632
30
0
41
1
10
39.4403634864877
20
14.5542891718632
30
0
41
1
10
39.8148854802601
20
14.5542891718632
30
0
41
1
10
40.0516396549097
20
14.5542891718632
30
0
41
1
10
40.3898245826807
20
14.5542891718632
30
0
41
1
10
40.500138835122
20
14.5542891718632
30
0
41
1
10
40.7129804784807
20
14.5542891718632
30
0
41
1
10
40.8153538109037
20
14.5542891718632
30
0
41
1
10
40.9140271904695
20
14.5542891718632
30
0
0
SPLINE
5
17B
100
AcDbEntity
8
1
62
256
6
ByLayer
370
-1
48
1
60
0
100
AcDbSpline
70
4
71
3
72
20
73
16
40
0
40
0
40
0
40
0
40
0.124999999999998
40
0.124999999999998
40
0.249999999999997
40
0.249999999999997
40
0.499999999999994
40
0.499999999999994
40
0.624999999999995
40
0.624999999999995
40
0.749999999999997
40
0.749999999999997
40
0.874999999999998
40
0.874999999999998
40
1
40
1
40
1
40
1
41
1
10
39.8430245904089
20
3.31480760092916
30
0
41
1
10
39.7836920957653
20
3.28555070656526
30
0
41
1
10
39.7260633667619
20
3.25248577544619
30
0
41
1
10
39.6147401422769
20
3.17807958919877
30
0
41
1
10
39.5608187845512
20
3.13654214622394
30
0
41
1
10
39.4075127010181
20
2.99928346023802
30
0
41
1
10
39.3200440950599
20
2.89455058293146
30
0
41
1
10
39.2128995172522
20
2.7164884284494
30
0
41
1
10
39.181869557815
20
2.6545299852574
30
0
41
1
10
39.1299245506942
20
2.52761267663027
30
0
41
1
10
39.1088149154034
20
2.46233636553953
30
0
41
1
10
39.0764253283216
20
2.32809695686578
30
0
41
1
10
39.0653435832321
20
2.25959178794687
30
0
41
1
10
39.0535195001416
20
2.12326680639353
30
0
41
1
10
39.0526495705999
20
2.054949789213
30
0
41
1
10
39.0567682785897
20
1.98647825392962
30
0
0
SPLINE
5
17C
100
AcDbEntity
8
1
62
256
6
ByLayer
370
-1
48
1
60
0
100
AcDbSpline
70
4
71
3
72
20
73
16
40
0
40
0
40
0
40
0
40
0.125
40
0.125
40
0.25
40
0.25
40
0.375
40
0.375
40
0.499999999999999
40
0.499999999999999
40
0.625
40
0.625
40
0.75
40
0.75
40
1
40
1
40
1
40
1
41
1
10
39.1147529997704
20
0.205387033380106
30
0
41
1
10
38.6733494815309
20
0.407007596220836
30
0
41
1
10
38.2375511088824
20
0.581553837453555
30
0
41
1
10
37.363448302494
20
0.880965105539502
30
0
41
1
10
36.9249118620059
20
1.00597601962855
30
0
41
1
10
36.0409103203209
20
1.22061471367698
30
0
41
1
10
35.5956497615753
20
1.31060563429804
30
0
41
1
10
34.7052751636996
20
1.47074498789388
30
0
41
1
10
34.2602016571016
20
1.540974089835
30
0
41
1
10
33.3844206590184
20
1.669932029005
30
0
41
1
10
32.9532026630915
20
1.72867105700061
30
0
41
1
10
32.1102101100932
20
1.83879048825875
30
0
41
1
10
31.6983930634242
20
1.89010577271372
30
0
41
1
10
30.4969385561549
20
2.03536406715591
30
0
41
1
10
29.7414781716833
20
2.12079747190478
30
0
41
1
10
29.0373144758344
20
2.19610086829931
30
0
0
SPLINE
5
17D
100
AcDbEntity
8
1
62
256
6
ByLayer
370
-1
48
1
60
0
100
AcDbSpline
70
4
71
3
72
8
73
4
40
0
40
0
40
0
40
0
40
1
40
1
40
1
40
1
41
1
10
35.9989999999988
20
1.42126189676716
30
0
41
0.962129026292342
10
35.9989999999988
20
6.39564249013523
30
0
41
0.962129026292342
10
35.9989999999988
20
10.9787376730227
30
0
41
1
10
35.9989999999988
20
14.6498486139171
30
0
0
SPLINE
5
17E
100
AcDbEntity
8
1
62
256
6
ByLayer
370
-1
48
1
60
0
100
AcDbSpline
70
4
71
3
72
18
73
14
40
0
40
0
40
0
40
0
40
0.125
40
0.125
40
0.250000000000001
40
0.250000000000001
40
0.5
40
0.5
40
0.625
40
0.625
40
0.75
40
0.75
40
1
40
1
40
1
40
1
41
1
10
46.9731999999984
20
-3.71473593875641
30
0
41
1
10
46.9627750281478
20
-3.67509497562722
30
0
41
1
10
46.9529757012351
20
-3.63401125241873
30
0
41
1
10
46.934737035494
20
-3.54876095764089
30
0
41
1
10
46.9262796507607
20
-3.50439607576882
30
0
41
1
10
46.9038568034885
20
-3.37059241176081
30
0
41
1
10
46.8925097994288
20
-3.27924163962379
30
0
41
1
10
46.881206002816
20
-3.13886504261348
30
0
41
1
10
46.8784232407125
20
-3.09155403065637
30
0
41
1
10
46.8749651350304
20
-2.99867990834613
30
0
41
1
10
46.8742560307497
20
-2.95274966803458
30
0
41
1
10
46.8751254375256
20
-2.81644364117855
30
0
41
1
10
46.8798291368681
20
-2.72685993314161
30
0
41
1
10
46.8881289885408
20
-2.64363235868711
30
0
0
SPLINE
5
17F
100
AcDbEntity
8
1
62
256
6
ByLayer
370
-1
48
1
60
0
100
AcDbSpline
70
4
71
3
72
8
73
4
40
0
40
0
40
0
40
0
40
1
40
1
40
1
40
1
41
1
10
28.8926445007081
20
2.2952833979752
30
0
41
1
10
31.2612426131336
20
2.00381786829274
30
0
41
1
10
33.6300171870556
20
1.71248961290951
30
0
41
1
10
35.9989999999988
20
1.42132335244463
30
0
0
SPLINE
5
180
100
AcDbEntity
8
1
62
256
6
ByLayer
370
-1
48
1
60
0
100
AcDbSpline
70
4
71
3
72
8
73
4
40
0
40
0
40
0
40
0
40
1
40
1
40
1
40
1
41
1
10
41.2832178002076
20
4.92654637479552
30
0
41
1
10
41.2352329345149
20
4.99249152716158
30
0
41
1
10
41.1895693049371
20
5.04858524341444
30
0
41
1
10
41.1566449535184
20
5.09407200086113
30
0
0
SPLINE
5
181
100
AcDbEntity
8
1
62
256
6
ByLayer
370
-1
48
1
60
0
100
AcDbSpline
70
4
71
3
72
10
73
6
40
0
40
0
40
0
40
0
40
0.5
40
0.5
40
1
40
1
40
1
40
1
41
1
10
38.9263975011265
20
1.66539326975828
30
0
41
1
10
38.9009057941204
20
1.62032111322642
30
0
41
1
10
38.8780614367541
20
1.57382051074336
30
0
41
1
10
38.8377526833667
20
1.47792476210029
30
0
41
1
10
38.8202170626371
20
1.42823837299972
30
0
41
1
10
38.8057458992599
20
1.3779506839665
30
0
0
SPLINE
5
182
100
AcDbEntity
8
1
62
256
6
ByLayer
370
-1
48
1
60
0
100
AcDbSpline
70
4
71
3
72
8
73
4
40
0
40
0
40
0
40
0
40
1
40
1
40
1
40
1
41
1
10
37.9965217820131
20
-8.49356993766
30
0
41
1
10
38.2944166517609
20
-8.54544977558962
30
0
41
1
10
38.594730353671
20
-8.57012959618257
30
0
41
1
10
38.8974310676349
20
-8.56795137417049
30
0
0
SPLINE
5
183
100
AcDbEntity
8
1
62
256
6
ByLayer
370
-1
48
1
60
0
100
AcDbSpline
70
4
71
3
72
12
73
8
40
0
40
0
40
0
40
0
40
0.499999999999999
40
0.499999999999999
40
0.75
40
0.75
40
1
40
1
40
1
40
1
41
1
10
49.3445081605056
20
-20.9090317751162
30
0
41
1
10
49.2594733457829
20
-21.0264600004662
30
0
41
1
10
49.1678765320171
20
-21.1499388918851
30
0
41
1
10
49.0123988845537
20
-21.3518306124825
30
0
41
1
10
48.9575098214089
20
-21.421952340028
30
0
41
1
10
48.8386273372205
20
-21.5705907109145
30
0
41
1
10
48.7747340475751
20
-21.6490150254317
30
0
41
1
10
48.7033583700902
20
-21.7343386750322
30
0
0
SPLINE
5
184
100
AcDbEntity
8
1
62
256
6
ByLayer
370
-1
48
1
60
0
100
AcDbSpline
70
4
71
3
72
14
73
10
40
0
40
0
40
0
40
0
40
0.25
40
0.25
40
0.5
40
0.5
40
0.75
40
0.75
40
1
40
1
40
1
40
1
41
1
10
39.9664796690737
20
-22.4616194482933
30
0
41
1
10
39.9954145604915
20
-22.4886317265505
30
0
41
1
10
40.0243486213043
20
-22.5135555569857
30
0
41
1
10
40.0816820419818
20
-22.5571836730212
30
0
41
1
10
40.1091356800983
20
-22.5751705549685
30
0
41
1
10
40.158780095921
20
-22.5990188822697
30
0
41
1
10
40.1800790585759
20
-22.6039655236768
30
0
41
1
10
40.2083090529605
20
-22.5965802344922
30
0
41
1
10
40.2154428576009
20
-22.5845659380915
30
0
41
1
10
40.2168470034916
20
-22.5671753249042
30
0
0
SPLINE
5
185
100
AcDbEntity
8
1
62
256
6
ByLayer
370
-1
48
1
60
0
100
AcDbSpline
70
4
71
3
72
14
73
10
40
0
40
0
40
0
40
0
40
0.25
40
0.25
40
0.5
40
0.5
40
0.75
40
0.75
40
1
40
1
40
1
40
1
41
1
10
45.0161008142661
20
-24.4990648259073
30
0
41
1
10
45.0542419988952
20
-24.4897627989135
30
0
41
1
10
45.0906205445396
20
-24.4797934025386
30
0
41
1
10
45.1578694703832
20
-24.4584360241305
30
0
41
1
10
45.1876323802352
20
-24.4474001610952
30
0
41
1
10
45.2341965368109
20
-24.4253390778301
30
0
41
1
10
45.2497559337275
20
-24.4146060283659
30
0
41
1
10
45.2587399675519
20
-24.3971976728954
30
0
41
1
10
45.2525385780208
20
-24.3904818703668
30
0
41
1
10
45.2387696323734
20
-24.3856831350906
30
0
0
SPLINE
5
186
100
AcDbEntity
8
1
62
256
6
ByLayer
370
-1
48
1
60
0
100
AcDbSpline
70
4
71
3
72
8
73
4
40
0
40
0
40
0
40
0
40
1
40
1
40
1
40
1
41
1
10
49.5924431576974
20
-19.9765162524222
30
0
41
1
10
49.5930601244073
20
-19.9807840787181
30
0
41
1
10
49.5937789536145
20
-19.9845401040845
30
0
41
1
10
49.5946135286949
20
-19.987733407665
30
0
0
SPLINE
5
187
100
AcDbEntity
8
1
62
256
6
ByLayer
370
-1
48
1
60
0
100
AcDbSpline
70
4
71
3
72
14
73
10
40
0
40
0
40
0
40
0
40
0.0811410817516088
40
0.0811410817516088
40
0.387427387834406
40
0.387427387834406
40
0.693713693917203
40
0.693713693917203
40
1
40
1
40
1
40
1
41
1
10
49.60037070056
20
-19.9991956953066
30
0
41
1
10
49.6016834953102
20
-20.0001645707922
30
0
41
1
10
49.6031263547078
20
-20.0004421818969
30
0
41
1
10
49.6105660440915
20
-19.998204406722
30
0
41
1
10
49.6183797155832
20
-19.9854382415451
30
0
41
1
10
49.6352989224585
20
-19.9434009873226
30
0
41
1
10
49.6442146124173
20
-19.9150140769227
30
0
41
1
10
49.6614530087823
20
-19.8509552848509
30
0
41
1
10
49.6697393516536
20
-19.8154691607139
30
0
41
1
10
49.6774643419898
20
-19.7782860226808
30
0
0
SPLINE
5
188
100
AcDbEntity
8
1
62
256
6
ByLayer
370
-1
48
1
60
0
100
AcDbSpline
70
4
71
3
72
12
73
8
40
0
40
0
40
0
40
0
40
0.25
40
0.25
40
0.5
40
0.5
40
1
40
1
40
1
40
1
41
1
10
49.4261778028932
20
-19.0157215018727
30
0
41
1
10
49.4472346891364
20
-19.1196533202273
30
0
41
1
10
49.4652891023496
20
-19.2136349358934
30
0
41
1
10
49.4978249643727
20
-19.3897573547831
30
0
41
1
10
49.5122662332522
20
-19.4717650016228
30
0
41
1
10
49.5519025336405
20
-19.7055675377486
30
0
41
1
10
49.5734894190392
20
-19.8454050223332
30
0
41
1
10
49.5924431576975
20
-19.9765162524223
30
0
0
SPLINE
5
189
100
AcDbEntity
8
1
62
256
6
ByLayer
370
-1
48
1
60
0
100
AcDbSpline
70
4
71
3
72
12
73
8
40
0
40
0
40
0
40
0
40
0.499999999999998
40
0.499999999999998
40
0.749999999999999
40
0.749999999999999
40
1
40
1
40
1
40
1
41
1
10
45.2387696323735
20
-24.3856831350907
30
0
41
1
10
45.1283528111281
20
-24.3472008061774
30
0
41
1
10
45.0088630003502
20
-24.306514149919
30
0
41
1
10
44.8046265022361
20
-24.2394098598766
30
0
41
1
10
44.7323123433977
20
-24.2160127699209
30
0
41
1
10
44.5750958276161
20
-24.166160225486
30
0
41
1
10
44.4903319179848
20
-24.1397384074608
30
0
41
1
10
44.395222437423
20
-24.1108030821929
30
0
0
SPLINE
5
18A
100
AcDbEntity
8
1
62
256
6
ByLayer
370
-1
48
1
60
0
100
AcDbSpline
70
4
71
3
72
8
73
4
40
0
40
0
40
0
40
0
40
1
40
1
40
1
40
1
41
1
10
46.164075638868
20
-24.1300031376675
30
0
41
1
10
46.1577733221775
20
-24.1349370269144
30
0
41
1
10
46.1524331159553
20
-24.1395489036304
30
0
41
1
10
46.1481966605549
20
-24.1438024276788
30
0
0
SPLINE
5
18B
100
AcDbEntity
8
1
62
256
6
ByLayer
370
-1
48
1
60
0
100
AcDbSpline
70
4
71
3
72
14
73
10
40
0
40
0
40
0
40
0
40
0.0811421079151331
40
0.0811421079151331
40
0.387428071943422
40
0.387428071943422
40
0.693714035971711
40
0.693714035971711
40
1
40
1
40
1
40
1
41
1
10
46.1391162514327
20
-24.1551881340414
30
0
41
1
10
46.137763399221
20
-24.157671645859
30
0
41
1
10
46.1370635125358
20
-24.1599234827526
30
0
41
1
10
46.1371272077424
20
-24.1693045135922
30
0
41
1
10
46.1476314936227
20
-24.1728182547959
30
0
41
1
10
46.1845249373985
20
-24.1718674333508
30
0
41
1
10
46.2100688543891
20
-24.1676776176569
30
0
41
1
10
46.2680281882434
20
-24.1544465034833
30
0
41
1
10
46.3002740474372
20
-24.1454614247782
30
0
41
1
10
46.3340206642185
20
-24.1348980081469
30
0
0
SPLINE
5
18C
100
AcDbEntity
8
1
62
256
6
ByLayer
370
-1
48
1
60
0
100
AcDbSpline
70
4
71
3
72
16
73
12
40
0
40
0
40
0
40
0
40
0.125000000000003
40
0.125000000000003
40
0.250000000000006
40
0.250000000000006
40
0.500000000000004
40
0.500000000000004
40
0.750000000000002
40
0.750000000000002
40
1
40
1
40
1
40
1
41
1
10
40.8942180127943
20
-23.2440108501753
30
0
41
1
10
40.882286460011
20
-23.2414643638786
30
0
41
1
10
40.8716612192024
20
-23.2401779219798
30
0
41
1
10
40.8534961994287
20
-23.2406496333625
30
0
41
1
10
40.8459418600874
20
-23.2424802651684
30
0
41
1
10
40.8298336891594
20
-23.2529534474217
30
0
41
1
10
40.8276525724985
20
-23.2670461774636
30
0
41
1
10
40.8390462952539
20
-23.3042803660754
30
0
41
1
10
40.851976661924
20
-23.3268172967443
30
0
41
1
10
40.8863027032749
20
-23.3747739693715
30
0
41
1
10
40.9075745156715
20
-23.4000683631283
30
0
41
1
10
40.9312639595424
20
-23.4256410450913
30
0
0
SPLINE
5
18D
100
AcDbEntity
8
1
62
256
6
ByLayer
370
-1
48
1
60
0
100
AcDbSpline
70
4
71
3
72
14
73
10
40
0
40
0
40
0
40
0
40
0.25
40
0.25
40
0.5
40
0.5
40
0.75
40
0.75
40
1
40
1
40
1
40
1
41
1
10
49.3243287825061
20
-21.1064744372392
30
0
41
1
10
49.3358645285375
20
-21.0712059458968
30
0
41
1
10
49.3459698424954
20
-21.0375073052506
30
0
41
1
10
49.3622896390103
20
-20.9753970340821
30
0
41
1
10
49.3682355642003
20
-20.9480069741362
30
0
41
1
10
49.3737191884864
20
-20.905942341379
30
0
41
1
10
49.3728770401854
20
-20.892461358817
30
0
41
1
10
49.3634973024995
20
-20.8868677589782
30
0
41
1
10
49.3551119772868
20
-20.8943885094067
30
0
41
1
10
49.3445081605055
20
-20.9090317751163
30
0
0
SPLINE
5
18E
100
AcDbEntity
8
1
62
256
6
ByLayer
370
-1
48
1
60
0
100
AcDbSpline
70
4
71
3
72
12
73
8
40
0
40
0
40
0
40
0
40
0.25
40
0.25
40
0.5
40
0.5
40
1
40
1
40
1
40
1
41
1
10
42.1951878659184
20
-23.5326724219833
30
0
41
1
10
42.0661892917985
20
-23.5027160646887
30
0
41
1
10
41.945772913029
20
-23.475220086543
30
0
41
1
10
41.7151530294051
20
-23.4231559990551
30
0
41
1
10
41.6050643738794
20
-23.3986208151919
30
0
41
1
10
41.2853386848272
20
-23.3280369938224
30
0
41
1
10
41.0860150877444
20
-23.2849450547998
30
0
41
1
10
40.8942180127942
20
-23.2440108501753
30
0
0
SPLINE
5
18F
100
AcDbEntity
8
1
62
256
6
ByLayer
370
-1
48
1
60
0
100
AcDbSpline
70
4
71
3
72
12
73
8
40
0
40
0
40
0
40
0
40
0.586525690912383
40
0.586525690912383
40
0.879788536368575
40
0.879788536368575
40
1
40
1
40
1
40
1
41
1
10
40.2168470034916
20
-22.5671753249044
30
0
41
1
10
40.228107221215
20
-22.4277153926176
30
0
41
1
10
40.2361601369646
20
-22.279687856063
30
0
41
1
10
40.2394013801906
20
-22.0340374229559
30
0
41
1
10
40.2389846067297
20
-21.9481545360037
30
0
41
1
10
40.2352599936581
20
-21.8186875607014
30
0
41
1
10
40.2338114887369
20
-21.7800702774577
30
0
41
1
10
40.2318953399386
20
-21.7402037860912
30
0
0
SPLINE
5
190
100
AcDbEntity
8
1
62
256
6
ByLayer
370
-1
48
1
60
0
100
AcDbSpline
70
4
71
3
72
14
73
10
40
0
40
0
40
0
40
0
40
0.25
40
0.25
40
0.5
40
0.5
40
0.75
40
0.75
40
1
40
1
40
1
40
1
41
1
10
39.9664796690736
20
2.82519609030098
30
0
41
1
10
39.9954145604915
20
2.84053868240741
30
0
41
1
10
40.0243486213043
20
2.85865157147541
30
0
41
1
10
40.0816820419817
20
2.90398516170592
30
0
41
1
10
40.1091356800983
20
2.93044837635532
30
0
41
1
10
40.158780095921
20
2.99486534344882
30
0
41
1
10
40.1800790585759
20
3.03269467298384
30
0
41
1
10
40.2083090529605
20
3.11094782833717
30
0
41
1
10
40.2154428576009
20
3.151185699455
30
0
41
1
10
40.2168470034916
20
3.18905327449778
30
0
0
SPLINE
5
191
100
AcDbEntity
8
1
62
256
6
ByLayer
370
-1
48
1
60
0
100
AcDbSpline
70
4
71
3
72
14
73
10
40
0
40
0
40
0
40
0
40
0.25
40
0.25
40
0.5
40
0.5
40
0.75
40
0.75
40
1
40
1
40
1
40
1
41
1
10
45.0161008142661
20
2.17663316656262
30
0
41
1
10
45.0542419988952
20
2.19134606690946
30
0
41
1
10
45.0906205445396
20
2.20902610799797
30
0
41
1
10
45.1578694703832
20
2.25403877889752
30
0
41
1
10
45.1876323802352
20
2.28061902698079
30
0
41
1
10
45.2341965368109
20
2.34604840175285
30
0
41
1
10
45.2497559337275
20
2.3847994463224
30
0
41
1
10
45.2587399675519
20
2.46555568777174
30
0
41
1
10
45.2525385780208
20
2.50735884045699
30
0
41
1
10
45.2387696323734
20
2.54691680094982
30
0
0
SPLINE
5
192
100
AcDbEntity
8
1
62
256
6
ByLayer
370
-1
48
1
60
0
100
AcDbSpline
70
4
71
3
72
12
73
8
40
0
40
0
40
0
40
0
40
0.499999999999999
40
0.499999999999999
40
0.75
40
0.75
40
1
40
1
40
1
40
1
41
1
10
49.3445081605056
20
2.09046758096639
30
0
41
1
10
49.2594733457829
20
2.40242183088182
30
0
41
1
10
49.1678765320171
20
2.70933844520562
30
0
41
1
10
49.0123988845537
20
3.15583151814082
30
0
41
1
10
48.9575098214089
20
3.30231094383146
30
0
41
1
10
48.8386273372205
20
3.5882803950179
30
0
41
1
10
48.7747340475751
20
3.72784729121912
30
0
41
1
10
48.7033583700902
20
3.86166997090294
30
0
0
SPLINE
5
193
100
AcDbEntity
8
1
62
256
6
ByLayer
370
-1
48
1
60
0
100
AcDbSpline
70
4
71
3
72
16
73
12
40
0
40
0
40
0
40
0
40
0.125
40
0.125
40
0.249999999999999
40
0.249999999999999
40
0.499999999999999
40
0.499999999999999
40
0.75
40
0.75
40
1
40
1
40
1
40
1
41
1
10
49.5924431576974
20
2.07288150233333
30
0
41
1
10
49.5936222556232
20
2.05376664515725
30
0
41
1
10
49.5951733943821
20
2.03413030290571
30
0
41
1
10
49.5992135695132
20
1.99362098376091
30
0
41
1
10
49.6017437135674
20
1.97253111359274
30
0
41
1
10
49.6105660440915
20
1.91058581560134
30
0
41
1
10
49.6183797155832
20
1.86949999423086
30
0
41
1
10
49.6352989224585
20
1.79701818327749
30
0
41
1
10
49.6442146124173
20
1.76572366981034
30
0
41
1
10
49.6614530087822
20
1.71158755584949
30
0
41
1
10
49.6697393516536
20
1.68882505717303
30
0
41
1
10
49.6774643419898
20
1.6690960627877
30
0
0
SPLINE
5
194
100
AcDbEntity
8
1
62
256
6
ByLayer
370
-1
48
1
60
0
100
AcDbSpline
70
4
71
3
72
12
73
8
40
0
40
0
40
0
40
0
40
0.165724125815787
40
0.165724125815787
40
0.443816083877192
40
0.443816083877192
40
1
40
1
40
1
40
1
41
1
10
49.4503125702716
20
3.64969942733839
30
0
41
1
10
49.4615334012154
20
3.56939652060513
30
0
41
1
10
49.4718624392977
20
3.48729308862355
30
0
41
1
10
49.4978249643726
20
3.26398628334096
30
0
41
1
10
49.5122662332522
20
3.12037582773752
30
0
41
1
10
49.5519025336405
20
2.68209940457669
30
0
41
1
10
49.5734894190392
20
2.38014860838825
30
0
41
1
10
49.5924431576975
20
2.07288150233342
30
0
0
SPLINE
5
195
100
AcDbEntity
8
1
62
256
6
ByLayer
370
-1
48
1
60
0
100
AcDbSpline
70
4
71
3
72
12
73
8
40
0
40
0
40
0
40
0
40
0.499999999999998
40
0.499999999999998
40
0.749999999999999
40
0.749999999999999
40
1
40
1
40
1
40
1
41
1
10
45.2387696323735
20
2.5469168009499
30
0
41
1
10
45.1283528111281
20
2.86414256132642
30
0
41
1
10
45.0088630003502
20
3.17675319275494
30
0
41
1
10
44.8046265022361
20
3.63295156238917
30
0
41
1
10
44.7323123433977
20
3.78286331562424
30
0
41
1
10
44.5750958276161
20
4.07628362309731
30
0
41
1
10
44.4903319179848
20
4.21986260089238
30
0
41
1
10
44.395222437423
20
4.35817912977652
30
0
0
SPLINE
5
196
100
AcDbEntity
8
1
62
256
6
ByLayer
370
-1
48
1
60
0
100
AcDbSpline
70
4
71
3
72
16
73
12
40
0
40
0
40
0
40
0
40
0.125000000000001
40
0.125000000000001
40
0.250000000000002
40
0.250000000000002
40
0.500000000000001
40
0.500000000000001
40
0.750000000000001
40
0.750000000000001
40
1
40
1
40
1
40
1
41
1
10
46.164075638868
20
2.43675842509015
30
0
41
1
10
46.1556026694135
20
2.41885051427383
30
0
41
1
10
46.1488686847202
20
2.40023539155831
30
0
41
1
10
46.1395670569444
20
2.36132891615753
30
0
41
1
10
46.1370516752146
20
2.34081813954262
30
0
41
1
10
46.1371272077424
20
2.27975727175553
30
0
41
1
10
46.1476314936227
20
2.23811606071018
30
0
41
1
10
46.1845249373985
20
2.16261273952443
30
0
41
1
10
46.2100688543891
20
2.12894104698717
30
0
41
1
10
46.2680281882435
20
2.06909983781705
30
0
41
1
10
46.3002740474372
20
2.04302757682194
30
0
41
1
10
46.3340206642185
20
2.0197338174122
30
0
0
SPLINE
5
197
100
AcDbEntity
8
1
62
256
6
ByLayer
370
-1
48
1
60
0
100
AcDbSpline
70
4
71
3
72
16
73
12
40
0
40
0
40
0
40
0
40
0.124999999999996
40
0.124999999999996
40
0.249999999999992
40
0.249999999999992
40
0.499999999999995
40
0.499999999999995
40
0.749999999999997
40
0.749999999999997
40
1
40
1
40
1
40
1
41
1
10
40.8942180127943
20
3.09648097727117
30
0
41
1
10
40.882286460011
20
3.07912476950776
30
0
41
1
10
40.8716612192024
20
3.06108907422518
30
0
41
1
10
40.8534961994286
20
3.02341370283025
30
0
41
1
10
40.8459418600874
20
3.00356209186165
30
0
41
1
10
40.8298336891594
20
2.94449864957272
30
0
41
1
10
40.8276525724985
20
2.90426996600542
30
0
41
1
10
40.8390462952539
20
2.83137241869915
30
0
41
1
10
40.851976661924
20
2.7988814465198
30
0
41
1
10
40.8863027032749
20
2.7410990524325
30
0
41
1
10
40.9075745156715
20
2.71590177894743
30
0
41
1
10
40.9312639595424
20
2.69334471657768
30
0
0
SPLINE
5
198
100
AcDbEntity
8
1
62
256
6
ByLayer
370
-1
48
1
60
0
100
AcDbSpline
70
4
71
3
72
14
73
10
40
0
40
0
40
0
40
0
40
0.25
40
0.25
40
0.500000000000001
40
0.500000000000001
40
0.750000000000001
40
0.750000000000001
40
1
40
1
40
1
40
1
41
1
10
49.3243287825061
20
1.69414403821483
30
0
41
1
10
49.3358645285375
20
1.71248441385112
30
0
41
1
10
49.3459698424954
20
1.73372022016525
30
0
41
1
10
49.3622896390103
20
1.78555311028612
30
0
41
1
10
49.3682355642003
20
1.81528549395745
30
0
41
1
10
49.3737191884864
20
1.88603850611906
30
0
41
1
10
49.3728770401854
20
1.92684269400249
30
0
41
1
10
49.3634973024995
20
2.00969207913022
30
0
41
1
10
49.3551119772867
20
2.05156697630207
30
0
41
1
10
49.3445081605055
20
2.09046758096631
30
0
0
SPLINE
5
199
100
AcDbEntity
8
1
62
256
6
ByLayer
370
-1
48
1
60
0
100
AcDbSpline
70
4
71
3
72
12
73
8
40
0
40
0
40
0
40
0
40
0.25
40
0.25
40
0.5
40
0.5
40
1
40
1
40
1
40
1
41
1
10
42.1951878659184
20
4.63647256326195
30
0
41
1
10
42.0661892917985
20
4.52650458890369
30
0
41
1
10
41.945772913029
20
4.40887989731942
30
0
41
1
10
41.7151530294051
20
4.16451896583035
30
0
41
1
10
41.6050643738794
20
4.0376802616029
30
0
41
1
10
41.2853386848272
20
3.64776050321041
30
0
41
1
10
41.0860150877444
20
3.37547818255658
30
0
41
1
10
40.8942180127942
20
3.09648097727128
30
0
0
SPLINE
5
19A
100
AcDbEntity
8
1
62
256
6
ByLayer
370
-1
48
1
60
0
100
AcDbSpline
70
4
71
3
72
12
73
8
40
0
40
0
40
0
40
0
40
0.5
40
0.5
40
0.75
40
0.75
40
1
40
1
40
1
40
1
41
1
10
40.2168470034916
20
3.18905327449787
30
0
41
1
10
40.228107221215
20
3.49272338632636
30
0
41
1
10
40.2361601369646
20
3.79114554190073
30
0
41
1
10
40.2394013801906
20
4.22431736125287
30
0
41
1
10
40.2389846067297
20
4.36625819013113
30
0
41
1
10
40.2337011315362
20
4.64285864109962
30
0
41
1
10
40.228883370931
20
4.77759834323777
30
0
41
1
10
40.2204084508033
20
4.90635400852983
30
0
0
SPLINE
5
19B
100
AcDbEntity
8
1
62
256
6
ByLayer
370
-1
48
1
60
0
100
AcDbSpline
70
4
71
3
72
16
73
12
40
0
40
0
40
0
40
0
40
0.125
40
0.125
40
0.249999999999999
40
0.249999999999999
40
0.499999999999999
40
0.499999999999999
40
0.75
40
0.75
40
1
40
1
40
1
40
1
41
1
10
49.5924431576974
20
-1.52318073049307
30
0
41
1
10
49.5936222556232
20
-1.50382624266348
30
0
41
1
10
49.5951733943821
20
-1.48400145851164
30
0
41
1
10
49.5992135695133
20
-1.4432371030864
30
0
41
1
10
49.6017437135674
20
-1.42208223311027
30
0
41
1
10
49.6105660440914
20
-1.36016302732744
30
0
41
1
10
49.6183797155832
20
-1.31939823966141
30
0
41
1
10
49.6352989224585
20
-1.24802134489883
30
0
41
1
10
49.6442146124173
20
-1.21748639106872
30
0
41
1
10
49.6614530087822
20
-1.16507686720226
30
0
41
1
10
49.6697393516536
20
-1.14327633295485
30
0
41
1
10
49.6774643419898
20
-1.12455844275277
30
0
0
SPLINE
5
19C
100
AcDbEntity
8
1
62
256
6
ByLayer
370
-1
48
1
60
0
100
AcDbSpline
70
4
71
3
72
12
73
8
40
0
40
0
40
0
40
0
40
0.5
40
0.5
40
0.75
40
0.75
40
1
40
1
40
1
40
1
41
1
10
48.4283240597558
20
-1.84700162709319
30
0
41
1
10
48.4903482905246
20
-2.13559524818137
30
0
41
1
10
48.5541872002984
20
-2.41787208264398
30
0
41
1
10
48.6549461448257
20
-2.82388062167124
30
0
41
1
10
48.6893795627522
20
-2.95626808732268
30
0
41
1
10
48.7607641507451
20
-3.21227887741904
30
0
41
1
10
48.7976876301116
20
-3.33599859149661
30
0
41
1
10
48.8366803161377
20
-3.45251552375083
30
0
0
SPLINE
5
19D
100
AcDbEntity
8
1
62
256
6
ByLayer
370
-1
48
1
60
0
100
AcDbSpline
70
4
71
3
72
16
73
12
40
0
40
0
40
0
40
0
40
0.124999999999999
40
0.124999999999999
40
0.249999999999999
40
0.249999999999999
40
0.499999999999999
40
0.499999999999999
40
0.75
40
0.75
40
1
40
1
40
1
40
1
41
1
10
47.7509530504532
20
-1.95832253449964
30
0
41
1
10
47.7583256324304
20
-1.93852359886432
30
0
41
1
10
47.764270638526
20
-1.91845266992101
30
0
41
1
10
47.7727892245664
20
-1.87767303284883
30
0
41
1
10
47.775325936793
20
-1.85675993105224
30
0
41
1
10
47.7767113618575
20
-1.79635276408334
30
0
41
1
10
47.7691490164195
20
-1.75771471541347
30
0
41
1
10
47.740594265374
20
-1.6920494555672
30
0
41
1
10
47.7202681779804
20
-1.6650052995881
30
0
41
1
10
47.6731523443525
20
-1.62007969336975
30
0
41
1
10
47.6465051241043
20
-1.60225243754695
30
0
41
1
10
47.618151315085
20
-1.58757666580445
30
0
0
SPLINE
5
19E
100
AcDbEntity
8
1
62
256
6
ByLayer
370
-1
48
1
60
0
100
AcDbSpline
70
4
71
3
72
14
73
10
40
0
40
0
40
0
40
0
40
0.25
40
0.25
40
0.5
40
0.5
40
0.75
40
0.75
40
1
40
1
40
1
40
1
41
1
10
48.5829356055537
20
-1.42902151479922
30
0
41
1
10
48.5586596197761
20
-1.45232397176395
30
0
41
1
10
48.5350472172158
20
-1.47818945996619
30
0
41
1
10
48.4905223792358
20
-1.53825365055022
30
0
41
1
10
48.4703420480286
20
-1.57145233113547
30
0
41
1
10
48.437825399272
20
-1.64701961771365
30
0
41
1
10
48.4263212714918
20
-1.68900230251086
30
0
41
1
10
48.4178237228558
20
-1.7710561991415
30
0
41
1
10
48.4205896561329
20
-1.81101408608148
30
0
41
1
10
48.4283240597559
20
-1.84700162709308
30
0
0
SPLINE
5
19F
100
AcDbEntity
8
1
62
256
6
ByLayer
370
-1
48
1
60
0
100
AcDbSpline
70
4
71
3
72
12
73
8
40
0
40
0
40
0
40
0
40
0.179727743256665
40
0.179727743256665
40
0.453151828837779
40
0.453151828837779
40
1
40
1
40
1
40
1
41
1
10
46.9597253998223
20
-3.63230230368285
30
0
41
1
10
47.0201953113521
20
-3.5386860025948
30
0
41
1
10
47.0768808279203
20
-3.44313796366123
30
0
41
1
10
47.2132111400775
20
-3.19886543211501
30
0
41
1
10
47.2892831511375
20
-3.04831721783532
30
0
41
1
10
47.5050086524361
20
-2.5902968046575
30
0
41
1
10
47.6324404239954
20
-2.27658605065361
30
0
41
1
10
47.7509530504533
20
-1.95832253449973
30
0
0
SPLINE
5
1A0
100
AcDbEntity
8
1
62
256
6
ByLayer
370
-1
48
1
60
0
100
AcDbSpline
70
4
71
3
72
12
73
8
40
0
40
0
40
0
40
0
40
0.25
40
0.25
40
0.5
40
0.5
40
1
40
1
40
1
40
1
41
1
10
49.4261778028932
20
-3.28853607779524
30
0
41
1
10
49.4472346891364
20
-3.15531526501283
30
0
41
1
10
49.4652891023496
20
-3.01630245034127
30
0
41
1
10
49.4978249643727
20
-2.7313842972797
30
0
41
1
10
49.5122662332522
20
-2.58540144870707
30
0
41
1
10
49.5519025336404
20
-2.14033941921929
30
0
41
1
10
49.5734894190392
20
-1.8342998463616
30
0
41
1
10
49.5924431576975
20
-1.52318073049315
30
0
0
SPLINE
5
1A1
100
AcDbEntity
8
1
62
256
6
ByLayer
370
-1
48
1
60
0
100
AcDbSpline
70
4
71
3
72
20
73
16
40
0
40
0
40
0
40
0
40
0.0625000000000032
40
0.0625000000000032
40
0.125000000000006
40
0.125000000000006
40
0.250000000000003
40
0.250000000000003
40
0.499999999999995
40
0.499999999999995
40
0.749999999999988
40
0.749999999999988
40
0.874999999999994
40
0.874999999999994
40
1
40
1
40
1
40
1
41
1
10
43.3461282314006
20
20.2564159546498
30
0
41
1
10
43.3548943614227
20
20.2412478699666
30
0
41
1
10
43.359926950194
20
20.2245288544523
30
0
41
1
10
43.3647434407009
20
20.1901729856985
30
0
41
1
10
43.364540133379
20
20.1727978514585
30
0
41
1
10
43.3585454804004
20
20.1201745456113
30
0
41
1
10
43.3474740675764
20
20.0852363459789
30
0
41
1
10
43.3023727052943
20
19.9843382002396
30
0
41
1
10
43.2564686604003
20
19.9216315455669
30
0
41
1
10
43.1472519415175
20
19.8116139852119
30
0
41
1
10
43.0837887551222
20
19.7641378014244
30
0
41
1
10
42.9799601006598
20
19.714919687867
30
0
41
1
10
42.9436817913237
20
19.7021533502277
30
0
41
1
10
42.8701795815645
20
19.6902941514253
30
0
41
1
10
42.8325624909204
20
19.6909723752966
30
0
41
1
10
42.8000528658827
20
19.7062396584494
30
0
0
SPLINE
5
1A2
100
AcDbEntity
8
1
62
256
6
ByLayer
370
-1
48
1
60
0
100
AcDbSpline
70
4
71
3
72
16
73
12
40
0
40
0
40
0
40
0
40
0.125000000000012
40
0.125000000000012
40
0.250000000000024
40
0.250000000000024
40
0.500000000000016
40
0.500000000000016
40
0.750000000000008
40
0.750000000000008
40
1
40
1
40
1
40
1
41
1
10
45.401570056856
20
18.1931599798665
30
0
41
1
10
45.4171375800516
20
18.1864215581591
30
0
41
1
10
45.4344955233776
20
18.1848203494752
30
0
41
1
10
45.4695325971958
20
18.1913492660831
30
0
41
1
10
45.4869363662892
20
18.1993116233151
30
0
41
1
10
45.5350034261152
20
18.2307020535387
30
0
41
1
10
45.5627728765044
20
18.2615184789151
30
0
41
1
10
45.6100055963436
20
18.3283245177913
30
0
41
1
10
45.6297892430151
20
18.3649081088888
30
0
41
1
10
45.6631714435432
20
18.4406980548055
30
0
41
1
10
45.6768230606862
20
18.4801569425528
30
0
41
1
10
45.6875270895982
20
18.5204049246533
30
0
0
SPLINE
5
1A3
100
AcDbEntity
8
1
62
256
6
ByLayer
370
-1
48
1
60
0
100
AcDbSpline
70
4
71
3
72
16
73
12
40
0
40
0
40
0
40
0
40
0.125000000000013
40
0.125000000000013
40
0.250000000000027
40
0.250000000000027
40
0.500000000000018
40
0.500000000000018
40
0.750000000000009
40
0.750000000000009
40
1
40
1
40
1
40
1
41
1
10
42.7805080159151
20
19.7154183638599
30
0
41
1
10
42.7623986144608
20
19.7221567855673
30
0
41
1
10
42.7426506282293
20
19.7237579942512
30
0
41
1
10
42.7034648580467
20
19.7172290776433
30
0
41
1
10
42.6843222457316
20
19.7092667204113
30
0
41
1
10
42.6319845582392
20
19.6778762901876
30
0
41
1
10
42.6024466760285
20
19.6470598648113
30
0
41
1
10
42.5526572086766
20
19.580253825935
30
0
41
1
10
42.5320926608916
20
19.5436702348375
30
0
41
1
10
42.4976942507505
20
19.4678802889209
30
0
41
1
10
42.4838147142761
20
19.4284214011736
30
0
41
1
10
42.4731106853641
20
19.3881734190731
30
0
0
SPLINE
5
1A4
100
AcDbEntity
8
1
62
256
6
ByLayer
370
-1
48
1
60
0
100
AcDbSpline
70
4
71
3
72
16
73
12
40
0
40
0
40
0
40
0
40
0.25
40
0.25
40
0.5
40
0.5
40
0.75
40
0.75
40
0.875
40
0.875
40
1
40
1
40
1
40
1
41
1
10
42.90376082519
20
17.768895363882
30
0
41
1
10
42.8745452806527
20
17.7983303120595
30
0
41
1
10
42.8476195366454
20
17.8300714711239
30
0
41
1
10
42.7999410058322
20
17.8975043073799
30
0
41
1
10
42.7789773548574
20
17.9333774569698
30
0
41
1
10
42.7470735012886
20
18.0090950001948
30
0
41
1
10
42.7358365941066
20
18.0488011088349
30
0
41
1
10
42.735982143417
20
18.108948806413
30
0
41
1
10
42.7391315364483
20
18.1288364216078
30
0
41
1
10
42.7541264709966
20
18.1645604928805
30
0
41
1
10
42.766008180486
20
18.1800258997389
30
0
41
1
10
42.7815295682506
20
18.1913773115798
30
0
0
SPLINE
5
1A5
100
AcDbEntity
8
1
62
256
6
ByLayer
370
-1
48
1
60
0
100
AcDbSpline
70
4
71
3
72
8
73
4
40
0
40
0
40
0
40
0
40
1
40
1
40
1
40
1
41
1
10
45.3850384731105
20
19.7059888014114
30
0
41
1
10
45.3902085229117
20
19.7097262323961
30
0
41
1
10
45.3953785328556
20
19.7134636423638
30
0
41
1
10
45.4005485045205
20
19.7172010321466
30
0
0
SPLINE
5
1A6
100
AcDbEntity
8
1
62
256
6
ByLayer
370
-1
48
1
60
0
100
AcDbSpline
70
4
71
3
72
16
73
12
40
0
40
0
40
0
40
0
40
0.12500000000001
40
0.12500000000001
40
0.25000000000002
40
0.25000000000002
40
0.500000000000013
40
0.500000000000013
40
0.750000000000007
40
0.750000000000007
40
1
40
1
40
1
40
1
41
1
10
44.0900174840501
20
20.4783302241433
30
0
41
1
10
44.08611946013
20
20.4963914834322
30
0
41
1
10
44.0770243075272
20
20.5133800894982
30
0
41
1
10
44.0507821863096
20
20.5424964269585
30
0
41
1
10
44.0339319644936
20
20.5544591390442
30
0
41
1
10
43.9797131860182
20
20.5825669560102
30
0
41
1
10
43.9380132565959
20
20.5921599010881
30
0
41
1
10
43.8550548570629
20
20.6010842226503
30
0
41
1
10
43.8131311938432
20
20.6003949140683
30
0
41
1
10
43.7305311587831
20
20.5920702188378
30
0
41
1
10
43.6896167274004
20
20.584351641355
30
0
41
1
10
43.6496687476552
20
20.5735672270542
30
0
0
SPLINE
5
1A7
100
AcDbEntity
8
1
62
256
6
ByLayer
370
-1
48
1
60
0
100
AcDbSpline
70
4
71
3
72
8
73
4
40
0
40
0
40
0
40
0
40
1
40
1
40
1
40
1
41
1
10
44.8464948868037
20
17.6339162921707
30
0
41
1
10
44.8439364006339
20
17.6399982911736
30
0
41
1
10
44.8413778902892
20
17.6460803230242
30
0
41
1
10
44.8388193547727
20
17.6521623890766
30
0
0
SPLINE
5
1A8
100
AcDbEntity
8
1
62
256
6
ByLayer
370
-1
48
1
60
0
100
AcDbSpline
70
4
71
3
72
8
73
4
40
0
40
0
40
0
40
0
40
1
40
1
40
1
40
1
41
1
10
43.3463772185883
20
17.6520175566981
30
0
41
1
10
43.3421894016018
20
17.6463268449487
30
0
41
1
10
43.3380015973805
20
17.6406361652002
30
0
41
1
10
43.3338138054197
20
17.6349455161858
30
0
0
SPLINE
5
1A9
100
AcDbEntity
8
1
62
256
6
ByLayer
370
-1
48
1
60
0
100
AcDbSpline
70
4
71
3
72
16
73
12
40
0
40
0
40
0
40
0
40
0.25
40
0.25
40
0.5
40
0.5
40
0.75
40
0.75
40
0.875
40
0.875
40
1
40
1
40
1
40
1
41
1
10
44.5109690273071
20
17.3350111166722
30
0
41
1
10
44.5509027193743
20
17.3457916738508
30
0
41
1
10
44.5900909074511
20
17.3596183127426
30
0
41
1
10
44.6660020605293
20
17.393841215241
30
0
41
1
10
44.7026175049929
20
17.4141307676182
30
0
41
1
10
44.7701494877284
20
17.4629566797322
30
0
41
1
10
44.8013740243726
20
17.4915014006209
30
0
41
1
10
44.8348893767087
20
17.5422730365666
30
0
41
1
10
44.8436541379021
20
17.5605396386114
30
0
41
1
10
44.8523409069323
20
17.5983131209786
30
0
41
1
10
44.8519213034221
20
17.6169226862708
30
0
41
1
10
44.8464948868037
20
17.6339162921707
30
0
0
SPLINE
5
1AA
100
AcDbEntity
8
1
62
256
6
ByLayer
370
-1
48
1
60
0
100
AcDbSpline
70
4
71
3
72
16
73
12
40
0
40
0
40
0
40
0
40
0.124999999999987
40
0.124999999999987
40
0.249999999999975
40
0.249999999999975
40
0.499999999999983
40
0.499999999999983
40
0.749999999999992
40
0.749999999999992
40
1
40
1
40
1
40
1
41
1
10
44.092060588721
20
17.4302481195831
30
0
41
1
10
44.0934167343825
20
17.4121868602942
30
0
41
1
10
44.1001218440796
20
17.3951982542282
30
0
41
1
10
44.1222152689328
20
17.3660819167679
30
0
41
1
10
44.1373266475272
20
17.3541192046822
30
0
41
1
10
44.1872747983362
20
17.3260113877162
30
0
41
1
10
44.2272062959371
20
17.3164184426383
30
0
41
1
10
44.3076079479574
20
17.3074941210761
30
0
41
1
10
44.3487507100634
20
17.3081834296581
30
0
41
1
10
44.4303345355106
20
17.3165081248886
30
0
41
1
10
44.4710210475618
20
17.3242267023714
30
0
41
1
10
44.5109690273071
20
17.3350111166722
30
0
0
SPLINE
5
1AB
100
AcDbEntity
8
1
62
256
6
ByLayer
370
-1
48
1
60
0
100
AcDbSpline
70
4
71
3
72
8
73
4
40
0
40
0
40
0
40
0
40
1
40
1
40
1
40
1
41
1
10
42.7815295682506
20
18.1913773115798
30
0
41
1
10
42.7876560601448
20
18.1951147013626
30
0
41
1
10
42.7937825747701
20
18.1988521113303
30
0
41
1
10
42.7999091130628
20
18.202589542315
30
0
0
SPLINE
5
1AC
100
AcDbEntity
8
1
62
256
6
ByLayer
370
-1
48
1
60
0
100
AcDbSpline
70
4
71
3
72
16
73
12
40
0
40
0
40
0
40
0
40
0.125000000000001
40
0.125000000000001
40
0.250000000000002
40
0.250000000000002
40
0.500000000000001
40
0.500000000000001
40
0.750000000000001
40
0.750000000000001
40
1
40
1
40
1
40
1
41
1
10
45.4005485045205
20
19.7172010321466
30
0
41
1
10
45.4134889429254
20
19.7285238697282
30
0
41
1
10
45.4229467551014
20
19.7439112671102
30
0
41
1
10
45.4338160558841
20
19.7795565211784
30
0
41
1
10
45.4352390247724
20
19.799481590496
30
0
41
1
10
45.4312226199562
20
19.8589798376858
30
0
41
1
10
45.4181763568339
20
19.89938920814
30
0
41
1
10
45.3837290508964
20
19.9751195685785
30
0
41
1
10
45.361979484905
20
20.0110138510939
30
0
41
1
10
45.3132697551794
20
20.0784791017801
30
0
41
1
10
45.2861209006055
20
20.1102194120446
30
0
41
1
10
45.2568769497722
20
20.1396829798443
30
0
0
SPLINE
5
1AD
100
AcDbEntity
8
1
62
256
6
ByLayer
370
-1
48
1
60
0
100
AcDbSpline
70
4
71
3
72
8
73
4
40
0
40
0
40
0
40
0
40
1
40
1
40
1
40
1
41
1
10
44.8482642673514
20
20.2736328275405
30
0
41
1
10
44.8450329956199
20
20.2679421785261
30
0
41
1
10
44.84180169608
20
20.2622514987777
30
0
41
1
10
44.8385703675849
20
20.2565607870283
30
0
0
SPLINE
5
1AE
100
AcDbEntity
8
1
62
256
6
ByLayer
370
-1
48
1
60
0
100
AcDbSpline
70
4
71
3
72
16
73
12
40
0
40
0
40
0
40
0
40
0.249999999999991
40
0.249999999999991
40
0.499999999999981
40
0.499999999999981
40
0.749999999999972
40
0.749999999999972
40
0.874999999999986
40
0.874999999999986
40
1
40
1
40
1
40
1
41
1
10
45.2568769497722
20
20.1396829798443
30
0
41
1
10
45.2276434582452
20
20.1691360097903
30
0
41
1
10
45.196334347002
20
20.1963166678108
30
0
41
1
10
45.1297256033225
20
20.2449956038032
30
0
41
1
10
45.0945626070496
20
20.2664585704527
30
0
41
1
10
45.0207425796249
20
20.2998551534654
30
0
41
1
10
44.9819015138011
20
20.3120666174442
30
0
41
1
10
44.9247131500682
20
20.314056069537
30
0
41
1
10
44.9059202787747
20
20.3118193584027
30
0
41
1
10
44.8722491239132
20
20.2986848902725
30
0
41
1
10
44.8582486232995
20
20.2879751436291
30
0
41
1
10
44.8482642673514
20
20.2736328275405
30
0
0
SPLINE
5
1AF
100
AcDbEntity
8
1
62
256
6
ByLayer
370
-1
48
1
60
0
100
AcDbSpline
70
4
71
3
72
8
73
4
40
0
40
0
40
0
40
0
40
1
40
1
40
1
40
1
41
1
10
42.8000528658827
20
19.7062396584495
30
0
41
1
10
42.7935378903827
20
19.7092992438977
30
0
41
1
10
42.7870229407345
20
19.7123588121408
30
0
41
1
10
42.7805080159151
20
19.7154183638599
30
0
0
SPLINE
5
1B0
100
AcDbEntity
8
1
62
256
6
ByLayer
370
-1
48
1
60
0
100
AcDbSpline
70
4
71
3
72
8
73
4
40
0
40
0
40
0
40
0
40
1
40
1
40
1
40
1
41
1
10
42.5783579550015
20
18.9553183958784
30
0
41
1
10
42.5855824932468
20
18.9549270458898
30
0
41
1
10
42.5928070601534
20
18.9545356937877
30
0
41
1
10
42.6000316569023
20
18.9541443394847
30
0
0
SPLINE
5
1B1
100
AcDbEntity
8
1
62
256
6
ByLayer
370
-1
48
1
60
0
100
AcDbSpline
70
4
71
3
72
8
73
4
40
0
40
0
40
0
40
0
40
1
40
1
40
1
40
1
41
1
10
44.0926175459065
20
20.4579392879977
30
0
41
1
10
44.0917508644535
20
20.4647363044306
30
0
41
1
10
44.0908841770898
20
20.4715332826414
30
0
41
1
10
44.0900174840501
20
20.4783302241433
30
0
0
SPLINE
5
1B2
100
AcDbEntity
8
1
62
256
6
ByLayer
370
-1
48
1
60
0
100
AcDbSpline
70
4
71
3
72
20
73
16
40
0
40
0
40
0
40
0
40
0.0624999999999868
40
0.0624999999999868
40
0.124999999999973
40
0.124999999999973
40
0.249999999999965
40
0.249999999999965
40
0.499999999999971
40
0.499999999999971
40
0.749999999999976
40
0.749999999999976
40
0.874999999999988
40
0.874999999999988
40
1
40
1
40
1
40
1
41
1
10
44.8385703675849
20
20.2565607870283
30
0
41
1
10
44.8305117467426
20
20.242368702138
30
0
41
1
10
44.8192351952845
20
20.2306273186487
30
0
41
1
10
44.7932007504731
20
20.2111465095373
30
0
41
1
10
44.7786666306439
20
20.2035135418011
30
0
41
1
10
44.7318466503116
20
20.1848942751034
30
0
41
1
10
44.6970672777134
20
20.1784607049652
30
0
41
1
10
44.589682995971
20
20.1706715309556
30
0
41
1
10
44.5134760438961
20
20.1804978487616
30
0
41
1
10
44.3642991470904
20
20.2207825726866
30
0
41
1
10
44.2911125088955
20
20.2512907671124
30
0
41
1
10
44.1949985764292
20
20.3139715196024
30
0
41
1
10
44.1650975217222
20
20.3378665377692
30
0
41
1
10
44.1162690464891
20
20.3927828394993
30
0
41
1
10
44.0969422726942
20
20.424022283151
30
0
41
1
10
44.0926175459065
20
20.4579392879976
30
0
0
SPLINE
5
1B3
100
AcDbEntity
8
1
62
256
6
ByLayer
370
-1
48
1
60
0
100
AcDbSpline
70
4
71
3
72
8
73
4
40
0
40
0
40
0
40
0
40
1
40
1
40
1
40
1
41
1
10
43.3355831859674
20
20.2746620515557
30
0
41
1
10
43.3390981923665
20
20.2685800525528
30
0
41
1
10
43.3426132073926
20
20.2624980207022
30
0
41
1
10
43.3461282314006
20
20.2564159546498
30
0
0
SPLINE
5
1B4
100
AcDbEntity
8
1
62
256
6
ByLayer
370
-1
48
1
60
0
100
AcDbSpline
70
4
71
3
72
16
73
12
40
0
40
0
40
0
40
0
40
0.250000000000004
40
0.250000000000004
40
0.500000000000009
40
0.500000000000009
40
0.750000000000013
40
0.750000000000013
40
0.875000000000007
40
0.875000000000007
40
1
40
1
40
1
40
1
41
1
10
45.6875270895982
20
18.5204049246533
30
0
41
1
10
45.6982272901384
20
18.5606385117779
30
0
41
1
10
45.7059930674384
20
18.6016458086903
30
0
41
1
10
45.714786263917
20
18.684547647181
30
0
41
1
10
45.7158486986522
20
18.7263001662077
30
0
41
1
10
45.7082838125676
20
18.8085226613344
30
0
41
1
10
45.6997956877743
20
18.8492788462019
30
0
41
1
10
45.6739819451956
20
18.9020399342403
30
0
41
1
10
45.663093211267
20
18.9180698251509
30
0
41
1
10
45.6360146995975
20
18.942708839388
30
0
41
1
10
45.6204039787724
20
18.9506086580367
30
0
41
1
10
45.6037201177696
20
18.953259947848
30
0
0
SPLINE
5
1B5
100
AcDbEntity
8
1
62
256
6
ByLayer
370
-1
48
1
60
0
100
AcDbSpline
70
4
71
3
72
20
73
16
40
0
40
0
40
0
40
0
40
0.0624999999999945
40
0.0624999999999945
40
0.124999999999989
40
0.124999999999989
40
0.249999999999993
40
0.249999999999993
40
0.5
40
0.5
40
0.750000000000007
40
0.750000000000007
40
0.875000000000003
40
0.875000000000003
40
1
40
1
40
1
40
1
41
1
10
44.8388193547727
20
17.6521623890766
30
0
41
1
10
44.8324386145691
20
17.6673304737598
30
0
41
1
10
44.8297193112398
20
17.6840494892741
30
0
41
1
10
44.8292571818693
20
17.7184053580279
30
0
41
1
10
44.8314712137045
20
17.7357804922679
30
0
41
1
10
44.8431089495962
20
17.7884037981151
30
0
41
1
10
44.8573330361083
20
17.8233419977475
30
0
41
1
10
44.9100161458701
20
17.9242401434867
30
0
41
1
10
44.9585035544681
20
17.9869467981595
30
0
41
1
10
45.0677173812944
20
18.0969643585145
30
0
41
1
10
45.1285968354083
20
18.144440542302
30
0
41
1
10
45.2248527601941
20
18.1936586558594
30
0
41
1
10
45.2579777220339
20
18.2064249934987
30
0
41
1
10
45.3239457050591
20
18.2182841923011
30
0
41
1
10
45.3571579577464
20
18.2176059684298
30
0
41
1
10
45.3848947202906
20
18.2023386852769
30
0
0
SPLINE
5
1B6
100
AcDbEntity
8
1
62
256
6
ByLayer
370
-1
48
1
60
0
100
AcDbSpline
70
4
71
3
72
8
73
4
40
0
40
0
40
0
40
0
40
1
40
1
40
1
40
1
41
1
10
45.3848947202906
20
18.2023386852769
30
0
41
1
10
45.3904532072992
20
18.1992790998287
30
0
41
1
10
45.3960116522659
20
18.1962195315856
30
0
41
1
10
45.401570056856
20
18.1931599798665
30
0
0
SPLINE
5
1B7
100
AcDbEntity
8
1
62
256
6
ByLayer
370
-1
48
1
60
0
100
AcDbSpline
70
4
71
3
72
20
73
16
40
0
40
0
40
0
40
0
40
0.0624999999999892
40
0.0624999999999892
40
0.124999999999978
40
0.124999999999978
40
0.249999999999978
40
0.249999999999978
40
0.499999999999985
40
0.499999999999985
40
0.749999999999993
40
0.749999999999993
40
0.874999999999996
40
0.874999999999996
40
1
40
1
40
1
40
1
41
1
10
45.5849159292709
20
18.9544340042417
30
0
41
1
10
45.5692838733159
20
18.9554100040346
30
0
41
1
10
45.5541313758074
20
18.9603876360596
30
0
41
1
10
45.5254576210573
20
18.975262695702
30
0
41
1
10
45.5121321708067
20
18.9850048622057
30
0
41
1
10
45.4741283849094
20
19.0190089013553
30
0
41
1
10
45.4519967619794
20
19.0475135308496
30
0
41
1
10
45.393504716259
20
19.1406225025791
30
0
41
1
10
45.36449349093
20
19.2131554750579
30
0
41
1
10
45.324531866979
20
19.3634577593379
30
0
41
1
10
45.3135165490386
20
19.4414421375511
30
0
41
1
10
45.3174449061964
20
19.5533410035986
30
0
41
1
10
45.3222454870773
20
19.5900023594047
30
0
41
1
10
45.3431521082365
20
19.6567778599372
30
0
41
1
10
45.3592400061073
20
19.6873390797176
30
0
41
1
10
45.3850384731104
20
19.7059888014114
30
0
0
SPLINE
5
1B8
100
AcDbEntity
8
1
62
256
6
ByLayer
370
-1
48
1
60
0
100
AcDbSpline
70
4
71
3
72
8
73
4
40
0
40
0
40
0
40
0
40
1
40
1
40
1
40
1
41
1
10
45.6037201177696
20
18.953259947848
30
0
41
1
10
45.5974520997536
20
18.9536512978366
30
0
41
1
10
45.5911840375284
20
18.9540426499387
30
0
41
1
10
45.5849159292709
20
18.9544340042417
30
0
0
SPLINE
5
1B9
100
AcDbEntity
8
1
62
256
6
ByLayer
370
-1
48
1
60
0
100
AcDbSpline
70
4
71
3
72
20
73
16
40
0
40
0
40
0
40
0
40
0.125
40
0.125
40
0.25
40
0.25
40
0.5
40
0.5
40
0.625
40
0.625
40
0.75
40
0.75
40
0.875
40
0.875
40
1
40
1
40
1
40
1
41
1
10
42.7999091130628
20
18.202589542315
30
0
41
1
10
42.8304238539028
20
18.2212047426868
30
0
41
1
10
42.851139542112
20
18.252073240523
30
0
41
1
10
42.8795183862764
20
18.3189399808542
30
0
41
1
10
42.8874531125732
20
18.3556925370527
30
0
41
1
10
42.8988514544104
20
18.4677192926019
30
0
41
1
10
42.8903020199185
20
18.546054233513
30
0
41
1
10
42.8601393384663
20
18.6588687360455
30
0
41
1
10
42.8472772221709
20
18.6951544717617
30
0
41
1
10
42.8157542493067
20
18.7650251243038
30
0
41
1
10
42.796844278406
20
18.7989946736335
30
0
41
1
10
42.7529957329283
20
18.8608224858081
30
0
41
1
10
42.727725265108
20
18.8893691395969
30
0
41
1
10
42.6695608019616
20
18.9347732854782
30
0
41
1
10
42.6363195928227
20
18.9521786325589
30
0
41
1
10
42.6000316569023
20
18.9541443394847
30
0
0
SPLINE
5
1BA
100
AcDbEntity
8
1
62
256
6
ByLayer
370
-1
48
1
60
0
100
AcDbSpline
70
4
71
3
72
16
73
12
40
0
40
0
40
0
40
0
40
0.249999999999996
40
0.249999999999996
40
0.499999999999991
40
0.499999999999991
40
0.749999999999986
40
0.749999999999986
40
0.874999999999993
40
0.874999999999993
40
1
40
1
40
1
40
1
41
1
10
42.4731106853641
20
19.3881734190731
30
0
41
1
10
42.4624104848239
20
19.3479398319485
30
0
41
1
10
42.4548713065911
20
19.3069325350361
30
0
41
1
10
42.4470965359526
20
19.2240306965454
30
0
41
1
10
42.4468141281286
20
19.1822781775188
30
0
41
1
10
42.4569326970038
20
19.100055682392
30
0
41
1
10
42.4671640130248
20
19.0592994975245
30
0
41
1
10
42.4972592179669
20
19.006538409486
30
0
41
1
10
42.5098691995526
20
18.9905085185755
30
0
41
1
10
42.5411359628987
20
18.9658695043384
30
0
41
1
10
42.559127917126
20
18.9579696856897
30
0
41
1
10
42.5783579550015
20
18.9553183958784
30
0
0
SPLINE
5
1BB
100
AcDbEntity
8
1
62
256
6
ByLayer
370
-1
48
1
60
0
100
AcDbSpline
70
4
71
3
72
16
73
12
40
0
40
0
40
0
40
0
40
0.250000000000009
40
0.250000000000009
40
0.500000000000018
40
0.500000000000018
40
0.750000000000027
40
0.750000000000027
40
0.875000000000014
40
0.875000000000014
40
1
40
1
40
1
40
1
41
1
10
43.6496687476552
20
20.5735672270542
30
0
41
1
10
43.6097350555879
20
20.5627866698756
30
0
41
1
10
43.5707734665783
20
20.5489600309837
30
0
41
1
10
43.4958807393403
20
20.5147371284854
30
0
41
1
10
43.4600453217878
20
20.4944475761082
30
0
41
1
10
43.395067021843
20
20.4456216639942
30
0
41
1
10
43.3655856764264
20
20.4170769431055
30
0
41
1
10
43.3363517864538
20
20.3663053071598
30
0
41
1
10
43.3293082729175
20
20.348038705115
30
0
41
1
10
43.3248097555638
20
20.3102652227477
30
0
41
1
10
43.3276105924763
20
20.2916556574556
30
0
41
1
10
43.3355831859674
20
20.2746620515557
30
0
0
SPLINE
5
1BC
100
AcDbEntity
8
1
62
256
6
ByLayer
370
-1
48
1
60
0
100
AcDbSpline
70
4
71
3
72
8
73
4
40
0
40
0
40
0
40
0
40
1
40
1
40
1
40
1
41
1
10
44.0923300402668
20
17.4506390557287
30
0
41
1
10
44.0922402332283
20
17.4438420392958
30
0
41
1
10
44.0921504159106
20
17.437045061085
30
0
41
1
10
44.092060588721
20
17.4302481195831
30
0
0
SPLINE
5
1BD
100
AcDbEntity
8
1
62
256
6
ByLayer
370
-1
48
1
60
0
100
AcDbSpline
70
4
71
3
72
12
73
8
40
0
40
0
40
0
40
0
40
0.25
40
0.25
40
0.500000000000001
40
0.500000000000001
40
1
40
1
40
1
40
1
41
1
10
47.0928212853395
20
4.03702795846309
30
0
41
1
10
47.0001384804121
20
3.92106824237746
30
0
41
1
10
46.9138293742367
20
3.79785563575314
30
0
41
1
10
46.7487959090359
20
3.5427994308331
30
0
41
1
10
46.6701568446227
20
3.41085877233599
30
0
41
1
10
46.4420675498357
20
3.00612911343575
30
0
41
1
10
46.3002767509135
20
2.72462413506304
30
0
41
1
10
46.1640756388679
20
2.43675842509026
30
0
0
SPLINE
5
1BE
100
AcDbEntity
8
1
62
256
6
ByLayer
370
-1
48
1
60
0
100
AcDbSpline
70
4
71
3
72
12
73
8
40
0
40
0
40
0
40
0
40
0.25
40
0.25
40
0.5
40
0.5
40
1
40
1
40
1
40
1
41
1
10
47.0928212853395
20
-23.3654041961574
30
0
41
1
10
47.0001384804121
20
-23.4462301724454
30
0
41
1
10
46.9138293742367
20
-23.5199227829798
30
0
41
1
10
46.7487959090359
20
-23.6588192477272
30
0
41
1
10
46.6701568446227
20
-23.7239276412528
30
0
41
1
10
46.4420675498357
20
-23.9104919335419
30
0
41
1
10
46.3002767509135
20
-24.0233754902266
30
0
41
1
10
46.1640756388679
20
-24.1300031376676
30
0
0
SPLINE
5
1BF
100
AcDbEntity
8
1
62
256
6
ByLayer
370
-1
48
1
60
0
100
AcDbSpline
70
4
71
3
72
16
73
12
40
0
40
0
40
0
40
0
40
0.125000000000015
40
0.125000000000015
40
0.250000000000031
40
0.250000000000031
40
0.500000000000021
40
0.500000000000021
40
0.75000000000001
40
0.75000000000001
40
1
40
1
40
1
40
1
41
1
10
43.3338138054197
20
17.6349455161858
30
0
41
1
10
43.3213083947144
20
17.6206319546066
30
0
41
1
10
43.3048474688055
20
17.6099013715668
30
0
41
1
10
43.2674076650332
20
17.5968593432631
30
0
41
1
10
43.2467689467993
20
17.5945467801743
30
0
41
1
10
43.185598943044
20
17.5964304204156
30
0
41
1
10
43.1446174424292
20
17.6086727252258
30
0
41
1
10
43.0681925190041
20
17.6420671607543
30
0
41
1
10
43.0321435222656
20
17.6635935594022
30
0
41
1
10
42.9645653445359
20
17.7122352776667
30
0
41
1
10
42.9329845785591
20
17.7394521452259
30
0
41
1
10
42.90376082519
20
17.768895363882
30
0
0
SPLINE
5
1C0
100
AcDbEntity
8
1
62
256
6
ByLayer
370
-1
48
1
60
0
100
AcDbSpline
70
4
71
3
72
22
73
18
40
0
40
0
40
0
40
0
40
0.0625000000000001
40
0.0625000000000001
40
0.125
40
0.125
40
0.25
40
0.25
40
0.375
40
0.375
40
0.5
40
0.5
40
0.75
40
0.75
40
0.875
40
0.875
40
1
40
1
40
1
40
1
41
1
10
44.0923300402668
20
17.4506390557288
30
0
41
1
10
44.0925551890965
20
17.4676793715199
30
0
41
1
10
44.0887294852038
20
17.4841972799072
30
0
41
1
10
44.0760246167641
20
17.5154194703036
30
0
41
1
10
44.0672830312026
20
17.5299193098408
30
0
41
1
10
44.0360833246532
20
17.5712199105333
30
0
41
1
10
44.0096056603733
20
17.594780853104
30
0
41
1
10
43.9505403439989
20
17.6365419346041
30
0
41
1
10
43.9180143214382
20
17.6544759709531
30
0
41
1
10
43.849974001404
20
17.6849398996882
30
0
41
1
10
43.813917492346
20
17.6976934199243
30
0
41
1
10
43.7019359786274
20
17.7280161342514
30
0
41
1
10
43.6231482189276
20
17.7378777723933
30
0
41
1
10
43.508150944954
20
17.7301747558205
30
0
41
1
10
43.4701336158733
20
17.7237683857524
30
0
41
1
10
43.3999798679492
20
17.6989330987767
30
0
41
1
10
43.3672546321666
20
17.6803873119017
30
0
41
1
10
43.3463772185883
20
17.6520175566981
30
0
0
LINE
5
45
100
AcDbEntity
8
1
62
256
6
ByLayer
370
-1
48
1
60
0
100
AcDbLine
10
44.263123
20
21.579289
30
0
11
44.086264
21
21.579289
31
0
39
0
210
0
220
0
230
1
0
LINE
5
47
100
AcDbEntity
8
1
62
256
6
ByLayer
370
-1
48
1
60
0
100
AcDbLine
10
0
20
-20.5
30
0
11
0.4
21
-20.5
31
0
39
0
210
0
220
0
230
1
0
LINE
5
48
100
AcDbEntity
8
1
62
256
6
ByLayer
370
-1
48
1
60
0
100
AcDbLine
10
45.502127
20
18.215731
30
0
11
45.326559
21
18.215731
31
0
39
0
210
0
220
0
230
1
0
LINE
5
49
100
AcDbEntity
8
1
62
256
6
ByLayer
370
-1
48
1
60
0
100
AcDbLine
10
44.62371
20
20.174543
30
0
11
44.791171
21
20.174543
31
0
39
0
210
0
220
0
230
1
0
LINE
5
4A
100
AcDbEntity
8
1
62
256
6
ByLayer
370
-1
48
1
60
0
100
AcDbLine
10
43.753355
20
17.734035
30
0
11
43.585912
21
17.734035
31
0
39
0
210
0
220
0
230
1
0
LINE
5
4B
100
AcDbEntity
8
1
62
256
6
ByLayer
370
-1
48
1
60
0
100
AcDbLine
10
42.866831
20
19.692847
30
0
11
43.042399
21
19.692847
31
0
39
0
210
0
220
0
230
1
0
LINE
5
4C
100
AcDbEntity
8
1
62
256
6
ByLayer
370
-1
48
1
60
0
100
AcDbLine
10
0.4
20
20.5
30
0
11
0
21
20.5
31
0
39
0
210
0
220
0
230
1
0
LINE
5
4D
100
AcDbEntity
8
1
62
256
6
ByLayer
370
-1
48
1
60
0
100
AcDbLine
10
49.427905
20
-3.283987
30
0
11
49.446974
21
-3.148421
31
0
39
0
210
0
220
0
230
1
0
LINE
5
4E
100
AcDbEntity
8
1
62
256
6
ByLayer
370
-1
48
1
60
0
100
AcDbLine
10
44.086264
20
16.329289
30
0
11
44.263123
21
16.329289
31
0
39
0
210
0
220
0
230
1
0
LINE
5
4F
100
AcDbEntity
8
1
62
256
6
ByLayer
370
-1
48
1
60
0
100
AcDbLine
10
0.9
20
-21.5
30
0
11
14
21
-21.5
31
0
39
0
210
0
220
0
230
1
0
LINE
5
50
100
AcDbEntity
8
1
62
256
6
ByLayer
370
-1
48
1
60
0
100
AcDbLine
10
49.999988
20
-0.26117
30
0
11
49.775802
21
1.333843
31
0
39
0
210
0
220
0
230
1
0
LINE
5
51
100
AcDbEntity
8
1
62
256
6
ByLayer
370
-1
48
1
60
0
100
AcDbLine
10
49.776815
20
-0.803565
30
0
11
49.853059
21
-0.261541
31
0
39
0
210
0
220
0
230
1
0
LINE
5
52
100
AcDbEntity
8
1
62
256
6
ByLayer
370
-1
48
1
60
0
100
AcDbLine
10
49.926578
20
0.261105
30
0
11
49.999894
21
0.782315
31
0
39
0
210
0
220
0
230
1
0
LINE
5
53
100
AcDbEntity
8
1
62
256
6
ByLayer
370
-1
48
1
60
0
100
AcDbLine
10
49.450661
20
3.647112
30
0
11
49.427982
21
3.808462
31
0
39
0
210
0
220
0
230
1
0
LINE
5
54
100
AcDbEntity
8
1
62
256
6
ByLayer
370
-1
48
1
60
0
100
AcDbLine
10
14
20
21.5
30
0
11
0.9
21
21.5
31
0
39
0
210
0
220
0
230
1
0
LINE
5
55
100
AcDbEntity
8
81
62
256
6
ByLayer
370
-1
48
1
60
0
100
AcDbLine
10
50
20
24.965
30
0
11
55
21
24.965
31
0
39
0
210
0
220
0
230
1
0
LINE
5
56
100
AcDbEntity
8
SK4
62
256
6
ByLayer
370
-1
48
0.05
60
0
100
AcDbLine
10
55
20
0
30
0
11
0.5
21
0
31
0
39
0
210
0
220
0
230
1
0
LINE
5
58
100
AcDbEntity
8
80
62
256
6
ByLayer
370
-1
48
1
60
0
100
AcDbLine
10
0
20
0
30
0
11
-5
21
0
31
0
39
0
210
0
220
0
230
1
0
LINE
5
59
100
AcDbEntity
8
1
62
256
6
ByLayer
370
-1
48
1
60
0
100
AcDbLine
10
1.1
20
-5.2275
30
0
11
5.75
21
-5.2275
31
0
39
0
210
0
220
0
230
1
0
LINE
5
5A
100
AcDbEntity
8
1
62
256
6
ByLayer
370
-1
48
1
60
0
100
AcDbLine
10
6.55
20
4.4275
30
0
11
6.55
21
-4.4275
31
0
39
0
210
0
220
0
230
1
0
LINE
5
5B
100
AcDbEntity
8
1
62
256
6
ByLayer
370
-1
48
1
60
0
100
AcDbLine
10
48.135276
20
-8.121021
30
0
11
48.135276
21
-3.579687
31
0
39
0
210
0
220
0
230
1
0
LINE
5
5C
100
AcDbEntity
8
1
62
256
6
ByLayer
370
-1
48
1
60
0
100
AcDbLine
10
49.1
20
-13.95808
30
0
11
49.1
21
-19.798686
31
0
39
0
210
0
220
0
230
1
0
LINE
5
5D
100
AcDbEntity
8
1
62
256
6
ByLayer
370
-1
48
1
60
0
100
AcDbLine
10
37.956204
20
-16.232903
30
0
11
37.97605
21
-16.232903
31
0
39
0
210
0
220
0
230
1
0
LINE
5
5E
100
AcDbEntity
8
1
62
256
6
ByLayer
370
-1
48
1
60
0
100
AcDbLine
10
37.97605
20
-21.652448
30
0
11
37.97605
21
-16.232903
31
0
39
0
210
0
220
0
230
1
0
LINE
5
5F
100
AcDbEntity
8
1
62
256
6
ByLayer
370
-1
48
1
60
0
100
AcDbLine
10
38.19243
20
21.100346
30
0
11
38.381518
21
21.623762
31
0
39
0
210
0
220
0
230
1
0
LINE
5
60
100
AcDbEntity
8
1
62
256
6
ByLayer
370
-1
48
1
60
0
100
AcDbLine
10
41.665511
20
-18.207055
30
0
11
41.665511
21
-22.82569
31
0
39
0
210
0
220
0
230
1
0
LINE
5
61
100
AcDbEntity
8
1
62
256
6
ByLayer
370
-1
48
1
60
0
100
AcDbLine
10
43.262597
20
14.554289
30
0
11
47.668918
21
14.554289
31
0
39
0
210
0
220
0
230
1
0
LINE
5
62
100
AcDbEntity
8
1
62
256
6
ByLayer
370
-1
48
1
60
0
100
AcDbLine
10
1.1
20
-5.2275
30
0
11
0.9
21
-5.4275
31
0
39
0
210
0
220
0
230
1
0
LINE
5
63
100
AcDbEntity
8
1
62
256
6
ByLayer
370
-1
48
1
60
0
100
AcDbLine
10
48.221878
20
14.677752
30
0
11
48.221878
21
14.564081
31
0
39
0
210
0
220
0
230
1
0
LINE
5
64
100
AcDbEntity
8
1
62
256
6
ByLayer
370
-1
48
1
60
0
100
AcDbLine
10
43.8503
20
-6.842733
30
0
11
47.958078
21
-7.347056
31
0
39
0
210
0
220
0
230
1
0
LINE
5
65
100
AcDbEntity
8
1
62
256
6
ByLayer
370
-1
48
1
60
0
100
AcDbLine
10
0
20
-6.3275
30
0
11
0.4
21
-5.9275
31
0
39
0
210
0
220
0
230
1
0
LINE
5
66
100
AcDbEntity
8
1
62
256
6
ByLayer
370
-1
48
1
60
0
100
AcDbLine
10
41.665511
20
14.554289
30
0
11
41.665511
21
4.827318
31
0
39
0
210
0
220
0
230
1
0
LINE
5
67
100
AcDbEntity
8
1
62
256
6
ByLayer
370
-1
48
1
60
0
100
AcDbLine
10
37.97605
20
1.178348
30
0
11
37.97605
21
14.554289
31
0
39
0
210
0
220
0
230
1
0
LINE
5
68
100
AcDbEntity
8
1
62
256
6
ByLayer
370
-1
48
1
60
0
100
AcDbLine
10
40.914027
20
14.554289
30
0
11
40.914027
21
5.496364
31
0
39
0
210
0
220
0
230
1
0
LINE
5
69
100
AcDbEntity
8
1
62
256
6
ByLayer
370
-1
48
1
60
0
100
AcDbLine
10
5.75
20
5.2275
30
0
11
1.1
21
5.2275
31
0
39
0
210
0
220
0
230
1
0
LINE
5
6A
100
AcDbEntity
8
1
62
256
6
ByLayer
370
-1
48
1
60
0
100
AcDbLine
10
48.135276
20
14.561605
30
0
11
48.135276
21
14.593569
31
0
39
0
210
0
220
0
230
1
0
LINE
5
6B
100
AcDbEntity
8
1
62
256
6
ByLayer
370
-1
48
1
60
0
100
AcDbLine
10
49.1
20
14.554289
30
0
11
49.1
21
3.839665
31
0
39
0
210
0
220
0
230
1
0
LINE
5
6C
100
AcDbEntity
8
1
62
256
6
ByLayer
370
-1
48
1
60
0
100
AcDbLine
10
0.9
20
-21.5
30
0
11
0.9
21
-5.4275
31
0
39
0
210
0
220
0
230
1
0
LINE
5
6D
100
AcDbEntity
8
1
62
256
6
ByLayer
370
-1
48
1
60
0
100
AcDbLine
10
41.363809
20
4.810792
30
0
11
41.722954
21
4.748079
31
0
39
0
210
0
220
0
230
1
0
LINE
5
6E
100
AcDbEntity
8
1
62
256
6
ByLayer
370
-1
48
1
60
0
100
AcDbLine
10
14.008819
20
-21.500049
30
0
11
14.008819
21
2.600953
31
0
39
0
210
0
220
0
230
1
0
LINE
5
6F
100
AcDbEntity
8
1
62
256
6
ByLayer
370
-1
48
1
60
0
100
AcDbLine
10
14.008819
20
2.600953
30
0
11
14.008819
21
21.500049
31
0
39
0
210
0
220
0
230
1
0
LINE
5
70
100
AcDbEntity
8
1
62
256
6
ByLayer
370
-1
48
1
60
0
100
AcDbLine
10
48.221878
20
-3.565011
30
0
11
48.221878
21
-8.404816
31
0
39
0
210
0
220
0
230
1
0
LINE
5
71
100
AcDbEntity
8
1
62
256
6
ByLayer
370
-1
48
1
60
0
100
AcDbLine
10
0
20
6.3275
30
0
11
0
21
20.5
31
0
39
0
210
0
220
0
230
1
0
LINE
5
72
100
AcDbEntity
8
1
62
256
6
ByLayer
370
-1
48
1
60
0
100
AcDbLine
10
0.9
20
5.4275
30
0
11
1.1
21
5.2275
31
0
39
0
210
0
220
0
230
1
0
LINE
5
73
100
AcDbEntity
8
1
62
256
6
ByLayer
370
-1
48
1
60
0
100
AcDbLine
10
0.9
20
21.5
30
0
11
0.9
21
5.4275
31
0
39
0
210
0
220
0
230
1
0
LINE
5
74
100
AcDbEntity
8
1
62
256
6
ByLayer
370
-1
48
1
60
0
100
AcDbLine
10
6.55
20
4.4275
30
0
11
5.75
21
5.2275
31
0
39
0
210
0
220
0
230
1
0
LINE
5
75
100
AcDbEntity
8
1
62
256
6
ByLayer
370
-1
48
1
60
0
100
AcDbLine
10
49.1
20
14.554396
30
0
11
49.1
21
15.782791
31
0
39
0
210
0
220
0
230
1
0
LINE
5
76
100
AcDbEntity
8
1
62
256
6
ByLayer
370
-1
48
1
60
0
100
AcDbLine
10
14
20
-21.5
30
0
11
14
21
2.600947
31
0
39
0
210
0
220
0
230
1
0
LINE
5
77
100
AcDbEntity
8
1
62
256
6
ByLayer
370
-1
48
1
60
0
100
AcDbLine
10
14
20
2.600947
30
0
11
14
21
21.5
31
0
39
0
210
0
220
0
230
1
0
LINE
5
78
100
AcDbEntity
8
1
62
256
6
ByLayer
370
-1
48
1
60
0
100
AcDbLine
10
38.876777
20
15.161746
30
0
11
39.146913
21
14.889581
31
0
39
0
210
0
220
0
230
1
0
LINE
5
79
100
AcDbEntity
8
1
62
256
6
ByLayer
370
-1
48
1
60
0
100
AcDbLine
10
46.9732
20
-5.754507
30
0
11
46.9732
21
-3.714736
31
0
39
0
210
0
220
0
230
1
0
LINE
5
7A
100
AcDbEntity
8
1
62
256
6
ByLayer
370
-1
48
1
60
0
100
AcDbLine
10
40.50263
20
-8.230631
30
0
11
40.820978
21
-5.607915
31
0
39
0
210
0
220
0
230
1
0
LINE
5
7B
100
AcDbEntity
8
1
62
256
6
ByLayer
370
-1
48
1
60
0
100
AcDbLine
10
46.62985
20
-4.91557
30
0
11
42.501174
21
-4.40868
31
0
39
0
210
0
220
0
230
1
0
LINE
5
7C
100
AcDbEntity
8
1
62
256
6
ByLayer
370
-1
48
1
60
0
100
AcDbLine
10
43.8503
20
-6.842733
30
0
11
43.673211
21
-5.976917
31
0
39
0
210
0
220
0
230
1
0
LINE
5
7D
100
AcDbEntity
8
1
62
256
6
ByLayer
370
-1
48
1
60
0
100
AcDbLine
10
43.8503
20
-6.842733
30
0
11
40.50263
21
-8.230631
31
0
39
0
210
0
220
0
230
1
0
LINE
5
7E
100
AcDbEntity
8
1
62
256
6
ByLayer
370
-1
48
1
60
0
100
AcDbLine
10
37.956204
20
14.554289
30
0
11
37.97605
21
14.554289
31
0
39
0
210
0
220
0
230
1
0
LINE
5
7F
100
AcDbEntity
8
1
62
256
6
ByLayer
370
-1
48
1
60
0
100
AcDbLine
10
5.75
20
-5.2275
30
0
11
6.55
21
-4.4275
31
0
39
0
210
0
220
0
230
1
0
LINE
5
80
100
AcDbEntity
8
1
62
256
6
ByLayer
370
-1
48
1
60
0
100
AcDbLine
10
41.283218
20
4.926546
30
0
11
41.363809
21
4.810792
31
0
39
0
210
0
220
0
230
1
0
LINE
5
81
100
AcDbEntity
8
1
62
256
6
ByLayer
370
-1
48
1
60
0
100
AcDbLine
10
37.956204
20
-16.232903
30
0
11
38.897431
21
-8.567951
31
0
39
0
210
0
220
0
230
1
0
LINE
5
82
100
AcDbEntity
8
1
62
256
6
ByLayer
370
-1
48
1
60
0
100
AcDbLine
10
41.283218
20
4.926546
30
0
11
41.638925
21
4.864434
31
0
39
0
210
0
220
0
230
1
0
LINE
5
83
100
AcDbEntity
8
1
62
256
6
ByLayer
370
-1
48
1
60
0
100
AcDbLine
10
49.1
20
-12.041777
30
0
11
49.1
21
-3.37934
31
0
39
0
210
0
220
0
230
1
0
LINE
5
84
100
AcDbEntity
8
1
62
256
6
ByLayer
370
-1
48
1
60
0
100
AcDbLine
10
40.820978
20
-5.607915
30
0
11
43.673211
21
-5.976917
31
0
39
0
210
0
220
0
230
1
0
LINE
5
85
100
AcDbEntity
8
1
62
256
6
ByLayer
370
-1
48
1
60
0
100
AcDbLine
10
0
20
-20.5
30
0
11
0
21
-6.3275
31
0
39
0
210
0
220
0
230
1
0
LINE
5
86
100
AcDbEntity
8
1
62
256
6
ByLayer
370
-1
48
1
60
0
100
AcDbLine
10
40.914027
20
-17.499837
30
0
11
40.914027
21
-22.13877
31
0
39
0
210
0
220
0
230
1
0
LINE
5
87
100
AcDbEntity
8
1
62
256
6
ByLayer
370
-1
48
1
60
0
100
AcDbLine
10
0.4
20
5.9275
30
0
11
0
21
6.3275
31
0
39
0
210
0
220
0
230
1
0
LINE
5
88
100
AcDbEntity
8
1
62
256
6
ByLayer
370
-1
48
1
60
0
100
AcDbLine
10
0.4
20
-5.9275
30
0
11
0.4
21
-21
31
0
39
0
210
0
220
0
230
1
0
LINE
5
89
100
AcDbEntity
8
1
62
256
6
ByLayer
370
-1
48
1
60
0
100
AcDbLine
10
49.1
20
-13.95808
30
0
11
49.1
21
-12.040752
31
0
39
0
210
0
220
0
230
1
0
LINE
5
8A
100
AcDbEntity
8
1
62
256
6
ByLayer
370
-1
48
1
60
0
100
AcDbLine
10
37.996522
20
-8.49357
30
0
11
38.365677
21
-5.45228
31
0
39
0
210
0
220
0
230
1
0
LINE
5
8B
100
AcDbEntity
8
1
62
256
6
ByLayer
370
-1
48
1
60
0
100
AcDbLine
10
0.4
20
21
30
0
11
0.4
21
5.9275
31
0
39
0
210
0
220
0
230
1
0
LINE
5
8C
100
AcDbEntity
8
1
62
256
6
ByLayer
370
-1
48
1
60
0
100
AcDbLine
10
45.016101
20
-24.499065
30
0
11
40.931264
21
-23.425641
31
0
39
0
210
0
220
0
230
1
0
LINE
5
8D
100
AcDbEntity
8
1
62
256
6
ByLayer
370
-1
48
1
60
0
100
AcDbLine
10
49.100001
20
-17.793346
30
0
11
49.426178
21
-19.015722
31
0
39
0
210
0
220
0
230
1
0
LINE
5
8E
100
AcDbEntity
8
1
62
256
6
ByLayer
370
-1
48
1
60
0
100
AcDbLine
10
44.395222
20
-24.110803
30
0
11
42.195188
21
-23.532672
31
0
39
0
210
0
220
0
230
1
0
LINE
5
8F
100
AcDbEntity
8
1
62
256
6
ByLayer
370
-1
48
1
60
0
100
AcDbLine
10
49.324329
20
-21.106474
30
0
11
46.334021
21
-24.134898
31
0
39
0
210
0
220
0
230
1
0
LINE
5
90
100
AcDbEntity
8
1
62
256
6
ByLayer
370
-1
48
1
60
0
100
AcDbLine
10
48.703358
20
-21.734339
30
0
11
47.092821
21
-23.365404
31
0
39
0
210
0
220
0
230
1
0
LINE
5
91
100
AcDbEntity
8
1
62
256
6
ByLayer
370
-1
48
1
60
0
100
AcDbLine
10
39.96648
20
-22.461619
30
0
11
39.809312
21
-21.87262
31
0
39
0
210
0
220
0
230
1
0
LINE
5
92
100
AcDbEntity
8
1
62
256
6
ByLayer
370
-1
48
1
60
0
100
AcDbLine
10
40.894218
20
-23.244011
30
0
11
45.23877
21
-24.385683
31
0
39
0
210
0
220
0
230
1
0
LINE
5
93
100
AcDbEntity
8
1
62
256
6
ByLayer
370
-1
48
1
60
0
100
AcDbLine
10
49.100015
20
-17.614241
30
0
11
49.677464
21
-19.778286
31
0
39
0
210
0
220
0
230
1
0
LINE
5
94
100
AcDbEntity
8
1
62
256
6
ByLayer
370
-1
48
1
60
0
100
AcDbLine
10
49.100001
20
3.867356
30
0
11
49.426178
21
3.8104
31
0
39
0
210
0
220
0
230
1
0
LINE
5
95
100
AcDbEntity
8
1
62
256
6
ByLayer
370
-1
48
1
60
0
100
AcDbLine
10
44.395222
20
4.358179
30
0
11
42.195188
21
4.636473
31
0
39
0
210
0
220
0
230
1
0
LINE
5
96
100
AcDbEntity
8
1
62
256
6
ByLayer
370
-1
48
1
60
0
100
AcDbLine
10
45.016101
20
2.176633
30
0
11
40.931264
21
2.693345
31
0
39
0
210
0
220
0
230
1
0
LINE
5
97
100
AcDbEntity
8
1
62
256
6
ByLayer
370
-1
48
1
60
0
100
AcDbLine
10
49.324329
20
1.694144
30
0
11
46.334021
21
2.019734
31
0
39
0
210
0
220
0
230
1
0
LINE
5
98
100
AcDbEntity
8
1
62
256
6
ByLayer
370
-1
48
1
60
0
100
AcDbLine
10
40.220408
20
4.906354
30
0
11
39.833256
21
4.973957
31
0
39
0
210
0
220
0
230
1
0
LINE
5
99
100
AcDbEntity
8
1
62
256
6
ByLayer
370
-1
48
1
60
0
100
AcDbLine
10
48.703358
20
3.86167
30
0
11
47.092821
21
4.037028
31
0
39
0
210
0
220
0
230
1
0
LINE
5
9A
100
AcDbEntity
8
1
62
256
6
ByLayer
370
-1
48
1
60
0
100
AcDbLine
10
39.96648
20
2.825196
30
0
11
39.359153
21
2.931245
31
0
39
0
210
0
220
0
230
1
0
LINE
5
9B
100
AcDbEntity
8
1
62
256
6
ByLayer
370
-1
48
1
60
0
100
AcDbLine
10
40.35373
20
4.95802
30
0
11
41.324784
21
4.85229
31
0
39
0
210
0
220
0
230
1
0
LINE
5
9C
100
AcDbEntity
8
1
62
256
6
ByLayer
370
-1
48
1
60
0
100
AcDbLine
10
40.894218
20
3.096481
30
0
11
45.23877
21
2.546917
31
0
39
0
210
0
220
0
230
1
0
LINE
5
9D
100
AcDbEntity
8
1
62
256
6
ByLayer
370
-1
48
1
60
0
100
AcDbLine
10
46.164076
20
2.436758
30
0
11
49.344508
21
2.090468
31
0
39
0
210
0
220
0
230
1
0
LINE
5
9E
100
AcDbEntity
8
1
62
256
6
ByLayer
370
-1
48
1
60
0
100
AcDbLine
10
47.750953
20
-1.958323
30
0
11
46.843892
21
-2.079726
31
0
39
0
210
0
220
0
230
1
0
LINE
5
9F
100
AcDbEntity
8
1
62
256
6
ByLayer
370
-1
48
1
60
0
100
AcDbLine
10
48.83668
20
-3.452516
30
0
11
49.426178
21
-3.288536
31
0
39
0
210
0
220
0
230
1
0
LINE
5
A0
100
AcDbEntity
8
1
62
256
6
ByLayer
370
-1
48
1
60
0
100
AcDbLine
10
49.592443
20
-1.523181
30
0
11
48.428324
21
-1.847002
31
0
39
0
210
0
220
0
230
1
0
LINE
5
A1
100
AcDbEntity
8
1
62
256
6
ByLayer
370
-1
48
1
60
0
100
AcDbLine
10
49.426178
20
-3.288536
30
0
11
49.427905
21
-3.283987
31
0
39
0
210
0
220
0
230
1
0
LINE
5
A2
100
AcDbEntity
8
1
62
256
6
ByLayer
370
-1
48
1
60
0
100
AcDbLine
10
46.813694
20
-1.695248
30
0
11
47.618151
21
-1.587577
31
0
39
0
210
0
220
0
230
1
0
LINE
5
A3
100
AcDbEntity
8
1
62
256
6
ByLayer
370
-1
48
1
60
0
100
AcDbLine
10
48.582936
20
-1.429022
30
0
11
49.677464
21
-1.124558
31
0
39
0
210
0
220
0
230
1
0
LINE
5
A4
100
AcDbEntity
8
1
62
256
6
ByLayer
370
-1
48
1
60
0
100
AcDbLine
10
39.762149
20
3.268451
30
0
11
40.216847
21
3.189053
31
0
39
0
210
0
220
0
230
1
0
LINE
5
A5
100
AcDbEntity
8
1
62
256
6
ByLayer
370
-1
48
1
60
0
100
AcDbLine
10
39.971291
20
-21.64693
30
0
11
40.216847
21
-22.567175
31
0
39
0
210
0
220
0
230
1
0
LINE
5
A6
100
AcDbEntity
8
1
62
256
6
ByLayer
370
-1
48
1
60
0
100
AcDbLine
10
45.486897
20
18.202339
30
0
11
45.384895
21
18.202339
31
0
39
0
210
0
220
0
230
1
0
LINE
5
A7
100
AcDbEntity
8
1
62
256
6
ByLayer
370
-1
48
1
60
0
100
AcDbLine
10
42.779821
20
18.954144
30
0
11
42.600032
21
18.954144
31
0
39
0
210
0
220
0
230
1
0
LINE
5
A8
100
AcDbEntity
8
1
62
256
6
ByLayer
370
-1
48
1
60
0
100
AcDbLine
10
45.029488
20
20.273633
30
0
11
44.848264
21
20.273633
31
0
39
0
210
0
220
0
230
1
0
LINE
5
A9
100
AcDbEntity
8
1
62
256
6
ByLayer
370
-1
48
1
60
0
100
AcDbLine
10
43.516807
20
20.274662
30
0
11
43.335583
21
20.274662
31
0
39
0
210
0
220
0
230
1
0
LINE
5
AA
100
AcDbEntity
8
1
62
256
6
ByLayer
370
-1
48
1
60
0
100
AcDbLine
10
45.467544
20
18.19316
30
0
11
45.40157
21
18.19316
31
0
39
0
210
0
220
0
230
1
0
LINE
5
AB
100
AcDbEntity
8
1
62
256
6
ByLayer
370
-1
48
1
60
0
100
AcDbLine
10
44.273285
20
17.430248
30
0
11
44.272119
21
17.450639
31
0
39
0
210
0
220
0
230
1
0
LINE
5
AC
100
AcDbEntity
8
1
62
256
6
ByLayer
370
-1
48
1
60
0
100
AcDbLine
10
42.962754
20
18.191377
30
0
11
42.78153
21
18.191377
31
0
39
0
210
0
220
0
230
1
0
LINE
5
AD
100
AcDbEntity
8
1
62
256
6
ByLayer
370
-1
48
1
60
0
100
AcDbLine
10
42.979698
20
18.20259
30
0
11
42.799909
21
18.20259
31
0
39
0
210
0
220
0
230
1
0
LINE
5
AE
100
AcDbEntity
8
1
62
256
6
ByLayer
370
-1
48
1
60
0
100
AcDbLine
10
45.01836
20
20.256561
30
0
11
44.83857
21
20.256561
31
0
39
0
210
0
220
0
230
1
0
LINE
5
AF
100
AcDbEntity
8
1
62
256
6
ByLayer
370
-1
48
1
60
0
100
AcDbLine
10
42.759582
20
18.955318
30
0
11
42.578358
21
18.955318
31
0
39
0
210
0
220
0
230
1
0
LINE
5
B0
100
AcDbEntity
8
1
62
256
6
ByLayer
370
-1
48
1
60
0
100
AcDbLine
10
44.273285
20
17.430248
30
0
11
44.092061
21
17.430248
31
0
39
0
210
0
220
0
230
1
0
LINE
5
B1
100
AcDbEntity
8
1
62
256
6
ByLayer
370
-1
48
1
60
0
100
AcDbLine
10
43.525918
20
20.256416
30
0
11
43.516807
21
20.274662
31
0
39
0
210
0
220
0
230
1
0
LINE
5
B2
100
AcDbEntity
8
1
62
256
6
ByLayer
370
-1
48
1
60
0
100
AcDbLine
10
44.272119
20
17.450639
30
0
11
44.09233
21
17.450639
31
0
39
0
210
0
220
0
230
1
0
LINE
5
B3
100
AcDbEntity
8
1
62
256
6
ByLayer
370
-1
48
1
60
0
100
AcDbLine
10
42.962754
20
18.191377
30
0
11
42.979698
21
18.20259
31
0
39
0
210
0
220
0
230
1
0
LINE
5
B4
100
AcDbEntity
8
1
62
256
6
ByLayer
370
-1
48
1
60
0
100
AcDbLine
10
43.525918
20
20.256416
30
0
11
43.346128
21
20.256416
31
0
39
0
210
0
220
0
230
1
0
LINE
5
B5
100
AcDbEntity
8
1
62
256
6
ByLayer
370
-1
48
1
60
0
100
AcDbLine
10
45.01836
20
20.256561
30
0
11
45.029488
21
20.273633
31
0
39
0
210
0
220
0
230
1
0
LINE
5
B6
100
AcDbEntity
8
1
62
256
6
ByLayer
370
-1
48
1
60
0
100
AcDbLine
10
42.779821
20
18.954144
30
0
11
42.759582
21
18.955318
31
0
39
0
210
0
220
0
230
1
0
MTEXT
5
1C1
100
AcDbEntity
8
SK6
62
256
6
ByLayer
370
-1
48
1
60
0
100
AcDbMText
10
3.994737
20
-39.965
30
0
210
0
220
0
230
1
1
\W00.733;\fsimplex.shx,bigfont.shx;R300-050Q22-12M 
40
4
41
0
44
1.084337
50
0
71
7
72
5
7
DEFAULT
0
DIMENSION
5
1F5
100
AcDbEntity
8
2
62
256
6
ByLayer
370
-3
48
1
60
0
100
AcDbDimension
2
DimnDraft3D1
10
-19.85
20
-11
30
0
11
-19.85
21
0
31
0
70
32
71
5
72
1
41
1
210
0
220
0
230
1
3
Standard
100
AcDbAlignedDimension
13
0
23
11
33
0
14
0
24
-11
34
0
50
90
100
AcDbRotatedDimension
1001
ACAD
1000
DSTYLE
1002
{
1070
    74
1070
     0
1070
   279
1070
     0
1070
   172
1070
     1
1070
   173
1070
     1
1070
   340
1005
1C2
1070
   271
1070
     3
1070
   272
1070
     3
1070
    77
1070
     1
1070
    73
1070
     0
1070
   171
1070
     3
1070
   274
1070
     4
1070
   177
1070
     7
1070
   176
1070
     7
1070
   178
1070
     7
1070
    78
1070
     8
1070
    48
1040
-0.005
1070
    41
1041
3.5
1070
   147
1041
1.75
1070
    42
1041
0.0
1070
    44
1041
2.0
1070
   140
1041
3.5
1070
   343
1005
1F6
1070
   344
1005
1F6
1002
}
0
DIMENSION
5
20B
100
AcDbEntity
8
SK2
62
256
6
ByLayer
370
-3
48
1
60
0
100
AcDbDimension
2
DimnDraft3D2
10
76.85
20
-18.9893
30
0
11
76.85
21
0
31
0
70
32
71
5
72
1
41
1
210
0
220
0
230
1
3
Standard
100
AcDbAlignedDimension
13
50
23
18.9893
33
0
14
50
24
-18.9893
34
0
50
90
100
AcDbRotatedDimension
1001
ACAD
1000
DSTYLE
1002
{
1070
    74
1070
     0
1070
   279
1070
     0
1070
   172
1070
     1
1070
   173
1070
     1
1070
   340
1005
1C2
1070
   271
1070
     3
1070
   272
1070
     3
1070
    77
1070
     1
1070
    73
1070
     0
1070
   171
1070
     3
1070
   274
1070
     4
1070
   177
1070
     7
1070
   176
1070
     7
1070
   178
1070
     7
1070
    78
1070
     8
1070
    48
1040
-0.005
1070
    41
1041
3.5
1070
   147
1041
1.75
1070
    42
1041
0.0
1070
    44
1041
2.0
1070
   140
1041
3.5
1070
   343
1005
1F6
1070
   344
1005
1F6
1002
}
0
DIMENSION
5
219
100
AcDbEntity
8
SK2
62
256
6
ByLayer
370
-3
48
1
60
0
100
AcDbDimension
2
DimnDraft3D3
10
86.85
20
24.965
30
0
11
86.85
21
0
31
0
70
32
71
5
72
1
41
1
210
0
220
0
230
1
3
Standard
100
AcDbAlignedDimension
13
50
23
-24.965
33
0
14
50
24
24.965
34
0
50
90
100
AcDbRotatedDimension
1001
ACAD
1000
DSTYLE
1002
{
1070
    74
1070
     0
1070
   279
1070
     0
1070
   172
1070
     1
1070
   173
1070
     1
1070
   340
1005
1C2
1070
   271
1070
     3
1070
   272
1070
     3
1070
    77
1070
     1
1070
    73
1070
     0
1070
   171
1070
     3
1070
   274
1070
     4
1070
   177
1070
     7
1070
   176
1070
     7
1070
   178
1070
     7
1070
    78
1070
     8
1070
    48
1040
-0.005
1070
    41
1041
3.5
1070
   147
1041
1.75
1070
    42
1041
0.0
1070
    44
1041
2.0
1070
   140
1041
3.5
1070
   343
1005
1F6
1070
   344
1005
1F6
1002
}
0
DIMENSION
5
227
100
AcDbEntity
8
2
62
256
6
ByLayer
370
-3
48
1
60
0
100
AcDbDimension
2
DimnDraft3D4
10
44
20
39.815
30
0
11
62.730921
21
39.815
31
0
70
32
71
5
72
1
41
1
210
0
220
0
230
1
3
Standard
100
AcDbAlignedDimension
13
50
23
24.965
33
0
14
44
24
24.965
34
0
50
0
100
AcDbRotatedDimension
1001
ACAD
1000
DSTYLE
1002
{
1070
   279
1070
     0
1070
   172
1070
     1
1070
   173
1070
     1
1070
   340
1005
1C2
1070
   271
1070
     3
1070
   272
1070
     3
1070
    77
1070
     1
1070
    73
1070
     0
1070
   171
1070
     3
1070
   274
1070
     4
1070
   177
1070
     7
1070
   176
1070
     7
1070
   178
1070
     7
1070
    78
1070
     8
1070
    48
1040
-0.005
1070
    41
1041
3.5
1070
   147
1041
1.75
1070
    42
1041
0.0
1070
    44
1041
2.0
1070
   140
1041
3.5
1070
   343
1005
1F6
1070
   344
1005
1F6
1002
}
0
DIMENSION
5
235
100
AcDbEntity
8
SK2
62
256
6
ByLayer
370
-3
48
1
60
0
100
AcDbDimension
2
DimnDraft3D5
10
0
20
59.815
30
0
11
25
21
59.815
31
0
70
32
71
5
72
1
41
1
210
0
220
0
230
1
3
Standard
100
AcDbAlignedDimension
13
50
23
24.965
33
0
14
0
24
21.5
34
0
50
0
100
AcDbRotatedDimension
1001
ACAD
1000
DSTYLE
1002
{
1070
   279
1070
     0
1070
   172
1070
     1
1070
   173
1070
     1
1070
   340
1005
1C2
1070
   271
1070
     3
1070
   272
1070
     3
1070
    77
1070
     1
1070
    73
1070
     0
1070
   171
1070
     3
1070
   274
1070
     4
1070
   177
1070
     7
1070
   176
1070
     7
1070
   178
1070
     7
1070
    78
1070
     8
1070
    48
1040
-0.005
1070
    41
1041
3.5
1070
   147
1041
1.75
1070
    42
1041
0.0
1070
    44
1041
2.0
1070
   140
1041
3.5
1070
   343
1005
1F6
1070
   344
1005
1F6
1002
}
0
ENDSEC
0
SECTION
2
OBJECTS
0
DICTIONARY
5
265
330
0
100
AcDbDictionary
280
0
281
1
3
ACAD_GROUP
350
266
3
ACAD_MLINESTYLE
350
267
0
DICTIONARY
5
266
330
0
100
AcDbDictionary
280
0
281
1
0
DICTIONARY
5
267
330
0
100
AcDbDictionary
280
0
281
1
3
Standard
350
18
0
MLINESTYLE
5
18
330
267
100
AcDbMlineStyle
2
Standard
70
0
3

62
256
51
90
52
90
71
2
49
-0.5
62
256
6
ByLayer
49
0.5
62
256
6
ByLayer
0
RASTERVARIABLES
5
254
330

100
AcDbRasterVariables
90
0
70
1
71
1
72
1
0
ENDSEC
0
EOF
