0
SECTION
2
HEADER
9
$ACADVER
1
AC1015
9
$DWGCODEPAGE
3
ANSI_1252
9
$HANDSEED
5
251
9
$ANGBASE
50
0
9
$ANGDIR
70
0
9
$ATTMODE
70
1
9
$AUNITS
70
0
9
$AUPREC
70
0
9
$CECOLOR
62
256
9
$CELTSCALE
40
1
9
$CELTYPE
6
ByLayer
9
$CELWEIGHT
370
18
9
$CLAYER
8
0
9
$CMLJUST
70
0
9
$CMLSCALE
40
1
9
$CMLSTYLE
2
Standard
9
$DIMSTYLE
2
Standard
9
$TEXTSIZE
40
0.2
9
$TEXTSTYLE
7
Standard
9
$LUNITS
70
2
9
$LUPREC
70
4
9
$EXTNAMES
290
1
9
$INSUNITS
70
4
9
$LTSCALE
40
1
9
$LWDISPLAY
290
1
9
$PDMODE
70
0
9
$PDSIZE
40
0
9
$PLINEGEN
70
0
0
ENDSEC
0
SECTION
2
CLASSES
0
CLASS
1
RASTERVARIABLES
2
AcDbRasterVariables
3
ISM
90
0
280
0
281
0
0
ENDSEC
0
SECTION
2
TABLES
0
TABLE
2
VPORT
5
247
100
AcDbSymbolTable
0
VPORT
5
1
100
AcDbSymbolTableRecord
100
AcDbViewportTableRecord
2
*Active
70
0
10
0
20
0
11
1
21
1
12
-1
22
1
13
0
23
0
14
0.5
24
0.5
15
10
25
10
16
0
26
0
36
1
17
0
27
0
37
0
0
ENDTAB
0
TABLE
2
LTYPE
5
248
100
AcDbSymbolTable
0
LTYPE
5
14
100
AcDbSymbolTableRecord
100
AcDbLinetypeTableRecord
70
0
2
ByBlock
3

72
65
73
0
40
0
0
LTYPE
5
15
100
AcDbSymbolTableRecord
100
AcDbLinetypeTableRecord
70
0
2
ByLayer
3

72
65
73
0
40
0
0
LTYPE
5
16
100
AcDbSymbolTableRecord
100
AcDbLinetypeTableRecord
70
0
2
CONTINUOUS
3
Solid line
72
65
73
0
40
0
0
LTYPE
5
6A
100
AcDbSymbolTableRecord
100
AcDbLinetypeTableRecord
70
0
2
CENTER
3
____ _ ____ _ ____ _ ____
72
65
73
4
40
47.5
49
22
74
0
49
-8.5
74
0
49
8.5
74
0
49
-8.5
74
0
0
LTYPE
5
6B
100
AcDbSymbolTableRecord
100
AcDbLinetypeTableRecord
70
0
2
DASHED
3
__ __ __ __ __ __ __ __ __
72
65
73
2
40
25.72
49
12.86
74
0
49
-12.86
74
0
0
ENDTAB
0
TABLE
2
LAYER
5
249
100
AcDbSymbolTable
0
LAYER
5
10
100
AcDbSymbolTableRecord
100
AcDbLayerTableRecord
2
0
70
0
62
7
6
CONTINUOUS
290
1
370
-3
390
0
0
LAYER
5
6D
100
AcDbSymbolTableRecord
100
AcDbLayerTableRecord
2
81
70
0
62
-3
6
CONTINUOUS
290
1
370
-3
390
0
0
LAYER
5
6F
100
AcDbSymbolTableRecord
100
AcDbLayerTableRecord
2
80
70
0
62
-6
6
CONTINUOUS
290
1
370
-3
390
0
0
LAYER
5
71
100
AcDbSymbolTableRecord
100
AcDbLayerTableRecord
2
4
70
0
62
-2
6
CENTER
290
1
370
-3
390
0
0
LAYER
5
76
100
AcDbSymbolTableRecord
100
AcDbLayerTableRecord
2
1
70
0
62
4
6
CONTINUOUS
290
1
370
-3
390
0
0
LAYER
5
17D
100
AcDbSymbolTableRecord
100
AcDbLayerTableRecord
2
2
70
0
62
7
6
CONTINUOUS
290
1
370
-3
390
0
0
LAYER
5
232
100
AcDbSymbolTableRecord
100
AcDbLayerTableRecord
2
SK4
70
0
62
2
6
CENTER
290
1
370
-3
390
0
0
LAYER
5
233
100
AcDbSymbolTableRecord
100
AcDbLayerTableRecord
2
SK6
70
0
62
5
6
CONTINUOUS
290
1
370
-3
390
0
0
LAYER
5
234
100
AcDbSymbolTableRecord
100
AcDbLayerTableRecord
2
SK2
70
0
62
7
6
CONTINUOUS
290
1
370
-3
390
0
0
ENDTAB
0
TABLE
2
STYLE
5
24a
100
AcDbSymbolTable
0
STYLE
5
11
100
AcDbSymbolTableRecord
100
AcDbTextStyleTableRecord
2
Standard
3
txt
70
0
71
0
40
0
41
1
42
0
50
0
0
STYLE
5
178
100
AcDbSymbolTableRecord
100
AcDbTextStyleTableRecord
2
iso_b_vert
3
simplex.shx
70
0
71
0
40
0
41
1
42
0
50
0
0
STYLE
5
179
100
AcDbSymbolTableRecord
100
AcDbTextStyleTableRecord
2
DWGDirectTextStyle
3
simplex
70
0
71
0
40
0
41
1
42
0
50
0
0
ENDTAB
0
TABLE
2
DIMSTYLE
5
24b
100
AcDbSymbolTable
100
AcDbDimStyleTable
0
DIMSTYLE
105
27
100
AcDbSymbolTableRecord
100
AcDbDimStyleTableRecord
2
Standard
70
0
3
<>
41
0.18
42
0.0625
44
0.18
140
0.18
147
0.09
73
0
74
0
77
1
271
2
275
0
278
52
280
0
340
11
0
ENDTAB
0
TABLE
2
VIEW
5
24c
100
AcDbSymbolTable
0
ENDTAB
0
TABLE
2
UCS
5
24d
100
AcDbSymbolTable
0
ENDTAB
0
TABLE
2
APPID
5
24e
100
AcDbSymbolTable
0
APPID
5
12
100
AcDbSymbolTableRecord
100
AcDbRegAppTableRecord
2
ACAD
70
0
0
ENDTAB
0
TABLE
2
BLOCK_RECORD
5
24f
100
AcDbSymbolTable
0
BLOCK_RECORD
5
1F
100
AcDbSymbolTableRecord
100
AcDbBlockTableRecord
2
*Model_Space
340
0
70
0
0
BLOCK_RECORD
5
1B
100
AcDbSymbolTableRecord
100
AcDbBlockTableRecord
2
*Paper_Space
340
0
70
0
0
BLOCK_RECORD
5
23
100
AcDbSymbolTableRecord
100
AcDbBlockTableRecord
2
*Paper_Space0
340
0
70
0
0
BLOCK_RECORD
5
17B
100
AcDbSymbolTableRecord
100
AcDbBlockTableRecord
2
DimnDraft3D1
340
0
70
0
0
BLOCK_RECORD
5
18A
100
AcDbSymbolTableRecord
100
AcDbBlockTableRecord
2
_CLOSED
340
0
70
0
0
BLOCK_RECORD
5
191
100
AcDbSymbolTableRecord
100
AcDbBlockTableRecord
2
DimnDraft3D2
340
0
70
0
0
BLOCK_RECORD
5
1A0
100
AcDbSymbolTableRecord
100
AcDbBlockTableRecord
2
DimnDraft3D3
340
0
70
0
0
BLOCK_RECORD
5
1AE
100
AcDbSymbolTableRecord
100
AcDbBlockTableRecord
2
DimnDraft3D4
340
0
70
0
0
BLOCK_RECORD
5
1BC
100
AcDbSymbolTableRecord
100
AcDbBlockTableRecord
2
DimnDraft3D5
340
0
70
0
0
BLOCK_RECORD
5
1CA
100
AcDbSymbolTableRecord
100
AcDbBlockTableRecord
2
DimnDraft3D6
340
0
70
0
0
ENDTAB
0
ENDSEC
0
SECTION
2
BLOCKS
0
BLOCK
5
20
100
AcDbEntity
8
0
100
AcDbBlockBegin
2
*Model_Space
70
0
10
0
20
0
30
0
3
*Model_Space
0
ENDBLK
5
21
100
AcDbEntity
8
0
100
AcDbBlockEnd
0
BLOCK
5
1C
100
AcDbEntity
8
0
100
AcDbBlockBegin
2
*Paper_Space
70
0
10
0
20
0
30
0
3
*Paper_Space
0
ENDBLK
5
1D
100
AcDbEntity
8
0
100
AcDbBlockEnd
0
BLOCK
5
24
100
AcDbEntity
8
0
100
AcDbBlockBegin
2
*Paper_Space0
70
0
10
0
20
0
30
0
3
*Paper_Space0
0
ENDBLK
5
25
100
AcDbEntity
8
0
100
AcDbBlockEnd
0
BLOCK
5
187
100
AcDbEntity
8
0
100
AcDbBlockBegin
2
DimnDraft3D1
70
0
10
0
20
0
30
0
3
DimnDraft3D1
0
MTEXT
5
17C
100
AcDbEntity
8
2
62
256
6
ByLayer
370
18
48
1
60
0
100
AcDbMText
10
144.875
20
31.69
30
0
210
0
220
0
230
1
1
\W0.7121;5.0
40
3.5
41
0
44
1.084337
50
0
71
7
72
5
7
iso_b_vert
0
LINE
5
17E
100
AcDbEntity
8
2
62
256
6
ByLayer
370
13
48
1
60
0
100
AcDbLine
10
134
20
15.965
30
0
11
134
21
32.815
31
0
39
0
210
0
220
0
230
1
0
LINE
5
17F
100
AcDbEntity
8
2
62
256
6
ByLayer
370
13
48
1
60
0
100
AcDbLine
10
129
20
15.965
30
0
11
129
21
32.815
31
0
39
0
210
0
220
0
230
1
0
LINE
5
180
100
AcDbEntity
8
2
62
256
6
ByLayer
370
13
48
1
60
0
100
AcDbLine
10
120.25
20
30.815
30
0
11
149.6
21
30.815
31
0
39
0
210
0
220
0
230
1
0
LINE
5
181
100
AcDbEntity
8
2
62
256
6
ByLayer
370
13
48
1
60
0
100
AcDbLine
10
134
20
30.815
30
0
11
137.499997
21
31.752822
31
0
39
0
210
0
220
0
230
1
0
LINE
5
182
100
AcDbEntity
8
2
62
256
6
ByLayer
370
13
48
1
60
0
100
AcDbLine
10
134
20
30.815
30
0
11
137.500003
21
29.877178
31
0
39
0
210
0
220
0
230
1
0
LINE
5
183
100
AcDbEntity
8
2
62
256
6
ByLayer
370
13
48
1
60
0
100
AcDbLine
10
137.499997
20
31.752822
30
0
11
137.500003
21
29.877178
31
0
39
0
210
0
220
0
230
1
0
LINE
5
184
100
AcDbEntity
8
2
62
256
6
ByLayer
370
13
48
1
60
0
100
AcDbLine
10
129
20
30.815
30
0
11
125.500003
21
29.877178
31
0
39
0
210
0
220
0
230
1
0
LINE
5
185
100
AcDbEntity
8
2
62
256
6
ByLayer
370
13
48
1
60
0
100
AcDbLine
10
129
20
30.815
30
0
11
125.499997
21
31.752822
31
0
39
0
210
0
220
0
230
1
0
LINE
5
186
100
AcDbEntity
8
2
62
256
6
ByLayer
370
13
48
1
60
0
100
AcDbLine
10
125.500003
20
29.877178
30
0
11
125.499997
21
31.752822
31
0
39
0
210
0
220
0
230
1
0
ENDBLK
5
188
100
AcDbEntity
8
0
100
AcDbBlockEnd
0
BLOCK
5
18B
100
AcDbEntity
8
0
100
AcDbBlockBegin
2
_CLOSED
70
0
10
0
20
0
30
0
3
_CLOSED
0
LINE
5
18D
100
AcDbEntity
8
0
62
256
6
ByLayer
370
-2
48
1
60
0
100
AcDbLine
10
-1
20
0.166667
30
0
11
0
21
0
31
0
39
0
210
0
220
0
230
1
0
LINE
5
18E
100
AcDbEntity
8
0
62
256
6
ByLayer
370
-2
48
1
60
0
100
AcDbLine
10
0
20
0
30
0
11
-1
21
-0.166667
31
0
39
0
210
0
220
0
230
1
0
LINE
5
18F
100
AcDbEntity
8
0
62
256
6
ByLayer
370
-2
48
1
60
0
100
AcDbLine
10
-1
20
0.166667
30
0
11
-1
21
-0.166667
31
0
39
0
210
0
220
0
230
1
0
LINE
5
190
100
AcDbEntity
8
0
62
256
6
ByLayer
370
-2
48
1
60
0
100
AcDbLine
10
0
20
0
30
0
11
-1
21
0
31
0
39
0
210
0
220
0
230
1
0
ENDBLK
5
18C
100
AcDbEntity
8
0
100
AcDbBlockEnd
0
BLOCK
5
19D
100
AcDbEntity
8
0
100
AcDbBlockBegin
2
DimnDraft3D2
70
0
10
0
20
0
30
0
3
DimnDraft3D2
0
MTEXT
5
192
100
AcDbEntity
8
SK2
62
256
6
ByLayer
370
18
48
1
60
0
100
AcDbMText
10
110.582895
20
41.69
30
0
210
0
220
0
230
1
1
\W0.7640;40.0
40
3.5
41
0
44
1.084337
50
0
71
7
72
5
7
iso_b_vert
0
LINE
5
194
100
AcDbEntity
8
SK2
62
256
6
ByLayer
370
13
48
1
60
0
100
AcDbLine
10
134
20
15.965
30
0
11
134
21
42.815
31
0
39
0
210
0
220
0
230
1
0
LINE
5
195
100
AcDbEntity
8
SK2
62
256
6
ByLayer
370
13
48
1
60
0
100
AcDbLine
10
94
20
15.965
30
0
11
94
21
42.815
31
0
39
0
210
0
220
0
230
1
0
LINE
5
196
100
AcDbEntity
8
SK2
62
256
6
ByLayer
370
13
48
1
60
0
100
AcDbLine
10
134
20
40.815
30
0
11
94
21
40.815
31
0
39
0
210
0
220
0
230
1
0
LINE
5
197
100
AcDbEntity
8
SK2
62
256
6
ByLayer
370
13
48
1
60
0
100
AcDbLine
10
134
20
40.815
30
0
11
130.500003
21
39.877178
31
0
39
0
210
0
220
0
230
1
0
LINE
5
198
100
AcDbEntity
8
SK2
62
256
6
ByLayer
370
13
48
1
60
0
100
AcDbLine
10
134
20
40.815
30
0
11
130.499997
21
41.752822
31
0
39
0
210
0
220
0
230
1
0
LINE
5
199
100
AcDbEntity
8
SK2
62
256
6
ByLayer
370
13
48
1
60
0
100
AcDbLine
10
130.500003
20
39.877178
30
0
11
130.499997
21
41.752822
31
0
39
0
210
0
220
0
230
1
0
LINE
5
19A
100
AcDbEntity
8
SK2
62
256
6
ByLayer
370
13
48
1
60
0
100
AcDbLine
10
94
20
40.815
30
0
11
97.499997
21
41.752822
31
0
39
0
210
0
220
0
230
1
0
LINE
5
19B
100
AcDbEntity
8
SK2
62
256
6
ByLayer
370
13
48
1
60
0
100
AcDbLine
10
94
20
40.815
30
0
11
97.500003
21
39.877178
31
0
39
0
210
0
220
0
230
1
0
LINE
5
19C
100
AcDbEntity
8
SK2
62
256
6
ByLayer
370
13
48
1
60
0
100
AcDbLine
10
97.499997
20
41.752822
30
0
11
97.500003
21
39.877178
31
0
39
0
210
0
220
0
230
1
0
ENDBLK
5
19E
100
AcDbEntity
8
0
100
AcDbBlockEnd
0
BLOCK
5
1AB
100
AcDbEntity
8
0
100
AcDbBlockBegin
2
DimnDraft3D3
70
0
10
0
20
0
30
0
3
DimnDraft3D3
0
MTEXT
5
1A1
100
AcDbEntity
8
SK2
62
256
6
ByLayer
370
18
48
1
60
0
100
AcDbMText
10
34.896711
20
51.69
30
0
210
0
220
0
230
1
1
\W0.6864;190.0
40
3.5
41
0
44
1.084337
50
0
71
7
72
5
7
iso_b_vert
0
LINE
5
1A2
100
AcDbEntity
8
SK2
62
256
6
ByLayer
370
13
48
1
60
0
100
AcDbLine
10
134
20
15.965
30
0
11
134
21
52.815
31
0
39
0
210
0
220
0
230
1
0
LINE
5
1A3
100
AcDbEntity
8
SK2
62
256
6
ByLayer
370
13
48
1
60
0
100
AcDbLine
10
-56
20
0
30
0
11
-56
21
52.815
31
0
39
0
210
0
220
0
230
1
0
LINE
5
1A4
100
AcDbEntity
8
SK2
62
256
6
ByLayer
370
13
48
1
60
0
100
AcDbLine
10
134
20
50.815
30
0
11
-56
21
50.815
31
0
39
0
210
0
220
0
230
1
0
LINE
5
1A5
100
AcDbEntity
8
SK2
62
256
6
ByLayer
370
13
48
1
60
0
100
AcDbLine
10
134
20
50.815
30
0
11
130.500003
21
49.877178
31
0
39
0
210
0
220
0
230
1
0
LINE
5
1A6
100
AcDbEntity
8
SK2
62
256
6
ByLayer
370
13
48
1
60
0
100
AcDbLine
10
134
20
50.815
30
0
11
130.499997
21
51.752822
31
0
39
0
210
0
220
0
230
1
0
LINE
5
1A7
100
AcDbEntity
8
SK2
62
256
6
ByLayer
370
13
48
1
60
0
100
AcDbLine
10
130.500003
20
49.877178
30
0
11
130.499997
21
51.752822
31
0
39
0
210
0
220
0
230
1
0
LINE
5
1A8
100
AcDbEntity
8
SK2
62
256
6
ByLayer
370
13
48
1
60
0
100
AcDbLine
10
-56
20
50.815
30
0
11
-52.500003
21
51.752822
31
0
39
0
210
0
220
0
230
1
0
LINE
5
1A9
100
AcDbEntity
8
SK2
62
256
6
ByLayer
370
13
48
1
60
0
100
AcDbLine
10
-56
20
50.815
30
0
11
-52.499997
21
49.877178
31
0
39
0
210
0
220
0
230
1
0
LINE
5
1AA
100
AcDbEntity
8
SK2
62
256
6
ByLayer
370
13
48
1
60
0
100
AcDbLine
10
-52.500003
20
51.752822
30
0
11
-52.499997
21
49.877178
31
0
39
0
210
0
220
0
230
1
0
ENDBLK
5
1AC
100
AcDbEntity
8
0
100
AcDbBlockEnd
0
BLOCK
5
1B9
100
AcDbEntity
8
0
100
AcDbBlockBegin
2
DimnDraft3D4
70
0
10
0
20
0
30
0
3
DimnDraft3D4
0
MTEXT
5
1AF
100
AcDbEntity
8
2
62
256
6
ByLayer
370
18
48
1
60
0
100
AcDbMText
10
-71.725
20
-3.232895
30
0
210
0
220
0
230
1
1
\W0.7346;25.0
40
3.5
41
0
44
1.084337
50
90
71
7
72
5
7
iso_b_vert
0
LINE
5
1B0
100
AcDbEntity
8
2
62
256
6
ByLayer
370
13
48
1
60
0
100
AcDbLine
10
-56
20
12.5
30
0
11
-72.85
21
12.5
31
0
39
0
210
0
220
0
230
1
0
LINE
5
1B1
100
AcDbEntity
8
2
62
256
6
ByLayer
370
13
48
1
60
0
100
AcDbLine
10
-56
20
-12.5
30
0
11
-72.85
21
-12.5
31
0
39
0
210
0
220
0
230
1
0
LINE
5
1B2
100
AcDbEntity
8
2
62
256
6
ByLayer
370
13
48
1
60
0
100
AcDbLine
10
-70.85
20
12.5
30
0
11
-70.85
21
-12.5
31
0
39
0
210
0
220
0
230
1
0
LINE
5
1B3
100
AcDbEntity
8
2
62
256
6
ByLayer
370
13
48
1
60
0
100
AcDbLine
10
-70.85
20
12.5
30
0
11
-69.912178
21
9.000003
31
0
39
0
210
0
220
0
230
1
0
LINE
5
1B4
100
AcDbEntity
8
2
62
256
6
ByLayer
370
13
48
1
60
0
100
AcDbLine
10
-70.85
20
12.5
30
0
11
-71.787822
21
8.999997
31
0
39
0
210
0
220
0
230
1
0
LINE
5
1B5
100
AcDbEntity
8
2
62
256
6
ByLayer
370
13
48
1
60
0
100
AcDbLine
10
-69.912178
20
9.000003
30
0
11
-71.787822
21
8.999997
31
0
39
0
210
0
220
0
230
1
0
LINE
5
1B6
100
AcDbEntity
8
2
62
256
6
ByLayer
370
13
48
1
60
0
100
AcDbLine
10
-70.85
20
-12.5
30
0
11
-71.787822
21
-9.000003
31
0
39
0
210
0
220
0
230
1
0
LINE
5
1B7
100
AcDbEntity
8
2
62
256
6
ByLayer
370
13
48
1
60
0
100
AcDbLine
10
-70.85
20
-12.5
30
0
11
-69.912178
21
-8.999997
31
0
39
0
210
0
220
0
230
1
0
LINE
5
1B8
100
AcDbEntity
8
2
62
256
6
ByLayer
370
13
48
1
60
0
100
AcDbLine
10
-71.787822
20
-9.000003
30
0
11
-69.912178
21
-8.999997
31
0
39
0
210
0
220
0
230
1
0
ENDBLK
5
1BA
100
AcDbEntity
8
0
100
AcDbBlockEnd
0
BLOCK
5
1C7
100
AcDbEntity
8
0
100
AcDbBlockBegin
2
DimnDraft3D5
70
0
10
0
20
0
30
0
3
DimnDraft3D5
0
MTEXT
5
1BD
100
AcDbEntity
8
SK2
62
256
6
ByLayer
370
18
48
1
60
0
100
AcDbMText
10
159.975
20
-3.232895
30
0
210
0
220
0
230
1
1
\W0.7346;22.0
40
3.5
41
0
44
1.084337
50
90
71
7
72
5
7
iso_b_vert
0
LINE
5
1BE
100
AcDbEntity
8
SK2
62
256
6
ByLayer
370
13
48
1
60
0
100
AcDbLine
10
134
20
10.9884
30
0
11
162.85
21
10.9884
31
0
39
0
210
0
220
0
230
1
0
LINE
5
1BF
100
AcDbEntity
8
SK2
62
256
6
ByLayer
370
13
48
1
60
0
100
AcDbLine
10
134
20
-10.9884
30
0
11
162.85
21
-10.9884
31
0
39
0
210
0
220
0
230
1
0
LINE
5
1C0
100
AcDbEntity
8
SK2
62
256
6
ByLayer
370
13
48
1
60
0
100
AcDbLine
10
160.85
20
10.9884
30
0
11
160.85
21
-10.9884
31
0
39
0
210
0
220
0
230
1
0
LINE
5
1C1
100
AcDbEntity
8
SK2
62
256
6
ByLayer
370
13
48
1
60
0
100
AcDbLine
10
160.85
20
10.9884
30
0
11
161.787822
21
7.488403
31
0
39
0
210
0
220
0
230
1
0
LINE
5
1C2
100
AcDbEntity
8
SK2
62
256
6
ByLayer
370
13
48
1
60
0
100
AcDbLine
10
160.85
20
10.9884
30
0
11
159.912178
21
7.488397
31
0
39
0
210
0
220
0
230
1
0
LINE
5
1C3
100
AcDbEntity
8
SK2
62
256
6
ByLayer
370
13
48
1
60
0
100
AcDbLine
10
161.787822
20
7.488403
30
0
11
159.912178
21
7.488397
31
0
39
0
210
0
220
0
230
1
0
LINE
5
1C4
100
AcDbEntity
8
SK2
62
256
6
ByLayer
370
13
48
1
60
0
100
AcDbLine
10
160.85
20
-10.9884
30
0
11
159.912178
21
-7.488403
31
0
39
0
210
0
220
0
230
1
0
LINE
5
1C5
100
AcDbEntity
8
SK2
62
256
6
ByLayer
370
13
48
1
60
0
100
AcDbLine
10
160.85
20
-10.9884
30
0
11
161.787822
21
-7.488397
31
0
39
0
210
0
220
0
230
1
0
LINE
5
1C6
100
AcDbEntity
8
SK2
62
256
6
ByLayer
370
13
48
1
60
0
100
AcDbLine
10
159.912178
20
-7.488403
30
0
11
161.787822
21
-7.488397
31
0
39
0
210
0
220
0
230
1
0
ENDBLK
5
1C8
100
AcDbEntity
8
0
100
AcDbBlockEnd
0
BLOCK
5
1D5
100
AcDbEntity
8
0
100
AcDbBlockBegin
2
DimnDraft3D6
70
0
10
0
20
0
30
0
3
DimnDraft3D6
0
MTEXT
5
1CB
100
AcDbEntity
8
SK2
62
256
6
ByLayer
370
18
48
1
60
0
100
AcDbMText
10
169.975
20
-3.232895
30
0
210
0
220
0
230
1
1
\W0.7346;32.0
40
3.5
41
0
44
1.084337
50
90
71
7
72
5
7
iso_b_vert
0
LINE
5
1CC
100
AcDbEntity
8
SK2
62
256
6
ByLayer
370
13
48
1
60
0
100
AcDbLine
10
134
20
-15.965
30
0
11
172.85
21
-15.965
31
0
39
0
210
0
220
0
230
1
0
LINE
5
1CD
100
AcDbEntity
8
SK2
62
256
6
ByLayer
370
13
48
1
60
0
100
AcDbLine
10
134
20
15.965
30
0
11
172.85
21
15.965
31
0
39
0
210
0
220
0
230
1
0
LINE
5
1CE
100
AcDbEntity
8
SK2
62
256
6
ByLayer
370
13
48
1
60
0
100
AcDbLine
10
170.85
20
-15.965
30
0
11
170.85
21
15.965
31
0
39
0
210
0
220
0
230
1
0
LINE
5
1CF
100
AcDbEntity
8
SK2
62
256
6
ByLayer
370
13
48
1
60
0
100
AcDbLine
10
170.85
20
-15.965
30
0
11
169.912178
21
-12.465003
31
0
39
0
210
0
220
0
230
1
0
LINE
5
1D0
100
AcDbEntity
8
SK2
62
256
6
ByLayer
370
13
48
1
60
0
100
AcDbLine
10
170.85
20
-15.965
30
0
11
171.787822
21
-12.464997
31
0
39
0
210
0
220
0
230
1
0
LINE
5
1D1
100
AcDbEntity
8
SK2
62
256
6
ByLayer
370
13
48
1
60
0
100
AcDbLine
10
169.912178
20
-12.465003
30
0
11
171.787822
21
-12.464997
31
0
39
0
210
0
220
0
230
1
0
LINE
5
1D2
100
AcDbEntity
8
SK2
62
256
6
ByLayer
370
13
48
1
60
0
100
AcDbLine
10
170.85
20
15.965
30
0
11
171.787822
21
12.465003
31
0
39
0
210
0
220
0
230
1
0
LINE
5
1D3
100
AcDbEntity
8
SK2
62
256
6
ByLayer
370
13
48
1
60
0
100
AcDbLine
10
170.85
20
15.965
30
0
11
169.912178
21
12.464997
31
0
39
0
210
0
220
0
230
1
0
LINE
5
1D4
100
AcDbEntity
8
SK2
62
256
6
ByLayer
370
13
48
1
60
0
100
AcDbLine
10
171.787822
20
12.465003
30
0
11
169.912178
21
12.464997
31
0
39
0
210
0
220
0
230
1
0
ENDBLK
5
1D6
100
AcDbEntity
8
0
100
AcDbBlockEnd
0
ENDSEC
0
SECTION
2
ENTITIES
0
ARC
5
C8
100
AcDbEntity
8
1
62
256
6
ByLayer
370
18
48
1
60
0
100
AcDbCircle
39
0
10
-94.580948
20
-13.04475
30
0
40
0.800000000000008
210
0
220
0
230
-1
100
AcDbArc
50
43.432537
51
90
0
ARC
5
C9
100
AcDbEntity
8
1
62
256
6
ByLayer
370
18
48
1
60
0
100
AcDbCircle
39
0
10
-94.580948
20
13.04475
30
0
40
0.800000000000008
210
0
220
0
230
-1
100
AcDbArc
50
270
51
316.567463
0
ARC
5
CA
100
AcDbEntity
8
1
62
256
6
ByLayer
370
18
48
1
60
0
100
AcDbCircle
39
0
10
-100.95967
20
-13.04475
30
0
40
0.8
210
0
220
0
230
-1
100
AcDbArc
50
90
51
95.771924
0
ARC
5
CB
100
AcDbEntity
8
1
62
256
6
ByLayer
370
18
48
1
60
0
100
AcDbCircle
39
0
10
-100.95967
20
13.04475
30
0
40
0.8
210
0
220
0
230
-1
100
AcDbArc
50
264.228076
51
270
0
ELLIPSE
5
CC
100
AcDbEntity
8
1
62
256
6
ByLayer
370
18
48
1
60
0
100
AcDbEllipse
10
129.424814
20
-2.687703
30
0
11
-4.10475488626462
21
0.596858993849514
31
0
210
0
220
0
230
1
40
0.531687
41
2.70121599492975
42
-3.07050011863287
0
ELLIPSE
5
CD
100
AcDbEntity
8
1
62
256
6
ByLayer
370
18
48
1
60
0
100
AcDbEllipse
10
129.357071
20
-1.877679
30
0
11
1.56645684185562
21
4.91630242925322
31
0
210
0
220
0
230
-1
40
0.687598
41
2.49675500841688
42
-2.58632229869544
0
ELLIPSE
5
CE
100
AcDbEntity
8
1
62
256
6
ByLayer
370
18
48
1
60
0
100
AcDbEllipse
10
129.037269
20
-5.352948
30
0
11
-4.94796588954729
21
0.719467550259596
31
0
210
0
220
0
230
1
40
0.531687
41
0.455735315828388
42
2.27903718428665
0
ELLIPSE
5
CF
100
AcDbEntity
8
1
62
256
6
ByLayer
370
18
48
1
60
0
100
AcDbEllipse
10
129.037269
20
-5.352948
30
0
11
-4.94796588954729
21
0.719467550259596
31
0
210
0
220
0
230
1
40
0.531687
41
2.27903718428665
42
-2.97252749592
0
ELLIPSE
5
D0
100
AcDbEntity
8
1
62
256
6
ByLayer
370
18
48
1
60
0
100
AcDbEllipse
10
128.655235
20
-1.426129
30
0
11
3.89614765962622
21
3.48180662534125
31
0
210
0
220
0
230
-1
40
0.399721
41
2.65947024271266
42
3.07088221583369
0
ELLIPSE
5
D1
100
AcDbEntity
8
1
62
256
6
ByLayer
370
18
48
1
60
0
100
AcDbEllipse
10
129.424814
20
-2.687703
30
0
11
-4.10475488626462
21
0.596858993849514
31
0
210
0
220
0
230
1
40
0.531687
41
0.60682089253655
42
1.11829008615352
0
ELLIPSE
5
D2
100
AcDbEntity
8
1
62
256
6
ByLayer
370
18
48
1
60
0
100
AcDbEllipse
10
129.424814
20
-2.687703
30
0
11
-4.10475488626462
21
0.596858993849514
31
0
210
0
220
0
230
1
40
0.531687
41
1.65401844373315
42
2.16548763735012
0
ELLIPSE
5
D3
100
AcDbEntity
8
1
62
256
6
ByLayer
370
18
48
1
60
0
100
AcDbEllipse
10
130.572687
20
-1.347646
30
0
11
3.21521120986158
21
-3.5344981481646
31
0
210
0
220
0
230
-1
40
0.146986
41
-0.510883675705625
42
0.152307073852902
0
ELLIPSE
5
D4
100
AcDbEntity
8
1
62
256
6
ByLayer
370
18
48
1
60
0
100
AcDbEllipse
10
130.315797
20
-1.838438
30
0
11
2.18507191034587
21
-4.80396385688387
31
0
210
0
220
0
230
-1
40
0.521587
41
-0.591859314375467
42
0.608248685691762
0
ELLIPSE
5
D5
100
AcDbEntity
8
1
62
256
6
ByLayer
370
18
48
1
60
0
100
AcDbEllipse
10
129.997238
20
1.24901
30
0
11
-1.33595079017777
21
0.194256238570091
31
0
210
0
220
0
230
1
40
0.531687
41
0
42
0.592787291426198
0
ELLIPSE
5
D6
100
AcDbEntity
8
1
62
256
6
ByLayer
370
18
48
1
60
0
100
AcDbEllipse
10
129.997238
20
1.24901
30
0
11
-1.33595079017777
21
0.194256238570091
31
0
210
0
220
0
230
1
40
0.531687
41
-2.46290251805699
42
-3.09350210047741E-16
0
ELLIPSE
5
D7
100
AcDbEntity
8
1
62
256
6
ByLayer
370
13
48
1
60
0
100
AcDbEllipse
10
129.124707
20
10.953367
30
0
11
-4.63390573995887E-16
21
2.88152615023479
31
0
210
0
220
0
230
1
40
0.992546
41
0
42
6.28318530717959
0
ELLIPSE
5
D8
100
AcDbEntity
8
1
62
256
6
ByLayer
370
13
48
1
60
0
100
AcDbEllipse
10
129.088203
20
10.953367
30
0
11
-5.53998822691508E-16
21
-3.01592872932762
31
0
210
0
220
0
230
1
40
0.992546
41
-1.57079622233263
42
0
0
ELLIPSE
5
D9
100
AcDbEntity
8
1
62
256
6
ByLayer
370
13
48
1
60
0
100
AcDbEllipse
10
129.088203
20
10.953367
30
0
11
-5.53998822691508E-16
21
-3.01592872932762
31
0
210
0
220
0
230
1
40
0.992546
41
0
42
0.375518378615857
0
ELLIPSE
5
DA
100
AcDbEntity
8
1
62
256
6
ByLayer
370
18
48
1
60
0
100
AcDbEllipse
10
129.088203
20
10.953367
30
0
11
-5.53998822691508E-16
21
-3.01592872932762
31
0
210
0
220
0
230
1
40
0.992546
41
0.375518465451979
42
0.78539821612196
0
ELLIPSE
5
DB
100
AcDbEntity
8
1
62
256
6
ByLayer
370
18
48
1
60
0
100
AcDbEllipse
10
129.088203
20
10.953367
30
0
11
-5.53998822691508E-16
21
-3.01592872932762
31
0
210
0
220
0
230
1
40
0.992546
41
2.35442718696159
42
2.7467334439029
0
ELLIPSE
5
DC
100
AcDbEntity
8
1
62
256
6
ByLayer
370
13
48
1
60
0
100
AcDbEllipse
10
129.088203
20
10.953367
30
0
11
-5.53998822691508E-16
21
-3.01592872932762
31
0
210
0
220
0
230
1
40
0.992546
41
2.74673377759377
42
-2.35619431436157
0
ELLIPSE
5
DD
100
AcDbEntity
8
1
62
256
6
ByLayer
370
13
48
1
60
0
100
AcDbEllipse
10
129.088203
20
10.953367
30
0
11
-5.53998822691508E-16
21
-3.01592872932762
31
0
210
0
220
0
230
1
40
0.992546
41
-2.35619464717245
42
-1.57079655390547
0
ELLIPSE
5
DE
100
AcDbEntity
8
1
62
256
6
ByLayer
370
18
48
1
60
0
100
AcDbEllipse
10
129.037269
20
10.953367
30
0
11
-8.04071436169562E-16
21
5
31
0
210
0
220
0
230
1
40
0.992546
41
-2.69185401238103
42
-1.57079636382547
0
ELLIPSE
5
DF
100
AcDbEntity
8
1
62
256
6
ByLayer
370
18
48
1
60
0
100
AcDbEllipse
10
129.037269
20
10.953367
30
0
11
-8.04071436169562E-16
21
5
31
0
210
0
220
0
230
1
40
0.992546
41
-0.785398239940889
42
-3.57939448529388E-16
0
ELLIPSE
5
E0
100
AcDbEntity
8
1
62
256
6
ByLayer
370
18
48
1
60
0
100
AcDbEllipse
10
129.037269
20
10.953367
30
0
11
-8.04071436169562E-16
21
5
31
0
210
0
220
0
230
1
40
0.992546
41
0
42
2.69499561920659
0
ELLIPSE
5
E1
100
AcDbEntity
8
1
62
256
6
ByLayer
370
18
48
1
60
0
100
AcDbEllipse
10
129.037269
20
10.953367
30
0
11
-8.04071436169562E-16
21
5
31
0
210
0
220
0
230
1
40
0.992546
41
-1.57079636382547
42
-0.785398239940897
0
ELLIPSE
5
E2
100
AcDbEntity
8
1
62
256
6
ByLayer
370
18
48
1
60
0
100
AcDbEllipse
10
129.037269
20
10.953367
30
0
11
-4.90884517941318E-16
21
3.05249319811555
31
0
210
0
220
0
230
1
40
0.992546
41
0
42
6.28318530717959
0
ELLIPSE
5
E3
100
AcDbEntity
8
1
62
256
6
ByLayer
370
13
48
1
60
0
100
AcDbEllipse
10
125.444871
20
-6.58966
30
0
11
1.4257153833637
21
3.73728987979794
31
0
210
0
220
0
230
1
40
0.328414
41
-1.69967017599419
42
-1.66457608151556
0
ELLIPSE
5
E4
100
AcDbEntity
8
1
62
256
6
ByLayer
370
13
48
1
60
0
100
AcDbEllipse
10
123.70893
20
7.353367
30
0
11
-4.82442861701737E-16
21
3
31
0
210
0
220
0
230
1
40
0.121869
41
-1.84436723987766
42
-1.5707963267949
0
ELLIPSE
5
E5
100
AcDbEntity
8
1
62
256
6
ByLayer
370
18
48
1
60
0
100
AcDbEllipse
10
130.599701
20
7.273
30
0
11
1.50862141660819
21
-1.49999962992792
31
0
210
0
220
0
230
-1
40
0.081049
41
-1.02792070265815
42
-0.962681966943138
0
ELLIPSE
5
E6
100
AcDbEntity
8
1
62
256
6
ByLayer
370
13
48
1
60
0
100
AcDbEllipse
10
127.261961
20
8.054229
30
0
11
-1.41949401373084
21
-1.40891332060645
31
0
210
0
220
0
230
1
40
0.086175
41
0.140603178822432
42
0.642046651936818
0
ELLIPSE
5
E7
100
AcDbEntity
8
1
62
256
6
ByLayer
370
13
48
1
60
0
100
AcDbEllipse
10
126.429115
20
-20.16985
30
0
11
21.7365683418748
21
-3.68512815771235
31
0
210
0
220
0
230
-1
40
0.572564
41
-2.47007564666604
42
-1.7882698722234
0
ELLIPSE
5
E8
100
AcDbEntity
8
1
62
256
6
ByLayer
370
13
48
1
60
0
100
AcDbEllipse
10
124.76593
20
-7.943023
30
0
11
5.96485382484392
21
-0.661626597907184
31
0
210
0
220
0
230
-1
40
0.103165
41
-1.74497783181977
42
-1.29098986111876
0
ELLIPSE
5
E9
100
AcDbEntity
8
1
62
256
6
ByLayer
370
13
48
1
60
0
100
AcDbEllipse
10
124.074538
20
20.553367
30
0
11
-2.12274859148764E-15
21
13.2
31
0
210
0
220
0
230
1
40
0.992546
41
2.19789916141726
42
3.14159265358977
0
ELLIPSE
5
EA
100
AcDbEntity
8
1
62
256
6
ByLayer
370
13
48
1
60
0
100
AcDbEllipse
10
124.558031
20
-6.41467
30
0
11
0.0931926602964805
21
3.99891424365
31
0
210
0
220
0
230
1
40
0.188958
41
1.44733659544353
42
1.77856069066781
0
ELLIPSE
5
EB
100
AcDbEntity
8
1
62
256
6
ByLayer
370
18
48
1
60
0
100
AcDbEllipse
10
125.210784
20
-2.928283
30
0
11
1.68181179119424
21
7.00092935096974
31
0
210
0
220
0
230
-1
40
0.829276
41
2.68249132533671
42
2.72686452458401
0
ELLIPSE
5
EC
100
AcDbEntity
8
1
62
256
6
ByLayer
370
13
48
1
60
0
100
AcDbEllipse
10
126.139023
20
9.1856
30
0
11
-1.41949401373084
21
-1.40891332060645
31
0
210
0
220
0
230
1
40
0.086175
41
0.171707310483931
42
0.621424208048776
0
ELLIPSE
5
ED
100
AcDbEntity
8
1
62
256
6
ByLayer
370
18
48
1
60
0
100
AcDbEllipse
10
129.85782
20
1.451411
30
0
11
2.47398294477364
21
-0.359733775129792
31
0
210
0
220
0
230
1
40
0.531687
41
1.35844618665533E-05
42
2.89352215761973
0
ELLIPSE
5
EE
100
AcDbEntity
8
1
62
256
6
ByLayer
370
18
48
1
60
0
100
AcDbEllipse
10
134
20
0
30
0
11
106.308971311096
21
-11.0696949173675
31
0
210
0
220
0
230
-1
40
0.065071
41
1.65626177312429
42
1.7583942063252
0
ELLIPSE
5
EF
100
AcDbEntity
8
1
62
256
6
ByLayer
370
18
48
1
60
0
100
AcDbEllipse
10
129.037269
20
10.953367
30
0
11
-9.69519668311747E-16
21
-5.27799356522785
31
0
210
0
220
0
230
1
40
0.992546
41
-1.9685743230022
42
-1.1778591307834
0
ELLIPSE
5
F0
100
AcDbEntity
8
1
62
256
6
ByLayer
370
18
48
1
60
0
100
AcDbEllipse
10
123.531246
20
-5.859643
30
0
11
8.68256051052678
21
-0.836320602838077
31
0
210
0
220
0
230
-1
40
0.387997
41
0.613962362768455
42
0.745554567504126
0
ELLIPSE
5
F1
100
AcDbEntity
8
1
62
256
6
ByLayer
370
18
48
1
60
0
100
AcDbEllipse
10
119.20681
20
-4.209941
30
0
11
11.1660255893749
21
-5.29782904602417
31
0
210
0
220
0
230
-1
40
0.31496
41
-0.331684316033019
42
-0.24765697470685
0
ELLIPSE
5
F2
100
AcDbEntity
8
1
62
256
6
ByLayer
370
18
48
1
60
0
100
AcDbEllipse
10
134
20
0
30
0
11
106.311411635214
21
1.07442464599485E-13
31
0
210
0
220
0
230
-1
40
0.122785
41
-1.76516975152235
42
-1.66303731837887
0
ELLIPSE
5
F3
100
AcDbEntity
8
1
62
256
6
ByLayer
370
13
48
1
60
0
100
AcDbEllipse
10
123.450407
20
-14.273243
30
0
11
-15.161874088552
21
2.20463856286467
31
0
210
0
220
0
230
1
40
0.531687
41
-0.661605909978475
42
-0.566841620007936
0
ELLIPSE
5
F4
100
AcDbEntity
8
1
62
256
6
ByLayer
370
18
48
1
60
0
100
AcDbEllipse
10
129.85782
20
1.451411
30
0
11
1.43491010796872
21
-0.208645589575281
31
0
210
0
220
0
230
1
40
0.531687
41
0
42
6.28318530717959
0
ELLIPSE
5
F5
100
AcDbEntity
8
1
62
256
6
ByLayer
370
18
48
1
60
0
100
AcDbEllipse
10
126.159741
20
9.1856
30
0
11
-3.66052333115945E-16
21
-1.99276190248609
31
0
210
0
220
0
230
1
40
0.992546
41
-1.44339474236836
42
-0.785398163397442
0
ELLIPSE
5
F6
100
AcDbEntity
8
1
62
256
6
ByLayer
370
18
48
1
60
0
100
AcDbEllipse
10
130.486127
20
-17.131567
30
0
11
2.19331557531081
21
-1.35335313033368
31
0
210
0
220
0
230
-1
40
0.924371
41
-2.75934099850938
42
-1.88013686040001
0
ELLIPSE
5
F7
100
AcDbEntity
8
1
62
256
6
ByLayer
370
18
48
1
60
0
100
AcDbEllipse
10
128.13054
20
12.002219
30
0
11
0.27593754988433
21
0.279325298769175
31
0
210
0
220
0
230
-1
40
0.489701
41
0.165342589934235
42
1.57561605139799
0
ELLIPSE
5
F8
100
AcDbEntity
8
1
62
256
6
ByLayer
370
18
48
1
60
0
100
AcDbEllipse
10
129.171574
20
10.953367
30
0
11
-2.37016436750552E-16
21
-1.2903
31
0
210
0
220
0
230
1
40
0.992546
41
-1.30899693899576
42
-0.261799387799161
0
ELLIPSE
5
F9
100
AcDbEntity
8
1
62
256
6
ByLayer
370
18
48
1
60
0
100
AcDbEllipse
10
128.13047
20
9.904445
30
0
11
0.275937549885782
21
-0.279325298769536
31
0
210
0
220
0
230
-1
40
0.489701
41
0.829128335872335
42
-3.08926726847619
0
ELLIPSE
5
FA
100
AcDbEntity
8
1
62
256
6
ByLayer
370
18
48
1
60
0
100
AcDbEllipse
10
129.162433
20
10.953367
30
0
11
-4.82188751817561E-16
21
-2.625
31
0
210
0
220
0
230
1
40
0.992546
41
-0.785398125228461
42
0
0
ELLIPSE
5
FB
100
AcDbEntity
8
1
62
256
6
ByLayer
370
18
48
1
60
0
100
AcDbEllipse
10
129.162433
20
10.953367
30
0
11
-4.82188751817561E-16
21
-2.625
31
0
210
0
220
0
230
1
40
0.992546
41
0
42
3.14149451039216
0
ELLIPSE
5
FC
100
AcDbEntity
8
1
62
256
6
ByLayer
370
18
48
1
60
0
100
AcDbEllipse
10
128.13054
20
12.002219
30
0
11
0.275937549885853
21
0.279325298769745
31
0
210
0
220
0
230
-1
40
0.489701
41
1.57561605139457
42
2.71141582759685
0
ELLIPSE
5
FD
100
AcDbEntity
8
1
62
256
6
ByLayer
370
18
48
1
60
0
100
AcDbEllipse
10
128.790529
20
9.520609
30
0
11
0.377712021630007
21
-0.102454346819443
31
0
210
0
220
0
230
-1
40
0.492901
41
-1.57323198377885
42
-0.162958522316115
0
ELLIPSE
5
FE
100
AcDbEntity
8
1
62
256
6
ByLayer
370
18
48
1
60
0
100
AcDbEllipse
10
127.749495
20
10.569461
30
0
11
0.100798747173695
21
-0.38078940721911
31
0
210
0
220
0
230
-1
40
0.486555
41
-2.98345450612932
42
-1.57318104466747
0
ELLIPSE
5
FF
100
AcDbEntity
8
1
62
256
6
ByLayer
370
18
48
1
60
0
100
AcDbEllipse
10
129.171574
20
10.953367
30
0
11
-2.37016436750552E-16
21
-1.2903
31
0
210
0
220
0
230
1
40
0.992546
41
2.14295916636309
42
2.81056393613355
0
ELLIPSE
5
100
100
AcDbEntity
8
1
62
256
6
ByLayer
370
18
48
1
60
0
100
AcDbEllipse
10
128.790503
20
12.386221
30
0
11
0.377712021631182
21
0.102454346819118
31
0
210
0
220
0
230
-1
40
0.492901
41
3.08688320085793
42
-1.32589949761859
0
ELLIPSE
5
101
100
AcDbEntity
8
1
62
256
6
ByLayer
370
18
48
1
60
0
100
AcDbEllipse
10
128.979629
20
10.953367
30
0
11
-2.69589071118931E-16
21
1.6764
31
0
210
0
220
0
230
1
40
0.992546
41
-1.83259571459405
42
-0.785398163397437
0
ELLIPSE
5
102
100
AcDbEntity
8
1
62
256
6
ByLayer
370
18
48
1
60
0
100
AcDbEllipse
10
129.171574
20
10.953367
30
0
11
-2.37016436750552E-16
21
-1.2903
31
0
210
0
220
0
230
1
40
0.992546
41
3.08888947459165
42
-2.35619449019236
0
ELLIPSE
5
103
100
AcDbEntity
8
1
62
256
6
ByLayer
370
18
48
1
60
0
100
AcDbEllipse
10
128.985575
20
10.953367
30
0
11
-4.82188751817561E-16
21
-2.625
31
0
210
0
220
0
230
1
40
0.992546
41
0
42
6.28318530717959
0
ELLIPSE
5
104
100
AcDbEntity
8
1
62
256
6
ByLayer
370
18
48
1
60
0
100
AcDbEllipse
10
128.979629
20
10.953367
30
0
11
-2.69589071118931E-16
21
1.6764
31
0
210
0
220
0
230
1
40
0.992546
41
2.35619449019234
42
-2.87979326579067
0
ELLIPSE
5
105
100
AcDbEntity
8
1
62
256
6
ByLayer
370
18
48
1
60
0
100
AcDbEllipse
10
128.979629
20
10.953367
30
0
11
-2.69589071118931E-16
21
1.6764
31
0
210
0
220
0
230
1
40
0.992546
41
-0.785398163397437
42
0.261799387799174
0
ELLIPSE
5
106
100
AcDbEntity
8
1
62
256
6
ByLayer
370
18
48
1
60
0
100
AcDbEllipse
10
130.212677
20
12.002289
30
0
11
0.275937549885784
21
-0.27932529876953
31
0
210
0
220
0
230
-1
40
0.489701
41
3.07962781927825
42
-3.07164101755514
0
ELLIPSE
5
107
100
AcDbEntity
8
1
62
256
6
ByLayer
370
18
48
1
60
0
100
AcDbEllipse
10
129.552644
20
9.520513
30
0
11
0.37771202163118
21
0.102454346819124
31
0
210
0
220
0
230
-1
40
0.492901
41
2.34655391278997
42
-3.08201188689683
0
ELLIPSE
5
108
100
AcDbEntity
8
1
62
256
6
ByLayer
370
13
48
1
60
0
100
AcDbEllipse
10
128.979629
20
10.953367
30
0
11
-3.30643715532042E-16
21
-1.8
31
0
210
0
220
0
230
1
40
0.992546
41
0
42
6.28318530717959
0
ELLIPSE
5
109
100
AcDbEntity
8
1
62
256
6
ByLayer
370
18
48
1
60
0
100
AcDbEllipse
10
129.171574
20
10.953367
30
0
11
-2.07498674817917E-16
21
1.2903
31
0
210
0
220
0
230
1
40
0.992546
41
0.785398163397437
42
1.83259571459406
0
ELLIPSE
5
10A
100
AcDbEntity
8
1
62
256
6
ByLayer
370
18
48
1
60
0
100
AcDbEllipse
10
128.979629
20
10.953367
30
0
11
-2.69589071118931E-16
21
1.6764
31
0
210
0
220
0
230
1
40
0.992546
41
-2.87979326579067
42
-1.83259571459405
0
ELLIPSE
5
10B
100
AcDbEntity
8
1
62
256
6
ByLayer
370
18
48
1
60
0
100
AcDbEllipse
10
127.749495
20
10.569461
30
0
11
0.10079874717381
21
-0.380789407220153
31
0
210
0
220
0
230
-1
40
0.486555
41
-1.57318104466851
42
-0.162907583209894
0
ELLIPSE
5
10C
100
AcDbEntity
8
1
62
256
6
ByLayer
370
18
48
1
60
0
100
AcDbEllipse
10
127.7494
20
11.337299
30
0
11
0.100798747173522
21
0.380789407219866
31
0
210
0
220
0
230
-1
40
0.486555
41
3.08683226175229
42
-0.442234009222782
0
ELLIPSE
5
10D
100
AcDbEntity
8
1
62
256
6
ByLayer
370
18
48
1
60
0
100
AcDbEllipse
10
129.171574
20
10.953367
30
0
11
-2.37016436750552E-16
21
-1.2903
31
0
210
0
220
0
230
1
40
0.992546
41
-0.261799387799178
42
0.475100286412906
0
ELLIPSE
5
10E
100
AcDbEntity
8
1
62
256
6
ByLayer
370
18
48
1
60
0
100
AcDbEllipse
10
128.979629
20
10.953367
30
0
11
-2.69589071118931E-16
21
1.6764
31
0
210
0
220
0
230
1
40
0.992546
41
0.261799387799174
42
1.30899693899574
0
ELLIPSE
5
10F
100
AcDbEntity
8
1
62
256
6
ByLayer
370
18
48
1
60
0
100
AcDbEllipse
10
128.790529
20
9.520609
30
0
11
0.37771202163098
21
-0.10245434681896
31
0
210
0
220
0
230
-1
40
0.492901
41
-2.07634692863976
42
-1.57323198377471
0
ELLIPSE
5
110
100
AcDbEntity
8
1
62
256
6
ByLayer
370
18
48
1
60
0
100
AcDbEllipse
10
129.552618
20
12.386125
30
0
11
0.377712021631216
21
-0.102454346819231
31
0
210
0
220
0
230
-1
40
0.492901
41
0.158087208354354
42
1.06524694769384
0
ELLIPSE
5
111
100
AcDbEntity
8
1
62
256
6
ByLayer
370
18
48
1
60
0
100
AcDbEllipse
10
129.171574
20
10.953367
30
0
11
-2.37016436750552E-16
21
-1.2903
31
0
210
0
220
0
230
1
40
0.992546
41
0.957237121278288
42
1.57732520571865
0
ELLIPSE
5
112
100
AcDbEntity
8
1
62
256
6
ByLayer
370
18
48
1
60
0
100
AcDbEllipse
10
128.979629
20
10.953367
30
0
11
-2.69589071118931E-16
21
1.6764
31
0
210
0
220
0
230
1
40
0.992546
41
1.30899693899574
42
2.35619449019234
0
ELLIPSE
5
113
100
AcDbEntity
8
1
62
256
6
ByLayer
370
18
48
1
60
0
100
AcDbEllipse
10
129.037269
20
-5.616302
30
0
11
4.95268047760559
21
0.686262403708995
31
0
210
0
220
0
230
1
40
0.459996
41
0
42
0.299566803533518
0
ELLIPSE
5
114
100
AcDbEntity
8
1
62
256
6
ByLayer
370
18
48
1
60
0
100
AcDbEllipse
10
129.037269
20
-5.616302
30
0
11
4.95268047760559
21
0.686262403708995
31
0
210
0
220
0
230
1
40
0.459996
41
-0.139176253352741
42
-3.8616788828604E-16
0
ELLIPSE
5
115
100
AcDbEntity
8
1
62
256
6
ByLayer
370
18
48
1
60
0
100
AcDbEllipse
10
129.424814
20
-8.413168
30
0
11
4.10866603456294
21
0.569312525139888
31
0
210
0
220
0
230
1
40
0.459996
41
-0.482457119229363
42
-0.19758498204589
0
ELLIPSE
5
116
100
AcDbEntity
8
1
62
256
6
ByLayer
370
18
48
1
60
0
100
AcDbEllipse
10
129.424814
20
-8.413168
30
0
11
4.10866603456294
21
0.569312525139888
31
0
210
0
220
0
230
1
40
0.459996
41
-0.197584982045888
42
-0.0697175238437554
0
ELLIPSE
5
117
100
AcDbEntity
8
1
62
256
6
ByLayer
370
18
48
1
60
0
100
AcDbEllipse
10
130.572687
20
-9.553963
30
0
11
2.96693186052371
21
4.28745046451231
31
0
210
0
220
0
230
-1
40
0.31334
41
0.641546244405646
42
0.737686185119674
0
POINT
5
6C
100
AcDbEntity
8
81
62
256
6
ByLayer
370
18
48
1
60
0
100
AcDbPoint
10
134
20
15.965
30
0
39
0
210
0
220
0
230
1
50
360
0
POINT
5
6E
100
AcDbEntity
8
80
62
256
6
ByLayer
370
18
48
1
60
0
100
AcDbPoint
10
0
20
0
30
0
39
0
210
0
220
0
230
1
50
360
0
SPLINE
5
118
100
AcDbEntity
8
1
62
256
6
ByLayer
370
18
48
1
60
0
100
AcDbSpline
70
4
71
3
72
12
73
8
40
0
40
0
40
0
40
0
40
0.249999999999993
40
0.249999999999993
40
0.499999999999986
40
0.499999999999986
40
1
40
1
40
1
40
1
41
1
10
127.344726363104
20
-4.38953321812514
30
0
41
1
10
127.237281146809
20
-4.46734200400078
30
0
41
1
10
127.136218416848
20
-4.55071358481993
30
0
41
1
10
126.941959823861
20
-4.72431328563772
30
0
41
1
10
126.848836654322
20
-4.81460476322812
30
0
41
1
10
126.577714572104
20
-5.09266742006693
30
0
41
1
10
126.407788857235
20
-5.2874749706605
30
0
41
1
10
126.243886332029
20
-5.48753216336226
30
0
0
SPLINE
5
119
100
AcDbEntity
8
1
62
256
6
ByLayer
370
18
48
1
60
0
100
AcDbSpline
70
4
71
3
72
12
73
8
40
0
40
0
40
0
40
0
40
0.25
40
0.25
40
0.5
40
0.5
40
1
40
1
40
1
40
1
41
1
10
133.541741628576
20
-3.12802989570619
30
0
41
1
10
133.557970623708
20
-3.27740249770625
30
0
41
1
10
133.57201121555
20
-3.426518704442
30
0
41
1
10
133.597395037015
20
-3.7244350925715
30
0
41
1
10
133.608713341765
20
-3.87323235374493
30
0
41
1
10
133.639840408977
20
-4.3192928242062
30
0
41
1
10
133.656881063255
20
-4.61623171949199
30
0
41
1
10
133.671856508554
20
-4.91292865306804
30
0
0
SPLINE
5
11A
100
AcDbEntity
8
1
62
256
6
ByLayer
370
18
48
1
60
0
100
AcDbSpline
70
4
71
3
72
12
73
8
40
0
40
0
40
0
40
0
40
0.500000000000006
40
0.500000000000006
40
0.750000000000003
40
0.750000000000003
40
1
40
1
40
1
40
1
41
1
10
133.527134341078
20
-5.18942244172288
30
0
41
1
10
133.456552195052
20
-4.99896291203942
30
0
41
1
10
133.380790419693
20
-4.81421156566017
30
0
41
1
10
133.253187783816
20
-4.55246906084341
30
0
41
1
10
133.208289452839
20
-4.46782692418549
30
0
41
1
10
133.111602669921
20
-4.30613587249172
30
0
41
1
10
133.059876730593
20
-4.22901806576002
30
0
41
1
10
133.002662185515
20
-4.15794894817071
30
0
0
SPLINE
5
11B
100
AcDbEntity
8
1
62
256
6
ByLayer
370
18
48
1
60
0
100
AcDbSpline
70
4
71
3
72
12
73
8
40
0
40
0
40
0
40
0
40
0.499999999999991
40
0.499999999999991
40
0.749999999999995
40
0.749999999999995
40
1
40
1
40
1
40
1
41
1
10
130.137038598451
20
-6.4541812591084
30
0
41
1
10
130.045745547608
20
-6.19076035598786
30
0
41
1
10
129.947297092651
20
-5.92931691991348
30
0
41
1
10
129.780339391799
20
-5.54248137231974
30
0
41
1
10
129.721420910272
20
-5.41443875774272
30
0
41
1
10
129.594065582732
20
-5.16098402321916
30
0
41
1
10
129.525715094831
20
-5.03554803735051
30
0
41
1
10
129.449782367036
20
-4.91220747883833
30
0
0
SPLINE
5
11C
100
AcDbEntity
8
1
62
256
6
ByLayer
370
18
48
1
60
0
100
AcDbSpline
70
4
71
3
72
12
73
8
40
0
40
0
40
0
40
0
40
0.25
40
0.25
40
0.499999999999999
40
0.499999999999999
40
1
40
1
40
1
40
1
41
1
10
131.461654237858
20
-4.82985980062665
30
0
41
1
10
131.384626810876
20
-4.95946115227753
30
0
41
1
10
131.312333667255
20
-5.09065380519792
30
0
41
1
10
131.173582719925
20
-5.35500050267936
30
0
41
1
10
131.107178837455
20
-5.48817267140589
30
0
41
1
10
130.914084814357
20
-5.88974545149108
30
0
41
1
10
130.793383061964
20
-6.16015889754306
30
0
41
1
10
130.677149080455
20
-6.43207406390582
30
0
0
SPLINE
5
11D
100
AcDbEntity
8
1
62
256
6
ByLayer
370
18
48
1
60
0
100
AcDbSpline
70
4
71
3
72
12
73
8
40
0
40
0
40
0
40
0
40
0.5
40
0.5
40
0.75
40
0.75
40
1
40
1
40
1
40
1
41
1
10
125.848498017502
20
-5.23314556990994
30
0
41
1
10
125.860480211081
20
-4.93534523655785
30
0
41
1
10
125.869976839682
20
-4.63732014703535
30
0
41
1
10
125.877522766616
20
-4.18967675704349
30
0
41
1
10
125.878903598383
20
-4.04035970908706
30
0
41
1
10
125.878358877953
20
-3.74142663479142
30
0
41
1
10
125.876463323879
20
-3.59181332101994
30
0
41
1
10
125.871933935343
20
-3.44196184387223
30
0
0
SPLINE
5
11E
100
AcDbEntity
8
1
62
256
6
ByLayer
370
18
48
1
60
0
100
AcDbSpline
70
4
71
3
72
8
73
4
40
0
40
0
40
0
40
0
40
1
40
1
40
1
40
1
41
1
10
124.67578381424
20
-5.59069957871782
30
0
41
1
10
124.700391114665
20
-5.51585363235333
30
0
41
1
10
124.730698152142
20
-5.44308001749161
30
0
41
1
10
124.767040297915
20
-5.37293371768823
30
0
0
SPLINE
5
11F
100
AcDbEntity
8
1
62
256
6
ByLayer
370
18
48
1
60
0
100
AcDbSpline
70
4
71
3
72
46
73
42
40
0
40
0
40
0
40
0
40
0.0624999999999825
40
0.0624999999999825
40
0.0937499999999736
40
0.0937499999999736
40
0.124999999999965
40
0.124999999999965
40
0.249999999999928
40
0.249999999999928
40
0.281249999999922
40
0.281249999999922
40
0.312499999999915
40
0.312499999999915
40
0.374999999999911
40
0.374999999999911
40
0.406249999999914
40
0.406249999999914
40
0.437499999999917
40
0.437499999999917
40
0.499999999999922
40
0.499999999999922
40
0.562499999999928
40
0.562499999999928
40
0.624999999999933
40
0.624999999999933
40
0.656249999999936
40
0.656249999999936
40
0.687499999999939
40
0.687499999999939
40
0.749999999999952
40
0.749999999999952
40
0.812499999999964
40
0.812499999999964
40
0.84374999999997
40
0.84374999999997
40
0.874999999999976
40
0.874999999999976
40
0.937499999999988
40
0.937499999999988
40
1
40
1
40
1
40
1
41
1
10
126.67
20
6.45336709219876
30
0
41
1
10
126.795333451544
20
6.45336709219879
30
0
41
1
10
126.929037570474
20
6.45336709219879
30
0
41
1
10
127.142857320121
20
6.45336709219879
30
0
41
1
10
127.216348050856
20
6.45336709219879
30
0
41
1
10
127.36798165837
20
6.45336709219879
30
0
41
1
10
127.445913451303
20
6.45336709219879
30
0
41
1
10
127.840405029661
20
6.45336709219879
30
0
41
1
10
128.176141163851
20
6.45336709219879
30
0
41
1
10
128.622620379374
20
6.45336709219879
30
0
41
1
10
128.712974423726
20
6.45336709219879
30
0
41
1
10
128.893178539394
20
6.45336709219879
30
0
41
1
10
128.983400889906
20
6.45336709219879
30
0
41
1
10
129.254423730076
20
6.45336709219879
30
0
41
1
10
129.435578201216
20
6.45336709219879
30
0
41
1
10
129.708031117369
20
6.45336709219879
30
0
41
1
10
129.799325117755
20
6.45336709219879
30
0
41
1
10
129.980386356932
20
6.45336709219879
30
0
41
1
10
130.069842486656
20
6.45336709219879
30
0
41
1
10
130.335087605338
20
6.45336709219879
30
0
41
1
10
130.507768068853
20
6.45336709219879
30
0
41
1
10
130.844974869857
20
6.45336709219879
30
0
41
1
10
131.010665364934
20
6.45336709219879
30
0
41
1
10
131.325040181048
20
6.45336709219879
30
0
41
1
10
131.474403758313
20
6.45336709219879
30
0
41
1
10
131.687248434055
20
6.45336709219879
30
0
41
1
10
131.756323030918
20
6.45336709219879
30
0
41
1
10
131.890738364005
20
6.45336709219879
30
0
41
1
10
131.956298951264
20
6.45336709219879
30
0
41
1
10
132.145295775036
20
6.45336709219879
30
0
41
1
10
132.261224611278
20
6.45336709219879
30
0
41
1
10
132.474346887567
20
6.45336709219879
30
0
41
1
10
132.571531587274
20
6.45336709219879
30
0
41
1
10
132.703615733331
20
6.45336709219879
30
0
41
1
10
132.74538555079
20
6.45336709219879
30
0
41
1
10
132.823457413947
20
6.45336709219879
30
0
41
1
10
132.859897222589
20
6.45336709219879
30
0
41
1
10
132.961750933488
20
6.45336709219879
30
0
41
1
10
133.019721566082
20
6.45336709219879
30
0
41
1
10
133.11687730082
20
6.45336709219879
30
0
41
1
10
133.156168565972
20
6.45336709219879
30
0
41
1
10
133.186
20
6.45336709219879
30
0
0
SPLINE
5
120
100
AcDbEntity
8
1
62
256
6
ByLayer
370
18
48
1
60
0
100
AcDbSpline
70
4
71
3
72
8
73
4
40
0
40
0
40
0
40
0
40
1
40
1
40
1
40
1
41
1
10
125.485383017033
20
7.04300571528111
30
0
41
1
10
125.616498425748
20
6.90932234984794
30
0
41
1
10
125.745801727509
20
6.77553907064402
30
0
41
1
10
125.873490027891
20
6.64207703917174
30
0
0
SPLINE
5
121
100
AcDbEntity
8
1
62
256
6
ByLayer
370
18
48
1
60
0
100
AcDbSpline
70
4
71
3
72
8
73
4
40
0
40
0
40
0
40
0
40
1
40
1
40
1
40
1
41
1
10
131.62817738347
20
6.61961718925664
30
0
41
1
10
131.598404125164
20
6.59259379041623
30
0
41
1
10
131.57579176447
20
6.55842141402783
30
0
41
1
10
131.561385590079
20
6.51637086704528
30
0
0
SPLINE
5
122
100
AcDbEntity
8
1
62
256
6
ByLayer
370
18
48
1
60
0
100
AcDbSpline
70
4
71
3
72
8
73
4
40
0
40
0
40
0
40
0
40
1
40
1
40
1
40
1
41
1
10
125.930420003749
20
-3.11782326197505
30
0
41
1
10
125.944771562601
20
-3.12401870809921
30
0
41
1
10
125.958922942932
20
-3.1304157187686
30
0
41
1
10
125.972875135431
20
-3.13701818978529
30
0
0
SPLINE
5
123
100
AcDbEntity
8
1
62
256
6
ByLayer
370
18
48
1
60
0
100
AcDbSpline
70
4
71
3
72
10
73
6
40
0
40
0
40
0
40
0
40
0.420034624710301
40
0.420034624710301
40
1
40
1
40
1
40
1
41
1
10
125.978545059754
20
6.45411233602618
30
0
41
1
10
125.911266629441
20
6.5360045255033
30
0
41
1
10
125.843621480692
20
6.61871784406
30
0
41
1
10
125.680623627615
20
6.815454071342
30
0
41
1
10
125.584316232957
20
6.92962309537702
30
0
41
1
10
125.485383017032
20
7.04300571528134
30
0
0
SPLINE
5
124
100
AcDbEntity
8
1
62
256
6
ByLayer
370
18
48
1
60
0
100
AcDbSpline
70
4
71
3
72
10
73
6
40
0
40
0
40
0
40
0
40
0.499999999999999
40
0.499999999999999
40
1
40
1
40
1
40
1
41
1
10
131.617263062838
20
6.47162798282562
30
0
41
1
10
131.617335564615
20
6.48951093274906
30
0
41
1
10
131.618326620512
20
6.51098381023482
30
0
41
1
10
131.621996543086
20
6.56047992764465
30
0
41
1
10
131.624703535247
20
6.58872037413522
30
0
41
1
10
131.628177383469
20
6.61961718925048
30
0
0
SPLINE
5
125
100
AcDbEntity
8
1
62
256
6
ByLayer
370
18
48
1
60
0
100
AcDbSpline
70
4
71
3
72
68
73
64
40
0
40
0
40
0
40
0
40
0.0624999999999922
40
0.0624999999999922
40
0.0937499999999884
40
0.0937499999999884
40
0.124999999999984
40
0.124999999999984
40
0.187499999999977
40
0.187499999999977
40
0.218749999999974
40
0.218749999999974
40
0.24999999999997
40
0.24999999999997
40
0.312499999999965
40
0.312499999999965
40
0.343749999999963
40
0.343749999999963
40
0.37499999999996
40
0.37499999999996
40
0.390624999999959
40
0.390624999999959
40
0.406249999999958
40
0.406249999999958
40
0.437499999999955
40
0.437499999999955
40
0.453124999999954
40
0.453124999999954
40
0.468749999999953
40
0.468749999999953
40
0.484374999999952
40
0.484374999999952
40
0.499999999999951
40
0.499999999999951
40
0.515624999999949
40
0.515624999999949
40
0.531249999999948
40
0.531249999999948
40
0.562499999999952
40
0.562499999999952
40
0.578124999999954
40
0.578124999999954
40
0.593749999999956
40
0.593749999999956
40
0.624999999999959
40
0.624999999999959
40
0.656249999999962
40
0.656249999999962
40
0.687499999999966
40
0.687499999999966
40
0.718749999999969
40
0.718749999999969
40
0.749999999999973
40
0.749999999999973
40
0.81249999999998
40
0.81249999999998
40
0.874999999999986
40
0.874999999999986
40
0.90624999999999
40
0.90624999999999
40
0.937499999999994
40
0.937499999999994
40
1
40
1
40
1
40
1
41
1
10
132.311231019031
20
0.99658345366035
30
0
41
1
10
132.362884215196
20
1.24855241811568
30
0
41
1
10
132.390153511522
20
1.50831290463233
30
0
41
1
10
132.404877995512
20
1.90673190944131
30
0
41
1
10
132.405274147986
20
2.04117018650507
30
0
41
1
10
132.398097252703
20
2.30819349108825
30
0
41
1
10
132.390555839031
20
2.44137110346145
30
0
41
1
10
132.357054191704
20
2.83992273753523
30
0
41
1
10
132.320413086943
20
3.10433476340543
30
0
41
1
10
132.243581276736
20
3.49867582934175
30
0
41
1
10
132.214274389598
20
3.62973838326462
30
0
41
1
10
132.147558222199
20
3.89097241217954
30
0
41
1
10
132.110096152479
20
4.02120686651912
30
0
41
1
10
131.985548913252
20
4.40533131874196
30
0
41
1
10
131.886281241282
20
4.65440781706417
30
0
41
1
10
131.704074495864
20
5.01379245536293
30
0
41
1
10
131.637357089664
20
5.13173420240423
30
0
41
1
10
131.491507289567
20
5.35873767641488
30
0
41
1
10
131.412714577187
20
5.46742505532089
30
0
41
1
10
131.283675308596
20
5.62156417837582
30
0
41
1
10
131.238844129759
20
5.67145381395309
30
0
41
1
10
131.145029943254
20
5.76783027373958
30
0
41
1
10
131.095814851107
20
5.81450661117253
30
0
41
1
10
130.943213876183
20
5.94664528125887
30
0
41
1
10
130.834806632767
20
6.02460501633288
30
0
41
1
10
130.659743015167
20
6.12260138692503
30
0
41
1
10
130.598858265051
20
6.15225130140922
30
0
41
1
10
130.474774769172
20
6.20320893903775
30
0
41
1
10
130.411669583711
20
6.22455052756047
30
0
41
1
10
130.283235789113
20
6.25855961809563
30
0
41
1
10
130.217907675871
20
6.27122906966162
30
0
41
1
10
130.084878196593
20
6.28728435618461
30
0
41
1
10
130.017690710528
20
6.29053128280029
30
0
41
1
10
129.885086656763
20
6.28756343257794
30
0
41
1
10
129.819209825545
20
6.28141235622351
30
0
41
1
10
129.688283201818
20
6.26009264002963
30
0
41
1
10
129.622811575149
20
6.2447808640479
30
0
41
1
10
129.431080691085
20
6.18664225107034
30
0
41
1
10
129.309939966139
20
6.13220666630249
30
0
41
1
10
129.136464598076
20
6.03128019558562
30
0
41
1
10
129.080402563857
20
5.99458689182899
30
0
41
1
10
128.972744097373
20
5.91680302814572
30
0
41
1
10
128.920910437234
20
5.87557330593793
30
0
41
1
10
128.770682171409
20
5.74571440086049
30
0
41
1
10
128.677521232292
20
5.65096095039615
30
0
41
1
10
128.502770080202
20
5.44795722791031
30
0
41
1
10
128.422572221945
20
5.34127694742833
30
0
41
1
10
128.274654815912
20
5.12108050009684
30
0
41
1
10
128.206751471549
20
5.00729992473228
30
0
41
1
10
128.081230355447
20
4.77352791122652
30
0
41
1
10
128.023624883371
20
4.65352880984562
30
0
41
1
10
127.917678514474
20
4.40799123437006
30
0
41
1
10
127.869535793454
20
4.28279924992782
30
0
41
1
10
127.739845239218
20
3.90540415540454
30
0
41
1
10
127.671999490655
20
3.64957293046694
30
0
41
1
10
127.569928273726
20
3.13075625950813
30
0
41
1
10
127.535699445383
20
2.86776819331624
30
0
41
1
10
127.512144117848
20
2.4677888367475
30
0
41
1
10
127.509060131304
20
2.33439520124452
30
0
41
1
10
127.51308567921
20
2.0696064276253
30
0
41
1
10
127.520172429475
20
1.93790134111592
30
0
41
1
10
127.558229661073
20
1.54512645225799
30
0
41
1
10
127.605516239051
20
1.2863638783225
30
0
41
1
10
127.68333609615
20
1.03174792325063
30
0
0
SPLINE
5
126
100
AcDbEntity
8
1
62
256
6
ByLayer
370
18
48
1
60
0
100
AcDbSpline
70
4
71
3
72
34
73
30
40
0
40
0
40
0
40
0
40
0.125000000000002
40
0.125000000000002
40
0.187500000000002
40
0.187500000000002
40
0.250000000000002
40
0.250000000000002
40
0.312500000000002
40
0.312500000000002
40
0.343750000000001
40
0.343750000000001
40
0.375000000000001
40
0.375000000000001
40
0.500000000000003
40
0.500000000000003
40
0.562500000000003
40
0.562500000000003
40
0.593750000000004
40
0.593750000000004
40
0.625000000000005
40
0.625000000000005
40
0.750000000000003
40
0.750000000000003
40
0.875
40
0.875
40
0.9375
40
0.9375
40
1
40
1
40
1
40
1
41
1
10
112.429298055116
20
11.9478953723521
30
0
41
1
10
112.626095226413
20
11.6963453032094
30
0
41
1
10
112.875406513783
20
11.4134250845545
30
0
41
1
10
113.336232216048
20
10.9555234097477
30
0
41
1
10
113.505283029333
20
10.7965986346335
30
0
41
1
10
113.865269387222
20
10.4777760779436
30
0
41
1
10
114.056933068689
20
10.3170767353247
30
0
41
1
10
114.46325345537
20
9.99566774516967
30
0
41
1
10
114.677912396374
20
9.83495445374413
30
0
41
1
10
115.017085169823
20
9.59563985770777
30
0
41
1
10
115.133008657029
20
9.51615960434316
30
0
41
1
10
115.370597511724
20
9.3580646762415
30
0
41
1
10
115.492430899501
20
9.2793563673572
30
0
41
1
10
116.109703524228
20
8.89250936901018
30
0
41
1
10
116.633744844491
20
8.60148308487746
30
0
41
1
10
117.46055589993
20
8.19909687842971
30
0
41
1
10
117.742980840664
20
8.07064237977934
30
0
41
1
10
118.17650966596
20
7.88718330940071
30
0
41
1
10
118.322669285429
20
7.82756704719196
30
0
41
1
10
118.618248605454
20
7.71152443962759
30
0
41
1
10
118.767955522257
20
7.65499755651203
30
0
41
1
10
119.519834216159
20
7.382309836459
30
0
41
1
10
120.133067130243
20
7.19533085636849
30
0
41
1
10
121.380441601458
20
6.88288423494882
30
0
41
1
10
122.014597302314
20
6.75741416473059
30
0
41
1
10
122.980731426262
20
6.61594276899004
30
0
41
1
10
123.305269745526
20
6.57658750747026
30
0
41
1
10
123.959317714763
20
6.51374693850622
30
0
41
1
10
124.287901914966
20
6.49037008569451
30
0
41
1
10
124.616850081462
20
6.47509056978473
30
0
0
SPLINE
5
127
100
AcDbEntity
8
1
62
256
6
ByLayer
370
18
48
1
60
0
100
AcDbSpline
70
4
71
3
72
12
73
8
40
0
40
0
40
0
40
0
40
0.499999999999972
40
0.499999999999972
40
0.749999999999986
40
0.749999999999986
40
1
40
1
40
1
40
1
41
1
10
125.972875135431
20
-3.13701818978529
30
0
41
1
10
126.095531587531
20
-3.19506180336293
30
0
41
1
10
126.216895776289
20
-3.2589205151688
30
0
41
1
10
126.393092792045
20
-3.38188807924368
30
0
41
1
10
126.450889567471
20
-3.42725208116616
30
0
41
1
10
126.564180971353
20
-3.52916252145164
30
0
41
1
10
126.618658069659
20
-3.58486524664667
30
0
41
1
10
126.669999999992
20
-3.64496289990069
30
0
0
SPLINE
5
128
100
AcDbEntity
8
1
62
256
6
ByLayer
370
18
48
1
60
0
100
AcDbSpline
70
4
71
3
72
8
73
4
40
0
40
0
40
0
40
0
40
1
40
1
40
1
40
1
41
1
10
133.186
20
-7.68869090033493
30
0
41
1
10
133.142804153151
20
-7.57882405685865
30
0
41
1
10
133.075746892445
20
-7.47534024532888
30
0
41
1
10
132.985943705504
20
-7.37794106795775
30
0
0
SPLINE
5
129
100
AcDbEntity
8
1
62
256
6
ByLayer
370
18
48
1
60
0
100
AcDbSpline
70
4
71
3
72
8
73
4
40
0
40
0
40
0
40
0
40
1
40
1
40
1
40
1
41
1
10
124.767040297919
20
-5.37293371769101
30
0
41
1
10
124.791453301827
20
-5.29782959250008
30
0
41
1
10
124.821706338703
20
-5.22498407151946
30
0
41
1
10
124.858158469407
20
-5.1549876825961
30
0
0
SPLINE
5
12A
100
AcDbEntity
8
1
62
256
6
ByLayer
370
18
48
1
60
0
100
AcDbSpline
70
4
71
3
72
8
73
4
40
0
40
0
40
0
40
0
40
1
40
1
40
1
40
1
41
1
10
126.669999999992
20
-3.64496289990069
30
0
41
1
10
126.752153857039
20
-3.74112706790601
30
0
41
1
10
126.831200962306
20
-3.85034422836813
30
0
41
1
10
126.899310720628
20
-3.96906093302169
30
0
0
SPLINE
5
12B
100
AcDbEntity
8
1
62
256
6
ByLayer
370
18
48
1
60
0
100
AcDbSpline
70
4
71
3
72
12
73
8
40
0
40
0
40
0
40
0
40
0.499999999999993
40
0.499999999999993
40
0.749999999999997
40
0.749999999999997
40
1
40
1
40
1
40
1
41
1
10
110.72478800782
20
-9.54152405236513
30
0
41
1
10
110.598689209445
20
-9.41559679454704
30
0
41
1
10
110.487526796298
20
-9.28188042641619
30
0
41
1
10
110.34652922802
20
-9.0673645217359
30
0
41
1
10
110.303841805352
20
-8.99352557197716
30
0
41
1
10
110.22799766237
20
-8.84063060444325
30
0
41
1
10
110.194812681752
20
-8.76129102294556
30
0
41
1
10
110.167555781764
20
-8.68097367030552
30
0
0
SPLINE
5
12C
100
AcDbEntity
8
1
62
256
6
ByLayer
370
18
48
1
60
0
100
AcDbSpline
70
4
71
3
72
20
73
16
40
0
40
0
40
0
40
0
40
0.249999999999995
40
0.249999999999995
40
0.312499999999995
40
0.312499999999995
40
0.374999999999995
40
0.374999999999995
40
0.499999999999997
40
0.499999999999997
40
0.749999999999998
40
0.749999999999998
40
0.874999999999999
40
0.874999999999999
40
1
40
1
40
1
40
1
41
1
10
123.540646713104
20
6.60134002187311
30
0
41
1
10
122.484605434346
20
6.73191582570905
30
0
41
1
10
121.450938079721
20
6.94690624554181
30
0
41
1
10
120.185990009988
20
7.31989066335956
30
0
41
1
10
119.933924681441
20
7.39989090056449
30
0
41
1
10
119.435511489296
20
7.56942604663229
30
0
41
1
10
119.18901635978
20
7.65898112608875
30
0
41
1
10
118.457475606447
20
7.94175274956973
30
0
41
1
10
117.980363363346
20
8.14905168161428
30
0
41
1
10
116.579698143865
20
8.82616442211028
30
0
41
1
10
115.686669795943
20
9.35080918762409
30
0
41
1
10
114.406933334924
20
10.2499778770048
30
0
41
1
10
113.989153067143
20
10.5696859763623
30
0
41
1
10
113.186881345825
20
11.2367509706239
30
0
41
1
10
112.800850846669
20
11.5850260775891
30
0
41
1
10
112.429298055116
20
11.9478953723521
30
0
0
SPLINE
5
12D
100
AcDbEntity
8
1
62
256
6
ByLayer
370
18
48
1
60
0
100
AcDbSpline
70
4
71
3
72
8
73
4
40
0
40
0
40
0
40
0
40
1
40
1
40
1
40
1
41
1
10
125.485383017032
20
7.04300571528134
30
0
41
1
10
125.385191366044
20
7.14644514905314
30
0
41
1
10
125.283798969078
20
7.24992960661945
30
0
41
1
10
125.181132490831
20
7.35336709219877
30
0
0
SPLINE
5
12E
100
AcDbEntity
8
1
62
256
6
ByLayer
370
18
48
1
60
0
100
AcDbSpline
70
4
71
3
72
36
73
32
40
0
40
0
40
0
40
0
40
0.089924420929881
40
0.089924420929881
40
0.179848841859762
40
0.179848841859762
40
0.269773262789643
40
0.269773262789643
40
0.314735473254587
40
0.314735473254587
40
0.359697683719532
40
0.359697683719532
40
0.539546525579287
40
0.539546525579287
40
0.584508736044227
40
0.584508736044227
40
0.629470946509167
40
0.629470946509167
40
0.719395367439048
40
0.719395367439048
40
0.764357577903986
40
0.764357577903986
40
0.809319788368924
40
0.809319788368924
40
0.899244209298799
40
0.899244209298799
40
0.944206419763737
40
0.944206419763737
40
0.989168630228675
40
0.989168630228675
40
1
40
1
40
1
40
1
41
1
10
113.465759826856
20
12.8075899403335
30
0
41
1
10
113.309867711381
20
12.8038218361984
30
0
41
1
10
113.151241583787
20
12.8016350445501
30
0
41
1
10
112.837025237018
20
12.8006927069542
30
0
41
1
10
112.680817135712
20
12.8019049374962
30
0
41
1
10
112.370193645562
20
12.8076112734667
30
0
41
1
10
112.215777837018
20
12.8121055197344
30
0
41
1
10
111.985559139133
20
12.821213224745
30
0
41
1
10
111.909054463371
20
12.8246431791625
30
0
41
1
10
111.756535217218
20
12.8322706581998
30
0
41
1
10
111.680630952239
20
12.8364659631852
30
0
41
1
10
111.307820938262
20
12.8589299804009
30
0
41
1
10
111.02639921493
20
12.8819134652018
30
0
41
1
10
110.698154835064
20
12.9136908244746
30
0
41
1
10
110.633705442847
20
12.9201950235077
30
0
41
1
10
110.507378091208
20
12.9333992571521
30
0
41
1
10
110.445481703794
20
12.9401036340081
30
0
41
1
10
110.26715272703
20
12.9599708731793
30
0
41
1
10
110.156904687641
20
12.9730086150534
30
0
41
1
10
110.005463672272
20
12.9914117501079
30
0
41
1
10
109.957315232067
20
12.9973527782482
30
0
41
1
10
109.865994676228
20
13.0086858765736
30
0
41
1
10
109.822697880674
20
13.0140933226346
30
0
41
1
10
109.70328886157
20
13.0289233407759
30
0
41
1
10
109.636719324314
20
13.0370647596813
30
0
41
1
10
109.557151303751
20
13.0458907829892
30
0
41
1
10
109.53402468943
20
13.0482678248659
30
0
41
1
10
109.494892391588
20
13.0517495378892
30
0
41
1
10
109.478826805331
20
13.0528534309355
30
0
41
1
10
109.463877951642
20
13.0533337938068
30
0
41
1
10
109.461203526987
20
13.0533861670237
30
0
41
1
10
109.45875581602
20
13.0533976276045
30
0
0
SPLINE
5
12F
100
AcDbEntity
8
1
62
256
6
ByLayer
370
18
48
1
60
0
100
AcDbSpline
70
4
71
3
72
20
73
16
40
0
40
0
40
0
40
0
40
0.0403838071445741
40
0.0403838071445741
40
0.160335831251499
40
0.160335831251499
40
0.280287855358423
40
0.280287855358423
40
0.520191903572276
40
0.520191903572276
40
0.640143927679207
40
0.640143927679207
40
0.760095951786138
40
0.760095951786138
40
1
40
1
40
1
40
1
41
1
10
109.438919609908
20
13.0493148429875
30
0
41
1
10
109.439195409485
20
13.0486540951677
30
0
41
1
10
109.439903327459
20
13.0479130756617
30
0
41
1
10
109.444419578257
20
13.0446519606023
30
0
41
1
10
109.451606818334
20
13.0415030941209
30
0
41
1
10
109.473679980045
20
13.0337804714624
30
0
41
1
10
109.488563470139
20
13.0292148191249
30
0
41
1
10
109.54349432301
20
13.0137750754051
30
0
41
1
10
109.593954612527
20
13.0010889155078
30
0
41
1
10
109.688833204102
20
12.9790961080049
30
0
41
1
10
109.723837651463
20
12.9712356233501
30
0
41
1
10
109.79912484904
20
12.9548514467442
30
0
41
1
10
109.839418185223
20
12.9463229234734
30
0
41
1
10
109.967720363676
20
12.9199309053995
30
0
41
1
10
110.063111971991
20
12.9012639641375
30
0
41
1
10
110.167555781764
20
12.8820048032541
30
0
0
SPLINE
5
130
100
AcDbEntity
8
1
62
256
6
ByLayer
370
18
48
1
60
0
100
AcDbSpline
70
4
71
3
72
8
73
4
40
0
40
0
40
0
40
0
40
1
40
1
40
1
40
1
41
1
10
124.864012128432
20
-4.47628887646579
30
0
41
1
10
124.88854675049
20
-4.52673743452522
30
0
41
1
10
124.914219374338
20
-4.57886569786686
30
0
41
1
10
124.941127765728
20
-4.63254913998054
30
0
0
SPLINE
5
131
100
AcDbEntity
8
1
62
256
6
ByLayer
370
18
48
1
60
0
100
AcDbSpline
70
4
71
3
72
10
73
6
40
0
40
0
40
0
40
0
40
0.5
40
0.5
40
1
40
1
40
1
40
1
41
1
10
125.523620447413
20
-13.2488538111753
30
0
41
1
10
125.606076875397
20
-13.2893867088745
30
0
41
1
10
125.685647971765
20
-13.3354528305405
30
0
41
1
10
125.836237804814
20
-13.4366175502238
30
0
41
1
10
125.906777395526
20
-13.4912978728768
30
0
41
1
10
125.972875135431
20
-13.5498060172465
30
0
0
SPLINE
5
132
100
AcDbEntity
8
1
62
256
6
ByLayer
370
18
48
1
60
0
100
AcDbSpline
70
4
71
3
72
10
73
6
40
0
40
0
40
0
40
0
40
0.5
40
0.5
40
1
40
1
40
1
40
1
41
1
10
132.418967315447
20
-9.0070017955583
30
0
41
1
10
132.381176622039
20
-8.95611980899881
30
0
41
1
10
132.349893924065
20
-8.90281727010307
30
0
41
1
10
132.297756325171
20
-8.79233372792586
30
0
41
1
10
132.276836307714
20
-8.73472253742605
30
0
41
1
10
132.260909703232
20
-8.67639408339298
30
0
0
SPLINE
5
133
100
AcDbEntity
8
1
62
256
6
ByLayer
370
18
48
1
60
0
100
AcDbSpline
70
4
71
3
72
12
73
8
40
0
40
0
40
0
40
0
40
0.250000000000003
40
0.250000000000003
40
0.500000000000005
40
0.500000000000005
40
1
40
1
40
1
40
1
41
1
10
110.72478800782
20
-9.54152405236513
30
0
41
1
10
110.852118809312
20
-9.6686816373242
30
0
41
1
10
110.984368866702
20
-9.79183822558741
30
0
41
1
10
111.255187487365
20
-10.0272833578353
30
0
41
1
10
111.393997378144
20
-10.1398580613827
30
0
41
1
10
111.820511075982
20
-10.4632363630511
30
0
41
1
10
112.118290942893
20
-10.6597235621357
30
0
41
1
10
112.429298055116
20
-10.8396060105592
30
0
0
SPLINE
5
134
100
AcDbEntity
8
1
62
256
6
ByLayer
370
18
48
1
60
0
100
AcDbSpline
70
4
71
3
72
10
73
6
40
0
40
0
40
0
40
0
40
0.346172564274003
40
0.346172564274003
40
1
40
1
40
1
40
1
41
1
10
131.819431438054
20
6.81763879486158
30
0
41
1
10
131.806554221251
20
6.78854535542436
30
0
41
1
10
131.793914755486
20
6.76095811084349
30
0
41
1
10
131.758358227846
20
6.68610381107376
30
0
41
1
10
131.736001378812
20
6.64250388762653
30
0
41
1
10
131.715
20
6.60504930042757
30
0
0
SPLINE
5
135
100
AcDbEntity
8
1
62
256
6
ByLayer
370
18
48
1
60
0
100
AcDbSpline
70
4
71
3
72
8
73
4
40
0
40
0
40
0
40
0
40
1
40
1
40
1
40
1
41
1
10
110.167555781764
20
-8.68097367030549
30
0
41
1
10
110.522692286506
20
-8.50009932133472
30
0
41
1
10
110.8966788373
20
-8.29869181187428
30
0
41
1
10
111.289256408241
20
-8.08469400693295
30
0
0
SPLINE
5
136
100
AcDbEntity
8
1
62
256
6
ByLayer
370
18
48
1
60
0
100
AcDbSpline
70
4
71
3
72
14
73
10
40
0
40
0
40
0
40
0
40
0.295593308642757
40
0.295593308642757
40
0.591186617285514
40
0.591186617285514
40
0.886779925928271
40
0.886779925928271
40
1
40
1
40
1
40
1
41
1
10
112.2077552033
20
-7.58098953189781
30
0
41
1
10
112.600381181865
20
-7.36509414323922
30
0
41
1
10
113.006162168177
20
-7.14208251961611
30
0
41
1
10
113.847106340468
20
-6.68055068901629
30
0
41
1
10
114.282174031285
20
-6.44196221423044
30
0
41
1
10
115.187828605298
20
-5.94291868919794
30
0
41
1
10
115.652455061083
20
-5.68550886837835
30
0
41
1
10
116.314399902087
20
-5.3165631377968
30
0
41
1
10
116.499783373051
20
-5.21295147041434
30
0
41
1
10
116.687651993775
20
-5.10796741239247
30
0
0
SPLINE
5
137
100
AcDbEntity
8
1
62
256
6
ByLayer
370
18
48
1
60
0
100
AcDbSpline
70
4
71
3
72
34
73
30
40
0
40
0
40
0
40
0
40
0.124999999999999
40
0.124999999999999
40
0.187499999999998
40
0.187499999999998
40
0.249999999999997
40
0.249999999999997
40
0.312499999999996
40
0.312499999999996
40
0.343749999999996
40
0.343749999999996
40
0.374999999999996
40
0.374999999999996
40
0.499999999999994
40
0.499999999999994
40
0.562499999999993
40
0.562499999999993
40
0.593749999999993
40
0.593749999999993
40
0.624999999999994
40
0.624999999999994
40
0.749999999999996
40
0.749999999999996
40
0.874999999999998
40
0.874999999999998
40
0.937499999999999
40
0.937499999999999
40
1
40
1
40
1
40
1
41
1
10
112.429298055116
20
-10.8396060105592
30
0
41
1
10
112.626095226413
20
-11.1875961205057
30
0
41
1
10
112.875406513783
20
-11.4853347550572
30
0
41
1
10
113.336232216048
20
-11.8665506740717
30
0
41
1
10
113.505283029333
20
-11.9829927497618
30
0
41
1
10
113.865269387222
20
-12.1907180256584
30
0
41
1
10
114.056933068689
20
-12.2827889713556
30
0
41
1
10
114.46325345537
20
-12.4467752985327
30
0
41
1
10
114.677912396374
20
-12.5186842862194
30
0
41
1
10
115.017085169823
20
-12.6136299192652
30
0
41
1
10
115.133008657029
20
-12.6431223249204
30
0
41
1
10
115.370597511724
20
-12.6981304982402
30
0
41
1
10
115.492430899501
20
-12.7236663942295
30
0
41
1
10
116.109703524228
20
-12.8411181238955
30
0
41
1
10
116.633744844491
20
-12.903931110037
30
0
41
1
10
117.46055589993
20
-12.9701968851818
30
0
41
1
10
117.742980840664
20
-12.9875411834027
30
0
41
1
10
118.17650966596
20
-13.0081836312348
30
0
41
1
10
118.322669285429
20
-13.0141654292791
30
0
41
1
10
118.618248605454
20
-13.0245852781777
30
0
41
1
10
118.767955522257
20
-13.0290293054925
30
0
41
1
10
119.519834216159
20
-13.0478667660024
30
0
41
1
10
120.133067130243
20
-13.0524961834004
30
0
41
1
10
121.380441601458
20
-13.0540691778641
30
0
41
1
10
122.014597302314
20
-13.0509266818867
30
0
41
1
10
122.980731426262
20
-13.0460568256774
30
0
41
1
10
123.305269745526
20
-13.0443724907679
30
0
41
1
10
123.959317714763
20
-13.0414623060115
30
0
41
1
10
124.287901914977
20
-13.040241718032
30
0
41
1
10
124.616850081472
20
-13.0394277413001
30
0
0
SPLINE
5
138
100
AcDbEntity
8
1
62
256
6
ByLayer
370
18
48
1
60
0
100
AcDbSpline
70
4
71
3
72
28
73
24
40
0
40
0
40
0
40
0
40
0.12499999999998
40
0.12499999999998
40
0.187499999999977
40
0.187499999999977
40
0.249999999999974
40
0.249999999999974
40
0.374999999999968
40
0.374999999999968
40
0.437499999999965
40
0.437499999999965
40
0.499999999999962
40
0.499999999999962
40
0.624999999999972
40
0.624999999999972
40
0.687499999999976
40
0.687499999999976
40
0.749999999999981
40
0.749999999999981
40
0.87499999999999
40
0.87499999999999
40
1
40
1
40
1
40
1
41
1
10
127.68333609615
20
1.03174792325063
30
0
41
1
10
127.866068722645
20
0.9477088652921
30
0
41
1
10
128.056454401921
20
0.871969924454106
30
0
41
1
10
128.354014721383
20
0.77135637299051
30
0
41
1
10
128.455207194981
20
0.739993804585538
30
0
41
1
10
128.661814979891
20
0.681848545715582
30
0
41
1
10
128.767815814633
20
0.654947426393534
30
0
41
1
10
129.086614456801
20
0.582913764075727
30
0
41
1
10
129.300887468575
20
0.546050886092416
30
0
41
1
10
129.624952408931
20
0.507781524017048
30
0
41
1
10
129.733418995336
20
0.497877752156711
30
0
41
1
10
129.951281602214
20
0.484029174261934
30
0
41
1
10
130.060281130253
20
0.480151062331231
30
0
41
1
10
130.380923081338
20
0.477758126565334
30
0
41
1
10
130.588751597619
20
0.48823132297926
30
0
41
1
10
130.891701446276
20
0.521827712109058
30
0
41
1
10
130.991744809552
20
0.536131765798871
30
0
41
1
10
131.185515330153
20
0.570277523412244
30
0
41
1
10
131.279312751366
20
0.590081425844232
30
0
41
1
10
131.551881661749
20
0.657296903192616
30
0
41
1
10
131.721955391494
20
0.712495263955617
30
0
41
1
10
132.039199354577
20
0.842770113920665
30
0
41
1
10
132.182130147814
20
0.916076707174796
30
0
41
1
10
132.311231019031
20
0.996583453660378
30
0
0
SPLINE
5
139
100
AcDbEntity
8
1
62
256
6
ByLayer
370
18
48
1
60
0
100
AcDbSpline
70
4
71
3
72
8
73
4
40
0
40
0
40
0
40
0
40
1
40
1
40
1
40
1
41
1
10
124.207630004749
20
-5.94741997462341
30
0
41
1
10
124.327457621339
20
-5.89036121153481
30
0
41
1
10
124.453039014429
20
-5.84393250486298
30
0
41
1
10
124.584264371174
20
-5.8081227021631
30
0
0
SPLINE
5
13A
100
AcDbEntity
8
1
62
256
6
ByLayer
370
18
48
1
60
0
100
AcDbSpline
70
4
71
3
72
10
73
6
40
0
40
0
40
0
40
0
40
0.5
40
0.5
40
1
40
1
40
1
40
1
41
1
10
131.715
20
6.60504930042913
30
0
41
1
10
131.702177103774
20
6.56528945607243
30
0
41
1
10
131.690140615414
20
6.5310077416018
30
0
41
1
10
131.667825862375
20
6.47371957505166
30
0
41
1
10
131.657697792462
20
6.45107765857429
30
0
41
1
10
131.648947858004
20
6.43575767964236
30
0
0
SPLINE
5
13B
100
AcDbEntity
8
1
62
256
6
ByLayer
370
18
48
1
60
0
100
AcDbSpline
70
4
71
3
72
32
73
28
40
0
40
0
40
0
40
0
40
0.125000000000003
40
0.125000000000003
40
0.187500000000005
40
0.187500000000005
40
0.250000000000006
40
0.250000000000006
40
0.312500000000008
40
0.312500000000008
40
0.37500000000001
40
0.37500000000001
40
0.500000000000014
40
0.500000000000014
40
0.562500000000012
40
0.562500000000012
40
0.625000000000011
40
0.625000000000011
40
0.687500000000009
40
0.687500000000009
40
0.750000000000007
40
0.750000000000007
40
0.812500000000005
40
0.812500000000005
40
0.875000000000004
40
0.875000000000004
40
1
40
1
40
1
40
1
41
1
10
124.941127765728
20
-4.63254913998162
30
0
41
1
10
124.887358820174
20
-4.54014817248918
30
0
41
1
10
124.845396239734
20
-4.4445032486716
30
0
41
1
10
124.800601864839
20
-4.29485346892281
30
0
41
1
10
124.788666291937
20
-4.24360319457878
30
0
41
1
10
124.771560573104
20
-4.14046859881191
30
0
41
1
10
124.766386113508
20
-4.08886944633167
30
0
41
1
10
124.76270830399
20
-3.98555692318504
30
0
41
1
10
124.764202493091
20
-3.93384347565973
30
0
41
1
10
124.774151772772
20
-3.83032052899381
30
0
41
1
10
124.782725714737
20
-3.77809696585433
30
0
41
1
10
124.818932663204
20
-3.62558581301343
30
0
41
1
10
124.856559640619
20
-3.52880022379975
30
0
41
1
10
124.936155393062
20
-3.39353266545285
30
0
41
1
10
124.96672708634
20
-3.35018572624341
30
0
41
1
10
125.033982208172
20
-3.27105571820857
30
0
41
1
10
125.07090163601
20
-3.23481350426619
30
0
41
1
10
125.151672207839
20
-3.16993596336664
30
0
41
1
10
125.195117532622
20
-3.1417840972249
30
0
41
1
10
125.284899340881
20
-3.09598568227256
30
0
41
1
10
125.331616327012
20
-3.07802295145578
30
0
41
1
10
125.428189911136
20
-3.05203442874534
30
0
41
1
10
125.476829676467
20
-3.04436446216948
30
0
41
1
10
125.573108542898
20
-3.03834987232403
30
0
41
1
10
125.621293837305
20
-3.0400111863363
30
0
41
1
10
125.761703315565
20
-3.05667984032971
30
0
41
1
10
125.848904319822
20
-3.08263363322226
30
0
41
1
10
125.930420003749
20
-3.11782326197502
30
0
0
SPLINE
5
13C
100
AcDbEntity
8
1
62
256
6
ByLayer
370
18
48
1
60
0
100
AcDbSpline
70
4
71
3
72
41
73
37
40
0
40
0
40
0
40
0
40
0.125000000000006
40
0.125000000000006
40
0.187500000000009
40
0.187500000000009
40
0.250000000000012
40
0.250000000000012
40
0.375000000000013
40
0.375000000000013
40
0.437500000000013
40
0.437500000000013
40
0.500000000000014
40
0.500000000000014
40
0.531250000000014
40
0.531250000000014
40
0.562500000000014
40
0.562500000000014
40
0.625000000000014
40
0.625000000000014
40
0.656250000000013
40
0.656250000000013
40
0.687500000000011
40
0.71875000000001
40
0.71875000000001
40
0.750000000000009
40
0.750000000000009
40
0.812500000000007
40
0.812500000000007
40
0.843750000000005
40
0.843750000000005
40
0.875000000000003
40
0.875000000000003
40
0.937500000000001
40
0.937500000000001
40
1
40
1
40
1
40
1
41
1
10
113.465759826725
20
-4.73173306029963
30
0
41
1
10
113.152244230222
20
-4.6951677534795
30
0
41
1
10
112.839828617045
20
-4.69059734340703
30
0
41
1
10
112.372843665228
20
-4.73146325189225
30
0
41
1
10
112.217314007593
20
-4.75314292268681
30
0
41
1
10
111.907432629648
20
-4.813494007011
30
0
41
1
10
111.755985378234
20
-4.85158658631798
30
0
41
1
10
111.312118908819
20
-4.98932451869979
30
0
41
1
10
111.029907050602
20
-5.11189089085929
30
0
41
1
10
110.631037871274
20
-5.34867331753384
30
0
41
1
10
110.504830159862
20
-5.43508563309189
30
0
41
1
10
110.268594719415
20
-5.62185000534006
30
0
41
1
10
110.158221647195
20
-5.72238516566804
30
0
41
1
10
110.005670459961
20
-5.88484112895949
30
0
41
1
10
109.956889115989
20
-5.94112468141591
30
0
41
1
10
109.865696572138
20
-6.05569539060332
30
0
41
1
10
109.823064227896
20
-6.11419274125132
30
0
41
1
10
109.704255109142
20
-6.29330890212586
30
0
41
1
10
109.637091901107
20
-6.41752157450406
30
0
41
1
10
109.556351555441
20
-6.61147968872322
30
0
41
1
10
109.533050024572
20
-6.67687397017437
30
0
41
1
10
109.494210559596
20
-6.80743740431356
30
0
41
1
10
109.462919485449
20
-6.9382811886494
30
0
41
1
10
109.44668268345
20
-7.06961591966785
30
0
41
1
10
109.438094169008
20
-7.20117818457442
30
0
41
1
10
109.437640386541
20
-7.26733729949478
30
0
41
1
10
109.44804734435
20
-7.46434696726323
30
0
41
1
10
109.470341352514
20
-7.59153804388421
30
0
41
1
10
109.525010700666
20
-7.77665837539934
30
0
41
1
10
109.546791381631
20
-7.83741714384502
30
0
41
1
10
109.597374040651
20
-7.95709430531016
30
0
41
1
10
109.626144403644
20
-8.01584612968966
30
0
41
1
10
109.721001715588
20
-8.18640654311122
30
0
41
1
10
109.796008540819
20
-8.2936204249331
30
0
41
1
10
109.967318165144
20
-8.49672626961421
30
0
41
1
10
110.064017911047
20
-8.59269762648091
30
0
41
1
10
110.167555781764
20
-8.68097367030595
30
0
0
SPLINE
5
13D
100
AcDbEntity
8
1
62
256
6
ByLayer
370
18
48
1
60
0
100
AcDbSpline
70
4
71
3
72
8
73
4
40
0
40
0
40
0
40
0
40
1
40
1
40
1
40
1
41
1
10
132.260909703232
20
-8.67639408339292
30
0
41
1
10
132.260564350732
20
-8.67512928916429
30
0
41
1
10
132.260219061049
20
-8.67386448522478
30
0
41
1
10
132.259873834252
20
-8.67259967156383
30
0
0
SPLINE
5
13E
100
AcDbEntity
8
1
62
256
6
ByLayer
370
18
48
1
60
0
100
AcDbSpline
70
4
71
3
72
12
73
8
40
0
40
0
40
0
40
0
40
0.500000000000063
40
0.500000000000063
40
0.750000000000031
40
0.750000000000031
40
1
40
1
40
1
40
1
41
1
10
124.616850081462
20
-13.0394277413001
30
0
41
1
10
124.776758251524
20
-13.0390320512098
30
0
41
1
10
124.932986341432
20
-13.0571216548829
30
0
41
1
10
125.162122291209
20
-13.1104338339477
30
0
41
1
10
125.238040992419
20
-13.1328071867734
30
0
41
1
10
125.384357403447
20
-13.1851659275194
30
0
41
1
10
125.455129238451
20
-13.2151857608598
30
0
41
1
10
125.523620447413
20
-13.2488538111753
30
0
0
SPLINE
5
13F
100
AcDbEntity
8
1
62
256
6
ByLayer
370
18
48
1
60
0
100
AcDbSpline
70
4
71
3
72
8
73
4
40
0
40
0
40
0
40
0
40
1
40
1
40
1
40
1
41
1
10
112.2077552033
20
-7.58098953189787
30
0
41
1
10
111.891927596875
20
-7.75465538072234
30
0
41
1
10
111.58596495675
20
-7.92295532701843
30
0
41
1
10
111.289256408242
20
-8.08469400693284
30
0
0
SPLINE
5
140
100
AcDbEntity
8
1
62
256
6
ByLayer
370
18
48
1
60
0
100
AcDbSpline
70
4
71
3
72
12
73
8
40
0
40
0
40
0
40
0
40
0.115484183762892
40
0.115484183762892
40
0.410322789175261
40
0.410322789175261
40
1
40
1
40
1
40
1
41
1
10
125.641096593217
20
6.45651531930841
30
0
41
1
10
125.561097544883
20
6.45788386036546
30
0
41
1
10
125.480692405294
20
6.45970954656778
30
0
41
1
10
125.193552640418
20
6.46789632642052
30
0
41
1
10
124.986601286004
20
6.47685091312709
30
0
41
1
10
124.36674226564
20
6.51326414762374
30
0
41
1
10
123.953620636623
20
6.55027724325694
30
0
41
1
10
123.540646713104
20
6.60134002187311
30
0
0
SPLINE
5
141
100
AcDbEntity
8
1
62
256
6
ByLayer
370
18
48
1
60
0
100
AcDbSpline
70
4
71
3
72
12
73
8
40
0
40
0
40
0
40
0
40
0.499999999999993
40
0.499999999999993
40
0.749999999999996
40
0.749999999999996
40
1
40
1
40
1
40
1
41
1
10
133.186
20
-10.7604121031034
30
0
41
1
10
133.131133147126
20
-10.4476545424224
30
0
41
1
10
133.03790699412
20
-10.1449486891989
30
0
41
1
10
132.845313649356
20
-9.70471364785459
30
0
41
1
10
132.772180533518
20
-9.56025440899072
30
0
41
1
10
132.607459619404
20
-9.27639614912027
30
0
41
1
10
132.517204858931
20
-9.13927037589806
30
0
41
1
10
132.418967315447
20
-9.00700179555861
30
0
0
SPLINE
5
142
100
AcDbEntity
8
1
62
256
6
ByLayer
370
18
48
1
60
0
100
AcDbSpline
70
4
71
3
72
12
73
8
40
0
40
0
40
0
40
0
40
0.391879635996212
40
0.391879635996212
40
0.695939817998106
40
0.695939817998106
40
1
40
1
40
1
40
1
41
1
10
124.26260792753
20
9.58477338259073
30
0
41
1
10
124.238991994564
20
9.5020577833167
30
0
41
1
10
124.221174733672
20
9.41824944179527
30
0
41
1
10
124.199964517076
20
9.26718053346389
30
0
41
1
10
124.194256888286
20
9.20006866536332
30
0
41
1
10
124.190434235806
20
9.06582060219353
30
0
41
1
10
124.192284404704
20
8.99899341154654
30
0
41
1
10
124.197863190616
20
8.93240535571931
30
0
0
SPLINE
5
143
100
AcDbEntity
8
1
62
256
6
ByLayer
370
18
48
1
60
0
100
AcDbSpline
70
4
71
3
72
8
73
4
40
0
40
0
40
0
40
0
40
1
40
1
40
1
40
1
41
1
10
125.523620447413
20
6.45336709219876
30
0
41
1
10
125.691350540703
20
6.45336709219876
30
0
41
1
10
125.840281543237
20
6.45336709219876
30
0
41
1
10
125.972875135431
20
6.45336709219876
30
0
0
SPLINE
5
144
100
AcDbEntity
8
1
62
256
6
ByLayer
370
18
48
1
60
0
100
AcDbSpline
70
4
71
3
72
8
73
4
40
0
40
0
40
0
40
0
40
1
40
1
40
1
40
1
41
1
10
132.259873834252
20
-8.67259967156383
30
0
41
1
10
132.162579093081
20
-8.38540850670162
30
0
41
1
10
132.065296445334
20
-8.09821360234301
30
0
41
1
10
131.968031489125
20
-7.81101323222958
30
0
0
SPLINE
5
145
100
AcDbEntity
8
1
62
256
6
ByLayer
370
18
48
1
60
0
100
AcDbSpline
70
4
71
3
72
8
73
4
40
0
40
0
40
0
40
0
40
1
40
1
40
1
40
1
41
1
10
124.584264371174
20
-5.80812270216316
30
0
41
1
10
124.594258250623
20
-5.77836738779345
30
0
41
1
10
124.605122735688
20
-5.74888372997472
30
0
41
1
10
124.616850081461
20
-5.71967238642455
30
0
0
SPLINE
5
146
100
AcDbEntity
8
1
62
256
6
ByLayer
370
18
48
1
60
0
100
AcDbSpline
70
4
71
3
72
8
73
4
40
0
40
0
40
0
40
0
40
1
40
1
40
1
40
1
41
1
10
131.576559576967
20
6.66873858976891
30
0
41
1
10
131.593584789975
20
6.65278008233844
30
0
41
1
10
131.610857402132
20
6.63637838448875
30
0
41
1
10
131.628177383485
20
6.61961718923985
30
0
0
SPLINE
5
147
100
AcDbEntity
8
1
62
256
6
ByLayer
370
18
48
1
60
0
100
AcDbSpline
70
4
71
3
72
8
73
4
40
0
40
0
40
0
40
0
40
1
40
1
40
1
40
1
41
1
10
124.207630004749
20
12.9979075850177
30
0
41
1
10
124.303197876363
20
12.9931987794435
30
0
41
1
10
124.403741470548
20
12.9888662261295
30
0
41
1
10
124.506985262236
20
12.985205081596
30
0
0
SPLINE
5
148
100
AcDbEntity
8
1
62
256
6
ByLayer
370
18
48
1
60
0
100
AcDbSpline
70
4
71
3
72
12
73
8
40
0
40
0
40
0
40
0
40
0.249999999999998
40
0.249999999999998
40
0.499999999999995
40
0.499999999999995
40
1
40
1
40
1
40
1
41
1
10
110.72478800782
20
12.6332144682932
30
0
41
1
10
110.852118809312
20
12.5863178825466
30
0
41
1
10
110.984368866702
20
12.5359186783647
30
0
41
1
10
111.255187487365
20
12.4301639412829
30
0
41
1
10
111.393997378144
20
12.3747275692004
30
0
41
1
10
111.820511075982
20
12.2018700773756
30
0
41
1
10
112.118290942893
20
12.0779262009451
30
0
41
1
10
112.429298055116
20
11.9478953723521
30
0
0
SPLINE
5
149
100
AcDbEntity
8
1
62
256
6
ByLayer
370
18
48
1
60
0
100
AcDbSpline
70
4
71
3
72
10
73
6
40
0
40
0
40
0
40
0
40
0.5
40
0.5
40
1
40
1
40
1
40
1
41
1
10
124.858158469407
20
-5.1549876825961
30
0
41
1
10
124.856997888386
20
-5.06586633131812
30
0
41
1
10
124.863268416962
20
-4.97766393712524
30
0
41
1
10
124.890653886064
20
-4.80331995948319
30
0
41
1
10
124.911751493724
20
-4.71716891044821
30
0
41
1
10
124.94112776573
20
-4.63254913998256
30
0
0
SPLINE
5
14A
100
AcDbEntity
8
1
62
256
6
ByLayer
370
18
48
1
60
0
100
AcDbSpline
70
4
71
3
72
12
73
8
40
0
40
0
40
0
40
0
40
0.25
40
0.25
40
0.5
40
0.5
40
1
40
1
40
1
40
1
41
1
10
126.010902112521
20
-9.89769077861897
30
0
41
1
10
125.809858535264
20
-9.94951907504128
30
0
41
1
10
125.606202827383
20
-9.99364177178271
30
0
41
1
10
125.193552640418
20
-10.0664226138263
30
0
41
1
10
124.986601286004
20
-10.0946979110866
30
0
41
1
10
124.36674226564
20
-10.1554413828484
30
0
41
1
10
123.953620636623
20
-10.1644512713441
30
0
41
1
10
123.540646713104
20
-10.1395379965017
30
0
0
SPLINE
5
14B
100
AcDbEntity
8
1
62
256
6
ByLayer
370
18
48
1
60
0
100
AcDbSpline
70
4
71
3
72
48
73
44
40
0
40
0
40
0
40
0
40
0.0312499999999989
40
0.0312499999999989
40
0.0624999999999979
40
0.0624999999999979
40
0.124999999999996
40
0.124999999999996
40
0.187499999999994
40
0.187499999999994
40
0.249999999999992
40
0.249999999999992
40
0.312499999999989
40
0.312499999999989
40
0.343749999999988
40
0.343749999999988
40
0.374999999999987
40
0.374999999999987
40
0.499999999999993
40
0.499999999999993
40
0.531249999999994
40
0.531249999999994
40
0.562499999999996
40
0.562499999999996
40
0.624999999999989
40
0.624999999999989
40
0.656249999999986
40
0.656249999999986
40
0.687499999999982
40
0.687499999999982
40
0.749999999999983
40
0.749999999999983
40
0.812499999999984
40
0.812499999999984
40
0.843749999999985
40
0.843749999999985
40
0.874999999999985
40
0.874999999999985
40
0.937499999999991
40
0.937499999999991
40
0.968749999999996
40
0.968749999999996
40
1
40
1
40
1
40
1
41
1
10
126.899310720629
20
-3.96906093302096
30
0
41
1
10
126.963602839889
20
-4.00531535316137
30
0
41
1
10
127.030036832721
20
-4.04090440952558
30
0
41
1
10
127.165052235978
20
-4.10959054977459
30
0
41
1
10
127.233839828672
20
-4.14281186502728
30
0
41
1
10
127.443992923796
20
-4.23915380415536
30
0
41
1
10
127.58913424956
20
-4.29896512434587
30
0
41
1
10
127.889583106353
20
-4.40967763902242
30
0
41
1
10
128.044887764236
20
-4.46058135166444
30
0
41
1
10
128.366247354574
20
-4.55296674628062
30
0
41
1
10
128.528905837376
20
-4.59345931047031
30
0
41
1
10
128.857202705369
20
-4.66315204396986
30
0
41
1
10
129.022985183899
20
-4.69239326789696
30
0
41
1
10
129.274153526983
20
-4.72769797407847
30
0
41
1
10
129.35829332361
20
-4.73803575152482
30
0
41
1
10
129.527430431131
20
-4.75576983827312
30
0
41
1
10
129.612541184486
20
-4.76316091935462
30
0
41
1
10
130.033724401391
20
-4.79213248510757
30
0
41
1
10
130.361964149538
20
-4.79078192092905
30
0
41
1
10
130.761252283295
20
-4.75807330308629
30
0
41
1
10
130.84082260584
20
-4.74991464385695
30
0
41
1
10
130.996660277684
20
-4.73062734419696
30
0
41
1
10
131.073101243497
20
-4.71949649923388
30
0
41
1
10
131.298083894895
20
-4.68173633233232
30
0
41
1
10
131.442303214758
20
-4.65075737152449
30
0
41
1
10
131.650013418704
20
-4.59561577194424
30
0
41
1
10
131.717809193428
20
-4.57578518669533
30
0
41
1
10
131.850469270003
20
-4.53317404639674
30
0
41
1
10
131.915562189209
20
-4.51029891502171
30
0
41
1
10
132.103971079745
20
-4.43805294780532
30
0
41
1
10
132.220807697922
20
-4.38502799864125
30
0
41
1
10
132.437595421225
20
-4.26961818483716
30
0
41
1
10
132.537544221959
20
-4.20723204283476
30
0
41
1
10
132.674656145186
20
-4.10655132941076
30
0
41
1
10
132.718360391534
20
-4.07167184355933
30
0
41
1
10
132.800459620123
20
-4.0003183169926
30
0
41
1
10
132.838904804427
20
-3.96383189612604
30
0
41
1
10
132.946649961816
20
-3.8520129535498
30
0
41
1
10
133.008387517341
20
-3.77432944957223
30
0
41
1
10
133.086191881214
20
-3.65320260061577
30
0
41
1
10
133.109652470464
20
-3.61205781263402
30
0
41
1
10
133.151597163284
20
-3.52822116134718
30
0
41
1
10
133.17012945752
20
-3.48538700642726
30
0
41
1
10
133.186
20
-3.44214637521944
30
0
0
SPLINE
5
14C
100
AcDbEntity
8
1
62
256
6
ByLayer
370
18
48
1
60
0
100
AcDbSpline
70
4
71
3
72
8
73
4
40
0
40
0
40
0
40
0
40
1
40
1
40
1
40
1
41
1
10
125.972875135431
20
-13.5498060172464
30
0
41
1
10
126.204459939119
20
-13.7547993672064
30
0
41
1
10
126.436875187701
20
-13.9591218044839
30
0
41
1
10
126.67
20
-14.1628709884363
30
0
0
SPLINE
5
14D
100
AcDbEntity
8
1
62
256
6
ByLayer
370
18
48
1
60
0
100
AcDbSpline
70
4
71
3
72
8
73
4
40
0
40
0
40
0
40
0
40
1
40
1
40
1
40
1
41
1
10
131.548256136408
20
6.45256162981443
30
0
41
1
10
131.552602053282
20
6.47367644605612
30
0
41
1
10
131.556980175965
20
6.49495231621106
30
0
41
1
10
131.561385590079
20
6.51637086704528
30
0
0
SPLINE
5
14E
100
AcDbEntity
8
1
62
256
6
ByLayer
370
18
48
1
60
0
100
AcDbSpline
70
4
71
3
72
10
73
6
40
0
40
0
40
0
40
0
40
0.0811591802172718
40
0.0811591802172718
40
1
40
1
40
1
40
1
41
1
10
126.086840739173
20
6.45178886769193
30
0
41
1
10
126.080611287509
20
6.45652179771213
30
0
41
1
10
126.074421352658
20
6.46128795878994
30
0
41
1
10
125.998664131849
20
6.52040663942182
30
0
41
1
10
125.933766830282
20
6.57907467737593
30
0
41
1
10
125.873490027891
20
6.64207703917174
30
0
0
SPLINE
5
14F
100
AcDbEntity
8
1
62
256
6
ByLayer
370
18
48
1
60
0
100
AcDbSpline
70
4
71
3
72
12
73
8
40
0
40
0
40
0
40
0
40
0.500000000000062
40
0.500000000000062
40
0.750000000000031
40
0.750000000000031
40
1
40
1
40
1
40
1
41
1
10
124.616850081462
20
6.4750905697847
30
0
41
1
10
124.776127372542
20
6.46769220082874
30
0
41
1
10
124.932097601158
20
6.46222262480228
30
0
41
1
10
125.161315173682
20
6.45682084669932
30
0
41
1
10
125.236931311618
20
6.45549380283063
30
0
41
1
10
125.383273663235
20
6.45377285518768
30
0
41
1
10
125.454436437264
20
6.45336709219856
30
0
41
1
10
125.523620447414
20
6.45336709219856
30
0
0
SPLINE
5
150
100
AcDbEntity
8
1
62
256
6
ByLayer
370
18
48
1
60
0
100
AcDbSpline
70
4
71
3
72
12
73
8
40
0
40
0
40
0
40
0
40
0.500000000000006
40
0.500000000000006
40
0.750000000000003
40
0.750000000000003
40
1
40
1
40
1
40
1
41
1
10
110.72478800782
20
12.6332144682932
30
0
41
1
10
110.598689209445
20
12.6796573009877
30
0
41
1
10
110.487526796298
20
12.7241615053334
30
0
41
1
10
110.34652922802
20
12.7868610320054
30
0
41
1
10
110.303841805352
20
12.8070830712211
30
0
41
1
10
110.22799766237
20
12.8459473306393
30
0
41
1
10
110.194812681752
20
12.8646339797005
30
0
41
1
10
110.167555781764
20
12.8820048032541
30
0
0
SPLINE
5
151
100
AcDbEntity
8
1
62
256
6
ByLayer
370
18
48
1
60
0
100
AcDbSpline
70
4
71
3
72
14
73
10
40
0
40
0
40
0
40
0
40
0.193488023070963
40
0.193488023070963
40
0.410596243613625
40
0.410596243613625
40
0.627704464156287
40
0.627704464156287
40
1
40
1
40
1
40
1
41
1
10
114.927954756751
20
-4.90530818229706
30
0
41
1
10
114.962728887252
20
-4.95180671539339
30
0
41
1
10
115.004079100588
20
-4.99394579396474
30
0
41
1
10
115.099375498543
20
-5.07255879624867
30
0
41
1
10
115.154571948898
20
-5.10830352146357
30
0
41
1
10
115.272492240524
20
-5.17016991099004
30
0
41
1
10
115.335249252474
20
-5.19615489250259
30
0
41
1
10
115.509279174141
20
-5.25310857792425
30
0
41
1
10
115.624593570496
20
-5.27547851315722
30
0
41
1
10
115.743972643835
20
-5.28446510983537
30
0
0
SPLINE
5
152
100
AcDbEntity
8
1
62
256
6
ByLayer
370
18
48
1
60
0
100
AcDbSpline
70
4
71
3
72
14
73
10
40
0
40
0
40
0
40
0
40
0.0696732495701601
40
0.0696732495701601
40
0.558252515721724
40
0.558252515721724
40
0.802542148797525
40
0.802542148797525
40
1
40
1
40
1
40
1
41
1
10
115.743972643786
20
-5.28446510983167
30
0
41
1
10
115.763827999497
20
-5.28595977777277
30
0
41
1
10
115.78379579628
20
-5.28708422270904
30
0
41
1
10
115.944638621567
20
-5.29313553991594
30
0
41
1
10
116.085675617041
20
-5.28009596530131
30
0
41
1
10
116.29688873884
20
-5.228941453375
30
0
41
1
10
116.36785973003
20
-5.20623343263907
30
0
41
1
10
116.492696537698
20
-5.15483602457991
30
0
41
1
10
116.547277596622
20
-5.12820040142043
30
0
41
1
10
116.600566044466
20
-5.09749134271473
30
0
0
SPLINE
5
153
100
AcDbEntity
8
1
62
256
6
ByLayer
370
18
48
1
60
0
100
AcDbSpline
70
4
71
3
72
20
73
16
40
0
40
0
40
0
40
0
40
0.249999999999999
40
0.249999999999999
40
0.3125
40
0.3125
40
0.375
40
0.375
40
0.500000000000001
40
0.500000000000001
40
0.750000000000001
40
0.750000000000001
40
0.875
40
0.875
40
1
40
1
40
1
40
1
41
1
10
123.540646713104
20
-10.1395379965017
30
0
41
1
10
122.484605434346
20
-10.0758307134887
30
0
41
1
10
121.450938079721
20
-10.0394292289235
30
0
41
1
10
120.185990009988
20
-10.0300157422316
30
0
41
1
10
119.933924681441
20
-10.0299618166668
30
0
41
1
10
119.435511489296
20
-10.0335908030779
30
0
41
1
10
119.18901635978
20
-10.0372650854166
30
0
41
1
10
118.457475606447
20
-10.0539217587744
30
0
41
1
10
117.980363363346
20
-10.0725206062228
30
0
41
1
10
116.579698143865
20
-10.1518359246132
30
0
41
1
10
115.686669795944
20
-10.2356765160835
30
0
41
1
10
114.406933334924
20
-10.4179082597722
30
0
41
1
10
113.989153067143
20
-10.488478677741
30
0
41
1
10
113.186881345825
20
-10.6487990816568
30
0
41
1
10
112.800850846669
20
-10.7386888240369
30
0
41
1
10
112.429298055116
20
-10.8396060105592
30
0
0
SPLINE
5
154
100
AcDbEntity
8
1
62
256
6
ByLayer
370
18
48
1
60
0
100
AcDbSpline
70
4
71
3
72
8
73
4
40
0
40
0
40
0
40
0
40
1
40
1
40
1
40
1
41
1
10
125.972875135431
20
6.45336709219876
30
0
41
1
10
126.204407847661
20
6.45336709219876
30
0
41
1
10
126.436830759972
20
6.45336709219876
30
0
41
1
10
126.67
20
6.45336709219876
30
0
0
SPLINE
5
155
100
AcDbEntity
8
1
62
256
6
ByLayer
370
18
48
1
60
0
100
AcDbSpline
70
4
71
3
72
24
73
20
40
0
40
0
40
0
40
0
40
0.125000000000036
40
0.125000000000036
40
0.187500000000045
40
0.187500000000045
40
0.250000000000055
40
0.250000000000055
40
0.500000000000044
40
0.500000000000044
40
0.562500000000038
40
0.562500000000038
40
0.625000000000032
40
0.625000000000032
40
0.750000000000021
40
0.750000000000021
40
0.875000000000011
40
0.875000000000011
40
1
40
1
40
1
40
1
41
1
10
131.010034967164
20
-14.7883614079375
30
0
41
1
10
131.157505665007
20
-14.7230638787721
30
0
41
1
10
131.299180395882
20
-14.6497362118363
30
0
41
1
10
131.50324002144
20
-14.52803406763
30
0
41
1
10
131.569846945733
20
-14.4855090852964
30
0
41
1
10
131.700226908072
20
-14.3965328565362
30
0
41
1
10
131.764066344186
20
-14.3500078929107
30
0
41
1
10
132.072061819702
20
-14.1107751384287
30
0
41
1
10
132.286537685148
20
-13.896297804204
30
0
41
1
10
132.517852513285
20
-13.6015946775179
30
0
41
1
10
132.562330613666
20
-13.5411745502299
30
0
41
1
10
132.646649066647
20
-13.4190087795764
30
0
41
1
10
132.686606690501
20
-13.3571289582042
30
0
41
1
10
132.800132997154
20
-13.1691921647425
30
0
41
1
10
132.867372596952
20
-13.0408441914095
30
0
41
1
10
132.985844439343
20
-12.7783539021402
30
0
41
1
10
133.037072581856
20
-12.6442101020576
30
0
41
1
10
133.123877195178
20
-12.3702569103146
30
0
41
1
10
133.158850516459
20
-12.2323422045227
30
0
41
1
10
133.186
20
-12.0937557912672
30
0
0
SPLINE
5
156
100
AcDbEntity
8
1
62
256
6
ByLayer
370
18
48
1
60
0
100
AcDbSpline
70
4
71
3
72
8
73
4
40
0
40
0
40
0
40
0
40
1
40
1
40
1
40
1
41
1
10
124.61685008146
20
-5.71967238642387
30
0
41
1
10
124.634427962183
20
-5.67588809604644
30
0
41
1
10
124.654043102623
20
-5.63285444657018
30
0
41
1
10
124.675783814237
20
-5.59069957871537
30
0
0
SPLINE
5
157
100
AcDbEntity
8
1
62
256
6
ByLayer
370
18
48
1
60
0
100
AcDbSpline
70
4
71
3
72
18
73
14
40
0
40
0
40
0
40
0
40
0.125
40
0.125
40
0.25
40
0.25
40
0.5
40
0.5
40
0.625
40
0.625
40
0.75
40
0.75
40
1
40
1
40
1
40
1
41
1
10
126.67
20
-14.1628709884363
30
0
41
1
10
126.7438776548
20
-14.2274394559854
30
0
41
1
10
126.820984985939
20
-14.2897453082206
30
0
41
1
10
126.982005729067
20
-14.4095888746049
30
0
41
1
10
127.066311205621
20
-14.4673377999956
30
0
41
1
10
127.324810070931
20
-14.6297372111587
30
0
41
1
10
127.505687118044
20
-14.7246201734791
30
0
41
1
10
127.789901187918
20
-14.8467415345403
30
0
41
1
10
127.88679864826
20
-14.8840663013334
30
0
41
1
10
128.085053672531
20
-14.9517299182688
30
0
41
1
10
128.186689373874
20
-14.9821403381203
30
0
41
1
10
128.496841235201
20
-15.0618630322609
30
0
41
1
10
128.706087765327
20
-15.098687414072
30
0
41
1
10
128.917745197411
20
-15.1196337194302
30
0
0
SPLINE
5
158
100
AcDbEntity
8
1
62
256
6
ByLayer
370
18
48
1
60
0
100
AcDbSpline
70
4
71
3
72
8
73
4
40
0
40
0
40
0
40
0
40
1
40
1
40
1
40
1
41
1
10
127.477668461068
20
10.9543963162122
30
0
41
1
10
127.484892999314
20
10.9540049662236
30
0
41
1
10
127.49211756622
20
10.9536136141214
30
0
41
1
10
127.499342162969
20
10.9532222598185
30
0
0
SPLINE
5
159
100
AcDbEntity
8
1
62
256
6
ByLayer
370
18
48
1
60
0
100
AcDbSpline
70
4
71
3
72
22
73
18
40
0
40
0
40
0
40
0
40
0.0624999999999983
40
0.0624999999999983
40
0.124999999999997
40
0.124999999999997
40
0.249999999999997
40
0.249999999999997
40
0.374999999999998
40
0.374999999999998
40
0.499999999999998
40
0.499999999999998
40
0.749999999999999
40
0.749999999999999
40
0.875
40
0.875
40
1
40
1
40
1
40
1
41
1
10
128.991640546333
20
9.44971697606252
30
0
41
1
10
128.991865695163
20
9.46675729185361
30
0
41
1
10
128.988039991271
20
9.483275200241
30
0
41
1
10
128.975335122831
20
9.51449739063727
30
0
41
1
10
128.966593537269
20
9.52899723017455
30
0
41
1
10
128.93539383072
20
9.57029783086705
30
0
41
1
10
128.90891616644
20
9.59385877343772
30
0
41
1
10
128.849850850066
20
9.63561985493783
30
0
41
1
10
128.817324827505
20
9.65355389128686
30
0
41
1
10
128.749284507471
20
9.68401782002189
30
0
41
1
10
128.713227998413
20
9.69677134025801
30
0
41
1
10
128.601246484694
20
9.72709405458511
30
0
41
1
10
128.522458724994
20
9.73695569272704
30
0
41
1
10
128.407461451021
20
9.7292526761542
30
0
41
1
10
128.36944412194
20
9.7228463060861
30
0
41
1
10
128.299290374016
20
9.69801101911045
30
0
41
1
10
128.266565138233
20
9.67946523223549
30
0
41
1
10
128.245687724655
20
9.65109547703184
30
0
0
SPLINE
5
15A
100
AcDbEntity
8
1
62
256
6
ByLayer
370
18
48
1
60
0
100
AcDbSpline
70
4
71
3
72
8
73
4
40
0
40
0
40
0
40
0
40
1
40
1
40
1
40
1
41
1
10
128.991640546333
20
9.44971697606246
30
0
41
1
10
128.991550739295
20
9.44291995962951
30
0
41
1
10
128.991460921977
20
9.43612298141872
30
0
41
1
10
128.991371094788
20
9.42932603991682
30
0
0
SPLINE
5
15B
100
AcDbEntity
8
1
62
256
6
ByLayer
370
18
48
1
60
0
100
AcDbSpline
70
4
71
3
72
16
73
12
40
0
40
0
40
0
40
0
40
0.124999999999938
40
0.124999999999938
40
0.249999999999876
40
0.249999999999876
40
0.499999999999917
40
0.499999999999917
40
0.749999999999958
40
0.749999999999958
40
1
40
1
40
1
40
1
41
1
10
128.233124311486
20
9.63402343651958
30
0
41
1
10
128.220618900781
20
9.61970987494036
30
0
41
1
10
128.204157974872
20
9.60897929190054
30
0
41
1
10
128.1667181711
20
9.59593726359688
30
0
41
1
10
128.146079452866
20
9.59362470050809
30
0
41
1
10
128.084909449111
20
9.59550834074935
30
0
41
1
10
128.043927948496
20
9.60775064555955
30
0
41
1
10
127.967503025071
20
9.64114508108801
30
0
41
1
10
127.931454028332
20
9.66267147973596
30
0
41
1
10
127.863875850603
20
9.71131319800048
30
0
41
1
10
127.832295084626
20
9.7385300655597
30
0
41
1
10
127.803071331257
20
9.76797328421583
30
0
0
SPLINE
5
15C
100
AcDbEntity
8
1
62
256
6
ByLayer
370
18
48
1
60
0
100
AcDbSpline
70
4
71
3
72
8
73
4
40
0
40
0
40
0
40
0
40
1
40
1
40
1
40
1
41
1
10
128.991928051973
20
12.4570172083314
30
0
41
1
10
128.99106137052
20
12.4638142247644
30
0
41
1
10
128.990194683157
20
12.4706112029751
30
0
41
1
10
128.989327990117
20
12.4774081444771
30
0
0
SPLINE
5
15D
100
AcDbEntity
8
1
62
256
6
ByLayer
370
18
48
1
60
0
100
AcDbSpline
70
4
71
3
72
20
73
16
40
0
40
0
40
0
40
0
40
0.0624999999999477
40
0.0624999999999477
40
0.124999999999895
40
0.124999999999895
40
0.249999999999864
40
0.249999999999864
40
0.499999999999885
40
0.499999999999885
40
0.749999999999906
40
0.749999999999906
40
0.874999999999953
40
0.874999999999953
40
1
40
1
40
1
40
1
41
1
10
129.737880873652
20
12.255638707362
30
0
41
1
10
129.729822252809
20
12.2414466224717
30
0
41
1
10
129.718545701351
20
12.2297052389824
30
0
41
1
10
129.69251125654
20
12.2102244298711
30
0
41
1
10
129.67797713671
20
12.2025914621348
30
0
41
1
10
129.631157156378
20
12.1839721954371
30
0
41
1
10
129.59637778378
20
12.177538625299
30
0
41
1
10
129.488993502038
20
12.1697494512893
30
0
41
1
10
129.412786549963
20
12.1795757690954
30
0
41
1
10
129.263609653157
20
12.2198604930203
30
0
41
1
10
129.190423014962
20
12.2503686874461
30
0
41
1
10
129.094309082496
20
12.3130494399361
30
0
41
1
10
129.064408027789
20
12.3369444581029
30
0
41
1
10
129.015579552556
20
12.391860759833
30
0
41
1
10
128.996252778761
20
12.4231002034848
30
0
41
1
10
128.991928051973
20
12.4570172083313
30
0
0
SPLINE
5
15E
100
AcDbEntity
8
1
62
256
6
ByLayer
370
18
48
1
60
0
100
AcDbSpline
70
4
71
3
72
20
73
16
40
0
40
0
40
0
40
0
40
0.0624999999999983
40
0.0624999999999983
40
0.124999999999997
40
0.124999999999997
40
0.249999999999998
40
0.249999999999998
40
0.499999999999999
40
0.499999999999999
40
0.750000000000001
40
0.750000000000001
40
0.875
40
0.875
40
1
40
1
40
1
40
1
41
1
10
128.245438737467
20
12.2554938749836
30
0
41
1
10
128.254204867489
20
12.2403257903004
30
0
41
1
10
128.259237456261
20
12.2236067747861
30
0
41
1
10
128.264053946767
20
12.1892509060322
30
0
41
1
10
128.263850639446
20
12.1718757717923
30
0
41
1
10
128.257855986467
20
12.1192524659451
30
0
41
1
10
128.246784573643
20
12.0843142663126
30
0
41
1
10
128.201683211361
20
11.9834161205734
30
0
41
1
10
128.155779166467
20
11.9207094659006
30
0
41
1
10
128.046562447584
20
11.8106919055456
30
0
41
1
10
127.983099261189
20
11.7632157217581
30
0
41
1
10
127.879270606726
20
11.7139976082007
30
0
41
1
10
127.84299229739
20
11.7012312705614
30
0
41
1
10
127.769490087631
20
11.6893720717591
30
0
41
1
10
127.731872996987
20
11.6900502956304
30
0
41
1
10
127.699363371949
20
11.7053175787832
30
0
0
SPLINE
5
15F
100
AcDbEntity
8
1
62
256
6
ByLayer
370
18
48
1
60
0
100
AcDbSpline
70
4
71
3
72
16
73
12
40
0
40
0
40
0
40
0
40
0.249999999999982
40
0.249999999999982
40
0.499999999999964
40
0.499999999999964
40
0.749999999999946
40
0.749999999999946
40
0.874999999999973
40
0.874999999999973
40
1
40
1
40
1
40
1
41
1
10
127.372421191431
20
11.3872513394068
30
0
41
1
10
127.361720990891
20
11.3470177522822
30
0
41
1
10
127.354181812658
20
11.3060104553699
30
0
41
1
10
127.346407042019
20
11.2231086168792
30
0
41
1
10
127.346124634195
20
11.1813560978525
30
0
41
1
10
127.356243203071
20
11.0991336027257
30
0
41
1
10
127.366474519091
20
11.0583774178582
30
0
41
1
10
127.396569724034
20
11.0056163298198
30
0
41
1
10
127.409179705619
20
10.9895864389092
30
0
41
1
10
127.440446468965
20
10.9649474246722
30
0
41
1
10
127.458438423193
20
10.9570476060234
30
0
41
1
10
127.477668461068
20
10.9543963162122
30
0
0
SPLINE
5
160
100
AcDbEntity
8
1
62
256
6
ByLayer
370
18
48
1
60
0
100
AcDbSpline
70
4
71
3
72
8
73
4
40
0
40
0
40
0
40
0
40
1
40
1
40
1
40
1
41
1
10
127.699363371949
20
11.7053175787832
30
0
41
1
10
127.692848396449
20
11.7083771642315
30
0
41
1
10
127.686333446801
20
11.7114367324746
30
0
41
1
10
127.679818521982
20
11.7144962841936
30
0
0
SPLINE
5
161
100
AcDbEntity
8
1
62
256
6
ByLayer
370
18
48
1
60
0
100
AcDbSpline
70
4
71
3
72
8
73
4
40
0
40
0
40
0
40
0
40
1
40
1
40
1
40
1
41
1
10
130.284348979177
20
11.7050667217451
30
0
41
1
10
130.289519028978
20
11.7088041527298
30
0
41
1
10
130.294689038922
20
11.7125415626975
30
0
41
1
10
130.299859010587
20
11.7162789524803
30
0
0
SPLINE
5
162
100
AcDbEntity
8
1
62
256
6
ByLayer
370
18
48
1
60
0
100
AcDbSpline
70
4
71
3
72
16
73
12
40
0
40
0
40
0
40
0
40
0.125
40
0.125
40
0.25
40
0.25
40
0.5
40
0.5
40
0.75
40
0.75
40
1
40
1
40
1
40
1
41
1
10
128.989327990117
20
12.477408144477
30
0
41
1
10
128.985429966197
20
12.495469403766
30
0
41
1
10
128.976334813594
20
12.5124580098319
30
0
41
1
10
128.950092692376
20
12.5415743472922
30
0
41
1
10
128.93324247056
20
12.5535370593779
30
0
41
1
10
128.879023692085
20
12.5816448763439
30
0
41
1
10
128.837323762662
20
12.5912378214219
30
0
41
1
10
128.754365363129
20
12.6001621429841
30
0
41
1
10
128.71244169991
20
12.599472834402
30
0
41
1
10
128.62984166485
20
12.5911481391715
30
0
41
1
10
128.588927233467
20
12.5834295616887
30
0
41
1
10
128.548979253722
20
12.5726451473879
30
0
0
SPLINE
5
163
100
AcDbEntity
8
1
62
256
6
ByLayer
370
18
48
1
60
0
100
AcDbSpline
70
4
71
3
72
16
73
12
40
0
40
0
40
0
40
0
40
0.125
40
0.125
40
0.25
40
0.25
40
0.5
40
0.5
40
0.75
40
0.75
40
1
40
1
40
1
40
1
41
1
10
127.679818521982
20
11.7144962841936
30
0
41
1
10
127.661709120528
20
11.7212347059011
30
0
41
1
10
127.641961134296
20
11.7228359145849
30
0
41
1
10
127.602775364113
20
11.7163069979771
30
0
41
1
10
127.583632751798
20
11.7083446407451
30
0
41
1
10
127.531295064306
20
11.6769542105214
30
0
41
1
10
127.501757182095
20
11.646137785145
30
0
41
1
10
127.451967714743
20
11.5793317462688
30
0
41
1
10
127.431403166958
20
11.5427481551713
30
0
41
1
10
127.397004756817
20
11.4669582092546
30
0
41
1
10
127.383125220343
20
11.4274993215074
30
0
41
1
10
127.372421191431
20
11.3872513394068
30
0
0
SPLINE
5
164
100
AcDbEntity
8
1
62
256
6
ByLayer
370
18
48
1
60
0
100
AcDbSpline
70
4
71
3
72
8
73
4
40
0
40
0
40
0
40
0
40
1
40
1
40
1
40
1
41
1
10
129.747574773418
20
12.2727107478743
30
0
41
1
10
129.744343501687
20
12.2670200988599
30
0
41
1
10
129.741112202147
20
12.2613294191115
30
0
41
1
10
129.737880873652
20
12.255638707362
30
0
0
SPLINE
5
165
100
AcDbEntity
8
1
62
256
6
ByLayer
370
18
48
1
60
0
100
AcDbSpline
70
4
71
3
72
20
73
16
40
0
40
0
40
0
40
0
40
0.0625000000000055
40
0.0625000000000055
40
0.125000000000011
40
0.125000000000011
40
0.250000000000022
40
0.250000000000022
40
0.500000000000039
40
0.500000000000039
40
0.750000000000057
40
0.750000000000057
40
0.875000000000028
40
0.875000000000028
40
1
40
1
40
1
40
1
41
1
10
129.738129860839
20
9.65124030941027
30
0
41
1
10
129.731749120636
20
9.66640839409351
30
0
41
1
10
129.729029817306
20
9.68312740960781
30
0
41
1
10
129.728567687936
20
9.71748327836164
30
0
41
1
10
129.730781719771
20
9.73485841260157
30
0
41
1
10
129.742419455663
20
9.78748171844882
30
0
41
1
10
129.756643542175
20
9.82241991808124
30
0
41
1
10
129.809326651937
20
9.92331806382049
30
0
41
1
10
129.857814060535
20
9.98602471849324
30
0
41
1
10
129.967027887361
20
10.0960422788483
30
0
41
1
10
130.027907341475
20
10.1435184626357
30
0
41
1
10
130.124163266261
20
10.1927365761931
30
0
41
1
10
130.157288228101
20
10.2055029138325
30
0
41
1
10
130.223256211126
20
10.2173621126348
30
0
41
1
10
130.256468463813
20
10.2166838887635
30
0
41
1
10
130.284205226357
20
10.2014166056107
30
0
0
SPLINE
5
166
100
AcDbEntity
8
1
62
256
6
ByLayer
370
18
48
1
60
0
100
AcDbSpline
70
4
71
3
72
8
73
4
40
0
40
0
40
0
40
0
40
1
40
1
40
1
40
1
41
1
10
130.503030623836
20
10.9523378681817
30
0
41
1
10
130.49676260582
20
10.9527292181703
30
0
41
1
10
130.490494543595
20
10.9531205702725
30
0
41
1
10
130.484226435338
20
10.9535119245754
30
0
0
SPLINE
5
167
100
AcDbEntity
8
1
62
256
6
ByLayer
370
18
48
1
60
0
100
AcDbSpline
70
4
71
3
72
16
73
12
40
0
40
0
40
0
40
0
40
0.125
40
0.125
40
0.25
40
0.25
40
0.5
40
0.5
40
0.75
40
0.75
40
1
40
1
40
1
40
1
41
1
10
128.991371094788
20
9.42932603991682
30
0
41
1
10
128.992727240449
20
9.4112647806279
30
0
41
1
10
128.999432350146
20
9.39427617456195
30
0
41
1
10
129.021525775
20
9.36515983710163
30
0
41
1
10
129.036637153594
20
9.35319712501598
30
0
41
1
10
129.086585304403
20
9.32508930804991
30
0
41
1
10
129.126516802004
20
9.31549636297203
30
0
41
1
10
129.206918454024
20
9.30657204140977
30
0
41
1
10
129.24806121613
20
9.30726134999188
30
0
41
1
10
129.329645041577
20
9.31558604522232
30
0
41
1
10
129.370331553628
20
9.32330462270511
30
0
41
1
10
129.410279533374
20
9.33408903700592
30
0
0
SPLINE
5
168
100
AcDbEntity
8
1
62
256
6
ByLayer
370
18
48
1
60
0
100
AcDbSpline
70
4
71
3
72
20
73
16
40
0
40
0
40
0
40
0
40
0.125000000000002
40
0.125000000000002
40
0.250000000000004
40
0.250000000000004
40
0.500000000000003
40
0.500000000000003
40
0.625000000000002
40
0.625000000000002
40
0.750000000000001
40
0.750000000000001
40
0.875000000000001
40
0.875000000000001
40
1
40
1
40
1
40
1
41
1
10
127.699219619129
20
10.2016674626487
30
0
41
1
10
127.729734359969
20
10.2202826630205
30
0
41
1
10
127.750450048179
20
10.2511511608567
30
0
41
1
10
127.778828892343
20
10.3180179011879
30
0
41
1
10
127.78676361864
20
10.3547704573864
30
0
41
1
10
127.798161960477
20
10.4667972129356
30
0
41
1
10
127.789612525985
20
10.5451321538468
30
0
41
1
10
127.759449844533
20
10.6579466563792
30
0
41
1
10
127.746587728238
20
10.6942323920954
30
0
41
1
10
127.715064755373
20
10.7641030446375
30
0
41
1
10
127.696154784473
20
10.7980725939673
30
0
41
1
10
127.652306238995
20
10.8599004061418
30
0
41
1
10
127.627035771175
20
10.8884470599307
30
0
41
1
10
127.568871308028
20
10.933851205812
30
0
41
1
10
127.535630098889
20
10.9512565528926
30
0
41
1
10
127.499342162969
20
10.9532222598185
30
0
0
SPLINE
5
169
100
AcDbEntity
8
1
62
256
6
ByLayer
370
18
48
1
60
0
100
AcDbSpline
70
4
71
3
72
16
73
12
40
0
40
0
40
0
40
0
40
0.250000000000038
40
0.250000000000038
40
0.500000000000077
40
0.500000000000077
40
0.750000000000115
40
0.750000000000115
40
0.875000000000058
40
0.875000000000058
40
1
40
1
40
1
40
1
41
1
10
130.156187455839
20
12.1387609001781
30
0
41
1
10
130.126953964312
20
12.168213930124
30
0
41
1
10
130.095644853069
20
12.1953945881445
30
0
41
1
10
130.029036109389
20
12.2440735241369
30
0
41
1
10
129.993873113116
20
12.2655364907864
30
0
41
1
10
129.920053085692
20
12.2989330737992
30
0
41
1
10
129.881212019868
20
12.3111445377779
30
0
41
1
10
129.824023656135
20
12.3131339898707
30
0
41
1
10
129.805230784841
20
12.3108972787365
30
0
41
1
10
129.77155962998
20
12.2977628106063
30
0
41
1
10
129.757559129366
20
12.2870530639628
30
0
41
1
10
129.747574773418
20
12.2727107478743
30
0
0
SPLINE
5
16A
100
AcDbEntity
8
1
62
256
6
ByLayer
370
18
48
1
60
0
100
AcDbSpline
70
4
71
3
72
16
73
12
40
0
40
0
40
0
40
0
40
0.250000000000019
40
0.250000000000019
40
0.500000000000039
40
0.500000000000039
40
0.750000000000058
40
0.750000000000058
40
0.875000000000029
40
0.875000000000029
40
1
40
1
40
1
40
1
41
1
10
130.586837595665
20
10.5194828449871
30
0
41
1
10
130.597537796205
20
10.5597164321117
30
0
41
1
10
130.605303573505
20
10.600723729024
30
0
41
1
10
130.614096769984
20
10.6836255675147
30
0
41
1
10
130.615159204719
20
10.7253780865414
30
0
41
1
10
130.607594318634
20
10.8076005816681
30
0
41
1
10
130.599106193841
20
10.8483567665356
30
0
41
1
10
130.573292451262
20
10.9011178545741
30
0
41
1
10
130.562403717334
20
10.9171477454847
30
0
41
1
10
130.535325205664
20
10.9417867597217
30
0
41
1
10
130.519714484839
20
10.9496865783704
30
0
41
1
10
130.503030623836
20
10.9523378681817
30
0
0
SPLINE
5
16B
100
AcDbEntity
8
1
62
256
6
ByLayer
370
18
48
1
60
0
100
AcDbSpline
70
4
71
3
72
20
73
16
40
0
40
0
40
0
40
0
40
0.0625000000000078
40
0.0625000000000078
40
0.125000000000015
40
0.125000000000015
40
0.250000000000031
40
0.250000000000031
40
0.500000000000022
40
0.500000000000022
40
0.750000000000012
40
0.750000000000012
40
0.875000000000006
40
0.875000000000006
40
1
40
1
40
1
40
1
41
1
10
130.484226435338
20
10.9535119245754
30
0
41
1
10
130.468594379383
20
10.9544879243683
30
0
41
1
10
130.453441881874
20
10.9594655563933
30
0
41
1
10
130.424768127124
20
10.9743406160358
30
0
41
1
10
130.411442676873
20
10.9840827825394
30
0
41
1
10
130.373438890976
20
11.018086821689
30
0
41
1
10
130.351307268046
20
11.0465914511833
30
0
41
1
10
130.292815222326
20
11.1397004229128
30
0
41
1
10
130.263803996997
20
11.2122333953917
30
0
41
1
10
130.223842373046
20
11.3625356796716
30
0
41
1
10
130.212827055105
20
11.4405200578849
30
0
41
1
10
130.216755412263
20
11.5524189239324
30
0
41
1
10
130.221555993144
20
11.5890802797385
30
0
41
1
10
130.242462614303
20
11.6558557802709
30
0
41
1
10
130.258550512174
20
11.6864170000513
30
0
41
1
10
130.284348979177
20
11.7050667217451
30
0
0
SPLINE
5
16C
100
AcDbEntity
8
1
62
256
6
ByLayer
370
18
48
1
60
0
100
AcDbSpline
70
4
71
3
72
16
73
12
40
0
40
0
40
0
40
0
40
0.125000000000004
40
0.125000000000004
40
0.250000000000008
40
0.250000000000008
40
0.500000000000005
40
0.500000000000005
40
0.750000000000003
40
0.750000000000003
40
1
40
1
40
1
40
1
41
1
10
130.299859010587
20
11.7162789524803
30
0
41
1
10
130.312799448992
20
11.7276017900619
30
0
41
1
10
130.322257261168
20
11.7429891874439
30
0
41
1
10
130.333126561951
20
11.7786344415121
30
0
41
1
10
130.334549530839
20
11.7985595108297
30
0
41
1
10
130.330533126023
20
11.8580577580195
30
0
41
1
10
130.3174868629
20
11.8984671284738
30
0
41
1
10
130.283039556963
20
11.9741974889122
30
0
41
1
10
130.261289990972
20
12.0100917714276
30
0
41
1
10
130.212580261246
20
12.0775570221138
30
0
41
1
10
130.185431406672
20
12.1092973323783
30
0
41
1
10
130.156187455839
20
12.1387609001781
30
0
0
SPLINE
5
16D
100
AcDbEntity
8
1
62
256
6
ByLayer
370
18
48
1
60
0
100
AcDbSpline
70
4
71
3
72
8
73
4
40
0
40
0
40
0
40
0
40
1
40
1
40
1
40
1
41
1
10
130.284205226357
20
10.2014166056107
30
0
41
1
10
130.289763713366
20
10.1983570201624
30
0
41
1
10
130.295322158333
20
10.1952974519193
30
0
41
1
10
130.300880562923
20
10.1922379002002
30
0
0
SPLINE
5
16E
100
AcDbEntity
8
1
62
256
6
ByLayer
370
18
48
1
60
0
100
AcDbSpline
70
4
71
3
72
8
73
4
40
0
40
0
40
0
40
0
40
1
40
1
40
1
40
1
41
1
10
129.74580539287
20
9.63299421250437
30
0
41
1
10
129.743246906701
20
9.63907621150736
30
0
41
1
10
129.740688396356
20
9.64515824335794
30
0
41
1
10
129.738129860839
20
9.65124030941027
30
0
0
SPLINE
5
16F
100
AcDbEntity
8
1
62
256
6
ByLayer
370
18
48
1
60
0
100
AcDbSpline
70
4
71
3
72
16
73
12
40
0
40
0
40
0
40
0
40
0.250000000000003
40
0.250000000000003
40
0.500000000000005
40
0.500000000000005
40
0.750000000000008
40
0.750000000000008
40
0.875000000000004
40
0.875000000000004
40
1
40
1
40
1
40
1
41
1
10
127.803071331257
20
9.76797328421583
30
0
41
1
10
127.773855786719
20
9.79740823239328
30
0
41
1
10
127.746930042712
20
9.82914939145769
30
0
41
1
10
127.699251511899
20
9.89658222771359
30
0
41
1
10
127.678287860924
20
9.93245537730354
30
0
41
1
10
127.646384007355
20
10.0081729205286
30
0
41
1
10
127.635147100173
20
10.0478790291686
30
0
41
1
10
127.635292649484
20
10.1080267267467
30
0
41
1
10
127.638442042515
20
10.1279143419416
30
0
41
1
10
127.653436977063
20
10.1636384132142
30
0
41
1
10
127.665318686553
20
10.1791038200727
30
0
41
1
10
127.680840074317
20
10.1904552319135
30
0
0
SPLINE
5
170
100
AcDbEntity
8
1
62
256
6
ByLayer
370
18
48
1
60
0
100
AcDbSpline
70
4
71
3
72
8
73
4
40
0
40
0
40
0
40
0
40
1
40
1
40
1
40
1
41
1
10
128.234893692034
20
12.2737399718895
30
0
41
1
10
128.238408698433
20
12.2676579728865
30
0
41
1
10
128.241923713459
20
12.2615759410359
30
0
41
1
10
128.245438737467
20
12.2554938749836
30
0
0
SPLINE
5
171
100
AcDbEntity
8
1
62
256
6
ByLayer
370
18
48
1
60
0
100
AcDbSpline
70
4
71
3
72
8
73
4
40
0
40
0
40
0
40
0
40
1
40
1
40
1
40
1
41
1
10
128.245687724655
20
9.65109547703184
30
0
41
1
10
128.241499907668
20
9.64540476528242
30
0
41
1
10
128.237312103447
20
9.639714085534
30
0
41
1
10
128.233124311486
20
9.63402343651958
30
0
0
SPLINE
5
172
100
AcDbEntity
8
1
62
256
6
ByLayer
370
18
48
1
60
0
100
AcDbSpline
70
4
71
3
72
16
73
12
40
0
40
0
40
0
40
0
40
0.125000000000002
40
0.125000000000002
40
0.250000000000004
40
0.250000000000004
40
0.500000000000003
40
0.500000000000003
40
0.750000000000001
40
0.750000000000001
40
1
40
1
40
1
40
1
41
1
10
130.300880562923
20
10.1922379002002
30
0
41
1
10
130.316448086118
20
10.1854994784928
30
0
41
1
10
130.333806029444
20
10.1838982698089
30
0
41
1
10
130.368843103262
20
10.1904271864168
30
0
41
1
10
130.386246872356
20
10.1983895436488
30
0
41
1
10
130.434313932182
20
10.2297799738725
30
0
41
1
10
130.462083382571
20
10.2605963992488
30
0
41
1
10
130.50931610241
20
10.3274024381251
30
0
41
1
10
130.529099749082
20
10.3639860292226
30
0
41
1
10
130.56248194961
20
10.4397759751392
30
0
41
1
10
130.576133566753
20
10.4792348628865
30
0
41
1
10
130.586837595665
20
10.5194828449871
30
0
0
SPLINE
5
173
100
AcDbEntity
8
1
62
256
6
ByLayer
370
18
48
1
60
0
100
AcDbSpline
70
4
71
3
72
16
73
12
40
0
40
0
40
0
40
0
40
0.249999999999978
40
0.249999999999978
40
0.499999999999957
40
0.499999999999957
40
0.749999999999935
40
0.749999999999935
40
0.874999999999967
40
0.874999999999967
40
1
40
1
40
1
40
1
41
1
10
128.548979253722
20
12.5726451473879
30
0
41
1
10
128.509045561655
20
12.5618645902093
30
0
41
1
10
128.470083972645
20
12.5480379513175
30
0
41
1
10
128.395191245407
20
12.5138150488191
30
0
41
1
10
128.359355827855
20
12.493525496442
30
0
41
1
10
128.29437752791
20
12.444699584328
30
0
41
1
10
128.264896182493
20
12.4161548634392
30
0
41
1
10
128.235662292521
20
12.3653832274935
30
0
41
1
10
128.228618778984
20
12.3471166254488
30
0
41
1
10
128.224120261631
20
12.3093431430815
30
0
41
1
10
128.226921098543
20
12.2907335777893
30
0
41
1
10
128.234893692034
20
12.2737399718895
30
0
0
SPLINE
5
174
100
AcDbEntity
8
1
62
256
6
ByLayer
370
18
48
1
60
0
100
AcDbSpline
70
4
71
3
72
16
73
12
40
0
40
0
40
0
40
0
40
0.250000000000002
40
0.250000000000002
40
0.500000000000004
40
0.500000000000004
40
0.750000000000006
40
0.750000000000006
40
0.875000000000003
40
0.875000000000003
40
1
40
1
40
1
40
1
41
1
10
129.410279533374
20
9.33408903700592
30
0
41
1
10
129.450213225441
20
9.34486959418459
30
0
41
1
10
129.489401413518
20
9.35869623307639
30
0
41
1
10
129.565312566596
20
9.39291913557474
30
0
41
1
10
129.60192801106
20
9.41320868795188
30
0
41
1
10
129.669459993795
20
9.46203460006589
30
0
41
1
10
129.700684530439
20
9.49057932095465
30
0
41
1
10
129.734199882775
20
9.54135095690032
30
0
41
1
10
129.742964643969
20
9.55961755894509
30
0
41
1
10
129.751651412999
20
9.59739104131239
30
0
41
1
10
129.751231809489
20
9.61600060660459
30
0
41
1
10
129.74580539287
20
9.63299421250437
30
0
0
SPLINE
5
175
100
AcDbEntity
8
1
62
256
6
ByLayer
370
18
48
1
60
0
100
AcDbSpline
70
4
71
3
72
8
73
4
40
0
40
0
40
0
40
0
40
1
40
1
40
1
40
1
41
1
10
127.680840074317
20
10.1904552319135
30
0
41
1
10
127.686966566211
20
10.1941926216964
30
0
41
1
10
127.693093080837
20
10.197930031664
30
0
41
1
10
127.699219619129
20
10.2016674626487
30
0
0
SPLINE
5
176
100
AcDbEntity
8
1
62
256
6
ByLayer
370
18
48
1
60
0
100
AcDbSpline
70
4
71
3
72
12
73
8
40
0
40
0
40
0
40
0
40
0.250000000000001
40
0.250000000000001
40
0.500000000000002
40
0.500000000000002
40
1
40
1
40
1
40
1
41
1
10
133.541741628576
20
-7.97689569600558
30
0
41
1
10
133.557970623708
20
-7.91326774747387
30
0
41
1
10
133.57201121555
20
-7.84263241307212
30
0
41
1
10
133.597395037015
20
-7.69272464434834
30
0
41
1
10
133.608713341765
20
-7.61337239923014
30
0
41
1
10
133.639840408977
20
-7.36626074449183
30
0
41
1
10
133.656881063255
20
-7.18963770253566
30
0
41
1
10
133.671856508554
20
-7.00640174956891
30
0
0
LINE
5
70
100
AcDbEntity
8
4
62
256
6
ByLayer
370
18
48
0.05
60
0
100
AcDbLine
10
-56
20
0
30
0
11
139
21
0
31
0
39
0
210
0
220
0
230
1
0
LINE
5
72
100
AcDbEntity
8
SK4
62
256
6
ByLayer
370
18
48
0.05
60
0
100
AcDbLine
10
139
20
0
30
0
11
-55.5
21
0
31
0
39
0
210
0
220
0
230
1
0
LINE
5
74
100
AcDbEntity
8
80
62
256
6
ByLayer
370
18
48
1
60
0
100
AcDbLine
10
0
20
0
30
0
11
-5
21
0
31
0
39
0
210
0
220
0
230
1
0
LINE
5
75
100
AcDbEntity
8
1
62
256
6
ByLayer
370
18
48
1
60
0
100
AcDbLine
10
109.46613
20
13.0534
30
0
11
109
21
13.0534
31
0
39
0
210
0
220
0
230
1
0
LINE
5
77
100
AcDbEntity
8
1
62
256
6
ByLayer
370
18
48
1
60
0
100
AcDbLine
10
94
20
12.49475
30
0
11
-55
21
12.49475
31
0
39
0
210
0
220
0
230
1
0
LINE
5
78
100
AcDbEntity
8
1
62
256
6
ByLayer
370
18
48
1
60
0
100
AcDbLine
10
100.95967
20
12.24475
30
0
11
94.580948
21
12.24475
31
0
39
0
210
0
220
0
230
1
0
LINE
5
79
100
AcDbEntity
8
1
62
256
6
ByLayer
370
18
48
1
60
0
100
AcDbLine
10
129.022177
20
1.84613
30
0
11
128.752148
21
1.719513
31
0
39
0
210
0
220
0
230
1
0
LINE
5
7A
100
AcDbEntity
8
1
62
256
6
ByLayer
370
18
48
1
60
0
100
AcDbLine
10
128.985575
20
8.328367
30
0
11
129.162433
21
8.328367
31
0
39
0
210
0
220
0
230
1
0
LINE
5
7B
100
AcDbEntity
8
1
62
256
6
ByLayer
370
18
48
1
60
0
100
AcDbLine
10
129.162433
20
13.578367
30
0
11
128.985575
21
13.578367
31
0
39
0
210
0
220
0
230
1
0
LINE
5
7C
100
AcDbEntity
8
1
62
256
6
ByLayer
370
18
48
1
60
0
100
AcDbLine
10
133.952561
20
-5.461555
30
0
11
133.985821
21
-5.252931
31
0
39
0
210
0
220
0
230
1
0
LINE
5
7D
100
AcDbEntity
8
1
62
256
6
ByLayer
370
18
48
1
60
0
100
AcDbLine
10
133.979078
20
-5.619639
30
0
11
133.822874
21
-4.688261
31
0
39
0
210
0
220
0
230
1
0
LINE
5
7E
100
AcDbEntity
8
1
62
256
6
ByLayer
370
18
48
1
60
0
100
AcDbLine
10
130.401438
20
10.214809
30
0
11
130.22587
21
10.214809
31
0
39
0
210
0
220
0
230
1
0
LINE
5
7F
100
AcDbEntity
8
1
62
256
6
ByLayer
370
18
48
1
60
0
100
AcDbLine
10
129.52302
20
12.173621
30
0
11
129.690481
21
12.173621
31
0
39
0
210
0
220
0
230
1
0
LINE
5
80
100
AcDbEntity
8
1
62
256
6
ByLayer
370
18
48
1
60
0
100
AcDbLine
10
128.652666
20
9.733113
30
0
11
128.485223
21
9.733113
31
0
39
0
210
0
220
0
230
1
0
LINE
5
81
100
AcDbEntity
8
1
62
256
6
ByLayer
370
18
48
1
60
0
100
AcDbLine
10
127.766142
20
11.691925
30
0
11
127.941709
21
11.691925
31
0
39
0
210
0
220
0
230
1
0
LINE
5
82
100
AcDbEntity
8
1
62
256
6
ByLayer
370
18
48
1
60
0
100
AcDbLine
10
133.530055
20
-8.111721
30
0
11
133.592093
21
-7.722586
31
0
39
0
210
0
220
0
230
1
0
LINE
5
83
100
AcDbEntity
8
1
62
256
6
ByLayer
370
18
48
1
60
0
100
AcDbLine
10
109
20
-13.0534
30
0
11
120.957934
21
-13.0534
31
0
39
0
210
0
220
0
230
1
0
LINE
5
84
100
AcDbEntity
8
1
62
256
6
ByLayer
370
18
48
1
60
0
100
AcDbLine
10
109
20
13.0534
30
0
11
101.040125
21
12.248806
31
0
39
0
210
0
220
0
230
1
0
LINE
5
85
100
AcDbEntity
8
1
62
256
6
ByLayer
370
18
48
1
60
0
100
AcDbLine
10
101.040125
20
-12.248806
30
0
11
109
21
-13.0534
31
0
39
0
210
0
220
0
230
1
0
LINE
5
86
100
AcDbEntity
8
1
62
256
6
ByLayer
370
18
48
1
60
0
100
AcDbLine
10
-55
20
-12.49475
30
0
11
94
21
-12.49475
31
0
39
0
210
0
220
0
230
1
0
LINE
5
87
100
AcDbEntity
8
1
62
256
6
ByLayer
370
18
48
1
60
0
100
AcDbLine
10
-55
20
12.49475
30
0
11
-56
21
11.49475
31
0
39
0
210
0
220
0
230
1
0
LINE
5
88
100
AcDbEntity
8
1
62
256
6
ByLayer
370
18
48
1
60
0
100
AcDbLine
10
-56
20
-11.49475
30
0
11
-55
21
-12.49475
31
0
39
0
210
0
220
0
230
1
0
LINE
5
89
100
AcDbEntity
8
1
62
256
6
ByLayer
370
18
48
1
60
0
100
AcDbLine
10
94.580948
20
-12.24475
30
0
11
100.95967
21
-12.24475
31
0
39
0
210
0
220
0
230
1
0
LINE
5
8A
100
AcDbEntity
8
1
62
256
6
ByLayer
370
18
48
1
60
0
100
AcDbLine
10
131.132312
20
1.516716
30
0
11
131.101977
21
1.543713
31
0
39
0
210
0
220
0
230
1
0
LINE
5
8B
100
AcDbEntity
8
81
62
256
6
ByLayer
370
18
48
1
60
0
100
AcDbLine
10
134
20
15.965
30
0
11
139
21
15.965
31
0
39
0
210
0
220
0
230
1
0
LINE
5
8C
100
AcDbEntity
8
1
62
256
6
ByLayer
370
18
48
1
60
0
100
AcDbLine
10
133.541742
20
-3.12803
30
0
11
133.186004
21
-2.37462
31
0
39
0
210
0
220
0
230
1
0
LINE
5
8D
100
AcDbEntity
8
1
62
256
6
ByLayer
370
18
48
1
60
0
100
AcDbLine
10
125.687446
20
-3.051239
30
0
11
125.871934
21
-3.441962
31
0
39
0
210
0
220
0
230
1
0
LINE
5
8E
100
AcDbEntity
8
1
62
256
6
ByLayer
370
18
48
1
60
0
100
AcDbLine
10
127.344726
20
-4.389533
30
0
11
129.449782
21
-4.912207
31
0
39
0
210
0
220
0
230
1
0
LINE
5
8F
100
AcDbEntity
8
1
62
256
6
ByLayer
370
18
48
1
60
0
100
AcDbLine
10
124.964235
20
-3.360383
30
0
11
125.848498
21
-5.233146
31
0
39
0
210
0
220
0
230
1
0
LINE
5
90
100
AcDbEntity
8
1
62
256
6
ByLayer
370
18
48
1
60
0
100
AcDbLine
10
130.677149
20
-6.432074
30
0
11
133.527134
21
-5.189422
31
0
39
0
210
0
220
0
230
1
0
LINE
5
91
100
AcDbEntity
8
1
62
256
6
ByLayer
370
18
48
1
60
0
100
AcDbLine
10
131.461654
20
-4.82986
30
0
11
133.002662
21
-4.157949
31
0
39
0
210
0
220
0
230
1
0
LINE
5
92
100
AcDbEntity
8
1
62
256
6
ByLayer
370
18
48
1
60
0
100
AcDbLine
10
126.243886
20
-5.487532
30
0
11
130.137039
21
-6.454181
31
0
39
0
210
0
220
0
230
1
0
LINE
5
93
100
AcDbEntity
8
1
62
256
6
ByLayer
370
18
48
1
60
0
100
AcDbLine
10
132.259874
20
-8.6726
30
0
11
130.441183
21
-8.484034
31
0
39
0
210
0
220
0
230
1
0
LINE
5
94
100
AcDbEntity
8
1
62
256
6
ByLayer
370
13
48
1
60
0
100
AcDbLine
10
124.61685
20
-5.719672
30
0
11
124.61685
21
6.475091
31
0
39
0
210
0
220
0
230
1
0
LINE
5
95
100
AcDbEntity
8
1
62
256
6
ByLayer
370
18
48
1
60
0
100
AcDbLine
10
133.186
20
-10.760408
30
0
11
133.186
21
-7.688691
31
0
39
0
210
0
220
0
230
1
0
LINE
5
96
100
AcDbEntity
8
1
62
256
6
ByLayer
370
13
48
1
60
0
100
AcDbLine
10
132.26091
20
6.459435
30
0
11
132.26091
21
7.151812
31
0
39
0
210
0
220
0
230
1
0
LINE
5
97
100
AcDbEntity
8
1
62
256
6
ByLayer
370
13
48
1
60
0
100
AcDbLine
10
125.972875
20
6.453367
30
0
11
125.972875
21
-3.137018
31
0
39
0
210
0
220
0
230
1
0
LINE
5
98
100
AcDbEntity
8
1
62
256
6
ByLayer
370
13
48
1
60
0
100
AcDbLine
10
132.26091
20
-8.665855
30
0
11
132.26091
21
-7.723592
31
0
39
0
210
0
220
0
230
1
0
LINE
5
99
100
AcDbEntity
8
1
62
256
6
ByLayer
370
13
48
1
60
0
100
AcDbLine
10
126.478844
20
-7.53431
30
0
11
126.275876
21
-9.822318
31
0
39
0
210
0
220
0
230
1
0
LINE
5
9A
100
AcDbEntity
8
1
62
256
6
ByLayer
370
18
48
1
60
0
100
AcDbLine
10
126.275876
20
-9.822318
30
0
11
129.690299
21
-8.759428
31
0
39
0
210
0
220
0
230
1
0
LINE
5
9B
100
AcDbEntity
8
1
62
256
6
ByLayer
370
18
48
1
60
0
100
AcDbLine
10
109
20
-13.0534
30
0
11
109
21
1.579126
31
0
39
0
210
0
220
0
230
1
0
LINE
5
9C
100
AcDbEntity
8
1
62
256
6
ByLayer
370
18
48
1
60
0
100
AcDbLine
10
109
20
1.579126
30
0
11
109
21
1.579126
31
0
39
0
210
0
220
0
230
1
0
LINE
5
9D
100
AcDbEntity
8
1
62
256
6
ByLayer
370
18
48
1
60
0
100
AcDbLine
10
109
20
1.579126
30
0
11
109
21
13.0534
31
0
39
0
210
0
220
0
230
1
0
LINE
5
9E
100
AcDbEntity
8
1
62
256
6
ByLayer
370
18
48
1
60
0
100
AcDbLine
10
133.186
20
6.453367
30
0
11
133.186
21
-3.442146
31
0
39
0
210
0
220
0
230
1
0
LINE
5
9F
100
AcDbEntity
8
1
62
256
6
ByLayer
370
18
48
1
60
0
100
AcDbLine
10
124.761149
20
7.776505
30
0
11
125.181132
21
7.353367
31
0
39
0
210
0
220
0
230
1
0
LINE
5
A0
100
AcDbEntity
8
1
62
256
6
ByLayer
370
18
48
1
60
0
100
AcDbLine
10
133.186
20
-12.093756
30
0
11
133.186
21
-10.760412
31
0
39
0
210
0
220
0
230
1
0
LINE
5
A1
100
AcDbEntity
8
1
62
256
6
ByLayer
370
18
48
1
60
0
100
AcDbLine
10
94
20
-12.49475
30
0
11
94
21
12.49475
31
0
39
0
210
0
220
0
230
1
0
LINE
5
A2
100
AcDbEntity
8
1
62
256
6
ByLayer
370
18
48
1
60
0
100
AcDbLine
10
-55
20
12.49475
30
0
11
-55
21
-12.49475
31
0
39
0
210
0
220
0
230
1
0
LINE
5
A3
100
AcDbEntity
8
1
62
256
6
ByLayer
370
13
48
1
60
0
100
AcDbLine
10
132.418967
20
-9.010233
30
0
11
132.418967
21
-7.663887
31
0
39
0
210
0
220
0
230
1
0
LINE
5
A4
100
AcDbEntity
8
1
62
256
6
ByLayer
370
18
48
1
60
0
100
AcDbLine
10
-56
20
11.49475
30
0
11
-56
21
-11.49475
31
0
39
0
210
0
220
0
230
1
0
LINE
5
A5
100
AcDbEntity
8
1
62
256
6
ByLayer
370
18
48
1
60
0
100
AcDbLine
10
-56
20
11.49475
30
0
11
-56
21
-1.390569
31
0
39
0
210
0
220
0
230
1
0
LINE
5
A6
100
AcDbEntity
8
1
62
256
6
ByLayer
370
18
48
1
60
0
100
AcDbLine
10
131.715
20
6.459164
30
0
11
131.715
21
6.605049
31
0
39
0
210
0
220
0
230
1
0
LINE
5
A7
100
AcDbEntity
8
1
62
256
6
ByLayer
370
13
48
1
60
0
100
AcDbLine
10
129.690299
20
-8.759428
30
0
11
126.478844
21
-7.53431
31
0
39
0
210
0
220
0
230
1
0
LINE
5
A8
100
AcDbEntity
8
1
62
256
6
ByLayer
370
13
48
1
60
0
100
AcDbLine
10
101.040125
20
12.248806
30
0
11
101.040125
21
-12.248806
31
0
39
0
210
0
220
0
230
1
0
LINE
5
A9
100
AcDbEntity
8
1
62
256
6
ByLayer
370
13
48
1
60
0
100
AcDbLine
10
132.418967
20
7.293847
30
0
11
132.418967
21
6.458428
31
0
39
0
210
0
220
0
230
1
0
LINE
5
AA
100
AcDbEntity
8
1
62
256
6
ByLayer
370
18
48
1
60
0
100
AcDbLine
10
133.186
20
6.456349
30
0
11
133.186
21
8.209527
31
0
39
0
210
0
220
0
230
1
0
LINE
5
AB
100
AcDbEntity
8
1
62
256
6
ByLayer
370
13
48
1
60
0
100
AcDbLine
10
126.67
20
6.453367
30
0
11
126.67
21
-3.644963
31
0
39
0
210
0
220
0
230
1
0
LINE
5
AC
100
AcDbEntity
8
1
62
256
6
ByLayer
370
13
48
1
60
0
100
AcDbLine
10
124.074538
20
7.353367
30
0
11
125.181132
21
7.353367
31
0
39
0
210
0
220
0
230
1
0
LINE
5
AD
100
AcDbEntity
8
1
62
256
6
ByLayer
370
13
48
1
60
0
100
AcDbLine
10
123.799432
20
-7.222306
30
0
11
123.540647
21
-10.139538
31
0
39
0
210
0
220
0
230
1
0
LINE
5
AE
100
AcDbEntity
8
1
62
256
6
ByLayer
370
13
48
1
60
0
100
AcDbLine
10
100.95967
20
-12.24475
30
0
11
100.95967
21
1.4813
31
0
39
0
210
0
220
0
230
1
0
LINE
5
AF
100
AcDbEntity
8
1
62
256
6
ByLayer
370
13
48
1
60
0
100
AcDbLine
10
100.95967
20
1.4813
30
0
11
100.95967
21
1.4813
31
0
39
0
210
0
220
0
230
1
0
LINE
5
B0
100
AcDbEntity
8
1
62
256
6
ByLayer
370
18
48
1
60
0
100
AcDbLine
10
100.95967
20
1.4813
30
0
11
100.95967
21
12.24475
31
0
39
0
210
0
220
0
230
1
0
LINE
5
B1
100
AcDbEntity
8
1
62
256
6
ByLayer
370
13
48
1
60
0
100
AcDbLine
10
94.580948
20
-12.24475
30
0
11
94.580948
21
1.4813
31
0
39
0
210
0
220
0
230
1
0
LINE
5
B2
100
AcDbEntity
8
1
62
256
6
ByLayer
370
13
48
1
60
0
100
AcDbLine
10
94.580948
20
1.4813
30
0
11
94.580948
21
1.4813
31
0
39
0
210
0
220
0
230
1
0
LINE
5
B3
100
AcDbEntity
8
1
62
256
6
ByLayer
370
18
48
1
60
0
100
AcDbLine
10
94.580948
20
1.4813
30
0
11
94.580948
21
12.24475
31
0
39
0
210
0
220
0
230
1
0
LINE
5
B4
100
AcDbEntity
8
1
62
256
6
ByLayer
370
13
48
1
60
0
100
AcDbLine
10
126.010902
20
-9.897691
30
0
11
125.52362
21
-13.248854
31
0
39
0
210
0
220
0
230
1
0
LINE
5
B5
100
AcDbEntity
8
1
62
256
6
ByLayer
370
18
48
1
60
0
100
AcDbLine
10
128.416118
20
12.27374
30
0
11
128.234894
21
12.27374
31
0
39
0
210
0
220
0
230
1
0
LINE
5
B6
100
AcDbEntity
8
1
62
256
6
ByLayer
370
18
48
1
60
0
100
AcDbLine
10
129.91767
20
12.255639
30
0
11
129.928799
21
12.272711
31
0
39
0
210
0
220
0
230
1
0
LINE
5
B7
100
AcDbEntity
8
1
62
256
6
ByLayer
370
13
48
1
60
0
100
AcDbLine
10
129.91767
20
12.255639
30
0
11
129.737881
21
12.255639
31
0
39
0
210
0
220
0
230
1
0
LINE
5
B8
100
AcDbEntity
8
1
62
256
6
ByLayer
370
18
48
1
60
0
100
AcDbLine
10
128.425228
20
12.255494
30
0
11
128.416118
21
12.27374
31
0
39
0
210
0
220
0
230
1
0
LINE
5
B9
100
AcDbEntity
8
1
62
256
6
ByLayer
370
18
48
1
60
0
100
AcDbLine
10
127.862064
20
10.190455
30
0
11
127.879009
21
10.201667
31
0
39
0
210
0
220
0
230
1
0
LINE
5
BA
100
AcDbEntity
8
1
62
256
6
ByLayer
370
18
48
1
60
0
100
AcDbLine
10
127.862064
20
10.190455
30
0
11
127.68084
21
10.190455
31
0
39
0
210
0
220
0
230
1
0
LINE
5
BB
100
AcDbEntity
8
1
62
256
6
ByLayer
370
13
48
1
60
0
100
AcDbLine
10
129.17143
20
9.449717
30
0
11
128.991641
21
9.449717
31
0
39
0
210
0
220
0
230
1
0
LINE
5
BC
100
AcDbEntity
8
1
62
256
6
ByLayer
370
18
48
1
60
0
100
AcDbLine
10
127.658893
20
10.954396
30
0
11
127.477668
21
10.954396
31
0
39
0
210
0
220
0
230
1
0
LINE
5
BD
100
AcDbEntity
8
1
62
256
6
ByLayer
370
13
48
1
60
0
100
AcDbLine
10
128.425228
20
12.255494
30
0
11
128.245439
21
12.255494
31
0
39
0
210
0
220
0
230
1
0
LINE
5
BE
100
AcDbEntity
8
1
62
256
6
ByLayer
370
13
48
1
60
0
100
AcDbLine
10
130.386208
20
10.201417
30
0
11
130.284205
21
10.201417
31
0
39
0
210
0
220
0
230
1
0
LINE
5
BF
100
AcDbEntity
8
1
62
256
6
ByLayer
370
18
48
1
60
0
100
AcDbLine
10
129.928799
20
12.272711
30
0
11
129.747575
21
12.272711
31
0
39
0
210
0
220
0
230
1
0
LINE
5
C0
100
AcDbEntity
8
1
62
256
6
ByLayer
370
18
48
1
60
0
100
AcDbLine
10
129.172595
20
9.429326
30
0
11
128.991371
21
9.429326
31
0
39
0
210
0
220
0
230
1
0
LINE
5
C1
100
AcDbEntity
8
1
62
256
6
ByLayer
370
18
48
1
60
0
100
AcDbLine
10
130.366855
20
10.192238
30
0
11
130.300881
21
10.192238
31
0
39
0
210
0
220
0
230
1
0
LINE
5
C2
100
AcDbEntity
8
1
62
256
6
ByLayer
370
18
48
1
60
0
100
AcDbLine
10
127.679131
20
10.953222
30
0
11
127.658893
21
10.954396
31
0
39
0
210
0
220
0
230
1
0
LINE
5
C3
100
AcDbEntity
8
1
62
256
6
ByLayer
370
18
48
1
60
0
100
AcDbLine
10
129.172595
20
9.429326
30
0
11
129.17143
21
9.449717
31
0
39
0
210
0
220
0
230
1
0
LINE
5
C4
100
AcDbEntity
8
1
62
256
6
ByLayer
370
13
48
1
60
0
100
AcDbLine
10
127.679131
20
10.953222
30
0
11
127.499342
21
10.953222
31
0
39
0
210
0
220
0
230
1
0
LINE
5
C5
100
AcDbEntity
8
1
62
256
6
ByLayer
370
13
48
1
60
0
100
AcDbLine
10
127.879009
20
10.201667
30
0
11
127.69922
21
10.201667
31
0
39
0
210
0
220
0
230
1
0
LINE
5
C6
100
AcDbEntity
8
1
62
256
6
ByLayer
370
18
48
1
60
0
100
AcDbLine
10
133.671857
20
-7.006402
30
0
11
133.596585
21
-6.883423
31
0
39
0
210
0
220
0
230
1
0
LINE
5
C7
100
AcDbEntity
8
1
62
256
6
ByLayer
370
18
48
1
60
0
100
AcDbLine
10
133.541742
20
-7.976896
30
0
11
133.124804
21
-7.2957
31
0
39
0
210
0
220
0
230
1
0
MTEXT
5
177
100
AcDbEntity
8
SK6
62
256
6
ByLayer
370
18
48
1
60
0
100
AcDbMText
10
45.573684
20
-30.965
30
0
210
0
220
0
230
1
1
\W0.7565;R300-032A25-10M
40
4
41
0
44
1.084337
50
0
71
7
72
5
7
iso_b_vert
0
DIMENSION
5
189
100
AcDbEntity
8
2
62
256
6
ByLayer
370
13
48
1
60
0
100
AcDbDimension
2
DimnDraft3D1
10
129
20
30.815
30
0
11
146.8
21
30.815
31
0
70
32
71
5
72
1
41
1
210
0
220
0
230
1
3
Standard
100
AcDbAlignedDimension
13
134
23
15.965
33
0
14
129
24
15.965
34
0
50
0
100
AcDbRotatedDimension
1001
ACAD
1000
DSTYLE
1002
{
1070
   279
1070
     0
1070
   172
1070
     1
1070
   173
1070
     1
1070
   340
1005
178
1070
   271
1070
     3
1070
   272
1070
     3
1070
    77
1070
     1
1070
    73
1070
     0
1070
   171
1070
     3
1070
   274
1070
     4
1070
   177
1070
     7
1070
   176
1070
     7
1070
   178
1070
     7
1070
    78
1070
     8
1070
    48
1040
-0.005
1070
    41
1041
3.5
1070
   147
1041
1.75
1070
    42
1041
0.0
1070
    44
1041
2.0
1070
   140
1041
3.5
1070
   343
1005
18A
1070
   344
1005
18A
1002
}
0
DIMENSION
5
19F
100
AcDbEntity
8
SK2
62
256
6
ByLayer
370
13
48
1
60
0
100
AcDbDimension
2
DimnDraft3D2
10
94
20
40.815
30
0
11
114
21
40.815
31
0
70
32
71
5
72
1
41
1
210
0
220
0
230
1
3
Standard
100
AcDbAlignedDimension
13
134
23
15.965
33
0
14
94
24
15.965
34
0
50
0
100
AcDbRotatedDimension
1001
ACAD
1000
DSTYLE
1002
{
1070
   279
1070
     0
1070
   172
1070
     1
1070
   173
1070
     1
1070
   340
1005
178
1070
   271
1070
     3
1070
   272
1070
     3
1070
    77
1070
     1
1070
    73
1070
     0
1070
   171
1070
     3
1070
   274
1070
     4
1070
   177
1070
     7
1070
   176
1070
     7
1070
   178
1070
     7
1070
    78
1070
     8
1070
    48
1040
-0.005
1070
    41
1041
3.5
1070
   147
1041
1.75
1070
    42
1041
0.0
1070
    44
1041
2.0
1070
   140
1041
3.5
1070
   343
1005
18A
1070
   344
1005
18A
1002
}
0
DIMENSION
5
1AD
100
AcDbEntity
8
SK2
62
256
6
ByLayer
370
13
48
1
60
0
100
AcDbDimension
2
DimnDraft3D3
10
-56
20
50.815
30
0
11
39
21
50.815
31
0
70
32
71
5
72
1
41
1
210
0
220
0
230
1
3
Standard
100
AcDbAlignedDimension
13
134
23
15.965
33
0
14
-56
24
0
34
0
50
0
100
AcDbRotatedDimension
1001
ACAD
1000
DSTYLE
1002
{
1070
   279
1070
     0
1070
   172
1070
     1
1070
   173
1070
     1
1070
   340
1005
178
1070
   271
1070
     3
1070
   272
1070
     3
1070
    77
1070
     1
1070
    73
1070
     0
1070
   171
1070
     3
1070
   274
1070
     4
1070
   177
1070
     7
1070
   176
1070
     7
1070
   178
1070
     7
1070
    78
1070
     8
1070
    48
1040
-0.005
1070
    41
1041
3.5
1070
   147
1041
1.75
1070
    42
1041
0.0
1070
    44
1041
2.0
1070
   140
1041
3.5
1070
   343
1005
18A
1070
   344
1005
18A
1002
}
0
DIMENSION
5
1BB
100
AcDbEntity
8
2
62
256
6
ByLayer
370
13
48
1
60
0
100
AcDbDimension
2
DimnDraft3D4
10
-70.85
20
-12.5
30
0
11
-70.85
21
0
31
0
70
32
71
5
72
1
41
1
210
0
220
0
230
1
3
Standard
100
AcDbAlignedDimension
13
-56
23
12.5
33
0
14
-56
24
-12.5
34
0
50
90
100
AcDbRotatedDimension
1001
ACAD
1000
DSTYLE
1002
{
1070
    74
1070
     0
1070
   279
1070
     0
1070
   172
1070
     1
1070
   173
1070
     1
1070
   340
1005
178
1070
   271
1070
     3
1070
   272
1070
     3
1070
    77
1070
     1
1070
    73
1070
     0
1070
   171
1070
     3
1070
   274
1070
     4
1070
   177
1070
     7
1070
   176
1070
     7
1070
   178
1070
     7
1070
    78
1070
     8
1070
    48
1040
-0.005
1070
    41
1041
3.5
1070
   147
1041
1.75
1070
    42
1041
0.0
1070
    44
1041
2.0
1070
   140
1041
3.5
1070
   343
1005
18A
1070
   344
1005
18A
1002
}
0
DIMENSION
5
1C9
100
AcDbEntity
8
SK2
62
256
6
ByLayer
370
13
48
1
60
0
100
AcDbDimension
2
DimnDraft3D5
10
160.85
20
-10.9884
30
0
11
160.85
21
0
31
0
70
32
71
5
72
1
41
1
210
0
220
0
230
1
3
Standard
100
AcDbAlignedDimension
13
134
23
10.9884
33
0
14
134
24
-10.9884
34
0
50
90
100
AcDbRotatedDimension
1001
ACAD
1000
DSTYLE
1002
{
1070
    74
1070
     0
1070
   279
1070
     0
1070
   172
1070
     1
1070
   173
1070
     1
1070
   340
1005
178
1070
   271
1070
     3
1070
   272
1070
     3
1070
    77
1070
     1
1070
    73
1070
     0
1070
   171
1070
     3
1070
   274
1070
     4
1070
   177
1070
     7
1070
   176
1070
     7
1070
   178
1070
     7
1070
    78
1070
     8
1070
    48
1040
-0.005
1070
    41
1041
3.5
1070
   147
1041
1.75
1070
    42
1041
0.0
1070
    44
1041
2.0
1070
   140
1041
3.5
1070
   343
1005
18A
1070
   344
1005
18A
1002
}
0
DIMENSION
5
1D7
100
AcDbEntity
8
SK2
62
256
6
ByLayer
370
13
48
1
60
0
100
AcDbDimension
2
DimnDraft3D6
10
170.85
20
15.965
30
0
11
170.85
21
0
31
0
70
32
71
5
72
1
41
1
210
0
220
0
230
1
3
Standard
100
AcDbAlignedDimension
13
134
23
-15.965
33
0
14
134
24
15.965
34
0
50
90
100
AcDbRotatedDimension
1001
ACAD
1000
DSTYLE
1002
{
1070
    74
1070
     0
1070
   279
1070
     0
1070
   172
1070
     1
1070
   173
1070
     1
1070
   340
1005
178
1070
   271
1070
     3
1070
   272
1070
     3
1070
    77
1070
     1
1070
    73
1070
     0
1070
   171
1070
     3
1070
   274
1070
     4
1070
   177
1070
     7
1070
   176
1070
     7
1070
   178
1070
     7
1070
    78
1070
     8
1070
    48
1040
-0.005
1070
    41
1041
3.5
1070
   147
1041
1.75
1070
    42
1041
0.0
1070
    44
1041
2.0
1070
   140
1041
3.5
1070
   343
1005
18A
1070
   344
1005
18A
1002
}
0
ENDSEC
0
SECTION
2
OBJECTS
0
DICTIONARY
5
243
330
0
100
AcDbDictionary
280
0
281
1
3
ACAD_GROUP
350
244
3
ACAD_GROUP
350
245
3
ACAD_MLINESTYLE
350
246
0
DICTIONARY
5
244
330
0
100
AcDbDictionary
280
0
281
1
0
DICTIONARY
5
245
330
0
100
AcDbDictionary
280
0
281
1
3
14854229809106629_1_ASS2D_2D
350
1E0
0
DICTIONARY
5
246
330
0
100
AcDbDictionary
280
0
281
1
3
Standard
350
18
0
GROUP
5
1E0
330
245
100
AcDbGroup
300

70
0
71
1
340
6C
340
6E
340
70
340
72
340
74
340
75
340
77
340
78
340
79
340
7A
340
7B
340
7C
340
7D
340
7E
340
7F
340
80
340
81
340
82
340
83
340
84
340
85
340
86
340
87
340
88
340
89
340
8A
340
8B
340
8C
340
8D
340
8E
340
8F
340
90
340
91
340
92
340
93
340
94
340
95
340
96
340
97
340
98
340
99
340
9A
340
9B
340
9C
340
9D
340
9E
340
9F
340
A0
340
A1
340
A2
340
A3
340
A4
340
A5
340
A6
340
A7
340
A8
340
A9
340
AA
340
AB
340
AC
340
AD
340
AE
340
AF
340
B0
340
B1
340
B2
340
B3
340
B4
340
B5
340
B6
340
B7
340
B8
340
B9
340
BA
340
BB
340
BC
340
BD
340
BE
340
BF
340
C0
340
C1
340
C2
340
C3
340
C4
340
C5
340
C6
340
C7
340
C8
340
C9
340
CA
340
CB
340
CC
340
CD
340
CE
340
CF
340
D0
340
D1
340
D2
340
D3
340
D4
340
D5
340
D6
340
D7
340
D8
340
D9
340
DA
340
DB
340
DC
340
DD
340
DE
340
DF
340
E0
340
E1
340
E2
340
E3
340
E4
340
E5
340
E6
340
E7
340
E8
340
E9
340
EA
340
EB
340
EC
340
ED
340
EE
340
EF
340
F0
340
F1
340
F2
340
F3
340
F4
340
F5
340
F6
340
F7
340
F8
340
F9
340
FA
340
FB
340
FC
340
FD
340
FE
340
FF
340
100
340
101
340
102
340
103
340
104
340
105
340
106
340
107
340
108
340
109
340
10A
340
10B
340
10C
340
10D
340
10E
340
10F
340
110
340
111
340
112
340
113
340
114
340
115
340
116
340
117
340
118
340
119
340
11A
340
11B
340
11C
340
11D
340
11E
340
11F
340
120
340
121
340
122
340
123
340
124
340
125
340
126
340
127
340
128
340
129
340
12A
340
12B
340
12C
340
12D
340
12E
340
12F
340
130
340
131
340
132
340
133
340
134
340
135
340
136
340
137
340
138
340
139
340
13A
340
13B
340
13C
340
13D
340
13E
340
13F
340
140
340
141
340
142
340
143
340
144
340
145
340
146
340
147
340
148
340
149
340
14A
340
14B
340
14C
340
14D
340
14E
340
14F
340
150
340
151
340
152
340
153
340
154
340
155
340
156
340
157
340
158
340
159
340
15A
340
15B
340
15C
340
15D
340
15E
340
15F
340
160
340
161
340
162
340
163
340
164
340
165
340
166
340
167
340
168
340
169
340
16A
340
16B
340
16C
340
16D
340
16E
340
16F
340
170
340
171
340
172
340
173
340
174
340
175
340
176
340
177
340
189
340
19F
340
1AD
340
1BB
340
1C9
340
1D7
0
MLINESTYLE
5
18
330
246
100
AcDbMlineStyle
2
Standard
70
0
3

62
256
51
90
52
90
71
2
49
-0.5
62
256
6
ByLayer
49
0.5
62
256
6
ByLayer
0
RASTERVARIABLES
5
231
330

100
AcDbRasterVariables
90
0
70
1
71
1
72
1
0
ENDSEC
0
EOF
