0
SECTION
2
HEADER
9
$ACADVER
1
AC1015
9
$DWGCODEPAGE
3
ANSI_1252
9
$HANDSEED
5
1e8
9
$ANGBASE
50
0
9
$ANGDIR
70
0
9
$ATTMODE
70
1
9
$AUNITS
70
0
9
$AUPREC
70
0
9
$CECOLOR
62
256
9
$CELTSCALE
40
1
9
$CELTYPE
6
ByLayer
9
$CELWEIGHT
370
18
9
$CLAYER
8
0
9
$CMLJUST
70
0
9
$CMLSCALE
40
1
9
$CMLSTYLE
2
Standard
9
$DIMSTYLE
2
Standard
9
$TEXTSIZE
40
0.2
9
$TEXTSTYLE
7
Standard
9
$LUNITS
70
2
9
$LUPREC
70
4
9
$EXTNAMES
290
1
9
$INSUNITS
70
4
9
$LTSCALE
40
1
9
$LWDISPLAY
290
1
9
$PDMODE
70
0
9
$PDSIZE
40
0
9
$PLINEGEN
70
0
0
ENDSEC
0
SECTION
2
CLASSES
0
CLASS
1
RASTERVARIABLES
2
AcDbRasterVariables
3
ISM
90
0
280
0
281
0
0
ENDSEC
0
SECTION
2
TABLES
0
TABLE
2
VPORT
5
1de
100
AcDbSymbolTable
0
VPORT
5
1
100
AcDbSymbolTableRecord
100
AcDbViewportTableRecord
2
*Active
70
0
10
0
20
0
11
1
21
1
12
-1
22
1
13
0
23
0
14
0.5
24
0.5
15
10
25
10
16
0
26
0
36
1
17
0
27
0
37
0
0
ENDTAB
0
TABLE
2
LTYPE
5
1df
100
AcDbSymbolTable
0
LTYPE
5
14
100
AcDbSymbolTableRecord
100
AcDbLinetypeTableRecord
70
0
2
ByBlock
3

72
65
73
0
40
0
0
LTYPE
5
15
100
AcDbSymbolTableRecord
100
AcDbLinetypeTableRecord
70
0
2
ByLayer
3

72
65
73
0
40
0
0
LTYPE
5
16
100
AcDbSymbolTableRecord
100
AcDbLinetypeTableRecord
70
0
2
CONTINUOUS
3
Solid line
72
65
73
0
40
0
0
LTYPE
5
6A
100
AcDbSymbolTableRecord
100
AcDbLinetypeTableRecord
70
0
2
CENTER
3
____ _ ____ _ ____ _ ____
72
65
73
4
40
47.5
49
22
74
0
49
-8.5
74
0
49
8.5
74
0
49
-8.5
74
0
0
LTYPE
5
6B
100
AcDbSymbolTableRecord
100
AcDbLinetypeTableRecord
70
0
2
DASHED
3
__ __ __ __ __ __ __ __ __
72
65
73
2
40
25.72
49
12.86
74
0
49
-12.86
74
0
0
ENDTAB
0
TABLE
2
LAYER
5
1e0
100
AcDbSymbolTable
0
LAYER
5
10
100
AcDbSymbolTableRecord
100
AcDbLayerTableRecord
2
0
70
0
62
7
6
CONTINUOUS
290
1
370
-3
390
0
0
LAYER
5
6D
100
AcDbSymbolTableRecord
100
AcDbLayerTableRecord
2
81
70
0
62
-3
6
CONTINUOUS
290
1
370
-3
390
0
0
LAYER
5
6F
100
AcDbSymbolTableRecord
100
AcDbLayerTableRecord
2
80
70
0
62
-6
6
CONTINUOUS
290
1
370
-3
390
0
0
LAYER
5
73
100
AcDbSymbolTableRecord
100
AcDbLayerTableRecord
2
1
70
0
62
4
6
CONTINUOUS
290
1
370
-3
390
0
0
LAYER
5
13E
100
AcDbSymbolTableRecord
100
AcDbLayerTableRecord
2
2
70
0
62
7
6
CONTINUOUS
290
1
370
-3
390
0
0
LAYER
5
1cb
100
AcDbSymbolTableRecord
100
AcDbLayerTableRecord
2
SK4
70
0
62
2
6
CENTER
290
1
370
-3
390
0
0
LAYER
5
1cc
100
AcDbSymbolTableRecord
100
AcDbLayerTableRecord
2
SK6
70
0
62
5
6
CONTINUOUS
290
1
370
-3
390
0
0
LAYER
5
1cd
100
AcDbSymbolTableRecord
100
AcDbLayerTableRecord
2
SK2
70
0
62
7
6
CONTINUOUS
290
1
370
-3
390
0
0
ENDTAB
0
TABLE
2
STYLE
5
1e1
100
AcDbSymbolTable
0
STYLE
5
11
100
AcDbSymbolTableRecord
100
AcDbTextStyleTableRecord
2
Standard
3
txt
70
0
71
0
40
0
41
1
42
0
50
0
0
STYLE
5
139
100
AcDbSymbolTableRecord
100
AcDbTextStyleTableRecord
2
iso_b_vert
3
simplex.shx
70
0
71
0
40
0
41
1
42
0
50
0
0
STYLE
5
13A
100
AcDbSymbolTableRecord
100
AcDbTextStyleTableRecord
2
DWGDirectTextStyle
3
simplex
70
0
71
0
40
0
41
1
42
0
50
0
0
ENDTAB
0
TABLE
2
DIMSTYLE
5
1e2
100
AcDbSymbolTable
100
AcDbDimStyleTable
0
DIMSTYLE
105
27
100
AcDbSymbolTableRecord
100
AcDbDimStyleTableRecord
2
Standard
70
0
3
<>
41
0.18
42
0.0625
44
0.18
140
0.18
147
0.09
73
0
74
0
77
1
271
2
275
0
278
52
280
0
340
11
0
ENDTAB
0
TABLE
2
VIEW
5
1e3
100
AcDbSymbolTable
0
ENDTAB
0
TABLE
2
UCS
5
1e4
100
AcDbSymbolTable
0
ENDTAB
0
TABLE
2
APPID
5
1e5
100
AcDbSymbolTable
0
APPID
5
12
100
AcDbSymbolTableRecord
100
AcDbRegAppTableRecord
2
ACAD
70
0
0
ENDTAB
0
TABLE
2
BLOCK_RECORD
5
1e6
100
AcDbSymbolTable
0
BLOCK_RECORD
5
1F
100
AcDbSymbolTableRecord
100
AcDbBlockTableRecord
2
*Model_Space
340
0
70
0
0
BLOCK_RECORD
5
1B
100
AcDbSymbolTableRecord
100
AcDbBlockTableRecord
2
*Paper_Space
340
0
70
0
0
BLOCK_RECORD
5
23
100
AcDbSymbolTableRecord
100
AcDbBlockTableRecord
2
*Paper_Space0
340
0
70
0
0
BLOCK_RECORD
5
13C
100
AcDbSymbolTableRecord
100
AcDbBlockTableRecord
2
DimnDraft3D1
340
0
70
0
0
BLOCK_RECORD
5
147
100
AcDbSymbolTableRecord
100
AcDbBlockTableRecord
2
DimnDraft3D2
340
0
70
0
0
BLOCK_RECORD
5
151
100
AcDbSymbolTableRecord
100
AcDbBlockTableRecord
2
DimnDraft3D3
340
0
70
0
0
BLOCK_RECORD
5
15B
100
AcDbSymbolTableRecord
100
AcDbBlockTableRecord
2
DimnDraft3D4
340
0
70
0
0
BLOCK_RECORD
5
166
100
AcDbSymbolTableRecord
100
AcDbBlockTableRecord
2
DimnDraft3D5
340
0
70
0
0
ENDTAB
0
ENDSEC
0
SECTION
2
BLOCKS
0
BLOCK
5
20
100
AcDbEntity
8
0
100
AcDbBlockBegin
2
*Model_Space
70
0
10
0
20
0
30
0
3
*Model_Space
0
ENDBLK
5
21
100
AcDbEntity
8
0
100
AcDbBlockEnd
0
BLOCK
5
1C
100
AcDbEntity
8
0
100
AcDbBlockBegin
2
*Paper_Space
70
0
10
0
20
0
30
0
3
*Paper_Space
0
ENDBLK
5
1D
100
AcDbEntity
8
0
100
AcDbBlockEnd
0
BLOCK
5
24
100
AcDbEntity
8
0
100
AcDbBlockBegin
2
*Paper_Space0
70
0
10
0
20
0
30
0
3
*Paper_Space0
0
ENDBLK
5
25
100
AcDbEntity
8
0
100
AcDbBlockEnd
0
BLOCK
5
144
100
AcDbEntity
8
0
100
AcDbBlockBegin
2
DimnDraft3D1
70
0
10
0
20
0
30
0
3
DimnDraft3D1
0
MTEXT
5
13D
100
AcDbEntity
8
2
62
256
6
ByLayer
370
18
48
1
60
0
100
AcDbMText
10
181.775
20
23.7205
30
0
210
0
220
0
230
1
1
\W0.7121;3.5
40
3.5
41
0
44
1.084337
50
0
71
7
72
5
7
iso_b_vert
0
LINE
5
13F
100
AcDbEntity
8
2
62
256
6
ByLayer
370
13
48
1
60
0
100
AcDbLine
10
196.5
20
6
30
0
11
196.5
21
24.8455
31
0
39
0
210
0
220
0
230
1
0
LINE
5
140
100
AcDbEntity
8
2
62
256
6
ByLayer
370
13
48
1
60
0
100
AcDbLine
10
200
20
2.5
30
0
11
200
21
24.8455
31
0
39
0
210
0
220
0
230
1
0
LINE
5
141
100
AcDbEntity
8
2
62
256
6
ByLayer
370
13
48
1
60
0
100
AcDbLine
10
208.75
20
22.8455
30
0
11
180.9
21
22.8455
31
0
39
0
210
0
220
0
230
1
0
SOLID
5
142
100
AcDbEntity
8
2
62
256
6
ByLayer
370
13
48
1
60
0
100
AcDbTrace
10
196.5
20
22.8455
30
0
11
193.000003
21
21.907678
31
0
12
192.999997
22
23.783322
32
0
13
196.5
23
22.8455
33
0
39
0
210
0
220
0
230
1
0
SOLID
5
143
100
AcDbEntity
8
2
62
256
6
ByLayer
370
13
48
1
60
0
100
AcDbTrace
10
200
20
22.8455
30
0
11
203.499997
21
23.783322
31
0
12
203.500003
22
21.907678
32
0
13
200
23
22.8455
33
0
39
0
210
0
220
0
230
1
0
ENDBLK
5
145
100
AcDbEntity
8
0
100
AcDbBlockEnd
0
BLOCK
5
14E
100
AcDbEntity
8
0
100
AcDbBlockBegin
2
DimnDraft3D2
70
0
10
0
20
0
30
0
3
DimnDraft3D2
0
MTEXT
5
148
100
AcDbEntity
8
2
62
256
6
ByLayer
370
18
48
1
60
0
100
AcDbMText
10
166.767105
20
33.7205
30
0
210
0
220
0
230
1
1
\W0.7346;60.0
40
3.5
41
0
44
1.084337
50
0
71
7
72
5
7
iso_b_vert
0
LINE
5
149
100
AcDbEntity
8
2
62
256
6
ByLayer
370
13
48
1
60
0
100
AcDbLine
10
200
20
2.5
30
0
11
200
21
34.8455
31
0
39
0
210
0
220
0
230
1
0
LINE
5
14A
100
AcDbEntity
8
2
62
256
6
ByLayer
370
13
48
1
60
0
100
AcDbLine
10
140
20
8
30
0
11
140
21
34.8455
31
0
39
0
210
0
220
0
230
1
0
LINE
5
14B
100
AcDbEntity
8
2
62
256
6
ByLayer
370
13
48
1
60
0
100
AcDbLine
10
200
20
32.8455
30
0
11
140
21
32.8455
31
0
39
0
210
0
220
0
230
1
0
SOLID
5
14C
100
AcDbEntity
8
2
62
256
6
ByLayer
370
13
48
1
60
0
100
AcDbTrace
10
200
20
32.8455
30
0
11
196.500003
21
31.907678
31
0
12
196.499997
22
33.783322
32
0
13
200
23
32.8455
33
0
39
0
210
0
220
0
230
1
0
SOLID
5
14D
100
AcDbEntity
8
2
62
256
6
ByLayer
370
13
48
1
60
0
100
AcDbTrace
10
140
20
32.8455
30
0
11
143.499997
21
33.783322
31
0
12
143.500003
22
31.907678
32
0
13
140
23
32.8455
33
0
39
0
210
0
220
0
230
1
0
ENDBLK
5
14F
100
AcDbEntity
8
0
100
AcDbBlockEnd
0
BLOCK
5
158
100
AcDbEntity
8
0
100
AcDbBlockBegin
2
DimnDraft3D3
70
0
10
0
20
0
30
0
3
DimnDraft3D3
0
MTEXT
5
152
100
AcDbEntity
8
2
62
256
6
ByLayer
370
18
48
1
60
0
100
AcDbMText
10
95.459211
20
43.7205
30
0
210
0
220
0
230
1
1
\W0.7468;200.0
40
3.5
41
0
44
1.084337
50
0
71
7
72
5
7
iso_b_vert
0
LINE
5
153
100
AcDbEntity
8
2
62
256
6
ByLayer
370
13
48
1
60
0
100
AcDbLine
10
200
20
2.5
30
0
11
200
21
44.8455
31
0
39
0
210
0
220
0
230
1
0
LINE
5
154
100
AcDbEntity
8
2
62
256
6
ByLayer
370
13
48
1
60
0
100
AcDbLine
10
0
20
8
30
0
11
0
21
44.8455
31
0
39
0
210
0
220
0
230
1
0
LINE
5
155
100
AcDbEntity
8
2
62
256
6
ByLayer
370
13
48
1
60
0
100
AcDbLine
10
200
20
42.8455
30
0
11
0
21
42.8455
31
0
39
0
210
0
220
0
230
1
0
SOLID
5
156
100
AcDbEntity
8
2
62
256
6
ByLayer
370
13
48
1
60
0
100
AcDbTrace
10
200
20
42.8455
30
0
11
196.500003
21
41.907678
31
0
12
196.499997
22
43.783322
32
0
13
200
23
42.8455
33
0
39
0
210
0
220
0
230
1
0
SOLID
5
157
100
AcDbEntity
8
2
62
256
6
ByLayer
370
13
48
1
60
0
100
AcDbTrace
10
0
20
42.8455
30
0
11
3.499997
21
43.783322
31
0
12
3.500003
22
41.907678
32
0
13
0
23
42.8455
33
0
39
0
210
0
220
0
230
1
0
ENDBLK
5
159
100
AcDbEntity
8
0
100
AcDbBlockEnd
0
BLOCK
5
163
100
AcDbEntity
8
0
100
AcDbBlockBegin
2
DimnDraft3D4
70
0
10
0
20
0
30
0
3
DimnDraft3D4
0
MTEXT
5
15C
100
AcDbEntity
8
2
62
256
6
ByLayer
370
18
48
1
60
0
100
AcDbMText
10
225.975
20
-22.465789
30
0
210
0
220
0
230
1
1
\W0.6563;12.0
40
3.5
41
0
44
1.084337
50
90
71
7
72
5
7
iso_b_vert
0
MTEXT
5
15D
100
AcDbEntity
8
2
62
256
6
ByLayer
370
18
48
1
60
0
100
AcDbMText
10
225.975
20
-31.188446
30
0
210
0
220
0
230
1
1
%%c
40
3.5
41
0
44
1.084337
50
90
71
7
72
5
7
iso_b_vert
0
LINE
5
15E
100
AcDbEntity
8
2
62
256
6
ByLayer
370
13
48
1
60
0
100
AcDbLine
10
196.5
20
-6
30
0
11
229.725
21
-6
31
0
39
0
210
0
220
0
230
1
0
LINE
5
15F
100
AcDbEntity
8
2
62
256
6
ByLayer
370
13
48
1
60
0
100
AcDbLine
10
196.5
20
6
30
0
11
229.725
21
6
31
0
39
0
210
0
220
0
230
1
0
LINE
5
160
100
AcDbEntity
8
2
62
256
6
ByLayer
370
13
48
1
60
0
100
AcDbLine
10
227.725
20
6
30
0
11
227.725
21
-33.840789
31
0
39
0
210
0
220
0
230
1
0
SOLID
5
161
100
AcDbEntity
8
2
62
256
6
ByLayer
370
13
48
1
60
0
100
AcDbTrace
10
227.725
20
-6
30
0
11
226.787178
21
-2.500003
31
0
12
228.662822
22
-2.499997
32
0
13
227.725
23
-6
33
0
39
0
210
0
220
0
230
1
0
SOLID
5
162
100
AcDbEntity
8
2
62
256
6
ByLayer
370
13
48
1
60
0
100
AcDbTrace
10
227.725
20
6
30
0
11
228.662822
21
2.500003
31
0
12
226.787178
22
2.499997
32
0
13
227.725
23
6
33
0
39
0
210
0
220
0
230
1
0
ENDBLK
5
164
100
AcDbEntity
8
0
100
AcDbBlockEnd
0
BLOCK
5
16F
100
AcDbEntity
8
0
100
AcDbBlockBegin
2
DimnDraft3D5
70
0
10
0
20
0
30
0
3
DimnDraft3D5
0
MTEXT
5
167
100
AcDbEntity
8
SK2
62
256
6
ByLayer
370
18
48
1
60
0
100
AcDbMText
10
-20.725
20
-24.465789
30
0
210
0
220
0
230
1
1
\W0.6563;16.0
40
3.5
41
0
44
1.084337
50
90
71
7
72
5
7
iso_b_vert
0
MTEXT
5
169
100
AcDbEntity
8
SK2
62
256
6
ByLayer
370
18
48
1
60
0
100
AcDbMText
10
-20.725
20
-33.188446
30
0
210
0
220
0
230
1
1
%%c
40
3.5
41
0
44
1.084337
50
90
71
7
72
5
7
iso_b_vert
0
LINE
5
16A
100
AcDbEntity
8
SK2
62
256
6
ByLayer
370
13
48
1
60
0
100
AcDbLine
10
0
20
8
30
0
11
-20.975
21
8
31
0
39
0
210
0
220
0
230
1
0
LINE
5
16B
100
AcDbEntity
8
SK2
62
256
6
ByLayer
370
13
48
1
60
0
100
AcDbLine
10
0
20
-8
30
0
11
-20.975
21
-8
31
0
39
0
210
0
220
0
230
1
0
LINE
5
16C
100
AcDbEntity
8
SK2
62
256
6
ByLayer
370
13
48
1
60
0
100
AcDbLine
10
-18.975
20
8
30
0
11
-18.975
21
-35.840789
31
0
39
0
210
0
220
0
230
1
0
SOLID
5
16D
100
AcDbEntity
8
SK2
62
256
6
ByLayer
370
13
48
1
60
0
100
AcDbTrace
10
-18.975
20
8
30
0
11
-18.037178
21
4.500003
31
0
12
-19.912822
22
4.499997
32
0
13
-18.975
23
8
33
0
39
0
210
0
220
0
230
1
0
SOLID
5
16E
100
AcDbEntity
8
SK2
62
256
6
ByLayer
370
13
48
1
60
0
100
AcDbTrace
10
-18.975
20
-8
30
0
11
-19.912822
21
-4.500003
31
0
12
-18.037178
22
-4.499997
32
0
13
-18.975
23
-8
33
0
39
0
210
0
220
0
230
1
0
ENDBLK
5
170
100
AcDbEntity
8
0
100
AcDbBlockEnd
0
ENDSEC
0
SECTION
2
ENTITIES
0
ARC
5
C0
100
AcDbEntity
8
1
62
256
6
ByLayer
370
18
48
1
60
0
100
AcDbCircle
39
0
10
-144
20
-13.995377
30
0
40
7.211
210
0
220
0
230
-1
100
AcDbArc
50
56.309389
51
60.963311
0
ARC
5
C1
100
AcDbEntity
8
1
62
256
6
ByLayer
370
18
48
1
60
0
100
AcDbCircle
39
0
10
-144
20
13.995377
30
0
40
7.211
210
0
220
0
230
-1
100
AcDbArc
50
299.036689
51
303.690611
0
ARC
5
C2
100
AcDbEntity
8
1
62
256
6
ByLayer
370
18
48
1
60
0
100
AcDbCircle
39
0
10
-142.913315
20
-10.225672
30
0
40
3.49999999999998
210
0
220
0
230
-1
100
AcDbArc
50
46.407986
51
90
0
ARC
5
C3
100
AcDbEntity
8
1
62
256
6
ByLayer
370
18
48
1
60
0
100
AcDbCircle
39
0
10
-142.913315
20
10.225672
30
0
40
3.49999999999998
210
0
220
0
230
-1
100
AcDbArc
50
270
51
313.592014
0
ELLIPSE
5
C4
100
AcDbEntity
8
1
62
256
6
ByLayer
370
18
48
1
60
0
100
AcDbEllipse
10
196.5
20
2.471965
30
0
11
-3.5
21
4.28612223837832E-16
31
0
210
0
220
0
230
1
40
0.999439
41
2.35678339764954
42
3.14159253604709
0
ELLIPSE
5
C5
100
AcDbEntity
8
1
62
256
6
ByLayer
370
18
48
1
60
0
100
AcDbEllipse
10
196.5
20
2.471965
30
0
11
-3.5
21
4.28612223837832E-16
31
0
210
0
220
0
230
1
40
0.999439
41
-0.78539816095709
42
-2.53907704993966E-16
0
ELLIPSE
5
C6
100
AcDbEntity
8
1
62
256
6
ByLayer
370
18
48
1
60
0
100
AcDbEllipse
10
196.5
20
2.471965
30
0
11
-3.5
21
4.28612223837832E-16
31
0
210
0
220
0
230
1
40
0.999439
41
0
42
0.627140495606071
0
ELLIPSE
5
C7
100
AcDbEntity
8
1
62
256
6
ByLayer
370
18
48
1
60
0
100
AcDbEllipse
10
196.5
20
2.471965
30
0
11
-3.5
21
4.28612223837832E-16
31
0
210
0
220
0
230
1
40
0.999439
41
3.14159253604708
42
-0.785398160957101
0
ELLIPSE
5
C8
100
AcDbEntity
8
1
62
256
6
ByLayer
370
13
48
1
60
0
100
AcDbEllipse
10
196.5
20
2.495561
30
0
11
-1.56174292675442
21
1.91252031114062E-16
31
0
210
0
220
0
230
1
40
0.999439
41
1.85697567878559
42
-3.1415925069613
0
ELLIPSE
5
C9
100
AcDbEntity
8
1
62
256
6
ByLayer
370
13
48
1
60
0
100
AcDbEllipse
10
196.5
20
2.495561
30
0
11
-1.56174292675442
21
1.91252031114062E-16
31
0
210
0
220
0
230
1
40
0.999439
41
-2.3561947632022
42
-2.84514484507931E-16
0
ELLIPSE
5
CA
100
AcDbEntity
8
1
62
256
6
ByLayer
370
13
48
1
60
0
100
AcDbEllipse
10
196.5
20
2.495561
30
0
11
-1.56174292675442
21
1.91252031114062E-16
31
0
210
0
220
0
230
1
40
0.999439
41
0
42
1.28451850916772
0
ELLIPSE
5
CB
100
AcDbEntity
8
1
62
256
6
ByLayer
370
13
48
1
60
0
100
AcDbEllipse
10
196.5
20
2.495561
30
0
11
-1.56174292675442
21
1.91252031114062E-16
31
0
210
0
220
0
230
1
40
0.999439
41
-3.1415925069613
42
-2.35619412271221
0
ELLIPSE
5
CC
100
AcDbEntity
8
1
62
256
6
ByLayer
370
18
48
1
60
0
100
AcDbEllipse
10
196.5
20
2.471965
30
0
11
-1.70249319811555
21
2.08488398775168E-16
31
0
210
0
220
0
230
1
40
0.999439
41
2.02730904446834
42
-3.14159256075806
0
ELLIPSE
5
CD
100
AcDbEntity
8
1
62
256
6
ByLayer
370
18
48
1
60
0
100
AcDbEllipse
10
196.5
20
2.471965
30
0
11
-1.70249319811555
21
2.08488398775168E-16
31
0
210
0
220
0
230
1
40
0.999439
41
-2.35619433073776
42
-2.60992809974964E-16
0
ELLIPSE
5
CE
100
AcDbEntity
8
1
62
256
6
ByLayer
370
18
48
1
60
0
100
AcDbEllipse
10
196.5
20
2.471965
30
0
11
-1.70249319811555
21
2.08488398775168E-16
31
0
210
0
220
0
230
1
40
0.999439
41
0
42
1.11418559977664
0
ELLIPSE
5
CF
100
AcDbEntity
8
1
62
256
6
ByLayer
370
18
48
1
60
0
100
AcDbEllipse
10
196.5
20
2.471965
30
0
11
-1.70249319811555
21
2.08488398775168E-16
31
0
210
0
220
0
230
1
40
0.999439
41
-3.14159256075807
42
-2.35619433073776
0
ELLIPSE
5
D0
100
AcDbEntity
8
1
62
256
6
ByLayer
370
18
48
1
60
0
100
AcDbEllipse
10
196.5
20
2.486798
30
0
11
1.66375458471784
21
0
31
0
210
0
220
0
230
1
40
0.999439
41
-3.14159243242914
42
-2.36051380663393
0
ELLIPSE
5
D1
100
AcDbEntity
8
1
62
256
6
ByLayer
370
13
48
1
60
0
100
AcDbEllipse
10
196.5
20
2.486798
30
0
11
1.66375458471784
21
0
31
0
210
0
220
0
230
1
40
0.999439
41
0
42
6.28318530717959
0
ELLIPSE
5
D2
100
AcDbEntity
8
1
62
256
6
ByLayer
370
18
48
1
60
0
100
AcDbEllipse
10
196.5
20
2.486798
30
0
11
1.66375458471784
21
0
31
0
210
0
220
0
230
1
40
0.999439
41
-2.35619464486753
42
-2.16769893086249
0
ELLIPSE
5
D3
100
AcDbEntity
8
1
62
256
6
ByLayer
370
18
48
1
60
0
100
AcDbEllipse
10
196.5
20
2.486798
30
0
11
1.66375458471784
21
0
31
0
210
0
220
0
230
1
40
0.999439
41
-2.16769893086249
42
-1.98165781424243
0
ELLIPSE
5
D4
100
AcDbEntity
8
1
62
256
6
ByLayer
370
18
48
1
60
0
100
AcDbEllipse
10
196.5
20
2.486798
30
0
11
1.66375458471784
21
0
31
0
210
0
220
0
230
1
40
0.999439
41
-1.15983663833808
42
-2.67069727603362E-16
0
ELLIPSE
5
D5
100
AcDbEntity
8
1
62
256
6
ByLayer
370
18
48
1
60
0
100
AcDbEllipse
10
196.5
20
2.486798
30
0
11
1.66375458471784
21
0
31
0
210
0
220
0
230
1
40
0.999439
41
0
42
3.14159243242914
0
ELLIPSE
5
D6
100
AcDbEntity
8
1
62
256
6
ByLayer
370
18
48
1
60
0
100
AcDbEllipse
10
195.85427
20
1.854341
30
0
11
0.170940395247331
21
-0.170779085797343
31
0
210
0
220
0
230
-1
40
0.504137
41
-0.0571912468943928
42
2.75357438053251
0
ELLIPSE
5
D7
100
AcDbEntity
8
1
62
256
6
ByLayer
370
18
48
1
60
0
100
AcDbEllipse
10
197.14573
20
3.145076
30
0
11
0.170940395247326
21
-0.170779085797361
31
0
210
0
220
0
230
-1
40
0.504137
41
-0.388016850633694
42
0.0579502575244509
0
ELLIPSE
5
D8
100
AcDbEntity
8
1
62
256
6
ByLayer
370
18
48
1
60
0
100
AcDbEllipse
10
196.5
20
2.499709
30
0
11
0.7912
21
0
31
0
210
0
220
0
230
1
40
0.999439
41
-1.83259571459405
42
-0.785398163397452
0
ELLIPSE
5
D9
100
AcDbEntity
8
1
62
256
6
ByLayer
370
18
48
1
60
0
100
AcDbEllipse
10
196.5
20
2.466208
30
0
11
-1.03505
21
1.26752880652385E-16
31
0
210
0
220
0
230
1
40
0.999439
41
1.83259571459404
42
2.87979326579063
0
ELLIPSE
5
DA
100
AcDbEntity
8
1
62
256
6
ByLayer
370
18
48
1
60
0
100
AcDbEllipse
10
197.145624
20
1.854447
30
0
11
0.170940395247807
21
0.170779085797404
31
0
210
0
220
0
230
-1
40
0.504137
41
-2.6833977316734
42
-1.57117583211186
0
ELLIPSE
5
DB
100
AcDbEntity
8
1
62
256
6
ByLayer
370
18
48
1
60
0
100
AcDbEllipse
10
196.5
20
2.466208
30
0
11
-1.03505
21
1.26752880652385E-16
31
0
210
0
220
0
230
1
40
0.999439
41
-0.261799387799167
42
0.785398163397441
0
ELLIPSE
5
DC
100
AcDbEntity
8
1
62
256
6
ByLayer
370
18
48
1
60
0
100
AcDbEllipse
10
196.5
20
2.499709
30
0
11
0.7912
21
0
31
0
210
0
220
0
230
1
40
0.999439
41
0.291333426776514
42
1.15921514531151
0
ELLIPSE
5
DD
100
AcDbEntity
8
1
62
256
6
ByLayer
370
18
48
1
60
0
100
AcDbEllipse
10
196.5
20
2.466208
30
0
11
-1.03505
21
1.26752880652385E-16
31
0
210
0
220
0
230
1
40
0.999439
41
-2.35619449019235
42
-1.30899693899573
0
ELLIPSE
5
DE
100
AcDbEntity
8
1
62
256
6
ByLayer
370
18
48
1
60
0
100
AcDbEllipse
10
197.381939
20
2.735891
30
0
11
0.0625789138736814
21
-0.233327238414293
31
0
210
0
220
0
230
-1
40
0.504383
41
2.09163919315908
42
2.92608685520402
0
ELLIPSE
5
DF
100
AcDbEntity
8
1
62
256
6
ByLayer
370
18
48
1
60
0
100
AcDbEllipse
10
196.5
20
2.499709
30
0
11
0.7912
21
0
31
0
210
0
220
0
230
1
40
0.999439
41
1.4225356923651
42
2.25612118138255
0
ELLIPSE
5
E0
100
AcDbEntity
8
1
62
256
6
ByLayer
370
18
48
1
60
0
100
AcDbEllipse
10
196.5
20
2.466208
30
0
11
-1.03505
21
1.26752880652385E-16
31
0
210
0
220
0
230
1
40
0.999439
41
-1.30899693899573
42
-0.261799387799167
0
ELLIPSE
5
E1
100
AcDbEntity
8
1
62
256
6
ByLayer
370
18
48
1
60
0
100
AcDbEllipse
10
195.617917
20
2.73593
30
0
11
0.0625789138715972
21
0.233327238412233
31
0
210
0
220
0
230
-1
40
0.504383
41
3.08383199342371
42
-2.07186345982223
0
ELLIPSE
5
E2
100
AcDbEntity
8
1
62
256
6
ByLayer
370
18
48
1
60
0
100
AcDbEllipse
10
195.854376
20
3.14497
30
0
11
0.170940395247584
21
0.17077908579734
31
0
210
0
220
0
230
-1
40
0.504137
41
0.215316201030239
42
0.458196897258618
0
ELLIPSE
5
E3
100
AcDbEntity
8
1
62
256
6
ByLayer
370
18
48
1
60
0
100
AcDbEllipse
10
196.5
20
2.472195
30
0
11
-1.475
21
1.80629437188801E-16
31
0
210
0
220
0
230
1
40
0.999439
41
1.73474843054688
42
-3.14159213639365
0
ELLIPSE
5
E4
100
AcDbEntity
8
1
62
256
6
ByLayer
370
18
48
1
60
0
100
AcDbEllipse
10
196.5
20
2.472195
30
0
11
-1.475
21
1.80629437188801E-16
31
0
210
0
220
0
230
1
40
0.999439
41
0.78539837642729
42
1.4069427243846
0
ELLIPSE
5
E5
100
AcDbEntity
8
1
62
256
6
ByLayer
370
18
48
1
60
0
100
AcDbEllipse
10
196.5
20
2.472195
30
0
11
-1.475
21
1.80629437188801E-16
31
0
210
0
220
0
230
1
40
0.999439
41
3.14159249243907
42
-3.01246429653859E-16
0
ELLIPSE
5
E6
100
AcDbEntity
8
1
62
256
6
ByLayer
370
18
48
1
60
0
100
AcDbEllipse
10
196.5
20
2.472195
30
0
11
-1.475
21
1.80629437188801E-16
31
0
210
0
220
0
230
1
40
0.999439
41
0
42
0.785398020481846
0
ELLIPSE
5
E7
100
AcDbEntity
8
1
62
256
6
ByLayer
370
18
48
1
60
0
100
AcDbEllipse
10
196.263685
20
1.618265
30
0
11
0.233470247378155
21
-0.062499146242035
31
0
210
0
220
0
230
-1
40
0.503892
41
-2.92570734957923
42
-1.57060672912622
0
ELLIPSE
5
E8
100
AcDbEntity
8
1
62
256
6
ByLayer
370
18
48
1
60
0
100
AcDbEllipse
10
196.5
20
2.499709
30
0
11
0.7912
21
0
31
0
210
0
220
0
230
1
40
0.999439
41
-2.87979326579065
42
-1.83259571459409
0
ELLIPSE
5
E9
100
AcDbEntity
8
1
62
256
6
ByLayer
370
18
48
1
60
0
100
AcDbEllipse
10
196.5
20
2.499709
30
0
11
0.7912
21
0
31
0
210
0
220
0
230
1
40
0.999439
41
-0.785398163397445
42
0.197560653049336
0
ELLIPSE
5
EA
100
AcDbEntity
8
1
62
256
6
ByLayer
370
18
48
1
60
0
100
AcDbEllipse
10
196.5
20
2.499709
30
0
11
-1.475
21
1.80629437188801E-16
31
0
210
0
220
0
230
1
40
0.999439
41
0
42
0.785398020481846
0
ELLIPSE
5
EB
100
AcDbEntity
8
1
62
256
6
ByLayer
370
18
48
1
60
0
100
AcDbEllipse
10
196.5
20
2.499709
30
0
11
-1.475
21
1.80629437188801E-16
31
0
210
0
220
0
230
1
40
0.999439
41
3.14159249243907
42
-3.01246429653859E-16
0
ELLIPSE
5
EC
100
AcDbEntity
8
1
62
256
6
ByLayer
370
18
48
1
60
0
100
AcDbEllipse
10
196.5
20
2.499709
30
0
11
-0.7912
21
9.68908547144265E-17
31
0
210
0
220
0
230
1
40
0.999439
41
-0.655333377537656
42
0.261799387799147
0
ELLIPSE
5
ED
100
AcDbEntity
8
1
62
256
6
ByLayer
370
18
48
1
60
0
100
AcDbEllipse
10
197.145624
20
1.854447
30
0
11
0.170940395246762
21
0.170779085795222
31
0
210
0
220
0
230
-1
40
0.504137
41
-1.57117583211986
42
-0.216075211661206
0
ELLIPSE
5
EE
100
AcDbEntity
8
1
62
256
6
ByLayer
370
18
48
1
60
0
100
AcDbEllipse
10
195.618061
20
2.263527
30
0
11
0.0625789138724977
21
-0.233327238408959
31
0
210
0
220
0
230
-1
40
0.504383
41
-2.92570703928571
42
-1.57060641882248
0
ELLIPSE
5
EF
100
AcDbEntity
8
1
62
256
6
ByLayer
370
18
48
1
60
0
100
AcDbEllipse
10
197.382083
20
2.263488
30
0
11
0.0625789138716002
21
0.233327238412237
31
0
210
0
220
0
230
-1
40
0.504383
41
1.06972873518686
42
-3.08421180933748
0
ELLIPSE
5
F0
100
AcDbEntity
8
1
62
256
6
ByLayer
370
18
48
1
60
0
100
AcDbEllipse
10
196.736354
20
1.61812
30
0
11
0.233470247378506
21
0.0624991462424393
31
0
210
0
220
0
230
-1
40
0.503892
41
0.280682520774569
42
-3.08421149904668
0
ELLIPSE
5
F1
100
AcDbEntity
8
1
62
256
6
ByLayer
370
18
48
1
60
0
100
AcDbEllipse
10
196.263685
20
1.618265
30
0
11
0.233470247376684
21
-0.0624991462429857
31
0
210
0
220
0
230
-1
40
0.503892
41
-1.57060672913704
42
-0.215506108678758
0
ELLIPSE
5
F2
100
AcDbEntity
8
1
62
256
6
ByLayer
370
18
48
1
60
0
100
AcDbEllipse
10
196.5
20
2.466208
30
0
11
-1.03505
21
1.26752880652385E-16
31
0
210
0
220
0
230
1
40
0.999439
41
0.785398163397441
42
1.83259571459404
0
ELLIPSE
5
F3
100
AcDbEntity
8
1
62
256
6
ByLayer
370
18
48
1
60
0
100
AcDbEllipse
10
196.5
20
2.466208
30
0
11
-1.03505
21
1.26752880652385E-16
31
0
210
0
220
0
230
1
40
0.999439
41
2.87979326579063
42
-2.35619449019235
0
ELLIPSE
5
F4
100
AcDbEntity
8
1
62
256
6
ByLayer
370
18
48
1
60
0
100
AcDbEllipse
10
196.5
20
2.466208
30
0
11
-1.1
21
1.34706698920462E-16
31
0
210
0
220
0
230
1
40
0.999439
41
0
42
6.28318530717959
0
ELLIPSE
5
F5
100
AcDbEntity
8
1
62
256
6
ByLayer
370
18
48
1
60
0
100
AcDbEllipse
10
196.5
20
-2.613611
30
0
11
-1.1
21
1.34706698920462E-16
31
0
210
0
220
0
230
1
40
0.999439
41
2.35619476484275
42
2.84520301206858
0
ELLIPSE
5
F6
100
AcDbEntity
8
1
62
256
6
ByLayer
370
18
48
1
60
0
100
AcDbEllipse
10
196.5
20
-2.613611
30
0
11
-1.1
21
1.34706698920462E-16
31
0
210
0
220
0
230
1
40
0.999439
41
-2.18173766907592
42
-4.03944076126766E-16
0
ELLIPSE
5
F7
100
AcDbEntity
8
1
62
256
6
ByLayer
370
18
48
1
60
0
100
AcDbEllipse
10
196.5
20
-2.613611
30
0
11
-1.1
21
1.34706698920462E-16
31
0
210
0
220
0
230
1
40
0.999439
41
0
42
2.35619453219845
0
ELLIPSE
5
F8
100
AcDbEntity
8
1
62
256
6
ByLayer
370
18
48
1
60
0
100
AcDbEllipse
10
196.5
20
-2.53583
30
0
11
1.1
21
0
31
0
210
0
220
0
230
1
40
0.999439
41
2.03526081503791
42
2.35619385549666
0
ELLIPSE
5
F9
100
AcDbEntity
8
1
62
256
6
ByLayer
370
18
48
1
60
0
100
AcDbEllipse
10
196.5
20
-2.53583
30
0
11
1.1
21
0
31
0
210
0
220
0
230
1
40
0.999439
41
2.35619476484275
42
-3.14159253723498
0
ELLIPSE
5
FA
100
AcDbEntity
8
1
62
256
6
ByLayer
370
18
48
1
60
0
100
AcDbEllipse
10
196.5
20
-2.623661
30
0
11
0.8
21
0
31
0
210
0
220
0
230
1
40
0.999439
41
0
42
6.28318530717959
0
ELLIPSE
5
FB
100
AcDbEntity
8
1
62
256
6
ByLayer
370
18
48
1
60
0
100
AcDbEllipse
10
194
20
9.424764
30
0
11
-9
21
1.10214571844014E-15
31
0
210
0
220
0
230
1
40
0.999439
41
0.493341737505346
42
1.46047050243744
0
ELLIPSE
5
FC
100
AcDbEntity
8
1
62
256
6
ByLayer
370
18
48
1
60
0
100
AcDbEllipse
10
196.367
20
-2.655267
30
0
11
-3
21
3.67381906146713E-16
31
0
210
0
220
0
230
1
40
0.999439
41
-2.8575605462437
42
-1.57079632679489
0
ELLIPSE
5
FD
100
AcDbEntity
8
1
62
256
6
ByLayer
370
18
48
1
60
0
100
AcDbEllipse
10
194
20
9.408013
30
0
11
-9
21
1.10214571844014E-15
31
0
210
0
220
0
230
1
40
0.999439
41
1.46047050243744
42
1.53830969972616
0
ELLIPSE
5
FE
100
AcDbEntity
8
1
62
256
6
ByLayer
370
18
48
1
60
0
100
AcDbEllipse
10
196.3
20
-2.612667
30
0
11
1.1
21
0
31
0
210
0
220
0
230
1
40
0.999439
41
-3.14159253723499
42
-2.35619453219845
0
ELLIPSE
5
FF
100
AcDbEntity
8
1
62
256
6
ByLayer
370
18
48
1
60
0
100
AcDbEllipse
10
196.3
20
-2.612667
30
0
11
1.1
21
0
31
0
210
0
220
0
230
1
40
0.999439
41
0
42
6.28318530717959
0
ELLIPSE
5
100
100
AcDbEntity
8
1
62
256
6
ByLayer
370
18
48
1
60
0
100
AcDbEllipse
10
196.3
20
-2.612667
30
0
11
1.1
21
0
31
0
210
0
220
0
230
1
40
0.999439
41
-2.35619453219845
42
-1.48440251185141
0
ELLIPSE
5
101
100
AcDbEntity
8
1
62
256
6
ByLayer
370
18
48
1
60
0
100
AcDbEllipse
10
196.3
20
-2.612667
30
0
11
1.1
21
0
31
0
210
0
220
0
230
1
40
0.999439
41
9.84696683366396E-05
42
-3.14159253723499
0
ELLIPSE
5
102
100
AcDbEntity
8
1
62
256
6
ByLayer
370
18
48
1
60
0
100
AcDbEllipse
10
194
20
9.397963
30
0
11
-9
21
1.10214571844014E-15
31
0
210
0
220
0
230
1
40
0.999439
41
1.53830969972616
42
1.5707963267949
0
ELLIPSE
5
103
100
AcDbEntity
8
1
62
256
6
ByLayer
370
18
48
1
60
0
100
AcDbEllipse
10
196.3
20
-2.547334
30
0
11
1.1
21
0
31
0
210
0
220
0
230
1
40
0.999439
41
-3.1119440822123
42
-2.35619453219845
0
ELLIPSE
5
104
100
AcDbEntity
8
1
62
256
6
ByLayer
370
18
48
1
60
0
100
AcDbEllipse
10
196.3
20
-2.547334
30
0
11
1.1
21
0
31
0
210
0
220
0
230
1
40
0.999439
41
0
42
6.28318530717959
0
ELLIPSE
5
105
100
AcDbEntity
8
1
62
256
6
ByLayer
370
18
48
1
60
0
100
AcDbEllipse
10
196.3
20
-2.547334
30
0
11
1.1
21
0
31
0
210
0
220
0
230
1
40
0.999439
41
-2.35619453219845
42
-1.79502744729697
0
ELLIPSE
5
106
100
AcDbEntity
8
1
62
256
6
ByLayer
370
18
48
1
60
0
100
AcDbEllipse
10
196.5
20
-2.526229
30
0
11
-1.25
21
1.53075794227797E-16
31
0
210
0
220
0
230
1
40
0.999439
41
0.778820125131697
42
2.35619414648739
0
ELLIPSE
5
107
100
AcDbEntity
8
1
62
256
6
ByLayer
370
18
48
1
60
0
100
AcDbEllipse
10
196.5
20
-2.526229
30
0
11
-1.25
21
1.53075794227797E-16
31
0
210
0
220
0
230
1
40
0.999439
41
0
42
0.778820474470194
0
ELLIPSE
5
108
100
AcDbEntity
8
1
62
256
6
ByLayer
370
18
48
1
60
0
100
AcDbEllipse
10
196.5
20
-2.471965
30
0
11
3.5
21
0
31
0
210
0
220
0
230
1
40
0.999439
41
-2.35619461014241
42
-2.2764765915136
0
ELLIPSE
5
109
100
AcDbEntity
8
1
62
256
6
ByLayer
370
18
48
1
60
0
100
AcDbEllipse
10
196.5
20
-2.471965
30
0
11
3.5
21
0
31
0
210
0
220
0
230
1
40
0.999439
41
-2.2764765915136
42
-2.53907704993966E-16
0
ELLIPSE
5
10A
100
AcDbEntity
8
1
62
256
6
ByLayer
370
18
48
1
60
0
100
AcDbEllipse
10
196.5
20
-2.471965
30
0
11
3.5
21
0
31
0
210
0
220
0
230
1
40
0.999439
41
0
42
2.2054960763068
0
ELLIPSE
5
10B
100
AcDbEntity
8
1
62
256
6
ByLayer
370
18
48
1
60
0
100
AcDbEllipse
10
196.5
20
-2.538631
30
0
11
2.96678110706207
21
0
31
0
210
0
220
0
230
1
40
0.999439
41
-2.35619451912749
42
-2.28060006970168
0
ELLIPSE
5
10C
100
AcDbEntity
8
1
62
256
6
ByLayer
370
18
48
1
60
0
100
AcDbEllipse
10
196.5
20
-2.538631
30
0
11
2.96678110706207
21
0
31
0
210
0
220
0
230
1
40
0.999439
41
-2.28060006970168
42
-2.99542479006452E-16
0
ELLIPSE
5
10D
100
AcDbEntity
8
1
62
256
6
ByLayer
370
18
48
1
60
0
100
AcDbEllipse
10
196.5
20
-2.538631
30
0
11
2.96678110706207
21
0
31
0
210
0
220
0
230
1
40
0.999439
41
0
42
1.80857568585886
0
ELLIPSE
5
10E
100
AcDbEntity
8
1
62
256
6
ByLayer
370
18
48
1
60
0
100
AcDbEllipse
10
196.5
20
-2.538631
30
0
11
-1.25
21
1.53075794227797E-16
31
0
210
0
220
0
230
1
40
0.999439
41
-0.373358494458773
42
-3.55470786991552E-16
0
ELLIPSE
5
10F
100
AcDbEntity
8
1
62
256
6
ByLayer
370
18
48
1
60
0
100
AcDbEllipse
10
196.5
20
-2.538631
30
0
11
-1.25
21
1.53075794227797E-16
31
0
210
0
220
0
230
1
40
0.999439
41
0
42
0.712650836011884
0
POINT
5
6C
100
AcDbEntity
8
81
62
256
6
ByLayer
370
18
48
1
60
0
100
AcDbPoint
10
200
20
6
30
0
39
0
210
0
220
0
230
1
50
360
0
POINT
5
6E
100
AcDbEntity
8
80
62
256
6
ByLayer
370
18
48
1
60
0
100
AcDbPoint
10
0
20
0
30
0
39
0
210
0
220
0
230
1
50
360
0
SPLINE
5
110
100
AcDbEntity
8
1
62
256
6
ByLayer
370
18
48
1
60
0
100
AcDbSpline
70
4
71
3
72
18
73
14
40
0
40
0
40
0
40
0
40
0.125000000000015
40
0.125000000000015
40
0.25000000000003
40
0.25000000000003
40
0.500000000000063
40
0.500000000000063
40
0.750000000000095
40
0.750000000000095
40
0.875000000000048
40
0.875000000000048
40
1
40
1
40
1
40
1
41
1
10
196.039764320666
20
3.26215953104526
30
0
41
1
10
196.047238409039
20
3.24359531309113
30
0
41
1
10
196.047076259971
20
3.22264803455812
30
0
41
1
10
196.039307853309
20
3.18102967869262
30
0
41
1
10
196.031599574813
20
3.16035225939331
30
0
41
1
10
196.001984721963
20
3.10049519174513
30
0
41
1
10
195.973562502441
20
3.06308138599911
30
0
41
1
10
195.907523588694
20
2.99707728132574
30
0
41
1
10
195.869878962533
20
2.96845884265795
30
0
41
1
10
195.809372791127
20
2.93823795668734
30
0
41
1
10
195.788410852459
20
2.93027517012456
30
0
41
1
10
195.746246214942
20
2.92190240657433
30
0
41
1
10
195.724836590665
20
2.92137124970179
30
0
41
1
10
195.705869541583
20
2.92845216754986
30
0
0
SPLINE
5
111
100
AcDbEntity
8
1
62
256
6
ByLayer
370
18
48
1
60
0
100
AcDbSpline
70
4
71
3
72
8
73
4
40
0
40
0
40
0
40
0
40
1
40
1
40
1
40
1
41
1
10
196.501510560822
20
3.38581461645705
30
0
41
1
10
196.500519829284
20
3.39231934297476
30
0
41
1
10
196.499529157891
20
3.39882364290332
30
0
41
1
10
196.498538542904
20
3.40532754278848
30
0
0
SPLINE
5
112
100
AcDbEntity
8
1
62
256
6
ByLayer
370
18
48
1
60
0
100
AcDbSpline
70
4
71
3
72
8
73
4
40
0
40
0
40
0
40
0
40
1
40
1
40
1
40
1
41
1
10
195.562235835618
20
2.46955038346968
30
0
41
1
10
195.568871840684
20
2.46868870489831
30
0
41
1
10
195.575508223601
20
2.46782694754842
30
0
41
1
10
195.582145009425
20
2.46696510617878
30
0
0
SPLINE
5
113
100
AcDbEntity
8
1
62
256
6
ByLayer
370
18
48
1
60
0
100
AcDbSpline
70
4
71
3
72
14
73
10
40
0
40
0
40
0
40
0
40
0.5
40
0.5
40
0.75
40
0.75
40
0.875
40
0.875
40
1
40
1
40
1
40
1
41
1
10
197.231890873867
20
3.19768817159687
30
0
41
1
10
197.195448805533
20
3.23410978494908
30
0
41
1
10
197.153172099923
20
3.26567610951346
30
0
41
1
10
197.082599884778
20
3.2959737635002
30
0
41
1
10
197.057423909763
20
3.30323895590789
30
0
41
1
10
197.020652410315
20
3.30391218172411
30
0
41
1
10
197.008549002502
20
3.30234859815499
30
0
41
1
10
196.98669748802
20
3.29424447225944
30
0
41
1
10
196.97717873059
20
3.28765608867874
30
0
41
1
10
196.970147741162
20
3.27903116910943
30
0
0
SPLINE
5
114
100
AcDbEntity
8
1
62
256
6
ByLayer
370
18
48
1
60
0
100
AcDbSpline
70
4
71
3
72
8
73
4
40
0
40
0
40
0
40
0
40
1
40
1
40
1
40
1
41
1
10
195.688603139434
20
1.99820590008775
30
0
41
1
10
195.693854780908
20
2.00250783680968
30
0
41
1
10
195.699106721406
20
2.00680998876649
30
0
41
1
10
195.70435898076
20
2.01111237021414
30
0
0
SPLINE
5
115
100
AcDbEntity
8
1
62
256
6
ByLayer
370
18
48
1
60
0
100
AcDbSpline
70
4
71
3
72
8
73
4
40
0
40
0
40
0
40
0
40
1
40
1
40
1
40
1
41
1
10
196.498489439177
20
1.5511350217856
30
0
41
1
10
196.499480170716
20
1.54437362712886
30
0
41
1
10
196.500470842108
20
1.53761261124524
30
0
41
1
10
196.501461457096
20
1.53085195059481
30
0
0
SPLINE
5
116
100
AcDbEntity
8
1
62
256
6
ByLayer
370
18
48
1
60
0
100
AcDbSpline
70
4
71
3
72
18
73
14
40
0
40
0
40
0
40
0
40
0.12499999999997
40
0.12499999999997
40
0.24999999999994
40
0.24999999999994
40
0.49999999999996
40
0.49999999999996
40
0.74999999999998
40
0.74999999999998
40
0.87499999999999
40
0.87499999999999
40
1
40
1
40
1
40
1
41
1
10
197.417854990575
20
2.46998453206388
30
0
41
1
10
197.397694024855
20
2.47338229605089
30
0
41
1
10
197.379316163937
20
2.48452923214452
30
0
41
1
10
197.346605477944
20
2.51298336752848
30
0
41
1
10
197.332319260835
20
2.53038014900196
30
0
41
1
10
197.294722446668
20
2.58687176014007
30
0
41
1
10
197.276329645289
20
2.6304984354756
30
0
41
1
10
197.252155724088
20
2.72065983928661
30
0
41
1
10
197.246364179743
20
2.76723282606997
30
0
41
1
10
197.250967781084
20
2.83378368311159
30
0
41
1
10
197.254772236234
20
2.85552184918444
30
0
41
1
10
197.269130263608
20
2.89528451353448
30
0
41
1
10
197.279683946311
20
2.91354584485922
30
0
41
1
10
197.295641019239
20
2.92583726802849
30
0
0
SPLINE
5
117
100
AcDbEntity
8
1
62
256
6
ByLayer
370
18
48
1
60
0
100
AcDbSpline
70
4
71
3
72
14
73
10
40
0
40
0
40
0
40
0
40
0.500000000000062
40
0.500000000000062
40
0.750000000000095
40
0.750000000000095
40
0.875000000000047
40
0.875000000000047
40
1
40
1
40
1
40
1
41
1
10
195.500218473499
20
2.73394839431063
30
0
41
1
10
195.486879750723
20
2.6841955452247
30
0
41
1
10
195.480725603493
20
2.63192425661083
30
0
41
1
10
195.490057710704
20
2.55621046997894
30
0
41
1
10
195.496488668299
20
2.53102656377683
30
0
41
1
10
195.514617821915
20
2.49942842357268
30
0
41
1
10
195.522154693108
20
2.48995980616297
30
0
41
1
10
195.540412622424
20
2.47563490186997
30
0
41
1
10
195.551059389476
20
2.47099919161295
30
0
41
1
10
195.562235835618
20
2.46955038346968
30
0
0
SPLINE
5
118
100
AcDbEntity
8
1
62
256
6
ByLayer
370
18
48
1
60
0
100
AcDbSpline
70
4
71
3
72
8
73
4
40
0
40
0
40
0
40
0
40
1
40
1
40
1
40
1
41
1
10
196.03238357678
20
3.28049180588746
30
0
41
1
10
196.034843681569
20
3.27438143359618
30
0
41
1
10
196.037303926435
20
3.2682706836687
30
0
41
1
10
196.039764320666
20
3.26215953104526
30
0
0
SPLINE
5
119
100
AcDbEntity
8
1
62
256
6
ByLayer
370
18
48
1
60
0
100
AcDbSpline
70
4
71
3
72
14
73
10
40
0
40
0
40
0
40
0
40
0.125000000000051
40
0.125000000000051
40
0.250000000000102
40
0.250000000000102
40
0.49999999999998
40
0.49999999999998
40
1
40
1
40
1
40
1
41
1
10
196.501461457096
20
1.53085195059481
30
0
41
1
10
196.503127745979
20
1.51946333125338
30
0
41
1
10
196.50789915867
20
1.50874351229928
30
0
41
1
10
196.522575877858
20
1.49009096411339
30
0
41
1
10
196.532314909281
20
1.48231221939804
30
0
41
1
10
196.564273028315
20
1.46384281650768
30
0
41
1
10
196.589579816437
20
1.4572578196061
30
0
41
1
10
196.66575831696
20
1.4475668323042
30
0
41
1
10
196.718086723428
20
1.45365032918642
30
0
41
1
10
196.767890652633
20
1.46698776127394
30
0
0
SPLINE
5
11A
100
AcDbEntity
8
1
62
256
6
ByLayer
370
18
48
1
60
0
100
AcDbSpline
70
4
71
3
72
14
73
10
40
0
40
0
40
0
40
0
40
0.499999999999893
40
0.499999999999893
40
0.749999999999947
40
0.749999999999947
40
0.874999999999973
40
0.874999999999973
40
1
40
1
40
1
40
1
41
1
10
196.232109347367
20
3.46542845684701
30
0
41
1
10
196.182328556256
20
3.45209722111329
30
0
41
1
10
196.133897703416
20
3.43132290775969
30
0
41
1
10
196.072657595483
20
3.38556139762232
30
0
41
1
10
196.053912578062
20
3.36748302658916
30
0
41
1
10
196.03527023223
20
3.33618101174085
30
0
41
1
10
196.030703695611
20
3.32499843345383
30
0
41
1
10
196.027110110444
20
3.30221181835623
30
0
41
1
10
196.028238120066
20
3.29078175343847
30
0
41
1
10
196.03238357678
20
3.28049180588746
30
0
0
SPLINE
5
11B
100
AcDbEntity
8
1
62
256
6
ByLayer
370
18
48
1
60
0
100
AcDbSpline
70
4
71
3
72
18
73
14
40
0
40
0
40
0
40
0
40
0.125
40
0.125
40
0.25
40
0.25
40
0.5
40
0.5
40
0.75
40
0.75
40
0.875
40
0.875
40
1
40
1
40
1
40
1
41
1
10
196.498489439177
20
1.55113502178563
30
0
41
1
10
196.495459054149
20
1.57181633488577
30
0
41
1
10
196.484478631381
20
1.59068253282072
30
0
41
1
10
196.456742562124
20
1.6237617574219
30
0
41
1
10
196.439520932672
20
1.63834890830071
30
0
41
1
10
196.384016531461
20
1.67626518786199
30
0
41
1
10
196.340746043005
20
1.69488151848427
30
0
41
1
10
196.250444642234
20
1.71914439460821
30
0
41
1
10
196.203559519635
20
1.72475957230304
30
0
41
1
10
196.136252206236
20
1.7195700597658
30
0
41
1
10
196.114209694313
20
1.71551632708045
30
0
41
1
10
196.073746993912
20
1.70055253227284
30
0
41
1
10
196.055086239751
20
1.68964043745601
30
0
41
1
10
196.042380688758
20
1.67328039425485
30
0
0
SPLINE
5
11C
100
AcDbEntity
8
1
62
256
6
ByLayer
370
18
48
1
60
0
100
AcDbSpline
70
4
71
3
72
14
73
10
40
0
40
0
40
0
40
0
40
0.500000000000001
40
0.500000000000001
40
0.750000000000002
40
0.750000000000002
40
0.875000000000001
40
0.875000000000001
40
1
40
1
40
1
40
1
41
1
10
195.768109126133
20
1.73472804652408
30
0
41
1
10
195.731667057799
20
1.7711496598763
30
0
41
1
10
195.700152393315
20
1.81347198481822
30
0
41
1
10
195.670183295125
20
1.88434996517634
30
0
41
1
10
195.66307376937
20
1.90967146612209
30
0
41
1
10
195.662777477705
20
1.94679942613868
30
0
41
1
10
195.664492401171
20
1.95904641760029
30
0
41
1
10
195.672958864213
20
1.9812432517065
30
0
41
1
10
195.679757034696
20
1.99096263732542
30
0
41
1
10
195.688603139434
20
1.99820590008775
30
0
0
SPLINE
5
11D
100
AcDbEntity
8
1
62
256
6
ByLayer
370
18
48
1
60
0
100
AcDbSpline
70
4
71
3
72
20
73
16
40
0
40
0
40
0
40
0
40
0.125000000000015
40
0.125000000000015
40
0.250000000000029
40
0.250000000000029
40
0.500000000000047
40
0.500000000000047
40
0.625000000000035
40
0.625000000000035
40
0.750000000000023
40
0.750000000000023
40
0.875000000000012
40
0.875000000000012
40
1
40
1
40
1
40
1
41
1
10
195.70435898076
20
2.01111237021414
30
0
41
1
10
195.72034214196
20
2.02420495601135
30
0
41
1
10
195.730870515983
20
2.04313851329042
30
0
41
1
10
195.745267486666
20
2.08428181020292
30
0
41
1
10
195.749046306517
20
2.10645979506069
30
0
41
1
10
195.753636824234
20
2.17450205493543
30
0
41
1
10
195.74778928789
20
2.22155895236963
30
0
41
1
10
195.729571969388
20
2.28925596660454
30
0
41
1
10
195.721976946037
20
2.31098551749003
30
0
41
1
10
195.70362755455
20
2.3527413445521
30
0
41
1
10
195.692737730056
20
2.37296819794608
30
0
41
1
10
195.667791479746
20
2.40965177175249
30
0
41
1
10
195.653518672011
20
2.42654317638463
30
0
41
1
10
195.620922402887
20
2.45374990075814
30
0
41
1
10
195.602431155195
20
2.46433078286029
30
0
41
1
10
195.582145009425
20
2.46696510617875
30
0
0
SPLINE
5
11E
100
AcDbEntity
8
1
62
256
6
ByLayer
370
18
48
1
60
0
100
AcDbSpline
70
4
71
3
72
14
73
10
40
0
40
0
40
0
40
0
40
0.500000000000064
40
0.500000000000064
40
0.750000000000094
40
0.750000000000094
40
0.875000000000047
40
0.875000000000047
40
1
40
1
40
1
40
1
41
1
10
197.4997815265
20
2.19846782381032
30
0
41
1
10
197.513120249277
20
2.24822067289628
30
0
41
1
10
197.519274396507
20
2.3006306601184
30
0
41
1
10
197.509942289295
20
2.37703520173466
30
0
41
1
10
197.5035113317
20
2.40253842241421
30
0
41
1
10
197.485382178085
20
2.43489076353913
30
0
41
1
10
197.477845306892
20
2.4446601355653
30
0
41
1
10
197.459587377576
20
2.45970020967638
30
0
41
1
10
197.448940610524
20
2.46474786209347
30
0
41
1
10
197.437764164382
20
2.46662910991361
30
0
0
SPLINE
5
11F
100
AcDbEntity
8
1
62
256
6
ByLayer
370
18
48
1
60
0
100
AcDbSpline
70
4
71
3
72
18
73
14
40
0
40
0
40
0
40
0
40
0.125000000000016
40
0.125000000000016
40
0.250000000000032
40
0.250000000000032
40
0.500000000000065
40
0.500000000000065
40
0.750000000000097
40
0.750000000000097
40
0.875000000000048
40
0.875000000000048
40
1
40
1
40
1
40
1
41
1
10
196.960235679334
20
1.6747901071974
30
0
41
1
10
196.95276159096
20
1.69413402148186
30
0
41
1
10
196.952923740029
20
1.71579190059504
30
0
41
1
10
196.960692146691
20
1.75863838468376
30
0
41
1
10
196.968400425187
20
1.7798308090903
30
0
41
1
10
196.998015278037
20
1.84092822104896
30
0
41
1
10
197.026437497559
20
1.87876765932796
30
0
41
1
10
197.092476411306
20
1.9447718655058
30
0
41
1
10
197.130121037467
20
1.97296478947607
30
0
41
1
10
197.190627208873
20
2.00194560165588
30
0
41
1
10
197.211589147541
20
2.00939290957356
30
0
41
1
10
197.253753785058
20
2.01654051529079
30
0
41
1
10
197.275163409335
20
2.01635818099527
30
0
41
1
10
197.294130458417
20
2.00849747069279
30
0
0
SPLINE
5
120
100
AcDbEntity
8
1
62
256
6
ByLayer
370
18
48
1
60
0
100
AcDbSpline
70
4
71
3
72
8
73
4
40
0
40
0
40
0
40
0
40
1
40
1
40
1
40
1
41
1
10
197.437764164382
20
2.46662910991361
30
0
41
1
10
197.431128159316
20
2.46774754925025
30
0
41
1
10
197.424491776399
20
2.4688660225552
30
0
41
1
10
197.417854990575
20
2.46998453206388
30
0
0
SPLINE
5
121
100
AcDbEntity
8
1
62
256
6
ByLayer
370
18
48
1
60
0
100
AcDbSpline
70
4
71
3
72
14
73
10
40
0
40
0
40
0
40
0
40
0.499999999999826
40
0.499999999999826
40
0.749999999999847
40
0.749999999999847
40
0.874999999999923
40
0.874999999999923
40
1
40
1
40
1
40
1
41
1
10
196.767890652633
20
1.46698776127394
30
0
41
1
10
196.817671443744
20
1.48031899700766
30
0
41
1
10
196.866102296584
20
1.50123200896954
30
0
41
1
10
196.927342404517
20
1.54768427409124
30
0
41
1
10
196.946087421938
20
1.56608195960189
30
0
41
1
10
196.96472976777
20
1.59813817537096
30
0
41
1
10
196.969296304389
20
1.60962150827447
30
0
41
1
10
196.972889889556
20
1.63312329319015
30
0
41
1
10
196.971761879933
20
1.64496530026795
30
0
41
1
10
196.967616423219
20
1.65568768749583
30
0
0
SPLINE
5
122
100
AcDbEntity
8
1
62
256
6
ByLayer
370
18
48
1
60
0
100
AcDbSpline
70
4
71
3
72
14
73
10
40
0
40
0
40
0
40
0
40
0.124999999999882
40
0.124999999999882
40
0.249999999999765
40
0.249999999999765
40
0.499999999999755
40
0.499999999999755
40
1
40
1
40
1
40
1
41
1
10
196.498538542904
20
3.40532754278848
30
0
41
1
10
196.49687225402
20
3.41628363788544
30
0
41
1
10
196.49210084133
20
3.42659635562313
30
0
41
1
10
196.477424122142
20
3.44453199132445
30
0
41
1
10
196.467685090719
20
3.45200623415667
30
0
41
1
10
196.435726971685
20
3.46972248679833
30
0
41
1
10
196.410420183562
20
3.4759884634602
30
0
41
1
10
196.33424168304
20
3.48498774935123
30
0
41
1
10
196.281913276572
20
3.47876588893453
30
0
41
1
10
196.232109347367
20
3.46542845684701
30
0
0
SPLINE
5
123
100
AcDbEntity
8
1
62
256
6
ByLayer
370
18
48
1
60
0
100
AcDbSpline
70
4
71
3
72
8
73
4
40
0
40
0
40
0
40
0
40
1
40
1
40
1
40
1
41
1
10
196.967616423219
20
1.65568768749583
30
0
41
1
10
196.965156318431
20
1.66205482055239
30
0
41
1
10
196.962696073565
20
1.66842228643492
30
0
41
1
10
196.960235679334
20
1.6747901071974
30
0
0
SPLINE
5
124
100
AcDbEntity
8
1
62
256
6
ByLayer
370
18
48
1
60
0
100
AcDbSpline
70
4
71
3
72
8
73
4
40
0
40
0
40
0
40
0
40
1
40
1
40
1
40
1
41
1
10
195.705869541583
20
2.92845216754986
30
0
41
1
10
195.699626550691
20
2.93078284668945
30
0
41
1
10
195.693383938799
20
2.93311335263874
30
0
41
1
10
195.687141682338
20
2.93544369618459
30
0
0
SPLINE
5
125
100
AcDbEntity
8
1
62
256
6
ByLayer
370
18
48
1
60
0
100
AcDbSpline
70
4
71
3
72
8
73
4
40
0
40
0
40
0
40
0
40
1
40
1
40
1
40
1
41
1
10
196.970147741162
20
3.27903116910943
30
0
41
1
10
196.965971840885
20
3.27391085577213
30
0
41
1
10
196.961795702834
20
3.26879022117208
30
0
41
1
10
196.957619311241
20
3.26366924398781
30
0
0
SPLINE
5
126
100
AcDbEntity
8
1
62
256
6
ByLayer
370
18
48
1
60
0
100
AcDbSpline
70
4
71
3
72
8
73
4
40
0
40
0
40
0
40
0
40
1
40
1
40
1
40
1
41
1
10
196.042380688758
20
1.67328039425485
30
0
41
1
10
196.038204297166
20
1.66790274893154
30
0
41
1
10
196.034028159115
20
1.6625253983764
30
0
41
1
10
196.029852258837
20
1.65714832427386
30
0
0
SPLINE
5
127
100
AcDbEntity
8
1
62
256
6
ByLayer
370
18
48
1
60
0
100
AcDbSpline
70
4
71
3
72
14
73
10
40
0
40
0
40
0
40
0
40
0.124999999999896
40
0.124999999999896
40
0.249999999999792
40
0.249999999999792
40
0.499999999999808
40
0.499999999999808
40
1
40
1
40
1
40
1
41
1
10
195.687141682338
20
2.93544369618459
30
0
41
1
10
195.676627558778
20
2.93937137415369
30
0
41
1
10
195.66512938205
20
2.94029611250619
30
0
41
1
10
195.641938976319
20
2.93638142494589
30
0
41
1
10
195.630461013928
20
2.9316129064253
30
0
41
1
10
195.598804306054
20
2.9126217371246
30
0
41
1
10
195.580583152017
20
2.89377095065376
30
0
41
1
10
195.534396230828
20
2.83216218203447
30
0
41
1
10
195.51356339611
20
2.78372436850373
30
0
41
1
10
195.500218473499
20
2.73394839431063
30
0
0
SPLINE
5
128
100
AcDbEntity
8
1
62
256
6
ByLayer
370
18
48
1
60
0
100
AcDbSpline
70
4
71
3
72
14
73
10
40
0
40
0
40
0
40
0
40
0.124999999999897
40
0.124999999999897
40
0.249999999999794
40
0.249999999999794
40
0.499999999999809
40
0.499999999999809
40
1
40
1
40
1
40
1
41
1
10
197.312858317661
20
2.00073579719873
30
0
41
1
10
197.323372441222
20
1.99637559498512
30
0
41
1
10
197.334870617949
20
1.99504375541622
30
0
41
1
10
197.358061023681
20
1.99824153049195
30
0
41
1
10
197.369538986072
20
2.00270554712941
30
0
41
1
10
197.401195693946
20
2.02094356618142
30
0
41
1
10
197.419416847983
20
2.03947533241254
30
0
41
1
10
197.465603769172
20
2.100392399621
30
0
41
1
10
197.48643660389
20
2.14869184961722
30
0
41
1
10
197.4997815265
20
2.19846782381032
30
0
0
SPLINE
5
129
100
AcDbEntity
8
1
62
256
6
ByLayer
370
18
48
1
60
0
100
AcDbSpline
70
4
71
3
72
8
73
4
40
0
40
0
40
0
40
0
40
1
40
1
40
1
40
1
41
1
10
197.294130458417
20
2.00849747069279
30
0
41
1
10
197.300373449309
20
2.0059101234142
30
0
41
1
10
197.306616061201
20
2.00332290150982
30
0
41
1
10
197.312858317661
20
2.00073579719873
30
0
0
SPLINE
5
12A
100
AcDbEntity
8
1
62
256
6
ByLayer
370
18
48
1
60
0
100
AcDbSpline
70
4
71
3
72
14
73
10
40
0
40
0
40
0
40
0
40
0.124999999999969
40
0.124999999999969
40
0.249999999999939
40
0.249999999999939
40
0.499999999999877
40
0.499999999999877
40
1
40
1
40
1
40
1
41
1
10
196.029852258837
20
1.65714832427386
30
0
41
1
10
196.022819894434
20
1.64808919377643
30
0
41
1
10
196.013426642604
20
1.64116265487272
30
0
41
1
10
195.991564047838
20
1.63229529083091
30
0
41
1
10
195.979314410748
20
1.63040508498548
30
0
41
1
10
195.942586373309
20
1.63032975183853
30
0
41
1
10
195.917455504186
20
1.63725189862831
30
0
41
1
10
195.846807795021
20
1.66688079294224
30
0
41
1
10
195.804568132728
20
1.69828950441845
30
0
41
1
10
195.768109126133
20
1.73472804652408
30
0
0
SPLINE
5
12B
100
AcDbEntity
8
1
62
256
6
ByLayer
370
18
48
1
60
0
100
AcDbSpline
70
4
71
3
72
18
73
14
40
0
40
0
40
0
40
0
40
0.125000000000015
40
0.125000000000015
40
0.25000000000003
40
0.25000000000003
40
0.50000000000006
40
0.50000000000006
40
0.750000000000089
40
0.750000000000089
40
0.875000000000045
40
0.875000000000045
40
1
40
1
40
1
40
1
41
1
10
196.957619311241
20
3.26366924398781
30
0
41
1
10
196.944932433894
20
3.24811294185554
30
0
41
1
10
196.926392423908
20
3.23795729912609
30
0
41
1
10
196.885913331253
20
3.22417901453289
30
0
41
1
10
196.863918835648
20
3.22064087415347
30
0
41
1
10
196.796707168632
20
3.21665524548814
30
0
41
1
10
196.74989214773
20
3.22265529881116
30
0
41
1
10
196.659679312783
20
3.24681254719656
30
0
41
1
10
196.616243142277
20
3.2649798526609
30
0
41
1
10
196.560340572211
20
3.30192986062732
30
0
41
1
10
196.543183088693
20
3.31596297945993
30
0
41
1
10
196.51537647855
20
3.34796545917624
30
0
41
1
10
196.504520536976
20
3.36605237921248
30
0
41
1
10
196.501510560822
20
3.38581461645703
30
0
0
SPLINE
5
12C
100
AcDbEntity
8
1
62
256
6
ByLayer
370
18
48
1
60
0
100
AcDbSpline
70
4
71
3
72
8
73
4
40
0
40
0
40
0
40
0
40
1
40
1
40
1
40
1
41
1
10
197.295641019239
20
2.92583726802852
30
0
41
1
10
197.300893278593
20
2.92988298133713
30
0
41
1
10
197.306145219092
20
2.93392841733888
30
0
41
1
10
197.311396860566
20
2.93797359329557
30
0
0
SPLINE
5
12D
100
AcDbEntity
8
1
62
256
6
ByLayer
370
18
48
1
60
0
100
AcDbSpline
70
4
71
3
72
14
73
10
40
0
40
0
40
0
40
0
40
0.125000000000001
40
0.125000000000001
40
0.250000000000001
40
0.250000000000001
40
0.500000000000002
40
0.500000000000002
40
1
40
1
40
1
40
1
41
1
10
197.311396860566
20
2.93797359329557
30
0
41
1
10
197.320244695242
20
2.94478574830114
30
0
41
1
10
197.326971459279
20
2.95397017707813
30
0
41
1
10
197.335485145823
20
2.9754620440975
30
0
41
1
10
197.337224076791
20
2.98755255450874
30
0
41
1
10
197.336922665631
20
3.02388340132674
30
0
41
1
10
197.329837031545
20
3.04884065433961
30
0
41
1
10
197.299845452212
20
3.11910285814451
30
0
41
1
10
197.268349880462
20
3.16124962949129
30
0
41
1
10
197.231890873867
20
3.19768817159687
30
0
0
SPLINE
5
12E
100
AcDbEntity
8
1
62
256
6
ByLayer
370
18
48
1
60
0
100
AcDbSpline
70
4
71
3
72
42
73
38
40
0
40
0
40
0
40
0
40
0.124999999999973
40
0.124999999999973
40
0.187499999999957
40
0.187499999999957
40
0.24999999999994
40
0.24999999999994
40
0.312499999999923
40
0.312499999999923
40
0.374999999999907
40
0.374999999999907
40
0.406249999999898
40
0.406249999999898
40
0.43749999999989
40
0.43749999999989
40
0.468749999999881
40
0.468749999999881
40
0.499999999999873
40
0.499999999999873
40
0.562499999999876
40
0.562499999999876
40
0.593749999999877
40
0.593749999999877
40
0.624999999999878
40
0.624999999999878
40
0.687499999999898
40
0.687499999999898
40
0.749999999999919
40
0.749999999999919
40
0.812499999999939
40
0.812499999999939
40
0.874999999999959
40
0.874999999999959
40
0.93749999999998
40
0.93749999999998
40
1
40
1
40
1
40
1
41
1
10
195.052010101268
20
-2.62444364311335
30
0
41
1
10
195.052010101268
20
-2.46853174843685
30
0
41
1
10
195.081018696557
20
-2.32224364193536
30
0
41
1
10
195.163345518545
20
-2.11362603494953
30
0
41
1
10
195.197783444597
20
-2.04568268097825
30
0
41
1
10
195.278149961844
20
-1.91834476299835
30
0
41
1
10
195.324260669721
20
-1.85828705392393
30
0
41
1
10
195.429289149808
20
-1.74551037425104
30
0
41
1
10
195.48881139742
20
-1.69246599754351
30
0
41
1
10
195.617798113815
20
-1.59849827014335
30
0
41
1
10
195.68756383862
20
-1.55705944627553
30
0
41
1
10
195.801306242932
20
-1.50427238826865
30
0
41
1
10
195.840740264498
20
-1.48829868493124
30
0
41
1
10
195.920704807295
20
-1.46052614320152
30
0
41
1
10
195.961484812414
20
-1.44860228876652
30
0
41
1
10
196.044686342587
20
-1.42878344614539
30
0
41
1
10
196.087107487046
20
-1.42088753892403
30
0
41
1
10
196.173691558453
20
-1.40937082786715
30
0
41
1
10
196.218228903126
20
-1.40575060510219
30
0
41
1
10
196.351323304564
20
-1.40196633888345
30
0
41
1
10
196.439355779643
20
-1.40860309426694
30
0
41
1
10
196.570355399231
20
-1.43230695800762
30
0
41
1
10
196.614092377266
20
-1.44261499475718
30
0
41
1
10
196.69890017323
20
-1.46733061525734
30
0
41
1
10
196.740205310291
20
-1.48175340326526
30
0
41
1
10
196.860981149937
20
-1.53095917855029
30
0
41
1
10
196.938049489805
20
-1.5722201711327
30
0
41
1
10
197.078370175585
20
-1.66652591113248
30
0
41
1
10
197.142328911847
20
-1.7197248356473
30
0
41
1
10
197.25812622486
20
-1.83710041083117
30
0
41
1
10
197.308511424997
20
-1.8997567915925
30
0
41
1
10
197.395864979789
20
-2.03250364444611
30
0
41
1
10
197.432973136622
20
-2.10319028738706
30
0
41
1
10
197.491954475062
20
-2.2477733271233
30
0
41
1
10
197.514168430534
20
-2.3219946862279
30
0
41
1
10
197.544247742906
20
-2.47451827605303
30
0
41
1
10
197.552010101268
20
-2.55295279428017
30
0
41
1
10
197.552010101268
20
-2.63174137900029
30
0
0
SPLINE
5
12F
100
AcDbEntity
8
1
62
256
6
ByLayer
370
18
48
1
60
0
100
AcDbSpline
70
4
71
3
72
22
73
18
40
0
40
0
40
0
40
0
40
0.125
40
0.125
40
0.25
40
0.25
40
0.375
40
0.375
40
0.5
40
0.5
40
0.625
40
0.625
40
0.75
40
0.75
40
0.875
40
0.875
40
1
40
1
40
1
40
1
41
1
10
197.552010101268
20
-3.52471683612788
30
0
41
1
10
197.456124267556
20
-3.58728738564616
30
0
41
1
10
197.355867916394
20
-3.64176994667005
30
0
41
1
10
197.145918464219
20
-3.73327161613861
30
0
41
1
10
197.035306121556
20
-3.77034413613441
30
0
41
1
10
196.812846046407
20
-3.82279431689093
30
0
41
1
10
196.700141271049
20
-3.83871269823456
30
0
41
1
10
196.471709342913
20
-3.8494265433406
30
0
41
1
10
196.355104068829
20
-3.84389073188694
30
0
41
1
10
196.129044185622
20
-3.81186515949142
30
0
41
1
10
196.018415571601
20
-3.78558225021919
30
0
41
1
10
195.80178897574
20
-3.71321190238905
30
0
41
1
10
195.695109507762
20
-3.66657531029304
30
0
41
1
10
195.494021992371
20
-3.55763215491291
30
0
41
1
10
195.39867297914
20
-3.49514697111087
30
0
41
1
10
195.21750911994
20
-3.35546884231309
30
0
41
1
10
195.131328094015
20
-3.27773048791226
30
0
41
1
10
195.052010101266
20
-3.19552205730389
30
0
0
SPLINE
5
130
100
AcDbEntity
8
1
62
256
6
ByLayer
370
18
48
1
60
0
100
AcDbSpline
70
4
71
3
72
37
73
33
40
0
40
0
40
0
40
0
40
0.125000000000028
40
0.125000000000028
40
0.250000000000055
40
0.250000000000055
40
0.312500000000069
40
0.312500000000069
40
0.375000000000082
40
0.375000000000082
40
0.500000000000098
40
0.500000000000098
40
0.562500000000113
40
0.562500000000113
40
0.625000000000127
40
0.625000000000127
40
0.687500000000142
40
0.687500000000142
40
0.750000000000157
40
0.750000000000157
40
0.812500000000171
40
0.812500000000171
40
0.820312500000164
40
0.820312500000164
40
0.828125000000157
40
0.828125000000157
40
0.843750000000143
40
0.875000000000114
40
0.875000000000114
40
0.937500000000057
40
0.937500000000057
40
1
40
1
40
1
40
1
41
1
10
199.2468
20
-2.99235770281285
30
0
41
1
10
199.197563356869
20
-3.21825033034597
30
0
41
1
10
199.128337103188
20
-3.4389796263074
30
0
41
1
10
198.941163545107
20
-3.86785353386364
30
0
41
1
10
198.826398804133
20
-4.06854658001936
30
0
41
1
10
198.62181240082
20
-4.3464497723873
30
0
41
1
10
198.548143420766
20
-4.43529463601703
30
0
41
1
10
198.389110872936
20
-4.60488772743213
30
0
41
1
10
198.303320500021
20
-4.68584735354281
30
0
41
1
10
198.035647188603
20
-4.90851411924689
30
0
41
1
10
197.841433571935
20
-5.03298571231767
30
0
41
1
10
197.525306291702
20
-5.18197014542605
30
0
41
1
10
197.415538245544
20
-5.22519162232717
30
0
41
1
10
197.194358147029
20
-5.29591923638927
30
0
41
1
10
197.082117895837
20
-5.32386638034697
30
0
41
1
10
196.854346028234
20
-5.36496796539308
30
0
41
1
10
196.738815053336
20
-5.37812528969846
30
0
41
1
10
196.504308849772
20
-5.38896009356694
30
0
41
1
10
196.387599820489
20
-5.38651726335394
30
0
41
1
10
196.155883783274
20
-5.3663642376018
30
0
41
1
10
196.040767971527
20
-5.3486582550066
30
0
41
1
10
195.912112709613
20
-5.32000123156672
30
0
41
1
10
195.897829534114
20
-5.31669526946658
30
0
41
1
10
195.869287025817
20
-5.30983825571096
30
0
41
1
10
195.855801480592
20
-5.30647933429788
30
0
41
1
10
195.814466235261
20
-5.29584028476916
30
0
41
1
10
195.732349054335
20
-5.27328568773379
30
0
41
1
10
195.651864278484
20
-5.24696509554084
30
0
41
1
10
195.493022851435
20
-5.18941427980249
30
0
41
1
10
195.389958625244
20
-5.14451806079651
30
0
41
1
10
195.189424974576
20
-5.04181828962086
30
0
41
1
10
195.09148472094
20
-4.98368534157103
30
0
41
1
10
194.997516780288
20
-4.91965365047412
30
0
0
SPLINE
5
131
100
AcDbEntity
8
1
62
256
6
ByLayer
370
18
48
1
60
0
100
AcDbSpline
70
4
71
3
72
26
73
22
40
0
40
0
40
0
40
0
40
0.125000000000002
40
0.125000000000002
40
0.250000000000004
40
0.250000000000004
40
0.375000000000006
40
0.375000000000006
40
0.500000000000008
40
0.500000000000008
40
0.62500000000001
40
0.62500000000001
40
0.687500000000011
40
0.687500000000011
40
0.750000000000012
40
0.750000000000012
40
0.812500000000013
40
0.812500000000013
40
0.875000000000014
40
0.875000000000014
40
1
40
1
40
1
40
1
41
1
10
199.2468
20
-1.84914691411117
30
0
41
1
10
199.218258389544
20
-1.75720727149215
30
0
41
1
10
199.182402169067
20
-1.65849462009552
30
0
41
1
10
199.091731558558
20
-1.45138833240898
30
0
41
1
10
199.036861598932
20
-1.34279527487593
30
0
41
1
10
198.9028629252
20
-1.11925110189782
30
0
41
1
10
198.824968442042
20
-1.00635307990629
30
0
41
1
10
198.643125448727
20
-0.782019016801399
30
0
41
1
10
198.53925262886
20
-0.670548764675857
30
0
41
1
10
198.298747836079
20
-0.453139325874531
30
0
41
1
10
198.165576665075
20
-0.350381493346475
30
0
41
1
10
197.943447853277
20
-0.208878656132185
30
0
41
1
10
197.86565230894
20
-0.163822075935286
30
0
41
1
10
197.70165138274
20
-0.0787574148611725
30
0
41
1
10
197.616236430277
20
-0.039210368166664
30
0
41
1
10
197.440639509943
20
0.0322805241763149
30
0
41
1
10
197.350117209585
20
0.06440791918439
30
0
41
1
10
197.163273864033
20
0.120765887550903
30
0
41
1
10
197.066236331804
20
0.145129668285421
30
0
41
1
10
196.771150638924
20
0.203897249412705
30
0
41
1
10
196.570912971411
20
0.224097529490052
30
0
41
1
10
196.367
20
0.224417869165734
30
0
0
SPLINE
5
132
100
AcDbEntity
8
1
62
256
6
ByLayer
370
18
48
1
60
0
100
AcDbSpline
70
4
71
3
72
12
73
8
40
0
40
0
40
0
40
0
40
0.5
40
0.5
40
0.75
40
0.75
40
1
40
1
40
1
40
1
41
1
10
194.997516780288
20
0.23871880460706
30
0
41
1
10
194.91840033122
20
0.240370783677235
30
0
41
1
10
194.834026119519
20
0.241627678431001
30
0
41
1
10
194.699553287032
20
0.242918525205283
30
0
41
1
10
194.653715096944
20
0.243243445736567
30
0
41
1
10
194.562120076813
20
0.243672949153165
30
0
41
1
10
194.51606038152
20
0.24378061297773
30
0
41
1
10
194.469737090913
20
0.24378061297773
30
0
0
SPLINE
5
133
100
AcDbEntity
8
1
62
256
6
ByLayer
370
18
48
1
60
0
100
AcDbSpline
70
4
71
3
72
46
73
42
40
0
40
0
40
0
40
0
40
0.127260283453648
40
0.127260283453648
40
0.190890425180473
40
0.190890425180473
40
0.222705496043885
40
0.222705496043885
40
0.254520566907297
40
0.254520566907297
40
0.381780850360945
40
0.381780850360945
40
0.445410992087772
40
0.445410992087772
40
0.477226062951189
40
0.477226062951189
40
0.509041133814605
40
0.509041133814605
40
0.572671275541437
40
0.572671275541437
40
0.604486346404855
40
0.604486346404855
40
0.636301417268274
40
0.636301417268274
40
0.699931558995107
40
0.699931558995107
40
0.731746629858523
40
0.731746629858523
40
0.76356170072194
40
0.76356170072194
40
0.827191842448773
40
0.827191842448773
40
0.859006913312191
40
0.859006913312191
40
0.890821984175608
40
0.890821984175608
40
0.954452125902444
40
0.954452125902444
40
0.986267196765862
40
0.986267196765862
40
1
40
1
40
1
40
1
41
1
10
194
20
0.243780612977702
30
0
41
1
10
193.463258603787
20
0.243780612977702
30
0
41
1
10
192.933561047103
20
0.291496864525243
30
0
41
1
10
192.149352995781
20
0.432618028350049
30
0
41
1
10
191.889685535276
20
0.491322317826956
30
0
41
1
10
191.502869040335
20
0.597271778734608
30
0
41
1
10
191.374082188091
20
0.635680124699803
30
0
41
1
10
191.119757542168
20
0.717803850465572
30
0
41
1
10
190.994039648506
20
0.761553433955953
30
0
41
1
10
190.372649225407
20
0.993426466244159
30
0
41
1
10
189.898394402791
20
1.22074958981497
30
0
41
1
10
189.223067831995
20
1.62092350268495
30
0
41
1
10
189.004002637375
20
1.7642164235514
30
0
41
1
10
188.685033560188
20
1.99377611041083
30
0
41
1
10
188.580948287816
20
2.07229900335886
30
0
41
1
10
188.378866786721
20
2.23176356584452
30
0
41
1
10
188.280616087525
20
2.31288732254794
30
0
41
1
10
187.994199326274
20
2.55980127550308
30
0
41
1
10
187.814359741393
20
2.7291561141709
30
0
41
1
10
187.561269175113
20
2.98749844890412
30
0
41
1
10
187.479328720236
20
3.07472920670611
30
0
41
1
10
187.322960146806
20
3.24791181487214
30
0
41
1
10
187.248658686069
20
3.33367991198554
30
0
41
1
10
187.036776976661
20
3.58754760411003
30
0
41
1
10
186.910193153028
20
3.7522310923996
30
0
41
1
10
186.740256670101
20
3.98835905587543
30
0
41
1
10
186.686940530177
20
4.06524845974576
30
0
41
1
10
186.586710608165
20
4.21462486746464
30
0
41
1
10
186.539777689272
20
4.28717271498718
30
0
41
1
10
186.410979712967
20
4.49248180020845
30
0
41
1
10
186.339843151877
20
4.61466599607562
30
0
41
1
10
186.251702582896
20
4.77369271246394
30
0
41
1
10
186.225438626166
20
4.82265114076486
30
0
41
1
10
186.178825563429
20
4.91194123908005
30
0
41
1
10
186.158479581487
20
4.95228090794996
30
0
41
1
10
186.107001413895
20
5.05746951592178
30
0
41
1
10
186.084772757141
20
5.10757080921053
30
0
41
1
10
186.067838264441
20
5.15241347049178
30
0
41
1
10
186.064959115252
20
5.162288821413
30
0
41
1
10
186.064861807241
20
5.16893711052779
30
0
41
1
10
186.06535931897
20
5.16995854961849
30
0
41
1
10
186.066386302457
20
5.16999488792848
30
0
0
SPLINE
5
134
100
AcDbEntity
8
1
62
256
6
ByLayer
370
18
48
1
60
0
100
AcDbSpline
70
4
71
3
72
12
73
8
40
0
40
0
40
0
40
0
40
0.500000000000027
40
0.500000000000027
40
0.750000000000014
40
0.750000000000014
40
1
40
1
40
1
40
1
41
1
10
196.367
20
0.224417869165734
30
0
41
1
10
196.123246269309
20
0.224800797188863
30
0
41
1
10
195.886205354971
20
0.226211032531126
30
0
41
1
10
195.540395909813
20
0.229818788254363
30
0
41
1
10
195.425978345413
20
0.231286871255975
30
0
41
1
10
195.205666635588
20
0.234672646466151
30
0
41
1
10
195.099595937868
20
0.236587356168656
30
0
41
1
10
194.997516780288
20
0.238718804607089
30
0
0
SPLINE
5
135
100
AcDbEntity
8
1
62
256
6
ByLayer
370
18
48
1
60
0
100
AcDbSpline
70
4
71
3
72
8
73
4
40
0
40
0
40
0
40
0
40
1
40
1
40
1
40
1
41
1
10
194.161877752523
20
-4.75398496893504
30
0
41
1
10
194.184668057349
20
-4.77533510660689
30
0
41
1
10
194.207398694366
20
-4.7959028888007
30
0
41
1
10
194.23
20
-4.81569587235691
30
0
0
SPLINE
5
136
100
AcDbEntity
8
1
62
256
6
ByLayer
370
18
48
1
60
0
100
AcDbSpline
70
4
71
3
72
12
73
8
40
0
40
0
40
0
40
0
40
0.249999999999965
40
0.249999999999965
40
0.499999999999929
40
0.499999999999929
40
1
40
1
40
1
40
1
41
1
10
194.997516780288
20
-4.91965365047517
30
0
41
1
10
194.958856787976
20
-4.89330993507249
30
0
41
1
10
194.918578171131
20
-4.8698194062041
30
0
41
1
10
194.834677099879
20
-4.82873260751819
30
0
41
1
10
194.790667901935
20
-4.81102511974657
30
0
41
1
10
194.656292108313
20
-4.76849794889617
30
0
41
1
10
194.564285183239
20
-4.75398496893402
30
0
41
1
10
194.469737090913
20
-4.75398496893402
30
0
0
SPLINE
5
137
100
AcDbEntity
8
1
62
256
6
ByLayer
370
18
48
1
60
0
100
AcDbSpline
70
4
71
3
72
8
73
4
40
0
40
0
40
0
40
0
40
1
40
1
40
1
40
1
41
1
10
194.196632681783
20
-4.75778690796693
30
0
41
1
10
194.207670736541
20
-4.76862642276865
30
0
41
1
10
194.2187931995
20
-4.77939098491711
30
0
41
1
10
194.23
20
-4.79008065649793
30
0
0
LINE
5
70
100
AcDbEntity
8
81
62
256
6
ByLayer
370
18
48
1
60
0
100
AcDbLine
10
200
20
6
30
0
11
205
21
6
31
0
39
0
210
0
220
0
230
1
0
LINE
5
71
100
AcDbEntity
8
80
62
256
6
ByLayer
370
18
48
1
60
0
100
AcDbLine
10
0
20
0
30
0
11
-5
21
0
31
0
39
0
210
0
220
0
230
1
0
LINE
5
72
100
AcDbEntity
8
1
62
256
6
ByLayer
370
18
48
1
60
0
100
AcDbLine
10
140
20
7.9955
30
0
11
1
21
7.9955
31
0
39
0
210
0
220
0
230
1
0
LINE
5
74
100
AcDbEntity
8
1
62
256
6
ByLayer
370
18
48
1
60
0
100
AcDbLine
10
1
20
-7.9955
30
0
11
140
21
-7.9955
31
0
39
0
210
0
220
0
230
1
0
LINE
5
75
100
AcDbEntity
8
1
62
256
6
ByLayer
370
18
48
1
60
0
100
AcDbLine
10
196.045774
20
3.228132
30
0
11
196.045774
21
3.258731
31
0
39
0
210
0
220
0
230
1
0
LINE
5
76
100
AcDbEntity
8
1
62
256
6
ByLayer
370
18
48
1
60
0
100
AcDbLine
10
0
20
-6.9955
30
0
11
1
21
-7.9955
31
0
39
0
210
0
220
0
230
1
0
LINE
5
77
100
AcDbEntity
8
1
62
256
6
ByLayer
370
18
48
1
60
0
100
AcDbLine
10
1
20
7.9955
30
0
11
0
21
6.9955
31
0
39
0
210
0
220
0
230
1
0
LINE
5
78
100
AcDbEntity
8
1
62
256
6
ByLayer
370
18
48
1
60
0
100
AcDbLine
10
145.113315
20
6.725672
30
0
11
142.913315
21
6.725672
31
0
39
0
210
0
220
0
230
1
0
LINE
5
79
100
AcDbEntity
8
1
62
256
6
ByLayer
370
18
48
1
60
0
100
AcDbLine
10
179
20
5.17
30
0
11
145.113315
21
6.725672
31
0
39
0
210
0
220
0
230
1
0
LINE
5
7A
100
AcDbEntity
8
1
62
256
6
ByLayer
370
18
48
1
60
0
100
AcDbLine
10
186.067595
20
5.17
30
0
11
179
21
5.17
31
0
39
0
210
0
220
0
230
1
0
LINE
5
7B
100
AcDbEntity
8
1
62
256
6
ByLayer
370
18
48
1
60
0
100
AcDbLine
10
179
20
-5.17
30
0
11
186.067595
21
-5.17
31
0
39
0
210
0
220
0
230
1
0
LINE
5
7C
100
AcDbEntity
8
1
62
256
6
ByLayer
370
18
48
1
60
0
100
AcDbLine
10
142.913315
20
-6.725672
30
0
11
145.113315
21
-6.725672
31
0
39
0
210
0
220
0
230
1
0
LINE
5
7D
100
AcDbEntity
8
1
62
256
6
ByLayer
370
18
48
1
60
0
100
AcDbLine
10
145.113315
20
-6.725672
30
0
11
179
21
-5.17
31
0
39
0
210
0
220
0
230
1
0
LINE
5
7E
100
AcDbEntity
8
1
62
256
6
ByLayer
370
18
48
1
60
0
100
AcDbLine
10
195.4
20
-2.53583
30
0
11
195.4
21
-2.613611
31
0
39
0
210
0
220
0
230
1
0
LINE
5
7F
100
AcDbEntity
8
1
62
256
6
ByLayer
370
18
48
1
60
0
100
AcDbLine
10
195.751351
20
2.152624
30
0
11
195.751351
21
2.181849
31
0
39
0
210
0
220
0
230
1
0
LINE
5
80
100
AcDbEntity
8
1
62
256
6
ByLayer
370
18
48
1
60
0
100
AcDbLine
10
197.248649
20
2.817568
30
0
11
197.248649
21
2.788344
31
0
39
0
210
0
220
0
230
1
0
LINE
5
81
100
AcDbEntity
8
1
62
256
6
ByLayer
370
18
48
1
60
0
100
AcDbLine
10
196.954226
20
1.740687
30
0
11
196.954226
21
1.710088
31
0
39
0
210
0
220
0
230
1
0
LINE
5
82
100
AcDbEntity
8
1
62
256
6
ByLayer
370
18
48
1
60
0
100
AcDbLine
10
195.025
20
2.499709
30
0
11
195.025
21
2.472195
31
0
39
0
210
0
220
0
230
1
0
LINE
5
83
100
AcDbEntity
8
1
62
256
6
ByLayer
370
18
48
1
60
0
100
AcDbLine
10
197.975
20
2.472195
30
0
11
197.975
21
2.499709
31
0
39
0
210
0
220
0
230
1
0
LINE
5
84
100
AcDbEntity
8
SK4
62
256
6
ByLayer
370
13
48
0.05
60
0
100
AcDbLine
10
205
20
0
30
0
11
-5
21
0
31
0
39
0
210
0
220
0
230
1
0
LINE
5
86
100
AcDbEntity
8
1
62
256
6
ByLayer
370
13
48
1
60
0
100
AcDbLine
10
195.318477
20
1.316096
30
0
11
195.323548
21
1.311006
31
0
39
0
210
0
220
0
230
1
0
LINE
5
87
100
AcDbEntity
8
1
62
256
6
ByLayer
370
13
48
1
60
0
100
AcDbLine
10
195.562236
20
2.501169
30
0
11
195.562236
21
2.46955
31
0
39
0
210
0
220
0
230
1
0
LINE
5
88
100
AcDbEntity
8
1
62
256
6
ByLayer
370
13
48
1
60
0
100
AcDbLine
10
196.039764
20
3.293393
30
0
11
196.039764
21
3.26216
31
0
39
0
210
0
220
0
230
1
0
LINE
5
89
100
AcDbEntity
8
1
62
256
6
ByLayer
370
18
48
1
60
0
100
AcDbLine
10
196.042381
20
1.704514
30
0
11
196.029852
21
1.688767
31
0
39
0
210
0
220
0
230
1
0
LINE
5
8A
100
AcDbEntity
8
1
62
256
6
ByLayer
370
18
48
1
60
0
100
AcDbLine
10
197.311397
20
2.969593
30
0
11
197.295641
21
2.957071
31
0
39
0
210
0
220
0
230
1
0
LINE
5
8B
100
AcDbEntity
8
1
62
256
6
ByLayer
370
13
48
1
60
0
100
AcDbLine
10
196.032384
20
3.312111
30
0
11
196.032384
21
3.280492
31
0
39
0
210
0
220
0
230
1
0
LINE
5
8C
100
AcDbEntity
8
1
62
256
6
ByLayer
370
13
48
1
60
0
100
AcDbLine
10
196.029852
20
1.688767
30
0
11
196.029852
21
1.657148
31
0
39
0
210
0
220
0
230
1
0
LINE
5
8D
100
AcDbEntity
8
1
62
256
6
ByLayer
370
18
48
1
60
0
100
AcDbLine
10
196.501461
20
1.562471
30
0
11
196.501461
21
1.530852
31
0
39
0
210
0
220
0
230
1
0
LINE
5
8E
100
AcDbEntity
8
1
62
256
6
ByLayer
370
18
48
1
60
0
100
AcDbLine
10
196.501461
20
1.562471
30
0
11
196.498489
21
1.582369
31
0
39
0
210
0
220
0
230
1
0
LINE
5
8F
100
AcDbEntity
8
1
62
256
6
ByLayer
370
13
48
1
60
0
100
AcDbLine
10
196.042381
20
1.704514
30
0
11
196.042381
21
1.67328
31
0
39
0
210
0
220
0
230
1
0
LINE
5
90
100
AcDbEntity
8
1
62
256
6
ByLayer
370
18
48
1
60
0
100
AcDbLine
10
195.582145
20
2.498199
30
0
11
195.562236
21
2.501169
31
0
39
0
210
0
220
0
230
1
0
LINE
5
91
100
AcDbEntity
8
1
62
256
6
ByLayer
370
13
48
1
60
0
100
AcDbLine
10
197.295641
20
2.957071
30
0
11
197.295641
21
2.925837
31
0
39
0
210
0
220
0
230
1
0
LINE
5
92
100
AcDbEntity
8
1
62
256
6
ByLayer
370
18
48
1
60
0
100
AcDbLine
10
197.312858
20
2.032355
30
0
11
197.29413
21
2.039731
31
0
39
0
210
0
220
0
230
1
0
LINE
5
93
100
AcDbEntity
8
1
62
256
6
ByLayer
370
13
48
1
60
0
100
AcDbLine
10
197.312858
20
2.032355
30
0
11
197.312858
21
2.000736
31
0
39
0
210
0
220
0
230
1
0
LINE
5
94
100
AcDbEntity
8
1
62
256
6
ByLayer
370
13
48
1
60
0
100
AcDbLine
10
197.311397
20
2.969593
30
0
11
197.311397
21
2.937974
31
0
39
0
210
0
220
0
230
1
0
LINE
5
95
100
AcDbEntity
8
1
62
256
6
ByLayer
370
18
48
1
60
0
100
AcDbLine
10
196.498489
20
1.582369
30
0
11
196.498489
21
1.551135
31
0
39
0
210
0
220
0
230
1
0
LINE
5
96
100
AcDbEntity
8
1
62
256
6
ByLayer
370
13
48
1
60
0
100
AcDbLine
10
195.582145
20
2.498199
30
0
11
195.582145
21
2.466965
31
0
39
0
210
0
220
0
230
1
0
LINE
5
97
100
AcDbEntity
8
1
62
256
6
ByLayer
370
13
48
1
60
0
100
AcDbLine
10
197.29413
20
2.039731
30
0
11
197.29413
21
2.008497
31
0
39
0
210
0
220
0
230
1
0
LINE
5
98
100
AcDbEntity
8
1
62
256
6
ByLayer
370
18
48
1
60
0
100
AcDbLine
10
194.23
20
5.16501
30
0
11
186.073203
21
5.16501
31
0
39
0
210
0
220
0
230
1
0
LINE
5
99
100
AcDbEntity
8
1
62
256
6
ByLayer
370
18
48
1
60
0
100
AcDbLine
10
1
20
-7.9955
30
0
11
1
21
7.9955
31
0
39
0
210
0
220
0
230
1
0
LINE
5
9A
100
AcDbEntity
8
1
62
256
6
ByLayer
370
18
48
1
60
0
100
AcDbLine
10
1
20
-0.267854
30
0
11
1
21
7.9955
31
0
39
0
210
0
220
0
230
1
0
LINE
5
9B
100
AcDbEntity
8
1
62
256
6
ByLayer
370
18
48
1
60
0
100
AcDbLine
10
140.5
20
-7.690734
30
0
11
140.5
21
7.690734
31
0
39
0
210
0
220
0
230
1
0
LINE
5
9C
100
AcDbEntity
8
1
62
256
6
ByLayer
370
18
48
1
60
0
100
AcDbLine
10
140.5
20
-7.690734
30
0
11
140.5
21
-0.257644
31
0
39
0
210
0
220
0
230
1
0
LINE
5
9D
100
AcDbEntity
8
1
62
256
6
ByLayer
370
18
48
1
60
0
100
AcDbLine
10
194.23
20
0.403015
30
0
11
194
21
0.403015
31
0
39
0
210
0
220
0
230
1
0
LINE
5
9E
100
AcDbEntity
8
1
62
256
6
ByLayer
370
13
48
1
60
0
100
AcDbLine
10
142.913315
20
-6.725672
30
0
11
142.913315
21
6.725672
31
0
39
0
210
0
220
0
230
1
0
LINE
5
9F
100
AcDbEntity
8
1
62
256
6
ByLayer
370
18
48
1
60
0
100
AcDbLine
10
142.913315
20
-6.725672
30
0
11
142.913315
21
-0.225314
31
0
39
0
210
0
220
0
230
1
0
LINE
5
A0
100
AcDbEntity
8
1
62
256
6
ByLayer
370
18
48
1
60
0
100
AcDbLine
10
194.469737
20
-4.753985
30
0
11
194.161878
21
-4.753985
31
0
39
0
210
0
220
0
230
1
0
LINE
5
A1
100
AcDbEntity
8
1
62
256
6
ByLayer
370
18
48
1
60
0
100
AcDbLine
10
0
20
0.234353
30
0
11
0
21
6.9955
31
0
39
0
210
0
220
0
230
1
0
LINE
5
A2
100
AcDbEntity
8
1
62
256
6
ByLayer
370
18
48
1
60
0
100
AcDbLine
10
0
20
0.234353
30
0
11
0
21
0.234353
31
0
39
0
210
0
220
0
230
1
0
LINE
5
A3
100
AcDbEntity
8
1
62
256
6
ByLayer
370
18
48
1
60
0
100
AcDbLine
10
0
20
-6.9955
30
0
11
0
21
0.234353
31
0
39
0
210
0
220
0
230
1
0
LINE
5
A4
100
AcDbEntity
8
1
62
256
6
ByLayer
370
18
48
1
60
0
100
AcDbLine
10
194.23
20
-5.16501
30
0
11
194.23
21
-4.815696
31
0
39
0
210
0
220
0
230
1
0
LINE
5
A5
100
AcDbEntity
8
1
62
256
6
ByLayer
370
18
48
1
60
0
100
AcDbLine
10
194.469737
20
0.243781
30
0
11
194
21
0.243781
31
0
39
0
210
0
220
0
230
1
0
LINE
5
A6
100
AcDbEntity
8
1
62
256
6
ByLayer
370
18
48
1
60
0
100
AcDbLine
10
186.066387
20
-5.169995
30
0
11
186.073203
21
-5.16501
31
0
39
0
210
0
220
0
230
1
0
LINE
5
A7
100
AcDbEntity
8
1
62
256
6
ByLayer
370
18
48
1
60
0
100
AcDbLine
10
145.113315
20
-6.725672
30
0
11
145.113315
21
6.725672
31
0
39
0
210
0
220
0
230
1
0
LINE
5
A8
100
AcDbEntity
8
1
62
256
6
ByLayer
370
18
48
1
60
0
100
AcDbLine
10
145.113315
20
-6.725672
30
0
11
145.113315
21
-0.225314
31
0
39
0
210
0
220
0
230
1
0
LINE
5
A9
100
AcDbEntity
8
1
62
256
6
ByLayer
370
18
48
1
60
0
100
AcDbLine
10
193.009081
20
0.467752
30
0
11
193.009081
21
0.484502
31
0
39
0
210
0
220
0
230
1
0
LINE
5
AA
100
AcDbEntity
8
1
62
256
6
ByLayer
370
18
48
1
60
0
100
AcDbLine
10
194.23
20
0.344724
30
0
11
194.23
21
0.403015
31
0
39
0
210
0
220
0
230
1
0
LINE
5
AB
100
AcDbEntity
8
1
62
256
6
ByLayer
370
18
48
1
60
0
100
AcDbLine
10
194.23
20
5.16501
30
0
11
194.23
21
5.134506
31
0
39
0
210
0
220
0
230
1
0
LINE
5
AC
100
AcDbEntity
8
1
62
256
6
ByLayer
370
18
48
1
60
0
100
AcDbLine
10
194.23
20
-4.815696
30
0
11
194.23
21
-4.790081
31
0
39
0
210
0
220
0
230
1
0
LINE
5
AD
100
AcDbEntity
8
1
62
256
6
ByLayer
370
18
48
1
60
0
100
AcDbLine
10
194.23
20
-5.16501
30
0
11
186.073203
21
-5.16501
31
0
39
0
210
0
220
0
230
1
0
LINE
5
AE
100
AcDbEntity
8
1
62
256
6
ByLayer
370
13
48
1
60
0
100
AcDbLine
10
194
20
0.243781
30
0
11
194
21
0.403015
31
0
39
0
210
0
220
0
230
1
0
LINE
5
AF
100
AcDbEntity
8
1
62
256
6
ByLayer
370
18
48
1
60
0
100
AcDbLine
10
179
20
-5.17
30
0
11
179
21
0.173198
31
0
39
0
210
0
220
0
230
1
0
LINE
5
B0
100
AcDbEntity
8
1
62
256
6
ByLayer
370
18
48
1
60
0
100
AcDbLine
10
179
20
0.173198
30
0
11
179
21
0.173198
31
0
39
0
210
0
220
0
230
1
0
LINE
5
B1
100
AcDbEntity
8
1
62
256
6
ByLayer
370
18
48
1
60
0
100
AcDbLine
10
179
20
0.173198
30
0
11
179
21
5.17
31
0
39
0
210
0
220
0
230
1
0
LINE
5
B2
100
AcDbEntity
8
1
62
256
6
ByLayer
370
18
48
1
60
0
100
AcDbLine
10
140
20
-7.9955
30
0
11
140
21
0.267854
31
0
39
0
210
0
220
0
230
1
0
LINE
5
B3
100
AcDbEntity
8
1
62
256
6
ByLayer
370
18
48
1
60
0
100
AcDbLine
10
140
20
0.267854
30
0
11
140
21
0.267854
31
0
39
0
210
0
220
0
230
1
0
LINE
5
B4
100
AcDbEntity
8
1
62
256
6
ByLayer
370
18
48
1
60
0
100
AcDbLine
10
140
20
0.267854
30
0
11
140
21
7.9955
31
0
39
0
210
0
220
0
230
1
0
LINE
5
B5
100
AcDbEntity
8
1
62
256
6
ByLayer
370
13
48
1
60
0
100
AcDbLine
10
196.367
20
0.224418
30
0
11
196.367
21
0.343049
31
0
39
0
210
0
220
0
230
1
0
LINE
5
B6
100
AcDbEntity
8
1
62
256
6
ByLayer
370
18
48
1
60
0
100
AcDbLine
10
195.1315
20
0.343049
30
0
11
196.367
21
0.343049
31
0
39
0
210
0
220
0
230
1
0
LINE
5
B7
100
AcDbEntity
8
1
62
256
6
ByLayer
370
18
48
1
60
0
100
AcDbLine
10
199.2468
20
-2.992358
30
0
11
199.2468
21
-1.849147
31
0
39
0
210
0
220
0
230
1
0
LINE
5
B8
100
AcDbEntity
8
1
62
256
6
ByLayer
370
18
48
1
60
0
100
AcDbLine
10
199.2468
20
-1.815054
30
0
11
199.2468
21
-1.849147
31
0
39
0
210
0
220
0
230
1
0
LINE
5
B9
100
AcDbEntity
8
1
62
256
6
ByLayer
370
18
48
1
60
0
100
AcDbLine
10
193.707672
20
0.407761
30
0
11
193.707672
21
0.417811
31
0
39
0
210
0
220
0
230
1
0
LINE
5
BA
100
AcDbEntity
8
1
62
256
6
ByLayer
370
13
48
1
60
0
100
AcDbLine
10
194.469737
20
-4.753985
30
0
11
194.469737
21
0.243781
31
0
39
0
210
0
220
0
230
1
0
LINE
5
BB
100
AcDbEntity
8
1
62
256
6
ByLayer
370
18
48
1
60
0
100
AcDbLine
10
195.1315
20
0.344724
30
0
11
194.23
21
0.344724
31
0
39
0
210
0
220
0
230
1
0
LINE
5
BC
100
AcDbEntity
8
1
62
256
6
ByLayer
370
18
48
1
60
0
100
AcDbLine
10
195.1315
20
0.344724
30
0
11
195.1315
21
0.343049
31
0
39
0
210
0
220
0
230
1
0
LINE
5
BD
100
AcDbEntity
8
1
62
256
6
ByLayer
370
13
48
1
60
0
100
AcDbLine
10
194.997517
20
0.238719
30
0
11
194.997517
21
-4.919654
31
0
39
0
210
0
220
0
230
1
0
LINE
5
BE
100
AcDbEntity
8
1
62
256
6
ByLayer
370
18
48
1
60
0
100
AcDbLine
10
195.05201
20
-3.195522
30
0
11
195.05201
21
-2.624444
31
0
39
0
210
0
220
0
230
1
0
LINE
5
BF
100
AcDbEntity
8
1
62
256
6
ByLayer
370
18
48
1
60
0
100
AcDbLine
10
197.55201
20
-2.631741
30
0
11
197.55201
21
-3.524717
31
0
39
0
210
0
220
0
230
1
0
MTEXT
5
138
100
AcDbEntity
8
SK6
62
256
6
ByLayer
370
18
48
1
60
0
100
AcDbMText
10
78.026316
20
-21
30
0
210
0
220
0
230
1
1
\W0.7444;R300-012A16L-07L
40
4
41
0
44
1.084337
50
0
71
7
72
5
7
iso_b_vert
0
DIMENSION
5
146
100
AcDbEntity
8
2
62
256
6
ByLayer
370
13
48
1
60
0
100
AcDbDimension
2
DimnDraft3D1
10
200
20
22.8455
30
0
11
183.7
21
22.8455
31
0
70
32
71
5
72
1
41
1
210
0
220
0
230
1
3
Standard
100
AcDbAlignedDimension
13
196.5
23
6
33
0
14
200
24
2.5
34
0
50
0
100
AcDbRotatedDimension
1001
ACAD
1000
DSTYLE
1002
{
1070
   279
1070
     0
1070
   172
1070
     1
1070
   173
1070
     1
1070
   340
1005
139
1070
   271
1070
     3
1070
   272
1070
     3
1070
    77
1070
     1
1070
    73
1070
     0
1070
   171
1070
     3
1070
   274
1070
     4
1070
   177
1070
     7
1070
   176
1070
     7
1070
   178
1070
     7
1070
    78
1070
     8
1070
    48
1040
-0.005
1070
    41
1041
3.5
1070
   147
1041
1.75
1070
    42
1041
0.0
1070
    44
1041
2.0
1070
   140
1041
3.5
1070
   343
1005
0
1070
   344
1005
0
1002
}
0
DIMENSION
5
150
100
AcDbEntity
8
2
62
256
6
ByLayer
370
13
48
1
60
0
100
AcDbDimension
2
DimnDraft3D2
10
140
20
32.8455
30
0
11
170
21
32.8455
31
0
70
32
71
5
72
1
41
1
210
0
220
0
230
1
3
Standard
100
AcDbAlignedDimension
13
200
23
2.5
33
0
14
140
24
8
34
0
50
0
100
AcDbRotatedDimension
1001
ACAD
1000
DSTYLE
1002
{
1070
   279
1070
     0
1070
   172
1070
     1
1070
   173
1070
     1
1070
   340
1005
139
1070
   271
1070
     1
1070
   272
1070
     3
1070
    77
1070
     1
1070
    73
1070
     0
1070
   171
1070
     3
1070
   274
1070
     4
1070
   177
1070
     7
1070
   176
1070
     7
1070
   178
1070
     7
1070
    78
1070
     8
1070
    48
1040
-0.005
1070
    41
1041
3.5
1070
   147
1041
1.75
1070
    42
1041
0.0
1070
    44
1041
2.0
1070
   140
1041
3.5
1070
   343
1005
0
1070
   344
1005
0
1002
}
0
DIMENSION
5
15A
100
AcDbEntity
8
2
62
256
6
ByLayer
370
13
48
1
60
0
100
AcDbDimension
2
DimnDraft3D3
10
0
20
42.8455
30
0
11
100
21
42.8455
31
0
70
32
71
5
72
1
41
1
210
0
220
0
230
1
3
Standard
100
AcDbAlignedDimension
13
200
23
2.5
33
0
14
0
24
8
34
0
50
0
100
AcDbRotatedDimension
1001
ACAD
1000
DSTYLE
1002
{
1070
   279
1070
     0
1070
   172
1070
     1
1070
   173
1070
     1
1070
   340
1005
139
1070
   271
1070
     1
1070
   272
1070
     3
1070
    77
1070
     1
1070
    73
1070
     0
1070
   171
1070
     3
1070
   274
1070
     4
1070
   177
1070
     7
1070
   176
1070
     7
1070
   178
1070
     7
1070
    78
1070
     8
1070
    48
1040
-0.005
1070
    41
1041
3.5
1070
   147
1041
1.75
1070
    42
1041
0.0
1070
    44
1041
2.0
1070
   140
1041
3.5
1070
   343
1005
0
1070
   344
1005
0
1002
}
0
DIMENSION
5
165
100
AcDbEntity
8
2
62
256
6
ByLayer
370
13
48
1
60
0
100
AcDbDimension
2
DimnDraft3D4
10
227.725
20
6
30
0
11
227.725
21
-24.920395
31
0
70
32
71
5
72
1
41
1
210
0
220
0
230
1
3
Standard
100
AcDbAlignedDimension
13
196.5
23
-6
33
0
14
196.5
24
6
34
0
50
90
100
AcDbRotatedDimension
1001
ACAD
1000
DSTYLE
1002
{
1070
    74
1070
     0
1070
   279
1070
     0
1070
   172
1070
     1
1070
   173
1070
     1
1070
   340
1005
139
1070
   271
1070
     3
1070
   272
1070
     3
1070
    77
1070
     1
1070
    73
1070
     0
1070
   171
1070
     3
1070
   274
1070
     4
1070
   177
1070
     7
1070
   176
1070
     7
1070
   178
1070
     7
1070
    78
1070
     8
1070
    48
1040
-0.005
1070
    41
1041
3.5
1070
   147
1041
1.75
1070
    42
1041
0.0
1070
    44
1041
2.0
1070
   140
1041
3.5
1070
   343
1005
0
1070
   344
1005
0
1002
}
0
DIMENSION
5
171
100
AcDbEntity
8
SK2
62
256
6
ByLayer
370
13
48
1
60
0
100
AcDbDimension
2
DimnDraft3D5
10
-18.975
20
-8
30
0
11
-18.975
21
-26.920395
31
0
70
32
71
5
72
1
41
1
210
0
220
0
230
1
3
Standard
100
AcDbAlignedDimension
13
0
23
8
33
0
14
0
24
-8
34
0
50
90
100
AcDbRotatedDimension
1001
ACAD
1000
DSTYLE
1002
{
1070
    74
1070
     0
1070
   279
1070
     0
1070
   172
1070
     1
1070
   173
1070
     1
1070
   340
1005
139
1070
   271
1070
     3
1070
   272
1070
     3
1070
    77
1070
     1
1070
    73
1070
     0
1070
   171
1070
     3
1070
   274
1070
     4
1070
   177
1070
     7
1070
   176
1070
     7
1070
   178
1070
     7
1070
    78
1070
     8
1070
    48
1040
-0.005
1070
    41
1041
3.5
1070
   147
1041
1.75
1070
    42
1041
0.0
1070
    44
1041
2.0
1070
   140
1041
3.5
1070
   343
1005
0
1070
   344
1005
0
1002
}
0
ENDSEC
0
SECTION
2
OBJECTS
0
DICTIONARY
5
1db
330
0
100
AcDbDictionary
280
0
281
1
3
ACAD_GROUP
350
1dc
3
ACAD_MLINESTYLE
350
1dd
0
DICTIONARY
5
1dc
330
0
100
AcDbDictionary
280
0
281
1
0
DICTIONARY
5
1dd
330
0
100
AcDbDictionary
280
0
281
1
3
Standard
350
18
0
MLINESTYLE
5
18
330
1dd
100
AcDbMlineStyle
2
Standard
70
0
3

62
256
51
90
52
90
71
2
49
-0.5
62
256
6
ByLayer
49
0.5
62
256
6
ByLayer
0
RASTERVARIABLES
5
1ca
330

100
AcDbRasterVariables
90
0
70
1
71
1
72
1
0
ENDSEC
0
EOF
