  0
SECTION
  2
HEADER
  9
$ACADVER
  1
AC1015
  9
$ACADMAINTVER
 70
    20
  9
$DWGCODEPAGE
  3
ANSI_1252
  9
$INSBASE
 10
0.0
 20
0.0
 30
0.0
  9
$EXTMIN
 10
-22.83260433333333
 20
-14.425
 30
-0.0000000000000021
  9
$EXTMAX
 10
108.8425
 20
96.83260433333334
 30
0.0000000000000017
  9
$LIMMIN
 10
-0.5
 20
-0.5
  9
$LIMMAX
 10
5.0
 20
5.0
  9
$ORTHOMODE
 70
     0
  9
$REGENMODE
 70
     1
  9
$FILLMODE
 70
     1
  9
$QTEXTMODE
 70
     0
  9
$MIRRTEXT
 70
     1
  9
$LTSCALE
 40
1.0
  9
$ATTMODE
 70
     1
  9
$TEXTSIZE
 40
2.5
  9
$TRACEWID
 40
0.05
  9
$TEXTSTYLE
  7
Standard
  9
$CLAYER
  8
NOCUT
  9
$CELTYPE
  6
ByLayer
  9
$CECOLOR
 62
   256
  9
$CELTSCALE
 40
1.0
  9
$DISPSILH
 70
     0
  9
$DIMSCALE
 40
1.0
  9
$DIMASZ
 40
0.18
  9
$DIMEXO
 40
0.0625
  9
$DIMDLI
 40
0.38
  9
$DIMRND
 40
0.0
  9
$DIMDLE
 40
0.0
  9
$DIMEXE
 40
0.18
  9
$DIMTP
 40
0.0
  9
$DIMTM
 40
0.0
  9
$DIMTXT
 40
0.18
  9
$DIMCEN
 40
0.09
  9
$DIMTSZ
 40
0.0
  9
$DIMTOL
 70
     0
  9
$DIMLIM
 70
     0
  9
$DIMTIH
 70
     1
  9
$DIMTOH
 70
     1
  9
$DIMSE1
 70
     0
  9
$DIMSE2
 70
     0
  9
$DIMTAD
 70
     0
  9
$DIMZIN
 70
     0
  9
$DIMBLK
  1

  9
$DIMASO
 70
     1
  9
$DIMSHO
 70
     1
  9
$DIMPOST
  1

  9
$DIMAPOST
  1

  9
$DIMALT
 70
     0
  9
$DIMALTD
 70
     2
  9
$DIMALTF
 40
25.4
  9
$DIMLFAC
 40
1.0
  9
$DIMTOFL
 70
     0
  9
$DIMTVP
 40
0.0
  9
$DIMTIX
 70
     0
  9
$DIMSOXD
 70
     0
  9
$DIMSAH
 70
     0
  9
$DIMBLK1
  1

  9
$DIMBLK2
  1

  9
$DIMSTYLE
  2
Standard
  9
$DIMCLRD
 70
     0
  9
$DIMCLRE
 70
     0
  9
$DIMCLRT
 70
     0
  9
$DIMTFAC
 40
1.0
  9
$DIMGAP
 40
0.09
  9
$DIMJUST
 70
     0
  9
$DIMSD1
 70
     0
  9
$DIMSD2
 70
     0
  9
$DIMTOLJ
 70
     1
  9
$DIMTZIN
 70
     0
  9
$DIMALTZ
 70
     0
  9
$DIMALTTZ
 70
     0
  9
$DIMUPT
 70
     0
  9
$DIMDEC
 70
     4
  9
$DIMTDEC
 70
     4
  9
$DIMALTU
 70
     2
  9
$DIMALTTD
 70
     2
  9
$DIMTXSTY
  7
Standard
  9
$DIMAUNIT
 70
     0
  9
$DIMADEC
 70
     0
  9
$DIMALTRND
 40
0.0
  9
$DIMAZIN
 70
     0
  9
$DIMDSEP
 70
     0
  9
$DIMATFIT
 70
     3
  9
$DIMFRAC
 70
     0
  9
$DIMLDRBLK
  1

  9
$DIMLUNIT
 70
     2
  9
$DIMLWD
 70
     0
  9
$DIMLWE
 70
     0
  9
$DIMTMOVE
 70
     0
  9
$LUNITS
 70
     2
  9
$LUPREC
 70
     4
  9
$SKETCHINC
 40
0.1
  9
$FILLETRAD
 40
0.0
  9
$AUNITS
 70
     0
  9
$AUPREC
 70
     0
  9
$MENU
  1
acad
  9
$ELEVATION
 40
0.0
  9
$PELEVATION
 40
0.0
  9
$THICKNESS
 40
0.0
  9
$LIMCHECK
 70
     0
  9
$CHAMFERA
 40
0.0
  9
$CHAMFERB
 40
0.0
  9
$CHAMFERC
 40
0.0
  9
$CHAMFERD
 40
0.0
  9
$SKPOLY
 70
     0
  9
$TDCREATE
 40
2457459.640530949
  9
$TDUCREATE
 40
2457459.598864283
  9
$TDUPDATE
 40
2457459.644579132
  9
$TDUUPDATE
 40
2457459.602912465
  9
$TDINDWG
 40
0.0040486574
  9
$TDUSRTIMER
 40
0.0040486343
  9
$USRTIMER
 70
     1
  9
$ANGBASE
 50
0.0
  9
$ANGDIR
 70
     0
  9
$PDMODE
 70
     0
  9
$PDSIZE
 40
0.0
  9
$PLINEWID
 40
0.0
  9
$SPLFRAME
 70
     0
  9
$SPLINETYPE
 70
     6
  9
$SPLINESEGS
 70
     8
  9
$HANDSEED
  5
33B
  9
$SURFTAB1
 70
     6
  9
$SURFTAB2
 70
     6
  9
$SURFTYPE
 70
     6
  9
$SURFU
 70
     6
  9
$SURFV
 70
     6
  9
$UCSBASE
  2

  9
$UCSNAME
  2

  9
$UCSORG
 10
0.0
 20
0.0
 30
0.0
  9
$UCSXDIR
 10
1.0
 20
0.0
 30
0.0
  9
$UCSYDIR
 10
0.0
 20
1.0
 30
0.0
  9
$UCSORTHOREF
  2

  9
$UCSORTHOVIEW
 70
     0
  9
$UCSORGTOP
 10
0.0
 20
0.0
 30
0.0
  9
$UCSORGBOTTOM
 10
0.0
 20
0.0
 30
0.0
  9
$UCSORGLEFT
 10
0.0
 20
0.0
 30
0.0
  9
$UCSORGRIGHT
 10
0.0
 20
0.0
 30
0.0
  9
$UCSORGFRONT
 10
0.0
 20
0.0
 30
0.0
  9
$UCSORGBACK
 10
0.0
 20
0.0
 30
0.0
  9
$PUCSBASE
  2

  9
$PUCSNAME
  2

  9
$PUCSORG
 10
0.0
 20
0.0
 30
0.0
  9
$PUCSXDIR
 10
1.0
 20
0.0
 30
0.0
  9
$PUCSYDIR
 10
0.0
 20
1.0
 30
0.0
  9
$PUCSORTHOREF
  2

  9
$PUCSORTHOVIEW
 70
     0
  9
$PUCSORGTOP
 10
0.0
 20
0.0
 30
0.0
  9
$PUCSORGBOTTOM
 10
0.0
 20
0.0
 30
0.0
  9
$PUCSORGLEFT
 10
0.0
 20
0.0
 30
0.0
  9
$PUCSORGRIGHT
 10
0.0
 20
0.0
 30
0.0
  9
$PUCSORGFRONT
 10
0.0
 20
0.0
 30
0.0
  9
$PUCSORGBACK
 10
0.0
 20
0.0
 30
0.0
  9
$USERI1
 70
     0
  9
$USERI2
 70
     0
  9
$USERI3
 70
     0
  9
$USERI4
 70
     0
  9
$USERI5
 70
     0
  9
$USERR1
 40
0.0
  9
$USERR2
 40
0.0
  9
$USERR3
 40
0.0
  9
$USERR4
 40
0.0
  9
$USERR5
 40
0.0
  9
$WORLDVIEW
 70
     1
  9
$SHADEDGE
 70
     3
  9
$SHADEDIF
 70
    70
  9
$TILEMODE
 70
     1
  9
$MAXACTVP
 70
    64
  9
$PINSBASE
 10
0.0
 20
0.0
 30
0.0
  9
$PLIMCHECK
 70
     0
  9
$PEXTMIN
 10
-0.5
 20
-0.5
 30
-0.5
  9
$PEXTMAX
 10
5.0
 20
5.0
 30
5.0
  9
$PLIMMIN
 10
-0.5
 20
-0.5
  9
$PLIMMAX
 10
5.0
 20
5.0
  9
$UNITMODE
 70
     0
  9
$VISRETAIN
 70
     0
  9
$PLINEGEN
 70
     1
  9
$PSLTSCALE
 70
     0
  9
$TREEDEPTH
 70
  3020
  9
$CMLSTYLE
  2
Standard
  9
$CMLJUST
 70
     0
  9
$CMLSCALE
 40
1.0
  9
$PROXYGRAPHICS
 70
     0
  9
$MEASUREMENT
 70
     1
  9
$CELWEIGHT
370
     0
  9
$ENDCAPS
280
     0
  9
$JOINSTYLE
280
     0
  9
$LWDISPLAY
290
     0
  9
$INSUNITS
 70
     0
  9
$HYPERLINKBASE
  1

  9
$STYLESHEET
  1

  9
$XEDIT
290
     1
  9
$CEPSNTYPE
380
     0
  9
$PSTYLEMODE
290
     1
  9
$FINGERPRINTGUID
  2

  9
$VERSIONGUID
  2
{CC2B34C0-EB38-4390-A1D7-CB4E2917E278}
  9
$EXTNAMES
290
     1
  9
$PSVPSCALE
 40
0.0
  9
$OLESTARTUP
290
     0
  0
ENDSEC
  0
SECTION
  2
CLASSES
  0
CLASS
  1
IMAGE
  2
AcDbRasterImage
  3
ISM
 90
    34943
280
     0
281
     1
  0
CLASS
  1
DICTIONARYVAR
  2
AcDbDictionaryVar
  3
ObjectDBX Classes
 90
        0
280
     0
281
     0
  0
CLASS
  1
RASTERVARIABLES
  2
AcDbRasterVariables
  3
ISM
 90
    32768
280
     0
281
     0
  0
CLASS
  1
IMAGEDEF
  2
AcDbRasterImageDef
  3
ISM
 90
    32768
280
     0
281
     0
  0
CLASS
  1
IMAGEDEF_REACTOR
  2
AcDbRasterImageDefReactor
  3
ISM
 90
    32769
280
     0
281
     0
  0
CLASS
  1
IDBUFFER
  2
AcDbIdBuffer
  3
ObjectDBX Classes
 90
    32768
280
     0
281
     0
  0
CLASS
  1
SPATIAL_FILTER
  2
AcDbSpatialFilter
  3
ObjectDBX Classes
 90
    32768
280
     0
281
     0
  0
CLASS
  1
SORTENTSTABLE
  2
AcDbSortentsTable
  3
ObjectDBX Classes
 90
    32768
280
     0
281
     0
  0
CLASS
  1
LAYER_INDEX
  2
AcDbLayerIndex
  3
ObjectDBX Classes
 90
    32768
280
     0
281
     0
  0
CLASS
  1
SPATIAL_INDEX
  2
AcDbSpatialIndex
  3
ObjectDBX Classes
 90
    32768
280
     0
281
     0
  0
CLASS
  1
OBJECT_PTR
  2
CAseDLPNTableRecord
  3
ASE-LPNTableRecord
 90
    32769
280
     0
281
     0
  0
CLASS
  1
LAYOUT
  2
AcDbLayout
  3
ObjectDBX Classes
 90
        0
280
     0
281
     0
  0
CLASS
  1
PLOTSETTINGS
  2
AcDbPlotSettings
  3
ObjectDBX Classes
 90
    32768
280
     0
281
     0
  0
CLASS
  1
ACDBDICTIONARYWDFLT
  2
AcDbDictionaryWithDefault
  3
ObjectDBX Classes
 90
        0
280
     0
281
     0
  0
CLASS
  1
ACDBPLACEHOLDER
  2
AcDbPlaceHolder
  3
ObjectDBX Classes
 90
        0
280
     0
281
     0
  0
CLASS
  1
VBA_PROJECT
  2
AcDbVbaProject
  3
acad
 90
    32768
280
     0
281
     0
  0
CLASS
  1
WIPEOUT
  2
AcDbWipeout
  3
"WipeOut|Product Desc: Object Enabler for WipeOut entity                        |Company: Autodesk, Inc.                        |WEB Address: www.autodesk.com"
 90
    34943
280
     0
281
     1
  0
CLASS
  1
WIPEOUTVARIABLES
  2
AcDbWipeoutVariables
  3
"WipeOut|Product Desc:     WipeOut Dbx Application|Company:          Autodesk, Inc.|WEB Address:      www.autodesk.com"
 90
        0
280
     0
281
     0
  0
CLASS
  1
RTEXT
  2
RText
  3
RText|AutoCAD Express Tool|expresstools@autodesk.com
 90
    35839
280
     0
281
     1
  0
CLASS
  1
ARCALIGNEDTEXT
  2
AcDbArcAlignedText
  3
ATEXT|AutoCAD Express Tool|expresstools@autodesk.com
 90
    32768
280
     0
281
     1
  0
CLASS
  1
SCALE
  2
AcDbScale
  3
ObjectDBX Classes
 90
     1153
280
     0
281
     0
  0
CLASS
  1
MATERIAL
  2
AcDbMaterial
  3
ObjectDBX Classes
 90
     1153
280
     0
281
     0
  0
CLASS
  1
VISUALSTYLE
  2
AcDbVisualStyle
  3
ObjectDBX Classes
 90
     4095
280
     0
281
     0
  0
CLASS
  1
TABLESTYLE
  2
AcDbTableStyle
  3
ObjectDBX Classes
 90
     4095
280
     0
281
     0
  0
CLASS
  1
MLEADERSTYLE
  2
AcDbMLeaderStyle
  3
ACDB_MLEADERSTYLE_CLASS
 90
     4095
280
     0
281
     0
  0
CLASS
  1
CELLSTYLEMAP
  2
AcDbCellStyleMap
  3
ObjectDBX Classes
 90
     1152
280
     0
281
     0
  0
ENDSEC
  0
SECTION
  2
TABLES
  0
TABLE
  2
VPORT
  5
7
330
0
100
AcDbSymbolTable
 70
    16
  0
VPORT
  5
28A
330
7
100
AcDbSymbolTableRecord
100
AcDbViewportTableRecord
  2
*ACTIVE
 70
     0
 10
0.0
 20
0.0
 11
1.0
 21
1.0
 12
193.0800676271576
 22
41.17999799999999
 13
0.0
 23
0.0
 14
1.0
 24
1.0
 15
0.0
 25
0.0
 16
0.0
 26
0.0
 36
1.0
 17
0.0
 27
0.0
 37
0.0
 40
217.8273729531555
 41
2.186577181208053
 42
50.0
 43
272.9400720000001
 44
-272.9400720000001
 50
0.0
 51
0.0
 71
    16
 72
   100
 73
     1
 74
     1
 75
     0
 76
     0
 77
     0
 78
     0
281
     0
 65
     0
110
0.0
120
0.0
130
0.0
111
1.0
121
0.0
131
0.0
112
0.0
122
1.0
132
0.0
 79
     0
146
0.0
  0
VPORT
  5
28B
330
7
100
AcDbSymbolTableRecord
100
AcDbViewportTableRecord
  2
L1
 70
     0
 10
0.0
 20
0.0
 11
1.0
 21
1.0
 12
42.4575
 22
41.17999799999999
 13
0.0
 23
0.0
 14
1.0
 24
1.0
 15
0.0
 25
0.0
 16
0.0
 26
0.0
 36
1.0
 17
0.0
 27
0.0
 37
0.0
 40
254.0
 41
0.6885640000000001
 42
50.0
 43
272.9400720000001
 44
-272.9400720000001
 50
0.0
 51
0.0
 71
    16
 72
   100
 73
     1
 74
     1
 75
     0
 76
     0
 77
     0
 78
     0
281
     0
 65
     0
110
0.0
120
0.0
130
0.0
111
1.0
121
0.0
131
0.0
112
0.0
122
1.0
132
0.0
 79
     0
146
0.0
  0
VPORT
  5
28C
330
7
100
AcDbSymbolTableRecord
100
AcDbViewportTableRecord
  2
L2
 70
     0
 10
0.0
 20
0.0
 11
0.5
 21
1.0
 12
0.0
 22
0.0
 13
0.0
 23
0.0
 14
1.0
 24
1.0
 15
0.0
 25
0.0
 16
0.0
 26
-1.0
 36
0.0
 17
0.0
 27
0.0
 37
0.0
 40
1587.917457
 41
0.6885640000000001
 42
50.0
 43
817.406646
 44
-817.406646
 50
0.0
 51
0.0
 71
    16
 72
   100
 73
     1
 74
     1
 75
     0
 76
     0
 77
     0
 78
     0
281
     0
 65
     0
110
0.0
120
0.0
130
0.0
111
1.0
121
0.0
131
0.0
112
0.0
122
1.0
132
0.0
 79
     0
146
0.0
  0
VPORT
  5
28D
330
7
100
AcDbSymbolTableRecord
100
AcDbViewportTableRecord
  2
L2
 70
     0
 10
0.5
 20
0.0
 11
1.0
 21
1.0
 12
0.0
 22
0.0
 13
0.0
 23
0.0
 14
1.0
 24
1.0
 15
0.0
 25
0.0
 16
1.0
 26
0.0
 36
0.0
 17
0.0
 27
0.0
 37
0.0
 40
1587.917457
 41
0.6885640000000001
 42
50.0
 43
804.051903
 44
-804.051903
 50
0.0
 51
0.0
 71
    16
 72
   100
 73
     1
 74
     1
 75
     0
 76
     0
 77
     0
 78
     0
281
     0
 65
     0
110
0.0
120
0.0
130
0.0
111
1.0
121
0.0
131
0.0
112
0.0
122
1.0
132
0.0
 79
     0
146
0.0
  0
VPORT
  5
28E
330
7
100
AcDbSymbolTableRecord
100
AcDbViewportTableRecord
  2
L3
 70
     0
 10
0.0
 20
0.5
 11
1.0
 21
1.0
 12
42.4575
 22
41.17999799999999
 13
0.0
 23
0.0
 14
1.0
 24
1.0
 15
0.0
 25
0.0
 16
0.0
 26
0.0
 36
1.0
 17
0.0
 27
0.0
 37
0.0
 40
254.0
 41
0.6885640000000001
 42
50.0
 43
272.9400720000001
 44
-272.9400720000001
 50
0.0
 51
0.0
 71
    16
 72
   100
 73
     1
 74
     1
 75
     0
 76
     0
 77
     0
 78
     0
281
     0
 65
     0
110
0.0
120
0.0
130
0.0
111
1.0
121
0.0
131
0.0
112
0.0
122
1.0
132
0.0
 79
     0
146
0.0
  0
VPORT
  5
28F
330
7
100
AcDbSymbolTableRecord
100
AcDbViewportTableRecord
  2
L3
 70
     0
 10
0.0
 20
0.0
 11
1.0
 21
0.5
 12
0.0
 22
0.0
 13
0.0
 23
0.0
 14
1.0
 24
1.0
 15
0.0
 25
0.0
 16
0.0
 26
-1.0
 36
0.0
 17
0.0
 27
0.0
 37
0.0
 40
1587.917457
 41
0.6885640000000001
 42
50.0
 43
817.406646
 44
-817.406646
 50
0.0
 51
0.0
 71
    16
 72
   100
 73
     1
 74
     1
 75
     0
 76
     0
 77
     0
 78
     0
281
     0
 65
     0
110
0.0
120
0.0
130
0.0
111
1.0
121
0.0
131
0.0
112
0.0
122
1.0
132
0.0
 79
     0
146
0.0
  0
VPORT
  5
290
330
7
100
AcDbSymbolTableRecord
100
AcDbViewportTableRecord
  2
L4
 70
     0
 10
0.0
 20
0.5
 11
0.5
 21
1.0
 12
42.4575
 22
41.17999799999999
 13
0.0
 23
0.0
 14
1.0
 24
1.0
 15
0.0
 25
0.0
 16
0.0
 26
0.0
 36
1.0
 17
0.0
 27
0.0
 37
0.0
 40
254.0
 41
0.6885640000000001
 42
50.0
 43
272.9400720000001
 44
-272.9400720000001
 50
0.0
 51
0.0
 71
    16
 72
   100
 73
     1
 74
     1
 75
     0
 76
     0
 77
     0
 78
     0
281
     0
 65
     0
110
0.0
120
0.0
130
0.0
111
1.0
121
0.0
131
0.0
112
0.0
122
1.0
132
0.0
 79
     0
146
0.0
  0
VPORT
  5
291
330
7
100
AcDbSymbolTableRecord
100
AcDbViewportTableRecord
  2
L4
 70
     0
 10
0.0
 20
0.0
 11
0.5
 21
0.5
 12
0.0
 22
0.0
 13
0.0
 23
0.0
 14
1.0
 24
1.0
 15
0.0
 25
0.0
 16
0.0
 26
-1.0
 36
0.0
 17
0.0
 27
0.0
 37
0.0
 40
1587.917457
 41
0.6885640000000001
 42
50.0
 43
817.406646
 44
-817.406646
 50
0.0
 51
0.0
 71
    16
 72
   100
 73
     1
 74
     1
 75
     0
 76
     0
 77
     0
 78
     0
281
     0
 65
     0
110
0.0
120
0.0
130
0.0
111
1.0
121
0.0
131
0.0
112
0.0
122
1.0
132
0.0
 79
     0
146
0.0
  0
VPORT
  5
292
330
7
100
AcDbSymbolTableRecord
100
AcDbViewportTableRecord
  2
L4
 70
     0
 10
0.5
 20
0.0
 11
1.0
 21
0.5
 12
0.0
 22
0.0
 13
0.0
 23
0.0
 14
1.0
 24
1.0
 15
0.0
 25
0.0
 16
1.0
 26
0.0
 36
0.0
 17
0.0
 27
0.0
 37
0.0
 40
1587.917457
 41
0.6885640000000001
 42
50.0
 43
804.051903
 44
-804.051903
 50
0.0
 51
0.0
 71
    16
 72
   100
 73
     1
 74
     1
 75
     0
 76
     0
 77
     0
 78
     0
281
     0
 65
     0
110
0.0
120
0.0
130
0.0
111
1.0
121
0.0
131
0.0
112
0.0
122
1.0
132
0.0
 79
     0
146
0.0
  0
VPORT
  5
293
330
7
100
AcDbSymbolTableRecord
100
AcDbViewportTableRecord
  2
L4
 70
     0
 10
0.5
 20
0.5
 11
1.0
 21
1.0
 12
0.0
 22
0.0
 13
0.0
 23
0.0
 14
1.0
 24
1.0
 15
0.0
 25
0.0
 16
0.5773500000000001
 26
-0.5773500000000001
 36
0.5773500000000001
 17
0.0
 27
0.0
 37
0.0
 40
1558.933959
 41
0.688564
 42
50.0
 43
811.918084
 44
-811.918084
 50
0.0
 51
0.0
 71
    16
 72
   100
 73
     1
 74
     1
 75
     0
 76
     0
 77
     0
 78
     0
281
     0
 65
     0
110
0.0
120
0.0
130
0.0
111
1.0
121
0.0
131
0.0
112
0.0
122
1.0
132
0.0
 79
     0
146
0.0
  0
VPORT
  5
294
330
7
100
AcDbSymbolTableRecord
100
AcDbViewportTableRecord
  2
L6
 70
     0
 10
0.0
 20
0.5
 11
0.333333
 21
1.0
 12
0.0
 22
0.0
 13
0.0
 23
0.0
 14
1.0
 24
1.0
 15
0.0
 25
0.0
 16
0.718873
 26
-0.5850489999999999
 36
0.375419
 17
0.0
 27
0.0
 37
0.0
 40
1645.157538
 41
0.6885640000000001
 42
50.0
 43
851.8005329999999
 44
-851.8005329999999
 50
0.0
 51
0.0
 71
    16
 72
   100
 73
     1
 74
     1
 75
     0
 76
     0
 77
     0
 78
     0
281
     0
 65
     0
110
0.0
120
0.0
130
0.0
111
1.0
121
0.0
131
0.0
112
0.0
122
1.0
132
0.0
 79
     0
146
0.0
  0
VPORT
  5
295
330
7
100
AcDbSymbolTableRecord
100
AcDbViewportTableRecord
  2
L6
 70
     0
 10
0.0
 20
0.0
 11
0.333333
 21
0.5
 12
0.0
 22
0.0
 13
0.0
 23
0.0
 14
1.0
 24
1.0
 15
0.0
 25
0.0
 16
-1.0
 26
0.0
 36
0.0
 17
0.0
 27
0.0
 37
0.0
 40
1587.917457
 41
0.6885640000000001
 42
50.0
 43
804.051903
 44
-804.051903
 50
0.0
 51
0.0
 71
    16
 72
   100
 73
     1
 74
     1
 75
     0
 76
     0
 77
     0
 78
     0
281
     0
 65
     0
110
0.0
120
0.0
130
0.0
111
1.0
121
0.0
131
0.0
112
0.0
122
1.0
132
0.0
 79
     0
146
0.0
  0
VPORT
  5
296
330
7
100
AcDbSymbolTableRecord
100
AcDbViewportTableRecord
  2
L6
 70
     0
 10
0.333333
 20
0.5
 11
0.666667
 21
1.0
 12
42.4575
 22
41.17999799999999
 13
0.0
 23
0.0
 14
1.0
 24
1.0
 15
0.0
 25
0.0
 16
0.0
 26
0.0
 36
1.0
 17
0.0
 27
0.0
 37
0.0
 40
254.0
 41
0.6885640000000001
 42
50.0
 43
272.9400720000001
 44
-272.9400720000001
 50
0.0
 51
0.0
 71
    16
 72
   100
 73
     1
 74
     1
 75
     0
 76
     0
 77
     0
 78
     0
281
     0
 65
     0
110
0.0
120
0.0
130
0.0
111
1.0
121
0.0
131
0.0
112
0.0
122
1.0
132
0.0
 79
     0
146
0.0
  0
VPORT
  5
297
330
7
100
AcDbSymbolTableRecord
100
AcDbViewportTableRecord
  2
L6
 70
     0
 10
0.333333
 20
0.0
 11
0.666667
 21
0.5
 12
0.0
 22
0.0
 13
0.0
 23
0.0
 14
1.0
 24
1.0
 15
0.0
 25
0.0
 16
0.0
 26
-1.0
 36
0.0
 17
0.0
 27
0.0
 37
0.0
 40
1587.917457
 41
0.6885640000000001
 42
50.0
 43
817.406646
 44
-817.406646
 50
0.0
 51
0.0
 71
    16
 72
   100
 73
     1
 74
     1
 75
     0
 76
     0
 77
     0
 78
     0
281
     0
 65
     0
110
0.0
120
0.0
130
0.0
111
1.0
121
0.0
131
0.0
112
0.0
122
1.0
132
0.0
 79
     0
146
0.0
  0
VPORT
  5
298
330
7
100
AcDbSymbolTableRecord
100
AcDbViewportTableRecord
  2
L6
 70
     0
 10
0.666667
 20
0.5
 11
1.0
 21
1.0
 12
0.0
 22
0.0
 13
0.0
 23
0.0
 14
1.0
 24
1.0
 15
0.0
 25
0.0
 16
0.5773500000000001
 26
-0.5773500000000001
 36
0.5773500000000001
 17
0.0
 27
0.0
 37
0.0
 40
1558.933959
 41
0.688564
 42
50.0
 43
811.918084
 44
-811.918084
 50
0.0
 51
0.0
 71
    16
 72
   100
 73
     1
 74
     1
 75
     0
 76
     0
 77
     0
 78
     0
281
     0
 65
     0
110
0.0
120
0.0
130
0.0
111
1.0
121
0.0
131
0.0
112
0.0
122
1.0
132
0.0
 79
     0
146
0.0
  0
VPORT
  5
299
330
7
100
AcDbSymbolTableRecord
100
AcDbViewportTableRecord
  2
L6
 70
     0
 10
0.666667
 20
0.0
 11
1.0
 21
0.5
 12
0.0
 22
0.0
 13
0.0
 23
0.0
 14
1.0
 24
1.0
 15
0.0
 25
0.0
 16
1.0
 26
0.0
 36
0.0
 17
0.0
 27
0.0
 37
0.0
 40
1587.917457
 41
0.6885640000000001
 42
50.0
 43
804.051903
 44
-804.051903
 50
0.0
 51
0.0
 71
    16
 72
   100
 73
     1
 74
     1
 75
     0
 76
     0
 77
     0
 78
     0
281
     0
 65
     0
110
0.0
120
0.0
130
0.0
111
1.0
121
0.0
131
0.0
112
0.0
122
1.0
132
0.0
 79
     0
146
0.0
  0
ENDTAB
  0
TABLE
  2
LTYPE
  5
4
330
0
100
AcDbSymbolTable
 70
     7
  0
LTYPE
  5
11
330
4
100
AcDbSymbolTableRecord
100
AcDbLinetypeTableRecord
  2
ByBlock
 70
     0
  3

 72
    65
 73
     0
 40
0.0
  0
LTYPE
  5
12
330
4
100
AcDbSymbolTableRecord
100
AcDbLinetypeTableRecord
  2
ByLayer
 70
     0
  3

 72
    65
 73
     0
 40
0.0
  0
LTYPE
  5
13
330
4
100
AcDbSymbolTableRecord
100
AcDbLinetypeTableRecord
  2
Continuous
 70
     0
  3
Solid line
 72
    65
 73
     0
 40
0.0
  0
LTYPE
  5
24
330
4
100
AcDbSymbolTableRecord
100
AcDbLinetypeTableRecord
  2
DASHED
 70
     0
  3
__ __ __ __ __ __ __ __ __
 72
    65
 73
     2
 40
25.72
 49
12.86
 74
     0
 49
-12.86
 74
     0
  0
LTYPE
  5
25
330
4
100
AcDbSymbolTableRecord
100
AcDbLinetypeTableRecord
  2
HIDDEN
 70
     0
  3
_ _ _ _ _ _ _ _ _ _ _ _ _ _ _
 72
    65
 73
     2
 40
0.5
 49
0.25
 74
     0
 49
-0.25
 74
     0
  0
LTYPE
  5
26
330
4
100
AcDbSymbolTableRecord
100
AcDbLinetypeTableRecord
  2
PHANTOM
 70
     0
  3
____ _ _ ____ _ _ _____ _ _ ____
 72
    65
 73
     6
 40
50.5
 49
18.0
 74
     0
 49
-6.5
 74
     0
 49
6.5
 74
     0
 49
-6.5
 74
     0
 49
6.5
 74
     0
 49
-6.5
 74
     0
  0
LTYPE
  5
27
330
4
100
AcDbSymbolTableRecord
100
AcDbLinetypeTableRecord
  2
CENTER
 70
     0
  3
____ _ ____ _ ____ _ ____
 72
    65
 73
     4
 40
47.5
 49
22.0
 74
     0
 49
-8.5
 74
     0
 49
8.5
 74
     0
 49
-8.5
 74
     0
  0
LTYPE
  5
28
330
4
100
AcDbSymbolTableRecord
100
AcDbLinetypeTableRecord
  2
DOT
 70
     0
  3
.........................
 72
    65
 73
     2
 40
10.0
 49
0.0
 74
     0
 49
-10.0
 74
     0
  0
LTYPE
  5
29
330
4
100
AcDbSymbolTableRecord
100
AcDbLinetypeTableRecord
  2
DASHDOT
 70
     0
  3
_._._._._._._._._._._._._._._._.
 72
    65
 73
     4
 40
70.0
 49
31.0
 74
     0
 49
-13.0
 74
     0
 49
13.0
 74
     0
 49
-13.0
 74
     0
  0
ENDTAB
  0
TABLE
  2
LAYER
  5
2
330
0
100
AcDbSymbolTable
 70
    10
  0
LAYER
  5
14
330
2
100
AcDbSymbolTableRecord
100
AcDbLayerTableRecord
  2
0
 70
     0
 62
     7
  6
Continuous
370
    -3
390
1D
  0
LAYER
  5
2BC
330
2
100
AcDbSymbolTableRecord
100
AcDbLayerTableRecord
  2
DEFPOINTS
 70
     0
 62
     7
  6
Continuous
290
     0
370
    -3
390
1D
  0
LAYER
  5
2BD
330
2
100
AcDbSymbolTableRecord
100
AcDbLayerTableRecord
  2
NOCUT
 70
     0
 62
     7
  6
Continuous
370
    -3
390
1D
  0
LAYER
  5
2BE
330
2
100
AcDbSymbolTableRecord
100
AcDbLayerTableRecord
  2
CUT
 70
     0
 62
     1
  6
Continuous
370
    -3
390
1D
  0
LAYER
  5
2BF
330
2
100
AcDbSymbolTableRecord
100
AcDbLayerTableRecord
  2
1
 70
     0
 62
     4
  6
Continuous
370
    -3
390
1D
  0
LAYER
  5
2C0
330
2
100
AcDbSymbolTableRecord
100
AcDbLayerTableRecord
  2
SK1
 70
     0
 62
     4
  6
Continuous
370
    -3
390
1D
  0
LAYER
  5
2C1
330
2
100
AcDbSymbolTableRecord
100
AcDbLayerTableRecord
  2
SK4
 70
     0
 62
     2
  6
CENTER
370
    -3
390
1D
  0
LAYER
  5
2C2
330
2
100
AcDbSymbolTableRecord
100
AcDbLayerTableRecord
  2
4
 70
     0
 62
     2
  6
CENTER
370
    -3
390
1D
  0
LAYER
  5
2C3
330
2
100
AcDbSymbolTableRecord
100
AcDbLayerTableRecord
  2
2
 70
     0
 62
     7
  6
Continuous
370
    -3
390
1D
  0
LAYER
  5
2C4
330
2
100
AcDbSymbolTableRecord
100
AcDbLayerTableRecord
  2
SK2
 70
     0
 62
     7
  6
Continuous
370
    -3
390
1D
  0
ENDTAB
  0
TABLE
  2
STYLE
  5
3
330
0
100
AcDbSymbolTable
 70
     2
  0
STYLE
  5
17
330
3
100
AcDbSymbolTableRecord
100
AcDbTextStyleTableRecord
  2
Standard
 70
     0
 40
0.0
 41
1.0
 50
0.0
 71
     0
 42
2.5
  3
txt
  4

  0
STYLE
  5
244
330
3
100
AcDbSymbolTableRecord
100
AcDbTextStyleTableRecord
  2
blockfont
 70
     0
 40
0.0
 41
1.0
 50
0.0
 71
     0
 42
0.2
  3
simplex.shx
  4

  0
ENDTAB
  0
TABLE
  2
VIEW
  5
5
330
0
100
AcDbSymbolTable
 70
     8
  0
VIEW
  5
282
330
5
100
AcDbSymbolTableRecord
100
AcDbViewTableRecord
  2
TOP
 70
     0
 40
254.0
 10
42.4575
 20
41.17999799999999
 41
388.757829
 11
0.0
 21
0.0
 31
1.0
 12
0.0
 22
0.0
 32
0.0
 42
50.0
 43
272.9400720000001
 44
-272.9400720000001
 50
0.0
 71
    16
281
     0
 72
     0
  0
VIEW
  5
283
330
5
100
AcDbSymbolTableRecord
100
AcDbViewTableRecord
  2
FRONT
 70
     0
 40
1587.917457
 10
0.0
 20
0.0
 41
388.757829
 11
0.0
 21
-1.0
 31
0.0
 12
0.0
 22
0.0
 32
0.0
 42
50.0
 43
817.406646
 44
-817.406646
 50
0.0
 71
    16
281
     0
 72
     0
  0
VIEW
  5
284
330
5
100
AcDbSymbolTableRecord
100
AcDbViewTableRecord
  2
RIGHT
 70
     0
 40
1587.917457
 10
0.0
 20
0.0
 41
254.0
 11
1.0
 21
0.0
 31
0.0
 12
0.0
 22
0.0
 32
0.0
 42
50.0
 43
804.051903
 44
-804.051903
 50
0.0
 71
    16
281
     0
 72
     0
  0
VIEW
  5
285
330
5
100
AcDbSymbolTableRecord
100
AcDbViewTableRecord
  2
BACK
 70
     0
 40
1587.917457
 10
0.0
 20
0.0
 41
388.757829
 11
0.0
 21
1.0
 31
0.0
 12
0.0
 22
0.0
 32
0.0
 42
50.0
 43
817.406646
 44
-817.406646
 50
0.0
 71
    16
281
     0
 72
     0
  0
VIEW
  5
286
330
5
100
AcDbSymbolTableRecord
100
AcDbViewTableRecord
  2
BOTTOM
 70
     0
 40
254.0
 10
0.0
 20
0.0
 41
388.757829
 11
0.0
 21
0.0
 31
-1.0
 12
0.0
 22
0.0
 32
0.0
 42
50.0
 43
793.958728
 44
-793.958728
 50
180.0
 71
    16
281
     0
 72
     0
  0
VIEW
  5
287
330
5
100
AcDbSymbolTableRecord
100
AcDbViewTableRecord
  2
LEFT
 70
     0
 40
1587.917457
 10
0.0
 20
0.0
 41
254.0
 11
-1.0
 21
0.0
 31
0.0
 12
0.0
 22
0.0
 32
0.0
 42
50.0
 43
804.051903
 44
-804.051903
 50
0.0
 71
    16
281
     0
 72
     0
  0
VIEW
  5
288
330
5
100
AcDbSymbolTableRecord
100
AcDbViewTableRecord
  2
TFR-ISO
 70
     0
 40
1558.933959
 10
0.0
 20
0.0
 41
454.49842
 11
0.5773500000000001
 21
-0.5773500000000001
 31
0.5773500000000001
 12
0.0
 22
0.0
 32
0.0
 42
50.0
 43
811.918084
 44
-811.918084
 50
0.0
 71
    16
281
     0
 72
     0
  0
VIEW
  5
289
330
5
100
AcDbSymbolTableRecord
100
AcDbViewTableRecord
  2
TFR-TRI
 70
     0
 40
1645.157538
 10
0.0
 20
0.0
 41
442.39492
 11
0.718873
 21
-0.5850489999999999
 31
0.375419
 12
0.0
 22
0.0
 32
0.0
 42
50.0
 43
851.8005329999999
 44
-851.8005329999999
 50
0.0
 71
    16
281
     0
 72
     0
  0
ENDTAB
  0
TABLE
  2
UCS
  5
6
330
0
100
AcDbSymbolTable
 70
     0
  0
ENDTAB
  0
TABLE
  2
APPID
  5
8
330
0
100
AcDbSymbolTable
 70
     3
  0
APPID
  5
16
330
8
100
AcDbSymbolTableRecord
100
AcDbRegAppTableRecord
  2
ACAD
 70
     0
  0
APPID
  5
300
330
8
100
AcDbSymbolTableRecord
100
AcDbRegAppTableRecord
  2
DCO15
 70
     0
  0
APPID
  5
33A
330
8
100
AcDbSymbolTableRecord
100
AcDbRegAppTableRecord
  2
ACAD_MLEADERVER
 70
     0
  0
ENDTAB
  0
TABLE
  2
DIMSTYLE
  5
9
330
0
100
AcDbSymbolTable
 70
     1
100
AcDbDimStyleTable
 71
     0
  0
DIMSTYLE
105
18
102
{ACAD_REACTORS
330
24C
330
258
330
263
330
26D
330
277
330
281
102
}
330
9
100
AcDbSymbolTableRecord
100
AcDbDimStyleTableRecord
  2
Standard
 70
     0
340
17
  0
ENDTAB
  0
TABLE
  2
BLOCK_RECORD
  5
1
330
0
100
AcDbSymbolTable
 70
     6
  0
BLOCK_RECORD
  5
A
330
1
100
AcDbSymbolTableRecord
100
AcDbBlockTableRecord
  2
*MODEL_SPACE
340
20
  0
BLOCK_RECORD
  5
B
330
1
100
AcDbSymbolTableRecord
100
AcDbBlockTableRecord
  2
*PAPER_SPACE
340
21
  0
BLOCK_RECORD
  5
241
330
1
100
AcDbSymbolTableRecord
100
AcDbBlockTableRecord
  2
_D0
340
0
  0
BLOCK_RECORD
  5
24D
330
1
100
AcDbSymbolTableRecord
100
AcDbBlockTableRecord
  2
_D1
340
0
  0
BLOCK_RECORD
  5
259
330
1
100
AcDbSymbolTableRecord
100
AcDbBlockTableRecord
  2
_D2
340
0
  0
BLOCK_RECORD
  5
264
330
1
100
AcDbSymbolTableRecord
100
AcDbBlockTableRecord
  2
_D3
340
0
  0
BLOCK_RECORD
  5
26E
330
1
100
AcDbSymbolTableRecord
100
AcDbBlockTableRecord
  2
_D4
340
0
  0
BLOCK_RECORD
  5
278
330
1
100
AcDbSymbolTableRecord
100
AcDbBlockTableRecord
  2
_D5
340
0
  0
ENDTAB
  0
ENDSEC
  0
SECTION
  2
BLOCKS
  0
BLOCK
  5
D
330
A
100
AcDbEntity
  8
0
390
1D
100
AcDbBlockBegin
  2
*MODEL_SPACE
 70
     0
 10
0.0
 20
0.0
 30
0.0
  3
*MODEL_SPACE
  1

  0
ENDBLK
  5
E
330
A
100
AcDbEntity
  8
0
390
1D
100
AcDbBlockEnd
  0
BLOCK
  5
F
330
B
100
AcDbEntity
 67
     1
  8
0
390
1D
100
AcDbBlockBegin
  2
*PAPER_SPACE
 70
     0
 10
0.0
 20
0.0
 30
0.0
  3
*PAPER_SPACE
  1

  0
ENDBLK
  5
10
330
B
100
AcDbEntity
 67
     1
  8
0
390
1D
100
AcDbBlockEnd
  0
BLOCK
  5
242
330
241
100
AcDbEntity
  8
0
390
1D
100
AcDbBlockBegin
  2
_D0
 70
     0
 10
0.0
 20
0.0
 30
0.0
  3
_D0
  1

  0
MTEXT
  5
243
330
241
100
AcDbEntity
  8
2
390
1D
100
AcDbMText
 10
42.891604
 20
75.739271
 30
0.0
 40
4.57
 41
0.0
 71
     7
 72
     5
  1
\W01.000;\Fsimplex.shx;21
 73
     2
 44
0.9036139999999999
1001
ACAD
1000
MTEXTBEGIN
1070
    73
1070
     2
1070
    44
1040
0.9036139999999999
1070
    74
1070
     0
1000
MTEXTEND
  0
LINE
  5
246
330
241
100
AcDbEntity
  8
2
390
1D
100
AcDbLine
 10
36.0
 20
0.0
 30
0.0
 11
36.0
 21
78.43
 31
0.0
  0
LINE
  5
247
330
241
100
AcDbEntity
  8
2
390
1D
100
AcDbLine
 10
57.0
 20
0.0
 30
0.0
 11
57.0
 21
78.43
 31
0.0
  0
LINE
  5
248
330
241
100
AcDbEntity
  8
2
390
1D
100
AcDbLine
 10
24.575
 20
74.93000000000001
 30
0.0
 11
68.425
 21
74.93000000000001
 31
0.0
  0
SOLID
  5
249
330
241
100
AcDbEntity
  8
2
390
1D
100
AcDbTrace
 10
36.0
 20
74.93000000000001
 30
0.0
 11
31.430002
 21
74.32834799999999
 31
0.0
 12
31.429998
 22
75.53165200000001
 32
0.0
 13
36.0
 23
74.93000000000001
 33
0.0
  0
SOLID
  5
24A
330
241
100
AcDbEntity
  8
2
390
1D
100
AcDbTrace
 10
57.0
 20
74.93000000000001
 30
0.0
 11
61.569998
 21
75.53165200000001
 31
0.0
 12
61.570002
 22
74.32834799999999
 32
0.0
 13
57.0
 23
74.93000000000001
 33
0.0
  0
ENDBLK
  5
24B
330
241
100
AcDbEntity
  8
0
390
1D
100
AcDbBlockEnd
  0
BLOCK
  5
24E
330
24D
100
AcDbEntity
  8
0
390
1D
100
AcDbBlockBegin
  2
_D1
 70
     0
 10
0.0
 20
0.0
 30
0.0
  3
_D1
  1

  0
MTEXT
  5
24F
330
24D
100
AcDbEntity
  8
SK2
390
1D
100
AcDbMText
 10
-16.739271
 20
21.6375
 30
0.0
 40
4.57
 41
0.0
 71
     7
 72
     5
  1
\W01.000;\Fsimplex.shx;6
 11
0.0
 21
1.0
 31
0.0
 73
     2
 44
0.9036139999999999
1001
ACAD
1000
MTEXTBEGIN
1070
    73
1070
     2
1070
    44
1040
0.9036139999999999
1070
    74
1070
     0
1000
MTEXTEND
  0
MTEXT
  5
251
330
24D
100
AcDbEntity
  8
SK2
390
1D
100
AcDbMText
 10
-16.739271
 20
12.533203
 30
0.0
 40
4.57
 41
0.0
 71
     7
 72
     5
  1
\W01.000;\Fsimplex.shx;%%c
 11
0.0
 21
1.0
 31
0.0
 73
     2
 44
0.9036139999999999
1001
ACAD
1000
MTEXTBEGIN
1070
    73
1070
     2
1070
    44
1040
0.9036139999999999
1070
    74
1070
     0
1000
MTEXTEND
  0
LINE
  5
252
330
24D
100
AcDbEntity
  8
SK2
390
1D
100
AcDbLine
 10
0.4
 20
3.0
 30
0.0
 11
-18.2875
 21
3.0
 31
0.0
  0
LINE
  5
253
330
24D
100
AcDbEntity
  8
SK2
390
1D
100
AcDbLine
 10
0.4
 20
-3.0
 30
0.0
 11
-18.2875
 21
-3.0
 31
0.0
  0
LINE
  5
254
330
24D
100
AcDbEntity
  8
SK2
390
1D
100
AcDbLine
 10
-14.7875
 20
-14.425
 30
0.0
 11
-14.7875
 21
25.017396
 31
0.0
  0
SOLID
  5
255
330
24D
100
AcDbEntity
  8
SK2
390
1D
100
AcDbTrace
 10
-14.7875
 20
3.0
 30
0.0
 11
-15.389152
 21
7.569998
 31
0.0
 12
-14.185848
 22
7.570002
 32
0.0
 13
-14.7875
 23
3.0
 33
0.0
  0
SOLID
  5
256
330
24D
100
AcDbEntity
  8
SK2
390
1D
100
AcDbTrace
 10
-14.7875
 20
-3.0
 30
0.0
 11
-14.185848
 21
-7.569998
 31
0.0
 12
-15.389152
 22
-7.570002
 32
0.0
 13
-14.7875
 23
-3.0
 33
0.0
  0
ENDBLK
  5
257
330
24D
100
AcDbEntity
  8
0
390
1D
100
AcDbBlockEnd
  0
BLOCK
  5
25A
330
259
100
AcDbEntity
  8
0
390
1D
100
AcDbBlockBegin
  2
_D2
 70
     0
 10
0.0
 20
0.0
 30
0.0
  3
_D2
  1

  0
MTEXT
  5
25B
330
259
100
AcDbEntity
  8
2
390
1D
100
AcDbMText
 10
104.890729
 20
20.6875
 30
0.0
 40
4.57
 41
0.0
 71
     7
 72
     5
  1
\W01.000;\Fsimplex.shx;4.1
 11
0.0
 21
1.0
 31
0.0
 73
     2
 44
0.9036139999999999
1001
ACAD
1000
MTEXTBEGIN
1070
    73
1070
     2
1070
    44
1040
0.9036139999999999
1070
    74
1070
     0
1000
MTEXTEND
  0
MTEXT
  5
25C
330
259
100
AcDbEntity
  8
2
390
1D
100
AcDbMText
 10
104.890729
 20
11.583203
 30
0.0
 40
4.57
 41
0.0
 71
     7
 72
     5
  1
\W01.000;\Fsimplex.shx;%%c
 11
0.0
 21
1.0
 31
0.0
 73
     2
 44
0.9036139999999999
1001
ACAD
1000
MTEXTBEGIN
1070
    73
1070
     2
1070
    44
1040
0.9036139999999999
1070
    74
1070
     0
1000
MTEXTEND
  0
LINE
  5
25D
330
259
100
AcDbEntity
  8
2
390
1D
100
AcDbLine
 10
57.0
 20
2.049999999999999
 30
0.0
 11
108.8425
 21
2.049999999999999
 31
0.0
  0
LINE
  5
25E
330
259
100
AcDbEntity
  8
2
390
1D
100
AcDbLine
 10
57.0
 20
-2.049999999999999
 30
0.0
 11
108.8425
 21
-2.049999999999999
 31
0.0
  0
LINE
  5
25F
330
259
100
AcDbEntity
  8
2
390
1D
100
AcDbLine
 10
106.8425
 20
-13.475
 30
0.0
 11
106.8425
 21
34.026188
 31
0.0
  0
SOLID
  5
260
330
259
100
AcDbEntity
  8
2
390
1D
100
AcDbTrace
 10
106.8425
 20
2.049999999999999
 30
0.0
 11
106.240848
 21
6.619997999999999
 31
0.0
 12
107.444152
 22
6.620002
 32
0.0
 13
106.8425
 23
2.049999999999999
 33
0.0
  0
SOLID
  5
261
330
259
100
AcDbEntity
  8
2
390
1D
100
AcDbTrace
 10
106.8425
 20
-2.049999999999999
 30
0.0
 11
107.444152
 21
-6.619997999999999
 31
0.0
 12
106.240848
 22
-6.620002
 32
0.0
 13
106.8425
 23
-2.049999999999999
 33
0.0
  0
ENDBLK
  5
262
330
259
100
AcDbEntity
  8
0
390
1D
100
AcDbBlockEnd
  0
BLOCK
  5
265
330
264
100
AcDbEntity
  8
0
390
1D
100
AcDbBlockBegin
  2
_D3
 70
     0
 10
0.0
 20
0.0
 30
0.0
  3
_D3
  1

  0
MTEXT
  5
266
330
264
100
AcDbEntity
  8
2
390
1D
100
AcDbMText
 10
64.2125
 20
60.73927099999999
 30
0.0
 40
4.57
 41
0.0
 71
     7
 72
     5
  1
\W01.000;\Fsimplex.shx;17.6
 73
     2
 44
0.9036139999999999
1001
ACAD
1000
MTEXTBEGIN
1070
    73
1070
     2
1070
    44
1040
0.9036139999999999
1070
    74
1070
     0
1000
MTEXTEND
  0
LINE
  5
267
330
264
100
AcDbEntity
  8
2
390
1D
100
AcDbLine
 10
57.0
 20
0.0
 30
0.0
 11
57.0
 21
63.42999999999999
 31
0.0
  0
LINE
  5
268
330
264
100
AcDbEntity
  8
2
390
1D
100
AcDbLine
 10
39.4
 20
0.0
 30
0.0
 11
39.4
 21
63.42999999999999
 31
0.0
  0
LINE
  5
269
330
264
100
AcDbEntity
  8
2
390
1D
100
AcDbLine
 10
39.4
 20
59.93
 30
0.0
 11
82.53058299999999
 21
59.93
 31
0.0
  0
SOLID
  5
26A
330
264
100
AcDbEntity
  8
2
390
1D
100
AcDbTrace
 10
57.0
 20
59.93
 30
0.0
 11
52.430002
 21
59.328348
 31
0.0
 12
52.42999799999999
 22
60.531652
 32
0.0
 13
57.0
 23
59.93
 33
0.0
  0
SOLID
  5
26B
330
264
100
AcDbEntity
  8
2
390
1D
100
AcDbTrace
 10
39.4
 20
59.93
 30
0.0
 11
43.96999799999999
 21
60.531652
 31
0.0
 12
43.97000199999999
 22
59.328348
 32
0.0
 13
39.4
 23
59.93
 33
0.0
  0
ENDBLK
  5
26C
330
264
100
AcDbEntity
  8
0
390
1D
100
AcDbBlockEnd
  0
BLOCK
  5
26F
330
26E
100
AcDbEntity
  8
0
390
1D
100
AcDbBlockBegin
  2
_D4
 70
     0
 10
0.0
 20
0.0
 30
0.0
  3
_D4
  1

  0
MTEXT
  5
270
330
26E
100
AcDbEntity
  8
SK2
390
1D
100
AcDbMText
 10
24.891604
 20
90.739271
 30
0.0
 40
4.57
 41
0.0
 71
     7
 72
     5
  1
\W01.000;\Fsimplex.shx;57
 73
     2
 44
0.9036139999999999
1001
ACAD
1000
MTEXTBEGIN
1070
    73
1070
     2
1070
    44
1040
0.9036139999999999
1070
    74
1070
     0
1000
MTEXTEND
  0
LINE
  5
271
330
26E
100
AcDbEntity
  8
SK2
390
1D
100
AcDbLine
 10
0.0
 20
0.0
 30
0.0
 11
0.0
 21
91.93000000000001
 31
0.0
  0
LINE
  5
272
330
26E
100
AcDbEntity
  8
SK2
390
1D
100
AcDbLine
 10
57.0
 20
0.0
 30
0.0
 11
57.0
 21
91.93000000000001
 31
0.0
  0
LINE
  5
273
330
26E
100
AcDbEntity
  8
SK2
390
1D
100
AcDbLine
 10
0.0
 20
89.93
 30
0.0
 11
57.0
 21
89.93
 31
0.0
  0
SOLID
  5
274
330
26E
100
AcDbEntity
  8
SK2
390
1D
100
AcDbTrace
 10
0.0
 20
89.93
 30
0.0
 11
4.569998
 21
90.531652
 31
0.0
 12
4.570001999999999
 22
89.328348
 32
0.0
 13
0.0
 23
89.93
 33
0.0
  0
SOLID
  5
275
330
26E
100
AcDbEntity
  8
SK2
390
1D
100
AcDbTrace
 10
57.0
 20
89.93
 30
0.0
 11
52.430002
 21
89.328348
 31
0.0
 12
52.42999799999999
 22
90.531652
 32
0.0
 13
57.0
 23
89.93
 33
0.0
  0
ENDBLK
  5
276
330
26E
100
AcDbEntity
  8
0
390
1D
100
AcDbBlockEnd
  0
BLOCK
  5
279
330
278
100
AcDbEntity
  8
0
390
1D
100
AcDbBlockBegin
  2
_D5
 70
     0
 10
0.0
 20
0.0
 30
0.0
  3
_D5
  1

  0
MTEXT
  5
27A
330
278
100
AcDbEntity
  8
2
390
1D
100
AcDbMText
 10
64.2125
 20
45.739278
 30
0.0
 40
4.57
 41
0.0
 71
     7
 72
     5
  1
\W01.000;\Fsimplex.shx;11.2
 73
     2
 44
0.9036139999999999
1001
ACAD
1000
MTEXTBEGIN
1070
    73
1070
     2
1070
    44
1040
0.9036139999999999
1070
    74
1070
     0
1000
MTEXTEND
  0
LINE
  5
27B
330
278
100
AcDbEntity
  8
2
390
1D
100
AcDbLine
 10
45.8
 20
0.0
 30
0.0
 11
45.8
 21
46.930007
 31
0.0
  0
LINE
  5
27C
330
278
100
AcDbEntity
  8
2
390
1D
100
AcDbLine
 10
57.0
 20
0.0
 30
0.0
 11
57.0
 21
46.930007
 31
0.0
  0
LINE
  5
27D
330
278
100
AcDbEntity
  8
2
390
1D
100
AcDbLine
 10
45.8
 20
44.930007
 30
0.0
 11
82.53058299999999
 21
44.930007
 31
0.0
  0
SOLID
  5
27E
330
278
100
AcDbEntity
  8
2
390
1D
100
AcDbTrace
 10
45.8
 20
44.930007
 30
0.0
 11
50.369998
 21
45.531659
 31
0.0
 12
50.370002
 22
44.328355
 32
0.0
 13
45.8
 23
44.930007
 33
0.0
  0
SOLID
  5
27F
330
278
100
AcDbEntity
  8
2
390
1D
100
AcDbTrace
 10
57.0
 20
44.930007
 30
0.0
 11
52.430002
 21
44.328355
 31
0.0
 12
52.42999799999999
 22
45.531659
 32
0.0
 13
57.0
 23
44.930007
 33
0.0
  0
ENDBLK
  5
280
330
278
100
AcDbEntity
  8
0
390
1D
100
AcDbBlockEnd
  0
ENDSEC
  0
SECTION
  2
ENTITIES
  0
POINT
  5
2A
330
A
100
AcDbEntity
  8
DEFPOINTS
390
1D
100
AcDbPoint
 10
57.0
 20
0.0
 30
0.0
  0
POINT
  5
2C
330
A
100
AcDbEntity
  8
DEFPOINTS
390
1D
100
AcDbPoint
 10
45.8
 20
2.75
 30
0.0
  0
POINT
  5
2D
330
A
100
AcDbEntity
  8
DEFPOINTS
390
1D
100
AcDbPoint
 10
39.4
 20
0.0
 30
0.0
  0
POINT
  5
2E
330
A
100
AcDbEntity
  8
DEFPOINTS
390
1D
100
AcDbPoint
 10
57.0
 20
2.049999999999999
 30
0.0
  0
POINT
  5
2F
330
A
100
AcDbEntity
  8
DEFPOINTS
390
1D
100
AcDbPoint
 10
45.8
 20
0.0
 30
0.0
  0
POINT
  5
30
330
A
100
AcDbEntity
  8
DEFPOINTS
390
1D
100
AcDbPoint
 10
0.0
 20
0.0
 30
0.0
  0
POINT
  5
31
330
A
100
AcDbEntity
  8
DEFPOINTS
390
1D
100
AcDbPoint
 10
36.0
 20
0.0
 30
0.0
  0
POINT
  5
32
330
A
100
AcDbEntity
  8
DEFPOINTS
390
1D
100
AcDbPoint
 10
45.8
 20
-2.75
 30
0.0
  0
POINT
  5
33
330
A
100
AcDbEntity
  8
DEFPOINTS
390
1D
100
AcDbPoint
 10
57.0
 20
-2.049999999999999
 30
0.0
  0
LINE
  5
42
330
A
100
AcDbEntity
  8
CUT
390
1D
100
AcDbLine
 10
45.034855
 20
-2.75
 30
0.0
 11
45.03489199999999
 21
-2.75
 31
0.0
  0
LINE
  5
44
330
A
100
AcDbEntity
  8
CUT
390
1D
100
AcDbLine
 10
45.03489199999999
 20
2.75
 30
0.0
 11
45.03489199999999
 21
2.316532
 31
0.0
  0
LINE
  5
45
330
A
100
AcDbEntity
  8
CUT
390
1D
100
AcDbLine
 10
45.03489199999999
 20
2.316532
 30
0.0
 11
45.03489199999999
 21
-2.75
 31
0.0
  0
LINE
  5
46
330
A
100
AcDbEntity
  8
CUT
390
1D
100
AcDbLine
 10
45.03489199999999
 20
2.75
 30
0.0
 11
45.034855
 21
2.75
 31
0.0
  0
LINE
  5
47
330
A
100
AcDbEntity
  8
CUT
390
1D
100
AcDbLine
 10
45.439038
 20
2.049999999999999
 30
0.0
 11
45.439038
 21
1.726868999999999
 31
0.0
  0
LINE
  5
48
330
A
100
AcDbEntity
  8
CUT
390
1D
100
AcDbLine
 10
45.439038
 20
1.726868999999999
 30
0.0
 11
45.439038
 21
-2.049999999999999
 31
0.0
  0
LINE
  5
49
330
A
100
AcDbEntity
  8
CUT
390
1D
100
AcDbLine
 10
45.03489199999999
 20
-2.75
 30
0.0
 11
45.439038
 21
-2.049999999999999
 31
0.0
  0
LINE
  5
4A
330
A
100
AcDbEntity
  8
CUT
390
1D
100
AcDbLine
 10
45.439038
 20
2.049999999999999
 30
0.0
 11
45.03489199999999
 21
2.75
 31
0.0
  0
LINE
  5
4B
330
A
100
AcDbEntity
  8
CUT
390
1D
100
AcDbLine
 10
57.0
 20
2.049999999999999
 30
0.0
 11
57.0
 21
1.726868999999999
 31
0.0
  0
LINE
  5
4C
330
A
100
AcDbEntity
  8
CUT
390
1D
100
AcDbLine
 10
57.0
 20
1.726868999999999
 30
0.0
 11
57.0
 21
-2.049999999999999
 31
0.0
  0
LINE
  5
4D
330
A
100
AcDbEntity
  8
CUT
390
1D
100
AcDbLine
 10
57.0
 20
2.049999999999999
 30
0.0
 11
45.439038
 21
2.049999999999999
 31
0.0
  0
LINE
  5
4E
330
A
100
AcDbEntity
  8
CUT
390
1D
100
AcDbLine
 10
45.439038
 20
-2.049999999999999
 30
0.0
 11
57.0
 21
-2.049999999999999
 31
0.0
  0
LINE
  5
4F
330
A
100
AcDbEntity
  8
CUT
390
1D
100
AcDbLine
 10
45.034855
 20
2.75
 30
0.0
 11
45.034855
 21
-2.75
 31
0.0
  0
LINE
  5
50
330
A
100
AcDbEntity
  8
1
390
1D
100
AcDbLine
 10
56.29999999999999
 20
-0.661728
 30
0.0
 11
56.29999999999999
 21
1.211429
 31
0.0
  0
LINE
  5
52
330
A
100
AcDbEntity
  8
1
390
1D
100
AcDbLine
 10
56.9
 20
-0.7349090000000001
 30
0.0
 11
56.9
 21
1.156321999999999
 31
0.0
  0
LINE
  5
53
330
A
100
AcDbEntity
  8
1
390
1D
100
AcDbLine
 10
55.03903799999999
 20
-0.706629
 30
0.0
 11
55.03903799999999
 21
1.207190999999999
 31
0.0
  0
LINE
  5
54
330
A
100
AcDbEntity
  8
1
390
1D
100
AcDbLine
 10
56.63903799999999
 20
-0.9640069999999999
 30
0.0
 11
56.63903799999999
 21
0.976567
 31
0.0
  0
LINE
  5
55
330
A
100
AcDbEntity
  8
1
390
1D
100
AcDbLine
 10
54.960962
 20
-0.693682
 30
0.0
 11
54.960962
 21
1.217932999999999
 31
0.0
  0
LINE
  5
56
330
A
100
AcDbEntity
  8
1
390
1D
100
AcDbLine
 10
56.560962
 20
-0.951837
 30
0.0
 11
56.560962
 21
0.9882719999999999
 31
0.0
  0
LINE
  5
57
330
A
100
AcDbEntity
  8
1
390
1D
100
AcDbLine
 10
38.966987
 20
1.769961
 30
0.0
 11
38.966987
 21
2.996224999999999
 31
0.0
  0
LINE
  5
58
330
A
100
AcDbEntity
  8
1
390
1D
100
AcDbLine
 10
55.5
 20
-0.5614740000000001
 30
0.0
 11
55.5
 21
1.279876
 31
0.0
  0
LINE
  5
59
330
A
100
AcDbEntity
  8
1
390
1D
100
AcDbLine
 10
38.966987
 20
-2.982699999999999
 30
0.0
 11
38.966987
 21
-1.628408
 31
0.0
  0
LINE
  5
5A
330
A
100
AcDbEntity
  8
1
390
1D
100
AcDbLine
 10
38.57365
 20
3.0
 30
0.0
 11
36.0
 21
3.0
 31
0.0
  0
LINE
  5
5B
330
A
100
AcDbEntity
  8
1
390
1D
100
AcDbLine
 10
54.7
 20
-0.458609
 30
0.0
 11
54.7
 21
1.342395999999999
 31
0.0
  0
LINE
  5
5C
330
A
100
AcDbEntity
  8
1
390
1D
100
AcDbLine
 10
36.0
 20
3.0
 30
0.0
 11
36.0
 21
-3.0
 31
0.0
  0
LINE
  5
5D
330
A
100
AcDbEntity
  8
1
390
1D
100
AcDbLine
 10
55.760962
 20
-0.8247379999999999
 30
0.0
 11
55.760962
 21
1.105570999999999
 31
0.0
  0
LINE
  5
5E
330
A
100
AcDbEntity
  8
1
390
1D
100
AcDbLine
 10
36.0
 20
-3.0
 30
0.0
 11
36.42603900000001
 21
-3.0
 31
0.0
  0
LINE
  5
5F
330
A
100
AcDbEntity
  8
1
390
1D
100
AcDbLine
 10
55.3
 20
-0.535983
 30
0.0
 11
55.3
 21
1.296070999999999
 31
0.0
  0
LINE
  5
60
330
A
100
AcDbEntity
  8
1
390
1D
100
AcDbLine
 10
54.239038
 20
-0.572546
 30
0.0
 11
54.239038
 21
1.314877999999999
 31
0.0
  0
LINE
  5
61
330
A
100
AcDbEntity
  8
1
390
1D
100
AcDbLine
 10
54.160962
 20
-0.5593040000000001
 30
0.0
 11
54.160962
 21
1.325097999999999
 31
0.0
  0
LINE
  5
62
330
A
100
AcDbEntity
  8
1
390
1D
100
AcDbLine
 10
55.839038
 20
-0.837326
 30
0.0
 11
55.839038
 21
1.094337
 31
0.0
  0
LINE
  5
63
330
A
100
AcDbEntity
  8
1
390
1D
100
AcDbLine
 10
54.5
 20
-0.432545
 30
0.0
 11
54.5
 21
1.357070999999999
 31
0.0
  0
LINE
  5
64
330
A
100
AcDbEntity
  8
1
390
1D
100
AcDbLine
 10
53.9
 20
-0.353652
 30
0.0
 11
53.9
 21
1.398737
 31
0.0
  0
LINE
  5
65
330
A
100
AcDbEntity
  8
1
390
1D
100
AcDbLine
 10
56.1
 20
-0.636937
 30
0.0
 11
56.1
 21
1.229084999999999
 31
0.0
  0
LINE
  5
66
330
A
100
AcDbEntity
  8
1
390
1D
100
AcDbLine
 10
39.93523300000001
 20
-1.434689999999999
 30
0.0
 11
39.93523300000001
 21
-2.697395999999999
 31
0.0
  0
LINE
  5
67
330
A
100
AcDbEntity
  8
1
390
1D
100
AcDbLine
 10
53.439038
 20
-0.4357540000000001
 30
0.0
 11
53.439038
 21
1.417049999999999
 31
0.0
  0
LINE
  5
68
330
A
100
AcDbEntity
  8
1
390
1D
100
AcDbLine
 10
53.360962
 20
-0.4222850000000001
 30
0.0
 11
53.360962
 21
1.426711
 31
0.0
  0
LINE
  5
69
330
A
100
AcDbEntity
  8
1
390
1D
100
AcDbLine
 10
53.7
 20
-0.327147
 30
0.0
 11
53.7
 21
1.411824
 31
0.0
  0
LINE
  5
6A
330
A
100
AcDbEntity
  8
1
390
1D
100
AcDbLine
 10
53.1
 20
-0.247131
 30
0.0
 11
53.1
 21
1.448611999999999
 31
0.0
  0
LINE
  5
6B
330
A
100
AcDbEntity
  8
1
390
1D
100
AcDbLine
 10
52.639038
 20
-0.296957
 30
0.0
 11
52.639038
 21
1.513282999999999
 31
0.0
  0
LINE
  5
6C
330
A
100
AcDbEntity
  8
1
390
1D
100
AcDbLine
 10
52.56096199999999
 20
-0.283331
 30
0.0
 11
52.56096199999999
 21
1.522338999999999
 31
0.0
  0
LINE
  5
6D
330
A
100
AcDbEntity
  8
1
390
1D
100
AcDbLine
 10
52.9
 20
-0.220318
 30
0.0
 11
52.9
 21
1.460034999999999
 31
0.0
  0
LINE
  5
6E
330
A
100
AcDbEntity
  8
1
390
1D
100
AcDbLine
 10
45.03489199999999
 20
1.239657999999999
 30
0.0
 11
45.03489199999999
 21
2.518183
 31
0.0
  0
LINE
  5
6F
330
A
100
AcDbEntity
  8
1
390
1D
100
AcDbLine
 10
45.439038
 20
0.9327559999999998
 30
0.0
 11
45.439038
 21
2.033925999999999
 31
0.0
  0
LINE
  5
70
330
A
100
AcDbEntity
  8
1
390
1D
100
AcDbLine
 10
39.93523300000001
 20
2.749122999999999
 30
0.0
 11
39.93523300000001
 21
1.625652999999999
 31
0.0
  0
LINE
  5
71
330
A
100
AcDbEntity
  8
1
390
1D
100
AcDbLine
 10
52.3
 20
-0.13957
 30
0.0
 11
52.3
 21
1.491718999999999
 31
0.0
  0
LINE
  5
72
330
A
100
AcDbEntity
  8
1
390
1D
100
AcDbLine
 10
51.839038
 20
-0.156874
 30
0.0
 11
51.839038
 21
1.603089999999999
 31
0.0
  0
LINE
  5
73
330
A
100
AcDbEntity
  8
1
390
1D
100
AcDbLine
 10
51.76096199999999
 20
-0.14316
 30
0.0
 11
51.76096199999999
 21
1.611491
 31
0.0
  0
LINE
  5
74
330
A
100
AcDbEntity
  8
1
390
1D
100
AcDbLine
 10
52.1
 20
-0.112577
 30
0.0
 11
52.1
 21
1.501402999999999
 31
0.0
  0
LINE
  5
75
330
A
100
AcDbEntity
  8
1
390
1D
100
AcDbLine
 10
51.5
 20
-0.031471
 30
0.0
 11
51.5
 21
1.52777
 31
0.0
  0
LINE
  5
76
330
A
100
AcDbEntity
  8
1
390
1D
100
AcDbLine
 10
51.039038
 20
-0.016211
 30
0.0
 11
51.039038
 21
1.685952
 31
0.0
  0
LINE
  5
77
330
A
100
AcDbEntity
  8
1
390
1D
100
AcDbLine
 10
50.960962
 20
-0.002478
 30
0.0
 11
50.960962
 21
1.693647
 31
0.0
  0
LINE
  5
78
330
A
100
AcDbEntity
  8
1
390
1D
100
AcDbLine
 10
51.29999999999999
 20
-0.004417
 30
0.0
 11
51.29999999999999
 21
1.535649999999999
 31
0.0
  0
LINE
  5
79
330
A
100
AcDbEntity
  8
1
390
1D
100
AcDbLine
 10
50.7
 20
0.076703
 30
0.0
 11
50.7
 21
1.556520999999999
 31
0.0
  0
LINE
  5
7A
330
A
100
AcDbEntity
  8
1
390
1D
100
AcDbLine
 10
50.5
 20
0.103708
 30
0.0
 11
50.5
 21
1.562545
 31
0.0
  0
LINE
  5
7B
330
A
100
AcDbEntity
  8
1
390
1D
100
AcDbLine
 10
50.239038
 20
0.12435
 30
0.0
 11
50.239038
 21
1.761343
 31
0.0
  0
LINE
  5
7C
330
A
100
AcDbEntity
  8
1
390
1D
100
AcDbLine
 10
50.16096199999999
 20
0.138038
 30
0.0
 11
50.16096199999999
 21
1.768281999999999
 31
0.0
  0
LINE
  5
7D
330
A
100
AcDbEntity
  8
1
390
1D
100
AcDbLine
 10
49.9
 20
0.184535
 30
0.0
 11
49.9
 21
1.577792999999999
 31
0.0
  0
LINE
  5
7E
330
A
100
AcDbEntity
  8
1
390
1D
100
AcDbLine
 10
49.43903800000001
 20
0.2641739999999999
 30
0.0
 11
49.43903800000001
 21
1.828761
 31
0.0
  0
LINE
  5
7F
330
A
100
AcDbEntity
  8
1
390
1D
100
AcDbLine
 10
49.360962
 20
0.277758
 30
0.0
 11
49.360962
 21
1.834895999999999
 31
0.0
  0
LINE
  5
80
330
A
100
AcDbEntity
  8
1
390
1D
100
AcDbLine
 10
49.7
 20
0.211396
 30
0.0
 11
49.7
 21
1.581929999999999
 31
0.0
  0
LINE
  5
81
330
A
100
AcDbEntity
  8
1
390
1D
100
AcDbLine
 10
49.1
 20
0.291665
 30
0.0
 11
49.1
 21
1.591493
 31
0.0
  0
LINE
  5
82
330
A
100
AcDbEntity
  8
1
390
1D
100
AcDbLine
 10
48.639038
 20
0.4026830000000001
 30
0.0
 11
48.639038
 21
1.887754
 31
0.0
  0
LINE
  5
83
330
A
100
AcDbEntity
  8
1
390
1D
100
AcDbLine
 10
48.56096199999999
 20
0.4161100000000001
 30
0.0
 11
48.56096199999999
 21
1.893046
 31
0.0
  0
LINE
  5
84
330
A
100
AcDbEntity
  8
1
390
1D
100
AcDbLine
 10
48.9
 20
0.3183
 30
0.0
 11
48.9
 21
1.593733
 31
0.0
  0
LINE
  5
85
330
A
100
AcDbEntity
  8
1
390
1D
100
AcDbLine
 10
43.56766599999999
 20
-2.75
 30
0.0
 11
45.03489199999999
 21
-2.75
 31
0.0
  0
LINE
  5
86
330
A
100
AcDbEntity
  8
1
390
1D
100
AcDbLine
 10
45.03489199999999
 20
-2.75
 30
0.0
 11
45.03489199999999
 21
-2.216139
 31
0.0
  0
LINE
  5
87
330
A
100
AcDbEntity
  8
1
390
1D
100
AcDbLine
 10
48.3
 20
0.397783
 30
0.0
 11
48.3
 21
1.597623999999999
 31
0.0
  0
LINE
  5
88
330
A
100
AcDbEntity
  8
1
390
1D
100
AcDbLine
 10
48.1
 20
0.424119
 30
0.0
 11
48.1
 21
1.597982999999999
 31
0.0
  0
LINE
  5
89
330
A
100
AcDbEntity
  8
1
390
1D
100
AcDbLine
 10
47.839038
 20
0.539357
 30
0.0
 11
47.839038
 21
1.937970999999999
 31
0.0
  0
LINE
  5
8A
330
A
100
AcDbEntity
  8
1
390
1D
100
AcDbLine
 10
47.760962
 20
0.5525770000000002
 30
0.0
 11
47.760962
 21
1.942395
 31
0.0
  0
LINE
  5
8B
330
A
100
AcDbEntity
  8
1
390
1D
100
AcDbLine
 10
47.529521
 20
1.649133
 30
0.0
 11
47.5
 21
1.598
 31
0.0
  0
LINE
  5
8C
330
A
100
AcDbEntity
  8
1
390
1D
100
AcDbLine
 10
47.5
 20
1.598
 30
0.0
 11
47.5
 21
0.502566
 31
0.0
  0
LINE
  5
8D
330
A
100
AcDbEntity
  8
1
390
1D
100
AcDbLine
 10
57.0
 20
-0.746922
 30
0.0
 11
57.0
 21
1.146827999999999
 31
0.0
  0
LINE
  5
8E
330
A
100
AcDbEntity
  8
1
390
1D
100
AcDbLine
 10
47.03903799999999
 20
0.6736620000000001
 30
0.0
 11
47.03903799999999
 21
1.979219999999999
 31
0.0
  0
LINE
  5
8F
330
A
100
AcDbEntity
  8
1
390
1D
100
AcDbLine
 10
46.960962
 20
0.6866210000000001
 30
0.0
 11
46.960962
 21
1.982758
 31
0.0
  0
LINE
  5
90
330
A
100
AcDbEntity
  8
1
390
1D
100
AcDbLine
 10
47.29999999999999
 20
1.598
 30
0.0
 11
47.29999999999999
 21
0.528504
 31
0.0
  0
LINE
  5
91
330
A
100
AcDbEntity
  8
1
390
1D
100
AcDbLine
 10
47.29999999999999
 20
1.598
 30
0.0
 11
47.254421
 21
1.676945999999999
 31
0.0
  0
LINE
  5
92
330
A
100
AcDbEntity
  8
1
390
1D
100
AcDbLine
 10
46.77471699999999
 20
1.727414
 30
0.0
 11
46.7
 21
1.598
 31
0.0
  0
LINE
  5
93
330
A
100
AcDbEntity
  8
1
390
1D
100
AcDbLine
 10
46.7
 20
1.598
 30
0.0
 11
46.7
 21
0.605574
 31
0.0
  0
LINE
  5
94
330
A
100
AcDbEntity
  8
1
390
1D
100
AcDbLine
 10
46.5
 20
1.598
 30
0.0
 11
46.5
 21
0.6309890000000001
 31
0.0
  0
LINE
  5
95
330
A
100
AcDbEntity
  8
1
390
1D
100
AcDbLine
 10
46.5
 20
1.598
 30
0.0
 11
46.401886
 21
1.767938
 31
0.0
  0
LINE
  5
96
330
A
100
AcDbEntity
  8
1
390
1D
100
AcDbLine
 10
46.23903799999999
 20
0.805006
 30
0.0
 11
46.23903799999999
 21
2.011291999999999
 31
0.0
  0
LINE
  5
97
330
A
100
AcDbEntity
  8
1
390
1D
100
AcDbLine
 10
45.439038
 20
-2.049999999999999
 30
0.0
 11
45.439038
 21
-1.238849
 31
0.0
  0
LINE
  5
98
330
A
100
AcDbEntity
  8
1
390
1D
100
AcDbLine
 10
45.03489199999999
 20
-2.75
 30
0.0
 11
45.439038
 21
-2.049999999999999
 31
0.0
  0
LINE
  5
99
330
A
100
AcDbEntity
  8
1
390
1D
100
AcDbLine
 10
46.5
 20
-1.598
 30
0.0
 11
46.5
 21
-0.6103870000000001
 31
0.0
  0
LINE
  5
9A
330
A
100
AcDbEntity
  8
1
390
1D
100
AcDbLine
 10
46.23903799999999
 20
-2.049999999999999
 30
0.0
 11
46.5
 21
-1.598
 31
0.0
  0
LINE
  5
9B
330
A
100
AcDbEntity
  8
1
390
1D
100
AcDbLine
 10
46.23903799999999
 20
-2.049999999999999
 30
0.0
 11
46.23903799999999
 21
-1.349014999999999
 31
0.0
  0
LINE
  5
9C
330
A
100
AcDbEntity
  8
1
390
1D
100
AcDbLine
 10
46.960962
 20
-2.049999999999999
 30
0.0
 11
46.960962
 21
-1.442352
 31
0.0
  0
LINE
  5
9D
330
A
100
AcDbEntity
  8
1
390
1D
100
AcDbLine
 10
46.7
 20
-1.598
 30
0.0
 11
46.960962
 21
-2.049999999999999
 31
0.0
  0
LINE
  5
9E
330
A
100
AcDbEntity
  8
1
390
1D
100
AcDbLine
 10
46.7
 20
-1.598
 30
0.0
 11
46.7
 21
-0.635449
 31
0.0
  0
LINE
  5
9F
330
A
100
AcDbEntity
  8
1
390
1D
100
AcDbLine
 10
47.29999999999999
 20
-1.598
 30
0.0
 11
47.29999999999999
 21
-0.709482
 31
0.0
  0
LINE
  5
A0
330
A
100
AcDbEntity
  8
1
390
1D
100
AcDbLine
 10
47.03903799999999
 20
-2.049999999999999
 30
0.0
 11
47.29999999999999
 21
-1.598
 31
0.0
  0
LINE
  5
A1
330
A
100
AcDbEntity
  8
1
390
1D
100
AcDbLine
 10
47.03903799999999
 20
-2.049999999999999
 30
0.0
 11
47.03903799999999
 21
-1.452093
 31
0.0
  0
LINE
  5
A2
330
A
100
AcDbEntity
  8
1
390
1D
100
AcDbLine
 10
47.760962
 20
-2.049999999999999
 30
0.0
 11
47.760962
 21
-1.538826
 31
0.0
  0
LINE
  5
A3
330
A
100
AcDbEntity
  8
1
390
1D
100
AcDbLine
 10
47.5
 20
-1.598
 30
0.0
 11
47.760962
 21
-2.049999999999999
 31
0.0
  0
LINE
  5
A4
330
A
100
AcDbEntity
  8
1
390
1D
100
AcDbLine
 10
47.5
 20
-1.598
 30
0.0
 11
47.5
 21
-0.733765
 31
0.0
  0
LINE
  5
A5
330
A
100
AcDbEntity
  8
1
390
1D
100
AcDbLine
 10
48.1
 20
-1.598
 30
0.0
 11
48.1
 21
-0.8053869999999999
 31
0.0
  0
LINE
  5
A6
330
A
100
AcDbEntity
  8
1
390
1D
100
AcDbLine
 10
47.5
 20
1.598
 30
0.0
 11
47.29999999999999
 21
1.598
 31
0.0
  0
LINE
  5
A7
330
A
100
AcDbEntity
  8
1
390
1D
100
AcDbLine
 10
47.839038
 20
-2.049999999999999
 30
0.0
 11
48.1
 21
-1.598
 31
0.0
  0
LINE
  5
A8
330
A
100
AcDbEntity
  8
1
390
1D
100
AcDbLine
 10
47.839038
 20
-2.049999999999999
 30
0.0
 11
47.839038
 21
-1.547843
 31
0.0
  0
LINE
  5
A9
330
A
100
AcDbEntity
  8
1
390
1D
100
AcDbLine
 10
49.360962
 20
-2.049999999999999
 30
0.0
 11
49.360962
 21
-1.709118999999999
 31
0.0
  0
LINE
  5
AA
330
A
100
AcDbEntity
  8
1
390
1D
100
AcDbLine
 10
49.1
 20
-1.598
 30
0.0
 11
49.360962
 21
-2.049999999999999
 31
0.0
  0
LINE
  5
AB
330
A
100
AcDbEntity
  8
1
390
1D
100
AcDbLine
 10
49.1
 20
-1.598
 30
0.0
 11
49.1
 21
-0.9205059999999999
 31
0.0
  0
LINE
  5
AC
330
A
100
AcDbEntity
  8
1
390
1D
100
AcDbLine
 10
48.56096199999999
 20
-2.049999999999999
 30
0.0
 11
48.56096199999999
 21
-1.627815
 31
0.0
  0
LINE
  5
AD
330
A
100
AcDbEntity
  8
1
390
1D
100
AcDbLine
 10
48.3
 20
-1.598
 30
0.0
 11
48.56096199999999
 21
-2.049999999999999
 31
0.0
  0
LINE
  5
AE
330
A
100
AcDbEntity
  8
1
390
1D
100
AcDbLine
 10
48.3
 20
-1.598
 30
0.0
 11
48.3
 21
-0.828845
 31
0.0
  0
LINE
  5
AF
330
A
100
AcDbEntity
  8
1
390
1D
100
AcDbLine
 10
48.9
 20
-1.598
 30
0.0
 11
48.9
 21
-0.8979299999999998
 31
0.0
  0
LINE
  5
B0
330
A
100
AcDbEntity
  8
1
390
1D
100
AcDbLine
 10
46.7
 20
1.598
 30
0.0
 11
46.5
 21
1.598
 31
0.0
  0
LINE
  5
B1
330
A
100
AcDbEntity
  8
1
390
1D
100
AcDbLine
 10
45.439038
 20
-2.049999999999999
 30
0.0
 11
46.23903799999999
 21
-2.049999999999999
 31
0.0
  0
LINE
  5
B2
330
A
100
AcDbEntity
  8
1
390
1D
100
AcDbLine
 10
48.639038
 20
-2.049999999999999
 30
0.0
 11
48.9
 21
-1.598
 31
0.0
  0
LINE
  5
B3
330
A
100
AcDbEntity
  8
1
390
1D
100
AcDbLine
 10
48.639038
 20
-2.049999999999999
 30
0.0
 11
48.639038
 21
-1.636092999999999
 31
0.0
  0
LINE
  5
B4
330
A
100
AcDbEntity
  8
1
390
1D
100
AcDbLine
 10
50.16096199999999
 20
-2.049999999999999
 30
0.0
 11
50.16096199999999
 21
-1.782338999999999
 31
0.0
  0
LINE
  5
B5
330
A
100
AcDbEntity
  8
1
390
1D
100
AcDbLine
 10
49.9
 20
-1.598
 30
0.0
 11
50.16096199999999
 21
-2.049999999999999
 31
0.0
  0
LINE
  5
B6
330
A
100
AcDbEntity
  8
1
390
1D
100
AcDbLine
 10
49.9
 20
-1.598
 30
0.0
 11
49.9
 21
-1.008280999999999
 31
0.0
  0
LINE
  5
B7
330
A
100
AcDbEntity
  8
1
390
1D
100
AcDbLine
 10
49.7
 20
-1.598
 30
0.0
 11
49.7
 21
-0.9867370000000001
 31
0.0
  0
LINE
  5
B8
330
A
100
AcDbEntity
  8
1
390
1D
100
AcDbLine
 10
46.5
 20
-1.598
 30
0.0
 11
46.7
 21
-1.598
 31
0.0
  0
LINE
  5
B9
330
A
100
AcDbEntity
  8
1
390
1D
100
AcDbLine
 10
49.43903800000001
 20
-2.049999999999999
 30
0.0
 11
49.7
 21
-1.598
 31
0.0
  0
LINE
  5
BA
330
A
100
AcDbEntity
  8
1
390
1D
100
AcDbLine
 10
49.43903800000001
 20
-2.049999999999999
 30
0.0
 11
49.43903800000001
 21
-1.716627999999999
 31
0.0
  0
LINE
  5
BB
330
A
100
AcDbEntity
  8
1
390
1D
100
AcDbLine
 10
50.5
 20
-1.598
 30
0.0
 11
50.5
 21
-1.071172
 31
0.0
  0
LINE
  5
BC
330
A
100
AcDbEntity
  8
1
390
1D
100
AcDbLine
 10
50.239038
 20
-2.049999999999999
 30
0.0
 11
50.5
 21
-1.598
 31
0.0
  0
LINE
  5
BD
330
A
100
AcDbEntity
  8
1
390
1D
100
AcDbLine
 10
50.239038
 20
-2.049999999999999
 30
0.0
 11
50.239038
 21
-1.789036999999999
 31
0.0
  0
LINE
  5
BE
330
A
100
AcDbEntity
  8
1
390
1D
100
AcDbLine
 10
50.960962
 20
-1.847095999999999
 30
0.0
 11
50.960962
 21
-2.049999999999999
 31
0.0
  0
LINE
  5
BF
330
A
100
AcDbEntity
  8
1
390
1D
100
AcDbLine
 10
46.960962
 20
-2.049999999999999
 30
0.0
 11
47.03903799999999
 21
-2.049999999999999
 31
0.0
  0
LINE
  5
C0
330
A
100
AcDbEntity
  8
1
390
1D
100
AcDbLine
 10
50.7
 20
-1.598
 30
0.0
 11
50.960962
 21
-2.049999999999999
 31
0.0
  0
LINE
  5
C1
330
A
100
AcDbEntity
  8
1
390
1D
100
AcDbLine
 10
50.7
 20
-1.598
 30
0.0
 11
50.7
 21
-1.091525
 31
0.0
  0
LINE
  5
C2
330
A
100
AcDbEntity
  8
1
390
1D
100
AcDbLine
 10
51.29999999999999
 20
-1.598
 30
0.0
 11
51.29999999999999
 21
-1.150625999999999
 31
0.0
  0
LINE
  5
C3
330
A
100
AcDbEntity
  8
1
390
1D
100
AcDbLine
 10
47.29999999999999
 20
-1.598
 30
0.0
 11
47.5
 21
-1.598
 31
0.0
  0
LINE
  5
C4
330
A
100
AcDbEntity
  8
1
390
1D
100
AcDbLine
 10
48.1
 20
-1.598
 30
0.0
 11
48.3
 21
-1.598
 31
0.0
  0
LINE
  5
C5
330
A
100
AcDbEntity
  8
1
390
1D
100
AcDbLine
 10
51.039038
 20
-2.049999999999999
 30
0.0
 11
51.29999999999999
 21
-1.598
 31
0.0
  0
LINE
  5
C6
330
A
100
AcDbEntity
  8
1
390
1D
100
AcDbLine
 10
51.039038
 20
-1.852950999999999
 30
0.0
 11
51.039038
 21
-2.049999999999999
 31
0.0
  0
LINE
  5
C7
330
A
100
AcDbEntity
  8
1
390
1D
100
AcDbLine
 10
51.76096199999999
 20
-1.903104999999999
 30
0.0
 11
51.76096199999999
 21
-2.049999999999999
 31
0.0
  0
LINE
  5
C8
330
A
100
AcDbEntity
  8
1
390
1D
100
AcDbLine
 10
47.760962
 20
-2.049999999999999
 30
0.0
 11
47.839038
 21
-2.049999999999999
 31
0.0
  0
LINE
  5
C9
330
A
100
AcDbEntity
  8
1
390
1D
100
AcDbLine
 10
51.5
 20
-1.598
 30
0.0
 11
51.76096199999999
 21
-2.049999999999999
 31
0.0
  0
LINE
  5
CA
330
A
100
AcDbEntity
  8
1
390
1D
100
AcDbLine
 10
51.5
 20
-1.598
 30
0.0
 11
51.5
 21
-1.169645999999999
 31
0.0
  0
LINE
  5
CB
330
A
100
AcDbEntity
  8
1
390
1D
100
AcDbLine
 10
52.1
 20
-1.598
 30
0.0
 11
52.1
 21
-1.224562
 31
0.0
  0
LINE
  5
CC
330
A
100
AcDbEntity
  8
1
390
1D
100
AcDbLine
 10
48.9
 20
-1.598
 30
0.0
 11
49.1
 21
-1.598
 31
0.0
  0
LINE
  5
CD
330
A
100
AcDbEntity
  8
1
390
1D
100
AcDbLine
 10
49.7
 20
-1.598
 30
0.0
 11
49.9
 21
-1.598
 31
0.0
  0
LINE
  5
CE
330
A
100
AcDbEntity
  8
1
390
1D
100
AcDbLine
 10
48.56096199999999
 20
-2.049999999999999
 30
0.0
 11
48.639038
 21
-2.049999999999999
 31
0.0
  0
LINE
  5
CF
330
A
100
AcDbEntity
  8
1
390
1D
100
AcDbLine
 10
51.839038
 20
-2.049999999999999
 30
0.0
 11
52.1
 21
-1.598
 31
0.0
  0
LINE
  5
D0
330
A
100
AcDbEntity
  8
1
390
1D
100
AcDbLine
 10
51.839038
 20
-1.908094
 30
0.0
 11
51.839038
 21
-2.049999999999999
 31
0.0
  0
LINE
  5
D1
330
A
100
AcDbEntity
  8
1
390
1D
100
AcDbLine
 10
52.56096199999999
 20
-1.950177
 30
0.0
 11
52.56096199999999
 21
-2.049999999999999
 31
0.0
  0
LINE
  5
D2
330
A
100
AcDbEntity
  8
1
390
1D
100
AcDbLine
 10
52.3
 20
-1.598
 30
0.0
 11
52.56096199999999
 21
-2.049999999999999
 31
0.0
  0
LINE
  5
D3
330
A
100
AcDbEntity
  8
1
390
1D
100
AcDbLine
 10
52.3
 20
-1.598
 30
0.0
 11
52.3
 21
-1.242129999999999
 31
0.0
  0
LINE
  5
D4
330
A
100
AcDbEntity
  8
1
390
1D
100
AcDbLine
 10
52.9
 20
-1.292536
 30
0.0
 11
52.9
 21
-1.598
 31
0.0
  0
LINE
  5
D5
330
A
100
AcDbEntity
  8
1
390
1D
100
AcDbLine
 10
50.5
 20
-1.598
 30
0.0
 11
50.7
 21
-1.598
 31
0.0
  0
LINE
  5
D6
330
A
100
AcDbEntity
  8
1
390
1D
100
AcDbLine
 10
49.360962
 20
-2.049999999999999
 30
0.0
 11
49.43903800000001
 21
-2.049999999999999
 31
0.0
  0
LINE
  5
D7
330
A
100
AcDbEntity
  8
1
390
1D
100
AcDbLine
 10
52.639038
 20
-2.049999999999999
 30
0.0
 11
52.9
 21
-1.598
 31
0.0
  0
LINE
  5
D8
330
A
100
AcDbEntity
  8
1
390
1D
100
AcDbLine
 10
52.639038
 20
-1.954288
 30
0.0
 11
52.639038
 21
-2.049999999999999
 31
0.0
  0
LINE
  5
D9
330
A
100
AcDbEntity
  8
1
390
1D
100
AcDbLine
 10
53.360962
 20
-1.988207
 30
0.0
 11
53.360962
 21
-2.049999999999999
 31
0.0
  0
LINE
  5
DA
330
A
100
AcDbEntity
  8
1
390
1D
100
AcDbLine
 10
51.29999999999999
 20
-1.598
 30
0.0
 11
51.5
 21
-1.598
 31
0.0
  0
LINE
  5
DB
330
A
100
AcDbEntity
  8
1
390
1D
100
AcDbLine
 10
53.1
 20
-1.598
 30
0.0
 11
53.360962
 21
-2.049999999999999
 31
0.0
  0
LINE
  5
DC
330
A
100
AcDbEntity
  8
1
390
1D
100
AcDbLine
 10
53.1
 20
-1.308553999999999
 30
0.0
 11
53.1
 21
-1.598
 31
0.0
  0
LINE
  5
DD
330
A
100
AcDbEntity
  8
1
390
1D
100
AcDbLine
 10
53.7
 20
-1.354192999999999
 30
0.0
 11
53.7
 21
-1.598
 31
0.0
  0
LINE
  5
DE
330
A
100
AcDbEntity
  8
1
390
1D
100
AcDbLine
 10
52.1
 20
-1.598
 30
0.0
 11
52.3
 21
-1.598
 31
0.0
  0
LINE
  5
DF
330
A
100
AcDbEntity
  8
1
390
1D
100
AcDbLine
 10
50.16096199999999
 20
-2.049999999999999
 30
0.0
 11
50.239038
 21
-2.049999999999999
 31
0.0
  0
LINE
  5
E0
330
A
100
AcDbEntity
  8
1
390
1D
100
AcDbLine
 10
53.439038
 20
-2.049999999999999
 30
0.0
 11
53.7
 21
-1.598
 31
0.0
  0
LINE
  5
E1
330
A
100
AcDbEntity
  8
1
390
1D
100
AcDbLine
 10
53.439038
 20
-1.991433
 30
0.0
 11
53.439038
 21
-2.049999999999999
 31
0.0
  0
LINE
  5
E2
330
A
100
AcDbEntity
  8
1
390
1D
100
AcDbLine
 10
54.160962
 20
-2.017155999999999
 30
0.0
 11
54.160962
 21
-2.049999999999999
 31
0.0
  0
LINE
  5
E3
330
A
100
AcDbEntity
  8
1
390
1D
100
AcDbLine
 10
53.9
 20
-1.598
 30
0.0
 11
54.160962
 21
-2.049999999999999
 31
0.0
  0
LINE
  5
E4
330
A
100
AcDbEntity
  8
1
390
1D
100
AcDbLine
 10
53.9
 20
-1.368586999999999
 30
0.0
 11
53.9
 21
-1.598
 31
0.0
  0
LINE
  5
E5
330
A
100
AcDbEntity
  8
1
390
1D
100
AcDbLine
 10
54.5
 20
-1.409269
 30
0.0
 11
54.5
 21
-1.598
 31
0.0
  0
LINE
  5
E6
330
A
100
AcDbEntity
  8
1
390
1D
100
AcDbLine
 10
52.9
 20
-1.598
 30
0.0
 11
53.1
 21
-1.598
 31
0.0
  0
LINE
  5
E7
330
A
100
AcDbEntity
  8
1
390
1D
100
AcDbLine
 10
50.960962
 20
-2.049999999999999
 30
0.0
 11
51.039038
 21
-2.049999999999999
 31
0.0
  0
LINE
  5
E8
330
A
100
AcDbEntity
  8
1
390
1D
100
AcDbLine
 10
54.239038
 20
-2.049999999999999
 30
0.0
 11
54.5
 21
-1.598
 31
0.0
  0
LINE
  5
E9
330
A
100
AcDbEntity
  8
1
390
1D
100
AcDbLine
 10
54.239038
 20
-2.019495
 30
0.0
 11
54.239038
 21
-2.049999999999999
 31
0.0
  0
LINE
  5
EA
330
A
100
AcDbEntity
  8
1
390
1D
100
AcDbLine
 10
54.960962
 20
-2.037026
 30
0.0
 11
54.960962
 21
-2.049999999999999
 31
0.0
  0
LINE
  5
EB
330
A
100
AcDbEntity
  8
1
390
1D
100
AcDbLine
 10
54.7
 20
-1.598
 30
0.0
 11
54.960962
 21
-2.049999999999999
 31
0.0
  0
LINE
  5
EC
330
A
100
AcDbEntity
  8
1
390
1D
100
AcDbLine
 10
54.7
 20
-1.421985999999999
 30
0.0
 11
54.7
 21
-1.598
 31
0.0
  0
LINE
  5
ED
330
A
100
AcDbEntity
  8
1
390
1D
100
AcDbLine
 10
55.3
 20
-1.457575
 30
0.0
 11
55.3
 21
-1.598
 31
0.0
  0
LINE
  5
EE
330
A
100
AcDbEntity
  8
1
390
1D
100
AcDbLine
 10
53.7
 20
-1.598
 30
0.0
 11
53.9
 21
-1.598
 31
0.0
  0
LINE
  5
EF
330
A
100
AcDbEntity
  8
1
390
1D
100
AcDbLine
 10
51.76096199999999
 20
-2.049999999999999
 30
0.0
 11
51.839038
 21
-2.049999999999999
 31
0.0
  0
LINE
  5
F0
330
A
100
AcDbEntity
  8
1
390
1D
100
AcDbLine
 10
55.03903799999999
 20
-2.049999999999999
 30
0.0
 11
55.3
 21
-1.598
 31
0.0
  0
LINE
  5
F1
330
A
100
AcDbEntity
  8
1
390
1D
100
AcDbLine
 10
55.03903799999999
 20
-2.038479999999999
 30
0.0
 11
55.03903799999999
 21
-2.049999999999999
 31
0.0
  0
LINE
  5
F2
330
A
100
AcDbEntity
  8
1
390
1D
100
AcDbLine
 10
55.760962
 20
-2.047830999999999
 30
0.0
 11
55.760962
 21
-2.049999999999999
 31
0.0
  0
LINE
  5
F3
330
A
100
AcDbEntity
  8
1
390
1D
100
AcDbLine
 10
55.5
 20
-1.598
 30
0.0
 11
55.760962
 21
-2.049999999999999
 31
0.0
  0
LINE
  5
F4
330
A
100
AcDbEntity
  8
1
390
1D
100
AcDbLine
 10
55.5
 20
-1.468576
 30
0.0
 11
55.5
 21
-1.598
 31
0.0
  0
LINE
  5
F5
330
A
100
AcDbEntity
  8
1
390
1D
100
AcDbLine
 10
56.1
 20
-1.498972
 30
0.0
 11
56.1
 21
-1.598
 31
0.0
  0
LINE
  5
F6
330
A
100
AcDbEntity
  8
1
390
1D
100
AcDbLine
 10
54.5
 20
-1.598
 30
0.0
 11
54.7
 21
-1.598
 31
0.0
  0
LINE
  5
F7
330
A
100
AcDbEntity
  8
1
390
1D
100
AcDbLine
 10
55.839038
 20
-2.049999999999999
 30
0.0
 11
56.1
 21
-1.598
 31
0.0
  0
LINE
  5
F8
330
A
100
AcDbEntity
  8
1
390
1D
100
AcDbLine
 10
55.839038
 20
-2.048399999999999
 30
0.0
 11
55.839038
 21
-2.049999999999999
 31
0.0
  0
LINE
  5
F9
330
A
100
AcDbEntity
  8
1
390
1D
100
AcDbLine
 10
56.29999999999999
 20
-1.508229
 30
0.0
 11
56.29999999999999
 21
-1.598
 31
0.0
  0
LINE
  5
FA
330
A
100
AcDbEntity
  8
1
390
1D
100
AcDbLine
 10
56.29999999999999
 20
-1.598
 30
0.0
 11
56.54464499999999
 21
-2.021738
 31
0.0
  0
LINE
  5
FB
330
A
100
AcDbEntity
  8
1
390
1D
100
AcDbLine
 10
56.9
 20
-1.533354
 30
0.0
 11
56.9
 21
-1.598
 31
0.0
  0
LINE
  5
FC
330
A
100
AcDbEntity
  8
1
390
1D
100
AcDbLine
 10
55.3
 20
-1.598
 30
0.0
 11
55.5
 21
-1.598
 31
0.0
  0
LINE
  5
FD
330
A
100
AcDbEntity
  8
1
390
1D
100
AcDbLine
 10
52.56096199999999
 20
-2.049999999999999
 30
0.0
 11
52.639038
 21
-2.049999999999999
 31
0.0
  0
LINE
  5
FE
330
A
100
AcDbEntity
  8
1
390
1D
100
AcDbLine
 10
56.1
 20
-1.598
 30
0.0
 11
56.29999999999999
 21
-1.598
 31
0.0
  0
LINE
  5
FF
330
A
100
AcDbEntity
  8
1
390
1D
100
AcDbLine
 10
56.663453
 20
-2.007711
 30
0.0
 11
56.9
 21
-1.598
 31
0.0
  0
LINE
  5
100
330
A
100
AcDbEntity
  8
1
390
1D
100
AcDbLine
 10
57.0
 20
-1.598
 30
0.0
 11
57.0
 21
-1.537152999999999
 31
0.0
  0
LINE
  5
101
330
A
100
AcDbEntity
  8
1
390
1D
100
AcDbLine
 10
53.360962
 20
-2.049999999999999
 30
0.0
 11
53.439038
 21
-2.049999999999999
 31
0.0
  0
LINE
  5
102
330
A
100
AcDbEntity
  8
1
390
1D
100
AcDbLine
 10
56.9
 20
-1.598
 30
0.0
 11
57.0
 21
-1.598
 31
0.0
  0
LINE
  5
103
330
A
100
AcDbEntity
  8
1
390
1D
100
AcDbLine
 10
54.160962
 20
-2.049999999999999
 30
0.0
 11
54.239038
 21
-2.049999999999999
 31
0.0
  0
LINE
  5
104
330
A
100
AcDbEntity
  8
1
390
1D
100
AcDbLine
 10
54.960962
 20
-2.049999999999999
 30
0.0
 11
55.03903799999999
 21
-2.049999999999999
 31
0.0
  0
LINE
  5
105
330
A
100
AcDbEntity
  8
1
390
1D
100
AcDbLine
 10
55.760962
 20
-2.049999999999999
 30
0.0
 11
55.839038
 21
-2.049999999999999
 31
0.0
  0
LINE
  5
106
330
A
100
AcDbEntity
  8
SK1
390
1D
100
AcDbLine
 10
0.4
 20
-3.0
 30
0.0
 11
36.0
 21
-3.0
 31
0.0
  0
LINE
  5
108
330
A
100
AcDbEntity
  8
SK1
390
1D
100
AcDbLine
 10
36.0
 20
3.0
 30
0.0
 11
36.0
 21
-3.0
 31
0.0
  0
LINE
  5
109
330
A
100
AcDbEntity
  8
SK1
390
1D
100
AcDbLine
 10
36.0
 20
3.0
 30
0.0
 11
0.4
 21
3.0
 31
0.0
  0
LINE
  5
10A
330
A
100
AcDbEntity
  8
SK1
390
1D
100
AcDbLine
 10
0.4
 20
3.0
 30
0.0
 11
0.4
 21
2.527125999999999
 31
0.0
  0
LINE
  5
10B
330
A
100
AcDbEntity
  8
SK1
390
1D
100
AcDbLine
 10
0.4
 20
2.527125999999999
 30
0.0
 11
0.4
 21
-3.0
 31
0.0
  0
LINE
  5
10C
330
A
100
AcDbEntity
  8
SK1
390
1D
100
AcDbLine
 10
0.0
 20
2.6
 30
0.0
 11
0.0
 21
2.190174999999999
 31
0.0
  0
LINE
  5
10D
330
A
100
AcDbEntity
  8
SK1
390
1D
100
AcDbLine
 10
0.0
 20
2.190174999999999
 30
0.0
 11
0.0
 21
-2.6
 31
0.0
  0
LINE
  5
10E
330
A
100
AcDbEntity
  8
SK1
390
1D
100
AcDbLine
 10
0.4
 20
3.0
 30
0.0
 11
0.0
 21
2.6
 31
0.0
  0
LINE
  5
10F
330
A
100
AcDbEntity
  8
SK1
390
1D
100
AcDbLine
 10
0.0
 20
-2.6
 30
0.0
 11
0.4
 21
-3.0
 31
0.0
  0
ARC
  5
112
330
A
100
AcDbEntity
  8
1
390
1D
100
AcDbCircle
 10
-39.93523300000001
 20
4.75
 30
0.0
 40
2.0
210
0.0
220
0.0
230
-1.0
100
AcDbArc
 50
279.307664
 51
284.029968
  0
ELLIPSE
  5
113
330
A
100
AcDbEntity
  8
1
390
1D
100
AcDbEllipse
 10
48.93793699999999
 20
-14.151114
 30
0.0
 11
62.11685740378334
 21
-11.16720143835552
 31
0.0
210
0.0
220
0.0
230
0.9999999999999998
 40
0.192015
 41
1.669705230987556
 42
1.799791330114631
  0
ELLIPSE
  5
114
330
A
100
AcDbEntity
  8
1
390
1D
100
AcDbEllipse
 10
49.31574799999999
 20
-12.049562
 30
0.0
 11
62.36242388959999
 21
-11.21134872024066
 31
0.0
210
0.0
220
0.0
230
1.0
 40
0.192015
 41
1.669705230999265
 42
1.725502171977313
  0
SPLINE
  5
115
330
A
100
AcDbEntity
  8
1
390
1D
100
AcDbSpline
210
-0.0000000000000252
220
-0.0000000000000295
230
1.0
 70
     8
 71
     3
 72
     8
 73
     4
 74
     0
 42
0.0000000001
 43
0.0000000001
 40
0.0
 40
0.0
 40
0.0
 40
0.0
 40
1.0
 40
1.0
 40
1.0
 40
1.0
 10
56.56096232167374
 20
0.9882723999842824
 30
-0.0000000000000011
 10
56.47551902691509
 20
1.112283185206877
 30
-0.000000000000001
 10
56.38924436823884
 20
1.187075483323894
 30
-0.0000000000000008
 10
56.30000000000001
 20
1.211429252611821
 30
-0.0000000000000004
  0
SPLINE
  5
116
330
A
100
AcDbEntity
  8
1
390
1D
100
AcDbSpline
210
-0.0000000001008872
220
-0.0000000000939175
230
1.0
 70
     8
 71
     3
 72
     8
 73
     4
 74
     0
 42
0.0000000001
 43
0.0000000001
 40
0.0
 40
0.0
 40
0.0
 40
0.0
 40
1.0
 40
1.0
 40
1.0
 40
1.0
 10
56.30000000000001
 20
-0.6617284809453851
 30
-0.0000000000000007
 10
56.311241651506
 20
-0.6736250391723502
 30
-0.0000000000000009
 10
56.32247214781808
 20
-0.6856896778983242
 30
-0.0000000000000008
 10
56.33369013332964
 20
-0.6979187094827921
 30
-0.0000000000000009
  0
SPLINE
  5
117
330
A
100
AcDbEntity
  8
1
390
1D
100
AcDbSpline
210
0.0000000010942687
220
0.0000000079533829
230
1.0
 70
     8
 71
     3
 72
     8
 73
     4
 74
     0
 42
0.0000000001
 43
0.0000000001
 40
0.0
 40
0.0
 40
0.0
 40
0.0
 40
1.0
 40
1.0
 40
1.0
 40
1.0
 10
55.03903767832628
 20
1.207191129975968
 30
-0.000000000000001
 10
55.01301252741342
 20
1.210780013804764
 30
-0.000000000000001
 10
54.98698741146728
 20
1.214360701943405
 30
-0.000000000000001
 10
54.96096232167372
 20
1.217933148200415
 30
-0.0000000000000011
  0
SPLINE
  5
118
330
A
100
AcDbEntity
  8
1
390
1D
100
AcDbSpline
210
0.0000000000000106
220
-0.0000000000000155
230
1.0
 70
     8
 71
     3
 72
     8
 73
     4
 74
     0
 42
0.0000000001
 43
0.0000000001
 40
0.0
 40
0.0
 40
0.0
 40
0.0
 40
1.0
 40
1.0
 40
1.0
 40
1.0
 10
56.89999999999998
 20
1.156321764740994
 30
-0.0000000000000009
 10
56.81157952539269
 20
1.136297309690406
 30
-0.000000000000001
 10
56.72480479437775
 20
1.076794211760841
 30
-0.0000000000000007
 10
56.6390376783263
 20
0.9765673359271431
 30
-0.0000000000000012
  0
SPLINE
  5
119
330
A
100
AcDbEntity
  8
1
390
1D
100
AcDbSpline
210
0.0000000000127233
220
-0.0000000000145471
230
1.0
 70
     8
 71
     3
 72
    10
 73
     6
 74
     0
 42
0.0000000001
 43
0.0000000001
 40
0.0
 40
0.0
 40
0.0
 40
0.0
 40
0.4999194316586483
 40
0.4999194316586483
 40
1.0
 40
1.0
 40
1.0
 40
1.0
 10
56.6390376783263
 20
-0.9640067743329156
 30
-0.0000000000000011
 10
56.67705545005981
 20
-0.9319647526319839
 30
-0.0000000000000011
 10
56.7150690683564
 20
-0.8993251800631014
 30
-0.0000000000000012
 10
56.79107560779339
 20
-0.8328509882753678
 30
-0.000000000000001
 10
56.82907173175107
 20
-0.7990133617774405
 30
-0.0000000000000009
 10
56.86703804381181
 20
-0.764584822105519
 30
-0.0000000000000008
  0
SPLINE
  5
11A
330
A
100
AcDbEntity
  8
1
390
1D
100
AcDbSpline
210
0.0000000002608614
220
-0.0000000002897476
230
1.0
 70
     8
 71
     3
 72
     8
 73
     4
 74
     0
 42
0.0000000001
 43
0.0000000001
 40
0.0
 40
0.0
 40
0.0
 40
0.0
 40
1.0
 40
1.0
 40
1.0
 40
1.0
 10
56.86703804381181
 20
-0.764584822105519
 30
-0.0000000000000009
 10
56.87802362097749
 20
-0.7546229016887765
 30
-0.0000000000000011
 10
56.88901103571589
 20
-0.7447309662888984
 30
-0.0000000000000008
 10
56.90000000000003
 20
-0.7349089495486965
 30
-0.0000000000000009
  0
SPLINE
  5
11B
330
A
100
AcDbEntity
  8
1
390
1D
100
AcDbSpline
210
0.0000000025229312
220
0.0000000152140099
230
0.9999999999999998
 70
     8
 71
     3
 72
     8
 73
     4
 74
     0
 42
0.0000000001
 43
0.0000000001
 40
0.0
 40
0.0
 40
0.0
 40
0.0
 40
1.0
 40
1.0
 40
1.0
 40
1.0
 10
54.96096232167372
 20
-0.6936816979474543
 30
-0.0000000000000013
 10
54.98698733089941
 20
-0.6980027202047836
 30
-0.0000000000000011
 10
55.01301244357501
 20
-0.7023184814436263
 30
-0.0000000000000012
 10
55.03903767832628
 20
-0.7066288825673724
 30
-0.0000000000000012
  0
SPLINE
  5
11C
330
A
100
AcDbEntity
  8
1
390
1D
100
AcDbSpline
210
0.0000000000000067
220
0.0000000000000141
230
-1.0
 70
     8
 71
     3
 72
     8
 73
     4
 74
     0
 42
0.0000000001
 43
0.0000000001
 40
0.0
 40
0.0
 40
0.0
 40
0.0
 40
1.0
 40
1.0
 40
1.0
 40
1.0
 10
54.96096232167372
 20
1.217933148200415
 30
-0.0000000000000011
 10
54.87523091067885
 20
1.310498757738229
 30
-0.0000000000000008
 10
54.78896051051908
 20
1.352581315417807
 30
-0.0000000000000007
 10
54.69999999999998
 20
1.342395528377721
 30
-0.0000000000000006
  0
SPLINE
  5
11D
330
A
100
AcDbEntity
  8
1
390
1D
100
AcDbSpline
210
-0.000000000020995
220
-0.000000000018792
230
1.0
 70
     8
 71
     3
 72
    10
 73
     6
 74
     0
 42
0.0000000001
 43
0.0000000001
 40
0.0
 40
0.0
 40
0.0
 40
0.0
 40
0.4999213151015119
 40
0.4999213151015119
 40
1.0
 40
1.0
 40
1.0
 40
1.0
 10
56.3336901333297
 20
-0.6979187094827921
 30
-0.0000000000000009
 10
56.37153261184425
 20
-0.7391718261419556
 30
-0.000000000000001
 10
56.40939875000618
 20
-0.7809602483426943
 30
-0.000000000000001
 10
56.48516147222114
 20
-0.8656025678967012
 30
-0.0000000000000012
 10
56.5230611657455
 20
-0.908460091406596
 30
-0.000000000000001
 10
56.56096232167374
 20
-0.9518368473209761
 30
-0.0000000000000012
  0
SPLINE
  5
11E
330
A
100
AcDbEntity
  8
1
390
1D
100
AcDbSpline
210
0.0000000000000022
220
0.0000000000000031
230
1.0
 70
     8
 71
     3
 72
    14
 73
    10
 74
     0
 42
0.0000000001
 43
0.0000000001
 40
0.0
 40
0.0
 40
0.0
 40
0.0
 40
0.4999999999999969
 40
0.4999999999999969
 40
0.7499999999999984
 40
0.7499999999999984
 40
0.8749999999999992
 40
0.8749999999999992
 40
1.0
 40
1.0
 40
1.0
 40
1.0
 10
38.96698729810788
 20
-1.62840841288198
 30
-0.0000000000000016
 10
38.51731785646933
 20
-1.49238688265467
 30
-0.0000000000000013
 10
38.07841268942917
 20
-1.333635131178481
 30
-0.0000000000000012
 10
37.47018403844766
 20
-0.9819507017807039
 30
-0.0000000000000016
 10
37.27333616805555
 20
-0.8452425215256766
 30
-0.0000000000000021
 10
37.04120250444385
 20
-0.5734736939135701
 30
-0.0000000000000018
 10
36.97538545372544
 20
-0.4704428843718347
 30
-0.0000000000000018
 10
36.90107704501366
 20
-0.242704015673155
 30
-0.0000000000000019
 10
36.89564667277699
 20
-0.1183367470479197
 30
-0.0000000000000018
 10
36.92577541108557
 20
-0.0001611170997649
 30
-0.0000000000000021
  0
SPLINE
  5
11F
330
A
100
AcDbEntity
  8
1
390
1D
100
AcDbSpline
210
0.0000000000000256
220
0.0000000000003037
230
1.0
 70
     8
 71
     3
 72
     8
 73
     4
 74
     0
 42
0.0000000001
 43
0.0000000001
 40
0.0
 40
0.0
 40
0.0
 40
0.0
 40
1.0
 40
1.0
 40
1.0
 40
1.0
 10
41.83339369257703
 20
1.509502298711481
 30
-0.0000000000000016
 10
42.90203156966612
 20
1.435161062903433
 30
-0.0000000000000017
 10
43.96914912038233
 20
1.345624695278389
 30
-0.0000000000000012
 10
45.03489248989354
 20
1.239657820974344
 30
-0.0000000000000012
  0
SPLINE
  5
120
330
A
100
AcDbEntity
  8
1
390
1D
100
AcDbSpline
210
0.0
220
0.0
230
1.0
 70
     8
 71
     3
 72
     8
 73
     4
 74
     0
 42
0.0000000001
 43
0.0000000001
 40
0.0
 40
0.0
 40
0.0
 40
0.0
 40
1.0
 40
1.0
 40
1.0
 40
1.0
 10
44.93783074625747
 20
-1.179298872995218
 30
-0.0000000000000011
 10
44.88375006723049
 20
-1.512387176315201
 30
-0.000000000000001
 10
44.83010776994899
 20
-1.845643228851826
 30
-0.000000000000001
 10
44.77691262615457
 20
-2.178943763173264
 30
-0.0000000000000011
  0
SPLINE
  5
121
330
A
100
AcDbEntity
  8
1
390
1D
100
AcDbSpline
210
0.0000000000521605
220
0.0000000000709622
230
1.0
 70
     8
 71
     3
 72
     8
 73
     4
 74
     0
 42
0.0000000001
 43
0.0000000001
 40
0.0
 40
0.0
 40
0.0
 40
0.0
 40
1.0
 40
1.0
 40
1.0
 40
1.0
 10
45.32268677720775
 20
1.028114669505554
 30
-0.0000000000000014
 10
45.22674834768082
 20
1.099525785350579
 30
-0.0000000000000012
 10
45.13081824614284
 20
1.170036375041433
 30
-0.0000000000000016
 10
45.03489248989347
 20
1.2396578209744
 30
-0.0000000000000018
  0
SPLINE
  5
122
330
A
100
AcDbEntity
  8
1
390
1D
100
AcDbSpline
210
0.0000000000000015
220
-0.0000000000000075
230
1.0
 70
     8
 71
     3
 72
    10
 73
     6
 74
     0
 42
0.0000000001
 43
0.0000000001
 40
0.0
 40
0.0
 40
0.0
 40
0.0
 40
0.5
 40
0.5
 40
1.0
 40
1.0
 40
1.0
 40
1.0
 10
39.93523313465965
 20
-1.434689600686737
 30
-0.0000000000000011
 10
39.7699017767323
 20
-1.385741714429344
 30
-0.000000000000001
 10
39.59486774466217
 20
-1.373351475122376
 30
-0.0000000000000013
 10
39.2623957367565
 20
-1.444702995609759
 30
-0.0000000000000016
 10
39.10611422516854
 20
-1.525348521984084
 30
-0.0000000000000016
 10
38.96698729810669
 20
-1.628408412880617
 30
-0.0000000000000018
  0
SPLINE
  5
123
330
A
100
AcDbEntity
  8
1
390
1D
100
AcDbSpline
210
-0.00000000000001
220
-0.000000000000015
230
1.0
 70
     8
 71
     3
 72
     8
 73
     4
 74
     0
 42
0.0000000001
 43
0.0000000001
 40
0.0
 40
0.0
 40
0.0
 40
0.0
 40
1.0
 40
1.0
 40
1.0
 40
1.0
 10
55.76096232167373
 20
1.105570641877647
 30
-0.000000000000001
 10
55.6753708547106
 20
1.214103345581009
 30
-0.0000000000000008
 10
55.58909606837925
 20
1.272703992304912
 30
-0.0000000000000007
 10
55.50000000000011
 20
1.279876083311535
 30
-0.0000000000000006
  0
SPLINE
  5
124
330
A
100
AcDbEntity
  8
1
390
1D
100
AcDbSpline
210
0.0
220
0.0000000000000057
230
1.0
 70
     8
 71
     3
 72
    12
 73
     8
 74
     0
 42
0.0000000001
 43
0.0000000001
 40
0.0
 40
0.0
 40
0.0
 40
0.0
 40
0.1103363705284477
 40
0.1103363705284477
 40
0.5551681852642238
 40
0.5551681852642238
 40
1.0
 40
1.0
 40
1.0
 40
1.0
 10
36.55360674445228
 20
-2.994773027893586
 30
-0.0000000000000001
 10
36.63496220103326
 20
-2.992366312059516
 30
-0.0000000000000002
 10
36.72110123329885
 20
-2.990169956529086
 30
0.0
 10
37.16058265457258
 20
-2.980247270258417
 30
-0.0000000000000002
 10
37.52323375866365
 20
-2.976239583097196
 30
0.0
 10
38.24471977626416
 20
-2.977963036491133
 30
-0.0000000000000004
 10
38.60612045050647
 20
-2.980495065636546
 30
0.0
 10
38.96698729810778
 20
-2.982700299573707
 30
-0.0000000000000002
  0
SPLINE
  5
125
330
A
100
AcDbEntity
  8
1
390
1D
100
AcDbSpline
210
-0.0000000000053912
220
0.000000000000807
230
1.0
 70
     8
 71
     3
 72
     8
 73
     4
 74
     0
 42
0.0000000001
 43
0.0000000001
 40
0.0
 40
0.0
 40
0.0
 40
0.0
 40
1.0
 40
1.0
 40
1.0
 40
1.0
 10
44.94406482912717
 20
-1.139897290141334
 30
-0.0000000000000011
 10
44.96197384534321
 20
-1.026073183255789
 30
-0.0000000000000009
 10
44.97887517748671
 20
-0.9131248809524096
 30
-0.0000000000000011
 10
44.99475392404753
 20
-0.8010653237524252
 30
-0.0000000000000012
  0
SPLINE
  5
126
330
A
100
AcDbEntity
  8
1
390
1D
100
AcDbSpline
210
0.0000000003722571
220
-0.000000000051037
230
1.0
 70
     8
 71
     3
 72
     8
 73
     4
 74
     0
 42
0.0000000001
 43
0.0000000001
 40
0.0
 40
0.0
 40
0.0
 40
0.0
 40
1.0
 40
1.0
 40
1.0
 40
1.0
 10
45.02023977055182
 20
-0.6152181450461285
 30
-0.0000000000000011
 10
45.01174431769596
 20
-0.6765523085415453
 30
-0.0000000000000009
 10
45.00324886484003
 20
-0.7386466642385586
 30
-0.0000000000000011
 10
44.99475341198411
 20
-0.801068937486093
 30
-0.0000000000000012
  0
SPLINE
  5
127
330
A
100
AcDbEntity
  8
1
390
1D
100
AcDbSpline
210
0.0000000000004517
220
-0.0000000000000481
230
1.0
 70
     8
 71
     3
 72
    21
 73
    17
 74
     0
 42
0.0000000001
 43
0.0000000001
 40
0.0
 40
0.0
 40
0.0
 40
0.0
 40
0.0654339520779297
 40
0.1318869753968434
 40
0.1993446706984418
 40
0.267789280450343
 40
0.3371995526943974
 40
0.4075506221697915
 40
0.4788139124988625
 40
0.5509570632447836
 40
0.6239438855691777
 40
0.6977343500236721
 40
0.772284609695613
 40
0.8475470614918027
 40
0.9234704477876503
 40
1.0
 40
1.0
 40
1.0
 40
1.0
 10
45.10779537916886
 20
0.2129259776182266
 30
-0.0000000000000008
 10
45.10668535181604
 20
0.1974065000098904
 30
-0.0000000000000007
 10
45.10444800949563
 20
0.1661258437679862
 30
-0.0000000000000009
 10
45.10057522935715
 20
0.117153263995192
 30
-0.0000000000000008
 10
45.09629415171509
 20
0.0662413097953163
 30
-0.0000000000000009
 10
45.09156790522633
 20
0.0132855054609422
 30
-0.0000000000000008
 10
45.08640661995264
 20
-0.0416474971324305
 30
-0.0000000000000008
 10
45.08080754719958
 20
-0.0985258704578769
 30
-0.0000000000000011
 10
45.07477147574372
 20
-0.1572958281610113
 30
-0.0000000000000009
 10
45.06829817650464
 20
-0.2178970298340914
 30
-0.000000000000001
 10
45.06138788470628
 20
-0.2802578435338319
 30
-0.0000000000000009
 10
45.05403999550435
 20
-0.3442981770774622
 30
-0.0000000000000008
 10
45.04625682967792
 20
-0.4099230506756157
 30
-0.0000000000000007
 10
45.03802968699687
 20
-0.4770466170083978
 30
-0.0000000000000012
 10
45.02939153823831
 20
-0.5455028890087874
 30
-0.0000000000000011
 10
45.02329843534665
 20
-0.591918209273274
 30
-0.0000000000000009
 10
45.02023977055182
 20
-0.6152181450461285
 30
-0.0000000000000011
  0
SPLINE
  5
128
330
A
100
AcDbEntity
  8
1
390
1D
100
AcDbSpline
210
0.0000000000000026
220
0.000000000000231
230
1.0
 70
     8
 71
     3
 72
     8
 73
     4
 74
     0
 42
0.0000000001
 43
0.0000000001
 40
0.0
 40
0.0
 40
0.0
 40
0.0
 40
1.0
 40
1.0
 40
1.0
 40
1.0
 10
38.96698729810788
 20
2.996224951219631
 30
0.0
 10
38.83461581871893
 20
2.99861595742334
 30
-0.0000000000000001
 10
38.70317713573411
 20
3.000296399344393
 30
-0.0000000000000001
 10
38.57324917165961
 20
3.000526585360091
 30
-0.0000000000000001
  0
SPLINE
  5
129
330
A
100
AcDbEntity
  8
1
390
1D
100
AcDbSpline
210
0.0
220
0.0
230
1.0
 70
     8
 71
     3
 72
     8
 73
     4
 74
     0
 42
0.0000000001
 43
0.0000000001
 40
0.0
 40
0.0
 40
0.0
 40
0.0
 40
1.0
 40
1.0
 40
1.0
 40
1.0
 10
54.69999999999998
 20
-0.4586092512699906
 30
-0.0000000000000011
 10
54.71199146387711
 20
-0.4686869077331722
 30
-0.0000000000000009
 10
54.72397019004768
 20
-0.4789758855764604
 30
-0.0000000000000009
 10
54.73593442810021
 20
-0.4894724994270518
 30
-0.0000000000000011
  0
SPLINE
  5
12A
330
A
100
AcDbEntity
  8
1
390
1D
100
AcDbSpline
210
0.0000000000010687
220
0.0000000000011777
230
-1.0
 70
     8
 71
     3
 72
    10
 73
     6
 74
     0
 42
0.0000000001
 43
0.0000000001
 40
0.0
 40
0.0
 40
0.0
 40
0.0
 40
0.4999227603066063
 40
0.4999227603066063
 40
1.0
 40
1.0
 40
1.0
 40
1.0
 10
54.73593442810021
 20
-0.4894724994270518
 30
-0.0000000000000012
 10
54.77340984071748
 20
-0.5223508936386452
 30
-0.0000000000000009
 10
54.81090455115122
 20
-0.5558096219658637
 30
-0.0000000000000012
 10
54.88591842733859
 20
-0.6238820962892078
 30
-0.000000000000001
 10
54.92344059743619
 20
-0.6584988024214909
 30
-0.0000000000000012
 10
54.96096232167372
 20
-0.6936816979475111
 30
-0.0000000000000011
  0
SPLINE
  5
12B
330
A
100
AcDbEntity
  8
1
390
1D
100
AcDbSpline
210
0.0000000000000025
220
0.0000000000000168
230
1.0
 70
     8
 71
     3
 72
    10
 73
     6
 74
     0
 42
0.0000000001
 43
0.0000000001
 40
0.0
 40
0.0
 40
0.0
 40
0.0
 40
0.5
 40
0.5
 40
1.0
 40
1.0
 40
1.0
 40
1.0
 10
44.77691267927013
 20
-2.178943768562248
 30
-0.0000000000000011
 10
43.95717604565454
 20
-2.117223020980703
 30
-0.0000000000000011
 10
43.14154662981468
 20
-2.037427006643326
 30
-0.0000000000000011
 10
41.52227315280657
 20
-1.809254516982036
 30
-0.0000000000000013
 10
40.71670927671714
 20
-1.666052881033805
 30
-0.0000000000000013
 10
39.9352331346596
 20
-1.434689600686909
 30
-0.0000000000000016
  0
SPLINE
  5
12C
330
A
100
AcDbEntity
  8
1
390
1D
100
AcDbSpline
210
-0.000000000081565
220
-0.0000000000841716
230
1.0
 70
     8
 71
     3
 72
     8
 73
     4
 74
     0
 42
0.0000000001
 43
0.0000000001
 40
0.0
 40
0.0
 40
0.0
 40
0.0
 40
1.0
 40
1.0
 40
1.0
 40
1.0
 10
55.5
 20
-0.5614742195342047
 30
-0.0000000000000007
 10
55.51160945151935
 20
-0.5725241743454604
 30
-0.0000000000000009
 10
55.5232069729679
 20
-0.5837632613140613
 30
-0.0000000000000009
 10
55.5347910244962
 20
-0.5951877547631171
 30
-0.0000000000000009
  0
SPLINE
  5
12D
330
A
100
AcDbEntity
  8
1
390
1D
100
AcDbSpline
210
-0.0000000000098715
220
-0.0000000000097263
230
1.0
 70
     8
 71
     3
 72
    10
 73
     6
 74
     0
 42
0.0000000001
 43
0.0000000001
 40
0.0
 40
0.0
 40
0.0
 40
0.0
 40
0.4999221058722029
 40
0.4999221058722029
 40
1.0
 40
1.0
 40
1.0
 40
1.0
 10
55.53479102449614
 20
-0.5951877547631171
 30
-0.0000000000000009
 10
55.57245350502029
 20
-0.6323314743825108
 30
-0.000000000000001
 10
55.6101374625681
 20
-0.6700346032050107
 30
-0.0000000000000009
 10
55.68553284186623
 20
-0.7465541593099943
 30
-0.0000000000000011
 10
55.72324731788666
 20
-0.7853738814878284
 30
-0.0000000000000011
 10
55.76096232167373
 20
-0.8247377866741203
 30
-0.000000000000001
  0
SPLINE
  5
12E
330
A
100
AcDbEntity
  8
1
390
1D
100
AcDbSpline
210
0.0000000033211984
220
-0.0000000013909187
230
-1.0
 70
     8
 71
     3
 72
     8
 73
     4
 74
     0
 42
0.0000000001
 43
0.0000000001
 40
0.0
 40
0.0
 40
0.0
 40
0.0
 40
1.0
 40
1.0
 40
1.0
 40
1.0
 10
45.32268678110876
 20
1.028114694917234
 30
-0.0000000000000011
 10
45.31507805143735
 20
1.01000948809127
 30
-0.0000000000000012
 10
45.30745860602126
 20
0.9918160693990783
 30
-0.0000000000000012
 10
45.29982840427471
 20
0.9735341047384622
 30
-0.0000000000000009
  0
SPLINE
  5
12F
330
A
100
AcDbEntity
  8
1
390
1D
100
AcDbSpline
210
0.0
220
-0.0000000000000001
230
1.0
 70
     8
 71
     3
 72
    20
 73
    16
 74
     0
 42
0.0000000001
 43
0.0000000001
 40
0.0
 40
0.0
 40
0.0
 40
0.0
 40
0.2499999999999787
 40
0.2499999999999787
 40
0.3749999999999681
 40
0.3749999999999681
 40
0.406249999999967
 40
0.406249999999967
 40
0.4374999999999656
 40
0.4374999999999656
 40
0.4999999999999674
 40
0.4999999999999674
 40
0.7499999999999837
 40
0.7499999999999837
 40
1.0
 40
1.0
 40
1.0
 40
1.0
 10
36.9257754110855
 20
-0.000161117099708
 30
-0.0000000000000016
 10
36.96384942103521
 20
0.3690647309205133
 30
-0.0000000000000022
 10
36.89221806256127
 20
0.7383449346262978
 30
-0.0000000000000018
 10
36.65900598164569
 20
1.208540429755259
 30
-0.0000000000000018
 10
36.56196591772016
 20
1.348680270077692
 30
-0.000000000000002
 10
36.41705604966342
 20
1.505865483846661
 30
-0.0000000000000017
 10
36.41248211440735
 20
1.551613958411849
 30
-0.0000000000000018
 10
36.47006607720965
 20
1.612587012192648
 30
-0.0000000000000017
 10
36.51071882449014
 20
1.632590725656712
 30
-0.0000000000000012
 10
36.63360139534371
 20
1.684448083306165
 30
-0.0000000000000017
 10
36.72041127192512
 20
1.705972325257391
 30
-0.0000000000000014
 10
37.16058265457281
 20
1.797746844759615
 30
-0.0000000000000018
 10
37.52323375866359
 20
1.814516911582301
 30
-0.0000000000000019
 10
38.24471977626382
 20
1.803367804415245
 30
-0.0000000000000016
 10
38.60612045050658
 20
1.786564984145002
 30
-0.0000000000000019
 10
38.96698729810778
 20
1.769961334401215
 30
-0.0000000000000016
  0
SPLINE
  5
130
330
A
100
AcDbEntity
  8
1
390
1D
100
AcDbSpline
210
0.0000000000000116
220
0.0000000000000795
230
1.0
 70
     8
 71
     3
 72
    12
 73
     8
 74
     0
 42
0.0000000001
 43
0.0000000001
 40
0.0
 40
0.0
 40
0.0
 40
0.0
 40
0.5000000000000099
 40
0.5000000000000099
 40
0.7500000000000049
 40
0.7500000000000049
 40
1.0
 40
1.0
 40
1.0
 40
1.0
 10
38.96698729810714
 20
1.769961334401386
 30
-0.0000000000000017
 10
39.11507986272228
 20
1.731640195801049
 30
-0.0000000000000014
 10
39.27067264425636
 20
1.700184461754873
 30
-0.0000000000000014
 10
39.51518346298525
 20
1.663618475759335
 30
-0.0000000000000011
 10
39.59886712617055
 20
1.653233985750091
 30
-0.0000000000000013
 10
39.76635297318262
 20
1.636549665838118
 30
-0.0000000000000013
 10
39.85055992367529
 20
1.630134892302294
 30
-0.0000000000000011
 10
39.93523313465965
 20
1.625653133612785
 30
-0.0000000000000013
  0
SPLINE
  5
131
330
A
100
AcDbEntity
  8
1
390
1D
100
AcDbSpline
210
0.0000000000000365
220
0.0000000000005963
230
1.0
 70
     8
 71
     3
 72
     8
 73
     4
 74
     0
 42
0.0000000001
 43
0.0000000001
 40
0.0
 40
0.0
 40
0.0
 40
0.0
 40
1.0
 40
1.0
 40
1.0
 40
1.0
 10
39.9352331346596
 20
1.625653133612785
 30
-0.0000000000000013
 10
40.56835877873402
 20
1.592141751159033
 30
-0.0000000000000017
 10
41.20109239358611
 20
1.553489191554205
 30
-0.0000000000000012
 10
41.83339369233784
 20
1.509502298525546
 30
-0.0000000000000012
  0
SPLINE
  5
132
330
A
100
AcDbEntity
  8
1
390
1D
100
AcDbSpline
210
0.0
220
0.0
230
1.0
 70
    24
 71
     3
 72
     8
 73
     4
 74
     0
 42
0.0000000001
 43
0.0000000001
 40
0.0
 40
0.0
 40
0.0
 40
0.0
 40
1.0
 40
1.0
 40
1.0
 40
1.0
 10
45.29982839978128
 20
0.9735341057529469
 30
-0.0000000000000012
 10
45.27801688069632
 20
0.9207630098692904
 30
-0.0000000000000012
 10
45.25620536161142
 20
0.8679919139855771
 30
-0.0000000000000009
 10
45.23439384252646
 20
0.8152208181018636
 30
-0.000000000000001
  0
SPLINE
  5
133
330
A
100
AcDbEntity
  8
1
390
1D
100
AcDbSpline
210
0.0000000000122865
220
-0.0000000000047873
230
-1.0
 70
     8
 71
     3
 72
    12
 73
     8
 74
     0
 42
0.0000000001
 43
0.0000000001
 40
0.0
 40
0.0
 40
0.0
 40
0.0
 40
0.266231094438626
 40
0.266231094438626
 40
0.5324621611802915
 40
0.5324621611802915
 40
1.0
 40
1.0
 40
1.0
 40
1.0
 10
45.23439384065773
 20
0.8152208182702906
 30
-0.0000000000000008
 10
45.23151682702627
 20
0.8081930669111443
 30
-0.0000000000000009
 10
45.22862307970239
 20
0.8010255035874251
 30
-0.0000000000000007
 10
45.22280321776714
 20
0.7864136935771741
 30
-0.000000000000001
 10
45.21987692510577
 20
0.7789689947945249
 30
-0.0000000000000009
 10
45.21176844233179
 20
0.7580729094295862
 30
-0.0000000000000007
 10
45.20655254830625
 20
0.7443334590996074
 30
-0.0000000000000009
 10
45.20129020982142
 20
0.7301772976041434
 30
-0.0000000000000007
  0
SPLINE
  5
134
330
A
100
AcDbEntity
  8
1
390
1D
100
AcDbSpline
210
0.0000000000002024
220
-0.0000000000000575
230
1.0
 70
     8
 71
     3
 72
     8
 73
     4
 74
     0
 42
0.0000000001
 43
0.0000000001
 40
0.0
 40
0.0
 40
0.0
 40
0.0
 40
1.0
 40
1.0
 40
1.0
 40
1.0
 10
45.20129020544988
 20
0.7301772984107516
 30
-0.0000000000000008
 10
45.1923596720365
 20
0.7110322241331346
 30
-0.0000000000000006
 10
45.18342913862313
 20
0.6797188993164128
 30
-0.0000000000000007
 10
45.17449860520975
 20
0.6359192464672106
 30
-0.0000000000000009
  0
SPLINE
  5
135
330
A
100
AcDbEntity
  8
1
390
1D
100
AcDbSpline
210
-0.000000000001844
220
0.0000000000003792
230
1.0
 70
     8
 71
     3
 72
     8
 73
     4
 74
     0
 42
0.0000000001
 43
0.0000000001
 40
0.0
 40
0.0
 40
0.0
 40
0.0
 40
1.0
 40
1.0
 40
1.0
 40
1.0
 10
45.17449860520975
 20
0.6359192464672106
 30
-0.0000000000000009
 10
45.16507696769287
 20
0.5975881190090604
 30
-0.0000000000000007
 10
45.15565533017593
 20
0.5497384362608387
 30
-0.0000000000000006
 10
45.14623369265904
 20
0.4991316858625511
 30
-0.0000000000000007
  0
SPLINE
  5
136
330
A
100
AcDbEntity
  8
1
390
1D
100
AcDbSpline
210
-0.0000000006348373
220
0.0000000001077681
230
1.0
 70
     8
 71
     3
 72
     8
 73
     4
 74
     0
 42
0.0000000001
 43
0.0000000001
 40
0.0
 40
0.0
 40
0.0
 40
0.0
 40
1.0
 40
1.0
 40
1.0
 40
1.0
 10
45.14623369265904
 20
0.4991316858625511
 30
-0.0000000000000007
 10
45.14194122643192
 20
0.4740910226671531
 30
-0.0000000000000008
 10
45.1376487602048
 20
0.4484818806166686
 30
-0.0000000000000006
 10
45.13335629397761
 20
0.4233816038724855
 30
-0.0000000000000006
  0
SPLINE
  5
137
330
A
100
AcDbEntity
  8
1
390
1D
100
AcDbSpline
210
0.0000000000245953
220
-0.0000000000036202
230
1.0
 70
     8
 71
     3
 72
     8
 73
     4
 74
     0
 42
0.0000000001
 43
0.0000000001
 40
0.0
 40
0.0
 40
0.0
 40
0.0
 40
1.0
 40
1.0
 40
1.0
 40
1.0
 10
45.13335629397761
 20
0.4233816038724855
 30
-0.0000000000000006
 10
45.12973520924247
 20
0.3979691598824502
 30
-0.0000000000000007
 10
45.1261141245073
 20
0.3730930741462544
 30
-0.0000000000000007
 10
45.12249303977216
 20
0.3496703424679026
 30
-0.0000000000000007
  0
SPLINE
  5
138
330
A
100
AcDbEntity
  8
1
390
1D
100
AcDbSpline
210
-0.0000000000076879
220
0.0000000000009384
230
1.0
 70
     8
 71
     3
 72
     8
 73
     4
 74
     0
 42
0.0000000001
 43
0.0000000001
 40
0.0
 40
0.0
 40
0.0
 40
0.0
 40
1.0
 40
1.0
 40
1.0
 40
1.0
 10
45.12249303977216
 20
0.3496703424679026
 30
-0.0000000000000007
 10
45.11948107199794
 20
0.3228561876856588
 30
-0.0000000000000007
 10
45.11646910422382
 20
0.2979519070274819
 30
-0.0000000000000006
 10
45.1134571364496
 20
0.2757155125863164
 30
-0.0000000000000006
  0
SPLINE
  5
139
330
A
100
AcDbEntity
  8
1
390
1D
100
AcDbSpline
210
0.0000000000060647
220
-0.0000000000005468
230
1.0
 70
     8
 71
     3
 72
     8
 73
     4
 74
     0
 42
0.0000000001
 43
0.0000000001
 40
0.0
 40
0.0
 40
0.0
 40
0.0
 40
1.0
 40
1.0
 40
1.0
 40
1.0
 10
45.1134571364496
 20
0.2757155125863164
 30
-0.0000000000000006
 10
45.11156988377792
 20
0.2516666115323574
 30
-0.0000000000000008
 10
45.10968263110617
 20
0.2306970389305434
 30
-0.0000000000000007
 10
45.10779537843446
 20
0.2129259776912136
 30
-0.0000000000000008
  0
SPLINE
  5
13A
330
A
100
AcDbEntity
  8
1
390
1D
100
AcDbSpline
210
-0.0000000000662291
220
0.0000000000979195
230
1.0
 70
     8
 71
     3
 72
     8
 73
     4
 74
     0
 42
0.0000000001
 43
0.0000000001
 40
0.0
 40
0.0
 40
0.0
 40
0.0
 40
1.0
 40
1.0
 40
1.0
 40
1.0
 10
55.26482840707672
 20
-0.5597716809969598
 30
-0.0000000000000009
 10
55.27655036384129
 20
-0.5517532688040774
 30
-0.000000000000001
 10
55.28827436193274
 20
-0.5438237640320836
 30
-0.0000000000000009
 10
55.30000000000001
 20
-0.5359828412232446
 30
-0.000000000000001
  0
SPLINE
  5
13B
330
A
100
AcDbEntity
  8
1
390
1D
100
AcDbSpline
210
-0.0000000000029774
220
0.0000000000045779
230
-1.0
 70
     8
 71
     3
 72
    10
 73
     6
 74
     0
 42
0.0000000001
 43
0.0000000001
 40
0.0
 40
0.0
 40
0.0
 40
0.0
 40
0.4999211240315572
 40
0.4999211240315572
 40
1.0
 40
1.0
 40
1.0
 40
1.0
 10
55.03903767832628
 20
-0.7066288825673724
 30
-0.0000000000000013
 10
55.07668162681273
 20
-0.6834028541452995
 30
-0.0000000000000011
 10
55.11432352456995
 20
-0.6595517363881527
 30
-0.0000000000000011
 10
55.189592689714
 20
-0.6105992786290813
 30
-0.0000000000000012
 10
55.22722304592828
 20
-0.5854956528905291
 30
-0.000000000000001
 10
55.26482840707672
 20
-0.5597716809969598
 30
-0.0000000000000011
  0
SPLINE
  5
13C
330
A
100
AcDbEntity
  8
1
390
1D
100
AcDbSpline
210
-0.0000000000000066
220
0.0000000000000193
230
-1.0
 70
     8
 71
     3
 72
     8
 73
     4
 74
     0
 42
0.0000000001
 43
0.0000000001
 40
0.0
 40
0.0
 40
0.0
 40
0.0
 40
1.0
 40
1.0
 40
1.0
 40
1.0
 10
55.30000000000001
 20
1.296070551042874
 30
-0.0000000000000006
 10
55.21186279299445
 20
1.307360270340951
 30
-0.0000000000000007
 10
55.12508540145852
 20
1.277966649541667
 30
-0.000000000000001
 10
55.03903767832628
 20
1.207191129975968
 30
-0.0000000000000012
  0
SPLINE
  5
13D
330
A
100
AcDbEntity
  8
1
390
1D
100
AcDbSpline
210
0.0000000002905003
220
0.0000000022191455
230
1.0
 70
     8
 71
     3
 72
     8
 73
     4
 74
     0
 42
0.0000000001
 43
0.0000000001
 40
0.0
 40
0.0
 40
0.0
 40
0.0
 40
1.0
 40
1.0
 40
1.0
 40
1.0
 10
54.23903767832626
 20
1.314877521961819
 30
-0.000000000000001
 10
54.21301263016772
 20
1.318293127364597
 30
-0.000000000000001
 10
54.18698751506468
 20
1.321699999566134
 30
-0.0000000000000011
 10
54.16096232167445
 20
1.325098078820985
 30
-0.000000000000001
  0
SPLINE
  5
13E
330
A
100
AcDbEntity
  8
1
390
1D
100
AcDbSpline
210
-0.0000000082823598
220
-0.0000000488330569
230
0.9999999999999989
 70
     8
 71
     3
 72
     8
 73
     4
 74
     0
 42
0.0000000001
 43
0.0000000001
 40
0.0
 40
0.0
 40
0.0
 40
0.0
 40
1.0
 40
1.0
 40
1.0
 40
1.0
 10
54.16096232167371
 20
-0.5593043200755119
 30
-0.0000000000000012
 10
54.18698752504457
 20
-0.5637225704362551
 30
-0.0000000000000014
 10
54.21301263753729
 20
-0.568136607544318
 30
-0.0000000000000012
 10
54.23903767832626
 20
-0.5725463268545355
 30
-0.0000000000000014
  0
SPLINE
  5
13F
330
A
100
AcDbEntity
  8
1
390
1D
100
AcDbSpline
210
0.0000000030922464
220
0.0000000214914813
230
0.9999999999999998
 70
     8
 71
     3
 72
     8
 73
     4
 74
     0
 42
0.0000000001
 43
0.0000000001
 40
0.0
 40
0.0
 40
0.0
 40
0.0
 40
1.0
 40
1.0
 40
1.0
 40
1.0
 10
55.83903767832629
 20
1.094336973620897
 30
-0.000000000000001
 10
55.81301244961832
 20
1.098089345773587
 30
-0.0000000000000011
 10
55.78698733290105
 20
1.101833912211588
 30
-0.0000000000000009
 10
55.7609623216734
 20
1.105570641876169
 30
-0.0000000000000013
  0
SPLINE
  5
140
330
A
100
AcDbEntity
  8
1
390
1D
100
AcDbSpline
210
0.0000000025316596
220
0.0000000157020299
230
0.9999999999999998
 70
     8
 71
     3
 72
     8
 73
     4
 74
     0
 42
0.0000000001
 43
0.0000000001
 40
0.0
 40
0.0
 40
0.0
 40
0.0
 40
1.0
 40
1.0
 40
1.0
 40
1.0
 10
55.76096232167373
 20
-0.8247377866741203
 30
-0.0000000000000014
 10
55.78698751427772
 20
-0.8289401809796572
 30
-0.0000000000000012
 10
55.81301262724458
 20
-0.8331362734916751
 30
-0.0000000000000012
 10
55.83903767832629
 20
-0.8373259729982578
 30
-0.0000000000000013
  0
SPLINE
  5
141
330
A
100
AcDbEntity
  8
1
390
1D
100
AcDbSpline
210
-0.0000000000567218
220
0.0000000001015081
230
1.0
 70
     8
 71
     3
 72
     8
 73
     4
 74
     0
 42
0.0000000001
 43
0.0000000001
 40
0.0
 40
0.0
 40
0.0
 40
0.0
 40
1.0
 40
1.0
 40
1.0
 40
1.0
 10
54.46366348724996
 20
-0.4528500268837661
 30
-0.0000000000000009
 10
54.47577369126299
 20
-0.4459830321289929
 30
-0.0000000000000009
 10
54.48788601898168
 20
-0.4392149964418195
 30
-0.0000000000000009
 10
54.5
 20
-0.4325454188120829
 30
-0.000000000000001
  0
SPLINE
  5
142
330
A
100
AcDbEntity
  8
1
390
1D
100
AcDbSpline
210
-0.0000000000041946
220
0.000000000007872
230
-1.0
 70
     8
 71
     3
 72
    10
 73
     6
 74
     0
 42
0.0000000001
 43
0.0000000001
 40
0.0
 40
0.0
 40
0.0
 40
0.0
 40
0.4999218534152015
 40
0.4999218534152015
 40
1.0
 40
1.0
 40
1.0
 40
1.0
 10
54.23903767832626
 20
-0.5725463268546492
 30
-0.0000000000000013
 10
54.27648484790058
 20
-0.5538649120288142
 30
-0.0000000000000013
 10
54.31393096686491
 20
-0.5345496460044501
 30
-0.000000000000001
 10
54.38881144189207
 20
-0.4946510054841157
 30
-0.0000000000000011
 10
54.42624883492022
 20
-0.4740657075630567
 30
-0.0000000000000011
 10
54.46366348724996
 20
-0.4528500268837661
 30
-0.0000000000000009
  0
SPLINE
  5
143
330
A
100
AcDbEntity
  8
1
390
1D
100
AcDbSpline
210
0.0000000000000007
220
-0.0000000000000041
230
1.0
 70
     8
 71
     3
 72
     8
 73
     4
 74
     0
 42
0.0000000001
 43
0.0000000001
 40
0.0
 40
0.0
 40
0.0
 40
0.0
 40
1.0
 40
1.0
 40
1.0
 40
1.0
 10
54.5
 20
1.357070902035844
 30
-0.0000000000000006
 10
54.41199668806837
 20
1.384214942167772
 30
-0.0000000000000006
 10
54.32521898268334
 20
1.370291049336174
 30
-0.000000000000001
 10
54.23903767832616
 20
1.314877521961705
 30
-0.0000000000000009
  0
SPLINE
  5
144
330
A
100
AcDbEntity
  8
1
390
1D
100
AcDbSpline
210
0.0000000000096347
220
0.0000000000121143
230
-1.0
 70
     8
 71
     3
 72
    10
 73
     6
 74
     0
 42
0.0000000001
 43
0.0000000001
 40
0.0
 40
0.0
 40
0.0
 40
0.0
 40
0.4999234001042459
 40
0.4999234001042459
 40
1.0
 40
1.0
 40
1.0
 40
1.0
 10
53.93713095761881
 20
-0.3812860146848038
 30
-0.0000000000000011
 10
53.97441042939556
 20
-0.4097646365452193
 30
-0.0000000000000011
 10
54.01170704126952
 20
-0.4388408089594122
 30
-0.0000000000000009
 10
54.08632171622315
 20
-0.4981827601912984
 30
-0.0000000000000012
 10
54.12364273424707
 20
-0.5284511566421202
 30
-0.0000000000000013
 10
54.16096232167371
 20
-0.5593043200755119
 30
-0.0000000000000013
  0
SPLINE
  5
145
330
A
100
AcDbEntity
  8
1
390
1D
100
AcDbSpline
210
0.0000000000349385
220
0.0000000000469451
230
-1.0
 70
     8
 71
     3
 72
     8
 73
     4
 74
     0
 42
0.0000000001
 43
0.0000000001
 40
0.0
 40
0.0
 40
0.0
 40
0.0
 40
1.0
 40
1.0
 40
1.0
 40
1.0
 10
53.89999999999998
 20
-0.3536516168170465
 30
-0.000000000000001
 10
53.9123912209929
 20
-0.3626296918493495
 30
-0.000000000000001
 10
53.92476887032813
 20
-0.3718423398531172
 30
-0.000000000000001
 10
53.93713095761881
 20
-0.3812860146848038
 30
-0.0000000000000012
  0
SPLINE
  5
146
330
A
100
AcDbEntity
  8
1
390
1D
100
AcDbSpline
210
-0.0000000000000017
220
-0.0000000000000062
230
1.0
 70
     8
 71
     3
 72
     8
 73
     4
 74
     0
 42
0.0000000001
 43
0.0000000001
 40
0.0
 40
0.0
 40
0.0
 40
0.0
 40
1.0
 40
1.0
 40
1.0
 40
1.0
 10
54.16096232167371
 20
1.325098078818485
 30
-0.000000000000001
 10
54.0751015858301
 20
1.401203890416696
 30
-0.0000000000000008
 10
53.98884098596199
 20
1.426444379699149
 30
-0.0000000000000008
 10
53.89999999999998
 20
1.398737073207257
 30
-0.0000000000000004
  0
SPLINE
  5
147
330
A
100
AcDbEntity
  8
1
390
1D
100
AcDbSpline
210
0.0000000000550888
220
-0.0000000000697007
230
1.0
 70
     8
 71
     3
 72
     8
 73
     4
 74
     0
 42
0.0000000001
 43
0.0000000001
 40
0.0
 40
0.0
 40
0.0
 40
0.0
 40
1.0
 40
1.0
 40
1.0
 40
1.0
 10
56.06594393221968
 20
-0.6638537814563961
 30
-0.000000000000001
 10
56.07729412282361
 20
-0.6548023566406301
 30
-0.000000000000001
 10
56.08864625912588
 20
-0.6458301986322681
 30
-0.0000000000000009
 10
56.10000000000002
 20
-0.6369371259580135
 30
-0.000000000000001
  0
SPLINE
  5
148
330
A
100
AcDbEntity
  8
1
390
1D
100
AcDbSpline
210
0.0000000000091932
220
-0.0000000000120254
230
1.0
 70
     8
 71
     3
 72
    10
 73
     6
 74
     0
 42
0.0000000001
 43
0.0000000001
 40
0.0
 40
0.0
 40
0.0
 40
0.0
 40
0.4999203578093299
 40
0.4999203578093299
 40
1.0
 40
1.0
 40
1.0
 40
1.0
 10
55.83903767832629
 20
-0.8373259729983146
 30
-0.0000000000000013
 10
55.87687025645471
 20
-0.809639424817476
 30
-0.000000000000001
 10
55.91469975440259
 20
-0.7813400660422758
 30
-0.0000000000000012
 10
55.99034116071528
 20
-0.7235158346932736
 30
-0.000000000000001
 10
56.02815621139598
 20
-0.6939883162787055
 30
-0.0000000000000008
 10
56.06594393221975
 20
-0.6638537814563961
 30
-0.000000000000001
  0
SPLINE
  5
149
330
A
100
AcDbEntity
  8
1
390
1D
100
AcDbSpline
210
-0.0000000000000094
220
0.0000000000000182
230
-1.0
 70
     8
 71
     3
 72
     8
 73
     4
 74
     0
 42
0.0000000001
 43
0.0000000001
 40
0.0
 40
0.0
 40
0.0
 40
0.0
 40
1.0
 40
1.0
 40
1.0
 40
1.0
 10
56.10000000000002
 20
1.229085025051575
 30
-0.0000000000000008
 10
56.011722809557
 20
1.224646474428027
 30
-0.0000000000000009
 10
55.92494668488893
 20
1.180055118753501
 30
-0.0000000000000009
 10
55.83903767832783
 20
1.094336973622489
 30
-0.0000000000000012
  0
SPLINE
  5
14A
330
A
100
AcDbEntity
  8
1
390
1D
100
AcDbSpline
210
-0.000000000000002
220
0.0000000000000079
230
-1.0
 70
     8
 71
     3
 72
    12
 73
     8
 74
     0
 42
0.0000000001
 43
0.0000000001
 40
0.0
 40
0.0
 40
0.0
 40
0.0
 40
0.50000000000001
 40
0.50000000000001
 40
0.7500000000000052
 40
0.7500000000000052
 40
1.0
 40
1.0
 40
1.0
 40
1.0
 10
38.96698729810669
 20
-2.982700299574332
 30
-0.0000000000000002
 10
39.11507986272171
 20
-2.899904733072616
 30
-0.0000000000000004
 10
39.27067264425676
 20
-2.837596393483011
 30
-0.0000000000000002
 10
39.51518346298548
 20
-2.77450404217302
 30
-0.0000000000000002
 10
39.59886712617072
 20
-2.75860801129454
 30
0.0
 10
39.76635297318268
 20
-2.737981092104178
 30
0.0
 10
39.85055992367535
 20
-2.733111588388851
 30
0.0
 10
39.93523313465965
 20
-2.733715401924428
 30
-0.0000000000000004
  0
SPLINE
  5
14B
330
A
100
AcDbEntity
  8
1
390
1D
100
AcDbSpline
210
0.0000000006663484
220
0.000000005385223
230
-1.0
 70
     8
 71
     3
 72
     8
 73
     4
 74
     0
 42
0.0000000001
 43
0.0000000001
 40
0.0
 40
0.0
 40
0.0
 40
0.0
 40
1.0
 40
1.0
 40
1.0
 40
1.0
 10
53.43903767832632
 20
1.417050104591794
 30
-0.0000000000000009
 10
53.4130127589853
 20
1.420279778391545
 30
-0.0000000000000012
 10
53.38698764472486
 20
1.42350005552646
 30
-0.0000000000000009
 10
53.3609623216737
 20
1.426710865304414
 30
-0.0000000000000009
  0
SPLINE
  5
14C
330
A
100
AcDbEntity
  8
1
390
1D
100
AcDbSpline
210
-0.0000000474964612
220
-0.0000002753208409
230
0.999999999999961
 70
     8
 71
     3
 72
     8
 73
     4
 74
     0
 42
0.0000000001
 43
0.0000000001
 40
0.0
 40
0.0
 40
0.0
 40
0.0
 40
1.0
 40
1.0
 40
1.0
 40
1.0
 10
53.3609623216737
 20
-0.4222849645877886
 30
-0.0000000000000011
 10
53.38698732849298
 20
-0.4267777255545866
 30
-0.0000000000000014
 10
53.41301244093722
 20
-0.43126743261098
 30
-0.0000000000000011
 10
53.43903767832632
 20
-0.435753977967579
 30
-0.0000000000000016
  0
SPLINE
  5
14D
330
A
100
AcDbEntity
  8
1
390
1D
100
AcDbSpline
210
-0.0000000000292976
220
0.000000000066856
230
-1.0
 70
     8
 71
     3
 72
     8
 73
     4
 74
     0
 42
0.0000000001
 43
0.0000000001
 40
0.0
 40
0.0
 40
0.0
 40
0.0
 40
1.0
 40
1.0
 40
1.0
 40
1.0
 10
53.66244727055822
 20
-0.3436037081888799
 30
-0.000000000000001
 10
53.67496284135007
 20
-0.3380091120641851
 30
-0.0000000000000011
 10
53.68748060096765
 20
-0.3325238628965508
 30
-0.0000000000000011
 10
53.69999999999999
 20
-0.3271472507362887
 30
-0.0000000000000009
  0
SPLINE
  5
14E
330
A
100
AcDbEntity
  8
1
390
1D
100
AcDbSpline
210
0.0000000000004834
220
-0.000000000001172
230
-1.0
 70
     8
 71
     3
 72
    10
 73
     6
 74
     0
 42
0.0000000001
 43
0.0000000001
 40
0.0
 40
0.0
 40
0.0
 40
0.0
 40
0.4999226446401265
 40
0.4999226446401265
 40
1.0
 40
1.0
 40
1.0
 40
1.0
 10
53.43903767832632
 20
-0.435753977967579
 30
-0.0000000000000011
 10
53.47627958897447
 20
-0.4216736653485215
 30
-0.0000000000000011
 10
53.5135214215569
 20
-0.4069546589146286
 30
-0.0000000000000011
 10
53.58799611632526
 20
-0.3762382833410811
 30
-0.0000000000000012
 10
53.62523196138345
 20
-0.360239355731494
 30
-0.0000000000000012
 10
53.66244727055822
 20
-0.3436037081888799
 30
-0.0000000000000011
  0
SPLINE
  5
14F
330
A
100
AcDbEntity
  8
1
390
1D
100
AcDbSpline
210
0.0
220
0.0000000000000008
230
1.0
 70
     8
 71
     3
 72
     8
 73
     4
 74
     0
 42
0.0000000001
 43
0.0000000001
 40
0.0
 40
0.0
 40
0.0
 40
0.0
 40
1.0
 40
1.0
 40
1.0
 40
1.0
 10
53.69999999999999
 20
1.411823816660331
 30
-0.0000000000000006
 10
53.61212089914835
 20
1.454917043207671
 30
-0.0000000000000006
 10
53.52534464920655
 20
1.456708533382026
 30
-0.000000000000001
 10
53.4390376783266
 20
1.417050104591908
 30
-0.000000000000001
  0
SPLINE
  5
150
330
A
100
AcDbEntity
  8
1
390
1D
100
AcDbSpline
210
-0.0000000030732612
220
-0.0000000204993264
230
0.9999999999999998
 70
     8
 71
     3
 72
     8
 73
     4
 74
     0
 42
0.0000000001
 43
0.0000000001
 40
0.0
 40
0.0
 40
0.0
 40
0.0
 40
1.0
 40
1.0
 40
1.0
 40
1.0
 10
56.6390376783263
 20
0.9765673359271431
 30
-0.000000000000001
 10
56.61301239347529
 20
0.9804766025702633
 30
-0.0000000000000011
 10
56.58698727612898
 20
0.9843782957556756
 30
-0.0000000000000008
 10
56.56096232167442
 20
0.9882723999871814
 30
-0.0000000000000009
  0
SPLINE
  5
151
330
A
100
AcDbEntity
  8
1
390
1D
100
AcDbSpline
210
-0.0000000006017446
220
-0.0000000038604497
230
1.0
 70
     8
 71
     3
 72
     8
 73
     4
 74
     0
 42
0.0000000001
 43
0.0000000001
 40
0.0
 40
0.0
 40
0.0
 40
0.0
 40
1.0
 40
1.0
 40
1.0
 40
1.0
 10
56.56096232167374
 20
-0.9518368473209191
 30
-0.0000000000000011
 10
56.5869873380949
 20
-0.9559007144648603
 30
-0.0000000000000011
 10
56.61301245146478
 20
-0.9599573843564144
 30
-0.0000000000000012
 10
56.6390376783263
 20
-0.9640067743328017
 30
-0.0000000000000011
  0
SPLINE
  5
152
330
A
100
AcDbEntity
  8
1
390
1D
100
AcDbSpline
210
0.0000000000127274
220
0.0000000000187438
230
-1.0
 70
     8
 71
     3
 72
    10
 73
     6
 74
     0
 42
0.0000000001
 43
0.0000000001
 40
0.0
 40
0.0
 40
0.0
 40
0.0
 40
0.4999241233049256
 40
0.4999241233049256
 40
1.0
 40
1.0
 40
1.0
 40
1.0
 10
53.138365577851
 20
-0.2711377364579448
 30
-0.000000000000001
 10
53.1754426604473
 20
-0.2951112968149801
 30
-0.000000000000001
 10
53.21253479434647
 20
-0.3196954891574251
 30
-0.000000000000001
 10
53.28673758663501
 20
-0.3700800971449212
 30
-0.0000000000000013
 10
53.32385114780141
 20
-0.3958827792205284
 30
-0.0000000000000012
 10
53.3609623216737
 20
-0.4222849645877886
 30
-0.0000000000000016
  0
SPLINE
  5
153
330
A
100
AcDbEntity
  8
1
390
1D
100
AcDbSpline
210
0.0000000000245612
220
0.0000000000392511
230
-1.0
 70
     8
 71
     3
 72
     8
 73
     4
 74
     0
 42
0.0000000001
 43
0.0000000001
 40
0.0
 40
0.0
 40
0.0
 40
0.0
 40
1.0
 40
1.0
 40
1.0
 40
1.0
 10
53.10000000000002
 20
-0.2471306376272082
 30
-0.0000000000000009
 10
53.11280368562744
 20
-0.2548756707528241
 30
-0.0000000000000012
 10
53.12559296424723
 20
-0.2628791302865352
 30
-0.000000000000001
 10
53.138365577851
 20
-0.2711377364579448
 30
-0.0000000000000012
  0
SPLINE
  5
154
330
A
100
AcDbEntity
  8
1
390
1D
100
AcDbSpline
210
-0.0000000000000005
220
-0.0000000000000063
230
1.0
 70
     8
 71
     3
 72
    10
 73
     6
 74
     0
 42
0.0000000001
 43
0.0000000001
 40
0.0
 40
0.0
 40
0.0
 40
0.0
 40
0.5
 40
0.5
 40
1.0
 40
1.0
 40
1.0
 40
1.0
 10
53.3609623216737
 20
1.426710865304471
 30
-0.0000000000000011
 10
53.31797413737415
 20
1.456293020640884
 30
-0.0000000000000009
 10
53.27493120723858
 20
1.472727554553159
 30
-0.0000000000000009
 10
53.18812940407975
 20
1.480218676365666
 30
-0.0000000000000006
 10
53.14437065571434
 20
1.471290633500813
 30
-0.0000000000000006
 10
53.10000000000002
 20
1.448611986316223
 30
-0.0000000000000003
  0
SPLINE
  5
155
330
A
100
AcDbEntity
  8
1
390
1D
100
AcDbSpline
210
0.0000000005007778
220
0.0000000043174852
230
1.0
 70
     8
 71
     3
 72
     8
 73
     4
 74
     0
 42
0.0000000001
 43
0.0000000001
 40
0.0
 40
0.0
 40
0.0
 40
0.0
 40
1.0
 40
1.0
 40
1.0
 40
1.0
 10
52.6390376783263
 20
1.513282889291871
 30
-0.0000000000000008
 10
52.61301212878129
 20
1.516311768005209
 30
-0.0000000000000008
 10
52.58698701510939
 20
1.519330400306329
 30
-0.0000000000000008
 10
52.56096232167334
 20
1.522338709803932
 30
-0.0000000000000009
  0
SPLINE
  5
156
330
A
100
AcDbEntity
  8
1
390
1D
100
AcDbSpline
210
0.0
220
0.0
230
1.0
 70
     8
 71
     3
 72
     8
 73
     4
 74
     0
 42
0.0000000001
 43
0.0000000001
 40
0.0
 40
0.0
 40
0.0
 40
0.0
 40
1.0
 40
1.0
 40
1.0
 40
1.0
 10
52.56096232167368
 20
-0.2833311306887367
 30
-0.0000000000000015
 10
52.58698752556846
 20
-0.287875191304181
 30
-0.0000000000000012
 10
52.61301263809588
 20
-0.2924173048347711
 30
-0.0000000000000012
 10
52.6390376783263
 20
-0.2969573635013489
 30
-0.0000000000000015
  0
SPLINE
  5
157
330
A
100
AcDbEntity
  8
1
390
1D
100
AcDbSpline
210
0.0000000000043373
220
-0.000000000013755
230
1.0
 70
     8
 71
     3
 72
     8
 73
     4
 74
     0
 42
0.0000000001
 43
0.0000000001
 40
0.0
 40
0.0
 40
0.0
 40
0.0
 40
1.0
 40
1.0
 40
1.0
 40
1.0
 10
52.86120367568292
 20
-0.2325513923152016
 30
-0.000000000000001
 10
52.87413376635629
 20
-0.2283540408642466
 30
-0.0000000000000011
 10
52.88706608721253
 20
-0.2242765125967026
 30
-0.000000000000001
 10
52.89999999999999
 20
-0.2203178562814969
 30
-0.000000000000001
  0
SPLINE
  5
158
330
A
100
AcDbEntity
  8
1
390
1D
100
AcDbSpline
210
0.0000000000004292
220
-0.0000000000014807
230
1.0
 70
     8
 71
     3
 72
    10
 73
     6
 74
     0
 42
0.0000000001
 43
0.0000000001
 40
0.0
 40
0.0
 40
0.0
 40
0.0
 40
0.4999235687582121
 40
0.4999235687582121
 40
1.0
 40
1.0
 40
1.0
 40
1.0
 10
52.6390376783263
 20
-0.2969573635013489
 30
-0.000000000000001
 10
52.67606985444377
 20
-0.2875030660910625
 30
-0.0000000000000013
 10
52.71310288805739
 20
-0.2774093610353816
 30
-0.0000000000000011
 10
52.78716268415121
 20
-0.2559414046558004
 30
-0.0000000000000012
 10
52.82419237089846
 20
-0.244565960330533
 30
-0.000000000000001
 10
52.86120367568292
 20
-0.2325513923152016
 30
-0.000000000000001
  0
SPLINE
  5
159
330
A
100
AcDbEntity
  8
1
390
1D
100
AcDbSpline
210
0.0000000000000016
220
0.000000000000008
230
1.0
 70
     8
 71
     3
 72
     8
 73
     4
 74
     0
 42
0.0000000001
 43
0.0000000001
 40
0.0
 40
0.0
 40
0.0
 40
0.0
 40
1.0
 40
1.0
 40
1.0
 40
1.0
 10
52.89999999999999
 20
1.460034852803801
 30
-0.0000000000000004
 10
52.8122312475558
 20
1.519123100214414
 30
-0.0000000000000007
 10
52.72545893690561
 20
1.536834116601823
 30
-0.0000000000000006
 10
52.6390376783263
 20
1.513282889291871
 30
-0.0000000000000011
  0
SPLINE
  5
15A
330
A
100
AcDbEntity
  8
1
390
1D
100
AcDbSpline
210
-0.0000000000019096
220
-0.0000000000016075
230
-1.0
 70
     8
 71
     3
 72
    10
 73
     6
 74
     0
 42
0.0000000001
 43
0.0000000001
 40
0.0
 40
0.0
 40
0.0
 40
0.0
 40
0.5
 40
0.5
 40
1.0
 40
1.0
 40
1.0
 40
1.0
 10
45.4350285798464
 20
2.039627617266659
 30
-0.0000000000000001
 10
45.3806491631169
 20
2.115349557789898
 30
-0.0000000000000002
 10
45.31803854375124
 20
2.192607039895505
 30
-0.0000000000000001
 10
45.18279652044725
 20
2.351925483886191
 30
-0.0000000000000004
 10
45.11032914660767
 20
2.433739505373353
 30
-0.0000000000000007
 10
45.03489248989371
 20
2.518183012765803
 30
-0.0000000000000007
  0
SPLINE
  5
15B
330
A
100
AcDbEntity
  8
1
390
1D
100
AcDbSpline
210
0.0
220
0.0
230
1.0
 70
    24
 71
     1
 72
     4
 73
     2
 74
     0
 42
0.0000000001
 43
0.0000000001
 40
0.0
 40
0.0
 40
1.0
 40
1.0
 10
45.43903767832625
 20
2.033926209823391
 30
-0.0000000000000002
 10
45.43502857984629
 20
2.039627617266659
 30
-0.0000000000000003
  0
SPLINE
  5
15C
330
A
100
AcDbEntity
  8
1
390
1D
100
AcDbSpline
210
-0.0000000005095422
220
-0.0000000006304139
230
1.0
 70
     8
 71
     3
 72
     8
 73
     4
 74
     0
 42
0.0000000001
 43
0.0000000001
 40
0.0
 40
0.0
 40
0.0
 40
0.0
 40
1.0
 40
1.0
 40
1.0
 40
1.0
 10
45.41055008745445
 20
0.9557814548810483
 30
-0.0000000000000012
 10
45.42004572803518
 20
0.9480715674118867
 30
-0.0000000000000011
 10
45.42954162715075
 20
0.9403963369386474
 30
-0.0000000000000013
 10
45.43903767832625
 20
0.9327559027149732
 30
-0.0000000000000012
  0
SPLINE
  5
15D
330
A
100
AcDbEntity
  8
1
390
1D
100
AcDbSpline
210
0.0000000000178811
220
0.0000000000217202
230
-1.0
 70
     8
 71
     3
 72
     8
 73
     4
 74
     0
 42
0.0000000001
 43
0.0000000001
 40
0.0
 40
0.0
 40
0.0
 40
0.0
 40
1.0
 40
1.0
 40
1.0
 40
1.0
 10
45.32268677712186
 20
1.028114694711462
 30
-0.0000000000000013
 10
45.3519701892875
 20
1.003676606413477
 30
-0.0000000000000011
 10
45.38125773402913
 20
0.9795650792397056
 30
-0.0000000000000013
 10
45.41055008745445
 20
0.9557814548810483
 30
-0.0000000000000013
  0
SPLINE
  5
15E
330
A
100
AcDbEntity
  8
1
390
1D
100
AcDbSpline
210
-0.0000000000000115
220
-0.0000000000002535
230
1.0
 70
     8
 71
     3
 72
    10
 73
     6
 74
     0
 42
0.0000000001
 43
0.0000000001
 40
0.0
 40
0.0
 40
0.0
 40
0.0
 40
0.5
 40
0.5
 40
1.0
 40
1.0
 40
1.0
 40
1.0
 10
44.77691267927013
 20
2.542409611812103
 30
-0.0000000000000007
 10
43.95717604565459
 20
2.580970333529478
 30
-0.0000000000000007
 10
43.14154662981468
 20
2.624220417402228
 30
-0.0000000000000004
 10
41.52227315280657
 20
2.703497077653877
 30
-0.0000000000000002
 10
40.7167092767172
 20
2.742276507236339
 30
-0.0000000000000002
 10
39.9352331346596
 20
2.749123408425873
 30
0.0000000000000002
  0
SPLINE
  5
15F
330
A
100
AcDbEntity
  8
1
390
1D
100
AcDbSpline
210
-0.0000000000081298
220
-0.0000000000865707
230
1.0
 70
     8
 71
     3
 72
     8
 73
     4
 74
     0
 42
0.0000000001
 43
0.0000000001
 40
0.0
 40
0.0
 40
0.0
 40
0.0
 40
1.0
 40
1.0
 40
1.0
 40
1.0
 10
44.77691256613996
 20
2.542409356911264
 30
-0.0000000000000007
 10
44.86290161987631
 20
2.534541178821654
 30
-0.0000000000000004
 10
44.94889511364056
 20
2.52646464675979
 30
-0.0000000000000007
 10
45.03489248989354
 20
2.518183012765803
 30
-0.0000000000000009
  0
SPLINE
  5
160
330
A
100
AcDbEntity
  8
1
390
1D
100
AcDbSpline
210
-0.0000000000002868
220
-0.0000000000005128
230
1.0
 70
     8
 71
     3
 72
    10
 73
     6
 74
     0
 42
0.0000000001
 43
0.0000000001
 40
0.0
 40
0.0
 40
0.0
 40
0.0
 40
0.4999250011029787
 40
0.4999250011029787
 40
1.0
 40
1.0
 40
1.0
 40
1.0
 10
52.33959858298471
 20
-0.1595333421167311
 30
-0.0000000000000011
 10
52.37647333027286
 20
-0.1789306929983354
 30
-0.0000000000000011
 10
52.41336117750837
 20
-0.1989473747451029
 30
-0.0000000000000013
 10
52.48715264955473
 20
-0.240215098152305
 30
-0.0000000000000012
 10
52.52405912038813
 20
-0.2614680482628273
 30
-0.0000000000000012
 10
52.56096232167368
 20
-0.2833311306887367
 30
-0.0000000000000011
  0
SPLINE
  5
161
330
A
100
AcDbEntity
  8
1
390
1D
100
AcDbSpline
210
0.0000000000019262
220
0.0000000000038208
230
1.0
 70
     8
 71
     3
 72
     8
 73
     4
 74
     0
 42
0.0000000001
 43
0.0000000001
 40
0.0
 40
0.0
 40
0.0
 40
0.0
 40
1.0
 40
1.0
 40
1.0
 40
1.0
 10
52.30000000000001
 20
-0.1395699773346451
 30
-0.0000000000000009
 10
52.31321557707889
 20
-0.1459434303304761
 30
-0.0000000000000009
 10
52.32641595288736
 20
-0.1525988376022838
 30
-0.0000000000000008
 10
52.33959858298471
 20
-0.1595333421167311
 30
-0.0000000000000009
  0
SPLINE
  5
162
330
A
100
AcDbEntity
  8
1
390
1D
100
AcDbSpline
210
-0.0000000000000005
220
0.0000000000000041
230
1.0
 70
     8
 71
     3
 72
     8
 73
     4
 74
     0
 42
0.0000000001
 43
0.0000000001
 40
0.0
 40
0.0
 40
0.0
 40
0.0
 40
1.0
 40
1.0
 40
1.0
 40
1.0
 10
52.56096232167368
 20
1.522338709805126
 30
-0.0000000000000009
 10
52.47488762117774
 20
1.564109930124686
 30
-0.0000000000000008
 10
52.38866556201247
 20
1.554793690930636
 30
-0.0000000000000006
 10
52.29999999999995
 20
1.491718655175986
 30
-0.0000000000000004
  0
SPLINE
  5
163
330
A
100
AcDbEntity
  8
1
390
1D
100
AcDbSpline
210
0.0
220
0.0
230
1.0
 70
     8
 71
     3
 72
     8
 73
     4
 74
     0
 42
0.0000000001
 43
0.0000000001
 40
0.0
 40
0.0
 40
0.0
 40
0.0
 40
1.0
 40
1.0
 40
1.0
 40
1.0
 10
51.83903767832629
 20
1.603090233702686
 30
-0.0000000000000008
 10
51.8130123006145
 20
1.605901715402978
 30
-0.0000000000000009
 10
51.78698718771768
 20
1.608702143708341
 30
-0.0000000000000009
 10
51.76096232167424
 20
1.611491439024292
 30
-0.0000000000000008
  0
SPLINE
  5
164
330
A
100
AcDbEntity
  8
1
390
1D
100
AcDbSpline
210
-0.0000004872437398
220
-0.0000027740118807
230
-0.9999999999960337
 70
     8
 71
     3
 72
     8
 73
     4
 74
     0
 42
0.0000000001
 43
0.0000000001
 40
0.0
 40
0.0
 40
0.0
 40
0.0
 40
1.0
 40
1.0
 40
1.0
 40
1.0
 10
51.76096232167367
 20
-0.1431599100278049
 30
-0.0000000000000014
 10
51.78698730225784
 20
-0.1477319296452038
 30
-0.0000000000000012
 10
51.81301241499829
 20
-0.1523031657448541
 30
-0.0000000000000012
 10
51.83903767832629
 20
-0.1568735134323447
 30
-0.0000000000000011
  0
SPLINE
  5
165
330
A
100
AcDbEntity
  8
1
390
1D
100
AcDbSpline
210
0.0000000000025957
220
-0.0000000000135991
230
1.0
 70
     8
 71
     3
 72
     8
 73
     4
 74
     0
 42
0.0000000001
 43
0.0000000001
 40
0.0
 40
0.0
 40
0.0
 40
0.0
 40
1.0
 40
1.0
 40
1.0
 40
1.0
 10
52.05998111075405
 20
-0.1202155155628475
 30
-0.000000000000001
 10
52.07331874505324
 20
-0.1175397508585547
 30
-0.0000000000000013
 10
52.08665861973908
 20
-0.1149939240701201
 30
-0.0000000000000011
 10
52.10000000000001
 20
-0.1125768165911154
 30
-0.000000000000001
  0
SPLINE
  5
166
330
A
100
AcDbEntity
  8
1
390
1D
100
AcDbSpline
210
0.0000000000002347
220
-0.0000000000014143
230
1.0
 70
     8
 71
     3
 72
    10
 73
     6
 74
     0
 42
0.0000000001
 43
0.0000000001
 40
0.0
 40
0.0
 40
0.0
 40
0.0
 40
0.4999246665443414
 40
0.4999246665443414
 40
1.0
 40
1.0
 40
1.0
 40
1.0
 10
51.83903767832629
 20
-0.1568735134325152
 30
-0.0000000000000014
 10
51.87586375565411
 20
-0.152037731697078
 30
-0.0000000000000012
 10
51.91269157082639
 20
-0.1465659362334009
 30
-0.0000000000000011
 10
51.98634348966294
 20
-0.1343476771940573
 30
-0.0000000000000013
 10
52.02317045376884
 20
-0.127600382660944
 30
-0.0000000000000011
 10
52.05998111075405
 20
-0.1202155155628475
 30
-0.0000000000000011
  0
SPLINE
  5
167
330
A
100
AcDbEntity
  8
1
390
1D
100
AcDbSpline
210
0.0000000000000099
220
0.0000000000000254
230
1.0
 70
     8
 71
     3
 72
     8
 73
     4
 74
     0
 42
0.0000000001
 43
0.0000000001
 40
0.0
 40
0.0
 40
0.0
 40
0.0
 40
1.0
 40
1.0
 40
1.0
 40
1.0
 10
52.09999999999997
 20
1.501403429076674
 30
-0.0000000000000001
 10
52.01232326479179
 20
1.57646372012175
 30
-0.0000000000000006
 10
51.92555788471793
 20
1.610239831399724
 30
-0.0000000000000007
 10
51.83903767832617
 20
1.603090233702686
 30
-0.0000000000000007
  0
SPLINE
  5
168
330
A
100
AcDbEntity
  8
1
390
1D
100
AcDbSpline
210
-0.0000000000031485
220
-0.0000000000072079
230
1.0
 70
     8
 71
     3
 72
    10
 73
     6
 74
     0
 42
0.0000000001
 43
0.0000000001
 40
0.0
 40
0.0
 40
0.0
 40
0.0
 40
0.4999260752682084
 40
0.4999260752682084
 40
1.0
 40
1.0
 40
1.0
 40
1.0
 10
51.54076756589728
 20
-0.0469750184576583
 30
-0.0000000000000009
 10
51.57745029773047
 20
-0.061760885086187
 30
-0.0000000000000011
 10
51.614144396222
 20
-0.0771703839500333
 30
-0.000000000000001
 10
51.68754592358164
 20
-0.109233329696508
 30
-0.000000000000001
 10
51.72425613675227
 20
-0.1258883243939977
 30
-0.0000000000000013
 10
51.76096232167367
 20
-0.1431599100278049
 30
-0.0000000000000013
  0
SPLINE
  5
169
330
A
100
AcDbEntity
  8
1
390
1D
100
AcDbSpline
210
-0.0000000000022965
220
-0.0000000000060386
230
1.0
 70
     8
 71
     3
 72
     8
 73
     4
 74
     0
 42
0.0000000001
 43
0.0000000001
 40
0.0
 40
0.0
 40
0.0
 40
0.0
 40
1.0
 40
1.0
 40
1.0
 40
1.0
 10
51.5
 20
-0.0314708595871025
 30
-0.0000000000000012
 10
51.51360603048061
 20
-0.0363359290043945
 30
-0.0000000000000011
 10
51.52719616304086
 20
-0.0415047346873507
 30
-0.000000000000001
 10
51.54076756589728
 20
-0.0469750184576583
 30
-0.0000000000000013
  0
SPLINE
  5
16A
330
A
100
AcDbEntity
  8
1
390
1D
100
AcDbSpline
210
-0.0000000000000026
220
0.0000000000000081
230
1.0
 70
     8
 71
     3
 72
     8
 73
     4
 74
     0
 42
0.0000000001
 43
0.0000000001
 40
0.0
 40
0.0
 40
0.0
 40
0.0
 40
1.0
 40
1.0
 40
1.0
 40
1.0
 10
51.76096232167373
 20
1.611491439023098
 30
-0.0000000000000006
 10
51.67481051637611
 20
1.635470276487694
 30
-0.0000000000000007
 10
51.58861771321642
 20
1.608542955722669
 30
-0.0000000000000004
 10
51.5
 20
1.52777004367033
 30
-0.0000000000000003
  0
SPLINE
  5
16B
330
A
100
AcDbEntity
  8
1
390
1D
100
AcDbSpline
210
0.0000000000000006
220
0.0000000000000067
230
1.0
 70
     8
 71
     3
 72
    10
 73
     6
 74
     0
 42
0.0000000001
 43
0.0000000001
 40
0.0
 40
0.0
 40
0.0
 40
0.0
 40
0.7803729562104507
 40
0.7803729562104507
 40
1.0
 40
1.0
 40
1.0
 40
1.0
 10
39.93523313465965
 20
2.749123408425703
 30
0.0
 10
39.85256745569598
 20
2.749847683557276
 30
0.0
 10
39.76888032452679
 20
2.755047102010337
 30
-0.0000000000000002
 10
39.65997578233646
 20
2.768884296708506
 30
-0.0000000000000001
 10
39.63588535245418
 20
2.772400447360666
 30
-0.0000000000000001
 10
39.61176136193336
 20
2.776369500479972
 30
0.0
  0
SPLINE
  5
16C
330
A
100
AcDbEntity
  8
1
390
1D
100
AcDbSpline
210
-0.0000000000000363
220
-0.0000000000000964
230
1.0
 70
     8
 71
     3
 72
    12
 73
     8
 74
     0
 42
0.0000000001
 43
0.0000000001
 40
0.0
 40
0.0
 40
0.0
 40
0.0
 40
0.0415724657003962
 40
0.0415724657003962
 40
0.5207862328501981
 40
0.5207862328501981
 40
1.0
 40
1.0
 40
1.0
 40
1.0
 10
39.45035071283985
 20
2.809673653790924
 30
-0.0000000000000001
 10
39.44308335317386
 20
2.811486253831275
 30
-0.0000000000000001
 10
39.4358423438331
 20
2.813336718382288
 30
-0.0000000000000001
 10
39.34551373873319
 20
2.836983289663408
 30
-0.0000000000000002
 10
39.26483096703629
 20
2.863827250525276
 30
0.0
 10
39.10956228935777
 20
2.925506851542138
 30
0.0
 10
39.03655076163807
 20
2.959614600861528
 30
-0.0000000000000002
 10
38.96698729810714
 20
2.996224951219403
 30
0.0000000000000002
  0
SPLINE
  5
16D
330
A
100
AcDbEntity
  8
1
390
1D
100
AcDbSpline
210
0.0
220
0.0
230
1.0
 70
     8
 71
     3
 72
     8
 73
     4
 74
     0
 42
0.0000000001
 43
0.0000000001
 40
0.0
 40
0.0
 40
0.0
 40
0.0
 40
1.0
 40
1.0
 40
1.0
 40
1.0
 10
51.03903767832628
 20
1.685952199874578
 30
-0.0000000000000006
 10
51.01301249447056
 20
1.68852911744409
 30
-0.0000000000000009
 10
50.98698738220645
 20
1.691094164812284
 30
-0.0000000000000006
 10
50.96096232167372
 20
1.693647263550246
 30
-0.0000000000000007
  0
SPLINE
  5
16E
330
A
100
AcDbEntity
  8
1
390
1D
100
AcDbSpline
210
0.0000008326831828
220
0.000004733987777
230
-0.9999999999884479
 70
     8
 71
     3
 72
     8
 73
     4
 74
     0
 42
0.0000000001
 43
0.0000000001
 40
0.0
 40
0.0
 40
0.0
 40
0.0
 40
1.0
 40
1.0
 40
1.0
 40
1.0
 10
50.96096232167372
 20
-0.002477937526919
 30
-0.0000000000000013
 10
50.98698748607688
 20
-0.0070553858984113
 30
-0.0000000000000013
 10
51.01301259915765
 20
-0.0116330950309589
 30
-0.0000000000000011
 10
51.03903767832628
 20
-0.016210965826474
 30
-0.0000000000000014
  0
SPLINE
  5
16F
330
A
100
AcDbEntity
  8
1
390
1D
100
AcDbSpline
210
-0.0000000000002619
220
0.0000000000039855
230
1.0
 70
     8
 71
     3
 72
     8
 73
     4
 74
     0
 42
0.0000000001
 43
0.0000000001
 40
0.0
 40
0.0
 40
0.0
 40
0.0
 40
1.0
 40
1.0
 40
1.0
 40
1.0
 10
51.25885007383465
 20
-0.007121868176057
 30
-0.0000000000000011
 10
51.27256478037833
 20
-0.0060818125988931
 30
-0.0000000000000011
 10
51.28628170049512
 20
-0.0051807943574431
 30
-0.000000000000001
 10
51.30000000000001
 20
-0.0044173149336757
 30
-0.0000000000000012
  0
SPLINE
  5
170
330
A
100
AcDbEntity
  8
1
390
1D
100
AcDbSpline
210
0.0000000000000163
220
-0.0000000000003953
230
1.0
 70
     8
 71
     3
 72
    10
 73
     6
 74
     0
 42
0.0000000001
 43
0.0000000001
 40
0.0
 40
0.0
 40
0.0
 40
0.0
 40
0.4999259474606692
 40
0.4999259474606692
 40
1.0
 40
1.0
 40
1.0
 40
1.0
 10
51.03903767832628
 20
-0.016210965826474
 30
-0.0000000000000012
 10
51.07567310308922
 20
-0.0159562366777095
 30
-0.0000000000000013
 10
51.11231106671557
 20
-0.0150727336390446
 30
-0.0000000000000013
 10
51.18558563658189
 20
-0.0120445189505745
 30
-0.0000000000000011
 10
51.22222503499154
 20
-0.0098993301504606
 30
-0.0000000000000011
 10
51.25885007383465
 20
-0.007121868176057
 30
-0.0000000000000011
  0
SPLINE
  5
171
330
A
100
AcDbEntity
  8
1
390
1D
100
AcDbSpline
210
-0.0000000000000176
220
-0.0000000000000306
230
-1.0
 70
     8
 71
     3
 72
     8
 73
     4
 74
     0
 42
0.0000000001
 43
0.0000000001
 40
0.0
 40
0.0
 40
0.0
 40
0.0
 40
1.0
 40
1.0
 40
1.0
 40
1.0
 10
51.30000000000001
 20
1.535650490447721
 30
-0.0000000000000003
 10
51.21239255923069
 20
1.626570563439315
 30
-0.0000000000000003
 10
51.1256372859064
 20
1.67648086070659
 30
-0.0000000000000008
 10
51.03903767832639
 20
1.685952199874578
 30
-0.0000000000000008
  0
SPLINE
  5
172
330
A
100
AcDbEntity
  8
1
390
1D
100
AcDbSpline
210
-0.0000000000006133
220
-0.0000000000019617
230
1.0
 70
     8
 71
     3
 72
    10
 73
     6
 74
     0
 42
0.0000000001
 43
0.0000000001
 40
0.0
 40
0.0
 40
0.0
 40
0.0
 40
0.4999273571585857
 40
0.4999273571585857
 40
1.0
 40
1.0
 40
1.0
 40
1.0
 10
50.74179031761525
 20
0.0660378993228505
 30
-0.0000000000000011
 10
50.77830491284856
 20
0.0558646854983067
 30
-0.0000000000000011
 10
50.81482944463312
 20
0.0450676938885408
 30
-0.0000000000000011
 10
50.88788981763582
 20
0.0222282989423661
 30
-0.0000000000000011
 10
50.92442837743157
 20
0.0101847056535007
 30
-0.0000000000000011
 10
50.96096232167372
 20
-0.002477937526919
 30
-0.0000000000000013
  0
SPLINE
  5
173
330
A
100
AcDbEntity
  8
1
390
1D
100
AcDbSpline
210
0.0000000000012437
220
0.0000000000048736
230
1.0
 70
     8
 71
     3
 72
     8
 73
     4
 74
     0
 42
0.0000000001
 43
0.0000000001
 40
0.0
 40
0.0
 40
0.0
 40
0.0
 40
1.0
 40
1.0
 40
1.0
 40
1.0
 10
50.69999999999999
 20
0.076702733899026
 30
-0.0000000000000011
 10
50.71394756910502
 20
0.073469208880681
 30
-0.000000000000001
 10
50.72787870569549
 20
0.0699137687334428
 30
-0.000000000000001
 10
50.74179031761525
 20
0.0660378993228505
 30
-0.000000000000001
  0
SPLINE
  5
174
330
A
100
AcDbEntity
  8
1
390
1D
100
AcDbSpline
210
-0.0000000000000111
220
0.000000000000021
230
1.0
 70
     8
 71
     3
 72
     8
 73
     4
 74
     0
 42
0.0000000001
 43
0.0000000001
 40
0.0
 40
0.0
 40
0.0
 40
0.0
 40
1.0
 40
1.0
 40
1.0
 40
1.0
 10
50.96096232167372
 20
1.693647263550246
 30
-0.0000000000000007
 10
50.87475858472835
 20
1.699510409552317
 30
-0.0000000000000007
 10
50.78860119654871
 20
1.654857998584589
 30
-0.0000000000000004
 10
50.70000000000021
 20
1.556521068398864
 30
-0.0000000000000001
  0
SPLINE
  5
175
330
A
100
AcDbEntity
  8
1
390
1D
100
AcDbSpline
210
-0.0000000000015912
220
-0.0000000000268654
230
1.0
 70
     8
 71
     3
 72
     8
 73
     4
 74
     0
 42
0.0000000001
 43
0.0000000001
 40
0.0
 40
0.0
 40
0.0
 40
0.0
 40
1.0
 40
1.0
 40
1.0
 40
1.0
 10
50.45789971833972
 20
0.1062012033740984
 30
-0.0000000000000008
 10
50.47193130670064
 20
0.1055158056273626
 30
-0.000000000000001
 10
50.48596504329094
 20
0.1046841103805036
 30
-0.0000000000000012
 10
50.5
 20
0.1037078867271362
 30
-0.0000000000000012
  0
SPLINE
  5
176
330
A
100
AcDbEntity
  8
1
390
1D
100
AcDbSpline
210
0.0000000000000089
220
0.000000000000107
230
1.0
 70
     8
 71
     3
 72
    10
 73
     6
 74
     0
 42
0.0000000001
 43
0.0000000001
 40
0.0
 40
0.0
 40
0.0
 40
0.0
 40
0.4999273909730678
 40
0.4999273909730678
 40
1.0
 40
1.0
 40
1.0
 40
1.0
 10
50.23903767832627
 20
0.124349836530314
 30
-0.0000000000000013
 10
50.27551282575864
 20
0.1200853921943121
 30
-0.0000000000000011
 10
50.31199120679594
 20
0.1164391190332026
 30
-0.0000000000000011
 10
50.38494868373778
 20
0.1103876581880741
 30
-0.0000000000000012
 10
50.42143050115557
 20
0.1079826067791032
 30
-0.0000000000000013
 10
50.45789971833972
 20
0.1062012033740984
 30
-0.0000000000000011
  0
SPLINE
  5
177
330
A
100
AcDbEntity
  8
1
390
1D
100
AcDbSpline
210
-0.0000000000000286
220
-0.0000000000000376
230
-1.0
 70
     8
 71
     3
 72
     8
 73
     4
 74
     0
 42
0.0000000001
 43
0.0000000001
 40
0.0
 40
0.0
 40
0.0
 40
0.0
 40
1.0
 40
1.0
 40
1.0
 40
1.0
 10
50.5
 20
1.562545457363626
 30
-0.0000000000000002
 10
50.41243524824
 20
1.669104094487465
 30
-0.0000000000000003
 10
50.3256930031236
 20
1.735123625377639
 30
-0.0000000000000006
 10
50.23903767832775
 20
1.761343086543945
 30
-0.0000000000000007
  0
SPLINE
  5
178
330
A
100
AcDbEntity
  8
1
390
1D
100
AcDbSpline
210
0.000000000189368
220
0.000000002130884
230
1.0
 70
     8
 71
     3
 72
     8
 73
     4
 74
     0
 42
0.0000000001
 43
0.0000000001
 40
0.0
 40
0.0
 40
0.0
 40
0.0
 40
1.0
 40
1.0
 40
1.0
 40
1.0
 10
50.23903767832627
 20
1.761343086544342
 30
-0.0000000000000006
 10
50.21301270492313
 20
1.763668566860985
 30
-0.0000000000000004
 10
50.18698759308733
 20
1.76598139584621
 30
-0.0000000000000004
 10
50.16096232167307
 20
1.768281500508692
 30
-0.0000000000000007
  0
SPLINE
  5
179
330
A
100
AcDbEntity
  8
1
390
1D
100
AcDbSpline
210
0.0000003198889434
220
0.0000018245923804
230
0.9999999999982842
 70
     8
 71
     3
 72
     8
 73
     4
 74
     0
 42
0.0000000001
 43
0.0000000001
 40
0.0
 40
0.0
 40
0.0
 40
0.0
 40
1.0
 40
1.0
 40
1.0
 40
1.0
 10
50.1609623216737
 20
0.1380380588872754
 30
-0.0000000000000014
 10
50.18698765730096
 20
0.1334765204929909
 30
-0.0000000000000012
 10
50.21301277084864
 20
0.128913749328774
 30
-0.0000000000000012
 10
50.23903767832633
 20
0.124349836530314
 30
-0.000000000000001
  0
SPLINE
  5
17A
330
A
100
AcDbEntity
  8
1
390
1D
100
AcDbSpline
210
-0.0000000000001042
220
-0.0000000000005556
230
1.0
 70
     8
 71
     3
 72
    10
 73
     6
 74
     0
 42
0.0000000001
 43
0.0000000001
 40
0.0
 40
0.0
 40
0.0
 40
0.0
 40
0.4999288290184227
 40
0.4999288290184227
 40
1.0
 40
1.0
 40
1.0
 40
1.0
 10
49.94256859949371
 20
0.1790079547258188
 30
-0.000000000000001
 10
49.9789551671854
 20
0.1734196143370923
 30
-0.000000000000001
 10
50.01535063010061
 20
0.1672110166616108
 30
-0.0000000000000011
 10
50.08815139759429
 20
0.1535541642898579
 30
-0.0000000000000011
 10
50.1245593531376
 20
0.1461050690099341
 30
-0.000000000000001
 10
50.1609623216737
 20
0.1380380588872754
 30
-0.0000000000000011
  0
SPLINE
  5
17B
330
A
100
AcDbEntity
  8
1
390
1D
100
AcDbSpline
210
0.0
220
0.0
230
1.0
 70
     8
 71
     3
 72
     8
 73
     4
 74
     0
 42
0.0000000001
 43
0.0000000001
 40
0.0
 40
0.0
 40
0.0
 40
0.0
 40
1.0
 40
1.0
 40
1.0
 40
1.0
 10
49.89999999999998
 20
0.1845351165151783
 30
-0.000000000000001
 10
49.91420736985059
 20
0.1830268907076516
 30
-0.000000000000001
 10
49.92839799936053
 20
0.1811843110594964
 30
-0.000000000000001
 10
49.94256859949371
 20
0.1790079547258188
 30
-0.000000000000001
  0
SPLINE
  5
17C
330
A
100
AcDbEntity
  8
1
390
1D
100
AcDbSpline
210
-0.0000000000000166
220
0.0000000000000227
230
1.0
 70
     8
 71
     3
 72
     8
 73
     4
 74
     0
 42
0.0000000001
 43
0.0000000001
 40
0.0
 40
0.0
 40
0.0
 40
0.0
 40
1.0
 40
1.0
 40
1.0
 40
1.0
 10
50.1609623216737
 20
1.768281500509601
 30
-0.0000000000000008
 10
50.07473542195601
 20
1.755805035000264
 30
-0.0000000000000003
 10
49.98861839438307
 20
1.693422656766813
 30
-0.0000000000000004
 10
49.89999999999998
 20
1.577793187760391
 30
-0.0000000000000001
  0
SPLINE
  5
17D
330
A
100
AcDbEntity
  8
1
390
1D
100
AcDbSpline
210
-0.0000000000011723
220
-0.0000000000149188
230
1.0
 70
     8
 71
     3
 72
     8
 73
     4
 74
     0
 42
0.0000000001
 43
0.0000000001
 40
0.0
 40
0.0
 40
0.0
 40
0.0
 40
1.0
 40
1.0
 40
1.0
 40
1.0
 10
49.43903767832586
 20
1.828760783681331
 30
-0.0000000000000006
 10
49.41301265218664
 20
1.830819208991329
 30
-0.0000000000000004
 10
49.38698711544504
 20
1.832864291432031
 30
-0.0000000000000004
 10
49.36096232167392
 20
1.83489586851715
 30
-0.0000000000000006
  0
SPLINE
  5
17E
330
A
100
AcDbEntity
  8
1
390
1D
100
AcDbSpline
210
0.0
220
0.0
230
1.0
 70
     8
 71
     3
 72
     8
 73
     4
 74
     0
 42
0.0000000001
 43
0.0000000001
 40
0.0
 40
0.0
 40
0.0
 40
0.0
 40
1.0
 40
1.0
 40
1.0
 40
1.0
 10
49.36096232167369
 20
0.2777579734634514
 30
-0.0000000000000013
 10
49.386987402577
 20
0.2732320136325939
 30
-0.0000000000000012
 10
49.41301251661843
 20
0.2687038684190952
 30
-0.0000000000000009
 10
49.43903767829789
 20
0.2641736194093483
 30
-0.0000000000000014
  0
SPLINE
  5
17F
330
A
100
AcDbEntity
  8
1
390
1D
100
AcDbSpline
210
0.0000000000020126
220
0.0000000000109956
230
1.0
 70
     8
 71
     3
 72
     8
 73
     4
 74
     0
 42
0.0000000001
 43
0.0000000001
 40
0.0
 40
0.0
 40
0.0
 40
0.0
 40
1.0
 40
1.0
 40
1.0
 40
1.0
 10
49.65723343800062
 20
0.2192239317570852
 30
-0.0000000000000012
 10
49.67148724409071
 20
0.21676485877407
 30
-0.0000000000000008
 10
49.68574309975815
 20
0.2141549862524812
 30
-0.0000000000000012
 10
49.69999999999998
 20
0.2113963153759642
 30
-0.000000000000001
  0
SPLINE
  5
180
330
A
100
AcDbEntity
  8
1
390
1D
100
AcDbSpline
210
0.0000000000009066
220
0.0000000000044006
230
1.0
 70
     8
 71
     3
 72
    10
 73
     6
 74
     0
 42
0.0000000001
 43
0.0000000001
 40
0.0
 40
0.0
 40
0.0
 40
0.0
 40
0.4999289504357787
 40
0.4999289504357787
 40
1.0
 40
1.0
 40
1.0
 40
1.0
 10
49.43903767832625
 20
0.264173619404346
 30
-0.0000000000000014
 10
49.47540022873221
 20
0.2554681827876948
 30
-0.0000000000000012
 10
49.51176657387662
 20
0.2473676091299808
 30
-0.000000000000001
 10
49.58450168982574
 20
0.2323820274294235
 30
-0.0000000000000011
 10
49.620873112173
 20
0.2254968313833388
 30
-0.0000000000000009
 10
49.65723343800062
 20
0.2192239317570852
 30
-0.0000000000000009
  0
SPLINE
  5
181
330
A
100
AcDbEntity
  8
1
390
1D
100
AcDbSpline
210
-0.0000000000000446
220
-0.0000000000000472
230
-1.0
 70
     8
 71
     3
 72
     8
 73
     4
 74
     0
 42
0.0000000001
 43
0.0000000001
 40
0.0
 40
0.0
 40
0.0
 40
0.0
 40
1.0
 40
1.0
 40
1.0
 40
1.0
 10
49.69999999999998
 20
1.581929655777286
 30
-0.0000000000000002
 10
49.61244842989146
 20
1.703779556938456
 30
-0.0000000000000002
 10
49.52572133515747
 20
1.785773413500635
 30
-0.0000000000000007
 10
49.43903767832614
 20
1.828760783681331
 30
-0.0000000000000006
  0
SPLINE
  5
182
330
A
100
AcDbEntity
  8
1
390
1D
100
AcDbSpline
210
-0.000000000000067
220
-0.0000000000010673
230
1.0
 70
     8
 71
     3
 72
    10
 73
     6
 74
     0
 42
0.0000000001
 43
0.0000000001
 40
0.0
 40
0.0
 40
0.0
 40
0.0
 40
0.4999304477782833
 40
0.4999304477782833
 40
1.0
 40
1.0
 40
1.0
 40
1.0
 10
49.14299275056578
 20
0.2914383133140177
 30
-0.0000000000000009
 10
49.17930953098431
 20
0.2903862003412883
 30
-0.000000000000001
 10
49.21563464191507
 20
0.2887203174446427
 30
-0.000000000000001
 10
49.28829391966894
 20
0.2841605499339721
 30
-0.0000000000000012
 10
49.32463067099059
 20
0.2812661605655649
 30
-0.0000000000000013
 10
49.36096232167369
 20
0.2777579734634514
 30
-0.0000000000000012
  0
SPLINE
  5
183
330
A
100
AcDbEntity
  8
1
390
1D
100
AcDbSpline
210
-0.0000000000000048
220
-0.0000000000009174
230
1.0
 70
     8
 71
     3
 72
     8
 73
     4
 74
     0
 42
0.0000000001
 43
0.0000000001
 40
0.0
 40
0.0
 40
0.0
 40
0.0
 40
1.0
 40
1.0
 40
1.0
 40
1.0
 10
49.10000000000001
 20
0.2916647113991076
 30
-0.0000000000000009
 10
49.11434880772254
 20
0.2919282710661264
 30
-0.0000000000000008
 10
49.12868085186346
 20
0.2918529352632504
 30
-0.0000000000000009
 10
49.1429927505659
 20
0.2914383133139609
 30
-0.0000000000000012
  0
SPLINE
  5
184
330
A
100
AcDbEntity
  8
1
390
1D
100
AcDbSpline
210
-0.0000000000000251
220
0.0000000000000269
230
1.0
 70
     8
 71
     3
 72
     8
 73
     4
 74
     0
 42
0.0000000001
 43
0.0000000001
 40
0.0
 40
0.0
 40
0.0
 40
0.0
 40
1.0
 40
1.0
 40
1.0
 40
1.0
 10
49.36096232167369
 20
1.83489586851698
 30
-0.0000000000000006
 10
49.27474385573555
 20
1.803976415791396
 30
-0.0000000000000004
 10
49.18867012461311
 20
1.723987698991948
 30
-0.0000000000000002
 10
49.10000000000001
 20
1.591493225548787
 30
-0.0000000000000001
  0
SPLINE
  5
185
330
A
100
AcDbEntity
  8
1
390
1D
100
AcDbSpline
210
0.0
220
0.0
230
1.0
 70
     8
 71
     3
 72
     8
 73
     4
 74
     0
 42
0.0000000001
 43
0.0000000001
 40
0.0
 40
0.0
 40
0.0
 40
0.0
 40
1.0
 40
1.0
 40
1.0
 40
1.0
 10
48.6390376783263
 20
1.88775426682713
 30
-0.0000000000000004
 10
48.61301228527639
 20
1.889532080688013
 30
-0.0000000000000003
 10
48.58698717327763
 20
1.891295890429887
 30
-0.0000000000000006
 10
48.56096232167367
 20
1.89304565016738
 30
-0.0000000000000003
  0
SPLINE
  5
186
330
A
100
AcDbEntity
  8
1
390
1D
100
AcDbSpline
210
0.0000000221601044
220
0.0000001288516581
230
0.9999999999999914
 70
     8
 71
     3
 72
     8
 73
     4
 74
     0
 42
0.0000000001
 43
0.0000000001
 40
0.0
 40
0.0
 40
0.0
 40
0.0
 40
1.0
 40
1.0
 40
1.0
 40
1.0
 10
48.56096232167375
 20
0.4161103434948359
 30
-0.0000000000000013
 10
48.58698754209598
 20
0.4116374487458074
 30
-0.0000000000000015
 10
48.61301265670153
 20
0.4071615875924408
 30
-0.0000000000000013
 10
48.6390376783263
 20
0.4026828322072333
 30
-0.0000000000000012
  0
SPLINE
  5
187
330
A
100
AcDbEntity
  8
1
390
1D
100
AcDbSpline
210
-0.0000000000059112
220
-0.000000000019395
230
-1.0
 70
     8
 71
     3
 72
     8
 73
     4
 74
     0
 42
0.0000000001
 43
0.0000000001
 40
0.0
 40
0.0
 40
0.0
 40
0.0
 40
1.0
 40
1.0
 40
1.0
 40
1.0
 10
48.85696353615275
 20
0.3314165369109219
 30
-0.000000000000001
 10
48.87130744415077
 20
0.32719531869094
 30
-0.0000000000000009
 10
48.88565328243874
 20
0.3228224560462536
 30
-0.000000000000001
 10
48.89999999999998
 20
0.318300111035569
 30
-0.0000000000000009
  0
SPLINE
  5
188
330
A
100
AcDbEntity
  8
1
390
1D
100
AcDbSpline
210
0.0000000000004586
220
0.0000000000014025
230
1.0
 70
     8
 71
     3
 72
    10
 73
     6
 74
     0
 42
0.0000000001
 43
0.0000000001
 40
0.0
 40
0.0
 40
0.0
 40
0.0
 40
0.4999305593064558
 40
0.4999305593064558
 40
1.0
 40
1.0
 40
1.0
 40
1.0
 10
48.6390376783263
 20
0.4026828322072333
 30
-0.0000000000000011
 10
48.6753541016883
 20
0.3896210462008298
 30
-0.0000000000000011
 10
48.71167472065771
 20
0.3771488738329367
 30
-0.0000000000000013
 10
48.78431965407025
 20
0.3533906644329932
 30
-0.0000000000000011
 10
48.82064655452142
 20
0.3421041336647477
 30
-0.000000000000001
 10
48.85696353615275
 20
0.3314165369109219
 30
-0.0000000000000011
  0
SPLINE
  5
189
330
A
100
AcDbEntity
  8
1
390
1D
100
AcDbSpline
210
-0.0000000000000542
220
-0.0000000000000481
230
-1.0
 70
     8
 71
     3
 72
     8
 73
     4
 74
     0
 42
0.0000000001
 43
0.0000000001
 40
0.0
 40
0.0
 40
0.0
 40
0.0
 40
1.0
 40
1.0
 40
1.0
 40
1.0
 10
48.89999999999998
 20
1.593733237547042
 30
0.0
 10
48.8124306486493
 20
1.730388348856592
 30
-0.0000000000000003
 10
48.72571940808319
 20
1.828098833119498
 30
-0.0000000000000004
 10
48.63903767832636
 20
1.887754266827016
 30
-0.0000000000000004
  0
SPLINE
  5
18A
330
A
100
AcDbEntity
  8
1
390
1D
100
AcDbSpline
210
-0.0000000000022786
220
-0.0000000000158042
230
1.0
 70
     8
 71
     3
 72
     8
 73
     4
 74
     0
 42
0.0000000001
 43
0.0000000001
 40
0.0
 40
0.0
 40
0.0
 40
0.0
 40
1.0
 40
1.0
 40
1.0
 40
1.0
 10
44.77691256613996
 20
-2.178944176559355
 30
-0.000000000000001
 10
44.86290161987631
 20
-2.191538064130043
 30
-0.0000000000000011
 10
44.94889511364056
 20
-2.203937284122389
 30
-0.0000000000000009
 10
45.03489248989354
 20
-2.216139433951581
 30
-0.0000000000000011
  0
SPLINE
  5
18B
330
A
100
AcDbEntity
  8
1
390
1D
100
AcDbSpline
210
0.0000000000000002
220
0.0000000000000819
230
1.0
 70
     8
 71
     3
 72
     8
 73
     4
 74
     0
 42
0.0000000001
 43
0.0000000001
 40
0.0
 40
0.0
 40
0.0
 40
0.0
 40
1.0
 40
1.0
 40
1.0
 40
1.0
 10
41.83339369257709
 20
-2.745461351177822
 30
-0.0000000000000002
 10
42.41192767249015
 20
-2.748226484296196
 30
-0.0000000000000002
 10
42.99001606444402
 20
-2.750012296075056
 30
-0.0000000000000002
 10
43.56768205729809
 20
-2.750015302896429
 30
-0.0000000000000001
  0
SPLINE
  5
18C
330
A
100
AcDbEntity
  8
1
390
1D
100
AcDbSpline
210
-0.0000000000000036
220
-0.0000000000005849
230
1.0
 70
     8
 71
     3
 72
     8
 73
     4
 74
     0
 42
0.0000000001
 43
0.0000000001
 40
0.0
 40
0.0
 40
0.0
 40
0.0
 40
1.0
 40
1.0
 40
1.0
 40
1.0
 10
39.9352331346596
 20
-2.733715401924428
 30
-0.0000000000000002
 10
40.56835877873396
 20
-2.738230287201644
 30
0.0
 10
41.20109239358618
 20
-2.742439234389565
 30
-0.0000000000000002
 10
41.83339369233784
 20
-2.745461351190556
 30
-0.0000000000000002
  0
SPLINE
  5
18D
330
A
100
AcDbEntity
  8
1
390
1D
100
AcDbSpline
210
-0.0000000000000039
220
0.0000000000000645
230
1.0
 70
     8
 71
     3
 72
    10
 73
     6
 74
     0
 42
0.0000000001
 43
0.0000000001
 40
0.0
 40
0.0
 40
0.0
 40
0.0
 40
0.4999321369386533
 40
0.4999321369386533
 40
1.0
 40
1.0
 40
1.0
 40
1.0
 10
48.34294835488572
 20
0.402830982570606
 30
-0.0000000000000012
 10
48.37927250967243
 20
0.4062560124497736
 30
-0.0000000000000013
 10
48.41560499200563
 20
0.4090757259131125
 30
-0.000000000000001
 10
48.48827904522522
 20
0.4135030158451515
 30
-0.0000000000000012
 10
48.52462313932982
 20
0.4151104061940032
 30
-0.0000000000000014
 10
48.56096232167375
 20
0.4161103434948927
 30
-0.0000000000000011
  0
SPLINE
  5
18E
330
A
100
AcDbEntity
  8
1
390
1D
100
AcDbSpline
210
-0.000000000000681
220
0.0000000000057931
230
1.0
 70
     8
 71
     3
 72
     8
 73
     4
 74
     0
 42
0.0000000001
 43
0.0000000001
 40
0.0
 40
0.0
 40
0.0
 40
0.0
 40
1.0
 40
1.0
 40
1.0
 40
1.0
 10
48.30000000000001
 20
0.3977827477143023
 30
-0.0000000000000009
 10
48.31433368936103
 20
0.3997996921214622
 30
-0.000000000000001
 10
48.32865091907399
 20
0.4014828673800254
 30
-0.0000000000000009
 10
48.34294835488606
 20
0.402830982570606
 30
-0.0000000000000012
  0
SPLINE
  5
18F
330
A
100
AcDbEntity
  8
1
390
1D
100
AcDbSpline
210
0.0000000000000514
220
-0.0000000000000454
230
-1.0
 70
     8
 71
     3
 72
     8
 73
     4
 74
     0
 42
0.0000000001
 43
0.0000000001
 40
0.0
 40
0.0
 40
0.0
 40
0.0
 40
1.0
 40
1.0
 40
1.0
 40
1.0
 10
48.56096232167375
 20
1.89304565016738
 30
-0.0000000000000006
 10
48.47478518400737
 20
1.843717043477169
 30
-0.0000000000000002
 10
48.38875436630656
 20
1.746387892414873
 30
0.0
 10
48.30000000000172
 20
1.597623660635007
 30
0.0000000000000001
  0
SPLINE
  5
190
330
A
100
AcDbEntity
  8
1
390
1D
100
AcDbSpline
210
0.000000000011349
220
0.000000000026794
230
1.0
 70
     8
 71
     3
 72
     8
 73
     4
 74
     0
 42
0.0000000001
 43
0.0000000001
 40
0.0
 40
0.0
 40
0.0
 40
0.0
 40
1.0
 40
1.0
 40
1.0
 40
1.0
 10
48.05719153597227
 20
0.442251236281095
 30
-0.0000000000000011
 10
48.07145956567871
 20
0.4363546366216157
 30
-0.000000000000001
 10
48.08572940460015
 20
0.430309889111129
 30
-0.0000000000000008
 10
48.10000000000002
 20
0.4241192019181881
 30
-0.0000000000000011
  0
SPLINE
  5
191
330
A
100
AcDbEntity
  8
1
390
1D
100
AcDbSpline
210
0.0000000000034437
220
0.0000000000077364
230
1.0
 70
     8
 71
     3
 72
    10
 73
     6
 74
     0
 42
0.0000000001
 43
0.0000000001
 40
0.0
 40
0.0
 40
0.0
 40
0.0
 40
0.4999320981782632
 40
0.4999320981782632
 40
1.0
 40
1.0
 40
1.0
 40
1.0
 10
47.83903767832629
 20
0.53935660827716
 30
-0.0000000000000013
 10
47.87539143597154
 20
0.5220200380856568
 30
-0.0000000000000014
 10
47.91174960649033
 20
0.5052569913301568
 30
-0.0000000000000013
 10
47.9844703909107
 20
0.472885468392974
 30
-0.0000000000000011
 10
48.02083553505599
 20
0.4572762107894164
 30
-0.0000000000000012
 10
48.05719153597227
 20
0.442251236281095
 30
-0.000000000000001
  0
SPLINE
  5
192
330
A
100
AcDbEntity
  8
1
390
1D
100
AcDbSpline
210
0.0000000000001023
220
0.0000000000000785
230
1.0
 70
     8
 71
     3
 72
     8
 73
     4
 74
     0
 42
0.0000000001
 43
0.0000000001
 40
0.0
 40
0.0
 40
0.0
 40
0.0
 40
1.0
 40
1.0
 40
1.0
 40
1.0
 10
48.09999999999997
 20
1.597982934860169
 30
0.0
 10
48.01238402360968
 20
1.748811853190205
 30
0.0
 10
47.92568753755626
 20
1.861856619933803
 30
-0.0000000000000002
 10
47.83903767832709
 20
1.937971163491681
 30
-0.0000000000000006
  0
SPLINE
  5
193
330
A
100
AcDbEntity
  8
1
390
1D
100
AcDbSpline
210
-0.0000000000620028
220
-0.0000000010943748
230
1.0
 70
     8
 71
     3
 72
     8
 73
     4
 74
     0
 42
0.0000000001
 43
0.0000000001
 40
0.0
 40
0.0
 40
0.0
 40
0.0
 40
1.0
 40
1.0
 40
1.0
 40
1.0
 10
47.83903767832629
 20
1.93797116349242
 30
-0.0000000000000004
 10
47.81301236584721
 20
1.93945988553304
 30
-0.0000000000000003
 10
47.7869872497625
 20
1.94093437108745
 30
-0.0000000000000003
 10
47.76096232167311
 20
1.942394593323399
 30
-0.0000000000000003
  0
SPLINE
  5
194
330
A
100
AcDbEntity
  8
1
390
1D
100
AcDbSpline
210
0.0000000155325475
220
0.0000000917271212
230
0.9999999999999957
 70
     8
 71
     3
 72
     8
 73
     4
 74
     0
 42
0.0000000001
 43
0.0000000001
 40
0.0
 40
0.0
 40
0.0
 40
0.0
 40
1.0
 40
1.0
 40
1.0
 40
1.0
 10
47.76096232167367
 20
0.5525774350152233
 30
-0.0000000000000014
 10
47.7869872782615
 20
0.5481743307863099
 30
-0.0000000000000012
 10
47.81301239206134
 20
0.5437673600795847
 30
-0.0000000000000012
 10
47.83903767832624
 20
0.53935660827716
 30
-0.0000000000000012
  0
SPLINE
  5
195
330
A
100
AcDbEntity
  8
1
390
1D
100
AcDbSpline
210
-0.000000000000394
220
0.0000000000021568
230
1.0
 70
     8
 71
     3
 72
    10
 73
     6
 74
     0
 42
0.0000000001
 43
0.0000000001
 40
0.0
 40
0.0
 40
0.0
 40
0.0
 40
0.4999335798780704
 40
0.4999335798780704
 40
1.0
 40
1.0
 40
1.0
 40
1.0
 10
47.54242200848739
 20
0.5126608428659552
 30
-0.000000000000001
 10
47.57883303831414
 20
0.520508626842286
 30
-0.000000000000001
 10
47.61525288788766
 20
0.5277596496579804
 30
-0.0000000000000009
 10
47.68810243645872
 20
0.5410662699630393
 30
-0.0000000000000012
 10
47.7245346135748
 20
0.5471219817451925
 30
-0.0000000000000011
 10
47.76096232167373
 20
0.5525774350152233
 30
-0.0000000000000012
  0
SPLINE
  5
196
330
A
100
AcDbEntity
  8
1
390
1D
100
AcDbSpline
210
-0.0000000000015984
220
0.0000000000067167
230
1.0
 70
     8
 71
     3
 72
     8
 73
     4
 74
     0
 42
0.0000000001
 43
0.0000000001
 40
0.0
 40
0.0
 40
0.0
 40
0.0
 40
1.0
 40
1.0
 40
1.0
 40
1.0
 10
47.5
 20
0.5025660174253517
 30
-0.0000000000000009
 10
47.51415760093181
 20
0.5062513242416458
 30
-0.0000000000000009
 10
47.52829932253649
 20
0.5096169358675411
 30
-0.000000000000001
 10
47.54242200848734
 20
0.5126608428659552
 30
-0.000000000000001
  0
SPLINE
  5
197
330
A
100
AcDbEntity
  8
1
390
1D
100
AcDbSpline
210
0.0000000000000281
220
-0.0000000000000221
230
-1.0
 70
     8
 71
     3
 72
     8
 73
     4
 74
     0
 42
0.0000000001
 43
0.0000000001
 40
0.0
 40
0.0
 40
0.0
 40
0.0
 40
1.0
 40
1.0
 40
1.0
 40
1.0
 10
47.76096232167367
 20
1.942394593323342
 30
-0.0000000000000002
 10
47.68444235582444
 20
1.882355332273334
 30
-0.0000000000000004
 10
47.60801305161129
 20
1.785433007891186
 30
-0.0000000000000002
 10
47.52957999322484
 20
1.649294012665905
 30
-0.0000000000000001
  0
SPLINE
  5
198
330
A
100
AcDbEntity
  8
1
390
1D
100
AcDbSpline
210
0.0
220
0.0
230
1.0
 70
     8
 71
     3
 72
     8
 73
     4
 74
     0
 42
0.0000000001
 43
0.0000000001
 40
0.0
 40
0.0
 40
0.0
 40
0.0
 40
1.0
 40
1.0
 40
1.0
 40
1.0
 10
45.43502857984635
 20
-1.250472073323293
 30
-0.0000000000000009
 10
45.26929596953642
 20
-1.227115623016742
 30
-0.0000000000000012
 10
45.10356335922653
 20
-1.203384297908655
 30
-0.0000000000000009
 10
44.93783074891667
 20
-1.179298873421146
 30
-0.000000000000001
  0
SPLINE
  5
199
330
A
100
AcDbEntity
  8
1
390
1D
100
AcDbSpline
210
-0.0000000000000761
220
0.0000000000000318
230
-1.0
 70
     8
 71
     3
 72
    10
 73
     6
 74
     0
 42
0.0000000001
 43
0.0000000001
 40
0.0
 40
0.0
 40
0.0
 40
0.0
 40
0.5
 40
0.5
 40
1.0
 40
1.0
 40
1.0
 40
1.0
 10
45.4350285798464
 20
-1.250472073323293
 30
-0.000000000000001
 10
45.3806491631169
 20
-1.416102247504455
 30
-0.0000000000000011
 10
45.31803854375124
 20
-1.578728915365956
 30
-0.0000000000000008
 10
45.18279652044725
 20
-1.90040194681137
 30
-0.0000000000000009
 10
45.11032914660764
 20
-2.058977409825331
 30
-0.0000000000000011
 10
45.03489248989364
 20
-2.216139433951695
 30
-0.0000000000000011
  0
SPLINE
  5
19A
330
A
100
AcDbEntity
  8
1
390
1D
100
AcDbSpline
210
0.0000000001596067
220
0.0000000012736915
230
1.0
 70
     8
 71
     3
 72
     8
 73
     4
 74
     0
 42
0.0000000001
 43
0.0000000001
 40
0.0
 40
0.0
 40
0.0
 40
0.0
 40
1.0
 40
1.0
 40
1.0
 40
1.0
 10
46.69999999999999
 20
-0.6354493204492542
 30
-0.0000000000000009
 10
46.63333318271235
 20
-0.6271267526640259
 30
-0.000000000000001
 10
46.5666664597478
 20
-0.6187725367182111
 30
-0.000000000000001
 10
46.5
 20
-0.6103873213500606
 30
-0.000000000000001
  0
SPLINE
  5
19B
330
A
100
AcDbEntity
  8
1
390
1D
100
AcDbSpline
210
0.0000000000051979
220
-0.0000000000018358
230
1.0
 70
     8
 71
     3
 72
    10
 73
     6
 74
     0
 42
0.0000000001
 43
0.0000000001
 40
0.0
 40
0.0
 40
0.0
 40
0.0
 40
0.5
 40
0.5
 40
1.0
 40
1.0
 40
1.0
 40
1.0
 10
46.5
 20
-0.6103873213500038
 30
-0.000000000000001
 10
46.45611232055921
 20
-0.7314466115926735
 30
-0.0000000000000009
 10
46.41247972142082
 20
-0.8535793298893281
 30
-0.0000000000000011
 10
46.32557168167273
 20
-1.099823391562268
 30
-0.0000000000000011
 10
46.28229323880669
 20
-1.22393413826785
 30
-0.0000000000000009
 10
46.23903767832633
 20
-1.349015426069968
 30
-0.0000000000000011
  0
SPLINE
  5
19C
330
A
100
AcDbEntity
  8
1
390
1D
100
AcDbSpline
210
-0.0000000000005844
220
-0.0000000000042433
230
1.0
 70
     8
 71
     3
 72
     8
 73
     4
 74
     0
 42
0.0000000001
 43
0.0000000001
 40
0.0
 40
0.0
 40
0.0
 40
0.0
 40
1.0
 40
1.0
 40
1.0
 40
1.0
 10
46.23903767832627
 20
-1.349015426069968
 30
-0.000000000000001
 10
45.97237982820792
 20
-1.313460472470239
 30
-0.0000000000000011
 10
45.70571882274282
 20
-1.276720915586964
 30
-0.0000000000000011
 10
45.43903767832603
 20
-1.23884850268223
 30
-0.0000000000000009
  0
SPLINE
  5
19D
330
A
100
AcDbEntity
  8
1
390
1D
100
AcDbSpline
210
0.0
220
0.0
230
1.0
 70
    24
 71
     1
 72
     4
 73
     2
 74
     0
 42
0.0000000001
 43
0.0000000001
 40
0.0
 40
0.0
 40
1.0
 40
1.0
 10
45.43903767832625
 20
-1.238848502680525
 30
-0.000000000000001
 10
45.4350285798464
 20
-1.250472073323293
 30
-0.0000000000000011
  0
SPLINE
  5
19E
330
A
100
AcDbEntity
  8
1
390
1D
100
AcDbSpline
210
0.0
220
0.0
230
1.0
 70
     8
 71
     3
 72
     8
 73
     4
 74
     0
 42
0.0000000001
 43
0.0000000001
 40
0.0
 40
0.0
 40
0.0
 40
0.0
 40
1.0
 40
1.0
 40
1.0
 40
1.0
 10
56.43289067641263
 20
-0.8075906587604322
 30
-0.0000000000000005
 10
56.26361268241897
 20
-0.7964695725992783
 30
-0.0000000000000005
 10
56.09433468842524
 20
-0.7850575235036672
 30
-0.0000000000000005
 10
55.92505669443159
 20
-0.7733685294406314
 30
-0.0000000000000005
  0
SPLINE
  5
19F
330
A
100
AcDbEntity
  8
1
390
1D
100
AcDbSpline
210
0.0000000000000059
220
0.0000000000000655
230
1.0
 70
     8
 71
     3
 72
     9
 73
     5
 74
     0
 42
0.0000000001
 43
0.0000000001
 40
0.0
 40
0.0
 40
0.0
 40
0.0
 40
0.9365911058239996
 40
1.0
 40
1.0
 40
1.0
 40
1.0
 10
55.69557383221486
 20
-0.7573539017852227
 30
-0.0000000000000005
 10
53.32204922147571
 20
-0.5899877762664119
 30
-0.0000000000000006
 10
50.78783274645457
 20
-0.3544863916411032
 30
-0.0000000000000007
 10
48.25361627143259
 20
-0.1023868872768503
 30
-0.0000000000000007
 10
48.0929244071488
 20
-0.0863525706184305
 30
-0.0000000000000007
  0
SPLINE
  5
1A0
330
A
100
AcDbEntity
  8
1
390
1D
100
AcDbSpline
210
0.0
220
0.0
230
1.0
 70
    28
 71
     2
 72
     6
 73
     3
 74
     0
 42
0.0000000001
 43
0.0000000001
 40
0.0
 40
0.0
 40
0.0
 40
1.0
 40
1.0
 40
1.0
 10
56.99999999999993
 20
-0.8437400664810184
 30
-0.0000000000000005
 41
1.0
 10
56.99999999999996
 20
-1.222237619323577
 30
-0.0000000000000006
 41
0.9637548716130059
 10
56.99999999999996
 20
-1.537152748704429
 30
-0.0000000000000001
 41
0.9632441425548091
  0
SPLINE
  5
1A1
330
A
100
AcDbEntity
  8
1
390
1D
100
AcDbSpline
210
0.0000000000212508
220
0.0000000005593449
230
1.0
 70
     8
 71
     3
 72
     8
 73
     4
 74
     0
 42
0.0000000001
 43
0.0000000001
 40
0.0
 40
0.0
 40
0.0
 40
0.0
 40
1.0
 40
1.0
 40
1.0
 40
1.0
 10
57.00000000000006
 20
-1.537152748692391
 30
-0.0000000000000002
 10
56.96666678095072
 20
-1.535904914120521
 30
-0.0000000000000003
 10
56.93333343918709
 20
-1.534638493004592
 30
0.0
 10
56.90000000000038
 20
-1.533353523825609
 30
-0.0000000000000004
  0
SPLINE
  5
1A2
330
A
100
AcDbEntity
  8
1
390
1D
100
AcDbSpline
210
-0.000000000000114
220
0.0000000000000576
230
1.0
 70
     8
 71
     3
 72
     8
 73
     4
 74
     0
 42
0.0000000001
 43
0.0000000001
 40
0.0
 40
0.0
 40
0.0
 40
0.0
 40
1.0
 40
1.0
 40
1.0
 40
1.0
 10
56.89999999999998
 20
-1.533353523825554
 30
-0.0000000000000001
 10
56.81157952539274
 20
-1.733680874296624
 30
-0.0000000000000003
 10
56.72480479437775
 20
-1.906014586966136
 30
-0.0000000000000001
 10
56.6390376783263
 20
-2.049248811328425
 30
0.0
  0
SPLINE
  5
1A3
330
A
100
AcDbEntity
  8
1
390
1D
100
AcDbSpline
210
-0.0000000000001169
220
0.0000000000287311
230
1.0
 70
     8
 71
     3
 72
     8
 73
     4
 74
     0
 42
0.0000000001
 43
0.0000000001
 40
0.0
 40
0.0
 40
0.0
 40
0.0
 40
1.0
 40
1.0
 40
1.0
 40
1.0
 10
56.6390376783263
 20
-2.049248811328425
 30
-0.0000000000000001
 10
56.61301239347534
 20
-2.049369165008612
 30
0.0000000000000001
 10
56.58698727612904
 20
-2.049475038326023
 30
-0.0000000000000001
 10
56.56096232167448
 20
-2.049566445156585
 30
0.0
  0
SPLINE
  5
1A4
330
A
100
AcDbEntity
  8
1
390
1D
100
AcDbSpline
210
0.0000000000004521
220
0.0000000000002177
230
1.0
 70
     8
 71
     3
 72
    10
 73
     6
 74
     0
 42
0.0000000001
 43
0.0000000001
 40
0.0
 40
0.0
 40
0.0
 40
0.0
 40
0.5
 40
0.5
 40
1.0
 40
1.0
 40
1.0
 40
1.0
 10
56.56096232167367
 20
-2.049566445158121
 30
0.0
 10
56.51824067429435
 20
-1.97787883292517
 30
0.0
 10
56.47532863403045
 20
-1.896678426963319
 30
0.0
 10
56.38851986324265
 20
-1.716252550274021
 30
-0.0000000000000002
 10
56.34462218411943
 20
-1.617034229568105
 30
-0.0000000000000002
 10
56.30000000000001
 20
-1.508229099562243
 30
-0.0000000000000003
  0
SPLINE
  5
1A5
330
A
100
AcDbEntity
  8
1
390
1D
100
AcDbSpline
210
0.0000000000026644
220
0.0000000000575652
230
1.0
 70
     8
 71
     3
 72
     8
 73
     4
 74
     0
 42
0.0000000001
 43
0.0000000001
 40
0.0
 40
0.0
 40
0.0
 40
0.0
 40
1.0
 40
1.0
 40
1.0
 40
1.0
 10
56.30000000000001
 20
-1.508229099562243
 30
-0.0000000000000002
 10
56.23333343306565
 20
-1.505216658575477
 30
-0.0000000000000003
 10
56.16666670811703
 20
-1.502130865487571
 30
-0.0000000000000002
 10
56.09999999999997
 20
-1.49897199015271
 30
-0.0000000000000003
  0
SPLINE
  5
1A6
330
A
100
AcDbEntity
  8
1
390
1D
100
AcDbSpline
210
-0.0000000000001707
220
0.000000000000081
230
1.0
 70
     8
 71
     3
 72
     8
 73
     4
 74
     0
 42
0.0000000001
 43
0.0000000001
 40
0.0
 40
0.0
 40
0.0
 40
0.0
 40
1.0
 40
1.0
 40
1.0
 40
1.0
 10
56.09999999999997
 20
-1.49897199015271
 30
-0.0000000000000004
 10
56.011722809557
 20
-1.708576117096243
 30
-0.0000000000000002
 10
55.92494668488735
 20
-1.892001242912215
 30
-0.0000000000000003
 10
55.83903767832629
 20
-2.0483996286153
 30
-0.0000000000000002
  0
SPLINE
  5
1A7
330
A
100
AcDbEntity
  8
1
390
1D
100
AcDbSpline
210
0.0000000000007183
220
0.0000000000985472
230
1.0
 70
     8
 71
     3
 72
     8
 73
     4
 74
     0
 42
0.0000000001
 43
0.0000000001
 40
0.0
 40
0.0
 40
0.0
 40
0.0
 40
1.0
 40
1.0
 40
1.0
 40
1.0
 10
55.83903767832629
 20
-2.0483996286153
 30
0.0
 10
55.813012449618
 20
-2.048224318687231
 30
0.0
 10
55.78698733290025
 20
-2.048034616764653
 30
0.0000000000000001
 10
55.76096232167224
 20
-2.047830526564383
 30
-0.0000000000000001
  0
SPLINE
  5
1A8
330
A
100
AcDbEntity
  8
1
390
1D
100
AcDbSpline
210
0.0000000000005622
220
0.000000000000253
230
1.0
 70
     8
 71
     3
 72
    10
 73
     6
 74
     0
 42
0.0000000001
 43
0.0000000001
 40
0.0
 40
0.0
 40
0.0
 40
0.0
 40
0.5
 40
0.5
 40
1.0
 40
1.0
 40
1.0
 40
1.0
 10
55.76096232167373
 20
-2.047830526561596
 30
-0.0000000000000001
 10
55.7181665881925
 20
-1.968637348594085
 30
-0.0000000000000001
 10
55.67521647472267
 20
-1.880550285526794
 30
-0.0000000000000001
 10
55.5884075759705
 20
-1.687496141922679
 30
-0.0000000000000002
 10
55.54454803418917
 20
-1.582536665395764
 30
-0.0000000000000003
 10
55.50000000000006
 20
-1.4685760256545
 30
-0.0000000000000004
  0
SPLINE
  5
1A9
330
A
100
AcDbEntity
  8
1
390
1D
100
AcDbSpline
210
0.0000000000117843
220
0.0000000002142312
230
1.0
 70
     8
 71
     3
 72
     8
 73
     4
 74
     0
 42
0.0000000001
 43
0.0000000001
 40
0.0
 40
0.0
 40
0.0
 40
0.0
 40
1.0
 40
1.0
 40
1.0
 40
1.0
 10
55.5
 20
-1.4685760256545
 30
-0.0000000000000004
 10
55.43333314399763
 20
-1.464981036689664
 30
-0.0000000000000003
 10
55.36666642840385
 20
-1.461313779229158
 30
-0.0000000000000003
 10
55.30000000000001
 20
-1.457574555012854
 30
-0.0000000000000006
  0
SPLINE
  5
1AA
330
A
100
AcDbEntity
  8
1
390
1D
100
AcDbSpline
210
-0.0000000000002997
220
0.0000000000001345
230
1.0
 70
     8
 71
     3
 72
     8
 73
     4
 74
     0
 42
0.0000000001
 43
0.0000000001
 40
0.0
 40
0.0
 40
0.0
 40
0.0
 40
1.0
 40
1.0
 40
1.0
 40
1.0
 10
55.30000000000001
 20
-1.457574555012854
 30
-0.0000000000000003
 10
55.21186279299451
 20
-1.675669331951042
 30
-0.0000000000000003
 10
55.12508540145852
 20
-1.869511334878041
 30
-0.0000000000000002
 10
55.03903767832628
 20
-2.03847959576558
 30
-0.0000000000000001
  0
SPLINE
  5
1AB
330
A
100
AcDbEntity
  8
1
390
1D
100
AcDbSpline
210
0.0000000000021139
220
0.0000000001135537
230
1.0
 70
     8
 71
     3
 72
     8
 73
     4
 74
     0
 42
0.0000000001
 43
0.0000000001
 40
0.0
 40
0.0
 40
0.0
 40
0.0
 40
1.0
 40
1.0
 40
1.0
 40
1.0
 10
55.03903767832628
 20
-2.038479595765523
 30
-0.0000000000000001
 10
55.01301252741336
 20
-2.038009498195378
 30
-0.0000000000000003
 10
54.98698741146728
 20
-2.037525014895777
 30
-0.0000000000000001
 10
54.96096232167372
 20
-2.037026143896185
 30
-0.0000000000000002
  0
SPLINE
  5
1AC
330
A
100
AcDbEntity
  8
1
390
1D
100
AcDbSpline
210
-0.0000000000007907
220
-0.0000000000003352
230
-1.0
 70
     8
 71
     3
 72
    10
 73
     6
 74
     0
 42
0.0000000001
 43
0.0000000001
 40
0.0
 40
0.0
 40
0.0
 40
0.0
 40
0.5
 40
0.5
 40
1.0
 40
1.0
 40
1.0
 40
1.0
 10
54.96096232167372
 20
-2.037026143896185
 30
-0.0000000000000002
 10
54.91809661617629
 20
-1.950627577586431
 30
0.0
 10
54.87511143769314
 20
-1.855980136544928
 30
-0.0000000000000002
 10
54.78830351474096
 20
-1.651006044131235
 30
-0.0000000000000003
 10
54.74448025525953
 20
-1.540687307402719
 30
-0.0000000000000004
 10
54.69999999999998
 20
-1.421986472177764
 30
-0.0000000000000004
  0
SPLINE
  5
1AD
330
A
100
AcDbEntity
  8
1
390
1D
100
AcDbSpline
210
-0.0000000000349278
220
-0.0000000005492984
230
1.0
 70
     8
 71
     3
 72
     8
 73
     4
 74
     0
 42
0.0000000001
 43
0.0000000001
 40
0.0
 40
0.0
 40
0.0
 40
0.0
 40
1.0
 40
1.0
 40
1.0
 40
1.0
 10
54.69999999999998
 20
-1.421986472177764
 30
-0.0000000000000006
 10
54.63333296746849
 20
-1.417818229979503
 30
-0.0000000000000006
 10
54.56666626089593
 20
-1.413579030540689
 30
-0.0000000000000002
 10
54.5
 20
-1.409269277479836
 30
-0.0000000000000003
  0
SPLINE
  5
1AE
330
A
100
AcDbEntity
  8
1
390
1D
100
AcDbSpline
210
0.000000000000231
220
-0.0000000000000987
230
-1.0
 70
     8
 71
     3
 72
     8
 73
     4
 74
     0
 42
0.0000000001
 43
0.0000000001
 40
0.0
 40
0.0
 40
0.0
 40
0.0
 40
1.0
 40
1.0
 40
1.0
 40
1.0
 10
54.5
 20
-1.409269277486486
 30
-0.0000000000000004
 10
54.41199668806945
 20
-1.635032814902559
 30
-0.0000000000000004
 10
54.32521898268237
 20
-1.838583817294363
 30
-0.0000000000000003
 10
54.23903767832626
 20
-2.019495230691234
 30
-0.0000000000000003
  0
SPLINE
  5
1AF
330
A
100
AcDbEntity
  8
1
390
1D
100
AcDbSpline
210
0.0000000000339288
220
0.0000000011326547
230
1.0
 70
     8
 71
     3
 72
     8
 73
     4
 74
     0
 42
0.0000000001
 43
0.0000000001
 40
0.0
 40
0.0
 40
0.0
 40
0.0
 40
1.0
 40
1.0
 40
1.0
 40
1.0
 10
54.23903767832626
 20
-2.019495230691176
 30
-0.0000000000000002
 10
54.21301263016772
 20
-2.018730061712688
 30
-0.0000000000000002
 10
54.18698751506474
 20
-2.017950478310013
 30
-0.0000000000000002
 10
54.1609623216745
 20
-2.017156477426623
 30
-0.0000000000000004
  0
SPLINE
  5
1B0
330
A
100
AcDbEntity
  8
1
390
1D
100
AcDbSpline
210
0.0000000000017639
220
0.0000000000007091
230
1.0
 70
     8
 71
     3
 72
    10
 73
     6
 74
     0
 42
0.0000000001
 43
0.0000000001
 40
0.0
 40
0.0
 40
0.0
 40
0.0
 40
0.5
 40
0.5
 40
1.0
 40
1.0
 40
1.0
 40
1.0
 10
54.16096232167371
 20
-2.017156477429069
 30
-0.0000000000000003
 10
54.11803195375194
 20
-1.92386799181645
 30
-0.0000000000000001
 10
54.07501552065236
 20
-1.823004248012636
 30
-0.0000000000000003
 10
53.98820990083515
 20
-1.606859404873944
 30
-0.0000000000000004
 10
53.944420492981
 20
-1.491586366114006
 30
-0.0000000000000007
 10
53.89999999999998
 20
-1.368587446995946
 30
-0.0000000000000007
  0
SPLINE
  5
1B1
330
A
100
AcDbEntity
  8
1
390
1D
100
AcDbSpline
210
-0.0000000000145501
220
-0.0000000002021592
230
1.0
 70
     8
 71
     3
 72
     8
 73
     4
 74
     0
 42
0.0000000001
 43
0.0000000001
 40
0.0
 40
0.0
 40
0.0
 40
0.0
 40
1.0
 40
1.0
 40
1.0
 40
1.0
 10
53.89999999999998
 20
-1.368587446995946
 30
-0.0000000000000006
 10
53.83333290101427
 20
-1.36385819567721
 30
-0.0000000000000004
 10
53.76666620308906
 20
-1.359059795942527
 30
-0.0000000000000006
 10
53.69999999999999
 20
-1.354192814290684
 30
-0.0000000000000004
  0
SPLINE
  5
1B2
330
A
100
AcDbEntity
  8
1
390
1D
100
AcDbSpline
210
-0.0000000000005921
220
0.0000000000002424
230
1.0
 70
     8
 71
     3
 72
     8
 73
     4
 74
     0
 42
0.0000000001
 43
0.0000000001
 40
0.0
 40
0.0
 40
0.0
 40
0.0
 40
1.0
 40
1.0
 40
1.0
 40
1.0
 10
53.69999999999999
 20
-1.354192814290684
 30
-0.0000000000000004
 10
53.61212089914835
 20
-1.586751244474158
 30
-0.0000000000000006
 10
53.52534464920619
 20
-1.799254027276675
 30
-0.0000000000000004
 10
53.43903767832625
 20
-1.991432590198485
 30
-0.0000000000000002
  0
SPLINE
  5
1B3
330
A
100
AcDbEntity
  8
1
390
1D
100
AcDbSpline
210
0.0
220
0.0
230
1.0
 70
     8
 71
     3
 72
     8
 73
     4
 74
     0
 42
0.0000000001
 43
0.0000000001
 40
0.0
 40
0.0
 40
0.0
 40
0.0
 40
1.0
 40
1.0
 40
1.0
 40
1.0
 10
53.43903767832625
 20
-1.991432590198485
 30
-0.0000000000000003
 10
53.41301275898512
 20
-1.990371897416479
 30
-0.0000000000000003
 10
53.38698764472468
 20
-1.989296773958415
 30
-0.0000000000000003
 10
53.3609623216734
 20
-1.988207220161939
 30
-0.0000000000000003
  0
SPLINE
  5
1B4
330
A
100
AcDbEntity
  8
1
390
1D
100
AcDbSpline
210
0.000000000000939
220
0.0000000000003602
230
1.0
 70
     8
 71
     3
 72
    10
 73
     6
 74
     0
 42
0.0000000001
 43
0.0000000001
 40
0.0
 40
0.0
 40
0.0
 40
0.0
 40
0.4999999999999999
 40
0.4999999999999999
 40
1.0
 40
1.0
 40
1.0
 40
1.0
 10
53.3609623216737
 20
-1.988207220161086
 30
-0.0000000000000003
 10
53.31797413737422
 20
-1.888371145298605
 30
-0.0000000000000004
 10
53.27493120723818
 20
-1.781664062216293
 30
-0.0000000000000003
 10
53.18812940407958
 20
-1.555160217991044
 30
-0.0000000000000004
 10
53.14437065571422
 20
-1.435371471689791
 30
-0.0000000000000007
 10
53.10000000000002
 20
-1.308553787185416
 30
-0.0000000000000004
  0
SPLINE
  5
1B5
330
A
100
AcDbEntity
  8
1
390
1D
100
AcDbSpline
210
0.0000000000093778
220
0.0000000001170893
230
1.0
 70
     8
 71
     3
 72
     8
 73
     4
 74
     0
 42
0.0000000001
 43
0.0000000001
 40
0.0
 40
0.0
 40
0.0
 40
0.0
 40
1.0
 40
1.0
 40
1.0
 40
1.0
 10
53.10000000000002
 20
-1.308553787185416
 30
-0.0000000000000003
 10
53.03333293959764
 20
-1.303280740530738
 30
-0.0000000000000007
 10
52.9666662497483
 20
-1.297941078769497
 30
-0.0000000000000006
 10
52.90000000000002
 20
-1.292535578507852
 30
-0.0000000000000004
  0
SPLINE
  5
1B6
330
A
100
AcDbEntity
  8
1
390
1D
100
AcDbSpline
210
-0.000000000000661
220
0.0000000000002606
230
1.0
 70
     8
 71
     3
 72
     8
 73
     4
 74
     0
 42
0.0000000001
 43
0.0000000001
 40
0.0
 40
0.0
 40
0.0
 40
0.0
 40
1.0
 40
1.0
 40
1.0
 40
1.0
 10
52.89999999999999
 20
-1.292535578507852
 30
-0.0000000000000006
 10
52.8122312475558
 20
-1.530948910174914
 30
-0.0000000000000004
 10
52.72545893690561
 20
-1.75158243796352
 30
-0.0000000000000004
 10
52.6390376783263
 20
-1.954287541258906
 30
-0.0000000000000004
  0
SPLINE
  5
1B7
330
A
100
AcDbEntity
  8
1
390
1D
100
AcDbSpline
210
-0.0000000000176594
220
-0.0000000003354021
230
1.0
 70
     8
 71
     3
 72
     8
 73
     4
 74
     0
 42
0.0000000001
 43
0.0000000001
 40
0.0
 40
0.0
 40
0.0
 40
0.0
 40
1.0
 40
1.0
 40
1.0
 40
1.0
 10
52.6390376783263
 20
-1.954287541258906
 30
-0.0000000000000002
 10
52.61301212878096
 20
-1.952931631221246
 30
-0.0000000000000003
 10
52.58698701510872
 20
-1.951561371541743
 30
-0.0000000000000002
 10
52.56096232167231
 20
-1.950176772656049
 30
-0.0000000000000002
  0
SPLINE
  5
1B8
330
A
100
AcDbEntity
  8
1
390
1D
100
AcDbSpline
210
0.0
220
0.0
230
1.0
 70
     8
 71
     3
 72
    10
 73
     6
 74
     0
 42
0.0000000001
 43
0.0000000001
 40
0.0
 40
0.0
 40
0.0
 40
0.0
 40
0.5
 40
0.5
 40
1.0
 40
1.0
 40
1.0
 40
1.0
 10
52.56096232167368
 20
-1.950176772651446
 30
-0.0000000000000006
 10
52.51792497142605
 20
-1.844172950632014
 30
-0.0000000000000004
 10
52.47486133331353
 20
-1.732034358866939
 30
-0.0000000000000006
 10
52.38806497967562
 20
-1.496064761614035
 30
-0.0000000000000004
 10
52.34433278100585
 20
-1.372241504207636
 30
-0.0000000000000006
 10
52.30000000000001
 20
-1.242130010129245
 30
-0.0000000000000006
  0
SPLINE
  5
1B9
330
A
100
AcDbEntity
  8
1
390
1D
100
AcDbSpline
210
0.0000000000263008
220
0.00000000029942
230
1.0
 70
     8
 71
     3
 72
     8
 73
     4
 74
     0
 42
0.0000000001
 43
0.0000000001
 40
0.0
 40
0.0
 40
0.0
 40
0.0
 40
1.0
 40
1.0
 40
1.0
 40
1.0
 10
52.29999999999995
 20
-1.242130010129245
 30
-0.0000000000000007
 10
52.23333307398729
 20
-1.236336945135179
 30
-0.0000000000000006
 10
52.16666639129494
 20
-1.230480686843349
 30
-0.0000000000000007
 10
52.10000000000128
 20
-1.224562250316238
 30
-0.0000000000000008
  0
SPLINE
  5
1BA
330
A
100
AcDbEntity
  8
1
390
1D
100
AcDbSpline
210
0.0000000000012343
220
-0.0000000000004711
230
1.0
 70
     8
 71
     3
 72
     8
 73
     4
 74
     0
 42
0.0000000001
 43
0.0000000001
 40
0.0
 40
0.0
 40
0.0
 40
0.0
 40
1.0
 40
1.0
 40
1.0
 40
1.0
 10
52.10000000000001
 20
-1.224562250324084
 30
-0.0000000000000004
 10
52.01232326479282
 20
-1.467813362360856
 30
-0.0000000000000004
 10
51.92555788471697
 20
-1.695680758972911
 30
-0.0000000000000006
 10
51.83903767832629
 20
-1.908094382340834
 30
-0.0000000000000006
  0
SPLINE
  5
1BB
330
A
100
AcDbEntity
  8
1
390
1D
100
AcDbSpline
210
-0.0000000000274502
220
-0.0000000004295137
230
1.0
 70
     8
 71
     3
 72
     8
 73
     4
 74
     0
 42
0.0000000001
 43
0.0000000001
 40
0.0
 40
0.0
 40
0.0
 40
0.0
 40
1.0
 40
1.0
 40
1.0
 40
1.0
 10
51.83903767832629
 20
-1.908094382340834
 30
-0.0000000000000003
 10
51.8130123006145
 20
-1.90644531646211
 30
-0.0000000000000008
 10
51.78698718771768
 20
-1.904782047669641
 30
-0.0000000000000004
 10
51.76096232167424
 20
-1.903104597210585
 30
-0.0000000000000004
  0
SPLINE
  5
1BC
330
A
100
AcDbEntity
  8
1
390
1D
100
AcDbSpline
210
0.0000000000028736
220
0.0000000000010216
230
1.0
 70
     8
 71
     3
 72
    10
 73
     6
 74
     0
 42
0.0000000001
 43
0.0000000001
 40
0.0
 40
0.0
 40
0.0
 40
0.0
 40
0.5
 40
0.5
 40
1.0
 40
1.0
 40
1.0
 40
1.0
 10
51.76096232167373
 20
-1.903104597212745
 30
-0.0000000000000003
 10
51.71788641902493
 20
-1.79135936136754
 30
-0.0000000000000007
 10
51.67480889488143
 20
-1.674248115745796
 30
-0.0000000000000006
 10
51.58801964201393
 20
-1.42980233640759
 30
-0.0000000000000008
 10
51.54430885660821
 20
-1.302475036029135
 30
-0.0000000000000006
 10
51.5
 20
-1.169646060191041
 30
-0.0000000000000008
  0
SPLINE
  5
1BD
330
A
100
AcDbEntity
  8
1
390
1D
100
AcDbSpline
210
-0.0000000000889099
220
-0.000000000934885
230
1.0
 70
     8
 71
     3
 72
     8
 73
     4
 74
     0
 42
0.0000000001
 43
0.0000000001
 40
0.0
 40
0.0
 40
0.0
 40
0.0
 40
1.0
 40
1.0
 40
1.0
 40
1.0
 10
51.5
 20
-1.169646060191041
 30
-0.0000000000000008
 10
51.43333328934995
 20
-1.163364318618732
 30
-0.0000000000000008
 10
51.36666661242929
 20
-1.157023774873778
 30
-0.0000000000000004
 10
51.29999999999995
 20
-1.150625687217882
 30
-0.0000000000000006
  0
SPLINE
  5
1BE
330
A
100
AcDbEntity
  8
1
390
1D
100
AcDbSpline
210
0.0
220
0.0
230
1.0
 70
     8
 71
     3
 72
     8
 73
     4
 74
     0
 42
0.0000000001
 43
0.0000000001
 40
0.0
 40
0.0
 40
0.0
 40
0.0
 40
1.0
 40
1.0
 40
1.0
 40
1.0
 10
51.30000000000001
 20
-1.150625687217882
 30
-0.0000000000000007
 10
51.21239255923069
 20
-1.397613558999637
 30
-0.0000000000000006
 10
51.1256372859076
 20
-1.631733443216091
 30
-0.0000000000000008
 10
51.03903767832759
 20
-1.852950795064203
 30
-0.0000000000000006
  0
SPLINE
  5
1BF
330
A
100
AcDbEntity
  8
1
390
1D
100
AcDbSpline
210
-0.0000000000010774
220
-0.0000000000143662
230
1.0
 70
     8
 71
     3
 72
     8
 73
     4
 74
     0
 42
0.0000000001
 43
0.0000000001
 40
0.0
 40
0.0
 40
0.0
 40
0.0
 40
1.0
 40
1.0
 40
1.0
 40
1.0
 10
51.03903767832628
 20
-1.852950795067556
 30
-0.0000000000000004
 10
51.01301249447056
 20
-1.851013014720194
 30
-0.0000000000000006
 10
50.98698738220645
 20
-1.849061304828296
 30
-0.0000000000000006
 10
50.96096232167366
 20
-1.847095699765475
 30
-0.0000000000000004
  0
SPLINE
  5
1C0
330
A
100
AcDbEntity
  8
1
390
1D
100
AcDbSpline
210
0.0000000000033702
220
0.000000000001163
230
1.0
 70
     8
 71
     3
 72
    10
 73
     6
 74
     0
 42
0.0000000001
 43
0.0000000001
 40
0.0
 40
0.0
 40
0.0
 40
0.0
 40
0.5
 40
0.5
 40
1.0
 40
1.0
 40
1.0
 40
1.0
 10
50.96096232167372
 20
-1.847095699765304
 30
-0.0000000000000006
 10
50.91786045320106
 20
-1.7300884434228
 30
-0.0000000000000008
 10
50.87477679440559
 20
-1.608516063404579
 30
-0.0000000000000006
 10
50.78799617498993
 20
-1.356689324771764
 30
-0.0000000000000007
 10
50.74430059827438
 20
-1.226441418572449
 30
-0.000000000000001
 10
50.70000000000015
 20
-1.09152499551567
 30
-0.0000000000000008
  0
SPLINE
  5
1C1
330
A
100
AcDbEntity
  8
1
390
1D
100
AcDbSpline
210
0.0000000001117673
220
0.0000000010982971
230
1.0
 70
     8
 71
     3
 72
     8
 73
     4
 74
     0
 42
0.0000000001
 43
0.0000000001
 40
0.0
 40
0.0
 40
0.0
 40
0.0
 40
1.0
 40
1.0
 40
1.0
 40
1.0
 10
50.69999999999999
 20
-1.091524995515896
 30
-0.0000000000000006
 10
50.63333356438551
 20
-1.084793737219512
 30
-0.0000000000000008
 10
50.56666689133175
 20
-1.078009017377042
 30
-0.0000000000000008
 10
50.5
 20
-1.071172315184127
 30
-0.0000000000000009
  0
SPLINE
  5
1C2
330
A
100
AcDbEntity
  8
1
390
1D
100
AcDbSpline
210
-0.0000000000028862
220
0.0000000000010489
230
1.0
 70
     8
 71
     3
 72
     8
 73
     4
 74
     0
 42
0.0000000001
 43
0.0000000001
 40
0.0
 40
0.0
 40
0.0
 40
0.0
 40
1.0
 40
1.0
 40
1.0
 40
1.0
 10
50.5
 20
-1.071172315184127
 30
-0.0000000000000009
 10
50.41243524824017
 20
-1.320710565339481
 30
-0.0000000000000007
 10
50.32569300312196
 20
-1.560012622115436
 30
-0.0000000000000006
 10
50.23903767832627
 20
-1.789037052641504
 30
-0.0000000000000007
  0
SPLINE
  5
1C3
330
A
100
AcDbEntity
  8
1
390
1D
100
AcDbSpline
210
-0.0000000000530672
220
-0.0000000006185892
230
1.0
 70
     8
 71
     3
 72
     8
 73
     4
 74
     0
 42
0.0000000001
 43
0.0000000001
 40
0.0
 40
0.0
 40
0.0
 40
0.0
 40
1.0
 40
1.0
 40
1.0
 40
1.0
 10
50.23903767832586
 20
-1.789037052641447
 30
-0.0000000000000006
 10
50.21301270492279
 20
-1.786817920109456
 30
-0.0000000000000007
 10
50.18698759308711
 20
-1.784585276377811
 30
-0.0000000000000006
 10
50.16096232167286
 20
-1.782339169991815
 30
-0.0000000000000006
  0
SPLINE
  5
1C4
330
A
100
AcDbEntity
  8
1
390
1D
100
AcDbSpline
210
0.0
220
0.0
230
1.0
 70
     8
 71
     3
 72
    10
 73
     6
 74
     0
 42
0.0000000001
 43
0.0000000001
 40
0.0
 40
0.0
 40
0.0
 40
0.0
 40
0.5
 40
0.5
 40
1.0
 40
1.0
 40
1.0
 40
1.0
 10
50.1609623216737
 20
-1.782339169988063
 30
-0.0000000000000007
 10
50.11784887181494
 20
-1.660605821881574
 30
-0.0000000000000009
 10
50.07476753407257
 20
-1.5351389767319
 30
-0.0000000000000006
 10
49.98799679188254
 20
-1.277134740408825
 30
-0.0000000000000008
 10
49.94430919719143
 20
-1.144602752674529
 30
-0.000000000000001
 10
49.89999999999998
 20
-1.008280942667169
 30
-0.0000000000000006
  0
SPLINE
  5
1C5
330
A
100
AcDbEntity
  8
1
390
1D
100
AcDbSpline
210
-0.0000000000178292
220
-0.0000000001655174
230
1.0
 70
     8
 71
     3
 72
     8
 73
     4
 74
     0
 42
0.0000000001
 43
0.0000000001
 40
0.0
 40
0.0
 40
0.0
 40
0.0
 40
1.0
 40
1.0
 40
1.0
 40
1.0
 10
49.89999999999998
 20
-1.008280942667169
 30
-0.0000000000000008
 10
49.8333338713
 20
-1.00114653394229
 30
-0.0000000000000006
 10
49.76666719971581
 20
-0.9939648228245799
 30
-0.0000000000000008
 10
49.70000000000061
 20
-0.9867374590985491
 30
-0.0000000000000007
  0
SPLINE
  5
1C6
330
A
100
AcDbEntity
  8
1
390
1D
100
AcDbSpline
210
-0.0000000000041999
220
0.0000000000015011
230
1.0
 70
     8
 71
     3
 72
     8
 73
     4
 74
     0
 42
0.0000000001
 43
0.0000000001
 40
0.0
 40
0.0
 40
0.0
 40
0.0
 40
1.0
 40
1.0
 40
1.0
 40
1.0
 10
49.69999999999998
 20
-0.9867374591061661
 30
-0.0000000000000008
 10
49.61244842989151
 20
-1.237559108831874
 30
-0.0000000000000007
 10
49.52572133515753
 20
-1.480884671644332
 30
-0.0000000000000008
 10
49.43903767832632
 20
-1.716627546433186
 30
-0.0000000000000006
  0
SPLINE
  5
1C7
330
A
100
AcDbEntity
  8
1
390
1D
100
AcDbSpline
210
-0.0000000005084476
220
-0.0000000052868405
230
1.0
 70
     8
 71
     3
 72
     8
 73
     4
 74
     0
 42
0.0000000001
 43
0.0000000001
 40
0.0
 40
0.0
 40
0.0
 40
0.0
 40
1.0
 40
1.0
 40
1.0
 40
1.0
 10
49.43903767832625
 20
-1.716627546433358
 30
-0.0000000000000008
 10
49.41301265218692
 20
-1.714137549832003
 30
-0.0000000000000008
 10
49.38698711544514
 20
-1.711634594144015
 30
-0.0000000000000007
 10
49.36096232167386
 20
-1.709118865753509
 30
-0.0000000000000006
  0
SPLINE
  5
1C8
330
A
100
AcDbEntity
  8
1
390
1D
100
AcDbSpline
210
0.0
220
0.0
230
1.0
 70
     8
 71
     3
 72
    10
 73
     6
 74
     0
 42
0.0000000001
 43
0.0000000001
 40
0.0
 40
0.0
 40
0.0
 40
0.0
 40
0.5000000000000001
 40
0.5000000000000001
 40
1.0
 40
1.0
 40
1.0
 40
1.0
 10
49.36096232167369
 20
-1.709118865754305
 30
-0.0000000000000007
 10
49.31785308870462
 20
-1.583251712521075
 30
-0.0000000000000008
 10
49.27478287936002
 20
-1.454511041159094
 30
-0.0000000000000009
 10
49.18802277437044
 20
-1.191635899473794
 30
-0.000000000000001
 10
49.14433506230654
 20
-1.057505537800637
 30
-0.000000000000001
 10
49.09999999999997
 20
-0.9205063209109312
 30
-0.0000000000000006
  0
SPLINE
  5
1C9
330
A
100
AcDbEntity
  8
1
390
1D
100
AcDbSpline
210
-0.0000000001897253
220
-0.000000001680721
230
1.0
 70
     8
 71
     3
 72
     8
 73
     4
 74
     0
 42
0.0000000001
 43
0.0000000001
 40
0.0
 40
0.0
 40
0.0
 40
0.0
 40
1.0
 40
1.0
 40
1.0
 40
1.0
 10
49.10000000000001
 20
-0.9205063209109878
 30
-0.0000000000000009
 10
49.0333341768271
 20
-0.9130208140699096
 30
-0.0000000000000007
 10
48.96666750394438
 20
-0.9054947406783071
 30
-0.0000000000000009
 10
48.89999999999998
 20
-0.8979298447925998
 30
-0.0000000000000006
  0
SPLINE
  5
1CA
330
A
100
AcDbEntity
  8
1
390
1D
100
AcDbSpline
210
0.0
220
0.0
230
1.0
 70
     8
 71
     3
 72
    10
 73
     6
 74
     0
 42
0.0000000001
 43
0.0000000001
 40
0.0
 40
0.0
 40
0.0
 40
0.0
 40
0.5
 40
0.5
 40
1.0
 40
1.0
 40
1.0
 40
1.0
 10
48.89999999999998
 20
-0.8979298447925998
 30
-0.0000000000000007
 10
48.85621532432463
 20
-1.023314351548947
 30
-0.0000000000000009
 10
48.81262393724125
 20
-1.14749637707132
 30
-0.000000000000001
 10
48.72570726569421
 20
-1.39356512912957
 30
-0.0000000000000008
 10
48.68237854320495
 20
-1.515450050461368
 30
-0.0000000000000008
 10
48.63903767832653
 20
-1.63609304702436
 30
-0.0000000000000008
  0
SPLINE
  5
1CB
330
A
100
AcDbEntity
  8
1
390
1D
100
AcDbSpline
210
-0.0000000012916047
220
-0.0000000121814731
230
1.0
 70
     8
 71
     3
 72
     8
 73
     4
 74
     0
 42
0.0000000001
 43
0.0000000001
 40
0.0
 40
0.0
 40
0.0
 40
0.0
 40
1.0
 40
1.0
 40
1.0
 40
1.0
 10
48.6390376783263
 20
-1.636093047025041
 30
-0.0000000000000009
 10
48.61301228527639
 20
-1.633345723226512
 30
-0.0000000000000007
 10
48.58698717327769
 20
-1.630586251786041
 30
-0.0000000000000009
 10
48.56096232167375
 20
-1.62781470437386
 30
-0.0000000000000004
  0
SPLINE
  5
1CC
330
A
100
AcDbEntity
  8
1
390
1D
100
AcDbSpline
210
0.0
220
0.0
230
1.0
 70
     8
 71
     3
 72
    10
 73
     6
 74
     0
 42
0.0000000001
 43
0.0000000001
 40
0.0
 40
0.0
 40
0.0
 40
0.0
 40
0.5
 40
0.5
 40
1.0
 40
1.0
 40
1.0
 40
1.0
 10
48.56096232167367
 20
-1.62781470437386
 30
-0.0000000000000008
 10
48.51787375284043
 20
-1.498457700929634
 30
-0.000000000000001
 10
48.47482318707148
 20
-1.367112130750797
 30
-0.0000000000000008
 10
48.38807367492149
 20
-1.100761378191975
 30
-0.0000000000000009
 10
48.34437718315405
 20
-0.965758817527103
 30
-0.0000000000000008
 10
48.30000000000154
 20
-0.8288447995578849
 30
-0.0000000000000009
  0
SPLINE
  5
1CD
330
A
100
AcDbEntity
  8
1
390
1D
100
AcDbSpline
210
0.0000000003713798
220
0.000000003166382
230
1.0
 70
     8
 71
     3
 72
     8
 73
     4
 74
     0
 42
0.0000000001
 43
0.0000000001
 40
0.0
 40
0.0
 40
0.0
 40
0.0
 40
1.0
 40
1.0
 40
1.0
 40
1.0
 10
48.30000000000001
 20
-0.8288447995579986
 30
-0.0000000000000007
 10
48.23333408410429
 20
-0.8210609086776798
 30
-0.0000000000000008
 10
48.16666734066689
 20
-0.8132415612638508
 30
-0.0000000000000006
 10
48.09999999999997
 20
-0.8053871629939521
 30
-0.0000000000000011
  0
SPLINE
  5
1CE
330
A
100
AcDbEntity
  8
1
390
1D
100
AcDbSpline
210
0.0000000016973671
220
-0.0000000005964022
230
-1.0
 70
     8
 71
     3
 72
    10
 73
     6
 74
     0
 42
0.0000000001
 43
0.0000000001
 40
0.0
 40
0.0
 40
0.0
 40
0.0
 40
0.5000000000000001
 40
0.5000000000000001
 40
1.0
 40
1.0
 40
1.0
 40
1.0
 10
48.10000000000002
 20
-0.8053871629939521
 30
-0.0000000000000011
 10
48.05619201180484
 20
-0.9300455317577416
 30
-0.0000000000000011
 10
48.01259354316853
 20
-1.054247359477016
 30
-0.0000000000000008
 10
47.92568044962974
 20
-1.301754295709883
 30
-0.0000000000000009
 10
47.88236260794253
 20
-1.425058012989836
 30
-0.0000000000000009
 10
47.83903767832794
 20
-1.547842927815452
 30
-0.0000000000000009
  0
SPLINE
  5
1CF
330
A
100
AcDbEntity
  8
1
390
1D
100
AcDbSpline
210
0.0000000001230751
220
0.0000000010656855
230
1.0
 70
     8
 71
     3
 72
     8
 73
     4
 74
     0
 42
0.0000000001
 43
0.0000000001
 40
0.0
 40
0.0
 40
0.0
 40
0.0
 40
1.0
 40
1.0
 40
1.0
 40
1.0
 10
47.83903767832629
 20
-1.54784292782017
 30
-0.0000000000000009
 10
47.81301236584726
 20
-1.544849191183913
 30
-0.000000000000001
 10
47.78698724976266
 20
-1.541843566787975
 30
-0.0000000000000008
 10
47.76096232167327
 20
-1.538826077530928
 30
-0.000000000000001
  0
SPLINE
  5
1D0
330
A
100
AcDbEntity
  8
1
390
1D
100
AcDbSpline
210
0.0
220
0.0
230
1.0
 70
     8
 71
     3
 72
    10
 73
     6
 74
     0
 42
0.0000000001
 43
0.0000000001
 40
0.0
 40
0.0
 40
0.0
 40
0.0
 40
0.5
 40
0.5
 40
1.0
 40
1.0
 40
1.0
 40
1.0
 10
47.76096232167367
 20
-1.538826077528768
 30
-0.0000000000000009
 10
47.71790860367906
 20
-1.406646579319954
 30
-0.0000000000000008
 10
47.67488416031869
 20
-1.273383545863111
 30
-0.0000000000000008
 10
47.58814411663514
 20
-1.004976923744437
 30
-0.0000000000000009
 10
47.54443112662466
 20
-0.8698343633216722
 30
-0.000000000000001
 10
47.5
 20
-0.7337646169545451
 30
-0.0000000000000007
  0
SPLINE
  5
1D1
330
A
100
AcDbEntity
  8
1
390
1D
100
AcDbSpline
210
0.0000000000432197
220
0.0000000003559742
230
1.0
 70
     8
 71
     3
 72
     8
 73
     4
 74
     0
 42
0.0000000001
 43
0.0000000001
 40
0.0
 40
0.0
 40
0.0
 40
0.0
 40
1.0
 40
1.0
 40
1.0
 40
1.0
 10
47.5
 20
-0.7337646169545451
 30
-0.0000000000000008
 10
47.43333357319796
 20
-0.7257040820439329
 30
-0.0000000000000009
 10
47.36666684002364
 20
-0.7176097698713307
 30
-0.000000000000001
 10
47.30000000000041
 20
-0.7094821688766047
 30
-0.0000000000000008
  0
SPLINE
  5
1D2
330
A
100
AcDbEntity
  8
1
390
1D
100
AcDbSpline
210
0.0
220
0.0
230
1.0
 70
     8
 71
     3
 72
    10
 73
     6
 74
     0
 42
0.0000000001
 43
0.0000000001
 40
0.0
 40
0.0
 40
0.0
 40
0.0
 40
0.5
 40
0.5
 40
1.0
 40
1.0
 40
1.0
 40
1.0
 10
47.29999999999995
 20
-0.7094821688810953
 30
-0.0000000000000009
 10
47.25615615408542
 20
-0.8326949242909904
 30
-0.000000000000001
 10
47.21254334353978
 20
-0.9562122703933935
 30
-0.0000000000000009
 10
47.12563327208897
 20
-1.203778024460007
 30
-0.000000000000001
 10
47.08233294168446
 20
-1.327825463968792
 30
-0.000000000000001
 10
47.03903767832634
 20
-1.45209261483012
 30
-0.0000000000000009
  0
SPLINE
  5
1D3
330
A
100
AcDbEntity
  8
1
390
1D
100
AcDbSpline
210
0.00000000030192
220
0.000000002420093
230
1.0
 70
     8
 71
     3
 72
     8
 73
     4
 74
     0
 42
0.0000000001
 43
0.0000000001
 40
0.0
 40
0.0
 40
0.0
 40
0.0
 40
1.0
 40
1.0
 40
1.0
 40
1.0
 10
47.03903767832628
 20
-1.452092614830291
 30
-0.000000000000001
 10
47.01301246589753
 20
-1.448857455614188
 30
-0.0000000000000009
 10
46.98698735077642
 20
-1.445610668814708
 30
-0.0000000000000008
 10
46.96096232167372
 20
-1.442352284363834
 30
-0.0000000000000011
  0
SPLINE
  5
1D4
330
A
100
AcDbEntity
  8
1
390
1D
100
AcDbSpline
210
0.000000000026091
220
0.0000000000084286
230
1.0
 70
     8
 71
     3
 72
    10
 73
     6
 74
     0
 42
0.0000000001
 43
0.0000000001
 40
0.0
 40
0.0
 40
0.0
 40
0.0
 40
0.5
 40
0.5
 40
1.0
 40
1.0
 40
1.0
 40
1.0
 10
46.96096232167372
 20
-1.442352284363664
 30
-0.0000000000000009
 10
46.91795477383873
 20
-1.30802343754459
 30
-0.0000000000000008
 10
46.87496081859371
 20
-1.173533435657815
 30
-0.0000000000000008
 10
46.78822842236423
 20
-0.9044872121668275
 30
-0.0000000000000011
 10
46.74449261857517
 20
-0.769930408059679
 30
-0.0000000000000009
 10
46.69999999999999
 20
-0.6354493204492542
 30
-0.000000000000001
  0
SPLINE
  5
1D5
330
A
100
AcDbEntity
  8
1
390
1D
100
AcDbSpline
210
0.0000000000297924
220
0.00000000022242
230
1.0
 70
     8
 71
     3
 72
     8
 73
     4
 74
     0
 42
0.0000000001
 43
0.0000000001
 40
0.0
 40
0.0
 40
0.0
 40
0.0
 40
1.0
 40
1.0
 40
1.0
 40
1.0
 10
47.25785230074803
 20
0.5512072844342129
 30
-0.0000000000000008
 10
47.08575731225642
 20
0.5744303927443184
 30
-0.0000000000000012
 10
46.91366232376481
 20
0.5974892666303049
 30
-0.0000000000000009
 10
46.74156733527315
 20
0.6203594737726235
 30
-0.0000000000000011
  0
SPLINE
  5
1D6
330
A
100
AcDbEntity
  8
1
390
1D
100
AcDbSpline
210
-0.0000000000202913
220
-0.0000000000376691
230
1.0
 70
     8
 71
     3
 72
     8
 73
     4
 74
     0
 42
0.0000000001
 43
0.0000000001
 40
0.0
 40
0.0
 40
0.0
 40
0.0
 40
1.0
 40
1.0
 40
1.0
 40
1.0
 10
47.25785230074803
 20
0.5512072844342129
 30
-0.0000000000000008
 10
47.27190015976474
 20
0.5437794980151694
 30
-0.0000000000000011
 10
47.28594972947684
 20
0.536210892141014
 30
-0.000000000000001
 10
47.29999999999995
 20
0.5285036168314719
 30
-0.0000000000000009
  0
SPLINE
  5
1D7
330
A
100
AcDbEntity
  8
1
390
1D
100
AcDbSpline
210
-0.0000000004626628
220
-0.0000000035674891
230
1.0
 70
     8
 71
     3
 72
     8
 73
     4
 74
     0
 42
0.0000000001
 43
0.0000000001
 40
0.0
 40
0.0
 40
0.0
 40
0.0
 40
1.0
 40
1.0
 40
1.0
 40
1.0
 10
47.30000000000001
 20
0.5285036168314719
 30
-0.0000000000000009
 10
47.36666576876428
 20
0.5198771533984541
 30
-0.0000000000000009
 10
47.43333247022503
 20
0.5112308517537372
 30
-0.0000000000000009
 10
47.5
 20
0.5025660174253517
 30
-0.000000000000001
  0
SPLINE
  5
1D8
330
A
100
AcDbEntity
  8
1
390
1D
100
AcDbSpline
210
-0.0000000000593614
220
-0.0000000004339803
230
1.0
 70
     8
 71
     3
 72
     8
 73
     4
 74
     0
 42
0.0000000001
 43
0.0000000001
 40
0.0
 40
0.0
 40
0.0
 40
0.0
 40
1.0
 40
1.0
 40
1.0
 40
1.0
 10
48.05719153597227
 20
0.442251236281095
 30
-0.0000000000000012
 10
47.88560169347392
 20
0.4658548437914193
 30
-0.0000000000000011
 10
47.71401185097557
 20
0.4893327852547031
 30
-0.0000000000000007
 10
47.54242200847722
 20
0.5126608428673194
 30
-0.0000000000000011
  0
SPLINE
  5
1D9
330
A
100
AcDbEntity
  8
1
390
1D
100
AcDbSpline
210
0.0000000022592163
220
0.0000000171565015
230
0.9999999999999998
 70
     8
 71
     3
 72
     8
 73
     4
 74
     0
 42
0.0000000001
 43
0.0000000001
 40
0.0
 40
0.0
 40
0.0
 40
0.0
 40
1.0
 40
1.0
 40
1.0
 40
1.0
 10
48.10000000000002
 20
0.4241192019181881
 30
-0.0000000000000009
 10
48.1666658684086
 20
0.4153549788900365
 30
-0.0000000000000011
 10
48.23333257770133
 20
0.4065757962175667
 30
-0.0000000000000009
 10
48.30000000000001
 20
0.3977827477143023
 30
-0.0000000000000007
  0
SPLINE
  5
1DA
330
A
100
AcDbEntity
  8
1
390
1D
100
AcDbSpline
210
0.0000000000201352
220
0.0000000001449275
230
1.0
 70
     8
 71
     3
 72
     9
 73
     5
 74
     0
 42
0.0000000001
 43
0.0000000001
 40
0.0
 40
0.0
 40
0.0
 40
0.0
 40
0.5485509892086684
 40
1.0
 40
1.0
 40
1.0
 40
1.0
 10
48.85696353615275
 20
0.3314165369109219
 30
-0.0000000000000012
 10
48.76297569076849
 20
0.3445274445989526
 30
-0.0000000000000009
 10
48.59163729701254
 20
0.3683798482812222
 30
-0.0000000000000011
 10
48.4202989032566
 20
0.3921312433787421
 30
-0.0000000000000011
 10
48.34294835488492
 20
0.4028309825707765
 30
-0.0000000000000011
  0
SPLINE
  5
1DB
330
A
100
AcDbEntity
  8
1
390
1D
100
AcDbSpline
210
-0.000000001485736
220
-0.0000000111560705
230
1.0
 70
     8
 71
     3
 72
     8
 73
     4
 74
     0
 42
0.0000000001
 43
0.0000000001
 40
0.0
 40
0.0
 40
0.0
 40
0.0
 40
1.0
 40
1.0
 40
1.0
 40
1.0
 10
48.89999999999998
 20
0.318300111035569
 30
-0.000000000000001
 10
48.96666613299476
 20
0.3094327667214998
 30
-0.0000000000000011
 10
49.03333285585325
 20
0.3005540531291899
 30
-0.0000000000000008
 10
49.10000000000001
 20
0.2916647113991076
 30
-0.0000000000000012
  0
SPLINE
  5
1DC
330
A
100
AcDbEntity
  8
1
390
1D
100
AcDbSpline
210
0.0
220
0.0
230
1.0
 70
     8
 71
     3
 72
     8
 73
     4
 74
     0
 42
0.0000000001
 43
0.0000000001
 40
0.0
 40
0.0
 40
0.0
 40
0.0
 40
1.0
 40
1.0
 40
1.0
 40
1.0
 10
49.65723343800062
 20
0.2192239317570852
 30
-0.0000000000000011
 10
49.485819875522
 20
0.2433562378196825
 30
-0.0000000000000011
 10
49.31440631304344
 20
0.2674352735854768
 30
-0.0000000000000011
 10
49.14299275056482
 20
0.2914383133141314
 30
-0.0000000000000011
  0
SPLINE
  5
1DD
330
A
100
AcDbEntity
  8
1
390
1D
100
AcDbSpline
210
-0.0000000019787104
220
-0.0000000147328057
230
1.0
 70
     8
 71
     3
 72
     8
 73
     4
 74
     0
 42
0.0000000001
 43
0.0000000001
 40
0.0
 40
0.0
 40
0.0
 40
0.0
 40
1.0
 40
1.0
 40
1.0
 40
1.0
 10
49.69999999999998
 20
0.2113963153759642
 30
-0.000000000000001
 10
49.76666641848038
 20
0.2024505544481485
 30
-0.000000000000001
 10
49.8333331336812
 20
0.1934965311811538
 30
-0.0000000000000009
 10
49.89999999999998
 20
0.1845351165151783
 30
-0.0000000000000011
  0
SPLINE
  5
1DE
330
A
100
AcDbEntity
  8
1
390
1D
100
AcDbSpline
210
0.0000000108006289
220
0.0000000799890981
230
0.9999999999999968
 70
     8
 71
     3
 72
     8
 73
     4
 74
     0
 42
0.0000000001
 43
0.0000000001
 40
0.0
 40
0.0
 40
0.0
 40
0.0
 40
1.0
 40
1.0
 40
1.0
 40
1.0
 10
50.5
 20
0.1037078867271362
 30
-0.000000000000001
 10
50.56666661862926
 20
0.0947104445276636
 30
-0.0000000000000012
 10
50.63333332693368
 20
0.0857083893324671
 30
-0.0000000000000009
 10
50.69999999999999
 20
0.076702733899026
 30
-0.000000000000001
  0
SPLINE
  5
1DF
330
A
100
AcDbEntity
  8
1
390
1D
100
AcDbSpline
210
-0.0000013404178528
220
-0.0000099093279422
230
0.9999999999500042
 70
     8
 71
     3
 72
     8
 73
     4
 74
     0
 42
0.0000000001
 43
0.0000000001
 40
0.0
 40
0.0
 40
0.0
 40
0.0
 40
1.0
 40
1.0
 40
1.0
 40
1.0
 10
51.30000000000001
 20
-0.0044173149336757
 30
-0.000000000000001
 10
51.36666674108778
 20
-0.0134351471746754
 30
-0.0000000000000009
 10
51.43333344337964
 20
-0.0224533785007566
 30
-0.0000000000000008
 10
51.5
 20
-0.0314708595871025
 30
-0.0000000000000011
  0
SPLINE
  5
1E0
330
A
100
AcDbEntity
  8
1
390
1D
100
AcDbSpline
210
0.0000000024709387
220
0.0000000183078019
230
0.9999999999999998
 70
     8
 71
     3
 72
     8
 73
     4
 74
     0
 42
0.0000000001
 43
0.0000000001
 40
0.0
 40
0.0
 40
0.0
 40
0.0
 40
1.0
 40
1.0
 40
1.0
 40
1.0
 10
52.10000000000001
 20
-0.1125768165911154
 30
-0.000000000000001
 10
52.16666679614423
 20
-0.1215792931635633
 30
-0.0000000000000009
 10
52.23333349346682
 20
-0.1305774351260993
 30
-0.0000000000000011
 10
52.30000000000001
 20
-0.1395699773346451
 30
-0.0000000000000009
  0
SPLINE
  5
1E1
330
A
100
AcDbEntity
  8
1
390
1D
100
AcDbSpline
210
0.0000000017497023
220
0.0000000130511902
230
0.9999999999999998
 70
     8
 71
     3
 72
     8
 73
     4
 74
     0
 42
0.0000000001
 43
0.0000000001
 40
0.0
 40
0.0
 40
0.0
 40
0.0
 40
1.0
 40
1.0
 40
1.0
 40
1.0
 10
52.89999999999999
 20
-0.2203178562814969
 30
-0.0000000000000012
 10
52.96666679673808
 20
-0.2292653850055331
 30
-0.0000000000000009
 10
53.03333349029333
 20
-0.2382034280951757
 30
-0.0000000000000009
 10
53.10000000000002
 20
-0.2471306376272082
 30
-0.0000000000000011
  0
SPLINE
  5
1E2
330
A
100
AcDbEntity
  8
1
390
1D
100
AcDbSpline
210
-0.0000000012034673
220
-0.0000000090812284
230
1.0
 70
     8
 71
     3
 72
     8
 73
     4
 74
     0
 42
0.0000000001
 43
0.0000000001
 40
0.0
 40
0.0
 40
0.0
 40
0.0
 40
1.0
 40
1.0
 40
1.0
 40
1.0
 10
53.69999999999999
 20
-0.3271472507362887
 30
-0.0000000000000009
 10
53.76666675806473
 20
-0.3359974110425128
 30
-0.000000000000001
 10
53.83333344918071
 20
-0.3448326629438725
 30
-0.0000000000000009
 10
53.89999999999998
 20
-0.3536516168170465
 30
-0.0000000000000011
  0
SPLINE
  5
1E3
330
A
100
AcDbEntity
  8
1
390
1D
100
AcDbSpline
210
0.0000000003809836
220
0.0000000029234506
230
1.0
 70
     8
 71
     3
 72
     8
 73
     4
 74
     0
 42
0.0000000001
 43
0.0000000001
 40
0.0
 40
0.0
 40
0.0
 40
0.0
 40
1.0
 40
1.0
 40
1.0
 40
1.0
 10
54.5
 20
-0.4325454188120829
 30
-0.000000000000001
 10
54.56666669689452
 20
-0.4412542574487476
 30
-0.0000000000000011
 10
54.63333338697498
 20
-0.4499426639159765
 30
-0.0000000000000008
 10
54.7000000000001
 20
-0.4586092512699906
 30
-0.000000000000001
  0
SPLINE
  5
1E4
330
A
100
AcDbEntity
  8
1
390
1D
100
AcDbSpline
210
-0.0000000004607368
220
-0.0000000036148256
230
-1.0
 70
     8
 71
     3
 72
     8
 73
     4
 74
     0
 42
0.0000000001
 43
0.0000000001
 40
0.0
 40
0.0
 40
0.0
 40
0.0
 40
1.0
 40
1.0
 40
1.0
 40
1.0
 10
55.30000000000001
 20
-0.5359828412232446
 30
-0.0000000000000011
 10
55.36666663077847
 20
-0.5445062944687607
 30
-0.000000000000001
 10
55.43333332124939
 20
-0.5530038676499203
 30
-0.000000000000001
 10
55.50000000000011
 20
-0.5614742195342047
 30
-0.0000000000000009
  0
SPLINE
  5
1E5
330
A
100
AcDbEntity
  8
1
390
1D
100
AcDbSpline
210
-0.0000000000506901
220
-0.0000000004089312
230
1.0
 70
     8
 71
     3
 72
     8
 73
     4
 74
     0
 42
0.0000000001
 43
0.0000000001
 40
0.0
 40
0.0
 40
0.0
 40
0.0
 40
1.0
 40
1.0
 40
1.0
 40
1.0
 10
56.10000000000002
 20
-0.6369371259580135
 30
-0.0000000000000009
 10
56.16666657732246
 20
-0.6452324173216653
 30
-0.0000000000000008
 10
56.23333326959129
 20
-0.653496621625493
 30
-0.0000000000000009
 10
56.30000000000001
 20
-0.6617284809453281
 30
-0.0000000000000009
  0
SPLINE
  5
1E6
330
A
100
AcDbEntity
  8
1
390
1D
100
AcDbSpline
210
0.0000000008809059
220
0.0000000073327786
230
1.0
 70
     8
 71
     3
 72
     8
 73
     4
 74
     0
 42
0.0000000001
 43
0.0000000001
 40
0.0
 40
0.0
 40
0.0
 40
0.0
 40
1.0
 40
1.0
 40
1.0
 40
1.0
 10
56.89999999999998
 20
-0.7349089495486965
 30
-0.0000000000000009
 10
56.93333330691945
 20
-0.7389223923514124
 30
-0.0000000000000008
 10
56.96666664381929
 20
-0.7429268561737104
 30
-0.0000000000000008
 10
57.00000000000006
 20
-0.7469221968412399
 30
-0.0000000000000008
  0
SPLINE
  5
1E7
330
A
100
AcDbEntity
  8
1
390
1D
100
AcDbSpline
210
0.0
220
0.0
230
1.0
 70
     8
 71
     3
 72
     9
 73
     5
 74
     0
 42
0.0000000001
 43
0.0000000001
 40
0.0
 40
0.0
 40
0.0
 40
0.0
 40
0.7876888490324088
 40
1.0
 40
1.0
 40
1.0
 40
1.0
 10
50.03396751795498
 20
0.1634341009464038
 30
-0.000000000000001
 10
49.54764501196995
 20
0.2229116804928708
 30
-0.000000000000001
 10
48.9302406820974
 20
0.2981508513067865
 30
-0.000000000000001
 10
48.31283635222474
 20
0.3723181642008058
 30
-0.000000000000001
 10
48.18175452833703
 20
0.3880061811792075
 30
-0.000000000000001
  0
SPLINE
  5
1E8
330
A
100
AcDbEntity
  8
1
390
1D
100
AcDbSpline
210
-0.0000000000001837
220
-0.0000000000014281
230
1.0
 70
     8
 71
     3
 72
     8
 73
     4
 74
     0
 42
0.0000000001
 43
0.0000000001
 40
0.0
 40
0.0
 40
0.0
 40
0.0
 40
1.0
 40
1.0
 40
1.0
 40
1.0
 10
46.45878443211381
 20
0.6577655049628106
 30
-0.0000000000000009
 10
46.05065423561734
 20
0.7114956001097426
 30
-0.0000000000000009
 10
45.64252403912081
 20
0.7640893307777788
 30
-0.0000000000000011
 10
45.23439384262429
 20
0.8152208180895854
 30
-0.0000000000000008
  0
SPLINE
  5
1E9
330
A
100
AcDbEntity
  8
1
390
1D
100
AcDbSpline
210
-0.0000000000351449
220
-0.0000000000540962
230
-1.0
 70
     8
 71
     3
 72
     8
 73
     4
 74
     0
 42
0.0000000001
 43
0.0000000001
 40
0.0
 40
0.0
 40
0.0
 40
0.0
 40
1.0
 40
1.0
 40
1.0
 40
1.0
 10
46.45878443211381
 20
0.6577655049628106
 30
-0.0000000000000011
 10
46.4725216151482
 20
0.6489704831856216
 30
-0.0000000000000011
 10
46.48626045035495
 20
0.640044295922678
 30
-0.0000000000000012
 10
46.5
 20
0.6309889766336028
 30
-0.000000000000001
  0
SPLINE
  5
1EA
330
A
100
AcDbEntity
  8
1
390
1D
100
AcDbSpline
210
0.0000000002670004
220
0.0000000021011085
230
1.0
 70
     8
 71
     3
 72
     8
 73
     4
 74
     0
 42
0.0000000001
 43
0.0000000001
 40
0.0
 40
0.0
 40
0.0
 40
0.0
 40
1.0
 40
1.0
 40
1.0
 40
1.0
 10
46.5
 20
0.6309889766336028
 30
-0.0000000000000009
 10
46.56666576109603
 20
0.6225422301555455
 30
-0.000000000000001
 10
46.63333245632554
 20
0.6140700615185324
 30
-0.0000000000000007
 10
46.69999999999999
 20
0.6055739298695926
 30
-0.0000000000000009
  0
SPLINE
  5
1EB
330
A
100
AcDbEntity
  8
1
390
1D
100
AcDbSpline
210
-0.0000000000017648
220
0.0000000000049615
230
-1.0
 70
     8
 71
     3
 72
     8
 73
     4
 74
     0
 42
0.0000000001
 43
0.0000000001
 40
0.0
 40
0.0
 40
0.0
 40
0.0
 40
1.0
 40
1.0
 40
1.0
 40
1.0
 10
46.69999999999999
 20
0.6055739298695926
 30
-0.0000000000000009
 10
46.71387189853902
 20
0.6108032420503946
 30
-0.0000000000000012
 10
46.72772864473961
 20
0.615732602565231
 30
-0.000000000000001
 10
46.74156733527315
 20
0.6203594737726235
 30
-0.0000000000000009
  0
SPLINE
  5
1EC
330
A
100
AcDbEntity
  8
1
390
1D
100
AcDbSpline
210
0.0
220
0.0
230
1.0
 70
     8
 71
     3
 72
     8
 73
     4
 74
     0
 42
0.0000000001
 43
0.0000000001
 40
0.0
 40
0.0
 40
0.0
 40
0.0
 40
1.0
 40
1.0
 40
1.0
 40
1.0
 10
56.30000000000001
 20
1.211429252611821
 30
-0.0000000000000007
 10
56.23333343306565
 20
1.217374330637085
 30
-0.0000000000000007
 10
56.16666670811703
 20
1.223259737076261
 30
-0.0000000000000004
 10
56.09999999999997
 20
1.229085025051575
 30
-0.0000000000000008
  0
SPLINE
  5
1ED
330
A
100
AcDbEntity
  8
1
390
1D
100
AcDbSpline
210
0.0000000003490828
220
0.0000000036768543
230
1.0
 70
     8
 71
     3
 72
     8
 73
     4
 74
     0
 42
0.0000000001
 43
0.0000000001
 40
0.0
 40
0.0
 40
0.0
 40
0.0
 40
1.0
 40
1.0
 40
1.0
 40
1.0
 10
57.0
 20
1.146827706651321
 30
-0.0000000000000006
 10
56.96666678095072
 20
1.150007039040133
 30
-0.0000000000000007
 10
56.93333343918709
 20
1.153171735623913
 30
-0.0000000000000006
 10
56.90000000000038
 20
1.156321764740994
 30
-0.0000000000000008
  0
SPLINE
  5
1EE
330
A
100
AcDbEntity
  8
1
390
1D
100
AcDbSpline
210
0.0000000000113747
220
0.0000000001404757
230
1.0
 70
     8
 71
     3
 72
     8
 73
     4
 74
     0
 42
0.0000000001
 43
0.0000000001
 40
0.0
 40
0.0
 40
0.0
 40
0.0
 40
1.0
 40
1.0
 40
1.0
 40
1.0
 10
55.5
 20
1.279876083311477
 30
-0.0000000000000007
 10
55.43333314399763
 20
1.285336144792835
 30
-0.0000000000000006
 10
55.36666642840385
 20
1.290734506390947
 30
-0.0000000000000008
 10
55.30000000000001
 20
1.296070551042874
 30
-0.0000000000000007
  0
SPLINE
  5
1EF
330
A
100
AcDbEntity
  8
1
390
1D
100
AcDbSpline
210
0.0
220
0.0
230
1.0
 70
     8
 71
     3
 72
     8
 73
     4
 74
     0
 42
0.0000000001
 43
0.0000000001
 40
0.0
 40
0.0
 40
0.0
 40
0.0
 40
1.0
 40
1.0
 40
1.0
 40
1.0
 10
47.03903767832628
 20
1.979220388884471
 30
-0.0000000000000002
 10
47.01301246589753
 20
1.98041432058693
 30
-0.0000000000000002
 10
46.98698735077636
 20
1.981593686212818
 30
-0.0000000000000002
 10
46.96096232167361
 20
1.982758448590345
 30
-0.0000000000000002
  0
SPLINE
  5
1F0
330
A
100
AcDbEntity
  8
1
390
1D
100
AcDbSpline
210
-0.0000000047906864
220
-0.0000000288633682
230
0.9999999999999996
 70
     8
 71
     3
 72
     8
 73
     4
 74
     0
 42
0.0000000001
 43
0.0000000001
 40
0.0
 40
0.0
 40
0.0
 40
0.0
 40
1.0
 40
1.0
 40
1.0
 40
1.0
 10
46.96096232167372
 20
0.6866205078794679
 30
-0.0000000000000013
 10
46.9869874437769
 20
0.6823056695636183
 30
-0.0000000000000011
 10
47.01301255701406
 20
0.6779860423993114
 30
-0.0000000000000011
 10
47.03903767832628
 20
0.673661719676602
 30
-0.0000000000000014
  0
SPLINE
  5
1F1
330
A
100
AcDbEntity
  8
1
390
1D
100
AcDbSpline
210
0.0000000000046688
220
0.0000000000083427
230
1.0
 70
     8
 71
     3
 72
    10
 73
     6
 74
     0
 42
0.0000000001
 43
0.0000000001
 40
0.0
 40
0.0
 40
0.0
 40
0.0
 40
0.4999333941458005
 40
0.4999333941458005
 40
1.0
 40
1.0
 40
1.0
 40
1.0
 10
47.03903767832628
 20
0.6736617196766588
 30
-0.0000000000000013
 10
47.07550140957478
 20
0.6521327508622221
 30
-0.0000000000000012
 10
47.11196957805561
 20
0.6311609326965027
 30
-0.0000000000000009
 10
47.18491054579043
 20
0.5903395239257066
 30
-0.0000000000000011
 10
47.22138583449679
 20
0.5704888790490941
 30
-0.0000000000000011
 10
47.25785230074803
 20
0.5512072844342129
 30
-0.0000000000000009
  0
SPLINE
  5
1F2
330
A
100
AcDbEntity
  8
1
390
1D
100
AcDbSpline
210
0.0000000000001221
220
0.000000000000087
230
1.0
 70
     8
 71
     3
 72
     8
 73
     4
 74
     0
 42
0.0000000001
 43
0.0000000001
 40
0.0
 40
0.0
 40
0.0
 40
0.0
 40
1.0
 40
1.0
 40
1.0
 40
1.0
 10
47.25426431384255
 20
1.67730401032412
 30
0.0
 10
47.18211662076874
 20
1.80251105516902
 30
-0.0000000000000001
 10
47.11054524154724
 20
1.903009537429284
 30
-0.0000000000000002
 10
47.03903767832621
 20
1.979220388884527
 30
-0.0000000000000003
  0
SPLINE
  5
1F3
330
A
100
AcDbEntity
  8
1
390
1D
100
AcDbSpline
210
-0.0000000000006305
220
0.0000000000020876
230
1.0
 70
     8
 71
     3
 72
    10
 73
     6
 74
     0
 42
0.0000000001
 43
0.0000000001
 40
0.0
 40
0.0
 40
0.0
 40
0.0
 40
0.4999347369178643
 40
0.4999347369178643
 40
1.0
 40
1.0
 40
1.0
 40
1.0
 10
46.74156733527315
 20
0.6203594737726235
 30
-0.0000000000000008
 10
46.77811922326134
 20
0.6325803466723983
 30
-0.0000000000000012
 10
46.81468087938646
 20
0.6442133919314871
 30
-0.0000000000000011
 10
46.88781544180431
 20
0.6663016910254669
 30
-0.0000000000000011
 10
46.92439079684691
 20
0.6767573450846385
 30
-0.0000000000000009
 10
46.96096232167372
 20
0.6866205078794679
 30
-0.0000000000000012
  0
SPLINE
  5
1F4
330
A
100
AcDbEntity
  8
1
390
1D
100
AcDbSpline
210
-0.0000000000001171
220
0.0000000000000854
230
1.0
 70
     8
 71
     3
 72
     8
 73
     4
 74
     0
 42
0.0000000001
 43
0.0000000001
 40
0.0
 40
0.0
 40
0.0
 40
0.0
 40
1.0
 40
1.0
 40
1.0
 40
1.0
 10
46.96096232167372
 20
1.982758448590345
 30
-0.0000000000000003
 10
46.89926673099143
 20
1.921410742282091
 30
-0.0000000000000002
 10
46.83759846210023
 20
1.836818502458981
 30
0.0
 10
46.77482230864018
 20
1.727833078491925
 30
0.0
  0
SPLINE
  5
1F5
330
A
100
AcDbEntity
  8
1
390
1D
100
AcDbSpline
210
0.0000000000258516
220
0.0000000003523105
230
1.0
 70
     8
 71
     3
 72
     8
 73
     4
 74
     0
 42
0.0000000001
 43
0.0000000001
 40
0.0
 40
0.0
 40
0.0
 40
0.0
 40
1.0
 40
1.0
 40
1.0
 40
1.0
 10
54.69999999999998
 20
1.342395528377721
 30
-0.0000000000000004
 10
54.63333296746849
 20
1.347351907555947
 30
-0.0000000000000006
 10
54.56666626089593
 20
1.352243944181964
 30
-0.0000000000000006
 10
54.5
 20
1.357070902035844
 30
-0.0000000000000006
  0
SPLINE
  5
1F6
330
A
100
AcDbEntity
  8
1
390
1D
100
AcDbSpline
210
0.0000000000002775
220
0.0000000000001836
230
1.0
 70
     8
 71
     3
 72
    10
 73
     6
 74
     0
 42
0.0000000001
 43
0.0000000001
 40
0.0
 40
0.0
 40
0.0
 40
0.0
 40
0.2010191625359435
 40
0.2010191625359435
 40
1.0
 40
1.0
 40
1.0
 40
1.0
 10
46.40185920563317
 20
1.767994494452863
 30
0.0
 10
46.39090258801252
 20
1.78696810213671
 30
0.0
 10
46.3799584927657
 20
1.805403164981555
 30
0.0
 10
46.32557168167278
 20
1.89447208750846
 30
-0.0000000000000001
 10
46.28229323880662
 20
1.957250907227149
 30
-0.0000000000000001
 10
46.23903767832633
 20
2.011292301205003
 30
-0.0000000000000001
  0
SPLINE
  5
1F7
330
A
100
AcDbEntity
  8
1
390
1D
100
AcDbSpline
210
0.0000000000566608
220
0.0000000005268033
230
1.0
 70
     8
 71
     3
 72
    10
 73
     6
 74
     0
 42
0.0000000001
 43
0.0000000001
 40
0.0
 40
0.0
 40
0.0
 40
0.0
 40
0.1463311094597785
 40
0.5781334614288002
 40
1.0
 40
1.0
 40
1.0
 40
1.0
 10
51.05318068143885
 20
1.684081314484876
 30
-0.0000000000000005
 10
51.04860675488224
 20
1.684574698783301
 30
-0.0000000000000009
 10
51.03847027600757
 20
1.685668186240548
 30
-0.0000000000000008
 10
51.02048558691592
 20
1.687608866342089
 30
-0.0000000000000007
 10
51.0054118776647
 20
1.689236606181282
 30
-0.0000000000000007
 10
50.99863607686707
 20
1.689934711823922
 30
-0.0000000000000008
  0
SPLINE
  5
1F8
330
A
100
AcDbEntity
  8
1
390
1D
100
AcDbSpline
210
-0.0000000015957843
220
-0.0000000165705412
230
0.9999999999999998
 70
     8
 71
     3
 72
    11
 73
     7
 74
     0
 42
0.0000000001
 43
0.0000000001
 40
0.0
 40
0.0
 40
0.0
 40
0.0
 40
0.1877895153398787
 40
0.395316979672675
 40
0.6179297951962758
 40
1.0
 40
1.0
 40
1.0
 40
1.0
 10
51.88938718250142
 20
1.602536458774636
 30
-0.0000000000000006
 10
51.87851266372757
 20
1.603584334729192
 30
-0.0000000000000007
 10
51.85562441446859
 20
1.605789726246256
 30
-0.0000000000000007
 10
51.819859213963
 20
1.609235882720326
 30
-0.0000000000000008
 10
51.77286815196686
 20
1.613761827195276
 30
-0.0000000000000006
 10
51.73789329460834
 20
1.617127314239042
 30
-0.0000000000000006
 10
51.71579927193715
 20
1.619252210048614
 30
-0.0000000000000007
  0
SPLINE
  5
1F9
330
A
100
AcDbEntity
  8
1
390
1D
100
AcDbSpline
210
0.0000000003970696
220
0.0000000042343363
230
1.0
 70
     8
 71
     3
 72
    12
 73
     8
 74
     0
 42
0.0000000001
 43
0.0000000001
 40
0.0
 40
0.0
 40
0.0
 40
0.0
 40
0.2008084757302971
 40
0.3955072813224205
 40
0.5834988002033708
 40
0.7964579669755168
 40
1.0
 40
1.0
 40
1.0
 40
1.0
 10
52.73647751781481
 20
1.522148401177844
 30
-0.0000000000000007
 10
52.71918809384221
 20
1.523760466062242
 30
-0.0000000000000006
 10
52.68513147482547
 20
1.52693957796498
 30
-0.0000000000000004
 10
52.63487587718224
 20
1.531641521867584
 30
-0.0000000000000007
 10
52.58356325163277
 20
1.536452874061296
 30
-0.0000000000000006
 10
52.5314780274865
 20
1.541347769987055
 30
-0.0000000000000008
 10
52.49558457728239
 20
1.544728524873108
 30
-0.0000000000000008
 10
52.47804201949072
 20
1.546382667184217
 30
-0.0000000000000008
  0
SPLINE
  5
1FA
330
A
100
AcDbEntity
  8
1
390
1D
100
AcDbSpline
210
0.0000000000686456
220
0.0000000007536205
230
1.0
 70
     8
 71
     3
 72
    16
 73
    12
 74
     0
 42
0.0000000001
 43
0.0000000001
 40
0.0
 40
0.0
 40
0.0
 40
0.0
 40
0.1031434243432587
 40
0.302399595187352
 40
0.4949514805698561
 40
0.6059923437606514
 40
0.7087946268970483
 40
0.8029809399236043
 40
0.8885513195374841
 40
0.9655059472597788
 40
1.0
 40
1.0
 40
1.0
 40
1.0
 10
53.57885936062921
 20
1.444853866201754
 30
-0.0000000000000006
 10
53.56701590203279
 20
1.44591785219535
 30
-0.0000000000000007
 10
53.53228738444011
 20
1.449043963930535
 30
-0.0000000000000007
 10
53.47539738897865
 20
1.454202135611638
 30
-0.0000000000000007
 10
53.41760946003194
 20
1.45946589001818
 30
-0.0000000000000004
 10
53.37094021114888
 20
1.463730009019343
 30
-0.0000000000000006
 10
53.33556250953574
 20
1.466961756422846
 30
-0.0000000000000007
 10
53.303109337698
 20
1.469927209925514
 30
-0.0000000000000007
 10
53.27362290188114
 20
1.472622131972003
 30
-0.0000000000000008
 10
53.25099169663747
 20
1.474690932279485
 30
-0.0000000000000008
 10
53.23849777632965
 20
1.475833430488916
 30
-0.0000000000000007
 10
53.23391643400125
 20
1.476252399081474
 30
-0.0000000000000007
  0
SPLINE
  5
1FB
330
A
100
AcDbEntity
  8
1
390
1D
100
AcDbSpline
210
-0.000000000020394
220
-0.0000000002336326
230
1.0
 70
     8
 71
     3
 72
    27
 73
    23
 74
     0
 42
0.0000000001
 43
0.0000000001
 40
0.0
 40
0.0
 40
0.0
 40
0.0
 40
0.1328003363479088
 40
0.1831542821361142
 40
0.2278697030926671
 40
0.2669453342448839
 40
0.3003811983327145
 40
0.3281773145494169
 40
0.3460606748012606
 40
0.360462370124267
 40
0.371382405745337
 40
0.3797877223869861
 40
0.3915626111631026
 40
0.4129149944743867
 40
0.4413675775233931
 40
0.4769203374577787
 40
0.5195732459539159
 40
0.5693262695286191
 40
0.62302228864248
 40
0.6766249491825601
 40
0.8434755131148559
 40
1.0
 40
1.0
 40
1.0
 40
1.0
 10
54.43828524013907
 20
1.36926477490391
 30
-0.0000000000000008
 10
54.41845925417613
 20
1.370977253370426
 30
-0.0000000000000007
 10
54.39110493451789
 20
1.373343435688014
 30
-0.0000000000000006
 10
54.35704644139446
 20
1.376295504803977
 30
-0.0000000000000006
 10
54.33699872012744
 20
1.378034900152102
 30
-0.0000000000000009
 10
54.31947888568418
 20
1.379556321114534
 30
-0.0000000000000008
 10
54.30448780022619
 20
1.380859142353529
 30
-0.0000000000000006
 10
54.29266392671502
 20
1.381887377021655
 30
-0.0000000000000008
 10
54.28368476279513
 20
1.382668604559399
 30
-0.0000000000000007
 10
54.27722777128173
 20
1.383230582973225
 30
-0.0000000000000007
 10
54.27218730150382
 20
1.383669392739534
 30
-0.0000000000000006
 10
54.26753950203335
 20
1.384074100041913
 30
-0.0000000000000007
 10
54.26133274831493
 20
1.384614668178529
 30
-0.0000000000000007
 10
54.25213011831397
 20
1.385416437248125
 30
-0.0000000000000006
 10
54.23937412947328
 20
1.386528371151825
 30
-0.0000000000000008
 10
54.22343493745484
 20
1.387918718203821
 30
-0.0000000000000006
 10
54.20431278768575
 20
1.389588079609665
 30
-0.0000000000000004
 10
54.18247834205982
 20
1.391496068745653
 30
-0.0000000000000006
 10
54.15901146728504
 20
1.393548942546771
 30
-0.0000000000000008
 10
54.11807315338883
 20
1.397134101213282
 30
-0.0000000000000008
 10
54.06184097143729
 20
1.402070178087682
 30
-0.0000000000000007
 10
54.01374903437164
 20
1.406298959471144
 30
-0.0000000000000006
 10
53.99049940479739
 20
1.408345614531469
 30
-0.0000000000000006
  0
SPLINE
  5
1FC
330
A
100
AcDbEntity
  8
1
390
1D
100
AcDbSpline
210
0.0000000000033647
220
0.0000000000402063
230
1.0
 70
     8
 71
     3
 72
    22
 73
    18
 74
     0
 42
0.0000000001
 43
0.0000000001
 40
0.0
 40
0.0
 40
0.0
 40
0.0
 40
0.0156223968454938
 40
0.0927409959633828
 40
0.1690599647566795
 40
0.2446084276979457
 40
0.3194162238721132
 40
0.3828330178179094
 40
0.4460122347523806
 40
0.5119181375099127
 40
0.5814666973506833
 40
0.6547476004510479
 40
0.7304266463528739
 40
0.8098407362305765
 40
0.8930423559512025
 40
0.9800764382605658
 40
1.0
 40
1.0
 40
1.0
 40
1.0
 10
55.28859778618301
 20
1.297301576315012
 30
-0.0000000000000008
 10
55.28401301148875
 20
1.297681146087686
 30
-0.0000000000000007
 10
55.26781880551061
 20
1.299022118110997
 30
-0.0000000000000004
 10
55.23671602439032
 20
1.30160366575194
 30
-0.0000000000000003
 10
55.19459206190413
 20
1.305102098075166
 30
-0.0000000000000006
 10
55.152902744524
 20
1.308566044717735
 30
-0.0000000000000006
 10
55.1136163060687
 20
1.31182689441573
 30
-0.0000000000000006
 10
55.07663462798753
 20
1.314890800308945
 30
-0.0000000000000006
 10
55.04135845624279
 20
1.317799332504534
 30
-0.0000000000000006
 10
55.0048472398139
 20
1.320820666506505
 30
-0.0000000000000007
 10
54.96644413681348
 20
1.324018353479175
 30
-0.0000000000000007
 10
54.92625500459604
 20
1.327388197621872
 30
-0.0000000000000006
 10
54.88430513987663
 20
1.330930961507021
 30
-0.0000000000000006
 10
54.84061276441162
 20
1.334645385567399
 30
-0.0000000000000006
 10
54.79495791211427
 20
1.33854996317035
 30
-0.0000000000000008
 10
54.76024031586667
 20
1.341530574827515
 30
-0.0000000000000006
 10
54.74127239116374
 20
1.343164679862547
 30
-0.0000000000000006
 10
54.73668892589532
 20
1.343559747372758
 30
-0.0000000000000006
  0
SPLINE
  5
1FD
330
A
100
AcDbEntity
  8
1
390
1D
100
AcDbSpline
210
0.0000000000002705
220
0.0000000000034356
230
1.0
 70
     8
 71
     3
 72
    60
 73
    56
 74
     0
 42
0.0000000001
 43
0.0000000001
 40
0.0
 40
0.0
 40
0.0
 40
0.0
 40
0.0326423312935498
 40
0.0628351019199307
 40
0.0905783561298421
 40
0.1158721339597203
 40
0.1387164713820865
 40
0.1591114004477992
 40
0.177056949419068
 40
0.192553142892448
 40
0.2056000019118398
 40
0.2162298352128337
 40
0.224547740411672
 40
0.2305618283485898
 40
0.2342815013900425
 40
0.2376388862204606
 40
0.242089036014513
 40
0.2491884198481522
 40
0.2579952380481623
 40
0.2685094823865162
 40
0.2807311430979307
 40
0.2950752798078299
 40
0.3112238756673191
 40
0.3291760008235841
 40
0.3481865542124146
 40
0.3676086428978656
 40
0.387442262832302
 40
0.4358211924339811
 40
0.4864865633819854
 40
0.5038831092915354
 40
0.5215336962129649
 40
0.5394383221373389
 40
0.5575969850598377
 40
0.5760096829816433
 40
0.5939715867792507
 40
0.6087671153060864
 40
0.6213909045916609
 40
0.6318429679885556
 40
0.6401233164617999
 40
0.6462319586626679
 40
0.6528257773783813
 40
0.6624291584631987
 40
0.6755330435105177
 40
0.6907725916553006
 40
0.7067221356888324
 40
0.7233815330940355
 40
0.740750804008859
 40
0.7588299633313866
 40
0.7886743569886564
 40
0.8197963951133491
 40
0.851175436750689
 40
0.8827775473751421
 40
0.9741000233804705
 40
0.9882736222151649
 40
1.0
 40
1.0
 40
1.0
 40
1.0
 10
57.0
 20
1.16171992439564
 30
-0.0000000000000007
 10
56.98368411452924
 20
1.162951533222041
 30
-0.0000000000000004
 10
56.95227663997724
 20
1.165325785107313
 30
-0.0000000000000006
 10
56.90700173929315
 20
1.168757934646919
 30
-0.0000000000000007
 10
56.86539975900746
 20
1.171919740573458
 30
-0.0000000000000004
 10
56.82747069806236
 20
1.174809135680845
 30
-0.0000000000000007
 10
56.79321455646452
 20
1.177424239904325
 30
-0.0000000000000004
 10
56.76263133401102
 20
1.179763362542018
 30
-0.0000000000000006
 10
56.73572103017932
 20
1.181824999082835
 30
-0.0000000000000006
 10
56.71248364521233
 20
1.18360782955483
 30
-0.0000000000000004
 10
56.69290303556625
 20
1.185111957108404
 30
-0.0000000000000006
 10
56.67691053909886
 20
1.186341710564875
 30
-0.0000000000000006
 10
56.66443334922291
 20
1.18730193489631
 30
-0.0000000000000007
 10
56.65541020658759
 20
1.187996769164215
 30
-0.0000000000000006
 10
56.64886658598067
 20
1.188500876475415
 30
-0.0000000000000007
 10
56.64310473656991
 20
1.188944892500899
 30
-0.0000000000000006
 10
56.63565356378614
 20
1.189519282346225
 30
-0.0000000000000004
 10
56.62547852169388
 20
1.190304035767268
 30
-0.0000000000000008
 10
56.61227236616276
 20
1.191323258266152
 30
-0.0000000000000006
 10
56.59650584915204
 20
1.192541088845928
 30
-0.0000000000000006
 10
56.57797149894714
 20
1.193974100140167
 30
-0.0000000000000006
 10
56.55662079488303
 20
1.19562672971142
 30
-0.0000000000000008
 10
56.53240567690808
 20
1.19750350479785
 30
-0.0000000000000006
 10
56.50585797091622
 20
1.199564038990445
 30
-0.0000000000000006
 10
56.4776739738934
 20
1.201754992937879
 30
-0.0000000000000007
 10
56.44854951734362
 20
1.204022721786998
 30
-0.0000000000000008
 10
56.40474522842367
 20
1.207439095476332
 30
-0.0000000000000006
 10
56.34532389605965
 20
1.212086705008119
 30
-0.0000000000000006
 10
56.28712061621513
 20
1.216657801547057
 30
-0.0000000000000006
 10
56.24427690197696
 20
1.220032061592178
 30
-0.0000000000000006
 10
56.21780874000222
 20
1.222119629395479
 30
-0.0000000000000006
 10
56.19095959997185
 20
1.224240332863359
 30
-0.0000000000000006
 10
56.16372948162433
 20
1.226394300597747
 30
-0.0000000000000006
 10
56.13647069800868
 20
1.228553752413688
 30
-0.0000000000000004
 10
56.11089296073817
 20
1.230583029471518
 30
-0.0000000000000008
 10
56.08820881010342
 20
1.232385128251336
 30
-0.0000000000000006
 10
56.06927849696427
 20
1.233890679958165
 30
-0.0000000000000006
 10
56.05360484909618
 20
1.235138387259326
 30
-0.0000000000000006
 10
56.04118787195443
 20
1.236127592919672
 30
-0.0000000000000004
 10
56.0306994923136
 20
1.236963640172575
 30
-0.0000000000000007
 10
56.01954995092068
 20
1.237852844230644
 30
-0.0000000000000006
 10
56.00490395236811
 20
1.239021660428192
 30
-0.0000000000000007
 10
55.98593618102626
 20
1.240536754068613
 30
-0.0000000000000006
 10
55.96379745308666
 20
1.242307144971789
 30
-0.0000000000000007
 10
55.93988434002421
 20
1.244221815246759
 30
-0.0000000000000007
 10
55.91490909533479
 20
1.246224126448567
 30
-0.0000000000000004
 10
55.88887195345069
 20
1.24831439030629
 30
-0.0000000000000007
 10
55.85624908194041
 20
1.250937024017275
 30
-0.0000000000000004
 10
55.81675933796185
 20
1.25411767900266
 30
-0.0000000000000006
 10
55.77062698442069
 20
1.257842198671482
 30
-0.0000000000000007
 10
55.72360309907178
 20
1.261648106602422
 30
-0.0000000000000007
 10
55.64648216166836
 20
1.267905503570716
 30
-0.0000000000000004
 10
55.57793412127228
 20
1.273494445447625
 30
-0.0000000000000008
 10
55.51931037102071
 20
1.278293624872616
 30
-0.0000000000000008
 10
55.50635811397722
 20
1.279355047940327
 30
-0.0000000000000004
 10
55.50049391113923
 20
1.27983583464163
 30
-0.0000000000000008
  0
SPLINE
  5
1FE
330
A
100
AcDbEntity
  8
1
390
1D
100
AcDbSpline
210
-0.0000000000000267
220
-0.0000000000009426
230
1.0
 70
     8
 71
     3
 72
     8
 73
     4
 74
     0
 42
0.0000000001
 43
0.0000000001
 40
0.0
 40
0.0
 40
0.0
 40
0.0
 40
1.0
 40
1.0
 40
1.0
 40
1.0
 10
46.23903767832627
 20
2.011292301205003
 30
-0.0000000000000002
 10
45.97237982820785
 20
2.020425020690935
 30
-0.0000000000000003
 10
45.70571882274282
 20
2.027985365874088
 30
-0.0000000000000002
 10
45.43903767832603
 20
2.03392620982379
 30
0.0
  0
SPLINE
  5
1FF
330
A
100
AcDbEntity
  8
1
390
1D
100
AcDbSpline
210
-0.0000000000031584
220
-0.0000000000482683
230
1.0
 70
     8
 71
     3
 72
     8
 73
     4
 74
     0
 42
0.0000000001
 43
0.0000000001
 40
0.0
 40
0.0
 40
0.0
 40
0.0
 40
1.0
 40
1.0
 40
1.0
 40
1.0
 10
53.89999999999998
 20
1.398737073207257
 30
-0.0000000000000004
 10
53.83333290101427
 20
1.403166961757279
 30
-0.0000000000000004
 10
53.76666620308906
 20
1.407529473978001
 30
-0.0000000000000003
 10
53.69999999999999
 20
1.411823816660331
 30
-0.0000000000000004
  0
SPLINE
  5
200
330
A
100
AcDbEntity
  8
1
390
1D
100
AcDbSpline
210
0.0000000000044059
220
0.0000000000771417
230
1.0
 70
     8
 71
     3
 72
     8
 73
     4
 74
     0
 42
0.0000000001
 43
0.0000000001
 40
0.0
 40
0.0
 40
0.0
 40
0.0
 40
1.0
 40
1.0
 40
1.0
 40
1.0
 10
53.10000000000002
 20
1.448611986316223
 30
-0.0000000000000002
 10
53.03333293959764
 20
1.452490407279868
 30
-0.0000000000000004
 10
52.9666662497483
 20
1.456298289658604
 30
-0.0000000000000003
 10
52.90000000000002
 20
1.460034852803801
 30
-0.0000000000000003
  0
SPLINE
  5
201
330
A
100
AcDbEntity
  8
1
390
1D
100
AcDbSpline
210
0.0000000000043944
220
0.0000000000907481
230
1.0
 70
     8
 71
     3
 72
     8
 73
     4
 74
     0
 42
0.0000000001
 43
0.0000000001
 40
0.0
 40
0.0
 40
0.0
 40
0.0
 40
1.0
 40
1.0
 40
1.0
 40
1.0
 10
52.30000000000001
 20
1.491718655175986
 30
-0.0000000000000002
 10
52.23333307398729
 20
1.495020689593786
 30
-0.0000000000000004
 10
52.16666639129488
 20
1.498249179665321
 30
-0.0000000000000004
 10
52.10000000000115
 20
1.501403429076618
 30
-0.0000000000000003
  0
SPLINE
  5
202
330
A
100
AcDbEntity
  8
1
390
1D
100
AcDbSpline
210
-0.0000000000008614
220
-0.0000000000218605
230
1.0
 70
     8
 71
     3
 72
     8
 73
     4
 74
     0
 42
0.0000000001
 43
0.0000000001
 40
0.0
 40
0.0
 40
0.0
 40
0.0
 40
1.0
 40
1.0
 40
1.0
 40
1.0
 10
51.5
 20
1.52777004367033
 30
-0.0000000000000002
 10
51.43333328934995
 20
1.530473149938586
 30
-0.0000000000000003
 10
51.36666661242929
 20
1.533100147044308
 30
-0.0000000000000002
 10
51.29999999999995
 20
1.535650490447721
 30
-0.0000000000000002
  0
SPLINE
  5
203
330
A
100
AcDbEntity
  8
1
390
1D
100
AcDbSpline
210
-0.0000000000024952
220
-0.0000000000828362
230
1.0
 70
     8
 71
     3
 72
     8
 73
     4
 74
     0
 42
0.0000000001
 43
0.0000000001
 40
0.0
 40
0.0
 40
0.0
 40
0.0
 40
1.0
 40
1.0
 40
1.0
 40
1.0
 10
50.69999999999999
 20
1.556521068398638
 30
-0.0000000000000003
 10
50.63333356438551
 20
1.558607287665495
 30
-0.0000000000000003
 10
50.56666689133175
 20
1.560615529722668
 30
-0.0000000000000001
 10
50.5
 20
1.562545457363626
 30
-0.0000000000000002
  0
SPLINE
  5
204
330
A
100
AcDbEntity
  8
1
390
1D
100
AcDbSpline
210
-0.000000000001129
220
-0.0000000000545858
230
1.0
 70
     8
 71
     3
 72
     8
 73
     4
 74
     0
 42
0.0000000001
 43
0.0000000001
 40
0.0
 40
0.0
 40
0.0
 40
0.0
 40
1.0
 40
1.0
 40
1.0
 40
1.0
 10
49.89999999999998
 20
1.577793187760391
 30
-0.0000000000000002
 10
49.8333338713001
 20
1.57925099398409
 30
-0.0000000000000003
 10
49.76666719971597
 20
1.580629847948386
 30
-0.0000000000000001
 10
49.7000000000009
 20
1.581929655776548
 30
-0.0000000000000001
  0
SPLINE
  5
205
330
A
100
AcDbEntity
  8
1
390
1D
100
AcDbSpline
210
-0.0000000000000142
220
-0.000000000001268
230
1.0
 70
     8
 71
     3
 72
     8
 73
     4
 74
     0
 42
0.0000000001
 43
0.0000000001
 40
0.0
 40
0.0
 40
0.0
 40
0.0
 40
1.0
 40
1.0
 40
1.0
 40
1.0
 10
49.10000000000001
 20
1.591493225548731
 30
-0.0000000000000001
 10
49.0333341768271
 20
1.592318770609949
 30
0.0
 10
48.96666750394438
 20
1.593065388190439
 30
0.0
 10
48.89999999999998
 20
1.593733237547042
 30
-0.0000000000000001
  0
SPLINE
  5
206
330
A
100
AcDbEntity
  8
1
390
1D
100
AcDbSpline
210
-0.0000000000000012
220
-0.0000000000006948
230
1.0
 70
     8
 71
     3
 72
     8
 73
     4
 74
     0
 42
0.0000000001
 43
0.0000000001
 40
0.0
 40
0.0
 40
0.0
 40
0.0
 40
1.0
 40
1.0
 40
1.0
 40
1.0
 10
48.30000000000001
 20
1.597623660633871
 30
0.0
 10
48.23333408410418
 20
1.597821237633751
 30
0.0
 10
48.166667340667
 20
1.597940907931671
 30
-0.0000000000000001
 10
48.10000000000002
 20
1.597982934860169
 30
0.0000000000000001
  0
SPLINE
  5
207
330
A
100
AcDbEntity
  8
1
390
1D
100
AcDbSpline
210
0.0
220
0.0
230
1.0
 70
    28
 71
     2
 72
     6
 73
     3
 74
     0
 42
0.0000000001
 43
0.0000000001
 40
0.0
 40
0.0
 40
0.0
 40
1.0
 40
1.0
 40
1.0
 10
57.00000000000136
 20
1.163991520012315
 30
0.0000000000000017
 41
0.967078565267402
 10
56.99999999999991
 20
1.159391060012316
 30
-0.0000000000000006
 41
0.9634043027279604
 10
56.99999999999993
 20
1.146827706651277
 30
-0.0000000000000007
 41
0.9632441425548286
  0
SPLINE
  5
208
330
A
100
AcDbEntity
  8
1
390
1D
100
AcDbSpline
210
0.0000000000123853
220
0.0000000000184841
230
1.0
 70
     8
 71
     3
 72
    10
 73
     6
 74
     0
 42
0.0000000001
 43
0.0000000001
 40
0.0
 40
0.0
 40
0.0
 40
0.0
 40
0.499934492916329
 40
0.499934492916329
 40
1.0
 40
1.0
 40
1.0
 40
1.0
 10
46.23903767832627
 20
0.8050061671558523
 30
-0.0000000000000013
 10
46.27565713610466
 20
0.7793804328846932
 30
-0.0000000000000012
 10
46.31228085387504
 20
0.7542946050293722
 30
-0.0000000000000013
 10
46.38553253460736
 20
0.7052109681762886
 30
-0.0000000000000011
 10
46.42216295764592
 20
0.6812118450641265
 30
-0.000000000000001
 10
46.45878443211381
 20
0.6577655049628106
 30
-0.0000000000000008
  0
SPLINE
  5
209
330
A
100
AcDbEntity
  8
1
390
1D
100
AcDbSpline
210
0.0000000000087356
220
0.0000000000546998
230
1.0
 70
     8
 71
     3
 72
     8
 73
     4
 74
     0
 42
0.0000000001
 43
0.0000000001
 40
0.0
 40
0.0
 40
0.0
 40
0.0
 40
1.0
 40
1.0
 40
1.0
 40
1.0
 10
45.43903767832603
 20
0.9327559027149732
 30
-0.0000000000000014
 10
45.70570293989089
 20
0.8908445196311731
 30
-0.0000000000000011
 10
45.97236291575695
 20
0.8482258816972034
 30
-0.0000000000000012
 10
46.23903767832633
 20
0.8050061671558523
 30
-0.000000000000001
  0
SPLINE
  5
20A
330
A
100
AcDbEntity
  8
1
390
1D
100
AcDbSpline
210
0.0000000012039396
220
0.000000007508852
230
1.0
 70
     8
 71
     3
 72
     8
 73
     4
 74
     0
 42
0.0000000001
 43
0.0000000001
 40
0.0
 40
0.0
 40
0.0
 40
0.0
 40
1.0
 40
1.0
 40
1.0
 40
1.0
 10
45.29982839978128
 20
0.9735341057529469
 30
-0.0000000000000013
 10
45.33673562900566
 20
0.9676306329742487
 30
-0.0000000000000013
 10
45.37364285823002
 20
0.9617129935328991
 30
-0.0000000000000011
 10
45.41055008745445
 20
0.9557814548810483
 30
-0.0000000000000012
  0
SPLINE
  5
20B
330
A
100
AcDbEntity
  8
1
390
1D
100
AcDbSpline
210
0.0
220
0.0
230
1.0
 70
    28
 71
     2
 72
     6
 73
     3
 74
     0
 42
0.0000000001
 43
0.0000000001
 40
0.0
 40
0.0
 40
0.0
 40
1.0
 40
1.0
 40
1.0
 10
57.00000000000053
 20
-0.747769066480878
 30
-0.0000000000000005
 41
0.8738924946431616
 10
57.00000000000055
 20
-0.7923156313045548
 30
-0.0000000000000004
 41
0.9227222682889966
 10
57.00000000000057
 20
-0.8437400664810184
 30
-0.0000000000000004
 41
1.0
  0
SPLINE
  5
20C
330
A
100
AcDbEntity
  8
1
390
1D
100
AcDbSpline
210
0.0
220
0.0
230
1.0
 70
    28
 71
     2
 72
     6
 73
     3
 74
     0
 42
0.0000000001
 43
0.0000000001
 40
0.0
 40
0.0
 40
0.0
 40
1.0
 40
1.0
 40
1.0
 10
57.0000000000005
 20
1.434273320969339
 30
0.0000000000000001
 41
1.0
 10
57.00000000000049
 20
1.270243664305106
 30
0.0000000000000001
 41
0.7942893155079216
 10
57.00000000000053
 20
1.162622320969435
 30
-0.0000000000000001
 41
0.7901626343016208
  0
SPLINE
  5
20D
330
A
100
AcDbEntity
  8
1
390
1D
100
AcDbSpline
210
-0.0000000000011704
220
0.0000000001776168
230
1.0
 70
     8
 71
     3
 72
     8
 73
     4
 74
     0
 42
0.0000000001
 43
0.0000000001
 40
0.0
 40
0.0
 40
0.0
 40
0.0
 40
1.0
 40
1.0
 40
1.0
 40
1.0
 10
56.56096232167374
 20
2.048298772705039
 30
0.0000000000000001
 10
56.5869873380949
 20
2.048485666767704
 30
0.0000000000000002
 10
56.61301245146472
 20
2.048657166236182
 30
0.0
 10
56.6390376783263
 20
2.048813268511424
 30
0.0
  0
SPLINE
  5
20E
330
A
100
AcDbEntity
  8
1
390
1D
100
AcDbSpline
210
-0.0000000000000053
220
0.0000000000007648
230
1.0
 70
     8
 71
     3
 72
     8
 73
     4
 74
     0
 42
0.0000000001
 43
0.0000000001
 40
0.0
 40
0.0
 40
0.0
 40
0.0
 40
1.0
 40
1.0
 40
1.0
 40
1.0
 10
56.86703804381181
 20
1.653533593739894
 30
0.0
 10
56.68925540698444
 20
1.652872706019195
 30
0.0
 10
56.511472770157
 20
1.651642636827489
 30
0.0000000000000001
 10
56.33369013332958
 20
1.649847938719176
 30
0.0000000000000001
  0
SPLINE
  5
20F
330
A
100
AcDbEntity
  8
1
390
1D
100
AcDbSpline
210
-0.0000000002103267
220
0.00000000011997
230
1.0
 70
     8
 71
     3
 72
    10
 73
     6
 74
     0
 42
0.0000000001
 43
0.0000000001
 40
0.0
 40
0.0
 40
0.0
 40
0.0
 40
0.4999213151015761
 40
0.4999213151015761
 40
1.0
 40
1.0
 40
1.0
 40
1.0
 10
56.3336901333297
 20
1.649847938719176
 30
0.0000000000000002
 10
56.37153261184432
 20
1.716466807254334
 30
0.0
 10
56.40939875000622
 20
1.78298243431385
 30
0.0000000000000001
 10
56.48516147222118
 20
1.915803206017529
 30
-0.0000000000000001
 10
56.5230611657455
 20
1.982113433192182
 30
0.0000000000000001
 10
56.56096232167374
 20
2.048298772705151
 30
0.0000000000000001
  0
SPLINE
  5
210
330
A
100
AcDbEntity
  8
1
390
1D
100
AcDbSpline
210
0.0000000045753151
220
0.0000000026391336
230
1.0
 70
     8
 71
     3
 72
    10
 73
     6
 74
     0
 42
0.0000000001
 43
0.0000000001
 40
0.0
 40
0.0
 40
0.0
 40
0.0
 40
0.4999194316586613
 40
0.4999194316586613
 40
1.0
 40
1.0
 40
1.0
 40
1.0
 10
56.6390376783263
 20
2.048813268511424
 30
0.0000000000000001
 10
56.67705545005981
 20
1.982961163601259
 30
0.0
 10
56.7150690683564
 20
1.91709257595312
 30
0.0
 10
56.79107560779339
 20
1.785329300727766
 30
0.0000000000000002
 10
56.82907173175107
 20
1.719429383555564
 30
0.0000000000000001
 10
56.86703804381181
 20
1.653533593739894
 30
0.0000000000000001
  0
SPLINE
  5
211
330
A
100
AcDbEntity
  8
1
390
1D
100
AcDbSpline
210
-0.0000000000030066
220
0.0000000000581862
230
1.0
 70
     8
 71
     3
 72
     8
 73
     4
 74
     0
 42
0.0000000001
 43
0.0000000001
 40
0.0
 40
0.0
 40
0.0
 40
0.0
 40
1.0
 40
1.0
 40
1.0
 40
1.0
 10
52.86120367568292
 20
1.544246699282211
 30
0.0000000000000003
 10
52.78385655587448
 20
1.540351115109842
 30
0.0000000000000004
 10
52.70650943606609
 20
1.536354267186994
 30
0.0000000000000004
 10
52.62916231625762
 20
1.532256530417271
 30
0.0000000000000004
  0
SPLINE
  5
212
330
A
100
AcDbEntity
  8
1
390
1D
100
AcDbSpline
210
0.0000000017321304
220
0.0000000010600212
230
1.0
 70
     8
 71
     3
 72
     8
 73
     4
 74
     0
 42
0.0000000001
 43
0.0000000001
 40
0.0
 40
0.0
 40
0.0
 40
0.0
 40
1.0
 40
1.0
 40
1.0
 40
1.0
 10
52.86120367568292
 20
1.544246699282211
 30
0.0000000000000003
 10
52.87413376635629
 20
1.523073609294784
 30
0.0000000000000004
 10
52.88706608721253
 20
1.50194150356424
 30
0.0000000000000003
 10
52.89999999999999
 20
1.480851465383409
 30
0.0000000000000004
  0
SPLINE
  5
213
330
A
100
AcDbEntity
  8
1
390
1D
100
AcDbSpline
210
0.0000000000033024
220
-0.0000000000662249
230
1.0
 70
     8
 71
     3
 72
     8
 73
     4
 74
     0
 42
0.0000000001
 43
0.0000000001
 40
0.0
 40
0.0
 40
0.0
 40
0.0
 40
1.0
 40
1.0
 40
1.0
 40
1.0
 10
52.89999999999999
 20
1.480851465383409
 30
0.0000000000000003
 10
52.96666679673814
 20
1.484246595974183
 30
0.0000000000000004
 10
53.03333349029333
 20
1.487571144100514
 30
0.0000000000000003
 10
53.10000000000002
 20
1.490824561224939
 30
0.0000000000000004
  0
SPLINE
  5
214
330
A
100
AcDbEntity
  8
1
390
1D
100
AcDbSpline
210
0.0
220
0.0
230
1.0
 70
     8
 71
     3
 72
     8
 73
     4
 74
     0
 42
0.0000000001
 43
0.0000000001
 40
0.0
 40
0.0
 40
0.0
 40
0.0
 40
1.0
 40
1.0
 40
1.0
 40
1.0
 10
53.10000000000002
 20
1.490824561224996
 30
0.0000000000000003
 10
53.11280368562744
 20
1.513086545472618
 30
0.0000000000000004
 10
53.12559296424723
 20
1.535405139796409
 30
0.0000000000000004
 10
53.138365577851
 20
1.557771884422151
 30
0.0000000000000003
  0
SPLINE
  5
215
330
A
100
AcDbEntity
  8
1
390
1D
100
AcDbSpline
210
-0.000000000000017
220
0.0000000000003839
230
1.0
 70
     8
 71
     3
 72
     8
 73
     4
 74
     0
 42
0.0000000001
 43
0.0000000001
 40
0.0
 40
0.0
 40
0.0
 40
0.0
 40
1.0
 40
1.0
 40
1.0
 40
1.0
 10
53.66244727055822
 20
1.580963651329455
 30
0.0000000000000004
 10
53.48775337298917
 20
1.57375478673731
 30
0.0000000000000002
 10
53.31305947542011
 20
1.566022757978486
 30
0.0000000000000002
 10
53.138365577851
 20
1.557771884422151
 30
0.0000000000000004
  0
SPLINE
  5
216
330
A
100
AcDbEntity
  8
1
390
1D
100
AcDbSpline
210
-0.0000000030222141
220
-0.0000000018074143
230
1.0
 70
     8
 71
     3
 72
     8
 73
     4
 74
     0
 42
0.0000000001
 43
0.0000000001
 40
0.0
 40
0.0
 40
0.0
 40
0.0
 40
1.0
 40
1.0
 40
1.0
 40
1.0
 10
53.66244727055822
 20
1.580963651329455
 30
0.0000000000000003
 10
53.67496284135007
 20
1.560002113924326
 30
0.0000000000000002
 10
53.68748060096765
 20
1.539070863739369
 30
0.0000000000000003
 10
53.69999999999999
 20
1.518170985195695
 30
0.0000000000000002
  0
SPLINE
  5
217
330
A
100
AcDbEntity
  8
1
390
1D
100
AcDbSpline
210
0.00000000000323
220
-0.0000000000783252
230
1.0
 70
     8
 71
     3
 72
     8
 73
     4
 74
     0
 42
0.0000000001
 43
0.0000000001
 40
0.0
 40
0.0
 40
0.0
 40
0.0
 40
1.0
 40
1.0
 40
1.0
 40
1.0
 10
53.69999999999999
 20
1.518170985195695
 30
0.0000000000000002
 10
53.76666675806473
 20
1.520993021319668
 30
0.0000000000000003
 10
53.83333344918071
 20
1.52374240626034
 30
0.0000000000000003
 10
53.89999999999998
 20
1.526418673105865
 30
0.0000000000000003
  0
SPLINE
  5
218
330
A
100
AcDbEntity
  8
1
390
1D
100
AcDbSpline
210
0.0000000018083494
220
-0.000000001025931
230
1.0
 70
     8
 71
     3
 72
     8
 73
     4
 74
     0
 42
0.0000000001
 43
0.0000000001
 40
0.0
 40
0.0
 40
0.0
 40
0.0
 40
1.0
 40
1.0
 40
1.0
 40
1.0
 10
53.89999999999998
 20
1.526418673105923
 30
0.0000000000000003
 10
53.9123912209929
 20
1.548202661865274
 30
0.0000000000000003
 10
53.92476887032813
 20
1.570021290700822
 30
0.0000000000000003
 10
53.93713095761881
 20
1.591866893265149
 30
0.0000000000000004
  0
SPLINE
  5
219
330
A
100
AcDbEntity
  8
1
390
1D
100
AcDbSpline
210
-0.0000000000001242
220
0.000000000003539
230
1.0
 70
     8
 71
     3
 72
     8
 73
     4
 74
     0
 42
0.0000000001
 43
0.0000000001
 40
0.0
 40
0.0
 40
0.0
 40
0.0
 40
1.0
 40
1.0
 40
1.0
 40
1.0
 10
54.46366348724996
 20
1.610342694038934
 30
0.0000000000000003
 10
54.28815264403954
 20
1.604717367755938
 30
0.0000000000000002
 10
54.11264180082918
 20
1.598557307414352
 30
0.0000000000000002
 10
53.93713095761881
 20
1.591866893265149
 30
0.0000000000000004
  0
SPLINE
  5
21A
330
A
100
AcDbEntity
  8
1
390
1D
100
AcDbSpline
210
0.0
220
0.0
230
1.0
 70
     8
 71
     3
 72
     8
 73
     4
 74
     0
 42
0.0000000001
 43
0.0000000001
 40
0.0
 40
0.0
 40
0.0
 40
0.0
 40
1.0
 40
1.0
 40
1.0
 40
1.0
 10
54.46366348724996
 20
1.610342694038934
 30
0.0000000000000003
 10
54.47577369126299
 20
1.589713860399456
 30
0.0000000000000003
 10
54.48788601898172
 20
1.569105755062253
 30
0.0000000000000003
 10
54.5
 20
1.548519437868321
 30
0.0000000000000003
  0
SPLINE
  5
21B
330
A
100
AcDbEntity
  8
1
390
1D
100
AcDbSpline
210
0.0000000000006513
220
-0.0000000000201085
230
1.0
 70
     8
 71
     3
 72
     8
 73
     4
 74
     0
 42
0.0000000001
 43
0.0000000001
 40
0.0
 40
0.0
 40
0.0
 40
0.0
 40
1.0
 40
1.0
 40
1.0
 40
1.0
 10
54.5
 20
1.548519437868321
 30
0.0000000000000002
 10
54.56666669689452
 20
1.550753209313256
 30
0.0000000000000002
 10
54.63333338697498
 20
1.552912628788533
 30
0.0000000000000003
 10
54.7000000000001
 20
1.554997337384975
 30
0.0000000000000002
  0
SPLINE
  5
21C
330
A
100
AcDbEntity
  8
1
390
1D
100
AcDbSpline
210
-0.0000000072917127
220
0.0000000041170994
230
-1.0
 70
     8
 71
     3
 72
     8
 73
     4
 74
     0
 42
0.0000000001
 43
0.0000000001
 40
0.0
 40
0.0
 40
0.0
 40
0.0
 40
1.0
 40
1.0
 40
1.0
 40
1.0
 10
54.69999999999998
 20
1.554997337385031
 30
0.0000000000000001
 10
54.71199146387711
 20
1.576198549885589
 30
0.0000000000000002
 10
54.72397019004774
 20
1.597414974655236
 30
0.0000000000000001
 10
54.73593442810021
 20
1.618639733585155
 30
0.0000000000000003
  0
SPLINE
  5
21D
330
A
100
AcDbEntity
  8
1
390
1D
100
AcDbSpline
210
-0.000000000000181
220
0.000000000007011
230
1.0
 70
     8
 71
     3
 72
     8
 73
     4
 74
     0
 42
0.0000000001
 43
0.0000000001
 40
0.0
 40
0.0
 40
0.0
 40
0.0
 40
1.0
 40
1.0
 40
1.0
 40
1.0
 10
55.26482840707672
 20
1.632291438041364
 30
0.0000000000000001
 10
55.08853041408457
 20
1.628285656200489
 30
0.0
 10
54.91223242109237
 20
1.623733608231589
 30
0.0000000000000003
 10
54.73593442810021
 20
1.618639733585155
 30
0.0000000000000003
  0
SPLINE
  5
21E
330
A
100
AcDbEntity
  8
1
390
1D
100
AcDbSpline
210
0.0
220
0.0
230
1.0
 70
     8
 71
     3
 72
     8
 73
     4
 74
     0
 42
0.0000000001
 43
0.0000000001
 40
0.0
 40
0.0
 40
0.0
 40
0.0
 40
1.0
 40
1.0
 40
1.0
 40
1.0
 10
55.26482840707672
 20
1.632291438041364
 30
0.0000000000000002
 10
55.27655036384129
 20
1.612092972730693
 30
0.0000000000000001
 10
55.28827436193274
 20
1.591906831911671
 30
0.0000000000000001
 10
55.30000000000001
 20
1.57173403149602
 30
0.0000000000000002
  0
SPLINE
  5
21F
330
A
100
AcDbEntity
  8
1
390
1D
100
AcDbSpline
210
-0.0000000000028733
220
0.000000000122948
230
1.0
 70
     8
 71
     3
 72
     8
 73
     4
 74
     0
 42
0.0000000001
 43
0.0000000001
 40
0.0
 40
0.0
 40
0.0
 40
0.0
 40
1.0
 40
1.0
 40
1.0
 40
1.0
 10
55.30000000000001
 20
1.57173403149602
 30
0.0000000000000003
 10
55.36666663077847
 20
1.573367694506316
 30
0.0000000000000001
 10
55.43333332124939
 20
1.574925759328551
 30
0.0000000000000001
 10
55.50000000000011
 20
1.576407988346431
 30
0.0
  0
SPLINE
  5
220
330
A
100
AcDbEntity
  8
1
390
1D
100
AcDbSpline
210
0.0000000116126393
220
-0.0000000065597369
230
1.0
 70
     8
 71
     3
 72
     8
 73
     4
 74
     0
 42
0.0000000001
 43
0.0000000001
 40
0.0
 40
0.0
 40
0.0
 40
0.0
 40
1.0
 40
1.0
 40
1.0
 40
1.0
 10
55.5
 20
1.576407988346601
 30
0.0000000000000002
 10
55.51160945151935
 20
1.596941739486339
 30
0.0
 10
55.5232069729679
 20
1.617473743794108
 30
0.0000000000000002
 10
55.53479102449614
 20
1.637997876392888
 30
0.0000000000000002
  0
SPLINE
  5
221
330
A
100
AcDbEntity
  8
1
390
1D
100
AcDbSpline
210
0.0000000000000155
220
-0.0000000000009419
230
1.0
 70
     8
 71
     3
 72
     8
 73
     4
 74
     0
 42
0.0000000001
 43
0.0000000001
 40
0.0
 40
0.0
 40
0.0
 40
0.0
 40
1.0
 40
1.0
 40
1.0
 40
1.0
 10
56.06594393221968
 20
1.646718759368411
 30
0.0000000000000002
 10
55.8888929629785
 20
1.644368023859954
 30
0.0000000000000001
 10
55.71184199373732
 20
1.641459564009039
 30
0.0000000000000002
 10
55.53479102449614
 20
1.637997876392888
 30
0.0000000000000001
  0
SPLINE
  5
222
330
A
100
AcDbEntity
  8
1
390
1D
100
AcDbSpline
210
0.0
220
0.0
230
1.0
 70
     8
 71
     3
 72
     8
 73
     4
 74
     0
 42
0.0000000001
 43
0.0000000001
 40
0.0
 40
0.0
 40
0.0
 40
0.0
 40
1.0
 40
1.0
 40
1.0
 40
1.0
 10
56.06594393221975
 20
1.646718759368411
 30
0.0000000000000001
 10
56.07729412282361
 20
1.627038903959316
 30
0.0000000000000001
 10
56.08864625912588
 20
1.607364073961434
 30
0.0000000000000001
 10
56.10000000000002
 20
1.58769522641711
 30
0.0000000000000001
  0
SPLINE
  5
223
330
A
100
AcDbEntity
  8
1
390
1D
100
AcDbSpline
210
-0.0000000000004442
220
0.0000000000311979
230
1.0
 70
     8
 71
     3
 72
     8
 73
     4
 74
     0
 42
0.0000000001
 43
0.0000000001
 40
0.0
 40
0.0
 40
0.0
 40
0.0
 40
1.0
 40
1.0
 40
1.0
 40
1.0
 10
56.10000000000002
 20
1.58769522641711
 30
0.0000000000000001
 10
56.16666657732246
 20
1.588720747111949
 30
0.0000000000000002
 10
56.23333326959129
 20
1.58966990988091
 30
0.0000000000000001
 10
56.30000000000001
 20
1.590542597486602
 30
0.0
  0
SPLINE
  5
224
330
A
100
AcDbEntity
  8
1
390
1D
100
AcDbSpline
210
-0.0000000000001288
220
0.0000000000229051
230
1.0
 70
     8
 71
     3
 72
     8
 73
     4
 74
     0
 42
0.0000000001
 43
0.0000000001
 40
0.0
 40
0.0
 40
0.0
 40
0.0
 40
1.0
 40
1.0
 40
1.0
 40
1.0
 10
56.89999999999998
 20
1.596329825208612
 30
0.0
 10
56.93333330691945
 20
1.596536415884826
 30
0.0000000000000001
 10
56.96666664381929
 20
1.596723842685265
 30
0.0
 10
57.0
 20
1.596892103381379
 30
0.0
  0
SPLINE
  5
225
330
A
100
AcDbEntity
  8
1
390
1D
100
AcDbSpline
210
0.0
220
0.0
230
1.0
 70
     8
 71
     3
 72
     8
 73
     4
 74
     0
 42
0.0000000001
 43
0.0000000001
 40
0.0
 40
0.0
 40
0.0
 40
0.0
 40
1.0
 40
1.0
 40
1.0
 40
1.0
 10
56.30000000000001
 20
1.590542597486602
 30
0.0
 10
56.311241651506
 20
1.61032925729927
 30
0.0000000000000001
 10
56.32247214781808
 20
1.630099509669094
 30
0.0000000000000001
 10
56.3336901333297
 20
1.649847938719176
 30
0.0
  0
SPLINE
  5
226
330
A
100
AcDbEntity
  8
1
390
1D
100
AcDbSpline
210
0.0
220
0.0
230
1.0
 70
     8
 71
     3
 72
     8
 73
     4
 74
     0
 42
0.0000000001
 43
0.0000000001
 40
0.0
 40
0.0
 40
0.0
 40
0.0
 40
1.0
 40
1.0
 40
1.0
 40
1.0
 10
56.86703804381181
 20
1.653533593739894
 30
0.0000000000000001
 10
56.87802362097749
 20
1.634466603963403
 30
0.0000000000000001
 10
56.88901103571589
 20
1.615398385993274
 30
0.0000000000000001
 10
56.89999999999998
 20
1.596329825208612
 30
0.0000000000000001
  0
SPLINE
  5
227
330
A
100
AcDbEntity
  8
1
390
1D
100
AcDbSpline
210
0.0
220
0.0
230
1.0
 70
    28
 71
     2
 72
     6
 73
     3
 74
     0
 42
0.0000000001
 43
0.0000000001
 40
0.0
 40
0.0
 40
0.0
 40
1.0
 40
1.0
 40
1.0
 10
57.0
 20
1.596892103381085
 30
0.0
 41
0.999858176654574
 10
56.99999999999999
 20
1.515736299221233
 30
0.0000000000000001
 41
0.9997274756110121
 10
57.0
 20
1.434273320969339
 30
0.0000000000000001
 41
1.0
  0
SPLINE
  5
228
330
A
100
AcDbEntity
  8
1
390
1D
100
AcDbSpline
210
0.0000000000115973
220
-0.0000000006203202
230
1.0
 70
     8
 71
     3
 72
     8
 73
     4
 74
     0
 42
0.0000000001
 43
0.0000000001
 40
0.0
 40
0.0
 40
0.0
 40
0.0
 40
1.0
 40
1.0
 40
1.0
 40
1.0
 10
55.76096232167373
 20
2.037709069246091
 30
0.0000000000000001
 10
55.78698751427772
 20
2.038210967327643
 30
0.0000000000000002
 10
55.81301262724458
 20
2.038697528538591
 30
0.0000000000000002
 10
55.83903767832629
 20
2.039168744343555
 30
0.0000000000000003
  0
SPLINE
  5
229
330
A
100
AcDbEntity
  8
1
390
1D
100
AcDbSpline
210
-0.0000000009585913
220
0.0000000005424134
230
1.0
 70
     8
 71
     3
 72
    10
 73
     6
 74
     0
 42
0.0000000001
 43
0.0000000001
 40
0.0
 40
0.0
 40
0.0
 40
0.0
 40
0.4999221058722315
 40
0.4999221058722315
 40
1.0
 40
1.0
 40
1.0
 40
1.0
 10
55.53479102449614
 20
1.637997876392888
 30
0.0000000000000002
 10
55.57245350502029
 20
1.704726666608564
 30
0.0000000000000001
 10
55.6101374625681
 20
1.771402525936764
 30
0.0000000000000002
 10
55.68553284186623
 20
1.904643588961675
 30
0.0000000000000001
 10
55.72324731788666
 20
1.971213876198305
 30
0.0000000000000002
 10
55.76096232167373
 20
2.037709069246091
 30
0.0
  0
SPLINE
  5
22A
330
A
100
AcDbEntity
  8
1
390
1D
100
AcDbSpline
210
0.0
220
0.0
230
1.0
 70
     8
 71
     3
 72
    10
 73
     6
 74
     0
 42
0.0000000001
 43
0.0000000001
 40
0.0
 40
0.0
 40
0.0
 40
0.0
 40
0.4999203578093516
 40
0.4999203578093516
 40
1.0
 40
1.0
 40
1.0
 40
1.0
 10
55.83903767832629
 20
2.039168744343555
 30
0.0000000000000001
 10
55.87687025645471
 20
1.973883369874045
 30
0.0
 10
55.91469975440259
 20
1.908533932317823
 30
0.0
 10
55.99034116071528
 20
1.777713875224719
 30
0.0000000000000001
 10
56.02815621139598
 20
1.71223808921951
 30
0.0000000000000001
 10
56.06594393221975
 20
1.646718759368411
 30
0.0
  0
SPLINE
  5
22B
330
A
100
AcDbEntity
  8
1
390
1D
100
AcDbSpline
210
-0.0000000000054162
220
0.0000000001762688
230
1.0
 70
     8
 71
     3
 72
     8
 73
     4
 74
     0
 42
0.0000000001
 43
0.0000000001
 40
0.0
 40
0.0
 40
0.0
 40
0.0
 40
1.0
 40
1.0
 40
1.0
 40
1.0
 10
54.96096232167372
 20
2.017463270842143
 30
0.0000000000000003
 10
54.98698733089941
 20
2.018278139464882
 30
0.0000000000000003
 10
55.01301244357501
 20
2.019077816834454
 30
0.0000000000000002
 10
55.03903767832628
 20
2.019862285403747
 30
0.0000000000000003
  0
SPLINE
  5
22C
330
A
100
AcDbEntity
  8
1
390
1D
100
AcDbSpline
210
0.0000000089167513
220
-0.0000000050311466
230
-1.0
 70
     8
 71
     3
 72
    10
 73
     6
 74
     0
 42
0.0000000001
 43
0.0000000001
 40
0.0
 40
0.0
 40
0.0
 40
0.0
 40
0.499922760306623
 40
0.499922760306623
 40
1.0
 40
1.0
 40
1.0
 40
1.0
 10
54.73593442810021
 20
1.618639733585155
 30
0.0000000000000003
 10
54.77340984071748
 20
1.685121743982393
 30
0.0000000000000003
 10
54.81090455115128
 20
1.751600488314692
 30
0.0000000000000003
 10
54.88591842733859
 20
1.884545839558142
 30
0.0000000000000003
 10
54.92344059743619
 20
1.95101751133859
 30
0.0
 10
54.96096232167372
 20
2.017463270842143
 30
0.0000000000000003
  0
SPLINE
  5
22D
330
A
100
AcDbEntity
  8
1
390
1D
100
AcDbSpline
210
0.0000000003250848
220
0.000000000189391
230
1.0
 70
     8
 71
     3
 72
    10
 73
     6
 74
     0
 42
0.0000000001
 43
0.0000000001
 40
0.0
 40
0.0
 40
0.0
 40
0.0
 40
0.4999211240315588
 40
0.4999211240315588
 40
1.0
 40
1.0
 40
1.0
 40
1.0
 10
55.03903767832628
 20
2.019862285403747
 30
0.0000000000000001
 10
55.07668162681273
 20
1.95548285547403
 30
0.0000000000000002
 10
55.1143235245699
 20
1.890992964588463
 30
0.0000000000000002
 10
55.189592689714
 20
1.761799278044975
 30
0.0000000000000001
 10
55.22722304592828
 20
1.697090395920782
 30
0.0000000000000003
 10
55.26482840707672
 20
1.632291438041364
 30
0.0000000000000002
  0
SPLINE
  5
22E
330
A
100
AcDbEntity
  8
1
390
1D
100
AcDbSpline
210
-0.0000000000103974
220
0.0000000002439877
230
1.0
 70
     8
 71
     3
 72
     8
 73
     4
 74
     0
 42
0.0000000001
 43
0.0000000001
 40
0.0
 40
0.0
 40
0.0
 40
0.0
 40
1.0
 40
1.0
 40
1.0
 40
1.0
 10
54.16096232167371
 20
1.987650698725246
 30
0.0000000000000003
 10
54.18698752504457
 20
1.98877471765786
 30
0.0000000000000002
 10
54.21301263753729
 20
1.989883772824555
 30
0.0000000000000004
 10
54.23903767832626
 20
1.990977838056891
 30
0.0000000000000002
  0
SPLINE
  5
22F
330
A
100
AcDbEntity
  8
1
390
1D
100
AcDbSpline
210
-0.0000000126754623
220
0.0000000071685365
230
-1.0
 70
     8
 71
     3
 72
    10
 73
     6
 74
     0
 42
0.0000000001
 43
0.0000000001
 40
0.0
 40
0.0
 40
0.0
 40
0.0
 40
0.4999234001043198
 40
0.4999234001043198
 40
1.0
 40
1.0
 40
1.0
 40
1.0
 10
53.93713095761881
 20
1.591866893265149
 30
0.0000000000000003
 10
53.97441042939556
 20
1.657745130903946
 30
0.0000000000000001
 10
54.01170704126952
 20
1.72366890231558
 30
0.0000000000000003
 10
54.08632171622315
 20
1.855601156951649
 30
0.0000000000000001
 10
54.12364273424707
 20
1.921614659234933
 30
0.0000000000000003
 10
54.16096232167371
 20
1.987650698725303
 30
0.0000000000000004
  0
SPLINE
  5
230
330
A
100
AcDbEntity
  8
1
390
1D
100
AcDbSpline
210
-0.0000000000865753
220
-0.0000000000510918
230
-1.0
 70
     8
 71
     3
 72
    10
 73
     6
 74
     0
 42
0.0000000001
 43
0.0000000001
 40
0.0
 40
0.0
 40
0.0
 40
0.0
 40
0.4999218534152621
 40
0.4999218534152621
 40
1.0
 40
1.0
 40
1.0
 40
1.0
 10
54.23903767832626
 20
1.990977838056891
 30
0.0000000000000002
 10
54.27648484790058
 20
1.927844303504855
 30
0.0000000000000002
 10
54.31393096686491
 20
1.864555334832629
 30
0.0000000000000003
 10
54.38881144189213
 20
1.737673562706674
 30
0.0000000000000002
 10
54.42624883492022
 20
1.674075777128166
 30
0.0000000000000002
 10
54.46366348724996
 20
1.610342694038934
 30
0.0000000000000003
  0
SPLINE
  5
231
330
A
100
AcDbEntity
  8
1
390
1D
100
AcDbSpline
210
0.0000000000353842
220
-0.0000000006518586
230
1.0
 70
     8
 71
     3
 72
     8
 73
     4
 74
     0
 42
0.0000000001
 43
0.0000000001
 40
0.0
 40
0.0
 40
0.0
 40
0.0
 40
1.0
 40
1.0
 40
1.0
 40
1.0
 10
53.3609623216737
 20
1.948419534612355
 30
0.0000000000000003
 10
53.38698732849298
 20
1.949846863780691
 30
0.0000000000000003
 10
53.41301244093722
 20
1.951259572413789
 30
0.0000000000000002
 10
53.43903767832632
 20
1.952657624399705
 30
0.0000000000000004
  0
SPLINE
  5
232
330
A
100
AcDbEntity
  8
1
390
1D
100
AcDbSpline
210
0.0
220
0.0
230
1.0
 70
     8
 71
     3
 72
    10
 73
     6
 74
     0
 42
0.0000000001
 43
0.0000000001
 40
0.0
 40
0.0
 40
0.0
 40
0.0
 40
0.499924123304976
 40
0.499924123304976
 40
1.0
 40
1.0
 40
1.0
 40
1.0
 10
53.138365577851
 20
1.557771884422151
 30
0.0000000000000004
 10
53.1754426604473
 20
1.622699366269159
 30
0.0000000000000003
 10
53.21253479434647
 20
1.687719923448014
 30
0.0000000000000002
 10
53.28673758663501
 20
1.817940221221476
 30
0.0000000000000003
 10
53.32385114780141
 20
1.883144902531
 30
0.0000000000000003
 10
53.3609623216737
 20
1.948419534612411
 30
0.0000000000000004
  0
SPLINE
  5
233
330
A
100
AcDbEntity
  8
1
390
1D
100
AcDbSpline
210
0.0000000000531633
220
0.0000000000319547
230
-1.0
 70
     8
 71
     3
 72
    10
 73
     6
 74
     0
 42
0.0000000001
 43
0.0000000001
 40
0.0
 40
0.0
 40
0.0
 40
0.0
 40
0.4999226446401269
 40
0.4999226446401269
 40
1.0
 40
1.0
 40
1.0
 40
1.0
 10
53.43903767832632
 20
1.952657624399705
 30
0.0000000000000004
 10
53.47627958897447
 20
1.891100724551165
 30
0.0000000000000002
 10
53.5135214215569
 20
1.829345205487129
 30
0.0000000000000002
 10
53.58799611632526
 20
1.705443876023594
 30
0.0000000000000004
 10
53.62523196138345
 20
1.643293217298378
 30
0.0000000000000003
 10
53.66244727055822
 20
1.580963651329455
 30
0.0000000000000002
  0
SPLINE
  5
234
330
A
100
AcDbEntity
  8
1
390
1D
100
AcDbSpline
210
-0.0000000000829453
220
0.0000000012633768
230
1.0
 70
     8
 71
     3
 72
     8
 73
     4
 74
     0
 42
0.0000000001
 43
0.0000000001
 40
0.0
 40
0.0
 40
0.0
 40
0.0
 40
1.0
 40
1.0
 40
1.0
 40
1.0
 10
52.56096232167375
 20
1.89997941752972
 30
0.0000000000000004
 10
52.58698752556846
 20
1.901702282298629
 30
0.0000000000000004
 10
52.61301263809588
 20
1.903410940236028
 30
0.0000000000000004
 10
52.6390376783263
 20
1.905105347606763
 30
0.0000000000000003
  0
SPLINE
  5
235
330
A
100
AcDbEntity
  8
1
390
1D
100
AcDbSpline
210
-0.0000000001783797
220
-0.0000000001098225
230
1.0
 70
     8
 71
     3
 72
    10
 73
     6
 74
     0
 42
0.0000000001
 43
0.0000000001
 40
0.0
 40
0.0
 40
0.0
 40
0.0
 40
0.4999235687582222
 40
0.4999235687582222
 40
1.0
 40
1.0
 40
1.0
 40
1.0
 10
52.6390376783263
 20
1.90510534760682
 30
0.0000000000000006
 10
52.67606985444377
 20
1.845436482672254
 30
0.0000000000000004
 10
52.71310288805739
 20
1.785528007625486
 30
0.0000000000000006
 10
52.78716268415121
 20
1.665238558310306
 30
0.0000000000000004
 10
52.82419237089846
 20
1.604852901245294
 30
0.0000000000000006
 10
52.86120367568292
 20
1.544246699282211
 30
0.0000000000000002
  0
SPLINE
  5
236
330
A
100
AcDbEntity
  8
1
390
1D
100
AcDbSpline
210
-0.0000000006526541
220
0.000000000376693
230
1.0
 70
     8
 71
     3
 72
    10
 73
     6
 74
     0
 42
0.0000000001
 43
0.0000000001
 40
0.0
 40
0.0
 40
0.0
 40
0.0
 40
0.4999250011029808
 40
0.4999250011029808
 40
1.0
 40
1.0
 40
1.0
 40
1.0
 10
52.33959858298471
 20
1.51644527120311
 30
0.0000000000000006
 10
52.37647333027286
 20
1.580095783072068
 30
0.0000000000000004
 10
52.41336117750837
 20
1.643885169375834
 30
0.0000000000000004
 10
52.48715264955473
 20
1.771734319654797
 30
0.0000000000000004
 10
52.52405912038813
 20
1.835798910779204
 30
0.0000000000000003
 10
52.56096232167368
 20
1.89997941752972
 30
0.0000000000000004
  0
SPLINE
  5
237
330
A
100
AcDbEntity
  8
1
390
1D
100
AcDbSpline
210
-0.0000000003242607
220
0.000000004229776
230
1.0
 70
     8
 71
     3
 72
     8
 73
     4
 74
     0
 42
0.0000000001
 43
0.0000000001
 40
0.0
 40
0.0
 40
0.0
 40
0.0
 40
1.0
 40
1.0
 40
1.0
 40
1.0
 10
51.76096232167373
 20
1.842597721757272
 30
0.0000000000000007
 10
51.78698730225784
 20
1.844606547764044
 30
0.0000000000000006
 10
51.81301241499829
 20
1.846601685986115
 30
0.0000000000000007
 10
51.83903767832629
 20
1.848583085579264
 30
0.0000000000000004
  0
SPLINE
  5
238
330
A
100
AcDbEntity
  8
1
390
1D
100
AcDbSpline
210
0.0000000000981311
220
0.0000000000623339
230
-1.0
 70
     8
 71
     3
 72
    10
 73
     6
 74
     0
 42
0.0000000001
 43
0.0000000001
 40
0.0
 40
0.0
 40
0.0
 40
0.0
 40
0.5920862625778229
 40
0.5920862625778229
 40
1.0
 40
1.0
 40
1.0
 40
1.0
 10
51.83903767832629
 20
1.848583085579264
 30
0.0000000000000006
 10
51.87586375565411
 20
1.791085045005048
 30
0.0000000000000004
 10
51.91269157082643
 20
1.733308966430059
 30
0.0000000000000006
 10
51.97487915025306
 20
1.635278984395085
 30
0.0000000000000005
 10
52.00024416187574
 20
1.59516284267164
 30
0.0000000000000005
 10
52.02560317538553
 20
1.554921843788235
 30
0.0000000000000004
  0
SPLINE
  5
239
330
A
100
AcDbEntity
  8
1
390
1D
100
AcDbSpline
210
0.0000000007056135
220
-0.0000000004140282
230
1.0
 70
     8
 71
     3
 72
    10
 73
     6
 74
     0
 42
0.0000000001
 43
0.0000000001
 40
0.0
 40
0.0
 40
0.0
 40
0.0
 40
0.2113359655946134
 40
0.2113359655946134
 40
1.0
 40
1.0
 40
1.0
 40
1.0
 10
51.62133204851278
 20
1.604577996538296
 30
0.0000000000000006
 10
51.63116772429043
 20
1.62128755789098
 30
0.0000000000000005
 10
51.64100368408991
 20
1.63800954455354
 30
0.0000000000000005
 10
51.68754592358164
 20
1.717192292040465
 30
0.0000000000000003
 10
51.72425613675227
 20
1.779815011096274
 30
0.0000000000000006
 10
51.76096232167373
 20
1.842597721757272
 30
0.0000000000000007
  0
SPLINE
  5
23A
330
A
100
AcDbEntity
  8
1
390
1D
100
AcDbSpline
210
-0.0000000005129849
220
0.0000000058792831
230
1.0
 70
     8
 71
     3
 72
     8
 73
     4
 74
     0
 42
0.0000000001
 43
0.0000000001
 40
0.0
 40
0.0
 40
0.0
 40
0.0
 40
1.0
 40
1.0
 40
1.0
 40
1.0
 10
50.96096232167372
 20
1.77658974955841
 30
0.0000000000000007
 10
50.98698748607688
 20
1.77887368203011
 30
0.0000000000000007
 10
51.01301259915765
 20
1.781144467079571
 30
0.0000000000000007
 10
51.03903767832628
 20
1.783402050656264
 30
0.0000000000000004
  0
SPLINE
  5
23B
330
A
100
AcDbEntity
  8
1
390
1D
100
AcDbSpline
210
0.0000000003677565
220
0.0000000002436347
230
-1.0
 70
     8
 71
     3
 72
     8
 73
     4
 74
     0
 42
0.0000000001
 43
0.0000000001
 40
0.0
 40
0.0
 40
0.0
 40
0.0
 40
1.0
 40
1.0
 40
1.0
 40
1.0
 10
51.03903767832628
 20
1.783402050656264
 30
0.0000000000000007
 10
51.06492216627464
 20
1.744485348785303
 30
0.0000000000000006
 10
51.09080792162984
 20
1.705412074878267
 30
0.0000000000000006
 10
51.11669189675091
 20
1.666186154113574
 30
0.0000000000000006
  0
SPLINE
  5
23C
330
A
100
AcDbEntity
  8
1
390
1D
100
AcDbSpline
210
0.0000000033760484
220
-0.0000000020212857
230
1.0
 70
     8
 71
     3
 72
     8
 73
     4
 74
     0
 42
0.0000000001
 43
0.0000000001
 40
0.0
 40
0.0
 40
0.0
 40
0.0
 40
1.0
 40
1.0
 40
1.0
 40
1.0
 10
50.9095744135418
 20
1.690759203362801
 30
0.0000000000000005
 10
50.9267042030736
 20
1.719324095553644
 30
0.0000000000000005
 10
50.94383376964697
 20
1.7479347444538
 30
0.0000000000000005
 10
50.96096232167372
 20
1.776589749558524
 30
0.0000000000000006
  0
LINE
  5
23D
330
A
100
AcDbEntity
  8
SK4
390
1D
100
AcDbLine
 10
-0.125
 20
0.0
 30
0.0
 11
57.125
 21
0.0
 31
0.0
  0
LINE
  5
23F
330
A
100
AcDbEntity
  8
4
390
1D
100
AcDbLine
 10
35.875
 20
0.0
 30
0.0
 11
57.125
 21
0.0
 31
0.0
  0
DIMENSION
  5
24C
330
A
100
AcDbEntity
  8
2
390
1D
100
AcDbDimension
  2
_D0
 10
57.0
 20
78.43
 30
0.0
 11
46.5
 21
79.5
 31
0.0
 70
    33
  1
 <> 
 71
     5
 42
-1.0
  3
Standard
100
AcDbAlignedDimension
 13
36.0
 23
0.0
 33
0.0
 14
57.0
 24
0.0
 34
0.0
1001
ACAD
1000
DSTYLE
1002
{
1070
   271
1070
     3
1070
   272
1070
     3
1070
    77
1070
     1
1070
    73
1070
     0
1070
   179
1070
     3
1070
   171
1070
     3
1070
   274
1070
     3
1070
   177
1070
     7
1070
   176
1070
     7
1070
   178
1070
     7
1070
    78
1070
     8
1070
    47
1040
0.005
1070
    48
1040
-0.005
1070
    41
1040
4.57
1070
   147
1040
1.5
1070
    42
1040
0.0
1070
    44
1040
3.5
1070
   140
1040
4.57
1070
     6
1000
_CLOSEDFILLED
1070
     7
1000
_CLOSEDFILLED
1002
}
  0
DIMENSION
  5
258
330
A
100
AcDbEntity
  8
SK2
390
1D
100
AcDbDimension
  2
_D1
 10
-20.5
 20
17.043698
 30
0.0
 11
-20.5
 21
17.043698
 31
0.0
 70
    32
  1
%%c <> 
 71
     0
 72
     0
 41
0.0
 42
-1.0
 53
90.0
  3
Standard
100
AcDbAlignedDimension
 13
0.4
 23
3.0
 33
0.0
 14
0.4
 24
-3.0
 34
0.0
 50
90.0
100
AcDbRotatedDimension
1001
ACAD
1000
DSTYLE
1002
{
1070
   271
1070
     3
1070
   272
1070
     3
1070
    77
1070
     1
1070
    73
1070
     0
1070
   179
1070
     3
1070
   171
1070
     3
1070
   274
1070
     3
1070
   177
1070
     7
1070
   176
1070
     7
1070
   178
1070
     7
1070
    78
1070
     8
1070
    47
1040
0.005
1070
    48
1040
-0.005
1070
    41
1040
4.57
1070
   147
1040
1.5
1070
    42
1040
0.0
1070
    44
1040
3.5
1070
   140
1040
4.57
1070
     6
1000
_CLOSEDFILLED
1070
     7
1000
_CLOSEDFILLED
1002
}
  0
DIMENSION
  5
263
330
A
100
AcDbEntity
  8
2
390
1D
100
AcDbDimension
  2
_D2
 10
101.13
 20
21.073094
 30
0.0
 11
101.13
 21
21.073094
 31
0.0
 70
    32
  1
%%c <> 
 71
     0
 72
     0
 41
0.0
 42
-1.0
 53
90.0
  3
Standard
100
AcDbAlignedDimension
 13
57.0
 23
2.049999999999999
 33
0.0
 14
57.0
 24
-2.049999999999999
 34
0.0
 50
90.0
100
AcDbRotatedDimension
1001
ACAD
1000
DSTYLE
1002
{
1070
   271
1070
     3
1070
   272
1070
     3
1070
    77
1070
     1
1070
    73
1070
     0
1070
   179
1070
     3
1070
   177
1070
     7
1070
   176
1070
     7
1070
   178
1070
     7
1070
    78
1070
     8
1070
    47
1040
0.005
1070
    48
1040
-0.005
1070
    41
1040
4.57
1070
   147
1040
1.5
1070
    42
1040
0.0
1070
    44
1040
2.0
1070
   140
1040
4.57
1070
     6
1000
_CLOSEDFILLED
1070
     7
1000
_CLOSEDFILLED
1002
}
  0
DIMENSION
  5
26D
330
A
100
AcDbEntity
  8
2
390
1D
100
AcDbDimension
  2
_D3
 10
72.800292
 20
64.5
 30
0.0
 11
72.800292
 21
64.5
 31
0.0
 70
    32
  1
 <> 
 71
     5
 42
-1.0
  3
Standard
100
AcDbAlignedDimension
 13
57.0
 23
0.0
 33
0.0
 14
39.4
 24
0.0
 34
0.0
100
AcDbRotatedDimension
1001
ACAD
1000
DSTYLE
1002
{
1070
   271
1070
     3
1070
   272
1070
     3
1070
    77
1070
     1
1070
    73
1070
     0
1070
   179
1070
     3
1070
   171
1070
     3
1070
   274
1070
     3
1070
   177
1070
     7
1070
   176
1070
     7
1070
   178
1070
     7
1070
    78
1070
     8
1070
    47
1040
0.005
1070
    48
1040
-0.005
1070
    41
1040
4.57
1070
   147
1040
1.5
1070
    42
1040
0.0
1070
    44
1040
3.5
1070
   140
1040
4.57
1070
     6
1000
_CLOSEDFILLED
1070
     7
1000
_CLOSEDFILLED
1002
}
  0
DIMENSION
  5
277
330
A
100
AcDbEntity
  8
SK2
390
1D
100
AcDbDimension
  2
_D4
 10
28.5
 20
94.50000000000001
 30
0.0
 11
28.5
 21
94.50000000000001
 31
0.0
 70
    32
  1
 <> 
 71
     5
 42
-1.0
  3
Standard
100
AcDbAlignedDimension
 13
0.0
 23
0.0
 33
0.0
 14
57.0
 24
0.0
 34
0.0
100
AcDbRotatedDimension
1001
ACAD
1000
DSTYLE
1002
{
1070
   271
1070
     3
1070
   272
1070
     3
1070
    77
1070
     1
1070
    73
1070
     0
1070
   179
1070
     3
1070
   177
1070
     7
1070
   176
1070
     7
1070
   178
1070
     7
1070
    78
1070
     8
1070
    47
1040
0.005
1070
    48
1040
-0.005
1070
    41
1040
4.57
1070
   147
1040
1.5
1070
    42
1040
0.0
1070
    44
1040
2.0
1070
   140
1040
4.57
1070
     6
1000
_CLOSEDFILLED
1070
     7
1000
_CLOSEDFILLED
1002
}
  0
DIMENSION
  5
281
330
A
100
AcDbEntity
  8
2
390
1D
100
AcDbDimension
  2
_D5
 10
72.800292
 20
49.500007
 30
0.0
 11
72.800292
 21
49.500007
 31
0.0
 70
    32
  1
 <> 
 71
     5
 42
-1.0
  3
Standard
100
AcDbAlignedDimension
 13
45.8
 23
0.0
 33
0.0
 14
57.0
 24
0.0
 34
0.0
100
AcDbRotatedDimension
1001
ACAD
1000
DSTYLE
1002
{
1070
   271
1070
     3
1070
   272
1070
     3
1070
    77
1070
     1
1070
    73
1070
     0
1070
   179
1070
     3
1070
   177
1070
     7
1070
   176
1070
     7
1070
   178
1070
     7
1070
    78
1070
     8
1070
    47
1040
0.005
1070
    48
1040
-0.005
1070
    41
1040
4.57
1070
   147
1040
1.5
1070
    42
1040
0.0
1070
    44
1040
2.0
1070
   140
1040
4.57
1070
     6
1000
_CLOSEDFILLED
1070
     7
1000
_CLOSEDFILLED
1002
}
  0
ENDSEC
  0
SECTION
  2
OBJECTS
  0
DICTIONARY
  5
19
330
0
100
AcDbDictionary
281
     1
  3
ACAD_COLOR
350
2F8
  3
ACAD_GROUP
350
1A
  3
ACAD_LAYOUT
350
1E
  3
ACAD_MATERIAL
350
2CB
  3
ACAD_MLEADERSTYLE
350
2C7
  3
ACAD_MLINESTYLE
350
1B
  3
ACAD_PLOTSETTINGS
350
22
  3
ACAD_PLOTSTYLENAME
350
1F
  3
ACAD_SCALELIST
350
29A
  3
ACAD_TABLESTYLE
350
2F9
  3
ACAD_VISUALSTYLE
350
2E4
  3
ACAD_WIPEOUT_VARS
350
23
  3
ACDB_RECOMPOSE_DATA
350
30A
  3
AcDbVariableDictionary
350
2C5
  3
ASE_INDEX_DICTIONARY
350
2FF
  3
DWGPROPS
350
30B
  0
DICTIONARY
  5
2F8
102
{ACAD_REACTORS
330
19
102
}
330
19
100
AcDbDictionary
281
     1
  0
DICTIONARY
  5
1A
102
{ACAD_REACTORS
330
19
102
}
330
19
100
AcDbDictionary
281
     1
  0
DICTIONARY
  5
1E
102
{ACAD_REACTORS
330
19
102
}
330
19
100
AcDbDictionary
281
     1
  3
Layout1
350
21
  3
Model
350
20
  0
DICTIONARY
  5
2CB
102
{ACAD_REACTORS
330
19
102
}
330
19
100
AcDbDictionary
281
     1
  3
ByBlock
350
2D4
  3
ByLayer
350
2CC
  3
Global
350
2DC
  0
DICTIONARY
  5
2C7
102
{ACAD_REACTORS
330
19
102
}
330
19
100
AcDbDictionary
281
     1
  3
Standard
350
2FB
  0
DICTIONARY
  5
1B
102
{ACAD_REACTORS
330
19
102
}
330
19
100
AcDbDictionary
281
     1
  3
Standard
350
1C
  0
DICTIONARY
  5
22
102
{ACAD_REACTORS
330
19
102
}
330
19
100
AcDbDictionary
281
     1
  0
ACDBDICTIONARYWDFLT
  5
1F
102
{ACAD_REACTORS
330
19
102
}
330
19
100
AcDbDictionary
281
     1
  3
Normal
350
1D
100
AcDbDictionaryWithDefault
340
1D
  0
DICTIONARY
  5
29A
102
{ACAD_REACTORS
330
19
102
}
330
19
100
AcDbDictionary
281
     1
  3
A0
350
29B
  3
A1
350
29C
  3
A2
350
29D
  3
A3
350
29E
  3
A4
350
29F
  3
A5
350
2A0
  3
A6
350
2A1
  3
A7
350
2A2
  3
A8
350
2A3
  3
A9
350
2A4
  3
B0
350
2A5
  3
B1
350
2A6
  3
B2
350
2A7
  3
B3
350
2A8
  3
B4
350
2A9
  3
B5
350
2AA
  3
B6
350
2AB
  3
B7
350
2AC
  3
B8
350
2AD
  3
B9
350
2AE
  3
C0
350
2AF
  3
C1
350
2B0
  3
C2
350
2B1
  3
C3
350
2B2
  3
C4
350
2B3
  3
C5
350
2B4
  3
C6
350
2B5
  3
C7
350
2B6
  3
C8
350
2B7
  3
C9
350
2B8
  3
D0
350
2B9
  3
D1
350
2BA
  3
D2
350
2BB
  0
DICTIONARY
  5
2F9
102
{ACAD_REACTORS
330
19
102
}
330
19
100
AcDbDictionary
281
     1
  3
Standard
350
2FA
  0
DICTIONARY
  5
2E4
102
{ACAD_REACTORS
330
19
102
}
330
19
100
AcDbDictionary
281
     1
  3
2dWireframe
350
2EA
  3
3D Hidden
350
2EC
  3
3dWireframe
350
2EB
  3
Basic
350
2E9
  3
Brighten
350
2F0
  3
ColorChange
350
2F4
  3
Conceptual
350
2ED
  3
Dim
350
2EF
  3
EdgeColorOff
350
2F7
  3
Facepattern
350
2F3
  3
Flat
350
2E5
  3
FlatWithEdges
350
2E6
  3
Gouraud
350
2E7
  3
GouraudWithEdges
350
2E8
  3
JitterOff
350
2F5
  3
Linepattern
350
2F2
  3
OverhangOff
350
2F6
  3
Realistic
350
2EE
  3
Thicken
350
2F1
  0
WIPEOUTVARIABLES
  5
23
330
19
100
AcDbWipeoutVariables
 70
     1
  0
XRECORD
  5
30A
102
{ACAD_REACTORS
330
19
102
}
330
19
100
AcDbXrecord
280
     1
 90
        1
330
2FA
  0
DICTIONARY
  5
2C5
102
{ACAD_REACTORS
330
19
102
}
330
19
100
AcDbDictionary
281
     1
  3
CANNOSCALE
350
2C8
  3
CMLEADERSTYLE
350
303
  3
CTABLESTYLE
350
302
  3
DIMASSOC
350
306
  3
INDEXCTL
350
305
  3
SORTENTS
350
304
  3
XCLIPFRAME
350
307
  0
DICTIONARY
  5
2FF
102
{ACAD_REACTORS
330
19
102
}
330
19
100
AcDbDictionary
281
     1
  3
ASEBlockHierarchyIndexRecord
350
301
1001
DCO15
1040
1871115787.637
  0
XRECORD
  5
30B
102
{ACAD_REACTORS
330
19
102
}
330
19
100
AcDbXrecord
280
     1
  1
DWGPROPS COOKIE
  2

  3

  4

  6

  7

  8
tdm012
  9

300
=
301
=
302
=
303
=
304
=
305
=
306
=
307
=
308
=
309
=
 40
0.0040484837962963
 41
2457459.640530949
 42
2457459.644579132
  1

 90
        0
  0
LAYOUT
  5
21
102
{ACAD_XDICTIONARY
360
30E
102
}
102
{ACAD_REACTORS
330
1E
102
}
330
1E
100
AcDbPlotSettings
  1

  2

  4

  6

 40
0.0
 41
0.0
 42
0.0
 43
0.0
 44
0.0
 45
0.0
 46
0.0
 47
0.0
 48
0.0
 49
0.0
140
0.0
141
0.0
142
1.0
143
1.0
 70
     0
 72
     0
 73
     0
 74
     0
  7

 75
     0
147
1.0
148
0.0
149
0.0
100
AcDbLayout
  1
Layout1
 70
     0
 71
     1
 10
-0.5
 20
-0.5
 11
5.0
 21
5.0
 12
0.0
 22
0.0
 32
0.0
 14
-0.5
 24
-0.5
 34
-0.5
 15
5.0
 25
5.0
 35
5.0
146
0.0
 13
0.0
 23
0.0
 33
0.0
 16
1.0
 26
0.0
 36
0.0
 17
0.0
 27
1.0
 37
0.0
 76
     0
330
B
  0
LAYOUT
  5
20
102
{ACAD_XDICTIONARY
360
30C
102
}
102
{ACAD_REACTORS
330
1E
102
}
330
1E
100
AcDbPlotSettings
  1

  2

  4

  6

 40
0.0
 41
0.0
 42
0.0
 43
0.0
 44
0.0
 45
0.0
 46
0.0
 47
0.0
 48
0.0
 49
0.0
140
0.0
141
0.0
142
1.0
143
1.0
 70
  1024
 72
     0
 73
     0
 74
     0
  7

 75
     0
147
1.0
148
0.0
149
0.0
100
AcDbLayout
  1
Model
 70
     0
 71
     0
 10
0.0
 20
0.0
 11
0.0
 21
0.0
 12
0.0
 22
0.0
 32
0.0
 14
-22.83260433333333
 24
-14.425
 34
-0.0000000000000021
 15
108.8425
 25
96.83260433333334
 35
0.0000000000000017
146
0.0
 13
0.0
 23
0.0
 33
0.0
 16
0.0
 26
0.0
 36
0.0
 17
0.0
 27
0.0
 37
0.0
 76
     0
330
A
331
28A
  0
MATERIAL
  5
2D4
102
{ACAD_XDICTIONARY
360
2D5
102
}
102
{ACAD_REACTORS
330
2CB
102
}
330
2CB
100
AcDbMaterial
  1
ByBlock
 72
     0
 43
0.0208333333333333
 43
0.0
 43
0.0
 43
0.0
 43
0.0
 43
0.0208333333333333
 43
0.0
 43
0.0
 43
0.0
 43
0.0
 43
1.0
 43
0.0
 43
0.0
 43
0.0
 43
0.0
 43
1.0
 77
     0
 47
0.0208333333333333
 47
0.0
 47
0.0
 47
0.0
 47
0.0
 47
0.0208333333333333
 47
0.0
 47
0.0
 47
0.0
 47
0.0
 47
1.0
 47
0.0
 47
0.0
 47
0.0
 47
0.0
 47
1.0
171
     0
 49
0.0208333333333333
 49
0.0
 49
0.0
 49
0.0
 49
0.0
 49
0.0208333333333333
 49
0.0
 49
0.0
 49
0.0
 49
0.0
 49
1.0
 49
0.0
 49
0.0
 49
0.0
 49
0.0
 49
1.0
175
     0
142
0.0208333333333333
142
0.0
142
0.0
142
0.0
142
0.0
142
0.0208333333333333
142
0.0
142
0.0
142
0.0
142
0.0
142
1.0
142
0.0
142
0.0
142
0.0
142
0.0
142
1.0
179
     0
144
0.0208333333333333
144
0.0
144
0.0
144
0.0
144
0.0
144
0.0208333333333333
144
0.0
144
0.0
144
0.0
144
0.0
144
1.0
144
0.0
144
0.0
144
0.0
144
0.0
144
1.0
147
0.0208333333333333
147
0.0
147
0.0
147
0.0
147
0.0
147
0.0208333333333333
147
0.0
147
0.0
147
0.0
147
0.0
147
1.0
147
0.0
147
0.0
147
0.0
147
0.0
147
1.0
  0
MATERIAL
  5
2CC
102
{ACAD_XDICTIONARY
360
2CD
102
}
102
{ACAD_REACTORS
330
2CB
102
}
330
2CB
100
AcDbMaterial
  1
ByLayer
 72
     0
 43
0.0208333333333333
 43
0.0
 43
0.0
 43
0.0
 43
0.0
 43
0.0208333333333333
 43
0.0
 43
0.0
 43
0.0
 43
0.0
 43
1.0
 43
0.0
 43
0.0
 43
0.0
 43
0.0
 43
1.0
 77
     0
 47
0.0208333333333333
 47
0.0
 47
0.0
 47
0.0
 47
0.0
 47
0.0208333333333333
 47
0.0
 47
0.0
 47
0.0
 47
0.0
 47
1.0
 47
0.0
 47
0.0
 47
0.0
 47
0.0
 47
1.0
171
     0
 49
0.0208333333333333
 49
0.0
 49
0.0
 49
0.0
 49
0.0
 49
0.0208333333333333
 49
0.0
 49
0.0
 49
0.0
 49
0.0
 49
1.0
 49
0.0
 49
0.0
 49
0.0
 49
0.0
 49
1.0
175
     0
142
0.0208333333333333
142
0.0
142
0.0
142
0.0
142
0.0
142
0.0208333333333333
142
0.0
142
0.0
142
0.0
142
0.0
142
1.0
142
0.0
142
0.0
142
0.0
142
0.0
142
1.0
179
     0
144
0.0208333333333333
144
0.0
144
0.0
144
0.0
144
0.0
144
0.0208333333333333
144
0.0
144
0.0
144
0.0
144
0.0
144
1.0
144
0.0
144
0.0
144
0.0
144
0.0
144
1.0
147
0.0208333333333333
147
0.0
147
0.0
147
0.0
147
0.0
147
0.0208333333333333
147
0.0
147
0.0
147
0.0
147
0.0
147
1.0
147
0.0
147
0.0
147
0.0
147
0.0
147
1.0
  0
MATERIAL
  5
2DC
102
{ACAD_XDICTIONARY
360
2DD
102
}
102
{ACAD_REACTORS
330
2CB
102
}
330
2CB
100
AcDbMaterial
  1
Global
 72
     0
 43
0.0208333333333333
 43
0.0
 43
0.0
 43
0.0
 43
0.0
 43
0.0208333333333333
 43
0.0
 43
0.0
 43
0.0
 43
0.0
 43
1.0
 43
0.0
 43
0.0
 43
0.0
 43
0.0
 43
1.0
 77
     0
 47
0.0208333333333333
 47
0.0
 47
0.0
 47
0.0
 47
0.0
 47
0.0208333333333333
 47
0.0
 47
0.0
 47
0.0
 47
0.0
 47
1.0
 47
0.0
 47
0.0
 47
0.0
 47
0.0
 47
1.0
171
     0
 49
0.0208333333333333
 49
0.0
 49
0.0
 49
0.0
 49
0.0
 49
0.0208333333333333
 49
0.0
 49
0.0
 49
0.0
 49
0.0
 49
1.0
 49
0.0
 49
0.0
 49
0.0
 49
0.0
 49
1.0
175
     0
142
0.0208333333333333
142
0.0
142
0.0
142
0.0
142
0.0
142
0.0208333333333333
142
0.0
142
0.0
142
0.0
142
0.0
142
1.0
142
0.0
142
0.0
142
0.0
142
0.0
142
1.0
179
     0
144
0.0208333333333333
144
0.0
144
0.0
144
0.0
144
0.0
144
0.0208333333333333
144
0.0
144
0.0
144
0.0
144
0.0
144
1.0
144
0.0
144
0.0
144
0.0
144
0.0
144
1.0
147
0.0208333333333333
147
0.0
147
0.0
147
0.0
147
0.0
147
0.0208333333333333
147
0.0
147
0.0
147
0.0
147
0.0
147
1.0
147
0.0
147
0.0
147
0.0
147
0.0
147
1.0
  0
MLEADERSTYLE
  5
2FB
102
{ACAD_REACTORS
330
2C7
102
}
330
2C7
100
AcDbMLeaderStyle
170
     2
171
     1
172
     0
 90
        2
 40
0.0
 41
0.0
173
     1
 91
-1056964608
340
11
 92
       -2
290
     1
 42
2.0
291
     1
 43
0.36
  3
Standard
 44
4.0
300

342
17
174
     1
178
     6
175
     1
176
     0
 93
-1056964608
 45
4.0
292
     0
297
     0
 46
4.0
 94
-1056964608
 47
1.0
 49
1.0
140
1.0
293
     1
141
0.0
294
     1
177
     0
142
1.0
295
     0
296
     0
143
0.125
1001
ACAD_MLEADERVER
1070
     2
  0
MLINESTYLE
  5
1C
102
{ACAD_REACTORS
330
1B
102
}
330
1B
100
AcDbMlineStyle
  2
STANDARD
 70
     0
  3

 62
     0
 51
90.0
 52
90.0
 71
     2
 49
0.5
 62
   256
  6
BYLAYER
 49
-0.5
 62
   256
  6
BYLAYER
  0
ACDBPLACEHOLDER
  5
1D
102
{ACAD_REACTORS
330
1F
102
}
330
1F
  0
SCALE
  5
29B
102
{ACAD_REACTORS
330
29A
102
}
330
29A
100
AcDbScale
 70
     0
300
1:1
140
1.0
141
1.0
290
     1
  0
SCALE
  5
29C
102
{ACAD_REACTORS
330
29A
102
}
330
29A
100
AcDbScale
 70
     0
300
1:2
140
1.0
141
2.0
290
     0
  0
SCALE
  5
29D
102
{ACAD_REACTORS
330
29A
102
}
330
29A
100
AcDbScale
 70
     0
300
1:4
140
1.0
141
4.0
290
     0
  0
SCALE
  5
29E
102
{ACAD_REACTORS
330
29A
102
}
330
29A
100
AcDbScale
 70
     0
300
1:5
140
1.0
141
5.0
290
     0
  0
SCALE
  5
29F
102
{ACAD_REACTORS
330
29A
102
}
330
29A
100
AcDbScale
 70
     0
300
1:8
140
1.0
141
8.0
290
     0
  0
SCALE
  5
2A0
102
{ACAD_REACTORS
330
29A
102
}
330
29A
100
AcDbScale
 70
     0
300
1:10
140
1.0
141
10.0
290
     0
  0
SCALE
  5
2A1
102
{ACAD_REACTORS
330
29A
102
}
330
29A
100
AcDbScale
 70
     0
300
1:16
140
1.0
141
16.0
290
     0
  0
SCALE
  5
2A2
102
{ACAD_REACTORS
330
29A
102
}
330
29A
100
AcDbScale
 70
     0
300
1:20
140
1.0
141
20.0
290
     0
  0
SCALE
  5
2A3
102
{ACAD_REACTORS
330
29A
102
}
330
29A
100
AcDbScale
 70
     0
300
1:30
140
1.0
141
30.0
290
     0
  0
SCALE
  5
2A4
102
{ACAD_REACTORS
330
29A
102
}
330
29A
100
AcDbScale
 70
     0
300
1:40
140
1.0
141
40.0
290
     0
  0
SCALE
  5
2A5
102
{ACAD_REACTORS
330
29A
102
}
330
29A
100
AcDbScale
 70
     0
300
1:50
140
1.0
141
50.0
290
     0
  0
SCALE
  5
2A6
102
{ACAD_REACTORS
330
29A
102
}
330
29A
100
AcDbScale
 70
     0
300
1:100
140
1.0
141
100.0
290
     0
  0
SCALE
  5
2A7
102
{ACAD_REACTORS
330
29A
102
}
330
29A
100
AcDbScale
 70
     0
300
2:1
140
2.0
141
1.0
290
     0
  0
SCALE
  5
2A8
102
{ACAD_REACTORS
330
29A
102
}
330
29A
100
AcDbScale
 70
     0
300
4:1
140
4.0
141
1.0
290
     0
  0
SCALE
  5
2A9
102
{ACAD_REACTORS
330
29A
102
}
330
29A
100
AcDbScale
 70
     0
300
8:1
140
8.0
141
1.0
290
     0
  0
SCALE
  5
2AA
102
{ACAD_REACTORS
330
29A
102
}
330
29A
100
AcDbScale
 70
     0
300
10:1
140
10.0
141
1.0
290
     0
  0
SCALE
  5
2AB
102
{ACAD_REACTORS
330
29A
102
}
330
29A
100
AcDbScale
 70
     0
300
100:1
140
100.0
141
1.0
290
     0
  0
SCALE
  5
2AC
102
{ACAD_REACTORS
330
29A
102
}
330
29A
100
AcDbScale
 70
     0
300
1/128" = 1'-0"
140
0.0078125
141
12.0
290
     0
  0
SCALE
  5
2AD
102
{ACAD_REACTORS
330
29A
102
}
330
29A
100
AcDbScale
 70
     0
300
1/64" = 1'-0"
140
0.015625
141
12.0
290
     0
  0
SCALE
  5
2AE
102
{ACAD_REACTORS
330
29A
102
}
330
29A
100
AcDbScale
 70
     0
300
1/32" = 1'-0"
140
0.03125
141
12.0
290
     0
  0
SCALE
  5
2AF
102
{ACAD_REACTORS
330
29A
102
}
330
29A
100
AcDbScale
 70
     0
300
1/16" = 1'-0"
140
0.0625
141
12.0
290
     0
  0
SCALE
  5
2B0
102
{ACAD_REACTORS
330
29A
102
}
330
29A
100
AcDbScale
 70
     0
300
3/32" = 1'-0"
140
0.09375
141
12.0
290
     0
  0
SCALE
  5
2B1
102
{ACAD_REACTORS
330
29A
102
}
330
29A
100
AcDbScale
 70
     0
300
1/8" = 1'-0"
140
0.125
141
12.0
290
     0
  0
SCALE
  5
2B2
102
{ACAD_REACTORS
330
29A
102
}
330
29A
100
AcDbScale
 70
     0
300
3/16" = 1'-0"
140
0.1875
141
12.0
290
     0
  0
SCALE
  5
2B3
102
{ACAD_REACTORS
330
29A
102
}
330
29A
100
AcDbScale
 70
     0
300
1/4" = 1'-0"
140
0.25
141
12.0
290
     0
  0
SCALE
  5
2B4
102
{ACAD_REACTORS
330
29A
102
}
330
29A
100
AcDbScale
 70
     0
300
3/8" = 1'-0"
140
0.375
141
12.0
290
     0
  0
SCALE
  5
2B5
102
{ACAD_REACTORS
330
29A
102
}
330
29A
100
AcDbScale
 70
     0
300
1/2" = 1'-0"
140
0.5
141
12.0
290
     0
  0
SCALE
  5
2B6
102
{ACAD_REACTORS
330
29A
102
}
330
29A
100
AcDbScale
 70
     0
300
3/4" = 1'-0"
140
0.75
141
12.0
290
     0
  0
SCALE
  5
2B7
102
{ACAD_REACTORS
330
29A
102
}
330
29A
100
AcDbScale
 70
     0
300
1" = 1'-0"
140
1.0
141
12.0
290
     0
  0
SCALE
  5
2B8
102
{ACAD_REACTORS
330
29A
102
}
330
29A
100
AcDbScale
 70
     0
300
1-1/2" = 1'-0"
140
1.5
141
12.0
290
     0
  0
SCALE
  5
2B9
102
{ACAD_REACTORS
330
29A
102
}
330
29A
100
AcDbScale
 70
     0
300
3" = 1'-0"
140
3.0
141
12.0
290
     0
  0
SCALE
  5
2BA
102
{ACAD_REACTORS
330
29A
102
}
330
29A
100
AcDbScale
 70
     0
300
6" = 1'-0"
140
6.0
141
12.0
290
     0
  0
SCALE
  5
2BB
102
{ACAD_REACTORS
330
29A
102
}
330
29A
100
AcDbScale
 70
     0
300
1'-0" = 1'-0"
140
12.0
141
12.0
290
     0
  0
TABLESTYLE
  5
2FA
102
{ACAD_XDICTIONARY
360
308
102
}
102
{ACAD_REACTORS
330
2F9
102
}
330
2F9
100
AcDbTableStyle
  3
Standard
 70
     0
 71
     0
 40
1.5
 41
1.5
280
     0
281
     0
  7
Standard
140
4.5
170
     2
 62
     0
 63
     7
283
     0
274
    -2
284
     1
 64
     0
275
    -2
285
     1
 65
     0
276
    -2
286
     1
 66
     0
277
    -2
287
     1
 67
     0
278
    -2
288
     1
 68
     0
279
    -2
289
     1
 69
     0
  7
Standard
140
6.0
170
     5
 62
     0
 63
     7
283
     0
274
    -2
284
     1
 64
     0
275
    -2
285
     1
 65
     0
276
    -2
286
     1
 66
     0
277
    -2
287
     1
 67
     0
278
    -2
288
     1
 68
     0
279
    -2
289
     1
 69
     0
  7
Standard
140
4.5
170
     5
 62
     0
 63
     7
283
     0
274
    -2
284
     1
 64
     0
275
    -2
285
     1
 65
     0
276
    -2
286
     1
 66
     0
277
    -2
287
     1
 67
     0
278
    -2
288
     1
 68
     0
279
    -2
289
     1
 69
     0
  0
VISUALSTYLE
  5
2EA
102
{ACAD_XDICTIONARY
360
31D
102
}
102
{ACAD_REACTORS
330
2E4
102
}
330
2E4
100
AcDbVisualStyle
  2
2dWireframe
 70
     4
 71
     0
 72
     2
 73
     0
 90
        0
 40
-0.6
 41
-30.0
 62
     5
 63
     7
 74
     1
 91
        4
 64
     7
 65
   257
 75
     1
175
     1
 42
1.0
 92
        0
 66
   257
 43
1.0
 76
     1
 77
     6
 78
     2
 67
     7
 79
     5
170
     0
171
     0
290
     0
174
     0
 93
        1
 44
0.0
173
     0
291
     0
 45
0.0
1001
ACAD
1000
AcDbSavedByObjectVersion
1070
     0
  0
VISUALSTYLE
  5
2EC
102
{ACAD_XDICTIONARY
360
321
102
}
102
{ACAD_REACTORS
330
2E4
102
}
330
2E4
100
AcDbVisualStyle
  2
3D Hidden
 70
     6
 71
     1
 72
     2
 73
     2
 90
        0
 40
-0.6
 41
-30.0
 62
     5
 63
     7
 74
     2
 91
        2
 64
     7
 65
   257
 75
     2
175
     1
 42
179.0
 92
        0
 66
   257
 43
1.0
 76
     1
 77
     6
 78
     2
 67
     7
 79
     3
170
     0
171
     0
290
     0
174
     0
 93
        1
 44
0.0
173
     0
291
     0
 45
0.0
1001
ACAD
1000
AcDbSavedByObjectVersion
1070
     0
  0
VISUALSTYLE
  5
2EB
102
{ACAD_XDICTIONARY
360
31F
102
}
102
{ACAD_REACTORS
330
2E4
102
}
330
2E4
100
AcDbVisualStyle
  2
3dWireframe
 70
     5
 71
     0
 72
     2
 73
     0
 90
        0
 40
-0.6
 41
-30.0
 62
     5
 63
     7
 74
     1
 91
        4
 64
     7
 65
   257
 75
     1
175
     1
 42
1.0
 92
        0
 66
   257
 43
1.0
 76
     1
 77
     6
 78
     2
 67
     7
 79
     5
170
     0
171
     0
290
     0
174
     0
 93
        1
 44
0.0
173
     0
291
     0
 45
0.0
1001
ACAD
1000
AcDbSavedByObjectVersion
1070
     0
  0
VISUALSTYLE
  5
2E9
102
{ACAD_XDICTIONARY
360
31B
102
}
102
{ACAD_REACTORS
330
2E4
102
}
330
2E4
100
AcDbVisualStyle
  2
Basic
 70
     7
 71
     1
 72
     0
 73
     1
 90
        0
 40
-0.6
 41
-30.0
 62
     5
 63
     7
 74
     0
 91
        4
 64
     7
 65
   257
 75
     1
175
     1
 42
1.0
 92
        8
 66
     7
 43
1.0
 76
     1
 77
     6
 78
     2
 67
     7
 79
     5
170
     0
171
     0
290
     0
174
     0
 93
        1
 44
0.0
173
     0
291
     1
 45
0.0
1001
ACAD
1000
AcDbSavedByObjectVersion
1070
     0
  0
VISUALSTYLE
  5
2F0
102
{ACAD_XDICTIONARY
360
329
102
}
102
{ACAD_REACTORS
330
2E4
102
}
330
2E4
100
AcDbVisualStyle
  2
Brighten
 70
    12
 71
     2
 72
     2
 73
     0
 90
        0
 40
-0.6
 41
-30.0
 62
     5
 63
     7
 74
     1
 91
        4
 64
     7
 65
   257
 75
     1
175
     1
 42
1.0
 92
        8
 66
     7
 43
1.0
 76
     1
 77
     6
 78
     2
 67
     7
 79
     5
170
     0
171
     0
290
     0
174
     0
 93
        1
 44
50.0
173
     0
291
     1
 45
0.0
1001
ACAD
1000
AcDbSavedByObjectVersion
1070
     0
  0
VISUALSTYLE
  5
2F4
102
{ACAD_XDICTIONARY
360
331
102
}
102
{ACAD_REACTORS
330
2E4
102
}
330
2E4
100
AcDbVisualStyle
  2
ColorChange
 70
    16
 71
     2
 72
     2
 73
     3
 90
        0
 40
-0.6
 41
-30.0
 62
     5
 63
     8
 74
     1
 91
        4
 64
     7
 65
   257
 75
     1
175
     1
 42
1.0
 92
        8
 66
     8
 43
1.0
 76
     1
 77
     6
 78
     2
 67
     7
 79
     5
170
     0
171
     0
290
     0
174
     0
 93
        1
 44
0.0
173
     0
291
     1
 45
0.0
1001
ACAD
1000
AcDbSavedByObjectVersion
1070
     0
  0
VISUALSTYLE
  5
2ED
102
{ACAD_XDICTIONARY
360
323
102
}
102
{ACAD_REACTORS
330
2E4
102
}
330
2E4
100
AcDbVisualStyle
  2
Conceptual
 70
     9
 71
     3
 72
     2
 73
     0
 90
        0
 40
-0.6
 41
-30.0
 62
     5
 63
     7
 74
     2
 91
        2
 64
     7
 65
   257
 75
     1
175
     1
 42
179.0
 92
        8
 66
     7
 43
1.0
 76
     1
 77
     6
 78
     2
 67
     7
 79
     3
170
     0
171
     0
290
     0
174
     0
 93
        1
 44
0.0
173
     0
291
     0
 45
0.0
1001
ACAD
1000
AcDbSavedByObjectVersion
1070
     0
  0
VISUALSTYLE
  5
2EF
102
{ACAD_XDICTIONARY
360
327
102
}
102
{ACAD_REACTORS
330
2E4
102
}
330
2E4
100
AcDbVisualStyle
  2
Dim
 70
    11
 71
     2
 72
     2
 73
     0
 90
        0
 40
-0.6
 41
-30.0
 62
     5
 63
     7
 74
     1
 91
        4
 64
     7
 65
   257
 75
     1
175
     1
 42
1.0
 92
        8
 66
     7
 43
1.0
 76
     1
 77
     6
 78
     2
 67
     7
 79
     5
170
     0
171
     0
290
     0
174
     0
 93
        1
 44
-50.0
173
     0
291
     1
 45
0.0
1001
ACAD
1000
AcDbSavedByObjectVersion
1070
     0
  0
VISUALSTYLE
  5
2F7
102
{ACAD_XDICTIONARY
360
337
102
}
102
{ACAD_REACTORS
330
2E4
102
}
330
2E4
100
AcDbVisualStyle
  2
EdgeColorOff
 70
    22
 71
     2
 72
     2
 73
     0
 90
        0
 40
-0.6
 41
-30.0
 62
     5
 63
     7
 74
     1
 91
        4
 64
     7
 65
   257
 75
     1
175
     1
 42
1.0
 92
        8
 66
     7
 43
1.0
 76
     1
 77
     6
 78
     2
 67
     7
 79
     5
170
     0
171
     0
290
     0
174
     0
 93
        1
 44
0.0
173
     0
291
     1
 45
0.0
1001
ACAD
1000
AcDbSavedByObjectVersion
1070
     0
  0
VISUALSTYLE
  5
2F3
102
{ACAD_XDICTIONARY
360
32F
102
}
102
{ACAD_REACTORS
330
2E4
102
}
330
2E4
100
AcDbVisualStyle
  2
Facepattern
 70
    15
 71
     2
 72
     2
 73
     0
 90
        0
 40
-0.6
 41
-30.0
 62
     5
 63
     7
 74
     1
 91
        4
 64
     7
 65
   257
 75
     1
175
     1
 42
1.0
 92
        8
 66
     7
 43
1.0
 76
     1
 77
     6
 78
     2
 67
     7
 79
     5
170
     0
171
     0
290
     0
174
     0
 93
        1
 44
0.0
173
     0
291
     1
 45
0.0
1001
ACAD
1000
AcDbSavedByObjectVersion
1070
     0
  0
VISUALSTYLE
  5
2E5
102
{ACAD_XDICTIONARY
360
313
102
}
102
{ACAD_REACTORS
330
2E4
102
}
330
2E4
100
AcDbVisualStyle
  2
Flat
 70
     0
 71
     2
 72
     1
 73
     1
 90
        2
 40
-0.6
 41
30.0
 62
     5
 63
     7
 74
     0
 91
        4
 64
     7
 65
   257
 75
     1
175
     1
 42
1.0
 92
        8
 66
     7
 43
1.0
 76
     1
 77
     6
 78
     2
 67
     7
 79
     5
170
     0
171
     0
290
     0
174
     0
 93
       13
 44
0.0
173
     0
291
     1
 45
0.0
1001
ACAD
1000
AcDbSavedByObjectVersion
1070
     0
  0
VISUALSTYLE
  5
2E6
102
{ACAD_XDICTIONARY
360
315
102
}
102
{ACAD_REACTORS
330
2E4
102
}
330
2E4
100
AcDbVisualStyle
  2
FlatWithEdges
 70
     1
 71
     2
 72
     1
 73
     1
 90
        2
 40
-0.6
 41
30.0
 62
     5
 63
     7
 74
     1
 91
        4
 64
     7
 65
   257
 75
     1
175
     1
 42
1.0
 92
        0
 66
   257
 43
1.0
 76
     1
 77
     6
 78
     2
 67
     7
 79
     5
170
     0
171
     0
290
     0
174
     0
 93
       13
 44
0.0
173
     0
291
     1
 45
0.0
1001
ACAD
1000
AcDbSavedByObjectVersion
1070
     0
  0
VISUALSTYLE
  5
2E7
102
{ACAD_XDICTIONARY
360
317
102
}
102
{ACAD_REACTORS
330
2E4
102
}
330
2E4
100
AcDbVisualStyle
  2
Gouraud
 70
     2
 71
     2
 72
     2
 73
     1
 90
        2
 40
-0.6
 41
30.0
 62
     5
 63
     7
 74
     0
 91
        4
 64
     7
 65
   257
 75
     1
175
     1
 42
1.0
 92
        0
 66
     7
 43
1.0
 76
     1
 77
     6
 78
     2
 67
     7
 79
     5
170
     0
171
     0
290
     0
174
     0
 93
       13
 44
0.0
173
     0
291
     1
 45
0.0
1001
ACAD
1000
AcDbSavedByObjectVersion
1070
     0
  0
VISUALSTYLE
  5
2E8
102
{ACAD_XDICTIONARY
360
319
102
}
102
{ACAD_REACTORS
330
2E4
102
}
330
2E4
100
AcDbVisualStyle
  2
GouraudWithEdges
 70
     3
 71
     2
 72
     2
 73
     1
 90
        2
 40
-0.6
 41
30.0
 62
     5
 63
     7
 74
     1
 91
        4
 64
     7
 65
   257
 75
     1
175
     1
 42
1.0
 92
        0
 66
   257
 43
1.0
 76
     1
 77
     6
 78
     2
 67
     7
 79
     5
170
     0
171
     0
290
     0
174
     0
 93
       13
 44
0.0
173
     0
291
     1
 45
0.0
1001
ACAD
1000
AcDbSavedByObjectVersion
1070
     0
  0
VISUALSTYLE
  5
2F5
102
{ACAD_XDICTIONARY
360
333
102
}
102
{ACAD_REACTORS
330
2E4
102
}
330
2E4
100
AcDbVisualStyle
  2
JitterOff
 70
    20
 71
     2
 72
     2
 73
     0
 90
        0
 40
-0.6
 41
-30.0
 62
     5
 63
     7
 74
     1
 91
        4
 64
     7
 65
   257
 75
     1
175
     1
 42
1.0
 92
       10
 66
     7
 43
1.0
 76
     1
 77
     6
 78
     2
 67
     7
 79
     5
170
     0
171
     0
290
     0
174
     0
 93
        1
 44
0.0
173
     0
291
     1
 45
0.0
1001
ACAD
1000
AcDbSavedByObjectVersion
1070
     0
  0
VISUALSTYLE
  5
2F2
102
{ACAD_XDICTIONARY
360
32D
102
}
102
{ACAD_REACTORS
330
2E4
102
}
330
2E4
100
AcDbVisualStyle
  2
Linepattern
 70
    14
 71
     2
 72
     2
 73
     0
 90
        0
 40
-0.6
 41
-30.0
 62
     5
 63
     7
 74
     1
 91
        4
 64
     7
 65
   257
 75
     7
175
     7
 42
1.0
 92
        8
 66
     7
 43
1.0
 76
     1
 77
     6
 78
     2
 67
     7
 79
     5
170
     0
171
     0
290
     0
174
     0
 93
        1
 44
0.0
173
     0
291
     1
 45
0.0
1001
ACAD
1000
AcDbSavedByObjectVersion
1070
     0
  0
VISUALSTYLE
  5
2F6
102
{ACAD_XDICTIONARY
360
335
102
}
102
{ACAD_REACTORS
330
2E4
102
}
330
2E4
100
AcDbVisualStyle
  2
OverhangOff
 70
    21
 71
     2
 72
     2
 73
     0
 90
        0
 40
-0.6
 41
-30.0
 62
     5
 63
     7
 74
     1
 91
        4
 64
     7
 65
   257
 75
     1
175
     1
 42
1.0
 92
        9
 66
     7
 43
1.0
 76
     1
 77
     6
 78
     2
 67
     7
 79
     5
170
     0
171
     0
290
     0
174
     0
 93
        1
 44
0.0
173
     0
291
     1
 45
0.0
1001
ACAD
1000
AcDbSavedByObjectVersion
1070
     0
  0
VISUALSTYLE
  5
2EE
102
{ACAD_XDICTIONARY
360
325
102
}
102
{ACAD_REACTORS
330
2E4
102
}
330
2E4
100
AcDbVisualStyle
  2
Realistic
 70
     8
 71
     2
 72
     2
 73
     0
 90
        0
 40
-0.6
 41
-30.0
 62
     5
 63
     7
 74
     1
 91
        0
 64
     7
 65
   257
 75
     1
175
     1
 42
1.0
 92
        8
 66
     8
 43
1.0
 76
     1
 77
     6
 78
     2
 67
     7
 79
     5
170
     0
171
     0
290
     0
174
     0
 93
       13
 44
0.0
173
     0
291
     0
 45
0.0
1001
ACAD
1000
AcDbSavedByObjectVersion
1070
     0
  0
VISUALSTYLE
  5
2F1
102
{ACAD_XDICTIONARY
360
32B
102
}
102
{ACAD_REACTORS
330
2E4
102
}
330
2E4
100
AcDbVisualStyle
  2
Thicken
 70
    13
 71
     2
 72
     2
 73
     0
 90
        0
 40
-0.6
 41
-30.0
 62
     5
 63
     7
 74
     1
 91
        4
 64
     7
 65
   257
 75
     1
175
     1
 42
1.0
 92
       12
 66
     7
 43
1.0
 76
     1
 77
     6
 78
     2
 67
     7
 79
     5
170
     0
171
     0
290
     0
174
     0
 93
        1
 44
0.0
173
     0
291
     1
 45
0.0
1001
ACAD
1000
AcDbSavedByObjectVersion
1070
     0
  0
DICTIONARYVAR
  5
2C8
102
{ACAD_REACTORS
330
2C5
102
}
330
2C5
100
DictionaryVariables
280
     0
  1
1:1
  0
DICTIONARYVAR
  5
303
102
{ACAD_REACTORS
330
2C5
102
}
330
2C5
100
DictionaryVariables
280
     0
  1
STANDARD
  0
DICTIONARYVAR
  5
302
102
{ACAD_REACTORS
330
2C5
102
}
330
2C5
100
DictionaryVariables
280
     0
  1
STANDARD
  0
DICTIONARYVAR
  5
306
102
{ACAD_REACTORS
330
2C5
102
}
330
2C5
100
DictionaryVariables
280
     0
  1
1
  0
DICTIONARYVAR
  5
305
102
{ACAD_REACTORS
330
2C5
102
}
330
2C5
100
DictionaryVariables
280
     0
  1
0
  0
DICTIONARYVAR
  5
304
102
{ACAD_REACTORS
330
2C5
102
}
330
2C5
100
DictionaryVariables
280
     0
  1
127
  0
DICTIONARYVAR
  5
307
102
{ACAD_REACTORS
330
2C5
102
}
330
2C5
100
DictionaryVariables
280
     0
  1
2
  0
XRECORD
  5
301
102
{ACAD_REACTORS
330
2FF
102
}
330
2FF
100
AcDbXrecord
280
     1
  0
DICTIONARY
  5
30E
330
21
100
AcDbDictionary
280
     1
281
     1
  3
ACAD_XREC_ROUNDTRIP
360
30F
  0
DICTIONARY
  5
30C
330
20
100
AcDbDictionary
280
     1
281
     1
  3
ACAD_XREC_ROUNDTRIP
360
30D
  0
DICTIONARY
  5
2D5
330
2D4
100
AcDbDictionary
280
     1
281
     1
  3
ACAD_XREC_ROUNDTRIP
360
311
  3
BUMPTILE
360
2D7
  3
DIFFUSETILE
360
2D6
  3
OPACITYTILE
360
2DA
  3
REFLECTIONTILE
360
2D9
  3
REFRACTIONTILE
360
2DB
  3
SPECULARTILE
360
2D8
  0
DICTIONARY
  5
2CD
330
2CC
100
AcDbDictionary
280
     1
281
     1
  3
ACAD_XREC_ROUNDTRIP
360
310
  3
BUMPTILE
360
2CF
  3
DIFFUSETILE
360
2CE
  3
OPACITYTILE
360
2D2
  3
REFLECTIONTILE
360
2D1
  3
REFRACTIONTILE
360
2D3
  3
SPECULARTILE
360
2D0
  0
DICTIONARY
  5
2DD
330
2DC
100
AcDbDictionary
280
     1
281
     1
  3
ACAD_XREC_ROUNDTRIP
360
312
  3
BUMPTILE
360
2DF
  3
DIFFUSETILE
360
2DE
  3
OPACITYTILE
360
2E2
  3
REFLECTIONTILE
360
2E1
  3
REFRACTIONTILE
360
2E3
  3
SPECULARTILE
360
2E0
  0
DICTIONARY
  5
308
330
2FA
100
AcDbDictionary
280
     1
281
     1
  3
ACAD_ROUNDTRIP_2008_TABLESTYLE_CELLSTYLEMAP
360
309
  3
ACAD_XREC_ROUNDTRIP
360
339
  0
DICTIONARY
  5
31D
330
2EA
100
AcDbDictionary
280
     1
281
     1
  3
ACAD_XREC_ROUNDTRIP
360
31E
  0
DICTIONARY
  5
321
330
2EC
100
AcDbDictionary
280
     1
281
     1
  3
ACAD_XREC_ROUNDTRIP
360
322
  0
DICTIONARY
  5
31F
330
2EB
100
AcDbDictionary
280
     1
281
     1
  3
ACAD_XREC_ROUNDTRIP
360
320
  0
DICTIONARY
  5
31B
330
2E9
100
AcDbDictionary
280
     1
281
     1
  3
ACAD_XREC_ROUNDTRIP
360
31C
  0
DICTIONARY
  5
329
330
2F0
100
AcDbDictionary
280
     1
281
     1
  3
ACAD_XREC_ROUNDTRIP
360
32A
  0
DICTIONARY
  5
331
330
2F4
100
AcDbDictionary
280
     1
281
     1
  3
ACAD_XREC_ROUNDTRIP
360
332
  0
DICTIONARY
  5
323
330
2ED
100
AcDbDictionary
280
     1
281
     1
  3
ACAD_XREC_ROUNDTRIP
360
324
  0
DICTIONARY
  5
327
330
2EF
100
AcDbDictionary
280
     1
281
     1
  3
ACAD_XREC_ROUNDTRIP
360
328
  0
DICTIONARY
  5
337
330
2F7
100
AcDbDictionary
280
     1
281
     1
  3
ACAD_XREC_ROUNDTRIP
360
338
  0
DICTIONARY
  5
32F
330
2F3
100
AcDbDictionary
280
     1
281
     1
  3
ACAD_XREC_ROUNDTRIP
360
330
  0
DICTIONARY
  5
313
330
2E5
100
AcDbDictionary
280
     1
281
     1
  3
ACAD_XREC_ROUNDTRIP
360
314
  0
DICTIONARY
  5
315
330
2E6
100
AcDbDictionary
280
     1
281
     1
  3
ACAD_XREC_ROUNDTRIP
360
316
  0
DICTIONARY
  5
317
330
2E7
100
AcDbDictionary
280
     1
281
     1
  3
ACAD_XREC_ROUNDTRIP
360
318
  0
DICTIONARY
  5
319
330
2E8
100
AcDbDictionary
280
     1
281
     1
  3
ACAD_XREC_ROUNDTRIP
360
31A
  0
DICTIONARY
  5
333
330
2F5
100
AcDbDictionary
280
     1
281
     1
  3
ACAD_XREC_ROUNDTRIP
360
334
  0
DICTIONARY
  5
32D
330
2F2
100
AcDbDictionary
280
     1
281
     1
  3
ACAD_XREC_ROUNDTRIP
360
32E
  0
DICTIONARY
  5
335
330
2F6
100
AcDbDictionary
280
     1
281
     1
  3
ACAD_XREC_ROUNDTRIP
360
336
  0
DICTIONARY
  5
325
330
2EE
100
AcDbDictionary
280
     1
281
     1
  3
ACAD_XREC_ROUNDTRIP
360
326
  0
DICTIONARY
  5
32B
330
2F1
100
AcDbDictionary
280
     1
281
     1
  3
ACAD_XREC_ROUNDTRIP
360
32C
  0
XRECORD
  5
30F
102
{ACAD_REACTORS
330
30E
102
}
330
30E
100
AcDbXrecord
280
     1
102
SHADEPLOT
 70
     0
102
SHADEPLOTRESLEVEL
 70
     2
102
SHADEPLOTCUSTOMDPI
 70
   300
  0
XRECORD
  5
30D
102
{ACAD_REACTORS
330
30C
102
}
330
30C
100
AcDbXrecord
280
     1
102
SHADEPLOT
 70
     0
102
SHADEPLOTRESLEVEL
 70
     2
102
SHADEPLOTCUSTOMDPI
 70
   300
  0
XRECORD
  5
311
102
{ACAD_REACTORS
330
2D5
102
}
330
2D5
100
AcDbXrecord
280
     1
102
MATERIAL
148
0.0
149
0.0
149
0.0
 93
        0
 94
      127
282
     0
 72
     0
 77
     0
171
     0
175
     0
179
     0
273
     0
  0
XRECORD
  5
2D7
102
{ACAD_REACTORS
330
2D5
102
}
330
2D5
100
AcDbXrecord
280
     1
270
     1
271
     1
  0
XRECORD
  5
2D6
102
{ACAD_REACTORS
330
2D5
102
}
330
2D5
100
AcDbXrecord
280
     1
270
     1
271
     1
  0
XRECORD
  5
2DA
102
{ACAD_REACTORS
330
2D5
102
}
330
2D5
100
AcDbXrecord
280
     1
270
     1
271
     1
  0
XRECORD
  5
2D9
102
{ACAD_REACTORS
330
2D5
102
}
330
2D5
100
AcDbXrecord
280
     1
270
     1
271
     1
  0
XRECORD
  5
2DB
102
{ACAD_REACTORS
330
2D5
102
}
330
2D5
100
AcDbXrecord
280
     1
270
     1
271
     1
  0
XRECORD
  5
2D8
102
{ACAD_REACTORS
330
2D5
102
}
330
2D5
100
AcDbXrecord
280
     1
270
     1
271
     1
  0
XRECORD
  5
310
102
{ACAD_REACTORS
330
2CD
102
}
330
2CD
100
AcDbXrecord
280
     1
102
MATERIAL
148
0.0
149
0.0
149
0.0
 93
        0
 94
      127
282
     0
 72
     0
 77
     0
171
     0
175
     0
179
     0
273
     0
  0
XRECORD
  5
2CF
102
{ACAD_REACTORS
330
2CD
102
}
330
2CD
100
AcDbXrecord
280
     1
270
     1
271
     1
  0
XRECORD
  5
2CE
102
{ACAD_REACTORS
330
2CD
102
}
330
2CD
100
AcDbXrecord
280
     1
270
     1
271
     1
  0
XRECORD
  5
2D2
102
{ACAD_REACTORS
330
2CD
102
}
330
2CD
100
AcDbXrecord
280
     1
270
     1
271
     1
  0
XRECORD
  5
2D1
102
{ACAD_REACTORS
330
2CD
102
}
330
2CD
100
AcDbXrecord
280
     1
270
     1
271
     1
  0
XRECORD
  5
2D3
102
{ACAD_REACTORS
330
2CD
102
}
330
2CD
100
AcDbXrecord
280
     1
270
     1
271
     1
  0
XRECORD
  5
2D0
102
{ACAD_REACTORS
330
2CD
102
}
330
2CD
100
AcDbXrecord
280
     1
270
     1
271
     1
  0
XRECORD
  5
312
102
{ACAD_REACTORS
330
2DD
102
}
330
2DD
100
AcDbXrecord
280
     1
102
MATERIAL
148
0.0
149
0.0
149
0.0
 93
        0
 94
      127
282
     0
 72
     0
 77
     0
171
     0
175
     0
179
     0
273
     0
  0
XRECORD
  5
2DF
102
{ACAD_REACTORS
330
2DD
102
}
330
2DD
100
AcDbXrecord
280
     1
270
     1
271
     1
  0
XRECORD
  5
2DE
102
{ACAD_REACTORS
330
2DD
102
}
330
2DD
100
AcDbXrecord
280
     1
270
     1
271
     1
  0
XRECORD
  5
2E2
102
{ACAD_REACTORS
330
2DD
102
}
330
2DD
100
AcDbXrecord
280
     1
270
     1
271
     1
  0
XRECORD
  5
2E1
102
{ACAD_REACTORS
330
2DD
102
}
330
2DD
100
AcDbXrecord
280
     1
270
     1
271
     1
  0
XRECORD
  5
2E3
102
{ACAD_REACTORS
330
2DD
102
}
330
2DD
100
AcDbXrecord
280
     1
270
     1
271
     1
  0
XRECORD
  5
2E0
102
{ACAD_REACTORS
330
2DD
102
}
330
2DD
100
AcDbXrecord
280
     1
270
     1
271
     1
  0
CELLSTYLEMAP
  5
309
102
{ACAD_REACTORS
330
308
102
}
330
308
100
AcDbCellStyleMap
 90
        3
300
CELLSTYLE
  1
TABLEFORMAT_BEGIN
 90
        5
170
     1
 91
        0
 92
    32768
 62
   257
 93
        1
300
CONTENTFORMAT
  1
CONTENTFORMAT_BEGIN
 90
        0
 91
        0
 92
      512
 93
        0
300

 40
0.0
140
1.0
 94
        5
 62
     0
340
17
144
6.0
309
CONTENTFORMAT_END
171
     1
301
MARGIN
  1
CELLMARGIN_BEGIN
 40
1.5
 40
1.5
 40
1.5
 40
1.5
 40
4.5
 40
4.5
309
CELLMARGIN_END
 94
        6
 95
        1
302
GRIDFORMAT
  1
GRIDFORMAT_BEGIN
 90
        0
 91
        1
 62
     0
 92
       -2
340
0
 93
        0
 40
1.125
309
GRIDFORMAT_END
 95
        2
302
GRIDFORMAT
  1
GRIDFORMAT_BEGIN
 90
        0
 91
        1
 62
     0
 92
       -2
340
0
 93
        0
 40
1.125
309
GRIDFORMAT_END
 95
        4
302
GRIDFORMAT
  1
GRIDFORMAT_BEGIN
 90
        0
 91
        1
 62
     0
 92
       -2
340
0
 93
        0
 40
1.125
309
GRIDFORMAT_END
 95
        8
302
GRIDFORMAT
  1
GRIDFORMAT_BEGIN
 90
        0
 91
        1
 62
     0
 92
       -2
340
0
 93
        0
 40
1.125
309
GRIDFORMAT_END
 95
       16
302
GRIDFORMAT
  1
GRIDFORMAT_BEGIN
 90
        0
 91
        1
 62
     0
 92
       -2
340
0
 93
        0
 40
1.125
309
GRIDFORMAT_END
 95
       32
302
GRIDFORMAT
  1
GRIDFORMAT_BEGIN
 90
        0
 91
        1
 62
     0
 92
       -2
340
0
 93
        0
 40
1.125
309
GRIDFORMAT_END
309
TABLEFORMAT_END
  1
CELLSTYLE_BEGIN
 90
        1
 91
        1
300
_TITLE
309
CELLSTYLE_END
300
CELLSTYLE
  1
TABLEFORMAT_BEGIN
 90
        5
170
     1
 91
        0
 92
        0
 62
   257
 93
        1
300
CONTENTFORMAT
  1
CONTENTFORMAT_BEGIN
 90
        0
 91
        0
 92
      512
 93
        0
300

 40
0.0
140
1.0
 94
        5
 62
     0
340
17
144
4.5
309
CONTENTFORMAT_END
171
     1
301
MARGIN
  1
CELLMARGIN_BEGIN
 40
1.5
 40
1.5
 40
1.5
 40
1.5
 40
4.5
 40
4.5
309
CELLMARGIN_END
 94
        6
 95
        1
302
GRIDFORMAT
  1
GRIDFORMAT_BEGIN
 90
        0
 91
        1
 62
     0
 92
       -2
340
0
 93
        0
 40
1.125
309
GRIDFORMAT_END
 95
        2
302
GRIDFORMAT
  1
GRIDFORMAT_BEGIN
 90
        0
 91
        1
 62
     0
 92
       -2
340
0
 93
        0
 40
1.125
309
GRIDFORMAT_END
 95
        4
302
GRIDFORMAT
  1
GRIDFORMAT_BEGIN
 90
        0
 91
        1
 62
     0
 92
       -2
340
0
 93
        0
 40
1.125
309
GRIDFORMAT_END
 95
        8
302
GRIDFORMAT
  1
GRIDFORMAT_BEGIN
 90
        0
 91
        1
 62
     0
 92
       -2
340
0
 93
        0
 40
1.125
309
GRIDFORMAT_END
 95
       16
302
GRIDFORMAT
  1
GRIDFORMAT_BEGIN
 90
        0
 91
        1
 62
     0
 92
       -2
340
0
 93
        0
 40
1.125
309
GRIDFORMAT_END
 95
       32
302
GRIDFORMAT
  1
GRIDFORMAT_BEGIN
 90
        0
 91
        1
 62
     0
 92
       -2
340
0
 93
        0
 40
1.125
309
GRIDFORMAT_END
309
TABLEFORMAT_END
  1
CELLSTYLE_BEGIN
 90
        2
 91
        1
300
_HEADER
309
CELLSTYLE_END
300
CELLSTYLE
  1
TABLEFORMAT_BEGIN
 90
        5
170
     1
 91
        0
 92
        0
 62
   257
 93
        1
300
CONTENTFORMAT
  1
CONTENTFORMAT_BEGIN
 90
        0
 91
        0
 92
      512
 93
        0
300

 40
0.0
140
1.0
 94
        2
 62
     0
340
17
144
4.5
309
CONTENTFORMAT_END
171
     1
301
MARGIN
  1
CELLMARGIN_BEGIN
 40
1.5
 40
1.5
 40
1.5
 40
1.5
 40
4.5
 40
4.5
309
CELLMARGIN_END
 94
        6
 95
        1
302
GRIDFORMAT
  1
GRIDFORMAT_BEGIN
 90
        0
 91
        1
 62
     0
 92
       -2
340
0
 93
        0
 40
1.125
309
GRIDFORMAT_END
 95
        2
302
GRIDFORMAT
  1
GRIDFORMAT_BEGIN
 90
        0
 91
        1
 62
     0
 92
       -2
340
0
 93
        0
 40
1.125
309
GRIDFORMAT_END
 95
        4
302
GRIDFORMAT
  1
GRIDFORMAT_BEGIN
 90
        0
 91
        1
 62
     0
 92
       -2
340
0
 93
        0
 40
1.125
309
GRIDFORMAT_END
 95
        8
302
GRIDFORMAT
  1
GRIDFORMAT_BEGIN
 90
        0
 91
        1
 62
     0
 92
       -2
340
0
 93
        0
 40
1.125
309
GRIDFORMAT_END
 95
       16
302
GRIDFORMAT
  1
GRIDFORMAT_BEGIN
 90
        0
 91
        1
 62
     0
 92
       -2
340
0
 93
        0
 40
1.125
309
GRIDFORMAT_END
 95
       32
302
GRIDFORMAT
  1
GRIDFORMAT_BEGIN
 90
        0
 91
        1
 62
     0
 92
       -2
340
0
 93
        0
 40
1.125
309
GRIDFORMAT_END
309
TABLEFORMAT_END
  1
CELLSTYLE_BEGIN
 90
        3
 91
        2
300
_DATA
309
CELLSTYLE_END
  0
XRECORD
  5
339
102
{ACAD_REACTORS
330
308
102
}
330
308
100
AcDbXrecord
280
     1
102
ACAD_ROUNDTRIP_PRE2007_TABLESTYLE
 90
      512
 91
        0
  1

 92
      512
 93
        0
  2

 94
      512
 95
        0
  3

  0
XRECORD
  5
31E
102
{ACAD_REACTORS
330
31D
102
}
330
31D
100
AcDbXrecord
280
     1
102
RTVSPropertyOp0
 70
     1
102
RTVSPropertyOp1
 70
     1
102
RTVSPropertyOp2
 70
     1
102
RTVSPropertyOp3
 70
     1
102
RTVSPropertyOp4
 70
     1
102
RTVSPropertyOp5
 70
     1
102
RTVSPropertyOp6
 70
     1
102
RTVSPropertyOp7
 70
     1
102
RTVSPropertyOp8
 70
     1
102
RTVSPropertyOp9
 70
     1
102
RTVSPropertyOp10
 70
     1
102
RTVSPropertyOp11
 70
     1
102
RTVSPropertyOp12
 70
     1
102
RTVSPropertyOp13
 70
     1
102
RTVSPropertyOp14
 70
     1
102
RTVSPropertyOp15
 70
     1
102
RTVSPropertyOp16
 70
     1
102
RTVSPropertyOp17
 70
     1
102
RTVSPropertyOp18
 70
     1
102
RTVSPropertyOp19
 70
     1
102
RTVSPropertyOp20
 70
     1
102
RTVSPropertyOp21
 70
     1
102
RTVSPropertyOp22
 70
     1
102
RTVSPropertyOp23
 70
     1
102
RTVSPropertyOp24
 70
     1
102
RTVSPropertyOp25
 70
     1
102
RTVSPropertyOp26
 70
     1
102
RTVSPropertyOp27
 70
     1
  0
XRECORD
  5
322
102
{ACAD_REACTORS
330
321
102
}
330
321
100
AcDbXrecord
280
     1
102
RTVSPropertyOp0
 70
     1
102
RTVSPropertyOp1
 70
     1
102
RTVSPropertyOp2
 70
     1
102
RTVSPropertyOp3
 70
     1
102
RTVSPropertyOp4
 70
     1
102
RTVSPropertyOp5
 70
     1
102
RTVSPropertyOp6
 70
     1
102
RTVSPropertyOp7
 70
     1
102
RTVSPropertyOp8
 70
     1
102
RTVSPropertyOp9
 70
     1
102
RTVSPropertyOp10
 70
     1
102
RTVSPropertyOp11
 70
     1
102
RTVSPropertyOp12
 70
     1
102
RTVSPropertyOp13
 70
     1
102
RTVSPropertyOp14
 70
     1
102
RTVSPropertyOp15
 70
     1
102
RTVSPropertyOp16
 70
     1
102
RTVSPropertyOp17
 70
     1
102
RTVSPropertyOp18
 70
     1
102
RTVSPropertyOp19
 70
     1
102
RTVSPropertyOp20
 70
     1
102
RTVSPropertyOp21
 70
     1
102
RTVSPropertyOp22
 70
     1
102
RTVSPropertyOp23
 70
     1
102
RTVSPropertyOp24
 70
     1
102
RTVSPropertyOp25
 70
     1
102
RTVSPropertyOp26
 70
     1
102
RTVSPropertyOp27
 70
     1
  0
XRECORD
  5
320
102
{ACAD_REACTORS
330
31F
102
}
330
31F
100
AcDbXrecord
280
     1
102
RTVSPropertyOp0
 70
     1
102
RTVSPropertyOp1
 70
     1
102
RTVSPropertyOp2
 70
     1
102
RTVSPropertyOp3
 70
     1
102
RTVSPropertyOp4
 70
     1
102
RTVSPropertyOp5
 70
     1
102
RTVSPropertyOp6
 70
     1
102
RTVSPropertyOp7
 70
     1
102
RTVSPropertyOp8
 70
     1
102
RTVSPropertyOp9
 70
     1
102
RTVSPropertyOp10
 70
     1
102
RTVSPropertyOp11
 70
     1
102
RTVSPropertyOp12
 70
     1
102
RTVSPropertyOp13
 70
     1
102
RTVSPropertyOp14
 70
     1
102
RTVSPropertyOp15
 70
     1
102
RTVSPropertyOp16
 70
     1
102
RTVSPropertyOp17
 70
     1
102
RTVSPropertyOp18
 70
     1
102
RTVSPropertyOp19
 70
     1
102
RTVSPropertyOp20
 70
     1
102
RTVSPropertyOp21
 70
     1
102
RTVSPropertyOp22
 70
     1
102
RTVSPropertyOp23
 70
     1
102
RTVSPropertyOp24
 70
     1
102
RTVSPropertyOp25
 70
     1
102
RTVSPropertyOp26
 70
     1
102
RTVSPropertyOp27
 70
     1
  0
XRECORD
  5
31C
102
{ACAD_REACTORS
330
31B
102
}
330
31B
100
AcDbXrecord
280
     1
102
RTVSPropertyOp0
 70
     1
102
RTVSPropertyOp1
 70
     1
102
RTVSPropertyOp2
 70
     1
102
RTVSPropertyOp3
 70
     1
102
RTVSPropertyOp4
 70
     1
102
RTVSPropertyOp5
 70
     1
102
RTVSPropertyOp6
 70
     1
102
RTVSPropertyOp7
 70
     1
102
RTVSPropertyOp8
 70
     1
102
RTVSPropertyOp9
 70
     1
102
RTVSPropertyOp10
 70
     1
102
RTVSPropertyOp11
 70
     1
102
RTVSPropertyOp12
 70
     1
102
RTVSPropertyOp13
 70
     1
102
RTVSPropertyOp14
 70
     1
102
RTVSPropertyOp15
 70
     1
102
RTVSPropertyOp16
 70
     1
102
RTVSPropertyOp17
 70
     1
102
RTVSPropertyOp18
 70
     1
102
RTVSPropertyOp19
 70
     1
102
RTVSPropertyOp20
 70
     1
102
RTVSPropertyOp21
 70
     1
102
RTVSPropertyOp22
 70
     1
102
RTVSPropertyOp23
 70
     1
102
RTVSPropertyOp24
 70
     1
102
RTVSPropertyOp25
 70
     1
102
RTVSPropertyOp26
 70
     1
102
RTVSPropertyOp27
 70
     1
  0
XRECORD
  5
32A
102
{ACAD_REACTORS
330
329
102
}
330
329
100
AcDbXrecord
280
     1
102
RTVSPropertyOp0
 70
     1
102
RTVSPropertyOp1
 70
     1
102
RTVSPropertyOp2
 70
     1
102
RTVSPropertyOp3
 70
     1
102
RTVSPropertyOp4
 70
     1
102
RTVSPropertyOp5
 70
     1
102
RTVSPropertyOp6
 70
     1
102
RTVSPropertyOp7
 70
     1
102
RTVSPropertyOp8
 70
     1
102
RTVSPropertyOp9
 70
     1
102
RTVSPropertyOp10
 70
     1
102
RTVSPropertyOp11
 70
     1
102
RTVSPropertyOp12
 70
     1
102
RTVSPropertyOp13
 70
     1
102
RTVSPropertyOp14
 70
     1
102
RTVSPropertyOp15
 70
     1
102
RTVSPropertyOp16
 70
     1
102
RTVSPropertyOp17
 70
     1
102
RTVSPropertyOp18
 70
     1
102
RTVSPropertyOp19
 70
     1
102
RTVSPropertyOp20
 70
     1
102
RTVSPropertyOp21
 70
     1
102
RTVSPropertyOp22
 70
     1
102
RTVSPropertyOp23
 70
     1
102
RTVSPropertyOp24
 70
     1
102
RTVSPropertyOp25
 70
     1
102
RTVSPropertyOp26
 70
     1
102
RTVSPropertyOp27
 70
     1
  0
XRECORD
  5
332
102
{ACAD_REACTORS
330
331
102
}
330
331
100
AcDbXrecord
280
     1
102
RTVSPropertyOp0
 70
     1
102
RTVSPropertyOp1
 70
     1
102
RTVSPropertyOp2
 70
     1
102
RTVSPropertyOp3
 70
     1
102
RTVSPropertyOp4
 70
     1
102
RTVSPropertyOp5
 70
     1
102
RTVSPropertyOp6
 70
     1
102
RTVSPropertyOp7
 70
     1
102
RTVSPropertyOp8
 70
     1
102
RTVSPropertyOp9
 70
     1
102
RTVSPropertyOp10
 70
     1
102
RTVSPropertyOp11
 70
     1
102
RTVSPropertyOp12
 70
     1
102
RTVSPropertyOp13
 70
     1
102
RTVSPropertyOp14
 70
     1
102
RTVSPropertyOp15
 70
     1
102
RTVSPropertyOp16
 70
     1
102
RTVSPropertyOp17
 70
     1
102
RTVSPropertyOp18
 70
     1
102
RTVSPropertyOp19
 70
     1
102
RTVSPropertyOp20
 70
     1
102
RTVSPropertyOp21
 70
     1
102
RTVSPropertyOp22
 70
     1
102
RTVSPropertyOp23
 70
     1
102
RTVSPropertyOp24
 70
     1
102
RTVSPropertyOp25
 70
     1
102
RTVSPropertyOp26
 70
     1
102
RTVSPropertyOp27
 70
     1
  0
XRECORD
  5
324
102
{ACAD_REACTORS
330
323
102
}
330
323
100
AcDbXrecord
280
     1
102
RTVSPropertyOp0
 70
     1
102
RTVSPropertyOp1
 70
     1
102
RTVSPropertyOp2
 70
     1
102
RTVSPropertyOp3
 70
     1
102
RTVSPropertyOp4
 70
     1
102
RTVSPropertyOp5
 70
     1
102
RTVSPropertyOp6
 70
     1
102
RTVSPropertyOp7
 70
     1
102
RTVSPropertyOp8
 70
     1
102
RTVSPropertyOp9
 70
     1
102
RTVSPropertyOp10
 70
     1
102
RTVSPropertyOp11
 70
     1
102
RTVSPropertyOp12
 70
     1
102
RTVSPropertyOp13
 70
     1
102
RTVSPropertyOp14
 70
     1
102
RTVSPropertyOp15
 70
     1
102
RTVSPropertyOp16
 70
     1
102
RTVSPropertyOp17
 70
     1
102
RTVSPropertyOp18
 70
     1
102
RTVSPropertyOp19
 70
     1
102
RTVSPropertyOp20
 70
     1
102
RTVSPropertyOp21
 70
     1
102
RTVSPropertyOp22
 70
     1
102
RTVSPropertyOp23
 70
     1
102
RTVSPropertyOp24
 70
     1
102
RTVSPropertyOp25
 70
     1
102
RTVSPropertyOp26
 70
     1
102
RTVSPropertyOp27
 70
     1
  0
XRECORD
  5
328
102
{ACAD_REACTORS
330
327
102
}
330
327
100
AcDbXrecord
280
     1
102
RTVSPropertyOp0
 70
     1
102
RTVSPropertyOp1
 70
     1
102
RTVSPropertyOp2
 70
     1
102
RTVSPropertyOp3
 70
     1
102
RTVSPropertyOp4
 70
     1
102
RTVSPropertyOp5
 70
     1
102
RTVSPropertyOp6
 70
     1
102
RTVSPropertyOp7
 70
     1
102
RTVSPropertyOp8
 70
     1
102
RTVSPropertyOp9
 70
     1
102
RTVSPropertyOp10
 70
     1
102
RTVSPropertyOp11
 70
     1
102
RTVSPropertyOp12
 70
     1
102
RTVSPropertyOp13
 70
     1
102
RTVSPropertyOp14
 70
     1
102
RTVSPropertyOp15
 70
     1
102
RTVSPropertyOp16
 70
     1
102
RTVSPropertyOp17
 70
     1
102
RTVSPropertyOp18
 70
     1
102
RTVSPropertyOp19
 70
     1
102
RTVSPropertyOp20
 70
     1
102
RTVSPropertyOp21
 70
     1
102
RTVSPropertyOp22
 70
     1
102
RTVSPropertyOp23
 70
     1
102
RTVSPropertyOp24
 70
     1
102
RTVSPropertyOp25
 70
     1
102
RTVSPropertyOp26
 70
     1
102
RTVSPropertyOp27
 70
     1
  0
XRECORD
  5
338
102
{ACAD_REACTORS
330
337
102
}
330
337
100
AcDbXrecord
280
     1
102
RTVSPropertyOp0
 70
     0
102
RTVSPropertyOp1
 70
     0
102
RTVSPropertyOp2
 70
     0
102
RTVSPropertyOp3
 70
     0
102
RTVSPropertyOp4
 70
     0
102
RTVSPropertyOp5
 70
     0
102
RTVSPropertyOp6
 70
     0
102
RTVSPropertyOp7
 70
     0
102
RTVSPropertyOp8
 70
     0
102
RTVSPropertyOp9
 70
     0
102
RTVSPropertyOp10
 70
     0
102
RTVSPropertyOp11
 70
     0
102
RTVSPropertyOp12
 70
     0
102
RTVSPropertyOp13
 70
     0
102
RTVSPropertyOp14
 70
     2
102
RTVSPropertyOp15
 70
     0
102
RTVSPropertyOp16
 70
     0
102
RTVSPropertyOp17
 70
     0
102
RTVSPropertyOp18
 70
     0
102
RTVSPropertyOp19
 70
     0
102
RTVSPropertyOp20
 70
     0
102
RTVSPropertyOp21
 70
     0
102
RTVSPropertyOp22
 70
     0
102
RTVSPropertyOp23
 70
     0
102
RTVSPropertyOp24
 70
     0
102
RTVSPropertyOp25
 70
     0
102
RTVSPropertyOp26
 70
     0
102
RTVSPropertyOp27
 70
     0
  0
XRECORD
  5
330
102
{ACAD_REACTORS
330
32F
102
}
330
32F
100
AcDbXrecord
280
     1
102
RTVSPropertyOp0
 70
     1
102
RTVSPropertyOp1
 70
     1
102
RTVSPropertyOp2
 70
     1
102
RTVSPropertyOp3
 70
     1
102
RTVSPropertyOp4
 70
     1
102
RTVSPropertyOp5
 70
     1
102
RTVSPropertyOp6
 70
     1
102
RTVSPropertyOp7
 70
     1
102
RTVSPropertyOp8
 70
     1
102
RTVSPropertyOp9
 70
     1
102
RTVSPropertyOp10
 70
     1
102
RTVSPropertyOp11
 70
     1
102
RTVSPropertyOp12
 70
     1
102
RTVSPropertyOp13
 70
     1
102
RTVSPropertyOp14
 70
     1
102
RTVSPropertyOp15
 70
     1
102
RTVSPropertyOp16
 70
     1
102
RTVSPropertyOp17
 70
     1
102
RTVSPropertyOp18
 70
     1
102
RTVSPropertyOp19
 70
     1
102
RTVSPropertyOp20
 70
     1
102
RTVSPropertyOp21
 70
     1
102
RTVSPropertyOp22
 70
     1
102
RTVSPropertyOp23
 70
     1
102
RTVSPropertyOp24
 70
     1
102
RTVSPropertyOp25
 70
     1
102
RTVSPropertyOp26
 70
     1
102
RTVSPropertyOp27
 70
     1
  0
XRECORD
  5
314
102
{ACAD_REACTORS
330
313
102
}
330
313
100
AcDbXrecord
280
     1
102
RTVSPropertyOp0
 70
     1
102
RTVSPropertyOp1
 70
     1
102
RTVSPropertyOp2
 70
     1
102
RTVSPropertyOp3
 70
     1
102
RTVSPropertyOp4
 70
     1
102
RTVSPropertyOp5
 70
     1
102
RTVSPropertyOp6
 70
     1
102
RTVSPropertyOp7
 70
     1
102
RTVSPropertyOp8
 70
     1
102
RTVSPropertyOp9
 70
     1
102
RTVSPropertyOp10
 70
     1
102
RTVSPropertyOp11
 70
     1
102
RTVSPropertyOp12
 70
     1
102
RTVSPropertyOp13
 70
     1
102
RTVSPropertyOp14
 70
     1
102
RTVSPropertyOp15
 70
     1
102
RTVSPropertyOp16
 70
     1
102
RTVSPropertyOp17
 70
     1
102
RTVSPropertyOp18
 70
     1
102
RTVSPropertyOp19
 70
     1
102
RTVSPropertyOp20
 70
     1
102
RTVSPropertyOp21
 70
     1
102
RTVSPropertyOp22
 70
     1
102
RTVSPropertyOp23
 70
     1
102
RTVSPropertyOp24
 70
     1
102
RTVSPropertyOp25
 70
     1
102
RTVSPropertyOp26
 70
     1
102
RTVSPropertyOp27
 70
     1
  0
XRECORD
  5
316
102
{ACAD_REACTORS
330
315
102
}
330
315
100
AcDbXrecord
280
     1
102
RTVSPropertyOp0
 70
     1
102
RTVSPropertyOp1
 70
     1
102
RTVSPropertyOp2
 70
     1
102
RTVSPropertyOp3
 70
     1
102
RTVSPropertyOp4
 70
     1
102
RTVSPropertyOp5
 70
     1
102
RTVSPropertyOp6
 70
     1
102
RTVSPropertyOp7
 70
     1
102
RTVSPropertyOp8
 70
     1
102
RTVSPropertyOp9
 70
     1
102
RTVSPropertyOp10
 70
     1
102
RTVSPropertyOp11
 70
     1
102
RTVSPropertyOp12
 70
     1
102
RTVSPropertyOp13
 70
     1
102
RTVSPropertyOp14
 70
     1
102
RTVSPropertyOp15
 70
     1
102
RTVSPropertyOp16
 70
     1
102
RTVSPropertyOp17
 70
     1
102
RTVSPropertyOp18
 70
     1
102
RTVSPropertyOp19
 70
     1
102
RTVSPropertyOp20
 70
     1
102
RTVSPropertyOp21
 70
     1
102
RTVSPropertyOp22
 70
     1
102
RTVSPropertyOp23
 70
     1
102
RTVSPropertyOp24
 70
     1
102
RTVSPropertyOp25
 70
     1
102
RTVSPropertyOp26
 70
     1
102
RTVSPropertyOp27
 70
     1
  0
XRECORD
  5
318
102
{ACAD_REACTORS
330
317
102
}
330
317
100
AcDbXrecord
280
     1
102
RTVSPropertyOp0
 70
     1
102
RTVSPropertyOp1
 70
     1
102
RTVSPropertyOp2
 70
     1
102
RTVSPropertyOp3
 70
     1
102
RTVSPropertyOp4
 70
     1
102
RTVSPropertyOp5
 70
     1
102
RTVSPropertyOp6
 70
     1
102
RTVSPropertyOp7
 70
     1
102
RTVSPropertyOp8
 70
     1
102
RTVSPropertyOp9
 70
     1
102
RTVSPropertyOp10
 70
     1
102
RTVSPropertyOp11
 70
     1
102
RTVSPropertyOp12
 70
     1
102
RTVSPropertyOp13
 70
     1
102
RTVSPropertyOp14
 70
     1
102
RTVSPropertyOp15
 70
     1
102
RTVSPropertyOp16
 70
     1
102
RTVSPropertyOp17
 70
     1
102
RTVSPropertyOp18
 70
     1
102
RTVSPropertyOp19
 70
     1
102
RTVSPropertyOp20
 70
     1
102
RTVSPropertyOp21
 70
     1
102
RTVSPropertyOp22
 70
     1
102
RTVSPropertyOp23
 70
     1
102
RTVSPropertyOp24
 70
     1
102
RTVSPropertyOp25
 70
     1
102
RTVSPropertyOp26
 70
     1
102
RTVSPropertyOp27
 70
     1
  0
XRECORD
  5
31A
102
{ACAD_REACTORS
330
319
102
}
330
319
100
AcDbXrecord
280
     1
102
RTVSPropertyOp0
 70
     1
102
RTVSPropertyOp1
 70
     1
102
RTVSPropertyOp2
 70
     1
102
RTVSPropertyOp3
 70
     1
102
RTVSPropertyOp4
 70
     1
102
RTVSPropertyOp5
 70
     1
102
RTVSPropertyOp6
 70
     1
102
RTVSPropertyOp7
 70
     1
102
RTVSPropertyOp8
 70
     1
102
RTVSPropertyOp9
 70
     1
102
RTVSPropertyOp10
 70
     1
102
RTVSPropertyOp11
 70
     1
102
RTVSPropertyOp12
 70
     1
102
RTVSPropertyOp13
 70
     1
102
RTVSPropertyOp14
 70
     1
102
RTVSPropertyOp15
 70
     1
102
RTVSPropertyOp16
 70
     1
102
RTVSPropertyOp17
 70
     1
102
RTVSPropertyOp18
 70
     1
102
RTVSPropertyOp19
 70
     1
102
RTVSPropertyOp20
 70
     1
102
RTVSPropertyOp21
 70
     1
102
RTVSPropertyOp22
 70
     1
102
RTVSPropertyOp23
 70
     1
102
RTVSPropertyOp24
 70
     1
102
RTVSPropertyOp25
 70
     1
102
RTVSPropertyOp26
 70
     1
102
RTVSPropertyOp27
 70
     1
  0
XRECORD
  5
334
102
{ACAD_REACTORS
330
333
102
}
330
333
100
AcDbXrecord
280
     1
102
RTVSPropertyOp0
 70
     0
102
RTVSPropertyOp1
 70
     0
102
RTVSPropertyOp2
 70
     0
102
RTVSPropertyOp3
 70
     0
102
RTVSPropertyOp4
 70
     0
102
RTVSPropertyOp5
 70
     0
102
RTVSPropertyOp6
 70
     0
102
RTVSPropertyOp7
 70
     0
102
RTVSPropertyOp8
 70
     0
102
RTVSPropertyOp9
 70
     0
102
RTVSPropertyOp10
 70
     0
102
RTVSPropertyOp11
 70
     0
102
RTVSPropertyOp12
 70
     0
102
RTVSPropertyOp13
 70
     0
102
RTVSPropertyOp14
 70
     2
102
RTVSPropertyOp15
 70
     0
102
RTVSPropertyOp16
 70
     0
102
RTVSPropertyOp17
 70
     0
102
RTVSPropertyOp18
 70
     0
102
RTVSPropertyOp19
 70
     0
102
RTVSPropertyOp20
 70
     0
102
RTVSPropertyOp21
 70
     0
102
RTVSPropertyOp22
 70
     0
102
RTVSPropertyOp23
 70
     0
102
RTVSPropertyOp24
 70
     0
102
RTVSPropertyOp25
 70
     0
102
RTVSPropertyOp26
 70
     0
102
RTVSPropertyOp27
 70
     0
  0
XRECORD
  5
32E
102
{ACAD_REACTORS
330
32D
102
}
330
32D
100
AcDbXrecord
280
     1
102
RTVSPropertyOp0
 70
     1
102
RTVSPropertyOp1
 70
     1
102
RTVSPropertyOp2
 70
     1
102
RTVSPropertyOp3
 70
     1
102
RTVSPropertyOp4
 70
     1
102
RTVSPropertyOp5
 70
     1
102
RTVSPropertyOp6
 70
     1
102
RTVSPropertyOp7
 70
     1
102
RTVSPropertyOp8
 70
     1
102
RTVSPropertyOp9
 70
     1
102
RTVSPropertyOp10
 70
     1
102
RTVSPropertyOp11
 70
     1
102
RTVSPropertyOp12
 70
     1
102
RTVSPropertyOp13
 70
     1
102
RTVSPropertyOp14
 70
     1
102
RTVSPropertyOp15
 70
     1
102
RTVSPropertyOp16
 70
     1
102
RTVSPropertyOp17
 70
     1
102
RTVSPropertyOp18
 70
     1
102
RTVSPropertyOp19
 70
     1
102
RTVSPropertyOp20
 70
     1
102
RTVSPropertyOp21
 70
     1
102
RTVSPropertyOp22
 70
     1
102
RTVSPropertyOp23
 70
     1
102
RTVSPropertyOp24
 70
     1
102
RTVSPropertyOp25
 70
     1
102
RTVSPropertyOp26
 70
     1
102
RTVSPropertyOp27
 70
     1
  0
XRECORD
  5
336
102
{ACAD_REACTORS
330
335
102
}
330
335
100
AcDbXrecord
280
     1
102
RTVSPropertyOp0
 70
     0
102
RTVSPropertyOp1
 70
     0
102
RTVSPropertyOp2
 70
     0
102
RTVSPropertyOp3
 70
     0
102
RTVSPropertyOp4
 70
     0
102
RTVSPropertyOp5
 70
     0
102
RTVSPropertyOp6
 70
     0
102
RTVSPropertyOp7
 70
     0
102
RTVSPropertyOp8
 70
     0
102
RTVSPropertyOp9
 70
     0
102
RTVSPropertyOp10
 70
     0
102
RTVSPropertyOp11
 70
     0
102
RTVSPropertyOp12
 70
     0
102
RTVSPropertyOp13
 70
     0
102
RTVSPropertyOp14
 70
     2
102
RTVSPropertyOp15
 70
     0
102
RTVSPropertyOp16
 70
     0
102
RTVSPropertyOp17
 70
     0
102
RTVSPropertyOp18
 70
     0
102
RTVSPropertyOp19
 70
     0
102
RTVSPropertyOp20
 70
     0
102
RTVSPropertyOp21
 70
     0
102
RTVSPropertyOp22
 70
     0
102
RTVSPropertyOp23
 70
     0
102
RTVSPropertyOp24
 70
     0
102
RTVSPropertyOp25
 70
     0
102
RTVSPropertyOp26
 70
     0
102
RTVSPropertyOp27
 70
     0
  0
XRECORD
  5
326
102
{ACAD_REACTORS
330
325
102
}
330
325
100
AcDbXrecord
280
     1
102
RTVSPropertyOp0
 70
     1
102
RTVSPropertyOp1
 70
     1
102
RTVSPropertyOp2
 70
     1
102
RTVSPropertyOp3
 70
     1
102
RTVSPropertyOp4
 70
     1
102
RTVSPropertyOp5
 70
     1
102
RTVSPropertyOp6
 70
     1
102
RTVSPropertyOp7
 70
     1
102
RTVSPropertyOp8
 70
     1
102
RTVSPropertyOp9
 70
     1
102
RTVSPropertyOp10
 70
     1
102
RTVSPropertyOp11
 70
     1
102
RTVSPropertyOp12
 70
     1
102
RTVSPropertyOp13
 70
     1
102
RTVSPropertyOp14
 70
     1
102
RTVSPropertyOp15
 70
     1
102
RTVSPropertyOp16
 70
     1
102
RTVSPropertyOp17
 70
     1
102
RTVSPropertyOp18
 70
     1
102
RTVSPropertyOp19
 70
     1
102
RTVSPropertyOp20
 70
     1
102
RTVSPropertyOp21
 70
     1
102
RTVSPropertyOp22
 70
     1
102
RTVSPropertyOp23
 70
     1
102
RTVSPropertyOp24
 70
     1
102
RTVSPropertyOp25
 70
     1
102
RTVSPropertyOp26
 70
     1
102
RTVSPropertyOp27
 70
     1
  0
XRECORD
  5
32C
102
{ACAD_REACTORS
330
32B
102
}
330
32B
100
AcDbXrecord
280
     1
102
RTVSPropertyOp0
 70
     1
102
RTVSPropertyOp1
 70
     1
102
RTVSPropertyOp2
 70
     1
102
RTVSPropertyOp3
 70
     1
102
RTVSPropertyOp4
 70
     1
102
RTVSPropertyOp5
 70
     1
102
RTVSPropertyOp6
 70
     1
102
RTVSPropertyOp7
 70
     1
102
RTVSPropertyOp8
 70
     1
102
RTVSPropertyOp9
 70
     1
102
RTVSPropertyOp10
 70
     1
102
RTVSPropertyOp11
 70
     1
102
RTVSPropertyOp12
 70
     1
102
RTVSPropertyOp13
 70
     1
102
RTVSPropertyOp14
 70
     1
102
RTVSPropertyOp15
 70
     1
102
RTVSPropertyOp16
 70
     1
102
RTVSPropertyOp17
 70
     1
102
RTVSPropertyOp18
 70
     1
102
RTVSPropertyOp19
 70
     1
102
RTVSPropertyOp20
 70
     1
102
RTVSPropertyOp21
 70
     1
102
RTVSPropertyOp22
 70
     1
102
RTVSPropertyOp23
 70
     1
102
RTVSPropertyOp24
 70
     1
102
RTVSPropertyOp25
 70
     1
102
RTVSPropertyOp26
 70
     1
102
RTVSPropertyOp27
 70
     1
  0
ENDSEC
  0
EOF
