0
SECTION
2
HEADER
9
$ACADVER
1
AC1015
9
$DWGCODEPAGE
3
ANSI_1252
9
$HANDSEED
5
195
9
$ANGBASE
50
0
9
$ANGDIR
70
0
9
$ATTMODE
70
1
9
$AUNITS
70
0
9
$AUPREC
70
0
9
$CECOLOR
62
256
9
$CELTSCALE
40
1
9
$CELTYPE
6
ByLayer
9
$CELWEIGHT
370
18
9
$CLAYER
8
0
9
$CMLJUST
70
0
9
$CMLSCALE
40
1
9
$CMLSTYLE
2
Standard
9
$DIMSTYLE
2
Standard
9
$TEXTSIZE
40
0.2
9
$TEXTSTYLE
7
Standard
9
$LUNITS
70
2
9
$LUPREC
70
4
9
$EXTNAMES
290
1
9
$INSUNITS
70
4
9
$LTSCALE
40
1
9
$LWDISPLAY
290
1
9
$PDMODE
70
0
9
$PDSIZE
40
0
9
$PLINEGEN
70
0
0
ENDSEC
0
SECTION
2
CLASSES
0
CLASS
1
RASTERVARIABLES
2
AcDbRasterVariables
3
ISM
90
0
280
0
281
0
0
ENDSEC
0
SECTION
2
TABLES
0
TABLE
2
VPORT
5
18b
100
AcDbSymbolTable
0
VPORT
5
1
100
AcDbSymbolTableRecord
100
AcDbViewportTableRecord
2
*Active
70
0
10
0
20
0
11
1
21
1
12
-1
22
1
13
0
23
0
14
0.5
24
0.5
15
10
25
10
16
0
26
0
36
1
17
0
27
0
37
0
0
ENDTAB
0
TABLE
2
LTYPE
5
18c
100
AcDbSymbolTable
0
LTYPE
5
14
100
AcDbSymbolTableRecord
100
AcDbLinetypeTableRecord
70
0
2
ByBlock
3

72
65
73
0
40
0
0
LTYPE
5
15
100
AcDbSymbolTableRecord
100
AcDbLinetypeTableRecord
70
0
2
ByLayer
3

72
65
73
0
40
0
0
LTYPE
5
16
100
AcDbSymbolTableRecord
100
AcDbLinetypeTableRecord
70
0
2
CONTINUOUS
3
Solid line
72
65
73
0
40
0
0
LTYPE
5
6A
100
AcDbSymbolTableRecord
100
AcDbLinetypeTableRecord
70
0
2
CENTER
3
____ _ ____ _ ____ _ ____
72
65
73
4
40
47.5
49
22
74
0
49
-8.5
74
0
49
8.5
74
0
49
-8.5
74
0
0
LTYPE
5
6B
100
AcDbSymbolTableRecord
100
AcDbLinetypeTableRecord
70
0
2
DASHED
3
__ __ __ __ __ __ __ __ __
72
65
73
2
40
25.72
49
12.86
74
0
49
-12.86
74
0
0
ENDTAB
0
TABLE
2
LAYER
5
18d
100
AcDbSymbolTable
0
LAYER
5
10
100
AcDbSymbolTableRecord
100
AcDbLayerTableRecord
2
0
70
0
62
7
6
CONTINUOUS
290
1
370
-3
390
0
0
LAYER
5
6D
100
AcDbSymbolTableRecord
100
AcDbLayerTableRecord
2
80
70
0
62
-6
6
CONTINUOUS
290
1
370
-3
390
0
0
LAYER
5
6F
100
AcDbSymbolTableRecord
100
AcDbLayerTableRecord
2
81
70
0
62
-3
6
CONTINUOUS
290
1
370
-3
390
0
0
LAYER
5
71
100
AcDbSymbolTableRecord
100
AcDbLayerTableRecord
2
1
70
0
62
4
6
CONTINUOUS
290
1
370
-3
390
0
0
LAYER
5
95
100
AcDbSymbolTableRecord
100
AcDbLayerTableRecord
2
4
70
0
62
-2
6
CENTER
290
1
370
-3
390
0
0
LAYER
5
C8
100
AcDbSymbolTableRecord
100
AcDbLayerTableRecord
2
2
70
0
62
7
6
CONTINUOUS
290
1
370
-3
390
0
0
LAYER
5
177
100
AcDbSymbolTableRecord
100
AcDbLayerTableRecord
2
SK1
70
0
62
4
6
CONTINUOUS
290
1
370
-3
390
0
0
LAYER
5
178
100
AcDbSymbolTableRecord
100
AcDbLayerTableRecord
2
SK4
70
0
62
2
6
CENTER
290
1
370
-3
390
0
0
LAYER
5
179
100
AcDbSymbolTableRecord
100
AcDbLayerTableRecord
2
SK6
70
0
62
5
6
CONTINUOUS
290
1
370
-3
390
0
0
LAYER
5
17a
100
AcDbSymbolTableRecord
100
AcDbLayerTableRecord
2
SK2
70
0
62
7
6
CONTINUOUS
290
1
370
-3
390
0
0
ENDTAB
0
TABLE
2
STYLE
5
18e
100
AcDbSymbolTable
0
STYLE
5
11
100
AcDbSymbolTableRecord
100
AcDbTextStyleTableRecord
2
Standard
3
txt
70
0
71
0
40
0
41
1
42
0
50
0
0
STYLE
5
C3
100
AcDbSymbolTableRecord
100
AcDbTextStyleTableRecord
2
iso_b_vert
3
simplex.shx
70
0
71
0
40
0
41
1
42
0
50
0
0
STYLE
5
C4
100
AcDbSymbolTableRecord
100
AcDbTextStyleTableRecord
2
DWGDirectTextStyle
3
simplex
70
0
71
0
40
0
41
1
42
0
50
0
0
ENDTAB
0
TABLE
2
DIMSTYLE
5
18f
100
AcDbSymbolTable
100
AcDbDimStyleTable
0
DIMSTYLE
105
27
100
AcDbSymbolTableRecord
100
AcDbDimStyleTableRecord
2
Standard
70
0
3
<>
41
0.18
42
0.0625
44
0.18
140
0.18
147
0.09
73
0
74
0
77
1
271
2
275
0
278
52
280
0
340
11
0
ENDTAB
0
TABLE
2
VIEW
5
190
100
AcDbSymbolTable
0
ENDTAB
0
TABLE
2
UCS
5
191
100
AcDbSymbolTable
0
ENDTAB
0
TABLE
2
APPID
5
192
100
AcDbSymbolTable
0
APPID
5
12
100
AcDbSymbolTableRecord
100
AcDbRegAppTableRecord
2
ACAD
70
0
0
ENDTAB
0
TABLE
2
BLOCK_RECORD
5
193
100
AcDbSymbolTable
0
BLOCK_RECORD
5
1F
100
AcDbSymbolTableRecord
100
AcDbBlockTableRecord
2
*Model_Space
340
0
70
0
0
BLOCK_RECORD
5
1B
100
AcDbSymbolTableRecord
100
AcDbBlockTableRecord
2
*Paper_Space
340
0
70
0
0
BLOCK_RECORD
5
23
100
AcDbSymbolTableRecord
100
AcDbBlockTableRecord
2
*Paper_Space0
340
0
70
0
0
BLOCK_RECORD
5
C6
100
AcDbSymbolTableRecord
100
AcDbBlockTableRecord
2
DimnDraft3D1
340
0
70
0
0
BLOCK_RECORD
5
D5
100
AcDbSymbolTableRecord
100
AcDbBlockTableRecord
2
DimnDraft3D2
340
0
70
0
0
BLOCK_RECORD
5
E4
100
AcDbSymbolTableRecord
100
AcDbBlockTableRecord
2
DimnDraft3D3
340
0
70
0
0
BLOCK_RECORD
5
F3
100
AcDbSymbolTableRecord
100
AcDbBlockTableRecord
2
DimnDraft3D4
340
0
70
0
0
BLOCK_RECORD
5
102
100
AcDbSymbolTableRecord
100
AcDbBlockTableRecord
2
DimnDraft3D5
340
0
70
0
0
BLOCK_RECORD
5
110
100
AcDbSymbolTableRecord
100
AcDbBlockTableRecord
2
DimnDraft3D6
340
0
70
0
0
ENDTAB
0
ENDSEC
0
SECTION
2
BLOCKS
0
BLOCK
5
20
100
AcDbEntity
8
0
100
AcDbBlockBegin
2
*Model_Space
70
0
10
0
20
0
30
0
3
*Model_Space
0
ENDBLK
5
21
100
AcDbEntity
8
0
100
AcDbBlockEnd
0
BLOCK
5
1C
100
AcDbEntity
8
0
100
AcDbBlockBegin
2
*Paper_Space
70
0
10
0
20
0
30
0
3
*Paper_Space
0
ENDBLK
5
1D
100
AcDbEntity
8
0
100
AcDbBlockEnd
0
BLOCK
5
24
100
AcDbEntity
8
0
100
AcDbBlockBegin
2
*Paper_Space0
70
0
10
0
20
0
30
0
3
*Paper_Space0
0
ENDBLK
5
25
100
AcDbEntity
8
0
100
AcDbBlockEnd
0
BLOCK
5
D2
100
AcDbEntity
8
0
100
AcDbBlockBegin
2
DimnDraft3D1
70
0
10
0
20
0
30
0
3
DimnDraft3D1
0
MTEXT
5
C7
100
AcDbEntity
8
2
62
256
6
ByLayer
370
18
48
1
60
0
100
AcDbMText
10
121.414515
20
46.294688
30
0
210
0
220
0
230
1
1
\W0.6217;127
40
3.5
41
0
44
1.084337
50
0
71
7
72
5
7
iso_b_vert
0
LINE
5
C9
100
AcDbEntity
8
2
62
256
6
ByLayer
370
13
48
1
60
0
100
AcDbLine
10
60.0007
20
17.996
30
0
11
60.0007
21
47.419688
31
0
39
0
210
0
220
0
230
1
0
LINE
5
CA
100
AcDbEntity
8
2
62
256
6
ByLayer
370
13
48
1
60
0
100
AcDbLine
10
187.0007
20
2
30
0
11
187.0007
21
47.419688
31
0
39
0
210
0
220
0
230
1
0
LINE
5
CB
100
AcDbEntity
8
2
62
256
6
ByLayer
370
13
48
1
60
0
100
AcDbLine
10
60.0007
20
45.419688
30
0
11
187.0007
21
45.419688
31
0
39
0
210
0
220
0
230
1
0
LINE
5
CC
100
AcDbEntity
8
2
62
256
6
ByLayer
370
13
48
1
60
0
100
AcDbLine
10
60.0007
20
45.419688
30
0
11
63.175697
21
46.270426
31
0
39
0
210
0
220
0
230
1
0
LINE
5
CD
100
AcDbEntity
8
2
62
256
6
ByLayer
370
13
48
1
60
0
100
AcDbLine
10
60.0007
20
45.419688
30
0
11
63.175703
21
44.568949
31
0
39
0
210
0
220
0
230
1
0
LINE
5
CE
100
AcDbEntity
8
2
62
256
6
ByLayer
370
13
48
1
60
0
100
AcDbLine
10
63.175697
20
46.270426
30
0
11
63.175703
21
44.568949
31
0
39
0
210
0
220
0
230
1
0
LINE
5
CF
100
AcDbEntity
8
2
62
256
6
ByLayer
370
13
48
1
60
0
100
AcDbLine
10
187.0007
20
45.419688
30
0
11
183.825703
21
44.568949
31
0
39
0
210
0
220
0
230
1
0
LINE
5
D0
100
AcDbEntity
8
2
62
256
6
ByLayer
370
13
48
1
60
0
100
AcDbLine
10
187.0007
20
45.419688
30
0
11
183.825697
21
46.270426
31
0
39
0
210
0
220
0
230
1
0
LINE
5
D1
100
AcDbEntity
8
2
62
256
6
ByLayer
370
13
48
1
60
0
100
AcDbLine
10
183.825703
20
44.568949
30
0
11
183.825697
21
46.270426
31
0
39
0
210
0
220
0
230
1
0
ENDBLK
5
D3
100
AcDbEntity
8
0
100
AcDbBlockEnd
0
BLOCK
5
E1
100
AcDbEntity
8
0
100
AcDbBlockBegin
2
DimnDraft3D2
70
0
10
0
20
0
30
0
3
DimnDraft3D2
0
MTEXT
5
D6
100
AcDbEntity
8
SK2
62
256
6
ByLayer
370
18
48
1
60
0
100
AcDbMText
10
91.414166
20
60.590766
30
0
210
0
220
0
230
1
1
\W0.6217;187
40
3.5
41
0
44
1.084337
50
0
71
7
72
5
7
iso_b_vert
0
LINE
5
D8
100
AcDbEntity
8
SK2
62
256
6
ByLayer
370
13
48
1
60
0
100
AcDbLine
10
0
20
15.9975
30
0
11
0
21
61.715766
31
0
39
0
210
0
220
0
230
1
0
LINE
5
D9
100
AcDbEntity
8
SK2
62
256
6
ByLayer
370
13
48
1
60
0
100
AcDbLine
10
187.0007
20
2
30
0
11
187.0007
21
61.715766
31
0
39
0
210
0
220
0
230
1
0
LINE
5
DA
100
AcDbEntity
8
SK2
62
256
6
ByLayer
370
13
48
1
60
0
100
AcDbLine
10
0
20
59.715766
30
0
11
187.0007
21
59.715766
31
0
39
0
210
0
220
0
230
1
0
LINE
5
DB
100
AcDbEntity
8
SK2
62
256
6
ByLayer
370
13
48
1
60
0
100
AcDbLine
10
0
20
59.715766
30
0
11
3.174997
21
60.566504
31
0
39
0
210
0
220
0
230
1
0
LINE
5
DC
100
AcDbEntity
8
SK2
62
256
6
ByLayer
370
13
48
1
60
0
100
AcDbLine
10
0
20
59.715766
30
0
11
3.175003
21
58.865027
31
0
39
0
210
0
220
0
230
1
0
LINE
5
DD
100
AcDbEntity
8
SK2
62
256
6
ByLayer
370
13
48
1
60
0
100
AcDbLine
10
3.174997
20
60.566504
30
0
11
3.175003
21
58.865027
31
0
39
0
210
0
220
0
230
1
0
LINE
5
DE
100
AcDbEntity
8
SK2
62
256
6
ByLayer
370
13
48
1
60
0
100
AcDbLine
10
187.0007
20
59.715766
30
0
11
183.825703
21
58.865027
31
0
39
0
210
0
220
0
230
1
0
LINE
5
DF
100
AcDbEntity
8
SK2
62
256
6
ByLayer
370
13
48
1
60
0
100
AcDbLine
10
187.0007
20
59.715766
30
0
11
183.825697
21
60.566504
31
0
39
0
210
0
220
0
230
1
0
LINE
5
E0
100
AcDbEntity
8
SK2
62
256
6
ByLayer
370
13
48
1
60
0
100
AcDbLine
10
183.825703
20
58.865027
30
0
11
183.825697
21
60.566504
31
0
39
0
210
0
220
0
230
1
0
ENDBLK
5
E2
100
AcDbEntity
8
0
100
AcDbBlockEnd
0
BLOCK
5
F0
100
AcDbEntity
8
0
100
AcDbBlockBegin
2
DimnDraft3D3
70
0
10
0
20
0
30
0
3
DimnDraft3D3
0
MTEXT
5
E5
100
AcDbEntity
8
SK2
62
256
6
ByLayer
370
18
48
1
60
0
100
AcDbMText
10
-18.535251
20
4.034211
30
0
210
0
220
0
230
1
1
\W0.6740;32
40
3.5
41
0
44
1.084337
50
90
71
7
72
5
7
iso_b_vert
0
MTEXT
5
E6
100
AcDbEntity
8
SK2
62
256
6
ByLayer
370
18
48
1
60
0
100
AcDbMText
10
-18.535251
20
-4.688446
30
0
210
0
220
0
230
1
1
%%c
40
3.5
41
0
44
1.084337
50
90
71
7
72
5
7
iso_b_vert
0
LINE
5
E7
100
AcDbEntity
8
SK2
62
256
6
ByLayer
370
13
48
1
60
0
100
AcDbLine
10
-0.0015
20
15.996
30
0
11
-18.785251
21
15.996
31
0
39
0
210
0
220
0
230
1
0
LINE
5
E8
100
AcDbEntity
8
SK2
62
256
6
ByLayer
370
13
48
1
60
0
100
AcDbLine
10
-0.0015
20
-15.996
30
0
11
-18.785251
21
-15.996
31
0
39
0
210
0
220
0
230
1
0
LINE
5
E9
100
AcDbEntity
8
SK2
62
256
6
ByLayer
370
13
48
1
60
0
100
AcDbLine
10
-16.785251
20
15.996
30
0
11
-16.785251
21
-15.996
31
0
39
0
210
0
220
0
230
1
0
LINE
5
EA
100
AcDbEntity
8
SK2
62
256
6
ByLayer
370
13
48
1
60
0
100
AcDbLine
10
-16.785251
20
15.996
30
0
11
-15.934512
21
12.821003
31
0
39
0
210
0
220
0
230
1
0
LINE
5
EB
100
AcDbEntity
8
SK2
62
256
6
ByLayer
370
13
48
1
60
0
100
AcDbLine
10
-16.785251
20
15.996
30
0
11
-17.635989
21
12.820997
31
0
39
0
210
0
220
0
230
1
0
LINE
5
EC
100
AcDbEntity
8
SK2
62
256
6
ByLayer
370
13
48
1
60
0
100
AcDbLine
10
-15.934512
20
12.821003
30
0
11
-17.635989
21
12.820997
31
0
39
0
210
0
220
0
230
1
0
LINE
5
ED
100
AcDbEntity
8
SK2
62
256
6
ByLayer
370
13
48
1
60
0
100
AcDbLine
10
-16.785251
20
-15.996
30
0
11
-17.635989
21
-12.821003
31
0
39
0
210
0
220
0
230
1
0
LINE
5
EE
100
AcDbEntity
8
SK2
62
256
6
ByLayer
370
13
48
1
60
0
100
AcDbLine
10
-16.785251
20
-15.996
30
0
11
-15.934512
21
-12.820997
31
0
39
0
210
0
220
0
230
1
0
LINE
5
EF
100
AcDbEntity
8
SK2
62
256
6
ByLayer
370
13
48
1
60
0
100
AcDbLine
10
-17.635989
20
-12.821003
30
0
11
-15.934512
21
-12.820997
31
0
39
0
210
0
220
0
230
1
0
ENDBLK
5
F1
100
AcDbEntity
8
0
100
AcDbBlockEnd
0
BLOCK
5
FF
100
AcDbEntity
8
0
100
AcDbBlockBegin
2
DimnDraft3D4
70
0
10
0
20
0
30
0
3
DimnDraft3D4
0
MTEXT
5
F4
100
AcDbEntity
8
2
62
256
6
ByLayer
370
18
48
1
60
0
100
AcDbMText
10
207.032181
20
3.280694
30
0
210
0
220
0
230
1
1
\W0.6740;32
40
3.5
41
0
44
1.084337
50
88.8005811747513
71
7
72
5
7
iso_b_vert
0
MTEXT
5
F5
100
AcDbEntity
8
2
62
256
6
ByLayer
370
18
48
1
60
0
100
AcDbMText
10
206.849596
20
-5.440051
30
0
210
0
220
0
230
1
1
%%c
40
3.5
41
0
44
1.084337
50
88.8005811747513
71
7
72
5
7
iso_b_vert
0
LINE
5
F6
100
AcDbEntity
8
2
62
256
6
ByLayer
370
13
48
1
60
0
100
AcDbLine
10
173.334395
20
15.950631
30
0
11
211.031747
21
15.161366
31
0
39
0
210
0
220
0
230
1
0
LINE
5
F7
100
AcDbEntity
8
2
62
256
6
ByLayer
370
13
48
1
60
0
100
AcDbLine
10
172.664729
20
-16.03436
30
0
11
210.362082
21
-16.823624
31
0
39
0
210
0
220
0
230
1
0
LINE
5
F8
100
AcDbEntity
8
2
62
256
6
ByLayer
370
13
48
1
60
0
100
AcDbLine
10
209.032186
20
15.203231
30
0
11
208.36252
21
-16.78176
31
0
39
0
210
0
220
0
230
1
0
LINE
5
F9
100
AcDbEntity
8
2
62
256
6
ByLayer
370
13
48
1
60
0
100
AcDbLine
10
209.032186
20
15.203231
30
0
11
209.816278
21
12.011122
31
0
39
0
210
0
220
0
230
1
0
LINE
5
FA
100
AcDbEntity
8
2
62
256
6
ByLayer
370
13
48
1
60
0
100
AcDbLine
10
209.032186
20
15.203231
30
0
11
208.115173
21
12.046731
31
0
39
0
210
0
220
0
230
1
0
LINE
5
FB
100
AcDbEntity
8
2
62
256
6
ByLayer
370
13
48
1
60
0
100
AcDbLine
10
209.816278
20
12.011122
30
0
11
208.115173
21
12.046731
31
0
39
0
210
0
220
0
230
1
0
LINE
5
FC
100
AcDbEntity
8
2
62
256
6
ByLayer
370
13
48
1
60
0
100
AcDbLine
10
208.36252
20
-16.78176
30
0
11
207.578428
21
-13.589651
31
0
39
0
210
0
220
0
230
1
0
LINE
5
FD
100
AcDbEntity
8
2
62
256
6
ByLayer
370
13
48
1
60
0
100
AcDbLine
10
208.36252
20
-16.78176
30
0
11
209.279532
21
-13.62526
31
0
39
0
210
0
220
0
230
1
0
LINE
5
FE
100
AcDbEntity
8
2
62
256
6
ByLayer
370
13
48
1
60
0
100
AcDbLine
10
207.578428
20
-13.589651
30
0
11
209.279532
21
-13.62526
31
0
39
0
210
0
220
0
230
1
0
ENDBLK
5
100
100
AcDbEntity
8
0
100
AcDbBlockEnd
0
BLOCK
5
10D
100
AcDbEntity
8
0
100
AcDbBlockBegin
2
DimnDraft3D5
70
0
10
0
20
0
30
0
3
DimnDraft3D5
0
MTEXT
5
103
100
AcDbEntity
8
2
62
256
6
ByLayer
370
18
48
1
60
0
100
AcDbMText
10
173.481361
20
24.021719
30
0
210
0
220
0
230
1
1
\W0.7150;20,7
40
3.5
41
0
44
1.084337
50
0
71
7
72
5
7
iso_b_vert
0
LINE
5
104
100
AcDbEntity
8
2
62
256
6
ByLayer
370
13
48
1
60
0
100
AcDbLine
10
186.994153
20
2.24305
30
0
11
186.994153
21
25.146718
31
0
39
0
210
0
220
0
230
1
0
LINE
5
105
100
AcDbEntity
8
2
62
256
6
ByLayer
370
13
48
1
60
0
100
AcDbLine
10
166.250148
20
17.274519
30
0
11
166.250148
21
25.146718
31
0
39
0
210
0
220
0
230
1
0
LINE
5
106
100
AcDbEntity
8
2
62
256
6
ByLayer
370
13
48
1
60
0
100
AcDbLine
10
186.994153
20
23.146719
30
0
11
166.250148
21
23.146719
31
0
39
0
210
0
220
0
230
1
0
LINE
5
107
100
AcDbEntity
8
2
62
256
6
ByLayer
370
13
48
1
60
0
100
AcDbLine
10
186.994153
20
23.146719
30
0
11
183.819157
21
22.29598
31
0
39
0
210
0
220
0
230
1
0
LINE
5
108
100
AcDbEntity
8
2
62
256
6
ByLayer
370
13
48
1
60
0
100
AcDbLine
10
186.994153
20
23.146719
30
0
11
183.81915
21
23.997457
31
0
39
0
210
0
220
0
230
1
0
LINE
5
109
100
AcDbEntity
8
2
62
256
6
ByLayer
370
13
48
1
60
0
100
AcDbLine
10
183.819157
20
22.29598
30
0
11
183.81915
21
23.997457
31
0
39
0
210
0
220
0
230
1
0
LINE
5
10A
100
AcDbEntity
8
2
62
256
6
ByLayer
370
13
48
1
60
0
100
AcDbLine
10
166.250148
20
23.146719
30
0
11
169.425145
21
23.997457
31
0
39
0
210
0
220
0
230
1
0
LINE
5
10B
100
AcDbEntity
8
2
62
256
6
ByLayer
370
13
48
1
60
0
100
AcDbLine
10
166.250148
20
23.146719
30
0
11
169.425152
21
22.29598
31
0
39
0
210
0
220
0
230
1
0
LINE
5
10C
100
AcDbEntity
8
2
62
256
6
ByLayer
370
13
48
1
60
0
100
AcDbLine
10
169.425145
20
23.997457
30
0
11
169.425152
21
22.29598
31
0
39
0
210
0
220
0
230
1
0
ENDBLK
5
10E
100
AcDbEntity
8
0
100
AcDbBlockEnd
0
BLOCK
5
11B
100
AcDbEntity
8
0
100
AcDbBlockBegin
2
DimnDraft3D6
70
0
10
0
20
0
30
0
3
DimnDraft3D6
0
MTEXT
5
111
100
AcDbEntity
8
2
62
256
6
ByLayer
370
18
48
1
60
0
100
AcDbMText
10
131.414515
20
34.270369
30
0
210
0
220
0
230
1
1
\W0.6217;107
40
3.5
41
0
44
1.084337
50
0
71
7
72
5
7
iso_b_vert
0
LINE
5
112
100
AcDbEntity
8
2
62
256
6
ByLayer
370
13
48
1
60
0
100
AcDbLine
10
187.0007
20
2
30
0
11
187.0007
21
35.395369
31
0
39
0
210
0
220
0
230
1
0
LINE
5
113
100
AcDbEntity
8
2
62
256
6
ByLayer
370
13
48
1
60
0
100
AcDbLine
10
80.0007
20
17.996
30
0
11
80.0007
21
35.395369
31
0
39
0
210
0
220
0
230
1
0
LINE
5
114
100
AcDbEntity
8
2
62
256
6
ByLayer
370
13
48
1
60
0
100
AcDbLine
10
187.0007
20
33.395369
30
0
11
80.0007
21
33.395369
31
0
39
0
210
0
220
0
230
1
0
LINE
5
115
100
AcDbEntity
8
2
62
256
6
ByLayer
370
13
48
1
60
0
100
AcDbLine
10
187.0007
20
33.395369
30
0
11
183.825703
21
32.54463
31
0
39
0
210
0
220
0
230
1
0
LINE
5
116
100
AcDbEntity
8
2
62
256
6
ByLayer
370
13
48
1
60
0
100
AcDbLine
10
187.0007
20
33.395369
30
0
11
183.825697
21
34.246107
31
0
39
0
210
0
220
0
230
1
0
LINE
5
117
100
AcDbEntity
8
2
62
256
6
ByLayer
370
13
48
1
60
0
100
AcDbLine
10
183.825703
20
32.54463
30
0
11
183.825697
21
34.246107
31
0
39
0
210
0
220
0
230
1
0
LINE
5
118
100
AcDbEntity
8
2
62
256
6
ByLayer
370
13
48
1
60
0
100
AcDbLine
10
80.0007
20
33.395369
30
0
11
83.175697
21
34.246107
31
0
39
0
210
0
220
0
230
1
0
LINE
5
119
100
AcDbEntity
8
2
62
256
6
ByLayer
370
13
48
1
60
0
100
AcDbLine
10
80.0007
20
33.395369
30
0
11
83.175703
21
32.54463
31
0
39
0
210
0
220
0
230
1
0
LINE
5
11A
100
AcDbEntity
8
2
62
256
6
ByLayer
370
13
48
1
60
0
100
AcDbLine
10
83.175697
20
34.246107
30
0
11
83.175703
21
32.54463
31
0
39
0
210
0
220
0
230
1
0
ENDBLK
5
11C
100
AcDbEntity
8
0
100
AcDbBlockEnd
0
ENDSEC
0
SECTION
2
ENTITIES
0
ARC
5
9C
100
AcDbEntity
8
1
62
256
6
ByLayer
370
18
48
1
60
0
100
AcDbCircle
39
0
10
-82.999962
20
16.0625
30
0
40
3
210
0
220
0
230
-1
100
AcDbArc
50
270
51
358.72984
0
ARC
5
9D
100
AcDbEntity
8
1
62
256
6
ByLayer
370
18
48
1
60
0
100
AcDbCircle
39
0
10
-171
20
0
30
0
40
12.5834765168454
210
0
220
0
230
-1
100
AcDbArc
50
209.054019
51
264.063325
0
ARC
5
9F
100
AcDbEntity
8
1
62
256
6
ByLayer
370
18
48
1
60
0
100
AcDbCircle
39
0
10
-171
20
0
30
0
40
15.996
210
0
220
0
230
-1
100
AcDbArc
50
179.991985
51
297.945584
0
ARC
5
A0
100
AcDbEntity
8
1
62
256
6
ByLayer
370
18
48
1
60
0
100
AcDbCircle
39
0
10
171
20
0
30
0
40
15.996
210
0
220
0
230
1
100
AcDbArc
50
0.870609
51
107.273902
0
ARC
5
A1
100
AcDbEntity
8
1
62
256
6
ByLayer
370
18
48
1
60
0
100
AcDbCircle
39
0
10
-171
20
0
30
0
40
15.996
210
0
220
0
230
-1
100
AcDbArc
50
62.054416
51
71.697101
0
ARC
5
A2
100
AcDbEntity
8
1
62
256
6
ByLayer
370
18
48
1
60
0
100
AcDbCircle
39
0
10
-171
20
0
30
0
40
14.7698283579379
210
0
220
0
230
-1
100
AcDbArc
50
59.50002
51
65.516865
0
ARC
5
A3
100
AcDbEntity
8
1
62
256
6
ByLayer
370
18
48
1
60
0
100
AcDbCircle
39
0
10
-171
20
0
30
0
40
15.9545514704743
210
0
220
0
230
-1
100
AcDbArc
50
180.46512
51
298.024576
0
ARC
5
A4
100
AcDbEntity
8
1
62
256
6
ByLayer
370
18
48
1
60
0
100
AcDbCircle
39
0
10
-171
20
0
30
0
40
14.7698283579379
210
0
220
0
230
-1
100
AcDbArc
50
184.483135
51
300.49998
0
ARC
5
A5
100
AcDbEntity
8
1
62
256
6
ByLayer
370
18
48
1
60
0
100
AcDbCircle
39
0
10
-171
20
0
30
0
40
15.9545514704743
210
0
220
0
230
-1
100
AcDbArc
50
61.975424
51
71.006326
0
ARC
5
A7
100
AcDbEntity
8
1
62
256
6
ByLayer
370
18
48
1
60
0
100
AcDbCircle
39
0
10
-82.999962
20
-16.0625
30
0
40
3
210
0
220
0
230
-1
100
AcDbArc
50
1.27016
51
90
0
CIRCLE
5
9E
100
AcDbEntity
8
1
62
256
6
ByLayer
370
18
48
1
60
0
100
AcDbCircle
10
-171
20
0
30
0
40
4
39
0
210
0
220
0
230
-1
0
CIRCLE
5
A6
100
AcDbEntity
8
1
62
256
6
ByLayer
370
18
48
1
60
0
100
AcDbCircle
10
-171
20
0
30
0
40
4.00375
39
0
210
0
220
0
230
-1
0
ELLIPSE
5
A8
100
AcDbEntity
8
1
62
256
6
ByLayer
370
18
48
1
60
0
100
AcDbEllipse
10
162.768116
20
-6E-06
30
0
11
2.58426113485835E-08
21
12.9974937749173
31
0
210
0
220
0
230
1
40
0.017455
41
-2.93217218471602
42
-2.86838797842922
0
ELLIPSE
5
A9
100
AcDbEntity
8
1
62
256
6
ByLayer
370
18
48
1
60
0
100
AcDbEllipse
10
162.768116
20
0
30
0
11
-1.56459109631617E-09
21
12.9974995942022
31
0
210
0
220
0
230
1
40
0.017455
41
-0.273204614286098
42
-0.209420422698286
0
ELLIPSE
5
AA
100
AcDbEntity
8
1
62
256
6
ByLayer
370
18
48
1
60
0
100
AcDbEllipse
10
179.579938
20
5.9409
30
0
11
-4.41802720590086
21
3.5916326061227
31
0
210
0
220
0
230
1
40
0.03342
41
-3.05338722211024
42
-2.91450004111922
0
ELLIPSE
5
AB
100
AcDbEntity
8
1
62
256
6
ByLayer
370
18
48
1
60
0
100
AcDbEllipse
10
181.306968
20
12.283367
30
0
11
13.2049763077012
21
15.7370779061138
31
0
210
0
220
0
230
1
40
0.62511
41
-1.92704137222904
42
-1.8610279667164
0
ELLIPSE
5
AC
100
AcDbEntity
8
1
62
256
6
ByLayer
370
18
48
1
60
0
100
AcDbEllipse
10
177.025779
20
8.605704
30
0
11
9.55843287454944
21
13.6508568604106
31
0
210
0
220
0
230
1
40
0.776258
41
1.63843718188703
42
1.75214841102815
0
ELLIPSE
5
AD
100
AcDbEntity
8
1
62
256
6
ByLayer
370
18
48
1
60
0
100
AcDbEllipse
10
175.262908
20
4.959588
30
0
11
9.08643058972005
21
10.973981269649
31
0
210
0
220
0
230
1
40
0.887613
41
-1.31997304955362
42
-1.31711997360986
0
ELLIPSE
5
AE
100
AcDbEntity
8
1
62
256
6
ByLayer
370
18
48
1
60
0
100
AcDbEllipse
10
177.025828
20
8.60565
30
0
11
9.55843049767513
21
13.650799768664
31
0
210
0
220
0
230
1
40
0.776256
41
-1.75214652982348
42
-1.73463703400716
0
POINT
5
6C
100
AcDbEntity
8
80
62
256
6
ByLayer
370
18
48
1
60
0
100
AcDbPoint
10
0
20
0
30
0
39
0
210
0
220
0
230
1
50
360
0
POINT
5
6E
100
AcDbEntity
8
81
62
256
6
ByLayer
370
18
48
1
60
0
100
AcDbPoint
10
187.0007
20
0
30
0
39
0
210
0
220
0
230
1
50
360
0
SPLINE
5
AF
100
AcDbEntity
8
1
62
256
6
ByLayer
370
18
48
1
60
0
100
AcDbSpline
70
4
71
3
72
16
73
12
40
0
40
0
40
0
40
0
40
0.209211849298244
40
0.209211849298244
40
0.418291576574581
40
0.418291576574581
40
0.629438653833408
40
0.629438653833408
40
0.84502823392449
40
0.84502823392449
40
1
40
1
40
1
40
1
41
1
10
162.825105090342
20
-12.7156829097738
30
0
41
1
10
162.824003429835
20
-12.7156788388672
30
0
41
1
10
162.822890016446
20
-12.7156350281867
30
0
41
1
10
162.820825183163
20
-12.7154757848732
30
0
41
1
10
162.819845473606
20
-12.715358269007
30
0
41
1
10
162.818138268777
20
-12.7150660949802
30
0
41
1
10
162.817390139617
20
-12.7148869898941
30
0
41
1
10
162.816214365313
20
-12.7144894543349
30
0
41
1
10
162.815777582695
20
-12.7142649075315
30
0
41
1
10
162.815351183663
20
-12.7138681062441
30
0
41
1
10
162.815267109026
20
-12.7136958409913
30
0
41
1
10
162.815281137455
20
-12.7135250278431
30
0
0
SPLINE
5
B0
100
AcDbEntity
8
1
62
256
6
ByLayer
370
18
48
1
60
0
100
AcDbSpline
70
4
71
2
72
6
73
3
40
0
40
0
40
0
40
1
40
1
40
1
41
0.499999848786261
10
163.515
20
-12.7182262846993
30
0
41
0.500000151213739
10
163.170018050748
20
-12.7169574480301
30
0
41
0.499999848786261
10
162.825105090342
20
-12.7156829097738
30
0
0
SPLINE
5
B1
100
AcDbEntity
8
1
62
256
6
ByLayer
370
18
48
1
60
0
100
AcDbSpline
70
4
71
3
72
36
73
32
40
0
40
0
40
0
40
0
40
0.124999999999998
40
0.124999999999998
40
0.187499999999998
40
0.187499999999998
40
0.249999999999998
40
0.249999999999998
40
0.312499999999999
40
0.312499999999999
40
0.374999999999999
40
0.374999999999999
40
0.437499999999999
40
0.437499999999999
40
0.499999999999999
40
0.499999999999999
40
0.562499999999999
40
0.562499999999999
40
0.624999999999999
40
0.624999999999999
40
0.687499999999999
40
0.687499999999999
40
0.75
40
0.75
40
0.8125
40
0.8125
40
0.875
40
0.875
40
0.9375
40
0.9375
40
1
40
1
40
1
40
1
41
1
10
172.301499135612
20
5.86030005854246
30
0
41
1
10
172.950733412825
20
5.6918873336889
30
0
41
1
10
173.552387995847
20
5.42374561596301
30
0
41
1
10
174.385416219798
20
4.87595574874848
30
0
41
1
10
174.650894398244
20
4.66798412910307
30
0
41
1
10
175.136999649134
20
4.21802061959531
30
0
41
1
10
175.360554103605
20
3.97430348939489
30
0
41
1
10
175.76821219027
20
3.44896181992277
30
0
41
1
10
175.952274465513
20
3.16621453056163
30
0
41
1
10
176.266956578438
20
2.582912635393
30
0
41
1
10
176.399655373588
20
2.280019781595
30
0
41
1
10
176.615395466982
20
1.65158012369531
30
0
41
1
10
176.698241713168
20
1.32429618158562
30
0
41
1
10
176.807477224099
20
0.670176386980984
30
0
41
1
10
176.835071591205
20
0.340663130023842
30
0
41
1
10
176.836024360464
20
-0.323287278291048
30
0
41
1
10
176.808624867465
20
-0.659881972409949
30
0
41
1
10
176.70041469469
20
-1.31460324602028
30
0
41
1
10
176.619947080078
20
-1.63531938376559
30
0
41
1
10
176.406315033211
20
-2.26346977339398
30
0
41
1
10
176.271596505577
20
-2.5731173656562
30
0
41
1
10
175.957292183059
20
-3.1580720759072
30
0
41
1
10
175.777416632112
20
-3.43552217760379
30
0
41
1
10
175.372424787259
20
-3.9605041022763
30
0
41
1
10
175.14494935288
20
-4.20987973305375
30
0
41
1
10
174.658050890347
20
-4.66211807975242
30
0
41
1
10
174.398096060954
20
-4.86648842604453
30
0
41
1
10
173.845455671965
20
-5.23210096807088
30
0
41
1
10
173.550289384672
20
-5.39427371657597
30
0
41
1
10
172.940738703154
20
-5.66588960821311
30
0
41
1
10
172.626117433078
20
-5.77609339550521
30
0
41
1
10
172.301499135612
20
-5.86030005854244
30
0
0
SPLINE
5
B2
100
AcDbEntity
8
1
62
256
6
ByLayer
370
18
48
1
60
0
100
AcDbSpline
70
4
71
3
72
16
73
12
40
0
40
0
40
0
40
0
40
0.225348206279254
40
0.225348206279254
40
0.45095668109098
40
0.45095668109098
40
0.672229889689301
40
0.672229889689301
40
0.885224097446599
40
0.885224097446599
40
1
40
1
40
1
40
1
41
1
10
162.829330324637
20
-12.5154380472499
30
0
41
1
10
162.829350419338
20
-12.5151154611227
30
0
41
1
10
162.829574832536
20
-12.5147891613368
30
0
41
1
10
162.830400985145
20
-12.514182816434
30
0
41
1
10
162.831015244577
20
-12.5138942634848
30
0
41
1
10
162.832536673097
20
-12.5134031306124
30
0
41
1
10
162.833460386157
20
-12.5131920604944
30
0
41
1
10
162.835455907923
20
-12.5128809750075
30
0
41
1
10
162.83654943668
20
-12.5127728393575
30
0
41
1
10
162.838268609561
20
-12.5126911805648
30
0
41
1
10
162.838887905856
20
-12.5126780863851
30
0
41
1
10
162.839503325653
20
-12.5126811055658
30
0
0
SPLINE
5
B3
100
AcDbEntity
8
1
62
256
6
ByLayer
370
18
48
1
60
0
100
AcDbSpline
70
4
71
3
72
16
73
12
40
0
40
0
40
0
40
0
40
0.204920441330289
40
0.204920441330289
40
0.409640731673858
40
0.409640731673858
40
0.617494081723271
40
0.617494081723271
40
0.832712470958373
40
0.832712470958373
40
1
40
1
40
1
40
1
41
1
10
162.839503325653
20
12.5126811055658
30
0
41
1
10
162.838416169252
20
12.5126757720982
30
0
41
1
10
162.837310586976
20
12.5127217276365
30
0
41
1
10
162.835247656605
20
12.5129073854625
30
0
41
1
10
162.834262194726
20
12.513049413022
30
0
41
1
10
162.832522438507
20
12.5134092868322
30
0
41
1
10
162.831748497885
20
12.5136329255766
30
0
41
1
10
162.830494590981
20
12.5141364950494
30
0
41
1
10
162.83000879521
20
12.5144248118409
30
0
41
1
10
162.829472875196
20
12.514954922471
30
0
41
1
10
162.82934532727
20
12.5151972055719
30
0
41
1
10
162.829330324637
20
12.5154380472499
30
0
0
SPLINE
5
B4
100
AcDbEntity
8
1
62
256
6
ByLayer
370
18
48
1
60
0
100
AcDbSpline
70
4
71
3
72
54
73
50
40
0
40
0
40
0
40
0
40
0.0625000000000024
40
0.0625000000000024
40
0.0937500000000027
40
0.0937500000000027
40
0.125000000000003
40
0.125000000000003
40
0.187500000000004
40
0.187500000000004
40
0.250000000000004
40
0.250000000000004
40
0.281250000000005
40
0.281250000000005
40
0.312500000000005
40
0.312500000000005
40
0.375000000000004
40
0.375000000000004
40
0.406250000000004
40
0.406250000000004
40
0.437500000000003
40
0.437500000000003
40
0.468750000000003
40
0.468750000000003
40
0.500000000000002
40
0.500000000000002
40
0.531250000000002
40
0.531250000000002
40
0.562500000000002
40
0.562500000000002
40
0.625000000000001
40
0.625000000000001
40
0.656250000000001
40
0.656250000000001
40
0.687500000000001
40
0.687500000000001
40
0.718750000000001
40
0.718750000000001
40
0.750000000000001
40
0.750000000000001
40
0.781250000000001
40
0.781250000000001
40
0.812500000000001
40
0.812500000000001
40
0.875
40
0.875
40
0.9375
40
0.9375
40
1
40
1
40
1
40
1
41
1
10
172.301499135612
20
-5.86030005854244
30
0
41
1
10
171.827863169221
20
-5.96644326137962
30
0
41
1
10
171.350590857075
20
-6.02282960903189
30
0
41
1
10
170.629334926049
20
-6.03587461298345
30
0
41
1
10
170.388018847504
20
-6.02818801155325
30
0
41
1
10
169.903534590916
20
-5.98789944541389
30
0
41
1
10
169.66205867525
20
-5.95528661605351
30
0
41
1
10
168.952894256071
20
-5.82268092208459
30
0
41
1
10
168.495002003638
20
-5.68800584552375
30
0
41
1
10
167.608290228472
20
-5.3235996557235
30
0
41
1
10
167.190396239191
20
-5.09786196271475
30
0
41
1
10
166.609067078846
20
-4.69870269265684
30
0
41
1
10
166.422383395617
20
-4.55522148848374
30
0
41
1
10
166.063576350981
20
-4.24605575750016
30
0
41
1
10
165.89252073166
20
-4.08106690196587
30
0
41
1
10
165.413708993572
20
-3.56354909788661
30
0
41
1
10
165.135795866239
20
-3.18556672999779
30
0
41
1
10
164.785654165874
20
-2.56232031120842
30
0
41
1
10
164.680164350319
20
-2.34431757476443
30
0
41
1
10
164.499529289421
20
-1.90219306116765
30
0
41
1
10
164.423364031872
20
-1.67647890011133
30
0
41
1
10
164.2997299831
20
-1.21549133195336
30
0
41
1
10
164.252253990076
20
-0.980220535814027
30
0
41
1
10
164.187728705756
20
-0.499461288618505
30
0
41
1
10
164.171076740928
20
-0.254065744581396
30
0
41
1
10
164.170013505824
20
0.229647196271173
30
0
41
1
10
164.185223780785
20
0.470158833325343
30
0
41
1
10
164.246744175596
20
0.948531964489177
30
0
41
1
10
164.293445800377
20
1.18780075045552
30
0
41
1
10
164.478937654601
20
1.89159962073174
30
0
41
1
10
164.65934365853
20
2.33404555812692
30
0
41
1
10
165.009068930693
20
2.96161016510246
30
0
41
1
10
165.138467941565
20
3.16342325215095
30
0
41
1
10
165.417026462243
20
3.54630325548501
30
0
41
1
10
165.566809246952
20
3.72851280494942
30
0
41
1
10
165.886868340182
20
4.07545131226021
30
0
41
1
10
166.058034632156
20
4.24091798421452
30
0
41
1
10
166.416922411121
20
4.55086784588323
30
0
41
1
10
166.603740135359
20
4.69477199023191
30
0
41
1
10
166.991770154757
20
4.96174490055583
30
0
41
1
10
167.192984399494
20
5.08480887595903
30
0
41
1
10
167.610098408997
20
5.31042976314461
30
0
41
1
10
167.827319687834
20
5.41349285846647
30
0
41
1
10
168.491522815196
20
5.68681349367253
30
0
41
1
10
168.948983081509
20
5.82165437858984
30
0
41
1
10
169.89396893198
20
5.99894379018053
30
0
41
1
10
170.385440021236
20
6.0401215955479
30
0
41
1
10
171.349191423528
20
6.02301831669106
30
0
41
1
10
171.827274344542
20
5.9665752187091
30
0
41
1
10
172.301499135612
20
5.86030005854244
30
0
0
SPLINE
5
B5
100
AcDbEntity
8
1
62
256
6
ByLayer
370
18
48
1
60
0
100
AcDbSpline
70
2053
71
3
72
70
73
66
40
0
40
0
40
0
40
0
40
0.03125
40
0.03125
40
0.0625
40
0.0625
40
0.09375
40
0.09375
40
0.125
40
0.125
40
0.15625
40
0.15625
40
0.1875
40
0.1875
40
0.21875
40
0.21875
40
0.25
40
0.25
40
0.28125
40
0.28125
40
0.3125
40
0.3125
40
0.34375
40
0.34375
40
0.375
40
0.375
40
0.40625
40
0.40625
40
0.4375
40
0.4375
40
0.46875
40
0.46875
40
0.5
40
0.5
40
0.53125
40
0.53125
40
0.5625
40
0.5625
40
0.59375
40
0.59375
40
0.625
40
0.625
40
0.65625
40
0.65625
40
0.6875
40
0.6875
40
0.71875
40
0.71875
40
0.75
40
0.75
40
0.78125
40
0.78125
40
0.8125
40
0.8125
40
0.84375
40
0.84375
40
0.875
40
0.875
40
0.90625
40
0.90625
40
0.9375
40
0.9375
40
0.96875
40
0.96875
40
1
40
1
40
1
40
1
41
1
10
167.800057414451
20
2.88729413970729
30
0
41
1
10
167.990835986276
20
3.09873102381178
30
0
41
1
10
168.20070683896
20
3.2894565862679
30
0
41
1
10
168.655983771608
20
3.62796840606725
30
0
41
1
10
168.89623061678
20
3.77204404868323
30
0
41
1
10
169.400836683008
20
4.01208656543787
30
0
41
1
10
169.6682028353
20
4.10867691767163
30
0
41
1
10
170.212429388533
20
4.24672135107335
30
0
41
1
10
170.488117151074
20
4.28862088928847
30
0
41
1
10
171.046562594128
20
4.31881061264491
30
0
41
1
10
171.331317570148
20
4.30633104068397
30
0
41
1
10
171.884860911987
20
4.22744361649984
30
0
41
1
10
172.156281671631
20
4.16154755143583
30
0
41
1
10
172.688159139528
20
3.97562373051579
30
0
41
1
10
172.945644017384
20
3.85603439070101
30
0
41
1
10
173.42829428386
20
3.57182288693397
30
0
41
1
10
173.657049275001
20
3.40540467458735
30
0
41
1
10
174.08076394101
20
3.02747178141374
30
0
41
1
10
174.271304783049
20
2.82029680436708
30
0
41
1
10
174.610678591482
20
2.37033946035825
30
0
41
1
10
174.760636918027
20
2.12459404747406
30
0
41
1
10
175.006291102335
20
1.61428668430983
30
0
41
1
10
175.103263423978
20
1.34912148978413
30
0
41
1
10
175.244905988144
20
0.79854409557035
30
0
41
1
10
175.288591602819
20
0.513852711631245
30
0
41
1
10
175.318966701118
20
-0.0508839823051801
30
0
41
1
10
175.306547129668
20
-0.334423281251446
30
0
41
1
10
175.224387472903
20
-0.901519600382159
30
0
41
1
10
175.156019228883
20
-1.17615677217904
30
0
41
1
10
174.967030350473
20
-1.70836494403815
30
0
41
1
10
174.844565613306
20
-1.96867677773676
30
0
41
1
10
174.55376676152
20
-2.45501829217832
30
0
41
1
10
174.386343055177
20
-2.68110713573628
30
0
41
1
10
174.008044767279
20
-3.09956794387369
30
0
41
1
10
173.795556608777
20
-3.29237712767713
30
0
41
1
10
173.344929130384
20
-3.62714643724257
30
0
41
1
10
173.104939366734
20
-3.77160176506533
30
0
41
1
10
172.595138701992
20
-4.01388616346776
30
0
41
1
10
172.328614725029
20
-4.10959530752683
30
0
41
1
10
171.787517568292
20
-4.24662298289388
30
0
41
1
10
171.509510783271
20
-4.28906666649488
30
0
41
1
10
170.946050768255
20
-4.31888684597089
30
0
41
1
10
170.667108434956
20
-4.30617574972266
30
0
41
1
10
170.114619354927
20
-4.22730026079364
30
0
41
1
10
169.838186337727
20
-4.15993092592797
30
0
41
1
10
169.308620369464
20
-3.97417554214013
30
0
41
1
10
169.055208121946
20
-3.85652223628833
30
0
41
1
10
168.571171205258
20
-3.57152206961723
30
0
41
1
10
168.34019750134
20
-3.40299217320504
30
0
41
1
10
167.921249206097
20
-3.02922409402439
30
0
41
1
10
167.730496928725
20
-2.82264894473215
30
0
41
1
10
167.387922253774
20
-2.36852100550087
30
0
41
1
10
167.240261875986
20
-2.12602390487208
30
0
41
1
10
166.995313786792
20
-1.61805337952521
30
0
41
1
10
166.896532470909
20
-1.3485555984162
30
0
41
1
10
166.754869803751
20
-0.797444406349882
30
0
41
1
10
166.711863382343
20
-0.518071920332744
30
0
41
1
10
166.680950595224
20
0.0482328252775233
30
0
41
1
10
166.693888227365
20
0.337055923670903
30
0
41
1
10
166.774944517068
20
0.897280034463108
30
0
41
1
10
166.842538300265
20
1.17165955197248
30
0
41
1
10
167.032944732785
20
1.70872654259054
30
0
41
1
10
167.154657852841
20
1.96680707345979
30
0
41
1
10
167.442434787896
20
2.44922764449447
30
0
41
1
10
167.609278842626
20
2.67585725560281
30
0
41
1
10
167.800057414451
20
2.88729413970729
30
0
0
SPLINE
5
B6
100
AcDbEntity
8
1
62
256
6
ByLayer
370
18
48
1
60
0
100
AcDbSpline
70
4
71
3
72
16
73
12
40
0
40
0
40
0
40
0
40
0.221026346015109
40
0.221026346015109
40
0.442187273513666
40
0.442187273513666
40
0.661124196195394
40
0.661124196195394
40
0.875415081514002
40
0.875415081514002
40
1
40
1
40
1
40
1
41
1
10
162.815281137455
20
12.7135250278431
30
0
41
1
10
162.815261265286
20
12.7137669956251
30
0
41
1
10
162.815440836929
20
12.714012853682
30
0
41
1
10
162.816171952569
20
12.7144718864092
30
0
41
1
10
162.816734155689
20
12.7146914551768
30
0
41
1
10
162.818155658572
20
12.7150709589544
30
0
41
1
10
162.819032277051
20
12.7152367901869
30
0
41
1
10
162.820958285831
20
12.7154900486819
30
0
41
1
10
162.822030798283
20
12.7155825596506
30
0
41
1
10
162.823778126017
20
12.7156639173554
30
0
41
1
10
162.824442687866
20
12.7156804620336
30
0
41
1
10
162.825105090342
20
12.7156829097738
30
0
0
SPLINE
5
B7
100
AcDbEntity
8
1
62
256
6
ByLayer
370
18
48
1
60
0
100
AcDbSpline
70
4
71
2
72
6
73
3
40
0
40
0
40
0
40
1
40
1
40
1
41
0.499999966194444
10
162.839503325653
20
-12.5126811055658
30
0
41
0.500000033805556
10
163.177207024206
20
-12.5143378420972
30
0
41
0.499999966194444
10
163.515
20
-12.5159890240444
30
0
0
SPLINE
5
B8
100
AcDbEntity
8
1
62
256
6
ByLayer
370
18
48
1
60
0
100
AcDbSpline
70
4
71
2
72
6
73
3
40
0
40
0
40
0
40
1
40
1
40
1
41
0.499999642980246
10
162.825105090342
20
12.7156829097738
30
0
41
0.500000357019754
10
163.170018050753
20
12.7169574480301
30
0
41
0.499999642980246
10
163.515
20
12.7182262846993
30
0
0
SPLINE
5
B9
100
AcDbEntity
8
1
62
256
6
ByLayer
370
18
48
1
60
0
100
AcDbSpline
70
4
71
2
72
6
73
3
40
0
40
0
40
0
40
1
40
1
40
1
41
0.499999966607968
10
163.515
20
12.5159890240444
30
0
41
0.500000033392032
10
163.177207024333
20
12.5143378420977
30
0
41
0.499999966607968
10
162.839503325653
20
12.5126811055657
30
0
0
SPLINE
5
BA
100
AcDbEntity
8
1
62
256
6
ByLayer
370
18
48
1
60
0
100
AcDbSpline
70
4
71
3
72
8
73
4
40
0
40
0
40
0
40
0
40
1
40
1
40
1
40
1
41
1
10
186.995999843493
20
0.0022376271814721
30
0
41
1
10
186.990137659022
20
-0.0395413987615711
30
0
41
1
10
186.981995189763
20
-0.07393582325426
30
0
41
1
10
186.972193503397
20
-0.0934538664268416
30
0
0
SPLINE
5
BB
100
AcDbEntity
8
1
62
256
6
ByLayer
370
18
48
1
60
0
100
AcDbSpline
70
4
71
3
72
10
73
6
40
0
40
0
40
0
40
0
40
0.5
40
0.5
40
1
40
1
40
1
40
1
41
1
10
186.994153393586
20
0.243049835287167
30
0
41
1
10
186.994789751872
20
0.201173600214673
30
0
41
1
10
186.995264296316
20
0.158675524313111
30
0
41
1
10
186.995862904583
20
0.0776387069626026
30
0
41
1
10
186.99599472412
20
0.0388341982569784
30
0
41
1
10
186.995999843493
20
0.0022376271814721
30
0
0
SPLINE
5
BC
100
AcDbEntity
8
1
62
256
6
ByLayer
370
18
48
1
60
0
100
AcDbSpline
70
4
71
3
72
8
73
4
40
0
40
0
40
0
40
0
40
1
40
1
40
1
40
1
41
1
10
165.822319443634
20
15.0983381635583
30
0
41
1
10
165.854250872233
20
15.1248782123194
30
0
41
1
10
165.91069773218
20
15.1567029565762
30
0
41
1
10
165.976608209715
20
15.1867557734133
30
0
0
SPLINE
5
BD
100
AcDbEntity
8
1
62
256
6
ByLayer
370
18
48
1
60
0
100
AcDbSpline
70
4
71
3
72
8
73
4
40
0
40
0
40
0
40
0
40
1
40
1
40
1
40
1
41
1
10
163.50375
20
14.0838186782391
30
0
41
1
10
163.50375
20
13.635715681148
30
0
41
1
10
163.50375
20
13.1835670505852
30
0
41
1
10
163.50375
20
12.7261174621502
30
0
0
SPLINE
5
BE
100
AcDbEntity
8
1
62
256
6
ByLayer
370
18
48
1
60
0
100
AcDbSpline
70
4
71
3
72
10
73
6
40
0
40
0
40
0
40
0
40
0.5
40
0.5
40
1
40
1
40
1
40
1
41
1
10
183.911557486372
20
2.47472468662659
30
0
41
1
10
183.800168428831
20
2.59559972378003
30
0
41
1
10
183.698312125132
20
2.72701808262107
30
0
41
1
10
183.51477566768
20
3.00479936856342
30
0
41
1
10
183.431072412291
20
3.15389678283094
30
0
41
1
10
183.34844253457
20
3.30216447246662
30
0
0
SPLINE
5
BF
100
AcDbEntity
8
1
62
256
6
ByLayer
370
18
48
1
60
0
100
AcDbSpline
70
4
71
2
72
6
73
3
40
0
40
0
40
0
40
1
40
1
40
1
41
0.500000057468497
10
165.822319443634
20
15.0983381635583
30
0
41
0.499999942531503
10
165.814841822044
20
15.0921230817303
30
0
41
0.500000057468497
10
165.807371730369
20
15.0858981925985
30
0
0
SPLINE
5
C0
100
AcDbEntity
8
1
62
256
6
ByLayer
370
18
48
1
60
0
100
AcDbSpline
70
4
71
3
72
8
73
4
40
0
40
0
40
0
40
0
40
1
40
1
40
1
40
1
41
1
10
163.50375
20
-12.7261174621502
30
0
41
1
10
163.50375
20
-13.1835670505852
30
0
41
1
10
163.50375
20
-13.635715681148
30
0
41
1
10
163.50375
20
-14.083818678239
30
0
0
SPLINE
5
C1
100
AcDbEntity
8
1
62
256
6
ByLayer
370
18
48
1
60
0
100
AcDbSpline
70
4
71
3
72
8
73
4
40
0
40
0
40
0
40
0
40
1
40
1
40
1
40
1
41
1
10
165.976608209715
20
15.1867557734132
30
0
41
1
10
166.061270952771
20
15.2147600512692
30
0
41
1
10
166.155127242929
20
15.244970518408
30
0
41
1
10
166.250148475682
20
15.274518863026
30
0
0
LINE
5
70
100
AcDbEntity
8
1
62
256
6
ByLayer
370
18
48
1
60
0
100
AcDbLine
10
84
20
-12.9975
30
0
11
163.515
21
-12.9975
31
0
39
0
210
0
220
0
230
1
0
LINE
5
72
100
AcDbEntity
8
1
62
256
6
ByLayer
370
18
48
1
60
0
100
AcDbLine
10
163.515
20
12.9975
30
0
11
84
21
12.9975
31
0
39
0
210
0
220
0
230
1
0
LINE
5
73
100
AcDbEntity
8
1
62
256
6
ByLayer
370
18
48
1
60
0
100
AcDbLine
10
84
20
13.0625
30
0
11
82.999962
21
13.0625
31
0
39
0
210
0
220
0
230
1
0
LINE
5
74
100
AcDbEntity
8
1
62
256
6
ByLayer
370
18
48
1
60
0
100
AcDbLine
10
82.999962
20
-13.0625
30
0
11
84
21
-13.0625
31
0
39
0
210
0
220
0
230
1
0
LINE
5
75
100
AcDbEntity
8
1
62
256
6
ByLayer
370
18
48
1
60
0
100
AcDbLine
10
80.0007
20
15.996
30
0
11
60.0007
21
15.996
31
0
39
0
210
0
220
0
230
1
0
LINE
5
76
100
AcDbEntity
8
SK1
62
256
6
ByLayer
370
18
48
1
60
0
100
AcDbLine
10
1.9985
20
-15.996
30
0
11
60.0007
21
-15.996
31
0
39
0
210
0
220
0
230
1
0
LINE
5
78
100
AcDbEntity
8
1
62
256
6
ByLayer
370
18
48
1
60
0
100
AcDbLine
10
182
20
-6.110964
30
0
11
182
21
0.232752
31
0
39
0
210
0
220
0
230
1
0
LINE
5
79
100
AcDbEntity
8
SK1
62
256
6
ByLayer
370
18
48
1
60
0
100
AcDbLine
10
1.9985
20
0
30
0
11
1.9985
21
15.996
31
0
39
0
210
0
220
0
230
1
0
LINE
5
7A
100
AcDbEntity
8
SK1
62
256
6
ByLayer
370
18
48
1
60
0
100
AcDbLine
10
1.9985
20
-15.996
30
0
11
1.9985
21
0
31
0
39
0
210
0
220
0
230
1
0
LINE
5
7B
100
AcDbEntity
8
1
62
256
6
ByLayer
370
18
48
1
60
0
100
AcDbLine
10
163.515
20
12.515989
30
0
11
164.457719
21
12.515989
31
0
39
0
210
0
220
0
230
1
0
LINE
5
7C
100
AcDbEntity
8
1
62
256
6
ByLayer
370
18
48
1
60
0
100
AcDbLine
10
164.457719
20
12.515989
30
0
11
172.301499
21
7.023715
31
0
39
0
210
0
220
0
230
1
0
LINE
5
7D
100
AcDbEntity
8
1
62
256
6
ByLayer
370
18
48
1
60
0
100
AcDbLine
10
172.301499
20
7.023715
30
0
11
172.301499
21
5.8603
31
0
39
0
210
0
220
0
230
1
0
LINE
5
7E
100
AcDbEntity
8
1
62
256
6
ByLayer
370
18
48
1
60
0
100
AcDbLine
10
82.999962
20
-13.0625
30
0
11
82.999962
21
13.0625
31
0
39
0
210
0
220
0
230
1
0
LINE
5
7F
100
AcDbEntity
8
SK1
62
256
6
ByLayer
370
18
48
1
60
0
100
AcDbLine
10
0
20
13.9975
30
0
11
0
21
0
31
0
39
0
210
0
220
0
230
1
0
LINE
5
80
100
AcDbEntity
8
SK1
62
256
6
ByLayer
370
18
48
1
60
0
100
AcDbLine
10
0
20
0
30
0
11
0
21
-13.9975
31
0
39
0
210
0
220
0
230
1
0
LINE
5
81
100
AcDbEntity
8
1
62
256
6
ByLayer
370
18
48
1
60
0
100
AcDbLine
10
172.301499
20
-5.8603
30
0
11
172.301499
21
-12.515989
31
0
39
0
210
0
220
0
230
1
0
LINE
5
82
100
AcDbEntity
8
1
62
256
6
ByLayer
370
18
48
1
60
0
100
AcDbLine
10
172.301499
20
7.023715
30
0
11
182
21
0.232752
31
0
39
0
210
0
220
0
230
1
0
LINE
5
83
100
AcDbEntity
8
1
62
256
6
ByLayer
370
18
48
1
60
0
100
AcDbLine
10
172.301499
20
-12.515989
30
0
11
163.515
21
-12.515989
31
0
39
0
210
0
220
0
230
1
0
LINE
5
84
100
AcDbEntity
8
1
62
256
6
ByLayer
370
18
48
1
60
0
100
AcDbLine
10
84
20
13.0625
30
0
11
84
21
0
31
0
39
0
210
0
220
0
230
1
0
LINE
5
85
100
AcDbEntity
8
1
62
256
6
ByLayer
370
18
48
1
60
0
100
AcDbLine
10
84
20
0
30
0
11
84
21
-13.0625
31
0
39
0
210
0
220
0
230
1
0
LINE
5
86
100
AcDbEntity
8
1
62
256
6
ByLayer
370
18
48
1
60
0
100
AcDbLine
10
162.825105
20
12.715683
30
0
11
162.825105
21
12.580579
31
0
39
0
210
0
220
0
230
1
0
LINE
5
87
100
AcDbEntity
8
1
62
256
6
ByLayer
370
18
48
1
60
0
100
AcDbLine
10
162.825105
20
-12.580579
30
0
11
162.825105
21
-12.715683
31
0
39
0
210
0
220
0
230
1
0
LINE
5
88
100
AcDbEntity
8
1
62
256
6
ByLayer
370
18
48
1
60
0
100
AcDbLine
10
80.0007
20
0
30
0
11
80.0007
21
15.996
31
0
39
0
210
0
220
0
230
1
0
LINE
5
89
100
AcDbEntity
8
1
62
256
6
ByLayer
370
18
48
1
60
0
100
AcDbLine
10
80.0007
20
-15.996
30
0
11
80.0007
21
0
31
0
39
0
210
0
220
0
230
1
0
LINE
5
8A
100
AcDbEntity
8
1
62
256
6
ByLayer
370
18
48
1
60
0
100
AcDbLine
10
186.994153
20
0.24305
30
0
11
183.348443
21
3.302164
31
0
39
0
210
0
220
0
230
1
0
LINE
5
8B
100
AcDbEntity
8
1
62
256
6
ByLayer
370
18
48
1
60
0
100
AcDbLine
10
163.50375
20
12.726117
30
0
11
163.50375
21
12.515739
31
0
39
0
210
0
220
0
230
1
0
LINE
5
8C
100
AcDbEntity
8
1
62
256
6
ByLayer
370
18
48
1
60
0
100
AcDbLine
10
163.50375
20
-12.515739
30
0
11
163.50375
21
-12.726117
31
0
39
0
210
0
220
0
230
1
0
LINE
5
8D
100
AcDbEntity
8
1
62
256
6
ByLayer
370
18
48
1
60
0
100
AcDbLine
10
185.724638
20
-1.154493
30
0
11
164.879008
21
13.441774
31
0
39
0
210
0
220
0
230
1
0
LINE
5
8E
100
AcDbEntity
8
1
62
256
6
ByLayer
370
18
48
1
60
0
100
AcDbLine
10
166.250148
20
15.274519
30
0
11
183.348443
21
3.302164
31
0
39
0
210
0
220
0
230
1
0
LINE
5
8F
100
AcDbEntity
8
1
62
256
6
ByLayer
370
18
48
1
60
0
100
AcDbLine
10
186.972194
20
-0.093454
30
0
11
183.911557
21
2.474725
31
0
39
0
210
0
220
0
230
1
0
LINE
5
90
100
AcDbEntity
8
1
62
256
6
ByLayer
370
18
48
1
60
0
100
AcDbLine
10
183.991364
20
2.376237
30
0
11
185.921377
21
-0.941341
31
0
39
0
210
0
220
0
230
1
0
LINE
5
91
100
AcDbEntity
8
1
62
256
6
ByLayer
370
18
48
1
60
0
100
AcDbLine
10
165.822319
20
15.098338
30
0
11
183.991364
21
2.376237
31
0
39
0
210
0
220
0
230
1
0
LINE
5
92
100
AcDbEntity
8
SK1
62
256
6
ByLayer
370
18
48
1
60
0
100
AcDbLine
10
1.9985
20
15.996
30
0
11
0
21
13.9975
31
0
39
0
210
0
220
0
230
1
0
LINE
5
93
100
AcDbEntity
8
SK1
62
256
6
ByLayer
370
18
48
1
60
0
100
AcDbLine
10
0
20
-13.9975
30
0
11
1.9985
21
-15.996
31
0
39
0
210
0
220
0
230
1
0
LINE
5
94
100
AcDbEntity
8
4
62
256
6
ByLayer
370
18
48
0.05
60
0
100
AcDbLine
10
60.0007
20
0
30
0
11
187.0007
21
0
31
0
39
0
210
0
220
0
230
1
0
LINE
5
96
100
AcDbEntity
8
SK4
62
256
6
ByLayer
370
18
48
0.05
60
0
100
AcDbLine
10
-5
20
0
30
0
11
195
21
0
31
0
39
0
210
0
220
0
230
1
0
LINE
5
98
100
AcDbEntity
8
80
62
256
6
ByLayer
370
18
48
1
60
0
100
AcDbLine
10
0
20
0
30
0
11
-10.198737
21
0
31
0
39
0
210
0
220
0
230
1
0
LINE
5
99
100
AcDbEntity
8
81
62
256
6
ByLayer
370
18
48
1
60
0
100
AcDbLine
10
187.0007
20
0
30
0
11
196.953243
21
0
31
0
39
0
210
0
220
0
230
1
0
LINE
5
9A
100
AcDbEntity
8
SK1
62
256
6
ByLayer
370
18
48
1
60
0
100
AcDbLine
10
60.0007
20
15.996
30
0
11
1.9985
21
15.996
31
0
39
0
210
0
220
0
230
1
0
LINE
5
9B
100
AcDbEntity
8
1
62
256
6
ByLayer
370
18
48
1
60
0
100
AcDbLine
10
60.0007
20
-15.996
30
0
11
80.0007
21
-15.996
31
0
39
0
210
0
220
0
230
1
0
MTEXT
5
C2
100
AcDbEntity
8
SK6
62
256
6
ByLayer
370
18
48
1
60
0
100
AcDbMText
10
67.746665
20
-35.983113
30
0
210
0
220
0
230
1
1
\W0.7458;R216F-32A32S-107
40
3.5
41
0
44
1.084337
50
0
71
7
72
5
7
iso_b_vert
0
DIMENSION
5
D4
100
AcDbEntity
8
2
62
256
6
ByLayer
370
13
48
1
60
0
100
AcDbDimension
2
DimnDraft3D1
10
187.0007
20
45.419688
30
0
11
120.539515
21
45.419688
31
0
70
32
71
5
72
1
41
1
210
0
220
0
230
1
3
Standard
100
AcDbAlignedDimension
13
60.0007
23
17.996
33
0
14
187.0007
24
2
34
0
50
0
100
AcDbRotatedDimension
1001
ACAD
1000
DSTYLE
1002
{
1070
   279
1070
     0
1070
   172
1070
     1
1070
   173
1070
     1
1070
   340
1005
C3
1070
   271
1070
     1
1070
   272
1070
     2
1070
    77
1070
     1
1070
    73
1070
     0
1070
   171
1070
     3
1070
   274
1070
     4
1070
   177
1070
    60
1070
   176
1070
    60
1070
   178
1070
    60
1070
    78
1070
     8
1070
    48
1040
0.005
1070
    41
1041
3.175
1070
   147
1041
1.75
1070
    42
1041
2.0
1070
    44
1041
2.0
1070
   140
1041
3.5
1070
   343
1005
0
1070
   344
1005
0
1002
}
0
DIMENSION
5
E3
100
AcDbEntity
8
SK2
62
256
6
ByLayer
370
13
48
1
60
0
100
AcDbDimension
2
DimnDraft3D2
10
187.0007
20
59.715766
30
0
11
90.539166
21
59.715766
31
0
70
32
71
5
72
1
41
1
210
0
220
0
230
1
3
Standard
100
AcDbAlignedDimension
13
0
23
15.9975
33
0
14
187.0007
24
2
34
0
50
0
100
AcDbRotatedDimension
1001
ACAD
1000
DSTYLE
1002
{
1070
   279
1070
     0
1070
   172
1070
     1
1070
   173
1070
     1
1070
   340
1005
C3
1070
   271
1070
     1
1070
   272
1070
     2
1070
    77
1070
     1
1070
    73
1070
     0
1070
   171
1070
     3
1070
   274
1070
     4
1070
   177
1070
    60
1070
   176
1070
    60
1070
   178
1070
    60
1070
    78
1070
     8
1070
    48
1040
0.005
1070
    41
1041
3.175
1070
   147
1041
1.75
1070
    42
1041
2.0
1070
    44
1041
2.0
1070
   140
1041
3.5
1070
   343
1005
0
1070
   344
1005
0
1002
}
0
DIMENSION
5
F2
100
AcDbEntity
8
SK2
62
256
6
ByLayer
370
13
48
1
60
0
100
AcDbDimension
2
DimnDraft3D3
10
-18.785251
20
-15.996
30
0
11
-19.410251
21
3.159211
31
0
70
33
71
5
72
1
41
1
210
0
220
0
230
1
3
Standard
100
AcDbAlignedDimension
13
-0.0015
23
15.996
33
0
14
-0.0015
24
-15.996
34
0
1001
ACAD
1000
DSTYLE
1002
{
1070
   279
1070
     0
1070
    74
1070
     0
1070
   173
1070
     1
1070
   340
1005
C3
1070
   271
1070
     1
1070
   272
1070
     2
1070
    77
1070
     1
1070
    73
1070
     0
1070
   171
1070
     3
1070
   274
1070
     4
1070
   177
1070
    60
1070
   176
1070
    60
1070
   178
1070
    60
1070
    78
1070
     8
1070
    48
1040
0.005
1070
    41
1041
3.175
1070
   147
1041
1.75
1070
    42
1041
2.0
1070
    44
1041
2.0
1070
   140
1041
3.5
1070
   343
1005
0
1070
   344
1005
0
1002
}
0
DIMENSION
5
101
100
AcDbEntity
8
2
62
256
6
ByLayer
370
13
48
1
60
0
100
AcDbDimension
2
DimnDraft3D4
10
210.362082
20
-16.823624
30
0
11
206.139057
21
2.424201
31
0
70
33
71
5
72
1
41
1
210
0
220
0
230
1
3
Standard
100
AcDbAlignedDimension
13
173.334395
23
15.950631
33
0
14
172.664729
24
-16.03436
34
0
1001
ACAD
1000
DSTYLE
1002
{
1070
   279
1070
     0
1070
    74
1070
     0
1070
   173
1070
     1
1070
   340
1005
C3
1070
   271
1070
     1
1070
   272
1070
     2
1070
    77
1070
     1
1070
    73
1070
     0
1070
   171
1070
     3
1070
   274
1070
     4
1070
   177
1070
    60
1070
   176
1070
    60
1070
   178
1070
    60
1070
    78
1070
     8
1070
    48
1040
0.005
1070
    41
1041
3.175
1070
   147
1041
1.75
1070
    42
1041
2.0
1070
    44
1041
2.0
1070
   140
1041
3.5
1070
   343
1005
0
1070
   344
1005
0
1002
}
0
DIMENSION
5
10F
100
AcDbEntity
8
2
62
256
6
ByLayer
370
13
48
1
60
0
100
AcDbDimension
2
DimnDraft3D5
10
166.250148
20
23.146719
30
0
11
172.606361
21
23.146719
31
0
70
32
71
5
72
1
41
1
210
0
220
0
230
1
3
Standard
100
AcDbAlignedDimension
13
186.994153
23
2.24305
33
0
14
166.250148
24
17.274519
34
0
50
0
100
AcDbRotatedDimension
1001
ACAD
1000
DSTYLE
1002
{
1070
   279
1070
     0
1070
   172
1070
     1
1070
   173
1070
     1
1070
   340
1005
C3
1070
   271
1070
     1
1070
   272
1070
     2
1070
    77
1070
     1
1070
    73
1070
     0
1070
   171
1070
     3
1070
   274
1070
     4
1070
   177
1070
    60
1070
   176
1070
    60
1070
   178
1070
    60
1070
    78
1070
     8
1070
    48
1040
0.005
1070
    41
1041
3.175
1070
   147
1041
1.75
1070
    42
1041
2.0
1070
    44
1041
2.0
1070
   140
1041
3.5
1070
   343
1005
0
1070
   344
1005
0
1002
}
0
DIMENSION
5
11D
100
AcDbEntity
8
2
62
256
6
ByLayer
370
13
48
1
60
0
100
AcDbDimension
2
DimnDraft3D6
10
80.0007
20
33.395369
30
0
11
130.539515
21
33.395369
31
0
70
32
71
5
72
1
41
1
210
0
220
0
230
1
3
Standard
100
AcDbAlignedDimension
13
187.0007
23
2
33
0
14
80.0007
24
17.996
34
0
50
0
100
AcDbRotatedDimension
1001
ACAD
1000
DSTYLE
1002
{
1070
   279
1070
     0
1070
   172
1070
     1
1070
   173
1070
     1
1070
   340
1005
C3
1070
   271
1070
     1
1070
   272
1070
     2
1070
    77
1070
     1
1070
    73
1070
     0
1070
   171
1070
     3
1070
   274
1070
     4
1070
   177
1070
    60
1070
   176
1070
    60
1070
   178
1070
    60
1070
    78
1070
     8
1070
    48
1040
0.005
1070
    41
1041
3.175
1070
   147
1041
1.75
1070
    42
1041
2.0
1070
    44
1041
2.0
1070
   140
1041
3.5
1070
   343
1005
0
1070
   344
1005
0
1002
}
0
ENDSEC
0
SECTION
2
OBJECTS
0
DICTIONARY
5
188
330
0
100
AcDbDictionary
280
0
281
1
3
ACAD_GROUP
350
189
3
ACAD_MLINESTYLE
350
18a
0
DICTIONARY
5
189
330
0
100
AcDbDictionary
280
0
281
1
0
DICTIONARY
5
18a
330
0
100
AcDbDictionary
280
0
281
1
3
Standard
350
18
0
MLINESTYLE
5
18
330
18a
100
AcDbMlineStyle
2
Standard
70
0
3

62
256
51
90
52
90
71
2
49
-0.5
62
256
6
ByLayer
49
0.5
62
256
6
ByLayer
0
RASTERVARIABLES
5
176
330

100
AcDbRasterVariables
90
0
70
1
71
1
72
1
0
ENDSEC
0
EOF
