0
SECTION
2
HEADER
9
$ACADVER
1
AC1015
9
$DWGCODEPAGE
3
ANSI_1252
9
$HANDSEED
5
19f
9
$ANGBASE
50
0
9
$ANGDIR
70
0
9
$ATTMODE
70
1
9
$AUNITS
70
0
9
$AUPREC
70
0
9
$CECOLOR
62
256
9
$CELTSCALE
40
1
9
$CELTYPE
6
ByLayer
9
$CELWEIGHT
370
18
9
$CLAYER
8
0
9
$CMLJUST
70
0
9
$CMLSCALE
40
1
9
$CMLSTYLE
2
Standard
9
$DIMSTYLE
2
Standard
9
$TEXTSIZE
40
0.2
9
$TEXTSTYLE
7
Standard
9
$LUNITS
70
2
9
$LUPREC
70
4
9
$EXTNAMES
290
1
9
$INSUNITS
70
4
9
$LTSCALE
40
1
9
$LWDISPLAY
290
1
9
$PDMODE
70
0
9
$PDSIZE
40
0
9
$PLINEGEN
70
0
0
ENDSEC
0
SECTION
2
CLASSES
0
CLASS
1
RASTERVARIABLES
2
AcDbRasterVariables
3
ISM
90
0
280
0
281
0
0
ENDSEC
0
SECTION
2
TABLES
0
TABLE
2
VPORT
5
195
100
AcDbSymbolTable
0
VPORT
5
1
100
AcDbSymbolTableRecord
100
AcDbViewportTableRecord
2
*Active
70
0
10
0
20
0
11
1
21
1
12
-1
22
1
13
0
23
0
14
0.5
24
0.5
15
10
25
10
16
0
26
0
36
1
17
0
27
0
37
0
0
ENDTAB
0
TABLE
2
LTYPE
5
196
100
AcDbSymbolTable
0
LTYPE
5
14
100
AcDbSymbolTableRecord
100
AcDbLinetypeTableRecord
70
0
2
ByBlock
3

72
65
73
0
40
0
0
LTYPE
5
15
100
AcDbSymbolTableRecord
100
AcDbLinetypeTableRecord
70
0
2
ByLayer
3

72
65
73
0
40
0
0
LTYPE
5
16
100
AcDbSymbolTableRecord
100
AcDbLinetypeTableRecord
70
0
2
CONTINUOUS
3
Solid line
72
65
73
0
40
0
0
LTYPE
5
6A
100
AcDbSymbolTableRecord
100
AcDbLinetypeTableRecord
70
0
2
CENTER
3
____ _ ____ _ ____ _ ____
72
65
73
4
40
47.5
49
22
74
0
49
-8.5
74
0
49
8.5
74
0
49
-8.5
74
0
0
LTYPE
5
6B
100
AcDbSymbolTableRecord
100
AcDbLinetypeTableRecord
70
0
2
DASHED
3
__ __ __ __ __ __ __ __ __
72
65
73
2
40
25.72
49
12.86
74
0
49
-12.86
74
0
0
ENDTAB
0
TABLE
2
LAYER
5
197
100
AcDbSymbolTable
0
LAYER
5
10
100
AcDbSymbolTableRecord
100
AcDbLayerTableRecord
2
0
70
0
62
7
6
CONTINUOUS
290
1
370
-3
390
0
0
LAYER
5
6D
100
AcDbSymbolTableRecord
100
AcDbLayerTableRecord
2
81
70
0
62
-3
6
CONTINUOUS
290
1
370
-3
390
0
0
LAYER
5
6F
100
AcDbSymbolTableRecord
100
AcDbLayerTableRecord
2
80
70
0
62
-6
6
CONTINUOUS
290
1
370
-3
390
0
0
LAYER
5
75
100
AcDbSymbolTableRecord
100
AcDbLayerTableRecord
2
1
70
0
62
4
6
CONTINUOUS
290
1
370
-3
390
0
0
LAYER
5
9C
100
AcDbSymbolTableRecord
100
AcDbLayerTableRecord
2
4
70
0
62
-2
6
CENTER
290
1
370
-3
390
0
0
LAYER
5
CB
100
AcDbSymbolTableRecord
100
AcDbLayerTableRecord
2
2
70
0
62
7
6
CONTINUOUS
290
1
370
-3
390
0
0
LAYER
5
181
100
AcDbSymbolTableRecord
100
AcDbLayerTableRecord
2
SK1
70
0
62
4
6
CONTINUOUS
290
1
370
-3
390
0
0
LAYER
5
182
100
AcDbSymbolTableRecord
100
AcDbLayerTableRecord
2
SK4
70
0
62
2
6
CENTER
290
1
370
-3
390
0
0
LAYER
5
183
100
AcDbSymbolTableRecord
100
AcDbLayerTableRecord
2
SK6
70
0
62
5
6
CONTINUOUS
290
1
370
-3
390
0
0
LAYER
5
184
100
AcDbSymbolTableRecord
100
AcDbLayerTableRecord
2
SK2
70
0
62
7
6
CONTINUOUS
290
1
370
-3
390
0
0
ENDTAB
0
TABLE
2
STYLE
5
198
100
AcDbSymbolTable
0
STYLE
5
11
100
AcDbSymbolTableRecord
100
AcDbTextStyleTableRecord
2
Standard
3
txt
70
0
71
0
40
0
41
1
42
0
50
0
0
STYLE
5
C6
100
AcDbSymbolTableRecord
100
AcDbTextStyleTableRecord
2
iso_b_vert
3
simplex.shx
70
0
71
0
40
0
41
1
42
0
50
0
0
STYLE
5
C7
100
AcDbSymbolTableRecord
100
AcDbTextStyleTableRecord
2
DWGDirectTextStyle
3
simplex
70
0
71
0
40
0
41
1
42
0
50
0
0
ENDTAB
0
TABLE
2
DIMSTYLE
5
199
100
AcDbSymbolTable
100
AcDbDimStyleTable
0
DIMSTYLE
105
27
100
AcDbSymbolTableRecord
100
AcDbDimStyleTableRecord
2
Standard
70
0
3
<>
41
0.18
42
0.0625
44
0.18
140
0.18
147
0.09
73
0
74
0
77
1
271
2
275
0
278
52
280
0
340
11
0
ENDTAB
0
TABLE
2
VIEW
5
19a
100
AcDbSymbolTable
0
ENDTAB
0
TABLE
2
UCS
5
19b
100
AcDbSymbolTable
0
ENDTAB
0
TABLE
2
APPID
5
19c
100
AcDbSymbolTable
0
APPID
5
12
100
AcDbSymbolTableRecord
100
AcDbRegAppTableRecord
2
ACAD
70
0
0
ENDTAB
0
TABLE
2
BLOCK_RECORD
5
19d
100
AcDbSymbolTable
0
BLOCK_RECORD
5
1F
100
AcDbSymbolTableRecord
100
AcDbBlockTableRecord
2
*Model_Space
340
0
70
0
0
BLOCK_RECORD
5
1B
100
AcDbSymbolTableRecord
100
AcDbBlockTableRecord
2
*Paper_Space
340
0
70
0
0
BLOCK_RECORD
5
23
100
AcDbSymbolTableRecord
100
AcDbBlockTableRecord
2
*Paper_Space0
340
0
70
0
0
BLOCK_RECORD
5
C9
100
AcDbSymbolTableRecord
100
AcDbBlockTableRecord
2
DimnDraft3D1
340
0
70
0
0
BLOCK_RECORD
5
D8
100
AcDbSymbolTableRecord
100
AcDbBlockTableRecord
2
DimnDraft3D2
340
0
70
0
0
BLOCK_RECORD
5
E7
100
AcDbSymbolTableRecord
100
AcDbBlockTableRecord
2
DimnDraft3D3
340
0
70
0
0
BLOCK_RECORD
5
F6
100
AcDbSymbolTableRecord
100
AcDbBlockTableRecord
2
DimnDraft3D4
340
0
70
0
0
BLOCK_RECORD
5
105
100
AcDbSymbolTableRecord
100
AcDbBlockTableRecord
2
DimnDraft3D5
340
0
70
0
0
BLOCK_RECORD
5
113
100
AcDbSymbolTableRecord
100
AcDbBlockTableRecord
2
DimnDraft3D6
340
0
70
0
0
BLOCK_RECORD
5
121
100
AcDbSymbolTableRecord
100
AcDbBlockTableRecord
2
_CLOSED
340
0
70
0
0
ENDTAB
0
ENDSEC
0
SECTION
2
BLOCKS
0
BLOCK
5
20
100
AcDbEntity
8
0
100
AcDbBlockBegin
2
*Model_Space
70
0
10
0
20
0
30
0
3
*Model_Space
0
ENDBLK
5
21
100
AcDbEntity
8
0
100
AcDbBlockEnd
0
BLOCK
5
1C
100
AcDbEntity
8
0
100
AcDbBlockBegin
2
*Paper_Space
70
0
10
0
20
0
30
0
3
*Paper_Space
0
ENDBLK
5
1D
100
AcDbEntity
8
0
100
AcDbBlockEnd
0
BLOCK
5
24
100
AcDbEntity
8
0
100
AcDbBlockBegin
2
*Paper_Space0
70
0
10
0
20
0
30
0
3
*Paper_Space0
0
ENDBLK
5
25
100
AcDbEntity
8
0
100
AcDbBlockEnd
0
BLOCK
5
D5
100
AcDbEntity
8
0
100
AcDbBlockBegin
2
DimnDraft3D1
70
0
10
0
20
0
30
0
3
DimnDraft3D1
0
MTEXT
5
CA
100
AcDbEntity
8
2
62
256
6
ByLayer
370
18
48
1
60
0
100
AcDbMText
10
87.284211
20
24.747813
30
0
210
0
220
0
230
1
1
\W0.6740;87
40
3.5
41
0
44
1.084337
50
0
71
7
72
5
7
iso_b_vert
0
LINE
5
CC
100
AcDbEntity
8
2
62
256
6
ByLayer
370
13
48
1
60
0
100
AcDbLine
10
45
20
2
30
0
11
45
21
25.872813
31
0
39
0
210
0
220
0
230
1
0
LINE
5
CD
100
AcDbEntity
8
2
62
256
6
ByLayer
370
13
48
1
60
0
100
AcDbLine
10
132
20
2
30
0
11
132
21
25.872813
31
0
39
0
210
0
220
0
230
1
0
LINE
5
CE
100
AcDbEntity
8
2
62
256
6
ByLayer
370
13
48
1
60
0
100
AcDbLine
10
45
20
23.872813
30
0
11
132
21
23.872813
31
0
39
0
210
0
220
0
230
1
0
LINE
5
CF
100
AcDbEntity
8
2
62
256
6
ByLayer
370
13
48
1
60
0
100
AcDbLine
10
45
20
23.872813
30
0
11
48.174997
21
24.723551
31
0
39
0
210
0
220
0
230
1
0
LINE
5
D0
100
AcDbEntity
8
2
62
256
6
ByLayer
370
13
48
1
60
0
100
AcDbLine
10
45
20
23.872813
30
0
11
48.175003
21
23.022074
31
0
39
0
210
0
220
0
230
1
0
LINE
5
D1
100
AcDbEntity
8
2
62
256
6
ByLayer
370
13
48
1
60
0
100
AcDbLine
10
48.174997
20
24.723551
30
0
11
48.175003
21
23.022074
31
0
39
0
210
0
220
0
230
1
0
LINE
5
D2
100
AcDbEntity
8
2
62
256
6
ByLayer
370
13
48
1
60
0
100
AcDbLine
10
132
20
23.872813
30
0
11
128.825003
21
23.022074
31
0
39
0
210
0
220
0
230
1
0
LINE
5
D3
100
AcDbEntity
8
2
62
256
6
ByLayer
370
13
48
1
60
0
100
AcDbLine
10
132
20
23.872813
30
0
11
128.824997
21
24.723551
31
0
39
0
210
0
220
0
230
1
0
LINE
5
D4
100
AcDbEntity
8
2
62
256
6
ByLayer
370
13
48
1
60
0
100
AcDbLine
10
128.825003
20
23.022074
30
0
11
128.824997
21
24.723551
31
0
39
0
210
0
220
0
230
1
0
ENDBLK
5
D6
100
AcDbEntity
8
0
100
AcDbBlockEnd
0
BLOCK
5
E4
100
AcDbEntity
8
0
100
AcDbBlockBegin
2
DimnDraft3D2
70
0
10
0
20
0
30
0
3
DimnDraft3D2
0
MTEXT
5
D9
100
AcDbEntity
8
SK2
62
256
6
ByLayer
370
18
48
1
60
0
100
AcDbMText
10
63.913816
20
32.961287
30
0
210
0
220
0
230
1
1
\W0.6217;132
40
3.5
41
0
44
1.084337
50
0
71
7
72
5
7
iso_b_vert
0
LINE
5
DB
100
AcDbEntity
8
SK2
62
256
6
ByLayer
370
13
48
1
60
0
100
AcDbLine
10
0
20
7.4975
30
0
11
0
21
34.086287
31
0
39
0
210
0
220
0
230
1
0
LINE
5
DC
100
AcDbEntity
8
SK2
62
256
6
ByLayer
370
13
48
1
60
0
100
AcDbLine
10
132
20
2
30
0
11
132
21
34.086287
31
0
39
0
210
0
220
0
230
1
0
LINE
5
DD
100
AcDbEntity
8
SK2
62
256
6
ByLayer
370
13
48
1
60
0
100
AcDbLine
10
0
20
32.086287
30
0
11
132
21
32.086287
31
0
39
0
210
0
220
0
230
1
0
LINE
5
DE
100
AcDbEntity
8
SK2
62
256
6
ByLayer
370
13
48
1
60
0
100
AcDbLine
10
0
20
32.086287
30
0
11
3.174997
21
32.937026
31
0
39
0
210
0
220
0
230
1
0
LINE
5
DF
100
AcDbEntity
8
SK2
62
256
6
ByLayer
370
13
48
1
60
0
100
AcDbLine
10
0
20
32.086287
30
0
11
3.175003
21
31.235548
31
0
39
0
210
0
220
0
230
1
0
LINE
5
E0
100
AcDbEntity
8
SK2
62
256
6
ByLayer
370
13
48
1
60
0
100
AcDbLine
10
3.174997
20
32.937026
30
0
11
3.175003
21
31.235548
31
0
39
0
210
0
220
0
230
1
0
LINE
5
E1
100
AcDbEntity
8
SK2
62
256
6
ByLayer
370
13
48
1
60
0
100
AcDbLine
10
132
20
32.086287
30
0
11
128.825003
21
31.235548
31
0
39
0
210
0
220
0
230
1
0
LINE
5
E2
100
AcDbEntity
8
SK2
62
256
6
ByLayer
370
13
48
1
60
0
100
AcDbLine
10
132
20
32.086287
30
0
11
128.824997
21
32.937026
31
0
39
0
210
0
220
0
230
1
0
LINE
5
E3
100
AcDbEntity
8
SK2
62
256
6
ByLayer
370
13
48
1
60
0
100
AcDbLine
10
128.825003
20
31.235548
30
0
11
128.824997
21
32.937026
31
0
39
0
210
0
220
0
230
1
0
ENDBLK
5
E5
100
AcDbEntity
8
0
100
AcDbBlockEnd
0
BLOCK
5
F3
100
AcDbEntity
8
0
100
AcDbBlockBegin
2
DimnDraft3D3
70
0
10
0
20
0
30
0
3
DimnDraft3D3
0
MTEXT
5
E8
100
AcDbEntity
8
SK2
62
256
6
ByLayer
370
18
48
1
60
0
100
AcDbMText
10
-13.926599
20
27.62725
30
0
210
0
220
0
230
1
1
\W0.5321;12
40
3.5
41
0
44
1.084337
50
90
71
7
72
5
7
iso_b_vert
0
MTEXT
5
E9
100
AcDbEntity
8
SK2
62
256
6
ByLayer
370
18
48
1
60
0
100
AcDbMText
10
-13.926599
20
18.904594
30
0
210
0
220
0
230
1
1
%%c
40
3.5
41
0
44
1.084337
50
90
71
7
72
5
7
iso_b_vert
0
LINE
5
EA
100
AcDbEntity
8
SK2
62
256
6
ByLayer
370
13
48
1
60
0
100
AcDbLine
10
-1.50025
20
5.99725
30
0
11
-14.176599
21
5.99725
31
0
39
0
210
0
220
0
230
1
0
LINE
5
EB
100
AcDbEntity
8
SK2
62
256
6
ByLayer
370
13
48
1
60
0
100
AcDbLine
10
-1.50025
20
-5.99725
30
0
11
-14.176599
21
-5.99725
31
0
39
0
210
0
220
0
230
1
0
LINE
5
EC
100
AcDbEntity
8
SK2
62
256
6
ByLayer
370
13
48
1
60
0
100
AcDbLine
10
-12.176599
20
-5.99725
30
0
11
-12.176599
21
30.058829
31
0
39
0
210
0
220
0
230
1
0
LINE
5
ED
100
AcDbEntity
8
SK2
62
256
6
ByLayer
370
13
48
1
60
0
100
AcDbLine
10
-12.176599
20
5.99725
30
0
11
-11.32586
21
2.822253
31
0
39
0
210
0
220
0
230
1
0
LINE
5
EE
100
AcDbEntity
8
SK2
62
256
6
ByLayer
370
13
48
1
60
0
100
AcDbLine
10
-12.176599
20
5.99725
30
0
11
-13.027338
21
2.822247
31
0
39
0
210
0
220
0
230
1
0
LINE
5
EF
100
AcDbEntity
8
SK2
62
256
6
ByLayer
370
13
48
1
60
0
100
AcDbLine
10
-11.32586
20
2.822253
30
0
11
-13.027338
21
2.822247
31
0
39
0
210
0
220
0
230
1
0
LINE
5
F0
100
AcDbEntity
8
SK2
62
256
6
ByLayer
370
13
48
1
60
0
100
AcDbLine
10
-12.176599
20
-5.99725
30
0
11
-13.027338
21
-2.822253
31
0
39
0
210
0
220
0
230
1
0
LINE
5
F1
100
AcDbEntity
8
SK2
62
256
6
ByLayer
370
13
48
1
60
0
100
AcDbLine
10
-12.176599
20
-5.99725
30
0
11
-11.32586
21
-2.822247
31
0
39
0
210
0
220
0
230
1
0
LINE
5
F2
100
AcDbEntity
8
SK2
62
256
6
ByLayer
370
13
48
1
60
0
100
AcDbLine
10
-13.027338
20
-2.822253
30
0
11
-11.32586
21
-2.822247
31
0
39
0
210
0
220
0
230
1
0
ENDBLK
5
F4
100
AcDbEntity
8
0
100
AcDbBlockEnd
0
BLOCK
5
102
100
AcDbEntity
8
0
100
AcDbBlockBegin
2
DimnDraft3D4
70
0
10
0
20
0
30
0
3
DimnDraft3D4
0
MTEXT
5
F7
100
AcDbEntity
8
2
62
256
6
ByLayer
370
18
48
1
60
0
100
AcDbMText
10
163.314154
20
17.903344
30
0
210
0
220
0
230
1
1
%%c
40
3.5
41
0
44
1.084337
50
90
71
7
72
5
7
iso_b_vert
0
MTEXT
5
F8
100
AcDbEntity
8
2
62
256
6
ByLayer
370
18
48
1
60
0
100
AcDbMText
10
163.314154
20
26.626
30
0
210
0
220
0
230
1
1
\W0.5321;10
40
3.5
41
0
44
1.084337
50
90
71
7
72
5
7
iso_b_vert
0
LINE
5
F9
100
AcDbEntity
8
2
62
256
6
ByLayer
370
13
48
1
60
0
100
AcDbLine
10
129
20
4.996
30
0
11
167.064154
21
4.996
31
0
39
0
210
0
220
0
230
1
0
LINE
5
FA
100
AcDbEntity
8
2
62
256
6
ByLayer
370
13
48
1
60
0
100
AcDbLine
10
129
20
-4.996
30
0
11
167.064154
21
-4.996
31
0
39
0
210
0
220
0
230
1
0
LINE
5
FB
100
AcDbEntity
8
2
62
256
6
ByLayer
370
13
48
1
60
0
100
AcDbLine
10
165.064154
20
-4.996
30
0
11
165.064154
21
29.057579
31
0
39
0
210
0
220
0
230
1
0
LINE
5
FC
100
AcDbEntity
8
2
62
256
6
ByLayer
370
13
48
1
60
0
100
AcDbLine
10
165.064154
20
4.996
30
0
11
165.914893
21
1.821003
31
0
39
0
210
0
220
0
230
1
0
LINE
5
FD
100
AcDbEntity
8
2
62
256
6
ByLayer
370
13
48
1
60
0
100
AcDbLine
10
165.064154
20
4.996
30
0
11
164.213416
21
1.820997
31
0
39
0
210
0
220
0
230
1
0
LINE
5
FE
100
AcDbEntity
8
2
62
256
6
ByLayer
370
13
48
1
60
0
100
AcDbLine
10
165.914893
20
1.821003
30
0
11
164.213416
21
1.820997
31
0
39
0
210
0
220
0
230
1
0
LINE
5
FF
100
AcDbEntity
8
2
62
256
6
ByLayer
370
13
48
1
60
0
100
AcDbLine
10
165.064154
20
-4.996
30
0
11
164.213416
21
-1.821003
31
0
39
0
210
0
220
0
230
1
0
LINE
5
100
100
AcDbEntity
8
2
62
256
6
ByLayer
370
13
48
1
60
0
100
AcDbLine
10
165.064154
20
-4.996
30
0
11
165.914893
21
-1.820997
31
0
39
0
210
0
220
0
230
1
0
LINE
5
101
100
AcDbEntity
8
2
62
256
6
ByLayer
370
13
48
1
60
0
100
AcDbLine
10
164.213416
20
-1.821003
30
0
11
165.914893
21
-1.820997
31
0
39
0
210
0
220
0
230
1
0
ENDBLK
5
103
100
AcDbEntity
8
0
100
AcDbBlockEnd
0
BLOCK
5
110
100
AcDbEntity
8
0
100
AcDbBlockBegin
2
DimnDraft3D5
70
0
10
0
20
0
30
0
3
DimnDraft3D5
0
MTEXT
5
106
100
AcDbEntity
8
2
62
256
6
ByLayer
370
18
48
1
60
0
100
AcDbMText
10
92.059211
20
16.356448
30
0
210
0
220
0
230
1
1
\W0.7150;73,6
40
3.5
41
0
44
1.084337
50
0
71
7
72
5
7
iso_b_vert
0
LINE
5
107
100
AcDbEntity
8
2
62
256
6
ByLayer
370
13
48
1
60
0
100
AcDbLine
10
58.4
20
9.859674
30
0
11
58.4
21
17.481448
31
0
39
0
210
0
220
0
230
1
0
LINE
5
108
100
AcDbEntity
8
2
62
256
6
ByLayer
370
13
48
1
60
0
100
AcDbLine
10
132
20
2
30
0
11
132
21
17.481448
31
0
39
0
210
0
220
0
230
1
0
LINE
5
109
100
AcDbEntity
8
2
62
256
6
ByLayer
370
13
48
1
60
0
100
AcDbLine
10
58.4
20
15.481448
30
0
11
132
21
15.481448
31
0
39
0
210
0
220
0
230
1
0
LINE
5
10A
100
AcDbEntity
8
2
62
256
6
ByLayer
370
13
48
1
60
0
100
AcDbLine
10
58.4
20
15.481448
30
0
11
61.574997
21
16.332187
31
0
39
0
210
0
220
0
230
1
0
LINE
5
10B
100
AcDbEntity
8
2
62
256
6
ByLayer
370
13
48
1
60
0
100
AcDbLine
10
58.4
20
15.481448
30
0
11
61.575003
21
14.63071
31
0
39
0
210
0
220
0
230
1
0
LINE
5
10C
100
AcDbEntity
8
2
62
256
6
ByLayer
370
13
48
1
60
0
100
AcDbLine
10
61.574997
20
16.332187
30
0
11
61.575003
21
14.63071
31
0
39
0
210
0
220
0
230
1
0
LINE
5
10D
100
AcDbEntity
8
2
62
256
6
ByLayer
370
13
48
1
60
0
100
AcDbLine
10
132
20
15.481448
30
0
11
128.825003
21
14.63071
31
0
39
0
210
0
220
0
230
1
0
LINE
5
10E
100
AcDbEntity
8
2
62
256
6
ByLayer
370
13
48
1
60
0
100
AcDbLine
10
132
20
15.481448
30
0
11
128.824997
21
16.332187
31
0
39
0
210
0
220
0
230
1
0
LINE
5
10F
100
AcDbEntity
8
2
62
256
6
ByLayer
370
13
48
1
60
0
100
AcDbLine
10
128.825003
20
14.63071
30
0
11
128.824997
21
16.332187
31
0
39
0
210
0
220
0
230
1
0
ENDBLK
5
111
100
AcDbEntity
8
0
100
AcDbBlockEnd
0
BLOCK
5
11E
100
AcDbEntity
8
0
100
AcDbBlockBegin
2
DimnDraft3D6
70
0
10
0
20
0
30
0
3
DimnDraft3D6
0
MTEXT
5
114
100
AcDbEntity
8
2
62
256
6
ByLayer
370
18
48
1
60
0
100
AcDbMText
10
143.13
20
11.161794
30
0
210
0
220
0
230
1
1
\W0.5795;1,5
40
3.5
41
0
44
1.084337
50
0
71
7
72
5
7
iso_b_vert
0
LINE
5
115
100
AcDbEntity
8
2
62
256
6
ByLayer
370
13
48
1
60
0
100
AcDbLine
10
132
20
2
30
0
11
132
21
12.286794
31
0
39
0
210
0
220
0
230
1
0
LINE
5
116
100
AcDbEntity
8
2
62
256
6
ByLayer
370
13
48
1
60
0
100
AcDbLine
10
130.2
20
6
30
0
11
130.2
21
12.286794
31
0
39
0
210
0
220
0
230
1
0
LINE
5
117
100
AcDbEntity
8
2
62
256
6
ByLayer
370
13
48
1
60
0
100
AcDbLine
10
121.45
20
10.286794
30
0
11
146.795789
21
10.286794
31
0
39
0
210
0
220
0
230
1
0
LINE
5
118
100
AcDbEntity
8
2
62
256
6
ByLayer
370
13
48
1
60
0
100
AcDbLine
10
132
20
10.286794
30
0
11
135.174997
21
11.137533
31
0
39
0
210
0
220
0
230
1
0
LINE
5
119
100
AcDbEntity
8
2
62
256
6
ByLayer
370
13
48
1
60
0
100
AcDbLine
10
132
20
10.286794
30
0
11
135.175003
21
9.436055
31
0
39
0
210
0
220
0
230
1
0
LINE
5
11A
100
AcDbEntity
8
2
62
256
6
ByLayer
370
13
48
1
60
0
100
AcDbLine
10
135.174997
20
11.137533
30
0
11
135.175003
21
9.436055
31
0
39
0
210
0
220
0
230
1
0
LINE
5
11B
100
AcDbEntity
8
2
62
256
6
ByLayer
370
13
48
1
60
0
100
AcDbLine
10
130.2
20
10.286794
30
0
11
127.025003
21
9.436055
31
0
39
0
210
0
220
0
230
1
0
LINE
5
11C
100
AcDbEntity
8
2
62
256
6
ByLayer
370
13
48
1
60
0
100
AcDbLine
10
130.2
20
10.286794
30
0
11
127.024997
21
11.137533
31
0
39
0
210
0
220
0
230
1
0
LINE
5
11D
100
AcDbEntity
8
2
62
256
6
ByLayer
370
13
48
1
60
0
100
AcDbLine
10
127.025003
20
9.436055
30
0
11
127.024997
21
11.137533
31
0
39
0
210
0
220
0
230
1
0
ENDBLK
5
11F
100
AcDbEntity
8
0
100
AcDbBlockEnd
0
BLOCK
5
122
100
AcDbEntity
8
0
100
AcDbBlockBegin
2
_CLOSED
70
0
10
0
20
0
30
0
3
_CLOSED
0
LINE
5
124
100
AcDbEntity
8
0
62
256
6
ByLayer
370
-2
48
1
60
0
100
AcDbLine
10
-1
20
0.166667
30
0
11
0
21
0
31
0
39
0
210
0
220
0
230
1
0
LINE
5
125
100
AcDbEntity
8
0
62
256
6
ByLayer
370
-2
48
1
60
0
100
AcDbLine
10
0
20
0
30
0
11
-1
21
-0.166667
31
0
39
0
210
0
220
0
230
1
0
LINE
5
126
100
AcDbEntity
8
0
62
256
6
ByLayer
370
-2
48
1
60
0
100
AcDbLine
10
-1
20
0.166667
30
0
11
-1
21
-0.166667
31
0
39
0
210
0
220
0
230
1
0
LINE
5
127
100
AcDbEntity
8
0
62
256
6
ByLayer
370
-2
48
1
60
0
100
AcDbLine
10
0
20
0
30
0
11
-1
21
0
31
0
39
0
210
0
220
0
230
1
0
ENDBLK
5
123
100
AcDbEntity
8
0
100
AcDbBlockEnd
0
ENDSEC
0
SECTION
2
ENTITIES
0
ARC
5
A4
100
AcDbEntity
8
1
62
256
6
ByLayer
370
18
48
1
60
0
100
AcDbCircle
39
0
10
-110.244028
20
9.0625
30
0
40
5
210
0
220
0
230
-1
100
AcDbArc
50
270
51
271.009026
0
ARC
5
A5
100
AcDbEntity
8
1
62
256
6
ByLayer
370
18
48
1
60
0
100
AcDbCircle
39
0
10
-110.244028
20
-9.0625
30
0
40
5
210
0
220
0
230
-1
100
AcDbArc
50
88.990974
51
90
0
ARC
5
A6
100
AcDbEntity
8
1
62
256
6
ByLayer
370
18
48
1
60
0
100
AcDbCircle
39
0
10
-58.746235
20
-6.969047
30
0
40
2
210
0
220
0
230
-1
100
AcDbArc
50
29.07136
51
88.990974
0
ARC
5
A7
100
AcDbEntity
8
1
62
256
6
ByLayer
370
18
48
1
60
0
100
AcDbCircle
39
0
10
-58.746235
20
6.969047
30
0
40
2
210
0
220
0
230
-1
100
AcDbArc
50
271.009026
51
330.92864
0
ARC
5
A8
100
AcDbEntity
8
1
62
256
6
ByLayer
370
18
48
1
60
0
100
AcDbCircle
39
0
10
-127
20
0
30
0
40
4.996
210
0
220
0
230
-1
100
AcDbArc
50
49.139352
51
55.024807
0
ARC
5
AA
100
AcDbEntity
8
1
62
256
6
ByLayer
370
18
48
1
60
0
100
AcDbCircle
39
0
10
-127
20
0
30
0
40
4.54103720716725
210
0
220
0
230
-1
100
AcDbArc
50
185.175635
51
303.686574
0
ARC
5
AB
100
AcDbEntity
8
1
62
256
6
ByLayer
370
18
48
1
60
0
100
AcDbCircle
39
0
10
-127
20
0
30
0
40
4.996
210
0
220
0
230
-1
100
AcDbArc
50
179.974335
51
310.859031
0
ARC
5
AC
100
AcDbEntity
8
1
62
256
6
ByLayer
370
18
48
1
60
0
100
AcDbCircle
39
0
10
127
20
0
30
0
40
4.996
210
0
220
0
230
1
100
AcDbArc
50
2.829363
51
122.516177
0
ARC
5
AE
100
AcDbEntity
8
1
62
256
6
ByLayer
370
18
48
1
60
0
100
AcDbCircle
39
0
10
-127
20
0
30
0
40
3.84719134564425
210
0
220
0
230
-1
100
AcDbArc
50
213.718428
51
259.155762
0
CIRCLE
5
A9
100
AcDbEntity
8
1
62
256
6
ByLayer
370
18
48
1
60
0
100
AcDbCircle
10
-127
20
0
30
0
40
1.5025
39
0
210
0
220
0
230
-1
0
CIRCLE
5
AD
100
AcDbEntity
8
1
62
256
6
ByLayer
370
18
48
1
60
0
100
AcDbCircle
10
-127
20
0
30
0
40
1.49999999999998
39
0
210
0
220
0
230
-1
0
ELLIPSE
5
AF
100
AcDbEntity
8
1
62
256
6
ByLayer
370
18
48
1
60
0
100
AcDbEllipse
10
129.792432
20
1.658406
30
0
11
-1.01113758878147
21
0.772687599368281
31
0
210
0
220
0
230
1
40
0.100127
41
2.88835272497508
42
-3.13303319443426
0
ELLIPSE
5
B0
100
AcDbEntity
8
1
62
256
6
ByLayer
370
18
48
1
60
0
100
AcDbEllipse
10
130.231619
20
3.851294
30
0
11
4.14025267627816
21
4.93416115679689
31
0
210
0
220
0
230
1
40
0.62511
41
-1.95835726316087
42
-1.87072485421883
0
ELLIPSE
5
B1
100
AcDbEntity
8
1
62
256
6
ByLayer
370
18
48
1
60
0
100
AcDbEllipse
10
127.874813
20
1.876042
30
0
11
-3.1638163804385
21
1.4753118071947
31
0
210
0
220
0
230
1
40
0.087156
41
-2.35484901870987
42
-1.48247035526927
0
ELLIPSE
5
B2
100
AcDbEntity
8
1
62
256
6
ByLayer
370
18
48
1
60
0
100
AcDbEllipse
10
131.935488
20
0
30
0
11
-8.61127184418351
21
3.98495857880151
31
0
210
0
220
0
230
1
40
0.036743
41
-1.04283077042341
42
-0.411782934343535
0
ELLIPSE
5
B3
100
AcDbEntity
8
1
62
256
6
ByLayer
370
18
48
1
60
0
100
AcDbEllipse
10
122.79628
20
0
30
0
11
4.68288471820556E-15
21
3.99749998488736
31
0
210
0
220
0
230
1
40
0.017455
41
-2.93956188352363
42
-2.80849823324759
0
ELLIPSE
5
B4
100
AcDbEntity
8
1
62
256
6
ByLayer
370
18
48
1
60
0
100
AcDbEllipse
10
198.295946
20
0.001134
30
0
11
229.054691370846
21
0.000371945763190267
31
0
210
0
220
0
230
1
40
0.017457
41
-1.90653866953847
42
-1.90339272348617
0
ELLIPSE
5
B5
100
AcDbEntity
8
1
62
256
6
ByLayer
370
18
48
1
60
0
100
AcDbEllipse
10
122.79628
20
0
30
0
11
4.68288471781619E-15
21
3.99749998455498
31
0
210
0
220
0
230
1
40
0.017455
41
-0.33309442035527
42
-0.202030770073269
0
ELLIPSE
5
B6
100
AcDbEntity
8
1
62
256
6
ByLayer
370
18
48
1
60
0
100
AcDbEllipse
10
198.316567
20
-0.00217
30
0
11
-229.08949999654
21
0.000712200998877498
31
0
210
0
220
0
230
1
40
0.017459
41
-1.23815715977205
42
-1.23501164527769
0
POINT
5
6C
100
AcDbEntity
8
81
62
256
6
ByLayer
370
18
48
1
60
0
100
AcDbPoint
10
132
20
0
30
0
39
0
210
0
220
0
230
1
50
360
0
POINT
5
6E
100
AcDbEntity
8
80
62
256
6
ByLayer
370
18
48
1
60
0
100
AcDbPoint
10
0
20
0
30
0
39
0
210
0
220
0
230
1
50
360
0
SPLINE
5
B7
100
AcDbEntity
8
1
62
256
6
ByLayer
370
18
48
1
60
0
100
AcDbSpline
70
4
71
3
72
8
73
4
40
0
40
0
40
0
40
0
40
1
40
1
40
1
40
1
41
1
10
124.136184307359
20
4.09372393775956
30
0
41
1
10
124.1874530139
20
4.12958960153273
30
0
41
1
10
124.250415909903
20
4.17199856478686
30
0
41
1
10
124.314461578925
20
4.21282558254288
30
0
0
SPLINE
5
B8
100
AcDbEntity
8
1
62
256
6
ByLayer
370
18
48
1
60
0
100
AcDbSpline
70
4
71
3
72
8
73
4
40
0
40
0
40
0
40
0
40
1
40
1
40
1
40
1
41
1
10
131.995999498772
20
0.0022379164366555
30
0
41
1
10
131.985813802209
20
-0.0366336817119475
30
0
41
1
10
131.971417045111
20
-0.0658237516097415
30
0
41
1
10
131.955072098479
20
-0.0790873018752904
30
0
0
SPLINE
5
B9
100
AcDbEntity
8
1
62
256
6
ByLayer
370
18
48
1
60
0
100
AcDbSpline
70
4
71
3
72
8
73
4
40
0
40
0
40
0
40
0
40
1
40
1
40
1
40
1
41
1
10
124.101539807559
20
3.98612809638959
30
0
41
1
10
124.177500714646
20
3.88166611366788
30
0
41
1
10
124.253461621735
20
3.77720413094559
30
0
41
1
10
124.329422528825
20
3.67274214822254
30
0
0
SPLINE
5
BA
100
AcDbEntity
8
1
62
256
6
ByLayer
370
18
48
1
60
0
100
AcDbSpline
70
4
71
3
72
10
73
6
40
0
40
0
40
0
40
0
40
0.5
40
0.5
40
1
40
1
40
1
40
1
41
1
10
131.989909735553
20
0.246610687177451
30
0
41
1
10
131.99199823714
20
0.204352038461167
30
0
41
1
10
131.993559850737
20
0.161482507973176
30
0
41
1
10
131.995545097305
20
0.0790301465944481
30
0
41
1
10
131.995983031725
20
0.0389995033923469
30
0
41
1
10
131.995999498772
20
0.0022379164366271
30
0
0
SPLINE
5
BB
100
AcDbEntity
8
1
62
256
6
ByLayer
370
18
48
1
60
0
100
AcDbSpline
70
4
71
3
72
8
73
4
40
0
40
0
40
0
40
0
40
1
40
1
40
1
40
1
41
1
10
124.101539807559
20
3.98612809638959
30
0
41
1
10
124.086372876567
20
4.00698576836746
30
0
41
1
10
124.097955484672
20
4.04689278288444
30
0
41
1
10
124.136184307359
20
4.09372393775959
30
0
0
SPLINE
5
BC
100
AcDbEntity
8
1
62
256
6
ByLayer
370
18
48
1
60
0
100
AcDbSpline
70
4
71
3
72
22
73
18
40
0
40
0
40
0
40
0
40
0.125
40
0.125
40
0.25
40
0.25
40
0.375
40
0.375
40
0.5
40
0.5
40
0.625
40
0.625
40
0.75
40
0.75
40
0.875
40
0.875
40
1
40
1
40
1
40
1
41
1
10
127.723809367168
20
-1.81147762203105
30
0
41
1
10
127.899298059147
20
-1.73329747961421
30
0
41
1
10
128.058818255621
20
-1.63229896034235
30
0
41
1
10
128.347227910679
20
-1.38653195276416
30
0
41
1
10
128.475367265497
20
-1.24074918924501
30
0
41
1
10
128.682108421878
20
-0.923181456354797
30
0
41
1
10
128.763693885864
20
-0.746704499596888
30
0
41
1
10
128.871683798506
20
-0.383413258958257
30
0
41
1
10
128.899734261048
20
-0.191652836301302
30
0
41
1
10
128.900053162169
20
0.188324087814493
30
0
41
1
10
128.872801762852
20
0.378391271084951
30
0
41
1
10
128.764675577828
20
0.744638811316321
30
0
41
1
10
128.685676362184
20
0.916840326004092
30
0
41
1
10
128.477017545704
20
1.23905358078116
30
0
41
1
10
128.351861274962
20
1.38189406724854
30
0
41
1
10
128.062372091716
20
1.62994095080572
30
0
41
1
10
127.899299832128
20
1.7332966897518
30
0
41
1
10
127.723809367168
20
1.81147762203093
30
0
0
SPLINE
5
BD
100
AcDbEntity
8
1
62
256
6
ByLayer
370
18
48
1
60
0
100
AcDbSpline
70
2053
71
3
72
56
73
52
40
0
40
0
40
0
40
0
40
0.062500000000006
40
0.062500000000006
40
0.0937500000000075
40
0.0937500000000075
40
0.125000000000009
40
0.125000000000009
40
0.15625000000001
40
0.15625000000001
40
0.187500000000012
40
0.187500000000012
40
0.218750000000014
40
0.218750000000014
40
0.250000000000015
40
0.250000000000015
40
0.281250000000017
40
0.281250000000017
40
0.312500000000018
40
0.312500000000018
40
0.375000000000021
40
0.375000000000021
40
0.437500000000024
40
0.437500000000024
40
0.468750000000022
40
0.468750000000022
40
0.50000000000002
40
0.50000000000002
40
0.531250000000018
40
0.531250000000018
40
0.562500000000016
40
0.562500000000016
40
0.625000000000012
40
0.625000000000012
40
0.65625000000001
40
0.65625000000001
40
0.687500000000008
40
0.687500000000008
40
0.750000000000008
40
0.750000000000008
40
0.812500000000008
40
0.812500000000008
40
0.843750000000008
40
0.843750000000008
40
0.875000000000008
40
0.875000000000008
40
0.906250000000007
40
0.906250000000007
40
0.937500000000007
40
0.937500000000007
40
1
40
1
40
1
40
1
41
1
10
125.795026834841
20
1.09025899273806
30
0
41
1
10
125.650942641755
20
0.931014641305211
30
0
41
1
10
125.53953547908
20
0.743712252026654
30
0
41
1
10
125.432731682162
20
0.442328952898833
30
0
41
1
10
125.406649935039
20
0.336608700124032
30
0
41
1
10
125.3762724746
20
0.124814942087539
30
0
41
1
10
125.371563558194
20
0.0182957158939985
30
0
41
1
10
125.383298300441
20
-0.19599896139232
30
0
41
1
10
125.400003252717
20
-0.303281536024258
30
0
41
1
10
125.453278510979
20
-0.509531075412639
30
0
41
1
10
125.48992088496
20
-0.609835001342248
30
0
41
1
10
125.583672884553
20
-0.803899971757829
30
0
41
1
10
125.639254647391
20
-0.89455695801658
30
0
41
1
10
125.766990719012
20
-1.06374253406599
30
0
41
1
10
125.840074082776
20
-1.14302543772814
30
0
41
1
10
125.998942959601
20
-1.28445322476537
30
0
41
1
10
126.084247867589
20
-1.346548937085
30
0
41
1
10
126.266389438796
20
-1.45382652076157
30
0
41
1
10
126.364051236034
20
-1.49910202720187
30
0
41
1
10
126.662572769659
20
-1.60350202295638
30
0
41
1
10
126.876632289407
20
-1.63389653793118
30
0
41
1
10
127.296569993383
20
-1.61148494492051
30
0
41
1
10
127.506731738455
20
-1.55832729506696
30
0
41
1
10
127.792655230341
20
-1.422482579556
30
0
41
1
10
127.884927981247
20
-1.36705104937286
30
0
41
1
10
128.055487098747
20
-1.24011011122539
30
0
41
1
10
128.133845660224
20
-1.16891072086918
30
0
41
1
10
128.276656517012
20
-1.0109927755143
30
0
41
1
10
128.341083357191
20
-0.923816638770489
30
0
41
1
10
128.450076329199
20
-0.741094051048975
30
0
41
1
10
128.495514285855
20
-0.644728702937329
30
0
41
1
10
128.60357597273
20
-0.340031495655609
30
0
41
1
10
128.634343982314
20
-0.125143643852198
30
0
41
1
10
128.616646442336
20
0.196490016320468
30
0
41
1
10
128.600296161491
20
0.301816401972104
30
0
41
1
10
128.547000296122
20
0.508754389444647
30
0
41
1
10
128.50953005528
20
0.610975066587372
30
0
41
1
10
128.370518737154
20
0.898715455666235
30
0
41
1
10
128.238585170838
20
1.07298268470217
30
0
41
1
10
127.922560075879
20
1.35435149554473
30
0
41
1
10
127.735006829969
20
1.46450979386492
30
0
41
1
10
127.43663589987
20
1.56878100289717
30
0
41
1
10
127.332369532024
20
1.59415603028532
30
0
41
1
10
127.123003754795
20
1.62378355423965
30
0
41
1
10
127.01800203008
20
1.62831961096867
30
0
41
1
10
126.807367634542
20
1.61698534326382
30
0
41
1
10
126.701206828146
20
1.60076265420625
30
0
41
1
10
126.497066101581
20
1.54879822070816
30
0
41
1
10
126.397988157921
20
1.51311227438003
30
0
41
1
10
126.109977799735
20
1.3761153783623
30
0
41
1
10
125.939111027927
20
1.24950334417088
30
0
41
1
10
125.795026834841
20
1.09025899273806
30
0
0
SPLINE
5
BE
100
AcDbEntity
8
1
62
256
6
ByLayer
370
18
48
1
60
0
100
AcDbSpline
70
4
71
3
72
38
73
34
40
0
40
0
40
0
40
0
40
0.0625
40
0.0625
40
0.125
40
0.125
40
0.1875
40
0.1875
40
0.25
40
0.25
40
0.3125
40
0.3125
40
0.375
40
0.375
40
0.4375
40
0.4375
40
0.5
40
0.5
40
0.5625
40
0.5625
40
0.625
40
0.625
40
0.6875
40
0.6875
40
0.75
40
0.75
40
0.8125
40
0.8125
40
0.875
40
0.875
40
0.9375
40
0.9375
40
1
40
1
40
1
40
1
41
1
10
127.723809367168
20
1.81147762203102
30
0
41
1
10
127.564264519383
20
1.87184697566667
30
0
41
1
10
127.400159434918
20
1.91365724183751
30
0
41
1
10
127.062682197499
20
1.96163032736825
30
0
41
1
10
126.887496589116
20
1.96720551322713
30
0
41
1
10
126.546813040086
20
1.94071453031211
30
0
41
1
10
126.377741182181
20
1.90884368137009
30
0
41
1
10
126.051658594287
20
1.80886080924978
30
0
41
1
10
125.897708066658
20
1.74209703957556
30
0
41
1
10
125.606886587751
20
1.57442304907417
30
0
41
1
10
125.471679034551
20
1.47391886460164
30
0
41
1
10
125.231362567419
20
1.24550472526349
30
0
41
1
10
125.123220142523
20
1.11430126113026
30
0
41
1
10
124.945992091904
20
0.829985546239442
30
0
41
1
10
124.876255002856
20
0.677507092814494
30
0
41
1
10
124.778956813179
20
0.348498838987894
30
0
41
1
10
124.753718682922
20
0.177763478415841
30
0
41
1
10
124.752515879558
20
-0.165151342999451
30
0
41
1
10
124.777195741662
20
-0.33888619465273
30
0
41
1
10
124.871952692711
20
-0.666392208307798
30
0
41
1
10
124.942941492712
20
-0.824073120015242
30
0
41
1
10
125.119889559085
20
-1.10994077434404
30
0
41
1
10
125.227809079078
20
-1.24163315715845
30
0
41
1
10
125.468948080166
20
-1.47180454726862
30
0
41
1
10
125.604336013711
20
-1.57269059660908
30
0
41
1
10
125.895202105392
20
-1.74090961958555
30
0
41
1
10
126.049076028433
20
-1.80783808129783
30
0
41
1
10
126.374691057169
20
-1.90813536501918
30
0
41
1
10
126.544648578754
20
-1.94037657819092
30
0
41
1
10
126.885039820332
20
-1.96718183869018
30
0
41
1
10
127.059971031239
20
-1.96188344131932
30
0
41
1
10
127.399340970807
20
-1.91390450332952
30
0
41
1
10
127.564013146164
20
-1.87194209148478
30
0
41
1
10
127.723809367168
20
-1.81147762203105
30
0
0
SPLINE
5
BF
100
AcDbEntity
8
1
62
256
6
ByLayer
370
18
48
1
60
0
100
AcDbSpline
70
4
71
2
72
6
73
3
40
0
40
0
40
0
40
1
40
1
40
1
41
0.500000265454848
10
123.51
20
-3.9206799155596
30
0
41
0.499999734545153
10
123.164946287057
20
-3.91948180510298
30
0
41
0.500000265454848
10
122.820105090342
20
-3.9182651955211
30
0
0
SPLINE
5
C0
100
AcDbEntity
8
1
62
256
6
ByLayer
370
18
48
1
60
0
100
AcDbSpline
70
4
71
3
72
16
73
12
40
0
40
0
40
0
40
0
40
0.209670733600572
40
0.209670733600572
40
0.419221042771688
40
0.419221042771688
40
0.630658114488023
40
0.630658114488023
40
0.846168743545145
40
0.846168743545145
40
1
40
1
40
1
40
1
41
1
10
122.820105090342
20
-3.91826519552109
30
0
41
1
10
122.819001984275
20
-3.91826130373141
30
0
41
1
10
122.817887099243
20
-3.91821938328201
30
0
41
1
10
122.815819411877
20
-3.91806683242677
30
0
41
1
10
122.814838267762
20
-3.91795419109715
30
0
41
1
10
122.813129764089
20
-3.91767384432504
30
0
41
1
10
122.812381505339
20
-3.91750189855799
30
0
41
1
10
122.81120765563
20
-3.91712001809572
30
0
41
1
10
122.810772375444
20
-3.91690424508244
30
0
41
1
10
122.810350069442
20
-3.91652352928378
30
0
41
1
10
122.810267201618
20
-3.91635879842312
30
0
41
1
10
122.810281137455
20
-3.9161952694154
30
0
0
SPLINE
5
C1
100
AcDbEntity
8
1
62
256
6
ByLayer
370
18
48
1
60
0
100
AcDbSpline
70
4
71
3
72
16
73
12
40
0
40
0
40
0
40
0
40
0.230862518365518
40
0.230862518365518
40
0.462130106215523
40
0.462130106215523
40
0.686506555248433
40
0.686506555248433
40
0.898138052558951
40
0.898138052558951
40
1
40
1
40
1
40
1
41
1
10
122.819094602706
20
-3.77777777469765
30
0
41
1
10
122.819115003506
20
-3.77737339971367
30
0
41
1
10
122.81934576047
20
-3.77696395872144
30
0
41
1
10
122.82019866024
20
-3.77620226930261
30
0
41
1
10
122.820834353642
20
-3.77583920233761
30
0
41
1
10
122.822406295731
20
-3.77522642533131
30
0
41
1
10
122.823357005939
20
-3.77496488111021
30
0
41
1
10
122.825391877304
20
-3.77458831621522
30
0
41
1
10
122.826495057849
20
-3.77446070383795
30
0
41
1
10
122.828160187431
20
-3.77437386751177
30
0
41
1
10
122.828715397167
20
-3.77436114604763
30
0
41
1
10
122.829267603722
20
-3.77436450904185
30
0
0
SPLINE
5
C2
100
AcDbEntity
8
1
62
256
6
ByLayer
370
18
48
1
60
0
100
AcDbSpline
70
4
71
2
72
6
73
3
40
0
40
0
40
0
40
1
40
1
40
1
41
0.500000265474066
10
122.820105090342
20
3.91826519552108
30
0
41
0.499999734525934
10
123.164946287042
20
3.91948180510295
30
0
41
0.500000265474066
10
123.51
20
3.92067991555959
30
0
0
SPLINE
5
C3
100
AcDbEntity
8
1
62
256
6
ByLayer
370
18
48
1
60
0
100
AcDbSpline
70
4
71
3
72
16
73
12
40
0
40
0
40
0
40
0
40
0.2205597190174
40
0.2205597190174
40
0.441246587788325
40
0.441246587788325
40
0.659845941345021
40
0.659845941345021
40
0.874164896131643
40
0.874164896131643
40
1
40
1
40
1
40
1
41
1
10
122.810281137455
20
3.9161952694154
30
0
41
1
10
122.81026129414
20
3.91642811927537
30
0
41
1
10
122.810440334341
20
3.91666434706573
30
0
41
1
10
122.811169274874
20
3.91710477091755
30
0
41
1
10
122.811729769173
20
3.91731510016248
30
0
41
1
10
122.813147027583
20
3.91767842417045
30
0
41
1
10
122.814021176718
20
3.91783703531422
30
0
41
1
10
122.815943159014
20
3.91807955176807
30
0
41
1
10
122.817014323761
20
3.91816821349198
30
0
41
1
10
122.818766108406
20
3.91824677585163
30
0
41
1
10
122.819436710381
20
3.91826283745752
30
0
41
1
10
122.820105090342
20
3.91826519552109
30
0
0
SPLINE
5
C4
100
AcDbEntity
8
1
62
256
6
ByLayer
370
18
48
1
60
0
100
AcDbSpline
70
4
71
3
72
16
73
12
40
0
40
0
40
0
40
0
40
0.200021918754836
40
0.200021918754836
40
0.399752830302271
40
0.399752830302271
40
0.603976993524296
40
0.603976993524296
40
0.819021181344766
40
0.819021181344766
40
1
40
1
40
1
40
1
41
1
10
122.829267603722
20
3.77436450904185
30
0
41
1
10
122.828196115886
20
3.77435798357166
30
0
41
1
10
122.827106374298
20
3.7744133773484
30
0
41
1
10
122.825073927531
20
3.77463657192988
30
0
41
1
10
122.824103637988
20
3.77480702709207
30
0
41
1
10
122.822380811227
20
3.77523890857716
30
0
41
1
10
122.821610732622
20
3.7755077281343
30
0
41
1
10
122.820341947024
20
3.77611713654446
30
0
41
1
10
122.819842421295
20
3.77646868958371
30
0
41
1
10
122.819255903758
20
3.77713851637051
30
0
41
1
10
122.819110667847
20
3.77745933908173
30
0
41
1
10
122.819094602705
20
3.77777777469763
30
0
0
LINE
5
70
100
AcDbEntity
8
SK1
62
256
6
ByLayer
370
18
48
1
60
0
100
AcDbLine
10
0
20
5.4975
30
0
11
0
21
0
31
0
39
0
210
0
220
0
230
1
0
LINE
5
72
100
AcDbEntity
8
SK1
62
256
6
ByLayer
370
18
48
1
60
0
100
AcDbLine
10
0
20
0
30
0
11
0
21
-5.4975
31
0
39
0
210
0
220
0
230
1
0
LINE
5
73
100
AcDbEntity
8
SK1
62
256
6
ByLayer
370
18
48
1
60
0
100
AcDbLine
10
0.49975
20
5.99725
30
0
11
0
21
5.4975
31
0
39
0
210
0
220
0
230
1
0
LINE
5
74
100
AcDbEntity
8
1
62
256
6
ByLayer
370
18
48
1
60
0
100
AcDbLine
10
122.819093
20
3.778333
30
0
11
122.819093
21
3.777743
31
0
39
0
210
0
220
0
230
1
0
LINE
5
76
100
AcDbEntity
8
SK1
62
256
6
ByLayer
370
18
48
1
60
0
100
AcDbLine
10
0
20
-5.4975
30
0
11
0.49975
21
-5.99725
31
0
39
0
210
0
220
0
230
1
0
LINE
5
77
100
AcDbEntity
8
SK1
62
256
6
ByLayer
370
18
48
1
60
0
100
AcDbLine
10
0.49975
20
-5.99725
30
0
11
45
21
-5.99725
31
0
39
0
210
0
220
0
230
1
0
LINE
5
78
100
AcDbEntity
8
1
62
256
6
ByLayer
370
18
48
1
60
0
100
AcDbLine
10
56.998205
20
5.99725
30
0
11
45
21
5.99725
31
0
39
0
210
0
220
0
230
1
0
LINE
5
79
100
AcDbEntity
8
1
62
256
6
ByLayer
370
18
48
1
60
0
100
AcDbLine
10
58.711016
20
-4.969357
30
0
11
110.155979
21
-4.063275
31
0
39
0
210
0
220
0
230
1
0
LINE
5
7A
100
AcDbEntity
8
1
62
256
6
ByLayer
370
18
48
1
60
0
100
AcDbLine
10
110.155979
20
4.063275
30
0
11
58.711016
21
4.969357
31
0
39
0
210
0
220
0
230
1
0
LINE
5
7B
100
AcDbEntity
8
1
62
256
6
ByLayer
370
18
48
1
60
0
100
AcDbLine
10
110.244028
20
-4.0625
30
0
11
111.2
21
-4.0625
31
0
39
0
210
0
220
0
230
1
0
LINE
5
7C
100
AcDbEntity
8
1
62
256
6
ByLayer
370
18
48
1
60
0
100
AcDbLine
10
111.2
20
4.0625
30
0
11
110.244028
21
4.0625
31
0
39
0
210
0
220
0
230
1
0
LINE
5
7D
100
AcDbEntity
8
1
62
256
6
ByLayer
370
18
48
1
60
0
100
AcDbLine
10
123.51
20
3.9975
30
0
11
111.2
21
3.9975
31
0
39
0
210
0
220
0
230
1
0
LINE
5
7E
100
AcDbEntity
8
1
62
256
6
ByLayer
370
18
48
1
60
0
100
AcDbLine
10
111.2
20
-3.9975
30
0
11
123.51
21
-3.9975
31
0
39
0
210
0
220
0
230
1
0
LINE
5
7F
100
AcDbEntity
8
1
62
256
6
ByLayer
370
18
48
1
60
0
100
AcDbLine
10
124.10154
20
3.986128
30
0
11
130.751937
21
0.884997
31
0
39
0
210
0
220
0
230
1
0
LINE
5
80
100
AcDbEntity
8
1
62
256
6
ByLayer
370
18
48
1
60
0
100
AcDbLine
10
131.98991
20
0.246611
30
0
11
130.951543
21
1.117904
31
0
39
0
210
0
220
0
230
1
0
LINE
5
81
100
AcDbEntity
8
1
62
256
6
ByLayer
370
18
48
1
60
0
100
AcDbLine
10
124.314462
20
4.212826
30
0
11
130.951543
21
1.117904
31
0
39
0
210
0
220
0
230
1
0
LINE
5
82
100
AcDbEntity
8
1
62
256
6
ByLayer
370
18
48
1
60
0
100
AcDbLine
10
130.751937
20
0.884997
30
0
11
130.142544
21
1.062445
31
0
39
0
210
0
220
0
230
1
0
LINE
5
83
100
AcDbEntity
8
1
62
256
6
ByLayer
370
18
48
1
60
0
100
AcDbLine
10
130.804195
20
0.886613
30
0
11
130.951543
21
1.117904
31
0
39
0
210
0
220
0
230
1
0
LINE
5
84
100
AcDbEntity
8
1
62
256
6
ByLayer
370
18
48
1
60
0
100
AcDbLine
10
131.955072
20
-0.079087
30
0
11
130.804195
21
0.886613
31
0
39
0
210
0
220
0
230
1
0
LINE
5
85
100
AcDbEntity
8
1
62
256
6
ByLayer
370
18
48
1
60
0
100
AcDbLine
10
130.200024
20
0.700065
30
0
11
131.522523
21
-0.409643
31
0
39
0
210
0
220
0
230
1
0
LINE
5
86
100
AcDbEntity
8
1
62
256
6
ByLayer
370
18
48
1
60
0
100
AcDbLine
10
123.51
20
3.92068
30
0
11
123.51
21
3.778433
31
0
39
0
210
0
220
0
230
1
0
LINE
5
87
100
AcDbEntity
8
1
62
256
6
ByLayer
370
18
48
1
60
0
100
AcDbLine
10
123.51
20
-3.778433
30
0
11
123.51
21
-3.92068
31
0
39
0
210
0
220
0
230
1
0
LINE
5
88
100
AcDbEntity
8
1
62
256
6
ByLayer
370
18
48
1
60
0
100
AcDbLine
10
122.820105
20
3.918265
30
0
11
122.820105
21
3.776228
31
0
39
0
210
0
220
0
230
1
0
LINE
5
89
100
AcDbEntity
8
1
62
256
6
ByLayer
370
18
48
1
60
0
100
AcDbLine
10
122.820105
20
-3.776228
30
0
11
122.820105
21
-3.918265
31
0
39
0
210
0
220
0
230
1
0
LINE
5
8A
100
AcDbEntity
8
1
62
256
6
ByLayer
370
18
48
1
60
0
100
AcDbLine
10
111.2
20
4.0625
30
0
11
111.2
21
0
31
0
39
0
210
0
220
0
230
1
0
LINE
5
8B
100
AcDbEntity
8
1
62
256
6
ByLayer
370
18
48
1
60
0
100
AcDbLine
10
111.2
20
0
30
0
11
111.2
21
-4.0625
31
0
39
0
210
0
220
0
230
1
0
LINE
5
8C
100
AcDbEntity
8
1
62
256
6
ByLayer
370
18
48
1
60
0
100
AcDbLine
10
127.723809
20
2.280851
30
0
11
127.723809
21
1.811478
31
0
39
0
210
0
220
0
230
1
0
LINE
5
8D
100
AcDbEntity
8
1
62
256
6
ByLayer
370
18
48
1
60
0
100
AcDbLine
10
127.723809
20
-1.811478
30
0
11
127.723809
21
-3.778489
31
0
39
0
210
0
220
0
230
1
0
LINE
5
8E
100
AcDbEntity
8
1
62
256
6
ByLayer
370
18
48
1
60
0
100
AcDbLine
10
130.2
20
-2.135622
30
0
11
130.2
21
1.029487
31
0
39
0
210
0
220
0
230
1
0
LINE
5
8F
100
AcDbEntity
8
1
62
256
6
ByLayer
370
18
48
1
60
0
100
AcDbLine
10
123.51
20
3.778489
30
0
11
124.102647
21
3.778489
31
0
39
0
210
0
220
0
230
1
0
LINE
5
90
100
AcDbEntity
8
1
62
256
6
ByLayer
370
18
48
1
60
0
100
AcDbLine
10
127.723809
20
-3.778489
30
0
11
123.51
21
-3.778489
31
0
39
0
210
0
220
0
230
1
0
LINE
5
91
100
AcDbEntity
8
1
62
256
6
ByLayer
370
18
48
1
60
0
100
AcDbLine
10
123.51
20
-3.92068
30
0
11
123.51
21
-3.9975
31
0
39
0
210
0
220
0
230
1
0
LINE
5
92
100
AcDbEntity
8
1
62
256
6
ByLayer
370
18
48
1
60
0
100
AcDbLine
10
123.51
20
3.9975
30
0
11
123.51
21
3.92068
31
0
39
0
210
0
220
0
230
1
0
LINE
5
93
100
AcDbEntity
8
1
62
256
6
ByLayer
370
18
48
1
60
0
100
AcDbLine
10
56.998205
20
0
30
0
11
56.998205
21
5.99725
31
0
39
0
210
0
220
0
230
1
0
LINE
5
94
100
AcDbEntity
8
1
62
256
6
ByLayer
370
18
48
1
60
0
100
AcDbLine
10
56.998205
20
-5.99725
30
0
11
56.998205
21
0
31
0
39
0
210
0
220
0
230
1
0
LINE
5
95
100
AcDbEntity
8
1
62
256
6
ByLayer
370
18
48
1
60
0
100
AcDbLine
10
58.711016
20
4.969357
30
0
11
58.711016
21
-4.969357
31
0
39
0
210
0
220
0
230
1
0
LINE
5
96
100
AcDbEntity
8
SK1
62
256
6
ByLayer
370
18
48
1
60
0
100
AcDbLine
10
0.49975
20
0
30
0
11
0.49975
21
5.99725
31
0
39
0
210
0
220
0
230
1
0
LINE
5
97
100
AcDbEntity
8
SK1
62
256
6
ByLayer
370
18
48
1
60
0
100
AcDbLine
10
0.49975
20
-5.99725
30
0
11
0.49975
21
0
31
0
39
0
210
0
220
0
230
1
0
LINE
5
98
100
AcDbEntity
8
1
62
256
6
ByLayer
370
18
48
1
60
0
100
AcDbLine
10
110.155979
20
4.063275
30
0
11
110.155979
21
0
31
0
39
0
210
0
220
0
230
1
0
LINE
5
99
100
AcDbEntity
8
1
62
256
6
ByLayer
370
18
48
1
60
0
100
AcDbLine
10
110.155979
20
0
30
0
11
110.155979
21
-4.063275
31
0
39
0
210
0
220
0
230
1
0
LINE
5
9A
100
AcDbEntity
8
1
62
256
6
ByLayer
370
18
48
1
60
0
100
AcDbLine
10
110.244028
20
-4.0625
30
0
11
110.244028
21
4.0625
31
0
39
0
210
0
220
0
230
1
0
LINE
5
9B
100
AcDbEntity
8
4
62
256
6
ByLayer
370
18
48
0.05
60
0
100
AcDbLine
10
45
20
0
30
0
11
132
21
0
31
0
39
0
210
0
220
0
230
1
0
LINE
5
9D
100
AcDbEntity
8
SK1
62
256
6
ByLayer
370
18
48
1
60
0
100
AcDbLine
10
45
20
5.99725
30
0
11
0.49975
21
5.99725
31
0
39
0
210
0
220
0
230
1
0
LINE
5
9E
100
AcDbEntity
8
1
62
256
6
ByLayer
370
18
48
1
60
0
100
AcDbLine
10
45
20
-5.99725
30
0
11
56.998205
21
-5.99725
31
0
39
0
210
0
220
0
230
1
0
LINE
5
9F
100
AcDbEntity
8
1
62
256
6
ByLayer
370
18
48
0.05
60
0
100
AcDbLine
10
58.4
20
0
30
0
11
58.4
21
7.859674
31
0
39
0
210
0
220
0
230
1
0
LINE
5
A0
100
AcDbEntity
8
SK4
62
256
6
ByLayer
370
18
48
0.05
60
0
100
AcDbLine
10
-5
20
0
30
0
11
136.143076
21
0
31
0
39
0
210
0
220
0
230
1
0
LINE
5
A2
100
AcDbEntity
8
80
62
256
6
ByLayer
370
18
48
1
60
0
100
AcDbLine
10
0
20
0
30
0
11
-9.758938
21
0
31
0
39
0
210
0
220
0
230
1
0
LINE
5
A3
100
AcDbEntity
8
81
62
256
6
ByLayer
370
18
48
1
60
0
100
AcDbLine
10
132
20
0
30
0
11
141.996599
21
0
31
0
39
0
210
0
220
0
230
1
0
MTEXT
5
C5
100
AcDbEntity
8
SK6
62
256
6
ByLayer
370
18
48
1
60
0
100
AcDbMText
10
44.761053
20
-18.894015
30
0
210
0
220
0
230
1
1
\W0.7297;R216F-10A12S-075
40
3
41
0
44
1.084337
50
0
71
7
72
5
7
iso_b_vert
0
DIMENSION
5
D7
100
AcDbEntity
8
2
62
256
6
ByLayer
370
13
48
1
60
0
100
AcDbDimension
2
DimnDraft3D1
10
132
20
23.872813
30
0
11
86.409211
21
23.872813
31
0
70
32
71
5
72
1
41
1
210
0
220
0
230
1
3
Standard
100
AcDbAlignedDimension
13
45
23
2
33
0
14
132
24
2
34
0
50
0
100
AcDbRotatedDimension
1001
ACAD
1000
DSTYLE
1002
{
1070
   279
1070
     0
1070
   172
1070
     1
1070
   173
1070
     1
1070
   340
1005
C6
1070
   271
1070
     1
1070
   272
1070
     2
1070
    77
1070
     1
1070
    73
1070
     0
1070
   171
1070
     3
1070
   274
1070
     4
1070
   177
1070
    60
1070
   176
1070
    60
1070
   178
1070
    60
1070
    78
1070
     8
1070
    48
1040
0.005
1070
    41
1041
3.175
1070
   147
1041
1.75
1070
    42
1041
2.0
1070
    44
1041
2.0
1070
   140
1041
3.5
1070
   343
1005
0
1070
   344
1005
0
1002
}
0
DIMENSION
5
E6
100
AcDbEntity
8
SK2
62
256
6
ByLayer
370
13
48
1
60
0
100
AcDbDimension
2
DimnDraft3D2
10
132
20
32.086287
30
0
11
63.038816
21
32.086287
31
0
70
32
71
5
72
1
41
1
210
0
220
0
230
1
3
Standard
100
AcDbAlignedDimension
13
0
23
7.4975
33
0
14
132
24
2
34
0
50
0
100
AcDbRotatedDimension
1001
ACAD
1000
DSTYLE
1002
{
1070
   279
1070
     0
1070
   172
1070
     1
1070
   173
1070
     1
1070
   340
1005
C6
1070
   271
1070
     1
1070
   272
1070
     2
1070
    77
1070
     1
1070
    73
1070
     0
1070
   171
1070
     3
1070
   274
1070
     4
1070
   177
1070
    60
1070
   176
1070
    60
1070
   178
1070
    60
1070
    78
1070
     8
1070
    48
1040
0.005
1070
    41
1041
3.175
1070
   147
1041
1.75
1070
    42
1041
2.0
1070
    44
1041
2.0
1070
   140
1041
3.5
1070
   343
1005
0
1070
   344
1005
0
1002
}
0
DIMENSION
5
F5
100
AcDbEntity
8
SK2
62
256
6
ByLayer
370
13
48
1
60
0
100
AcDbDimension
2
DimnDraft3D3
10
-14.176599
20
-5.99725
30
0
11
-14.801599
21
26.75225
31
0
70
33
71
5
72
1
41
1
210
0
220
0
230
1
3
Standard
100
AcDbAlignedDimension
13
-1.50025
23
5.99725
33
0
14
-1.50025
24
-5.99725
34
0
1001
ACAD
1000
DSTYLE
1002
{
1070
   279
1070
     0
1070
    74
1070
     0
1070
   173
1070
     1
1070
   340
1005
C6
1070
   271
1070
     1
1070
   272
1070
     2
1070
    77
1070
     1
1070
    73
1070
     0
1070
   171
1070
     3
1070
   274
1070
     4
1070
   177
1070
    60
1070
   176
1070
    60
1070
   178
1070
    60
1070
    78
1070
     8
1070
    48
1040
0.005
1070
    41
1041
3.175
1070
   147
1041
1.75
1070
    42
1041
2.0
1070
    44
1041
2.0
1070
   140
1041
3.5
1070
   343
1005
0
1070
   344
1005
0
1002
}
0
DIMENSION
5
104
100
AcDbEntity
8
2
62
256
6
ByLayer
370
13
48
1
60
0
100
AcDbDimension
2
DimnDraft3D4
10
165.064154
20
-4.996
30
0
11
165.064154
21
15.251
31
0
70
32
71
5
72
1
41
1
210
0
220
0
230
1
3
Standard
100
AcDbAlignedDimension
13
129
23
4.996
33
0
14
129
24
-4.996
34
0
50
90
100
AcDbRotatedDimension
1001
ACAD
1000
DSTYLE
1002
{
1070
    74
1070
     0
1070
   279
1070
     0
1070
   172
1070
     1
1070
   173
1070
     1
1070
   340
1005
C6
1070
   271
1070
     1
1070
   272
1070
     2
1070
    77
1070
     1
1070
    73
1070
     0
1070
   171
1070
     3
1070
   274
1070
     4
1070
   177
1070
    60
1070
   176
1070
    60
1070
   178
1070
    60
1070
    78
1070
     8
1070
    48
1040
0.005
1070
    41
1041
3.175
1070
   147
1041
1.75
1070
    42
1041
2.0
1070
    44
1041
2.0
1070
   140
1041
3.5
1070
   343
1005
0
1070
   344
1005
0
1002
}
0
DIMENSION
5
112
100
AcDbEntity
8
2
62
256
6
ByLayer
370
13
48
1
60
0
100
AcDbDimension
2
DimnDraft3D5
10
132
20
15.481448
30
0
11
91.184211
21
15.481448
31
0
70
32
71
5
72
1
41
1
210
0
220
0
230
1
3
Standard
100
AcDbAlignedDimension
13
58.4
23
9.859674
33
0
14
132
24
2
34
0
50
0
100
AcDbRotatedDimension
1001
ACAD
1000
DSTYLE
1002
{
1070
   279
1070
     0
1070
   172
1070
     1
1070
   173
1070
     1
1070
   340
1005
C6
1070
   271
1070
     1
1070
   272
1070
     2
1070
    77
1070
     1
1070
    73
1070
     0
1070
   171
1070
     3
1070
   274
1070
     4
1070
   177
1070
    60
1070
   176
1070
    60
1070
   178
1070
    60
1070
    78
1070
     8
1070
    48
1040
0.005
1070
    41
1041
3.175
1070
   147
1041
1.75
1070
    42
1041
2.0
1070
    44
1041
2.0
1070
   140
1041
3.5
1070
   343
1005
0
1070
   344
1005
0
1002
}
0
DIMENSION
5
120
100
AcDbEntity
8
2
62
256
6
ByLayer
370
13
48
1
60
0
100
AcDbDimension
2
DimnDraft3D6
10
130.2
20
10.286794
30
0
11
142.255
21
10.286794
31
0
70
32
71
5
72
1
41
1
210
0
220
0
230
1
3
Standard
100
AcDbAlignedDimension
13
132
23
2
33
0
14
130.2
24
6
34
0
50
0
100
AcDbRotatedDimension
1001
ACAD
1000
DSTYLE
1002
{
1070
   279
1070
     0
1070
   172
1070
     1
1070
   173
1070
     1
1070
   340
1005
C6
1070
   271
1070
     1
1070
   272
1070
     2
1070
    77
1070
     1
1070
    73
1070
     0
1070
   171
1070
     3
1070
   274
1070
     4
1070
   177
1070
    60
1070
   176
1070
    60
1070
   178
1070
    60
1070
    78
1070
     8
1070
    48
1040
0.005
1070
    41
1041
3.175
1070
   147
1041
1.75
1070
    42
1041
2.0
1070
    44
1041
2.0
1070
   140
1041
3.5
1070
   343
1005
121
1070
   344
1005
121
1002
}
0
ENDSEC
0
SECTION
2
OBJECTS
0
DICTIONARY
5
192
330
0
100
AcDbDictionary
280
0
281
1
3
ACAD_GROUP
350
193
3
ACAD_MLINESTYLE
350
194
0
DICTIONARY
5
193
330
0
100
AcDbDictionary
280
0
281
1
0
DICTIONARY
5
194
330
0
100
AcDbDictionary
280
0
281
1
3
Standard
350
18
0
MLINESTYLE
5
18
330
194
100
AcDbMlineStyle
2
Standard
70
0
3

62
256
51
90
52
90
71
2
49
-0.5
62
256
6
ByLayer
49
0.5
62
256
6
ByLayer
0
RASTERVARIABLES
5
180
330

100
AcDbRasterVariables
90
0
70
1
71
1
72
1
0
ENDSEC
0
EOF
