  0
SECTION
  2
HEADER
  9
$ACADVER
  1
AC1015
  9
$ACADMAINTVER
 70
     6
  9
$DWGCODEPAGE
  3
ANSI_1252
  9
$INSBASE
 10
0.0
 20
0.0
 30
0.0
  9
$EXTMIN
 10
1.000000000000000E+20
 20
1.000000000000000E+20
 30
1.000000000000000E+20
  9
$EXTMAX
 10
-1.000000000000000E+20
 20
-1.000000000000000E+20
 30
-1.000000000000000E+20
  9
$LIMMIN
 10
-170.0
 20
-170.0
  9
$LIMMAX
 10
519.0
 20
260.0
  9
$ORTHOMODE
 70
     0
  9
$REGENMODE
 70
     1
  9
$FILLMODE
 70
     1
  9
$QTEXTMODE
 70
     0
  9
$MIRRTEXT
 70
     0
  9
$LTSCALE
 40
1.0
  9
$ATTMODE
 70
     1
  9
$TEXTSIZE
 40
3.5
  9
$TRACEWID
 40
1.0
  9
$TEXTSTYLE
  7
SIMPLEX
  9
$CLAYER
  8
1
  9
$CELTYPE
  6
BYLAYER
  9
$CECOLOR
 62
   256
  9
$CELTSCALE
 40
1.0
  9
$DISPSILH
 70
     0
  9
$DIMSCALE
 40
1.0
  9
$DIMASZ
 40
2.5
  9
$DIMEXO
 40
0.0
  9
$DIMDLI
 40
3.75
  9
$DIMRND
 40
0.0
  9
$DIMDLE
 40
0.0
  9
$DIMEXE
 40
1.25
  9
$DIMTP
 40
0.0
  9
$DIMTM
 40
0.0
  9
$DIMTXT
 40
3.5
  9
$DIMCEN
 40
0.0
  9
$DIMTSZ
 40
0.0
  9
$DIMTOL
 70
     0
  9
$DIMLIM
 70
     0
  9
$DIMTIH
 70
     0
  9
$DIMTOH
 70
     0
  9
$DIMSE1
 70
     0
  9
$DIMSE2
 70
     0
  9
$DIMTAD
 70
     1
  9
$DIMZIN
 70
     8
  9
$DIMBLK
  1

  9
$DIMASO
 70
     1
  9
$DIMSHO
 70
     1
  9
$DIMPOST
  1

  9
$DIMAPOST
  1

  9
$DIMALT
 70
     0
  9
$DIMALTD
 70
     3
  9
$DIMALTF
 40
0.039370078
  9
$DIMLFAC
 40
1.0
  9
$DIMTOFL
 70
     0
  9
$DIMTVP
 40
0.0
  9
$DIMTIX
 70
     0
  9
$DIMSOXD
 70
     0
  9
$DIMSAH
 70
     0
  9
$DIMBLK1
  1

  9
$DIMBLK2
  1

  9
$DIMSTYLE
  2
STANDARD
  9
$DIMCLRD
 70
     0
  9
$DIMCLRE
 70
     0
  9
$DIMCLRT
 70
     0
  9
$DIMTFAC
 40
1.0
  9
$DIMGAP
 40
0.625
  9
$DIMJUST
 70
     0
  9
$DIMSD1
 70
     0
  9
$DIMSD2
 70
     0
  9
$DIMTOLJ
 70
     0
  9
$DIMTZIN
 70
     8
  9
$DIMALTZ
 70
     0
  9
$DIMALTTZ
 70
     0
  9
$DIMUPT
 70
     0
  9
$DIMDEC
 70
     2
  9
$DIMTDEC
 70
     2
  9
$DIMALTU
 70
     2
  9
$DIMALTTD
 70
     3
  9
$DIMTXSTY
  7
SIMPLEX
  9
$DIMAUNIT
 70
     0
  9
$DIMADEC
 70
     2
  9
$DIMALTRND
 40
0.0
  9
$DIMAZIN
 70
     2
  9
$DIMDSEP
 70
    46
  9
$DIMATFIT
 70
     3
  9
$DIMFRAC
 70
     0
  9
$DIMLDRBLK
  1

  9
$DIMLUNIT
 70
     2
  9
$DIMLWD
 70
    -2
  9
$DIMLWE
 70
    -2
  9
$DIMTMOVE
 70
     0
  9
$LUNITS
 70
     2
  9
$LUPREC
 70
     4
  9
$SKETCHINC
 40
1.0
  9
$FILLETRAD
 40
0.0
  9
$AUNITS
 70
     0
  9
$AUPREC
 70
     0
  9
$MENU
  1
c:\tdm21\cad\caduti13\tdm13
  9
$ELEVATION
 40
0.0
  9
$PELEVATION
 40
0.0
  9
$THICKNESS
 40
0.0
  9
$LIMCHECK
 70
     0
  9
$CHAMFERA
 40
0.0
  9
$CHAMFERB
 40
0.0
  9
$CHAMFERC
 40
0.0
  9
$CHAMFERD
 40
0.0
  9
$SKPOLY
 70
     0
  9
$TDCREATE
 40
2454957.551975972
  9
$TDUCREATE
 40
2454957.510309306
  9
$TDUPDATE
 40
2457360.428056829
  9
$TDUUPDATE
 40
2457360.386390162
  9
$TDINDWG
 40
0.0009643519
  9
$TDUSRTIMER
 40
0.0009475231
  9
$USRTIMER
 70
     1
  9
$ANGBASE
 50
0.0
  9
$ANGDIR
 70
     0
  9
$PDMODE
 70
     1
  9
$PDSIZE
 40
0.0
  9
$PLINEWID
 40
0.0
  9
$SPLFRAME
 70
     0
  9
$SPLINETYPE
 70
     6
  9
$SPLINESEGS
 70
     8
  9
$HANDSEED
  5
625
  9
$SURFTAB1
 70
     6
  9
$SURFTAB2
 70
     6
  9
$SURFTYPE
 70
     6
  9
$SURFU
 70
     6
  9
$SURFV
 70
     6
  9
$UCSBASE
  2

  9
$UCSNAME
  2

  9
$UCSORG
 10
0.0
 20
0.0
 30
0.0
  9
$UCSXDIR
 10
1.0
 20
0.0
 30
0.0
  9
$UCSYDIR
 10
0.0
 20
1.0
 30
0.0
  9
$UCSORTHOREF
  2

  9
$UCSORTHOVIEW
 70
     0
  9
$UCSORGTOP
 10
0.0
 20
0.0
 30
0.0
  9
$UCSORGBOTTOM
 10
0.0
 20
0.0
 30
0.0
  9
$UCSORGLEFT
 10
0.0
 20
0.0
 30
0.0
  9
$UCSORGRIGHT
 10
0.0
 20
0.0
 30
0.0
  9
$UCSORGFRONT
 10
0.0
 20
0.0
 30
0.0
  9
$UCSORGBACK
 10
0.0
 20
0.0
 30
0.0
  9
$PUCSBASE
  2

  9
$PUCSNAME
  2

  9
$PUCSORG
 10
0.0
 20
0.0
 30
0.0
  9
$PUCSXDIR
 10
1.0
 20
0.0
 30
0.0
  9
$PUCSYDIR
 10
0.0
 20
1.0
 30
0.0
  9
$PUCSORTHOREF
  2

  9
$PUCSORTHOVIEW
 70
     0
  9
$PUCSORGTOP
 10
0.0
 20
0.0
 30
0.0
  9
$PUCSORGBOTTOM
 10
0.0
 20
0.0
 30
0.0
  9
$PUCSORGLEFT
 10
0.0
 20
0.0
 30
0.0
  9
$PUCSORGRIGHT
 10
0.0
 20
0.0
 30
0.0
  9
$PUCSORGFRONT
 10
0.0
 20
0.0
 30
0.0
  9
$PUCSORGBACK
 10
0.0
 20
0.0
 30
0.0
  9
$USERI1
 70
     0
  9
$USERI2
 70
     0
  9
$USERI3
 70
     0
  9
$USERI4
 70
     0
  9
$USERI5
 70
     0
  9
$USERR1
 40
0.0
  9
$USERR2
 40
0.0
  9
$USERR3
 40
0.0
  9
$USERR4
 40
0.0
  9
$USERR5
 40
0.0
  9
$WORLDVIEW
 70
     1
  9
$SHADEDGE
 70
     3
  9
$SHADEDIF
 70
    70
  9
$TILEMODE
 70
     1
  9
$MAXACTVP
 70
    64
  9
$PINSBASE
 10
0.0
 20
0.0
 30
0.0
  9
$PLIMCHECK
 70
     0
  9
$PEXTMIN
 10
0.0
 20
0.0
 30
0.0
  9
$PEXTMAX
 10
0.0
 20
0.0
 30
0.0
  9
$PLIMMIN
 10
0.0
 20
0.0
  9
$PLIMMAX
 10
12.0
 20
9.0
  9
$UNITMODE
 70
     0
  9
$VISRETAIN
 70
     0
  9
$PLINEGEN
 70
     0
  9
$PSLTSCALE
 70
     1
  9
$TREEDEPTH
 70
  3020
  9
$CMLSTYLE
  2
STANDARD
  9
$CMLJUST
 70
     0
  9
$CMLSCALE
 40
20.0
  9
$PROXYGRAPHICS
 70
     1
  9
$MEASUREMENT
 70
     1
  9
$CELWEIGHT
370
    -1
  9
$ENDCAPS
280
     0
  9
$JOINSTYLE
280
     0
  9
$LWDISPLAY
290
     0
  9
$INSUNITS
 70
     4
  9
$HYPERLINKBASE
  1

  9
$STYLESHEET
  1
MONOCHROME.CTB
  9
$XEDIT
290
     1
  9
$CEPSNTYPE
380
     0
  9
$PSTYLEMODE
290
     1
  9
$FINGERPRINTGUID
  2
{46B44192-1510-48B1-B61B-CBE2ADA013A7}
  9
$VERSIONGUID
  2
{6160D478-9A74-4C97-9D8A-D4A65CE74B12}
  9
$EXTNAMES
290
     1
  9
$PSVPSCALE
 40
0.0
  9
$OLESTARTUP
290
     0
  0
ENDSEC
  0
SECTION
  2
CLASSES
  0
CLASS
  1
ACDBDICTIONARYWDFLT
  2
AcDbDictionaryWithDefault
  3
ObjectDBX Classes
 90
        0
280
     0
281
     0
  0
CLASS
  1
ACDBPLACEHOLDER
  2
AcDbPlaceHolder
  3
ObjectDBX Classes
 90
        0
280
     0
281
     0
  0
CLASS
  1
LAYOUT
  2
AcDbLayout
  3
ObjectDBX Classes
 90
        0
280
     0
281
     0
  0
CLASS
  1
DICTIONARYVAR
  2
AcDbDictionaryVar
  3
ObjectDBX Classes
 90
        0
280
     0
281
     0
  0
CLASS
  1
TABLESTYLE
  2
AcDbTableStyle
  3
ObjectDBX Classes
 90
     4095
280
     0
281
     0
  0
CLASS
  1
SCALE
  2
AcDbScale
  3
ObjectDBX Classes
 90
     1153
280
     0
281
     0
  0
CLASS
  1
VISUALSTYLE
  2
AcDbVisualStyle
  3
ObjectDBX Classes
 90
     4095
280
     0
281
     0
  0
CLASS
  1
MATERIAL
  2
AcDbMaterial
  3
ObjectDBX Classes
 90
     1153
280
     0
281
     0
  0
CLASS
  1
MLEADERSTYLE
  2
AcDbMLeaderStyle
  3
ACDB_MLEADERSTYLE_CLASS
 90
     4095
280
     0
281
     0
  0
ENDSEC
  0
SECTION
  2
TABLES
  0
TABLE
  2
VPORT
  5
8
102
{ACAD_XDICTIONARY
360
5E9
102
}
330
0
100
AcDbSymbolTable
 70
     1
  0
VPORT
  5
39A
330
8
100
AcDbSymbolTableRecord
100
AcDbViewportTableRecord
  2
*Active
 70
     0
 10
0.0
 20
0.0
 11
1.0
 21
1.0
 12
218.9201881351169
 22
109.7549380673833
 13
0.0
 23
0.0
 14
5.0
 24
5.0
 15
5.0
 25
5.0
 16
0.0
 26
0.0
 36
1.0
 17
0.0
 27
0.0
 37
0.0
 40
564.6711112651689
 41
1.066073697585768
 42
50.0
 43
0.0
 44
0.0
 50
0.0
 51
0.0
 71
     0
 72
  2000
 73
     1
 74
     1
 75
     0
 76
     0
 77
     0
 78
     0
281
     0
 65
     1
110
0.0
120
0.0
130
0.0
111
1.0
121
0.0
131
0.0
112
0.0
122
1.0
132
0.0
 79
     0
146
0.0
  0
ENDTAB
  0
TABLE
  2
LTYPE
  5
5
330
0
100
AcDbSymbolTable
 70
     3
  0
LTYPE
  5
12
330
5
100
AcDbSymbolTableRecord
100
AcDbLinetypeTableRecord
  2
BYBLOCK
 70
     0
  3

 72
    65
 73
     0
 40
0.0
  0
LTYPE
  5
13
330
5
100
AcDbSymbolTableRecord
100
AcDbLinetypeTableRecord
  2
BYLAYER
 70
     0
  3

 72
    65
 73
     0
 40
0.0
  0
LTYPE
  5
14
330
5
100
AcDbSymbolTableRecord
100
AcDbLinetypeTableRecord
  2
CONTINUOUS
 70
     0
  3
Solid line
 72
    65
 73
     0
 40
0.0
  0
LTYPE
  5
20
330
5
100
AcDbSymbolTableRecord
100
AcDbLinetypeTableRecord
  2
HIDDEN
 70
     0
  3
Hidden __ __ __ __ __ __ __ __ __ __ __ __ __ _
 72
    65
 73
     2
 40
9.524999999999997
 49
6.349999999999998
 74
     0
 49
-3.174999999999998
 74
     0
  0
LTYPE
  5
351
330
5
100
AcDbSymbolTableRecord
100
AcDbLinetypeTableRecord
  2
CENTER
 70
     0
  3
Dash dot __ . __ . __ . __ . __ . __ . __ . __
 72
    65
 73
     4
 40
25.4
 49
12.7
 74
     0
 49
-6.349999999999998
 74
     0
 49
0.0
 74
     0
 49
-6.349999999999998
 74
     0
  0
ENDTAB
  0
TABLE
  2
LAYER
  5
2
330
0
100
AcDbSymbolTable
 70
    16
  0
LAYER
  5
F
330
2
100
AcDbSymbolTableRecord
100
AcDbLayerTableRecord
  2
0
 70
     0
 62
     7
  6
CONTINUOUS
370
    -3
390
300
  0
LAYER
  5
23
330
2
100
AcDbSymbolTableRecord
100
AcDbLayerTableRecord
  2
1
 70
     0
 62
     4
  6
CONTINUOUS
370
    -3
390
300
  0
LAYER
  5
24
330
2
100
AcDbSymbolTableRecord
100
AcDbLayerTableRecord
  2
SK1
 70
     0
 62
     4
  6
CONTINUOUS
370
    -3
390
300
  0
LAYER
  5
25
330
2
100
AcDbSymbolTableRecord
100
AcDbLayerTableRecord
  2
2
 70
     0
 62
     7
  6
CONTINUOUS
370
    -3
390
300
  0
LAYER
  5
26
330
2
100
AcDbSymbolTableRecord
100
AcDbLayerTableRecord
  2
2L
 70
     0
 62
     7
  6
CONTINUOUS
370
    -3
390
300
  0
LAYER
  5
27
330
2
100
AcDbSymbolTableRecord
100
AcDbLayerTableRecord
  2
SK2
 70
     0
 62
     7
  6
CONTINUOUS
370
    -3
390
300
  0
LAYER
  5
28
330
2
100
AcDbSymbolTableRecord
100
AcDbLayerTableRecord
  2
3
 70
     0
 62
     1
  6
HIDDEN
370
    -3
390
300
  0
LAYER
  5
29
330
2
100
AcDbSymbolTableRecord
100
AcDbLayerTableRecord
  2
SK3
 70
     0
 62
     1
  6
HIDDEN
370
    -3
390
300
  0
LAYER
  5
2A
330
2
100
AcDbSymbolTableRecord
100
AcDbLayerTableRecord
  2
4
 70
     0
 62
     2
  6
CENTER
370
    -3
390
300
  0
LAYER
  5
2B
330
2
100
AcDbSymbolTableRecord
100
AcDbLayerTableRecord
  2
SK4
 70
     0
 62
     2
  6
CENTER
370
    -3
390
300
  0
LAYER
  5
2C
330
2
100
AcDbSymbolTableRecord
100
AcDbLayerTableRecord
  2
5
 70
     0
 62
    -7
  6
CONTINUOUS
370
    -3
390
300
  0
LAYER
  5
2D
330
2
100
AcDbSymbolTableRecord
100
AcDbLayerTableRecord
  2
6
 70
     0
 62
     5
  6
CONTINUOUS
370
    -3
390
300
  0
LAYER
  5
2E
330
2
100
AcDbSymbolTableRecord
100
AcDbLayerTableRecord
  2
SK6
 70
     0
 62
     5
  6
CONTINUOUS
370
    -3
390
300
  0
LAYER
  5
2F
330
2
100
AcDbSymbolTableRecord
100
AcDbLayerTableRecord
  2
DEFPOINTS
 70
     0
 62
     7
  6
CONTINUOUS
290
     0
370
    -3
390
300
  0
LAYER
  5
375
330
2
100
AcDbSymbolTableRecord
100
AcDbLayerTableRecord
  2
CUT
 70
     0
 62
     1
  6
CONTINUOUS
370
    -3
390
300
  0
LAYER
  5
376
330
2
100
AcDbSymbolTableRecord
100
AcDbLayerTableRecord
  2
NOCUT
 70
     0
 62
     7
  6
CONTINUOUS
370
    -3
390
300
  0
ENDTAB
  0
TABLE
  2
STYLE
  5
3
330
0
100
AcDbSymbolTable
 70
     4
  0
STYLE
  5
10
330
3
100
AcDbSymbolTableRecord
100
AcDbTextStyleTableRecord
  2
STANDARD
 70
     0
 40
0.0
 41
1.0
 50
0.0
 71
     0
 42
5.0
  3
txt
  4

  0
STYLE
  5
1D
330
3
100
AcDbSymbolTableRecord
100
AcDbTextStyleTableRecord
  2
TXT
 70
     0
 40
8.0
 41
1.0
 50
0.0
 71
     0
 42
8.0
  3
txt
  4

  0
STYLE
  5
1E
330
3
100
AcDbSymbolTableRecord
100
AcDbTextStyleTableRecord
  2
SIMPLEX
 70
     0
 40
0.0
 41
1.0
 50
0.0
 71
     0
 42
3.5
  3
simplex
  4

  0
STYLE
  5
34C
330
3
100
AcDbSymbolTableRecord
100
AcDbTextStyleTableRecord
  2

 70
     1
 40
0.0
 41
1.0
 50
0.0
 71
     0
 42
2.5
  3
ltypeshp.shx
  4

  0
ENDTAB
  0
TABLE
  2
VIEW
  5
6
330
0
100
AcDbSymbolTable
 70
     0
  0
ENDTAB
  0
TABLE
  2
UCS
  5
7
330
0
100
AcDbSymbolTable
 70
     0
  0
ENDTAB
  0
TABLE
  2
APPID
  5
9
330
0
100
AcDbSymbolTable
 70
     2
  0
APPID
  5
11
330
9
100
AcDbSymbolTableRecord
100
AcDbRegAppTableRecord
  2
ACAD
 70
     0
  0
APPID
  5
622
330
9
100
AcDbSymbolTableRecord
100
AcDbRegAppTableRecord
  2
ACAD_MLEADERVER
 70
     0
  0
ENDTAB
  0
TABLE
  2
DIMSTYLE
  5
A
330
0
100
AcDbSymbolTable
 70
     1
100
AcDbDimStyleTable
  0
DIMSTYLE
105
3F
102
{ACAD_REACTORS
330
593
330
5A0
330
5AD
330
5BA
330
5C7
330
5D4
102
}
330
A
100
AcDbSymbolTableRecord
100
AcDbDimStyleTableRecord
  2
STANDARD
 70
     0
 41
2.5
 42
0.0
 43
3.75
 44
1.25
 73
     0
 74
     0
 77
     1
 78
     8
 79
     2
140
3.5
141
0.0
143
0.039370078
147
0.625
171
     3
178
     0
179
     2
271
     2
272
     2
274
     3
283
     0
284
     8
340
1E
  0
ENDTAB
  0
TABLE
  2
BLOCK_RECORD
  5
1
330
0
100
AcDbSymbolTable
 70
     6
  0
BLOCK_RECORD
  5
18
330
1
100
AcDbSymbolTableRecord
100
AcDbBlockTableRecord
  2
*MODEL_SPACE
340
303
  0
BLOCK_RECORD
  5
338
330
1
100
AcDbSymbolTableRecord
100
AcDbBlockTableRecord
  2
*Paper_Space
340
33B
  0
BLOCK_RECORD
  5
594
330
1
100
AcDbSymbolTableRecord
100
AcDbBlockTableRecord
  2
*D0
340
0
  0
BLOCK_RECORD
  5
5A1
330
1
100
AcDbSymbolTableRecord
100
AcDbBlockTableRecord
  2
*D1
340
0
  0
BLOCK_RECORD
  5
5AE
330
1
100
AcDbSymbolTableRecord
100
AcDbBlockTableRecord
  2
*D2
340
0
  0
BLOCK_RECORD
  5
5BB
330
1
100
AcDbSymbolTableRecord
100
AcDbBlockTableRecord
  2
*D3
340
0
  0
BLOCK_RECORD
  5
5C8
330
1
100
AcDbSymbolTableRecord
100
AcDbBlockTableRecord
  2
*D4
340
0
  0
BLOCK_RECORD
  5
5D5
330
1
100
AcDbSymbolTableRecord
100
AcDbBlockTableRecord
  2
*D5
340
0
  0
ENDTAB
  0
ENDSEC
  0
SECTION
  2
BLOCKS
  0
BLOCK
  5
32
330
18
100
AcDbEntity
  8
0
100
AcDbBlockBegin
  2
*MODEL_SPACE
 70
     0
 10
0.0
 20
0.0
 30
0.0
  3
*MODEL_SPACE
  1

  0
ENDBLK
  5
33
330
18
100
AcDbEntity
  8
0
100
AcDbBlockEnd
  0
BLOCK
  5
339
330
338
100
AcDbEntity
 67
     1
  8
0
100
AcDbBlockBegin
  2
*Paper_Space
 70
     0
 10
0.0
 20
0.0
 30
0.0
  3
*Paper_Space
  1

  0
ENDBLK
  5
33A
330
338
100
AcDbEntity
 67
     1
  8
0
100
AcDbBlockEnd
  0
BLOCK
  5
595
330
594
100
AcDbEntity
  8
0
100
AcDbBlockBegin
  2
*D0
 70
     1
 10
0.0
 20
0.0
 30
0.0
  3
*D0
  1

  0
LINE
  5
597
330
594
100
AcDbEntity
  8
2
 62
     0
370
    -2
100
AcDbLine
 10
60.0
 20
5.0
 30
0.0
 11
76.24999999999999
 21
5.000000000000057
 31
0.0
  0
LINE
  5
598
330
594
100
AcDbEntity
  8
2
 62
     0
370
    -2
100
AcDbLine
 10
60.0
 20
-5.0
 30
0.0
 11
76.25000000000001
 21
-4.999999999999943
 31
0.0
  0
LINE
  5
599
330
594
100
AcDbEntity
  8
2
 62
     0
370
    -2
100
AcDbLine
 10
75.0
 20
2.500000000000052
 30
0.0
 11
75.0
 21
-2.499999999999948
 31
0.0
  0
SOLID
  5
59A
330
594
100
AcDbEntity
  8
2
 62
     0
100
AcDbTrace
 10
75.41666666666667
 20
2.500000000000054
 30
0.0
 11
74.58333333333333
 21
2.500000000000051
 31
0.0
 12
74.99999999999999
 22
5.000000000000052
 32
0.0
 13
74.99999999999999
 23
5.000000000000052
 33
0.0
  0
SOLID
  5
59B
330
594
100
AcDbEntity
  8
2
 62
     0
100
AcDbTrace
 10
74.58333333333333
 20
-2.499999999999949
 30
0.0
 11
75.41666666666667
 21
-2.499999999999946
 31
0.0
 12
75.00000000000001
 22
-4.999999999999948
 32
0.0
 13
75.00000000000001
 23
-4.999999999999948
 33
0.0
  0
MTEXT
  5
59C
330
594
100
AcDbEntity
  8
2
 62
     0
100
AcDbMText
 10
72.60925
 20
0.0000000000000456
 30
0.0
 40
3.5
 41
0.0
 71
     5
 72
     1
  1
%%c10
  7
SIMPLEX
 11
-2.842170943040401E-15
 21
1.0
 31
0.0
 73
     1
 44
1.0
  0
POINT
  5
59D
330
594
100
AcDbEntity
  8
DEFPOINTS
 62
     0
100
AcDbPoint
 10
60.0
 20
5.0
 30
0.0
  0
POINT
  5
59E
330
594
100
AcDbEntity
  8
DEFPOINTS
 62
     0
100
AcDbPoint
 10
60.0
 20
-5.0
 30
0.0
  0
POINT
  5
59F
330
594
100
AcDbEntity
  8
DEFPOINTS
 62
     0
100
AcDbPoint
 10
75.00000000000001
 20
-4.999999999999948
 30
0.0
  0
ENDBLK
  5
596
330
594
100
AcDbEntity
  8
0
100
AcDbBlockEnd
  0
BLOCK
  5
5A2
330
5A1
100
AcDbEntity
  8
0
100
AcDbBlockBegin
  2
*D1
 70
     1
 10
0.0
 20
0.0
 30
0.0
  3
*D1
  1

  0
LINE
  5
5A4
330
5A1
100
AcDbEntity
  8
2
 62
     0
370
    -2
100
AcDbLine
 10
0.0
 20
0.0
 30
0.0
 11
0.0
 21
76.25
 31
0.0
  0
LINE
  5
5A5
330
5A1
100
AcDbEntity
  8
2
 62
     0
370
    -2
100
AcDbLine
 10
60.0
 20
0.0
 30
0.0
 11
60.0
 21
76.25
 31
0.0
  0
LINE
  5
5A6
330
5A1
100
AcDbEntity
  8
2
 62
     0
370
    -2
100
AcDbLine
 10
2.5
 20
75.0
 30
0.0
 11
57.5
 21
75.0
 31
0.0
  0
SOLID
  5
5A7
330
5A1
100
AcDbEntity
  8
2
 62
     0
100
AcDbTrace
 10
2.5
 20
75.41666666666667
 30
0.0
 11
2.5
 21
74.58333333333333
 31
0.0
 12
0.0
 22
75.0
 32
0.0
 13
0.0
 23
75.0
 33
0.0
  0
SOLID
  5
5A8
330
5A1
100
AcDbEntity
  8
2
 62
     0
100
AcDbTrace
 10
57.5
 20
74.58333333333333
 30
0.0
 11
57.5
 21
75.41666666666667
 31
0.0
 12
60.0
 22
75.0
 32
0.0
 13
60.0
 23
75.0
 33
0.0
  0
MTEXT
  5
5A9
330
5A1
100
AcDbEntity
  8
2
 62
     0
100
AcDbMText
 10
30.0
 20
77.39075
 30
0.0
 40
3.5
 41
0.0
 71
     5
 72
     1
  1
60
  7
SIMPLEX
 73
     1
 44
1.0
  0
POINT
  5
5AA
330
5A1
100
AcDbEntity
  8
DEFPOINTS
 62
     0
100
AcDbPoint
 10
0.0
 20
0.0
 30
0.0
  0
POINT
  5
5AB
330
5A1
100
AcDbEntity
  8
DEFPOINTS
 62
     0
100
AcDbPoint
 10
60.0
 20
0.0
 30
0.0
  0
POINT
  5
5AC
330
5A1
100
AcDbEntity
  8
DEFPOINTS
 62
     0
100
AcDbPoint
 10
60.0
 20
75.0
 30
0.0
  0
ENDBLK
  5
5A3
330
5A1
100
AcDbEntity
  8
0
100
AcDbBlockEnd
  0
BLOCK
  5
5AF
330
5AE
100
AcDbEntity
  8
0
100
AcDbBlockBegin
  2
*D2
 70
     1
 10
0.0
 20
0.0
 30
0.0
  3
*D2
  1

  0
LINE
  5
5B1
330
5AE
100
AcDbEntity
  8
2
 62
     0
370
    -2
100
AcDbLine
 10
38.0
 20
5.0
 30
0.0
 11
38.0
 21
61.25
 31
0.0
  0
LINE
  5
5B2
330
5AE
100
AcDbEntity
  8
2
 62
     0
370
    -2
100
AcDbLine
 10
60.0
 20
5.0
 30
0.0
 11
60.0
 21
61.25
 31
0.0
  0
LINE
  5
5B3
330
5AE
100
AcDbEntity
  8
2
 62
     0
370
    -2
100
AcDbLine
 10
40.5
 20
60.0
 30
0.0
 11
57.5
 21
60.0
 31
0.0
  0
SOLID
  5
5B4
330
5AE
100
AcDbEntity
  8
2
 62
     0
100
AcDbTrace
 10
40.5
 20
60.41666666666666
 30
0.0
 11
40.5
 21
59.58333333333334
 31
0.0
 12
38.0
 22
60.0
 32
0.0
 13
38.0
 23
60.0
 33
0.0
  0
SOLID
  5
5B5
330
5AE
100
AcDbEntity
  8
2
 62
     0
100
AcDbTrace
 10
57.5
 20
59.58333333333334
 30
0.0
 11
57.5
 21
60.41666666666666
 31
0.0
 12
60.0
 22
60.0
 32
0.0
 13
60.0
 23
60.0
 33
0.0
  0
MTEXT
  5
5B6
330
5AE
100
AcDbEntity
  8
2
 62
     0
100
AcDbMText
 10
49.0
 20
62.39075
 30
0.0
 40
3.5
 41
0.0
 71
     5
 72
     1
  1
22
  7
SIMPLEX
 73
     1
 44
1.0
  0
POINT
  5
5B7
330
5AE
100
AcDbEntity
  8
DEFPOINTS
 62
     0
100
AcDbPoint
 10
38.0
 20
5.0
 30
0.0
  0
POINT
  5
5B8
330
5AE
100
AcDbEntity
  8
DEFPOINTS
 62
     0
100
AcDbPoint
 10
60.0
 20
5.0
 30
0.0
  0
POINT
  5
5B9
330
5AE
100
AcDbEntity
  8
DEFPOINTS
 62
     0
100
AcDbPoint
 10
60.0
 20
60.0
 30
0.0
  0
ENDBLK
  5
5B0
330
5AE
100
AcDbEntity
  8
0
100
AcDbBlockEnd
  0
BLOCK
  5
5BC
330
5BB
100
AcDbEntity
  8
0
100
AcDbBlockBegin
  2
*D3
 70
     1
 10
0.0
 20
0.0
 30
0.0
  3
*D3
  1

  0
LINE
  5
5BE
330
5BB
100
AcDbEntity
  8
SK2
 62
     0
370
    -2
100
AcDbLine
 10
-40.0
 20
5.0
 30
0.0
 11
-56.25000000002552
 21
4.99999999991707
 31
0.0
  0
LINE
  5
5BF
330
5BB
100
AcDbEntity
  8
SK2
 62
     0
370
    -2
100
AcDbLine
 10
-40.0
 20
-5.0
 30
0.0
 11
-56.24999999997448
 21
-5.00000000008293
 31
0.0
  0
LINE
  5
5C0
330
5BB
100
AcDbEntity
  8
SK2
 62
     0
370
    -2
100
AcDbLine
 10
-55.00000000001276
 20
2.499999999923449
 30
0.0
 11
-54.99999999998724
 21
-2.500000000076551
 31
0.0
  0
SOLID
  5
5C1
330
5BB
100
AcDbEntity
  8
SK2
 62
     0
100
AcDbTrace
 10
-54.5833333333461
 20
2.499999999925575
 30
0.0
 11
-55.41666666667943
 21
2.499999999921322
 31
0.0
 12
-55.00000000002552
 22
4.999999999923449
 32
0.0
 13
-55.00000000002552
 23
4.999999999923449
 33
0.0
  0
SOLID
  5
5C2
330
5BB
100
AcDbEntity
  8
SK2
 62
     0
100
AcDbTrace
 10
-55.4166666666539
 20
-2.500000000078678
 30
0.0
 11
-54.58333333332057
 21
-2.500000000074425
 31
0.0
 12
-54.99999999997448
 22
-5.000000000076551
 32
0.0
 13
-54.99999999997448
 23
-5.000000000076551
 33
0.0
  0
MTEXT
  5
5C3
330
5BB
100
AcDbEntity
  8
SK2
 62
     0
100
AcDbMText
 10
-57.39075
 20
-0.0000000000887515
 30
0.0
 40
3.5
 41
0.0
 71
     5
 72
     1
  1
%%c10
  7
SIMPLEX
 11
-5.103117928229040E-12
 21
1.0
 31
0.0
 73
     1
 44
1.0
  0
POINT
  5
5C4
330
5BB
100
AcDbEntity
  8
DEFPOINTS
 62
     0
100
AcDbPoint
 10
-40.0
 20
5.0
 30
0.0
  0
POINT
  5
5C5
330
5BB
100
AcDbEntity
  8
DEFPOINTS
 62
     0
100
AcDbPoint
 10
-40.0
 20
-5.0
 30
0.0
  0
POINT
  5
5C6
330
5BB
100
AcDbEntity
  8
DEFPOINTS
 62
     0
100
AcDbPoint
 10
-54.99999999997448
 20
-5.000000000076551
 30
0.0
  0
ENDBLK
  5
5BD
330
5BB
100
AcDbEntity
  8
0
100
AcDbBlockEnd
  0
BLOCK
  5
5C9
330
5C8
100
AcDbEntity
  8
0
100
AcDbBlockBegin
  2
*D4
 70
     1
 10
0.0
 20
0.0
 30
0.0
  3
*D4
  1

  0
LINE
  5
5CB
330
5C8
100
AcDbEntity
  8
SK2
 62
     0
370
    -2
100
AcDbLine
 10
-40.0
 20
0.0
 30
0.0
 11
-40.0
 21
91.25
 31
0.0
  0
LINE
  5
5CC
330
5C8
100
AcDbEntity
  8
SK2
 62
     0
370
    -2
100
AcDbLine
 10
60.0
 20
0.0
 30
0.0
 11
60.0
 21
91.25
 31
0.0
  0
LINE
  5
5CD
330
5C8
100
AcDbEntity
  8
SK2
 62
     0
370
    -2
100
AcDbLine
 10
-37.5
 20
90.0
 30
0.0
 11
57.5
 21
90.0
 31
0.0
  0
SOLID
  5
5CE
330
5C8
100
AcDbEntity
  8
SK2
 62
     0
100
AcDbTrace
 10
-37.5
 20
90.41666666666667
 30
0.0
 11
-37.5
 21
89.58333333333333
 31
0.0
 12
-40.0
 22
90.0
 32
0.0
 13
-40.0
 23
90.0
 33
0.0
  0
SOLID
  5
5CF
330
5C8
100
AcDbEntity
  8
SK2
 62
     0
100
AcDbTrace
 10
57.5
 20
89.58333333333333
 30
0.0
 11
57.5
 21
90.41666666666667
 31
0.0
 12
60.0
 22
90.0
 32
0.0
 13
60.0
 23
90.0
 33
0.0
  0
MTEXT
  5
5D0
330
5C8
100
AcDbEntity
  8
SK2
 62
     0
100
AcDbMText
 10
10.0
 20
92.39075
 30
0.0
 40
3.5
 41
0.0
 71
     5
 72
     1
  1
100
  7
SIMPLEX
 73
     1
 44
1.0
  0
POINT
  5
5D1
330
5C8
100
AcDbEntity
  8
DEFPOINTS
 62
     0
100
AcDbPoint
 10
-40.0
 20
0.0
 30
0.0
  0
POINT
  5
5D2
330
5C8
100
AcDbEntity
  8
DEFPOINTS
 62
     0
100
AcDbPoint
 10
60.0
 20
0.0
 30
0.0
  0
POINT
  5
5D3
330
5C8
100
AcDbEntity
  8
DEFPOINTS
 62
     0
100
AcDbPoint
 10
60.0
 20
90.0
 30
0.0
  0
ENDBLK
  5
5CA
330
5C8
100
AcDbEntity
  8
0
100
AcDbBlockEnd
  0
BLOCK
  5
5D6
330
5D5
100
AcDbEntity
  8
0
100
AcDbBlockBegin
  2
*D5
 70
     1
 10
0.0
 20
0.0
 30
0.0
  3
*D5
  1

  0
LINE
  5
5D8
330
5D5
100
AcDbEntity
  8
2
 62
     0
370
    -2
100
AcDbLine
 10
59.9
 20
5.0
 30
0.0
 11
59.9
 21
21.25
 31
0.0
  0
LINE
  5
5D9
330
5D5
100
AcDbEntity
  8
2
 62
     0
370
    -2
100
AcDbLine
 10
60.0
 20
5.0
 30
0.0
 11
60.0
 21
21.25
 31
0.0
  0
LINE
  5
5DA
330
5D5
100
AcDbEntity
  8
2
 62
     0
370
    -2
100
AcDbLine
 10
62.5
 20
20.0
 30
0.0
 11
84.023
 21
20.0
 31
0.0
  0
LINE
  5
5DB
330
5D5
100
AcDbEntity
  8
2
 62
     0
370
    -2
100
AcDbLine
 10
57.4
 20
20.0
 30
0.0
 11
54.9
 21
20.0
 31
0.0
  0
SOLID
  5
5DC
330
5D5
100
AcDbEntity
  8
2
 62
     0
100
AcDbTrace
 10
57.4
 20
19.58333333333333
 30
0.0
 11
57.4
 21
20.41666666666667
 31
0.0
 12
59.9
 22
20.0
 32
0.0
 13
59.9
 23
20.0
 33
0.0
  0
SOLID
  5
5DD
330
5D5
100
AcDbEntity
  8
2
 62
     0
100
AcDbTrace
 10
62.5
 20
20.41666666666667
 30
0.0
 11
62.5
 21
19.58333333333333
 31
0.0
 12
60.0
 22
20.0
 32
0.0
 13
60.0
 23
20.0
 33
0.0
  0
MTEXT
  5
5DE
330
5D5
100
AcDbEntity
  8
2
 62
     0
100
AcDbMText
 10
74.5115
 20
22.438
 30
0.0
 40
3.5
 41
0.0
 71
     5
 72
     1
  1
0.1x45°
  7
SIMPLEX
 73
     1
 44
1.0
  0
POINT
  5
5DF
330
5D5
100
AcDbEntity
  8
DEFPOINTS
 62
     0
100
AcDbPoint
 10
59.9
 20
5.0
 30
0.0
  0
POINT
  5
5E0
330
5D5
100
AcDbEntity
  8
DEFPOINTS
 62
     0
100
AcDbPoint
 10
60.0
 20
5.0
 30
0.0
  0
POINT
  5
5E1
330
5D5
100
AcDbEntity
  8
DEFPOINTS
 62
     0
100
AcDbPoint
 10
60.0
 20
20.0
 30
0.0
  0
ENDBLK
  5
5D7
330
5D5
100
AcDbEntity
  8
0
100
AcDbBlockEnd
  0
ENDSEC
  0
SECTION
  2
ENTITIES
  0
LINE
  5
3E0
330
18
100
AcDbEntity
  8
SK4
100
AcDbLine
 10
-42.0
 20
0.0
 30
0.0
 11
0.0
 21
0.0
 31
0.0
  0
LINE
  5
3E1
330
18
100
AcDbEntity
  8
4
100
AcDbLine
 10
-2.0
 20
0.0
 30
0.0
 11
62.0
 21
0.0
 31
0.0
  0
LINE
  5
3E2
330
18
100
AcDbEntity
  8
SK4
100
AcDbLine
 10
-2.0
 20
0.0
 30
0.0
 11
62.0
 21
0.0
 31
0.0
  0
LINE
  5
3E3
330
18
100
AcDbEntity
  8
1
100
AcDbLine
 10
37.0
 20
5.0
 30
0.0
 11
37.0
 21
4.999922947401457
 31
0.0
  0
LINE
  5
3E4
330
18
100
AcDbEntity
  8
1
100
AcDbLine
 10
37.0
 20
4.999922947401457
 30
0.0
 11
37.00000000000001
 21
4.976942409979634
 31
0.0
  0
LINE
  5
3E5
330
18
100
AcDbEntity
  8
1
100
AcDbLine
 10
37.00000000000001
 20
4.976942409979634
 30
0.0
 11
37.00000000000001
 21
4.646151163820213
 31
0.0
  0
LINE
  5
3E6
330
18
100
AcDbEntity
  8
1
100
AcDbLine
 10
37.0
 20
-3.735196229210699
 30
0.0
 11
37.0
 21
-4.999999999999998
 31
0.0
  0
LINE
  5
3E7
330
18
100
AcDbEntity
  8
1
100
AcDbLine
 10
37.0
 20
3.323899687007744
 30
0.0
 11
37.0
 21
-1.847506255180767
 31
0.0
  0
LINE
  5
3E8
330
18
100
AcDbEntity
  8
1
100
AcDbLine
 10
38.0
 20
1.429226218579475
 30
0.0
 11
38.0
 21
2.3584589123037
 31
0.0
  0
ARC
  5
3E9
330
18
100
AcDbEntity
  8
1
100
AcDbCircle
 10
29.15913222370348
 20
-12.5246420717839
 30
0.0
 40
16.51876238411246
100
AcDbArc
 50
57.64254125733679
 51
61.66193755502987
  0
ARC
  5
3EA
330
18
100
AcDbEntity
  8
1
100
AcDbCircle
 10
34.69147347369822
 20
0.6049826409743195
 30
0.0
 40
5.736231232867192
100
AcDbArc
 50
293.7314620584438
 51
302.0881601745742
  0
ARC
  5
3EB
330
18
100
AcDbEntity
  8
1
100
AcDbCircle
 10
41.89315439207193
 20
2.440251660648675
 30
0.0
 40
7.878899767414287
100
AcDbArc
 50
231.6082366731659
 51
240.3851927641
  0
ARC
  5
3EC
330
18
100
AcDbEntity
  8
1
100
AcDbCircle
 10
54.21476920533453
 20
13.77108093475408
 30
0.0
 40
23.24402280681144
100
AcDbArc
 50
222.2167771593975
 51
225.7650568553271
  0
ARC
  5
3ED
330
18
100
AcDbEntity
  8
1
100
AcDbCircle
 10
26.11133155824978
 20
-8.944779373147378
 30
0.0
 40
16.40386413144892
100
AcDbArc
 50
43.55399748785438
 51
48.41038126593437
  0
ARC
  5
3EE
330
18
100
AcDbEntity
  8
1
100
AcDbCircle
 10
34.5564252206895
 20
-0.8740414092436843
 30
0.0
 40
6.036992403158608
100
AcDbArc
 50
55.22601003995218
 51
66.12288918102176
  0
LINE
  5
3EF
330
18
100
AcDbEntity
  8
1
100
AcDbLine
 10
-0.0000000000000036
 20
5.0
 30
0.0
 11
37.0
 21
5.0
 31
0.0
  0
ARC
  5
3F0
330
18
100
AcDbEntity
  8
1
100
AcDbCircle
 10
41.16772106657849
 20
-1.274058552144251
 30
0.0
 40
6.506127826225959
100
AcDbArc
 50
119.1359567556173
 51
121.804370628137
  0
LINE
  5
3F1
330
18
100
AcDbEntity
  8
1
100
AcDbLine
 10
37.99999999999998
 20
-2.882598903755549
 30
0.0
 11
38.0
 21
1.429226218579475
 31
0.0
  0
LINE
  5
3F2
330
18
100
AcDbEntity
  8
1
100
AcDbLine
 10
38.00000000000001
 20
-2.882598903755555
 30
0.0
 11
38.00000000000001
 21
-4.408817478528149
 31
0.0
  0
LINE
  5
3F3
330
18
100
AcDbEntity
  8
1
100
AcDbLine
 10
38.0
 20
4.085415959246672
 30
0.0
 11
38.0
 21
4.408817478528143
 31
0.0
  0
LINE
  5
3F4
330
18
100
AcDbEntity
  8
1
100
AcDbLine
 10
38.00000000000001
 20
4.085415959246649
 30
0.0
 11
38.00000000000001
 21
2.358458912303695
 31
0.0
  0
LINE
  5
3F5
330
18
100
AcDbEntity
  8
1
100
AcDbLine
 10
-0.0000000000000027
 20
-4.999999999999998
 30
0.0
 11
37.0
 21
-4.999999999999998
 31
0.0
  0
ARC
  5
3F6
330
18
100
AcDbEntity
  8
1
 62
     1
100
AcDbCircle
 10
40.07595198424137
 20
1.29987540482384
 30
0.0
 40
3.7001755389776
100
AcDbArc
 50
75.1394278214741
 51
89.91451604930313
  0
LINE
  5
3F7
330
18
100
AcDbEntity
  8
1
 62
     1
100
AcDbLine
 10
40.08147248690055
 20
5.0
 30
0.0
 11
41.02500000000001
 21
5.0
 31
0.0
  0
ARC
  5
3F8
330
18
100
AcDbEntity
  8
1
 62
     1
100
AcDbCircle
 10
53.35000454784916
 20
1.054632386092765
 30
0.0
 40
3.94790527188295
100
AcDbArc
 50
68.0660322443311
 51
85.27784253239618
  0
LINE
  5
3F9
330
18
100
AcDbEntity
  8
1
 62
     1
100
AcDbLine
 10
53.675
 20
5.0
 30
0.0
 11
54.825
 21
5.0
 31
0.0
  0
ARC
  5
3FA
330
18
100
AcDbEntity
  8
1
 62
     1
100
AcDbCircle
 10
46.72482354485385
 20
1.226380218672234
 30
0.0
 40
3.773866313965303
100
AcDbArc
 50
71.45985656472911
 51
89.23816445959538
  0
ARC
  5
3FB
330
18
100
AcDbEntity
  8
1
 62
     1
100
AcDbCircle
 10
25.67941317310913
 20
-9.811692114234772
 30
0.0
 40
21.24225303770168
100
AcDbArc
 50
41.45543205866679
 51
43.74620428014136
  0
LINE
  5
3FC
330
18
100
AcDbEntity
  8
1
 62
     1
100
AcDbLine
 10
41.025
 20
5.0
 30
0.0
 11
41.02500000000001
 21
4.999972089983002
 31
0.0
  0
LINE
  5
3FD
330
18
100
AcDbEntity
  8
1
 62
     1
100
AcDbLine
 10
41.02500000000001
 20
4.999972089983002
 30
0.0
 11
41.025
 21
4.991759155090249
 31
0.0
  0
LINE
  5
3FE
330
18
100
AcDbEntity
  8
1
 62
     1
100
AcDbLine
 10
41.025
 20
4.991759155090249
 30
0.0
 11
41.02499999999999
 21
4.876563316852954
 31
0.0
  0
LINE
  5
3FF
330
18
100
AcDbEntity
  8
1
 62
     1
100
AcDbLine
 10
46.73764834071174
 20
4.970118672569395
 30
0.0
 11
46.77499999999999
 21
4.999805755982499
 31
0.0
  0
LINE
  5
400
330
18
100
AcDbEntity
  8
1
 62
     1
100
AcDbLine
 10
46.775
 20
4.999999999997105
 30
0.0
 11
46.77499999999999
 21
4.999999999166516
 31
0.0
  0
LINE
  5
401
330
18
100
AcDbEntity
  8
1
 62
     1
100
AcDbLine
 10
46.77499999999999
 20
4.999999999166516
 30
0.0
 11
46.775
 21
4.999999785083066
 31
0.0
  0
LINE
  5
402
330
18
100
AcDbEntity
  8
1
 62
     1
100
AcDbLine
 10
46.775
 20
4.999999785083066
 30
0.0
 11
46.77499999999999
 21
4.999984451638339
 31
0.0
  0
LINE
  5
403
330
18
100
AcDbEntity
  8
1
 62
     1
100
AcDbLine
 10
46.77499999999999
 20
4.999984451638339
 30
0.0
 11
46.775
 21
4.999805755982501
 31
0.0
  0
LINE
  5
404
330
18
100
AcDbEntity
  8
1
 62
     1
100
AcDbLine
 10
46.77499999999999
 20
4.999999999999997
 30
0.0
 11
46.73764834071174
 21
4.970118672569392
 31
0.0
  0
ARC
  5
405
330
18
100
AcDbEntity
  8
1
 62
     1
100
AcDbCircle
 10
27.0091819807332
 20
-19.48356951906657
 30
0.0
 40
36.87024180683846
100
AcDbArc
 50
39.64462236141163
 51
41.02482871307322
  0
LINE
  5
406
330
18
100
AcDbEntity
  8
1
 62
     1
100
AcDbLine
 10
55.4
 20
4.04062502285875
 30
0.0
 11
55.4
 21
4.54
 31
0.0
  0
LINE
  5
407
330
18
100
AcDbEntity
  8
1
 62
     1
100
AcDbLine
 10
55.4
 20
4.54
 30
0.0
 11
54.825
 21
4.999999999999997
 31
0.0
  0
LINE
  5
408
330
18
100
AcDbEntity
  8
1
 62
     1
100
AcDbLine
 10
54.825
 20
5.0
 30
0.0
 11
54.825
 21
4.999937957508084
 31
0.0
  0
LINE
  5
409
330
18
100
AcDbEntity
  8
1
 62
     1
100
AcDbLine
 10
54.825
 20
4.999937957508084
 30
0.0
 11
54.82500000000001
 21
4.981496936312912
 31
0.0
  0
LINE
  5
40A
330
18
100
AcDbEntity
  8
1
 62
     1
100
AcDbLine
 10
54.82500000000001
 20
4.981496936312912
 30
0.0
 11
54.82500000000001
 21
4.717522502658411
 31
0.0
  0
ARC
  5
40B
330
18
100
AcDbEntity
  8
1
 62
     1
100
AcDbCircle
 10
57.81008408202296
 20
-0.7361319078105515
 30
0.0
 40
7.062328996698651
100
AcDbArc
 50
125.8394224765611
 51
128.7060976351932
  0
LINE
  5
40C
330
18
100
AcDbEntity
  8
1
 62
     1
100
AcDbLine
 10
53.675
 20
5.0
 30
0.0
 11
53.675
 21
4.999997382001774
 31
0.0
  0
LINE
  5
40D
330
18
100
AcDbEntity
  8
1
 62
     1
100
AcDbLine
 10
53.675
 20
4.999997382001774
 30
0.0
 11
53.67499999999999
 21
4.999238298831741
 31
0.0
  0
LINE
  5
40E
330
18
100
AcDbEntity
  8
1
 62
     1
100
AcDbLine
 10
53.67499999999999
 20
4.999238298831741
 30
0.0
 11
53.675
 21
4.98899660043541
 31
0.0
  0
ARC
  5
40F
330
18
100
AcDbEntity
  8
1
 62
     1
100
AcDbCircle
 10
27.63755474801998
 20
-13.65733470971202
 30
0.0
 40
27.43063556909764
100
AcDbArc
 50
40.48745945034409
 51
42.30336018490276
  0
LINE
  5
410
330
18
100
AcDbEntity
  8
1
 62
     1
100
AcDbLine
 10
48.5
 20
4.152981198638369
 30
0.0
 11
48.5
 21
4.54
 31
0.0
  0
LINE
  5
411
330
18
100
AcDbEntity
  8
1
 62
     1
100
AcDbLine
 10
48.5
 20
4.54
 30
0.0
 11
47.92499999999998
 21
5.000000000000012
 31
0.0
  0
LINE
  5
412
330
18
100
AcDbEntity
  8
1
 62
     1
100
AcDbLine
 10
47.92499999999998
 20
5.0
 30
0.0
 11
47.92499999999998
 21
4.999956581604499
 31
0.0
  0
LINE
  5
413
330
18
100
AcDbEntity
  8
1
 62
     1
100
AcDbLine
 10
47.92499999999998
 20
4.999956581604499
 30
0.0
 11
47.92499999999998
 21
4.987114774387597
 31
0.0
  0
LINE
  5
414
330
18
100
AcDbEntity
  8
1
 62
     1
100
AcDbLine
 10
47.92499999999998
 20
4.987114774387597
 30
0.0
 11
47.92499999999998
 21
4.804995116080327
 31
0.0
  0
ARC
  5
415
330
18
100
AcDbEntity
  8
1
 62
     1
100
AcDbCircle
 10
17.47823196406488
 20
-17.31338852424489
 30
0.0
 40
28.42756099184578
100
AcDbArc
 50
41.63467101308026
 51
43.78862335345554
  0
ARC
  5
416
330
18
100
AcDbEntity
  8
1
 62
     1
100
AcDbCircle
 10
32.84362793427764
 20
-3.453766822426844
 30
0.0
 40
9.1339111605616
100
AcDbArc
 50
49.91772516643864
 51
55.63009303770728
  0
LINE
  5
417
330
18
100
AcDbEntity
  8
1
 62
     1
100
AcDbLine
 10
39.87499999999999
 20
0.2435317525535491
 30
0.0
 11
40.0814724869007
 21
0.0000000000001166
 31
0.0
  0
ARC
  5
418
330
18
100
AcDbEntity
  8
1
 62
     1
100
AcDbCircle
 10
18.02902572324972
 20
-18.66250014218228
 30
0.0
 40
30.38610220247488
100
AcDbArc
 50
40.81908328190369
 51
44.03222476139478
  0
ARC
  5
419
330
18
100
AcDbEntity
  8
1
 62
     1
100
AcDbCircle
 10
54.17272595892526
 20
9.083512529987146
 30
0.0
 40
16.58753139772694
100
AcDbArc
 50
223.673100447303
 51
229.1561721899273
  0
ARC
  5
41A
330
18
100
AcDbEntity
  8
1
 62
     1
100
AcDbCircle
 10
108.1401529797996
 20
55.49806891205031
 30
0.0
 40
86.29886217605136
100
AcDbArc
 50
220.1481820893846
 51
221.3177989129217
  0
LINE
  5
41B
330
18
100
AcDbEntity
  8
1
 62
     1
100
AcDbLine
 10
44.47499999999999
 20
-4.303981264467043
 30
0.0
 11
44.76250004498407
 21
-4.46660054944213
 31
0.0
  0
LINE
  5
41C
330
18
100
AcDbEntity
  8
1
 62
     1
100
AcDbLine
 10
44.76250004498407
 20
-4.46660054944213
 30
0.0
 11
45.05000001239318
 21
-4.608667141741084
 31
0.0
  0
LINE
  5
41D
330
18
100
AcDbEntity
  8
1
 62
     1
100
AcDbLine
 10
45.05000001239318
 20
-4.608667141741084
 30
0.0
 11
45.33750002808944
 21
-4.729526928573401
 31
0.0
  0
LINE
  5
41E
330
18
100
AcDbEntity
  8
1
 62
     1
100
AcDbLine
 10
45.33750002808944
 20
-4.729526928573401
 30
0.0
 11
45.62500000000001
 21
-4.82862423190122
 31
0.0
  0
LINE
  5
41F
330
18
100
AcDbEntity
  8
1
 62
     1
100
AcDbLine
 10
44.47499999999999
 20
-2.70534387621772
 30
0.0
 11
45.05000005951095
 21
-3.249306625474123
 31
0.0
  0
LINE
  5
420
330
18
100
AcDbEntity
  8
1
 62
     1
100
AcDbLine
 10
45.05000005951095
 20
-3.249306625474123
 30
0.0
 11
45.62500000000002
 21
-3.733532260578399
 31
0.0
  0
LINE
  5
421
330
18
100
AcDbEntity
  8
1
 62
     1
100
AcDbLine
 10
46.77499999999998
 20
-4.488422755707292
 30
0.0
 11
47.06250022226988
 21
-4.627461548044121
 31
0.0
  0
LINE
  5
422
330
18
100
AcDbEntity
  8
1
 62
     1
100
AcDbLine
 10
47.06250022226988
 20
-4.627461548044121
 30
0.0
 11
47.35000015597004
 21
-4.745207726567465
 31
0.0
  0
LINE
  5
423
330
18
100
AcDbEntity
  8
1
 62
     1
100
AcDbLine
 10
47.35000015597004
 20
-4.745207726567465
 30
0.0
 11
47.63749977971434
 21
-4.841118898776348
 31
0.0
  0
LINE
  5
424
330
18
100
AcDbEntity
  8
1
 62
     1
100
AcDbLine
 10
47.63749977971434
 20
-4.841118898776348
 30
0.0
 11
47.78125138679189
 21
-4.880745236494139
 31
0.0
  0
LINE
  5
425
330
18
100
AcDbEntity
  8
1
 62
     1
100
AcDbLine
 10
47.78125138679189
 20
-4.880745236494139
 30
0.0
 11
47.92500000000001
 21
-4.914754128128374
 31
0.0
  0
LINE
  5
426
330
18
100
AcDbEntity
  8
1
 62
     1
100
AcDbLine
 10
49.07500000000002
 20
-4.98131951511866
 30
0.0
 11
49.21875398615951
 21
-4.963807102007117
 31
0.0
  0
LINE
  5
427
330
18
100
AcDbEntity
  8
1
 62
     1
100
AcDbLine
 10
49.21875398615951
 20
-4.963807102007117
 30
0.0
 11
49.36249999700722
 21
-4.940584113701864
 31
0.0
  0
LINE
  5
428
330
18
100
AcDbEntity
  8
1
 62
     1
100
AcDbLine
 10
49.36249999700722
 20
-4.940584113701864
 30
0.0
 11
49.50625582118994
 21
-4.911673997613939
 31
0.0
  0
LINE
  5
429
330
18
100
AcDbEntity
  8
1
 62
     1
100
AcDbLine
 10
49.50625582118994
 20
-4.911673997613939
 30
0.0
 11
49.65000037840036
 21
-4.877114947902436
 31
0.0
  0
LINE
  5
42A
330
18
100
AcDbEntity
  8
1
 62
     1
100
AcDbLine
 10
49.65000037840036
 20
-4.877114947902436
 30
0.0
 11
49.79375579260743
 21
-4.836940296316933
 31
0.0
  0
LINE
  5
42B
330
18
100
AcDbEntity
  8
1
 62
     1
100
AcDbLine
 10
49.79375579260743
 20
-4.836940296316933
 30
0.0
 11
49.93749985449188
 21
-4.791203594249033
 31
0.0
  0
LINE
  5
42C
330
18
100
AcDbEntity
  8
1
 62
     1
100
AcDbLine
 10
49.93749985449188
 20
-4.791203594249033
 30
0.0
 11
50.22500000000002
 21
-4.683245917325359
 31
0.0
  0
LINE
  5
42D
330
18
100
AcDbEntity
  8
1
 62
     1
100
AcDbLine
 10
58.27500000061277
 20
4.567717742875043
 30
0.0
 11
58.478127008705
 21
4.659920845243226
 31
0.0
  0
LINE
  5
42E
330
18
100
AcDbEntity
  8
1
 62
     1
100
AcDbLine
 10
58.478127008705
 20
4.659920845243226
 30
0.0
 11
58.68124943611831
 21
4.741416858326737
 31
0.0
  0
LINE
  5
42F
330
18
100
AcDbEntity
  8
1
 62
     1
100
AcDbLine
 10
58.68124943611831
 20
4.741416858326737
 30
0.0
 11
58.88437655644364
 21
4.812022230256905
 31
0.0
  0
LINE
  5
430
330
18
100
AcDbEntity
  8
1
 62
     1
100
AcDbLine
 10
58.88437655644364
 20
4.812022230256905
 30
0.0
 11
59.08750784679027
 21
4.871572671263663
 31
0.0
  0
LINE
  5
431
330
18
100
AcDbEntity
  8
1
 62
     1
100
AcDbLine
 10
59.08750784679027
 20
4.871572671263663
 30
0.0
 11
59.29063137829532
 21
4.919928811142124
 31
0.0
  0
LINE
  5
432
330
18
100
AcDbEntity
  8
1
 62
     1
100
AcDbLine
 10
59.29063137829532
 20
4.919928811142124
 30
0.0
 11
59.49375516965773
 21
4.956982930761168
 31
0.0
  0
LINE
  5
433
330
18
100
AcDbEntity
  8
1
 62
     1
100
AcDbLine
 10
59.49375516965773
 20
4.956982930761168
 30
0.0
 11
59.69688708969999
 21
4.982649646798541
 31
0.0
  0
LINE
  5
434
330
18
100
AcDbEntity
  8
1
 62
     1
100
AcDbLine
 10
59.69688708969999
 20
4.982649646798541
 30
0.0
 11
59.90000000000001
 21
4.996867623623498
 31
0.0
  0
ARC
  5
435
330
18
100
AcDbEntity
  8
1
 62
     1
100
AcDbCircle
 10
105.8024680171315
 20
-34.57150433476251
 30
0.0
 40
61.56904171977207
100
AcDbArc
 50
140.5282913104076
 51
141.1831443380393
  0
ARC
  5
436
330
18
100
AcDbEntity
  8
1
 62
     1
100
AcDbCircle
 10
39.24826489865893
 20
7.817607133415142
 30
0.0
 40
15.40777671289005
100
AcDbArc
 50
304.2732958710337
 51
306.9023638326209
  0
LINE
  5
437
330
18
100
AcDbEntity
  8
1
 62
     1
100
AcDbLine
 10
47.92499999999998
 20
-4.914754128128366
 30
0.0
 11
47.92499999999998
 21
-4.999999999999998
 31
0.0
  0
ARC
  5
438
330
18
100
AcDbEntity
  8
1
 62
     1
100
AcDbCircle
 10
2719.836155658411
 20
2061.95056277295
 30
0.0
 40
3380.379566102113
100
AcDbArc
 50
217.663946041093
 51
217.679889936565
  0
LINE
  5
439
330
18
100
AcDbEntity
  8
1
 62
     1
100
AcDbLine
 10
44.47499999999999
 20
-2.705343876217712
 30
0.0
 11
44.47499999999999
 21
-4.303981264467046
 31
0.0
  0
ARC
  5
43A
330
18
100
AcDbEntity
  8
1
 62
     1
100
AcDbCircle
 10
43.98986054365577
 20
-1.234482869519236
 30
0.0
 40
2.326798718399832
100
AcDbArc
 50
253.3969618528753
 51
267.7866645979822
  0
LINE
  5
43B
330
18
100
AcDbEntity
  8
1
 62
     1
100
AcDbLine
 10
43.89999999999999
 20
-3.559511682378704
 30
0.0
 11
43.9
 21
-1.592222733985798
 31
0.0
  0
ARC
  5
43C
330
18
100
AcDbEntity
  8
1
 62
     1
100
AcDbCircle
 10
44.0817034014586
 20
0.8445229615130145
 30
0.0
 40
2.443710646383886
100
AcDbArc
 50
251.9619502052279
 51
265.7354573185636
  0
LINE
  5
43D
330
18
100
AcDbEntity
  8
1
 62
     1
100
AcDbLine
 10
43.325
 20
-1.479118890557288
 30
0.0
 11
43.325
 21
-3.464281348987844
 31
0.0
  0
ARC
  5
43E
330
18
100
AcDbEntity
  8
1
 62
     1
100
AcDbCircle
 10
43.72851995781451
 20
-0.809206350282385
 30
0.0
 40
4.444426821770446
100
AcDbArc
 50
295.2593222006691
 51
303.7824589381898
  0
ARC
  5
43F
330
18
100
AcDbEntity
  8
1
 62
     1
100
AcDbCircle
 10
44.90709112816145
 20
-0.330366748103947
 30
0.0
 40
3.478097798166847
100
AcDbArc
 50
281.9120801485251
 51
291.8210488384853
  0
LINE
  5
440
330
18
100
AcDbEntity
  8
1
 62
     1
100
AcDbLine
 10
45.62499999999999
 20
-3.733532260578381
 30
0.0
 11
45.62499999999999
 21
-4.828624231901218
 31
0.0
  0
ARC
  5
441
330
18
100
AcDbEntity
  8
1
 62
     1
100
AcDbCircle
 10
52.95584185214683
 20
2.73282422254049
 30
0.0
 40
9.899753449620679
100
AcDbArc
 50
226.9667498468577
 51
231.0878288874389
  0
LINE
  5
442
330
18
100
AcDbEntity
  8
1
 62
     1
100
AcDbLine
 10
46.77499999999998
 20
-4.488422755707296
 30
0.0
 11
46.77499999999999
 21
-4.999999999999998
 31
0.0
  0
LINE
  5
443
330
18
100
AcDbEntity
  8
1
 62
     1
100
AcDbLine
 10
46.20000000000001
 20
-4.503505280063611
 30
0.0
 11
46.2
 21
-3.559428680588559
 31
0.0
  0
ARC
  5
444
330
18
100
AcDbEntity
  8
1
 62
     1
100
AcDbCircle
 10
25.83288018562707
 20
-13.83247576353369
 30
0.0
 40
19.96056202036255
100
AcDbArc
 50
35.04375487421733
 51
37.82244451397892
  0
LINE
  5
445
330
18
100
AcDbEntity
  8
1
 62
     1
100
AcDbLine
 10
42.175
 20
-0.1446227770210949
 30
0.0
 11
42.175
 21
-2.370991600650602
 31
0.0
  0
LINE
  5
446
330
18
100
AcDbEntity
  8
1
 62
     1
100
AcDbLine
 10
41.6
 20
-1.592348256409282
 30
0.0
 11
41.6
 21
0.8326625145089892
 31
0.0
  0
ARC
  5
447
330
18
100
AcDbEntity
  8
1
 62
     1
100
AcDbCircle
 10
44.71686211251517
 20
2.657061293528471
 30
0.0
 40
5.270277716338819
100
AcDbArc
 50
225.5330503831721
 51
233.7406524677809
  0
ARC
  5
448
330
18
100
AcDbEntity
  8
1
 62
     1
100
AcDbCircle
 10
43.47334376955151
 20
4.389117075496269
 30
0.0
 40
4.020107264614255
100
AcDbArc
 50
232.4818781135124
 51
242.2222165347508
  0
LINE
  5
449
330
18
100
AcDbEntity
  8
1
 62
     1
100
AcDbLine
 10
41.025
 20
1.20046207226792
 30
0.0
 11
41.025
 21
-1.104142299128194
 31
0.0
  0
ARC
  5
44A
330
18
100
AcDbEntity
  8
1
 62
     1
100
AcDbCircle
 10
34.51978281225169
 20
-4.404919555284293
 30
0.0
 40
7.090992011433931
100
AcDbArc
 50
40.95872989549105
 51
47.61331674146343
  0
LINE
  5
44B
330
18
100
AcDbEntity
  8
1
 62
     1
100
AcDbLine
 10
39.87499999999999
 20
2.457669798942724
 30
0.0
 11
39.87499999999999
 21
0.243531752553549
 31
0.0
  0
ARC
  5
44C
330
18
100
AcDbEntity
  8
1
 62
     1
100
AcDbCircle
 10
50.73107574887125
 20
10.29332587509188
 30
0.0
 40
14.83853777109122
100
AcDbArc
 50
215.9906987459735
 51
219.6124578569106
  0
LINE
  5
44D
330
18
100
AcDbEntity
  8
1
 62
     1
100
AcDbLine
 10
39.3
 20
0.8325303762801781
 30
0.0
 11
39.3
 21
3.018201561251446
 31
0.0
  0
LINE
  5
44E
330
18
100
AcDbEntity
  8
1
 62
     1
100
AcDbLine
 10
38.725
 20
3.534974036793591
 30
0.0
 11
38.725
 21
1.573378760579349
 31
0.0
  0
ARC
  5
44F
330
18
100
AcDbEntity
  8
1
 62
     1
100
AcDbCircle
 10
40.08159354910929
 20
1.401256057063586
 30
0.0
 40
3.598744410967134
100
AcDbArc
 50
90.00192743738569
 51
93.29099485805735
  0
ARC
  5
450
330
18
100
AcDbEntity
  8
1
 62
     1
100
AcDbCircle
 10
42.03135116363205
 20
1.173441957971056
 30
0.0
 40
3.827282135805584
100
AcDbArc
 50
70.24828160063161
 51
87.84895335092789
  0
LINE
  5
451
330
18
100
AcDbEntity
  8
1
 62
     1
100
AcDbLine
 10
42.175
 20
4.402090279588123
 30
0.0
 11
42.4625000294804
 21
4.231219695045695
 31
0.0
  0
LINE
  5
452
330
18
100
AcDbEntity
  8
1
 62
     1
100
AcDbLine
 10
42.4625000294804
 20
4.231219695045695
 30
0.0
 11
42.75000001818119
 21
4.040879501783275
 31
0.0
  0
LINE
  5
453
330
18
100
AcDbEntity
  8
1
 62
     1
100
AcDbLine
 10
42.75000001818119
 20
4.040879501783275
 30
0.0
 11
43.03750004813812
 21
3.831945250332181
 31
0.0
  0
LINE
  5
454
330
18
100
AcDbEntity
  8
1
 62
     1
100
AcDbLine
 10
43.03750004813812
 20
3.831945250332181
 30
0.0
 11
43.325
 21
3.605378584151042
 31
0.0
  0
LINE
  5
455
330
18
100
AcDbEntity
  8
1
 62
     1
100
AcDbLine
 10
44.47499999999999
 20
4.204891735991692
 30
0.0
 11
44.7625003215722
 21
4.011807533701914
 31
0.0
  0
LINE
  5
456
330
18
100
AcDbEntity
  8
1
 62
     1
100
AcDbLine
 10
44.7625003215722
 20
4.011807533701914
 30
0.0
 11
45.05000006084845
 21
3.800263257743046
 31
0.0
  0
LINE
  5
457
330
18
100
AcDbEntity
  8
1
 62
     1
100
AcDbLine
 10
45.05000006084845
 20
3.800263257743046
 30
0.0
 11
45.33749971059
 21
3.571232035622069
 31
0.0
  0
LINE
  5
458
330
18
100
AcDbEntity
  8
1
 62
     1
100
AcDbLine
 10
45.33749971059
 20
3.571232035622069
 30
0.0
 11
45.62500000000001
 21
3.325768611797937
 31
0.0
  0
ARC
  5
459
330
18
100
AcDbEntity
  8
1
 62
     1
100
AcDbCircle
 10
24.04010295743403
 20
-17.43883866971612
 30
0.0
 40
28.58208365155662
100
AcDbArc
 50
40.95947601281372
 51
44.36026615158394
  0
ARC
  5
45A
330
18
100
AcDbEntity
  8
1
 62
     1
100
AcDbCircle
 10
20.03954449998085
 20
-22.8823222498227
 30
0.0
 40
36.66163801880398
100
AcDbArc
 50
40.48245555262588
 51
43.17636252884194
  0
ARC
  5
45B
330
18
100
AcDbEntity
  8
1
 62
     1
100
AcDbCircle
 10
123.1873492487099
 20
64.38912060310489
 30
0.0
 40
99.95230929546219
100
AcDbArc
 50
220.1385948902593
 51
221.1502584387122
  0
ARC
  5
45C
330
18
100
AcDbEntity
  8
1
 62
     1
100
AcDbCircle
 10
96.0939853205405
 20
39.35540820233575
 30
0.0
 40
61.59378980175667
100
AcDbArc
 50
220.2377205345736
 51
221.8659806298637
  0
ARC
  5
45D
330
18
100
AcDbEntity
  8
1
 62
     1
100
AcDbCircle
 10
59.36867659558035
 20
7.531747082551853
 30
0.0
 40
14.45744771421908
100
AcDbArc
 50
224.6029023726728
 51
230.7658826586153
  0
LINE
  5
45E
330
18
100
AcDbEntity
  8
1
 62
     1
100
AcDbLine
 10
51.37499999999998
 20
-2.94268309709545
 30
0.0
 11
51.95000039657828
 21
-3.462476661532094
 31
0.0
  0
LINE
  5
45F
330
18
100
AcDbEntity
  8
1
 62
     1
100
AcDbLine
 10
51.95000039657828
 20
-3.462476661532094
 30
0.0
 11
52.23750000222381
 21
-3.699055918592867
 31
0.0
  0
LINE
  5
460
330
18
100
AcDbEntity
  8
1
 62
     1
100
AcDbLine
 10
52.23750000222381
 20
-3.699055918592867
 30
0.0
 11
52.52500000000001
 21
-3.918613915101822
 31
0.0
  0
LINE
  5
461
330
18
100
AcDbEntity
  8
1
 62
     1
100
AcDbLine
 10
51.37500000053824
 20
-4.443202926877922
 30
0.0
 11
51.66250005988552
 21
-4.588436335734165
 31
0.0
  0
LINE
  5
462
330
18
100
AcDbEntity
  8
1
 62
     1
100
AcDbLine
 10
51.66250005988552
 20
-4.588436335734165
 30
0.0
 11
51.95000006100364
 21
-4.712556062640013
 31
0.0
  0
LINE
  5
463
330
18
100
AcDbEntity
  8
1
 62
     1
100
AcDbLine
 10
51.95000006100364
 20
-4.712556062640013
 30
0.0
 11
52.23749999956559
 21
-4.814990971699633
 31
0.0
  0
LINE
  5
464
330
18
100
AcDbEntity
  8
1
 62
     1
100
AcDbLine
 10
52.23749999956559
 20
-4.814990971699633
 30
0.0
 11
52.38125399761513
 21
-4.857926028390779
 31
0.0
  0
LINE
  5
465
330
18
100
AcDbEntity
  8
1
 62
     1
100
AcDbLine
 10
52.38125399761513
 20
-4.857926028390779
 30
0.0
 11
52.52500000115743
 21
-4.895269685496819
 31
0.0
  0
ARC
  5
466
330
18
100
AcDbEntity
  8
1
 62
     1
100
AcDbCircle
 10
55.51255149859843
 20
-0.6678869993285375
 30
0.0
 40
4.34710524242149
100
AcDbArc
 50
244.9953636046857
 51
260.8980735770108
  0
LINE
  5
467
330
18
100
AcDbEntity
  8
1
 62
     1
100
AcDbLine
 10
55.9749999994872
 20
-4.948243122673796
 30
0.0
 11
56.11875201268802
 21
-4.921057489457027
 31
0.0
  0
LINE
  5
468
330
18
100
AcDbEntity
  8
1
 62
     1
100
AcDbLine
 10
56.11875201268802
 20
-4.921057489457027
 30
0.0
 11
56.26249963666204
 21
-4.888211221320013
 31
0.0
  0
LINE
  5
469
330
18
100
AcDbEntity
  8
1
 62
     1
100
AcDbLine
 10
56.26249963666204
 20
-4.888211221320013
 30
0.0
 11
56.40625234465436
 21
-4.84973795287619
 31
0.0
  0
LINE
  5
46A
330
18
100
AcDbEntity
  8
1
 62
     1
100
AcDbLine
 10
56.40625234465436
 20
-4.84973795287619
 30
0.0
 11
56.55000004838583
 21
-4.805686327342698
 31
0.0
  0
LINE
  5
46B
330
18
100
AcDbEntity
  8
1
 62
     1
100
AcDbLine
 10
56.55000004838583
 20
-4.805686327342698
 30
0.0
 11
56.83750039708676
 21
-4.701048079274174
 31
0.0
  0
LINE
  5
46C
330
18
100
AcDbEntity
  8
1
 62
     1
100
AcDbLine
 10
56.83750039708676
 20
-4.701048079274174
 30
0.0
 11
57.12500000219114
 21
-4.574777739427223
 31
0.0
  0
ARC
  5
46D
330
18
100
AcDbEntity
  8
1
 62
     1
100
AcDbCircle
 10
69.45204981612173
 20
-17.26212953071625
 30
0.0
 40
17.68965363843899
100
AcDbArc
 50
131.6327060657045
 51
134.174781224981
  0
LINE
  5
46E
330
18
100
AcDbEntity
  8
1
 62
     1
100
AcDbLine
 10
59.9
 20
-4.386650153857442
 30
0.0
 11
59.9
 21
-4.996867623623495
 31
0.0
  0
LINE
  5
46F
330
18
100
AcDbEntity
  8
1
 62
     1
100
AcDbLine
 10
60.0
 20
-4.899658881458341
 30
0.0
 11
59.90000000000001
 21
-4.996867623623498
 31
0.0
  0
LINE
  5
470
330
18
100
AcDbEntity
  8
1
 62
     1
100
AcDbLine
 10
54.82500000000001
 20
-4.959490457756014
 30
0.0
 11
54.825
 21
-4.999999999999998
 31
0.0
  0
LINE
  5
471
330
18
100
AcDbEntity
  8
1
 62
     1
100
AcDbLine
 10
48.5
 20
-1.834215680817348
 30
0.0
 11
48.5
 21
0.5746236976411909
 31
0.0
  0
ARC
  5
472
330
18
100
AcDbEntity
  8
1
 62
     1
100
AcDbCircle
 10
30.58892864892683
 20
-15.53504034726741
 30
0.0
 40
22.55039694718447
100
AcDbArc
 50
34.9390777373997
 51
37.41367816310941
  0
LINE
  5
473
330
18
100
AcDbEntity
  8
1
 62
     1
100
AcDbLine
 10
49.07499999999999
 20
-0.4318053824328707
 30
0.0
 11
49.075
 21
-2.620225398714614
 31
0.0
  0
ARC
  5
474
330
18
100
AcDbEntity
  8
1
 62
     1
100
AcDbCircle
 10
50.13124127139894
 20
3.94189938633999
 30
0.0
 40
3.742023835803567
100
AcDbArc
 50
233.8733354717618
 51
244.1526203243599
  0
LINE
  5
475
330
18
100
AcDbEntity
  8
1
 62
     1
100
AcDbLine
 10
47.92499999999998
 20
0.9193431677263345
 30
0.0
 11
47.92499999999998
 21
-1.382758812824651
 31
0.0
  0
ARC
  5
476
330
18
100
AcDbEntity
  8
1
 62
     1
100
AcDbCircle
 10
51.11620224820428
 20
2.08560842019099
 30
0.0
 40
4.713038357098877
100
AcDbArc
 50
227.3832207734428
 51
236.2797247082829
  0
LINE
  5
477
330
18
100
AcDbEntity
  8
1
 62
     1
100
AcDbLine
 10
53.09999999999999
 20
-4.529090195017023
 30
0.0
 11
53.1
 21
-3.715606589586314
 31
0.0
  0
ARC
  5
478
330
18
100
AcDbEntity
  8
1
 62
     1
100
AcDbCircle
 10
59.1118684925236
 20
2.35246796973088
 30
0.0
 40
9.137739869546396
100
AcDbArc
 50
228.8588796629045
 51
231.2617421062054
  0
LINE
  5
479
330
18
100
AcDbEntity
  8
1
 62
     1
100
AcDbLine
 10
53.67499999999999
 20
-4.607696517520679
 30
0.0
 11
53.675
 21
-4.999999999999998
 31
0.0
  0
LINE
  5
47A
330
18
100
AcDbEntity
  8
1
 62
     1
100
AcDbLine
 10
52.52500000000001
 20
-3.918613915101818
 30
0.0
 11
52.52500000000002
 21
-4.895269773421533
 31
0.0
  0
ARC
  5
47B
330
18
100
AcDbEntity
  8
1
 62
     1
100
AcDbCircle
 10
50.03793794517133
 20
-0.3609726969042102
 30
0.0
 40
5.171650061107403
100
AcDbArc
 50
298.7447693811868
 51
306.3024584782511
  0
ARC
  5
47C
330
18
100
AcDbEntity
  8
1
 62
     1
100
AcDbCircle
 10
169.7354388723637
 20
89.66226173691145
 30
0.0
 40
151.2120087630722
100
AcDbArc
 50
218.1359747525772
 51
218.4873438929499
  0
LINE
  5
47D
330
18
100
AcDbEntity
  8
1
 62
     1
100
AcDbLine
 10
51.37499999999999
 20
-2.942683097095462
 30
0.0
 11
51.37499999999999
 21
-4.4432029825241
 31
0.0
  0
LINE
  5
47E
330
18
100
AcDbEntity
  8
1
 62
     1
100
AcDbLine
 10
50.22500000000002
 20
-1.751344534309394
 30
0.0
 11
50.22500000000002
 21
-3.665887960294417
 31
0.0
  0
ARC
  5
47F
330
18
100
AcDbEntity
  8
1
 62
     1
100
AcDbCircle
 10
50.70783299275452
 20
-1.432875147182493
 30
0.0
 40
2.284621441930858
100
AcDbArc
 50
257.7990554469011
 51
272.3120268517554
  0
LINE
  5
480
330
18
100
AcDbEntity
  8
1
 62
     1
100
AcDbLine
 10
50.79999999999998
 20
-3.715683384759596
 30
0.0
 11
50.79999999999999
 21
-1.834093560725071
 31
0.0
  0
ARC
  5
481
330
18
100
AcDbEntity
  8
1
 62
     1
100
AcDbCircle
 10
40.76350052154068
 20
-5.048395003058291
 30
0.0
 40
7.821321524535395
100
AcDbArc
 50
40.19915331067577
 51
45.96552961480619
  0
LINE
  5
482
330
18
100
AcDbEntity
  8
1
 62
     1
100
AcDbLine
 10
46.77499999999998
 20
2.2031934018712
 30
0.0
 11
46.77499999999999
 21
-0.0440726949963968
 31
0.0
  0
ARC
  5
483
330
18
100
AcDbEntity
  8
1
 62
     1
100
AcDbCircle
 10
51.52920278304914
 20
9.404357547506512
 30
0.0
 40
8.47399594045999
100
AcDbArc
 50
225.8337694170055
 51
229.2580111217321
  0
LINE
  5
484
330
18
100
AcDbEntity
  8
1
 62
     1
100
AcDbLine
 10
45.625
 20
3.325768611797947
 30
0.0
 11
45.62499999999999
 21
1.297839754012938
 31
0.0
  0
ARC
  5
485
330
18
100
AcDbEntity
  8
1
 62
     1
100
AcDbCircle
 10
56.32978898330711
 20
9.212267462778314
 30
0.0
 40
13.31276048606018
100
AcDbArc
 50
216.4768222424505
 51
220.4545718694512
  0
LINE
  5
486
330
18
100
AcDbEntity
  8
1
 62
     1
100
AcDbLine
 10
46.2
 20
0.5744912466164597
 30
0.0
 11
46.2
 21
2.81816739527722
 31
0.0
  0
ARC
  5
487
330
18
100
AcDbEntity
  8
1
 62
     1
100
AcDbCircle
 10
42.94459044373546
 20
0.0705020565400205
 30
0.0
 40
2.908990410574314
100
AcDbArc
 50
58.26173354934159
 51
70.82589694516479
  0
LINE
  5
488
330
18
100
AcDbEntity
  8
1
 62
     1
100
AcDbLine
 10
44.47499999999999
 20
4.204891735991697
 30
0.0
 11
44.47499999999999
 21
2.544748568152974
 31
0.0
  0
ARC
  5
489
330
18
100
AcDbEntity
  8
1
 62
     1
100
AcDbCircle
 10
61.27117339921236
 20
23.86043880468536
 30
0.0
 40
26.19677958164187
100
AcDbArc
 50
226.7603132238334
 51
228.4626977189767
  0
LINE
  5
48A
330
18
100
AcDbEntity
  8
1
 62
     1
100
AcDbLine
 10
43.32500000000001
 20
4.776212653096235
 30
0.0
 11
43.325
 21
3.605378584151036
 31
0.0
  0
ARC
  5
48B
330
18
100
AcDbEntity
  8
1
 62
     1
100
AcDbCircle
 10
84.5549761557204
 20
33.10299306782326
 30
0.0
 40
50.69534182483359
100
AcDbArc
 50
215.5814835283151
 51
216.683367474143
  0
LINE
  5
48C
330
18
100
AcDbEntity
  8
1
 62
     1
100
AcDbLine
 10
43.9
 20
2.818062558391775
 30
0.0
 11
43.9
 21
4.251638127284452
 31
0.0
  0
LINE
  5
48D
330
18
100
AcDbEntity
  8
1
 62
     1
100
AcDbLine
 10
41.59999999999999
 20
4.54
 30
0.0
 11
41.02499999999999
 21
5.0
 31
0.0
  0
LINE
  5
48E
330
18
100
AcDbEntity
  8
1
 62
     1
100
AcDbLine
 10
42.09396876948541
 20
4.935175015588332
 30
0.0
 11
41.59999999999999
 21
4.54
 31
0.0
  0
LINE
  5
48F
330
18
100
AcDbEntity
  8
1
 62
     1
100
AcDbLine
 10
42.09396876948541
 20
4.93517501558834
 30
0.0
 11
42.175
 21
4.997907987585076
 31
0.0
  0
LINE
  5
490
330
18
100
AcDbEntity
  8
1
 62
     1
100
AcDbLine
 10
41.59999999999999
 20
4.251591117488874
 30
0.0
 11
41.59999999999999
 21
4.54
 31
0.0
  0
ARC
  5
491
330
18
100
AcDbEntity
  8
1
 62
     1
100
AcDbCircle
 10
42.60011063381929
 20
1.610409069709123
 30
0.0
 40
2.824137197965269
100
AcDbArc
 50
98.65835046034785
 51
110.7396845825106
  0
LINE
  5
492
330
18
100
AcDbEntity
  8
1
 62
     1
100
AcDbLine
 10
42.175
 20
4.997907987585076
 30
0.0
 11
42.175
 21
4.40209027958812
 31
0.0
  0
ARC
  5
493
330
18
100
AcDbEntity
  8
1
 62
     1
100
AcDbCircle
 10
37.31178816073929
 20
1.154624053961105
 30
0.0
 40
3.859485912602828
100
AcDbArc
 50
58.99579271699513
 51
68.52026659487093
  0
ARC
  5
494
330
18
100
AcDbEntity
  8
1
 62
     1
100
AcDbCircle
 10
47.58302139296057
 20
-3.922814074580487
 30
0.0
 40
11.78683792919286
100
AcDbArc
 50
130.8411302056349
 51
134.6466277269289
  0
LINE
  5
495
330
18
100
AcDbEntity
  8
1
 62
     1
100
AcDbLine
 10
44.47500000000002
 20
4.303981264467053
 30
0.0
 11
44.7625000449841
 21
4.466600549442142
 31
0.0
  0
LINE
  5
496
330
18
100
AcDbEntity
  8
1
 62
     1
100
AcDbLine
 10
44.7625000449841
 20
4.466600549442142
 30
0.0
 11
45.05000001239319
 21
4.60866714174109
 31
0.0
  0
LINE
  5
497
330
18
100
AcDbEntity
  8
1
 62
     1
100
AcDbLine
 10
45.05000001239319
 20
4.60866714174109
 30
0.0
 11
45.33750002808942
 21
4.729526928573403
 31
0.0
  0
LINE
  5
498
330
18
100
AcDbEntity
  8
1
 62
     1
100
AcDbLine
 10
45.33750002808942
 20
4.729526928573403
 30
0.0
 11
45.62500000000001
 21
4.828624231901218
 31
0.0
  0
LINE
  5
499
330
18
100
AcDbEntity
  8
1
 62
     1
100
AcDbLine
 10
46.77499999999999
 20
5.0
 30
0.0
 11
47.92499999999998
 21
5.0
 31
0.0
  0
LINE
  5
49A
330
18
100
AcDbEntity
  8
1
 62
     1
100
AcDbLine
 10
49.075
 20
4.981319515118659
 30
0.0
 11
49.2187544817277
 21
4.963807139151076
 31
0.0
  0
LINE
  5
49B
330
18
100
AcDbEntity
  8
1
 62
     1
100
AcDbLine
 10
49.2187544817277
 20
4.963807139151076
 30
0.0
 11
49.36250001339641
 21
4.940583992274993
 31
0.0
  0
LINE
  5
49C
330
18
100
AcDbEntity
  8
1
 62
     1
100
AcDbLine
 10
49.36250001339641
 20
4.940583992274993
 30
0.0
 11
49.50625595871895
 21
4.911674077041106
 31
0.0
  0
LINE
  5
49D
330
18
100
AcDbEntity
  8
1
 62
     1
100
AcDbLine
 10
49.50625595871895
 20
4.911674077041106
 30
0.0
 11
49.65000032003993
 21
4.877114816563664
 31
0.0
  0
LINE
  5
49E
330
18
100
AcDbEntity
  8
1
 62
     1
100
AcDbLine
 10
49.65000032003993
 20
4.877114816563664
 30
0.0
 11
49.79375593381494
 21
4.836940364009958
 31
0.0
  0
LINE
  5
49F
330
18
100
AcDbEntity
  8
1
 62
     1
100
AcDbLine
 10
49.79375593381494
 20
4.836940364009958
 30
0.0
 11
49.93749988155432
 21
4.791203484972404
 31
0.0
  0
LINE
  5
4A0
330
18
100
AcDbEntity
  8
1
 62
     1
100
AcDbLine
 10
49.93749988155432
 20
4.791203484972404
 30
0.0
 11
50.22499999999999
 21
4.683245917325353
 31
0.0
  0
LINE
  5
4A1
330
18
100
AcDbEntity
  8
1
 62
     1
100
AcDbLine
 10
49.075
 20
4.258452636807268
 30
0.0
 11
49.3625000720513
 21
4.071015899501206
 31
0.0
  0
LINE
  5
4A2
330
18
100
AcDbEntity
  8
1
 62
     1
100
AcDbLine
 10
49.3625000720513
 20
4.071015899501206
 30
0.0
 11
49.65000004288937
 21
3.864846473770517
 31
0.0
  0
LINE
  5
4A3
330
18
100
AcDbEntity
  8
1
 62
     1
100
AcDbLine
 10
49.65000004288937
 20
3.864846473770517
 30
0.0
 11
49.93750000669397
 21
3.640892989748107
 31
0.0
  0
LINE
  5
4A4
330
18
100
AcDbEntity
  8
1
 62
     1
100
AcDbLine
 10
49.93750000669397
 20
3.640892989748107
 30
0.0
 11
50.22499999999999
 21
3.400186092343821
 31
0.0
  0
LINE
  5
4A5
330
18
100
AcDbEntity
  8
1
 62
     1
100
AcDbLine
 10
51.375
 20
4.04235280376029
 30
0.0
 11
51.66249982836106
 21
3.833551734134439
 31
0.0
  0
LINE
  5
4A6
330
18
100
AcDbEntity
  8
1
 62
     1
100
AcDbLine
 10
51.66249982836106
 20
3.833551734134439
 30
0.0
 11
51.95000035752403
 21
3.607111290468108
 31
0.0
  0
LINE
  5
4A7
330
18
100
AcDbEntity
  8
1
 62
     1
100
AcDbLine
 10
51.95000035752403
 20
3.607111290468108
 30
0.0
 11
52.52500000000001
 21
3.105553893328909
 31
0.0
  0
ARC
  5
4A8
330
18
100
AcDbEntity
  8
1
 62
     1
100
AcDbCircle
 10
26.51576736399317
 20
-21.26613010345055
 30
0.0
 40
34.249419056843
100
AcDbArc
 50
40.58923719038663
 51
43.46192168752584
  0
ARC
  5
4A9
330
18
100
AcDbEntity
  8
1
 62
     1
100
AcDbCircle
 10
20.18318626811039
 20
-28.68093076134461
 30
0.0
 40
45.38105053946523
100
AcDbArc
 50
40.24002792033941
 51
42.4374125932632
  0
ARC
  5
4AA
330
18
100
AcDbEntity
  8
1
 62
     1
100
AcDbCircle
 10
106.0357327833545
 20
43.91032867183889
 30
0.0
 40
68.54906881211284
100
AcDbArc
 50
220.1959205731594
 51
221.6625735575765
  0
ARC
  5
4AB
330
18
100
AcDbEntity
  8
1
 62
     1
100
AcDbCircle
 10
92.03277741971422
 20
29.99162737655971
 30
0.0
 40
47.36251124395763
100
AcDbArc
 50
220.419909753088
 51
222.5199038531955
  0
LINE
  5
4AC
330
18
100
AcDbEntity
  8
1
 62
     1
100
AcDbLine
 10
55.97500000098146
 20
-2.860786197022053
 30
0.0
 11
56.55000008857407
 21
-3.389228630437445
 31
0.0
  0
LINE
  5
4AD
330
18
100
AcDbEntity
  8
1
 62
     1
100
AcDbLine
 10
56.55000008857407
 20
-3.389228630437445
 30
0.0
 11
56.83750003069621
 21
-3.630647876306937
 31
0.0
  0
LINE
  5
4AE
330
18
100
AcDbEntity
  8
1
 62
     1
100
AcDbLine
 10
56.83750003069621
 20
-3.630647876306937
 30
0.0
 11
57.12499999878671
 21
-3.855360649027058
 31
0.0
  0
LINE
  5
4AF
330
18
100
AcDbEntity
  8
1
 62
     1
100
AcDbLine
 10
58.2750000049984
 20
-3.170282344020421
 30
0.0
 11
58.68125160546795
 21
-3.525837523579424
 31
0.0
  0
LINE
  5
4B0
330
18
100
AcDbEntity
  8
1
 62
     1
100
AcDbLine
 10
58.68125160546795
 20
-3.525837523579424
 30
0.0
 11
59.08750510877346
 21
-3.849011668134102
 31
0.0
  0
LINE
  5
4B1
330
18
100
AcDbEntity
  8
1
 62
     1
100
AcDbLine
 10
59.08750510877346
 20
-3.849011668134102
 30
0.0
 11
59.49374863050755
 21
-4.136830402327751
 31
0.0
  0
LINE
  5
4B2
330
18
100
AcDbEntity
  8
1
 62
     1
100
AcDbLine
 10
59.49374863050755
 20
-4.136830402327751
 30
0.0
 11
59.69688050467117
 21
-4.266644718812818
 31
0.0
  0
LINE
  5
4B3
330
18
100
AcDbEntity
  8
1
 62
     1
100
AcDbLine
 10
59.69688050467117
 20
-4.266644718812818
 30
0.0
 11
59.90000000000001
 21
-4.386650153857439
 31
0.0
  0
LINE
  5
4B4
330
18
100
AcDbEntity
  8
1
 62
     1
100
AcDbLine
 10
58.2750000004595
 20
-4.567717751994401
 30
0.0
 11
58.47812730380716
 21
-4.659920983572095
 31
0.0
  0
LINE
  5
4B5
330
18
100
AcDbEntity
  8
1
 62
     1
100
AcDbLine
 10
58.47812730380716
 20
-4.659920983572095
 30
0.0
 11
58.68124970081479
 21
-4.741416945494377
 31
0.0
  0
LINE
  5
4B6
330
18
100
AcDbEntity
  8
1
 62
     1
100
AcDbLine
 10
58.68124970081479
 20
-4.741416945494377
 30
0.0
 11
58.88437646594177
 21
-4.812022191192742
 31
0.0
  0
LINE
  5
4B7
330
18
100
AcDbEntity
  8
1
 62
     1
100
AcDbLine
 10
58.88437646594177
 20
-4.812022191192742
 30
0.0
 11
59.08750793733641
 21
-4.871572713431503
 31
0.0
  0
LINE
  5
4B8
330
18
100
AcDbEntity
  8
1
 62
     1
100
AcDbLine
 10
59.08750793733641
 20
-4.871572713431503
 30
0.0
 11
59.29063158498423
 21
-4.919928853695298
 31
0.0
  0
LINE
  5
4B9
330
18
100
AcDbEntity
  8
1
 62
     1
100
AcDbLine
 10
59.29063158498423
 20
-4.919928853695298
 30
0.0
 11
59.49375516978995
 21
-4.956982912575688
 31
0.0
  0
LINE
  5
4BA
330
18
100
AcDbEntity
  8
1
 62
     1
100
AcDbLine
 10
59.49375516978995
 20
-4.956982912575688
 30
0.0
 11
59.69688690847069
 21
-4.982649641801259
 31
0.0
  0
LINE
  5
4BB
330
18
100
AcDbEntity
  8
1
 62
     1
100
AcDbLine
 10
59.69688690847069
 20
-4.982649641801259
 30
0.0
 11
59.90000000000002
 21
-4.996867623623498
 31
0.0
  0
ARC
  5
4BC
330
18
100
AcDbEntity
  8
1
 62
     1
100
AcDbCircle
 10
57.62837338498576
 20
0.3327011318488062
 30
0.0
 40
2.403752358501148
100
AcDbArc
 50
257.9122273101755
 51
271.7076078458919
  0
LINE
  5
4BD
330
18
100
AcDbEntity
  8
1
 62
     1
100
AcDbLine
 10
57.12500000000002
 20
-2.017773138777594
 30
0.0
 11
57.12500000000001
 21
-3.855360682986562
 31
0.0
  0
ARC
  5
4BE
330
18
100
AcDbEntity
  8
1
 62
     1
100
AcDbCircle
 10
57.42851087569154
 20
-1.583287299461914
 30
0.0
 40
2.292275431292028
100
AcDbArc
 50
262.3912898005543
 51
276.8015010569176
  0
LINE
  5
4BF
330
18
100
AcDbEntity
  8
1
 62
     1
100
AcDbLine
 10
57.7
 20
-3.859556269909981
 30
0.0
 11
57.7
 21
-2.069892410677366
 31
0.0
  0
ARC
  5
4C0
330
18
100
AcDbEntity
  8
1
 62
     1
100
AcDbCircle
 10
115.3563021319448
 20
42.3505775342291
 30
0.0
 40
73.88925314764549
100
AcDbArc
 50
218.7113321351587
 51
219.4186861405426
  0
LINE
  5
4C1
330
18
100
AcDbEntity
  8
1
 62
     1
100
AcDbLine
 10
58.27499999999999
 20
-3.170282367616921
 30
0.0
 11
58.27499999999999
 21
-4.567717778058596
 31
0.0
  0
LINE
  5
4C2
330
18
100
AcDbEntity
  8
1
 62
     1
100
AcDbLine
 10
59.90000000000001
 20
2.399437523183834
 30
0.0
 11
59.90000000000001
 21
0.1769574863725476
 31
0.0
  0
LINE
  5
4C3
330
18
100
AcDbEntity
  8
1
 62
     1
100
AcDbLine
 10
60.0
 20
0.0578173446848295
 30
0.0
 11
59.90000000000001
 21
0.1769574863725644
 31
0.0
  0
LINE
  5
4C4
330
18
100
AcDbEntity
  8
1
 62
     1
100
AcDbLine
 10
48.8355752206965
 20
4.808460176557205
 30
0.0
 11
48.5
 21
4.54
 31
0.0
  0
ARC
  5
4C5
330
18
100
AcDbEntity
  8
1
 62
     1
100
AcDbCircle
 10
49.25433849001058
 20
1.667483913938665
 30
0.0
 40
2.597398088370948
100
AcDbArc
 50
93.95951364344917
 51
106.882834097232
  0
LINE
  5
4C6
330
18
100
AcDbEntity
  8
1
 62
     1
100
AcDbLine
 10
49.075
 20
4.981319515118658
 30
0.0
 11
49.075
 21
4.258452636807267
 31
0.0
  0
LINE
  5
4C7
330
18
100
AcDbEntity
  8
1
 62
     1
100
AcDbLine
 10
54.825
 20
0.6351806037868194
 30
0.0
 11
54.825
 21
-1.656798550181546
 31
0.0
  0
ARC
  5
4C8
330
18
100
AcDbEntity
  8
1
 62
     1
100
AcDbCircle
 10
57.568999159015
 20
1.550761682116661
 30
0.0
 40
4.221068888590748
100
AcDbArc
 50
229.4537196522543
 51
239.0765774010053
  0
LINE
  5
4C9
330
18
100
AcDbEntity
  8
1
 62
     1
100
AcDbLine
 10
55.4
 20
-2.070011938286274
 30
0.0
 11
55.39999999999999
 21
0.3146840953511213
 31
0.0
  0
ARC
  5
4CA
330
18
100
AcDbEntity
  8
1
 62
     1
100
AcDbCircle
 10
34.89744947148522
 20
-17.57698179428299
 30
0.0
 40
25.70646081735601
100
AcDbArc
 50
34.92247075755953
 51
37.10180022859444
  0
LINE
  5
4CB
330
18
100
AcDbEntity
  8
1
 62
     1
100
AcDbLine
 10
55.97499999999999
 20
-0.7175581961913914
 30
0.0
 11
55.97499999999999
 21
-2.860786230760128
 31
0.0
  0
ARC
  5
4CC
330
18
100
AcDbEntity
  8
1
 62
     1
100
AcDbCircle
 10
47.36095770229802
 20
-5.339711373682673
 30
0.0
 40
8.05651275184938
100
AcDbArc
 50
41.51215443523328
 51
44.57365555922697
  0
LINE
  5
4CD
330
18
100
AcDbEntity
  8
1
 62
     1
100
AcDbLine
 10
53.675
 20
1.941425456314937
 30
0.0
 11
53.675
 21
-0.3315311763225633
 31
0.0
  0
LINE
  5
4CE
330
18
100
AcDbEntity
  8
1
 62
     1
100
AcDbLine
 10
52.52500000000001
 20
3.105553893328908
 30
0.0
 11
52.52500000000001
 21
1.018004835659168
 31
0.0
  0
ARC
  5
4CF
330
18
100
AcDbEntity
  8
1
 62
     1
100
AcDbCircle
 10
62.06235205434319
 20
8.222388939623944
 30
0.0
 40
11.95253942141818
100
AcDbArc
 50
217.0668956453171
 51
221.423237028346
  0
LINE
  5
4D0
330
18
100
AcDbEntity
  8
1
 62
     1
100
AcDbLine
 10
53.09999999999999
 20
0.3145504814821619
 30
0.0
 11
53.09999999999999
 21
2.608805794117843
 31
0.0
  0
ARC
  5
4D1
330
18
100
AcDbEntity
  8
1
 62
     1
100
AcDbCircle
 10
49.56244622070448
 20
-0.3229654775819446
 30
0.0
 40
3.182228035174072
100
AcDbArc
 50
55.28285193397002
 51
67.11374479463313
  0
LINE
  5
4D2
330
18
100
AcDbEntity
  8
1
 62
     1
100
AcDbLine
 10
51.37499999999998
 20
4.042352803760301
 30
0.0
 11
51.37499999999999
 21
2.29302142512644
 31
0.0
  0
LINE
  5
4D3
330
18
100
AcDbEntity
  8
1
 62
     1
100
AcDbLine
 10
50.22500000000001
 20
4.683245917325351
 30
0.0
 11
50.22500000000001
 21
3.400186092343808
 31
0.0
  0
ARC
  5
4D4
330
18
100
AcDbEntity
  8
1
 62
     1
100
AcDbCircle
 10
83.24691762725065
 20
26.7769428553989
 30
0.0
 40
40.45884007062711
100
AcDbArc
 50
215.2953027130113
 51
216.6807650002613
  0
LINE
  5
4D5
330
18
100
AcDbEntity
  8
1
 62
     1
100
AcDbLine
 10
50.79999999999999
 20
2.608696414729294
 30
0.0
 11
50.8
 21
4.153035132346806
 31
0.0
  0
ARC
  5
4D6
330
18
100
AcDbEntity
  8
1
 62
     1
100
AcDbCircle
 10
52.95574342252625
 20
-2.732715209672486
 30
0.0
 40
9.89960662318459
100
AcDbArc
 50
128.9121241429082
 51
133.0332643037029
  0
ARC
  5
4D7
330
18
100
AcDbEntity
  8
1
 62
     1
100
AcDbCircle
 10
43.72851995781268
 20
0.809206350279049
 30
0.0
 40
4.44442682177424
100
AcDbArc
 50
56.21754106181442
 51
64.74067779932781
  0
LINE
  5
4D8
330
18
100
AcDbEntity
  8
1
 62
     1
100
AcDbLine
 10
44.41130454843698
 20
4.221776658691223
 30
0.0
 11
44.47499999999999
 21
4.303981264467042
 31
0.0
  0
LINE
  5
4D9
330
18
100
AcDbEntity
  8
1
 62
     1
100
AcDbLine
 10
39.87500000000001
 20
-4.35429203379274
 30
0.0
 11
40.16250043782352
 21
-4.510892183722918
 31
0.0
  0
LINE
  5
4DA
330
18
100
AcDbEntity
  8
1
 62
     1
100
AcDbLine
 10
40.16250043782352
 20
-4.510892183722918
 30
0.0
 11
40.44999979062791
 21
-4.646735851460907
 31
0.0
  0
LINE
  5
4DB
330
18
100
AcDbEntity
  8
1
 62
     1
100
AcDbLine
 10
40.44999979062791
 20
-4.646735851460907
 30
0.0
 11
40.73749987635621
 21
-4.761197318811729
 31
0.0
  0
LINE
  5
4DC
330
18
100
AcDbEntity
  8
1
 62
     1
100
AcDbLine
 10
40.73749987635621
 20
-4.761197318811729
 30
0.0
 11
41.02499999583064
 21
-4.853750164045427
 31
0.0
  0
ARC
  5
4DD
330
18
100
AcDbEntity
  8
1
 62
     1
100
AcDbCircle
 10
40.08159368462187
 20
-1.401253017245969
 30
0.0
 40
3.598747453180663
100
AcDbArc
 50
266.7090057663347
 51
269.9980704067455
  0
ARC
  5
4DE
330
18
100
AcDbEntity
  8
1
 62
     1
100
AcDbCircle
 10
42.03135122508179
 20
-1.173442286772831
 30
0.0
 40
3.827281804173958
100
AcDbArc
 50
272.1510459145255
 51
289.7517191968797
  0
LINE
  5
4DF
330
18
100
AcDbEntity
  8
1
 62
     1
100
AcDbLine
 10
51.37500000041217
 20
4.44320293666495
 30
0.0
 11
51.66250006023348
 21
4.588436346513177
 31
0.0
  0
LINE
  5
4E0
330
18
100
AcDbEntity
  8
1
 62
     1
100
AcDbLine
 10
51.66250006023348
 20
4.588436346513177
 30
0.0
 11
51.95000006194901
 21
4.712556073975909
 31
0.0
  0
LINE
  5
4E1
330
18
100
AcDbEntity
  8
1
 62
     1
100
AcDbLine
 10
51.95000006194901
 20
4.712556073975909
 30
0.0
 11
52.23749999980654
 21
4.814990983658229
 31
0.0
  0
LINE
  5
4E2
330
18
100
AcDbEntity
  8
1
 62
     1
100
AcDbLine
 10
52.23749999980654
 20
4.814990983658229
 30
0.0
 11
52.38125374484181
 21
4.857925949901395
 31
0.0
  0
LINE
  5
4E3
330
18
100
AcDbEntity
  8
1
 62
     1
100
AcDbLine
 10
52.38125374484181
 20
4.857925949901395
 30
0.0
 11
52.52500000104398
 21
4.895269697845019
 31
0.0
  0
LINE
  5
4E4
330
18
100
AcDbEntity
  8
1
 62
     1
100
AcDbLine
 10
55.97499999999998
 20
4.948243146317544
 30
0.0
 11
56.11875224418618
 21
4.921057598965537
 31
0.0
  0
LINE
  5
4E5
330
18
100
AcDbEntity
  8
1
 62
     1
100
AcDbLine
 10
56.11875224418618
 20
4.921057598965537
 30
0.0
 11
56.26249963187552
 21
4.888211141816574
 31
0.0
  0
LINE
  5
4E6
330
18
100
AcDbEntity
  8
1
 62
     1
100
AcDbLine
 10
56.26249963187552
 20
4.888211141816574
 30
0.0
 11
56.40625454542258
 21
4.849737399575632
 31
0.0
  0
LINE
  5
4E7
330
18
100
AcDbEntity
  8
1
 62
     1
100
AcDbLine
 10
56.40625454542258
 20
4.849737399575632
 30
0.0
 11
56.55000005494593
 21
4.805686252392513
 31
0.0
  0
LINE
  5
4E8
330
18
100
AcDbEntity
  8
1
 62
     1
100
AcDbLine
 10
56.55000005494593
 20
4.805686252392513
 30
0.0
 11
56.83750036414387
 21
4.701047993907666
 31
0.0
  0
LINE
  5
4E9
330
18
100
AcDbEntity
  8
1
 62
     1
100
AcDbLine
 10
56.83750036414387
 20
4.701047993907666
 30
0.0
 11
57.125
 21
4.574777760769114
 31
0.0
  0
LINE
  5
4EA
330
18
100
AcDbEntity
  8
1
 62
     1
100
AcDbLine
 10
55.97500000000001
 20
4.100719707815572
 30
0.0
 11
56.26250003390788
 21
3.897337027436645
 31
0.0
  0
LINE
  5
4EB
330
18
100
AcDbEntity
  8
1
 62
     1
100
AcDbLine
 10
56.26250003390788
 20
3.897337027436645
 30
0.0
 11
56.55000009756119
 21
3.6760208105924
 31
0.0
  0
LINE
  5
4EC
330
18
100
AcDbEntity
  8
1
 62
     1
100
AcDbLine
 10
56.55000009756119
 20
3.6760208105924
 30
0.0
 11
57.125
 21
3.183738997138875
 31
0.0
  0
ARC
  5
4ED
330
18
100
AcDbEntity
  8
1
 62
     1
100
AcDbCircle
 10
51.34796630367362
 20
-5.305497365889472
 30
0.0
 40
11.4939570638865
100
AcDbArc
 50
46.15080138560015
 51
52.9383407066445
  0
LINE
  5
4EE
330
18
100
AcDbEntity
  8
1
 62
     1
100
AcDbLine
 10
58.27500000000001
 20
2.033704575098836
 30
0.0
 11
59.90000000000001
 21
0.1769574863725479
 31
0.0
  0
LINE
  5
4EF
330
18
100
AcDbEntity
  8
1
 62
     1
100
AcDbLine
 10
60.00000000000001
 20
3.029795242427491
 30
0.0
 11
60.00000000000001
 21
4.899658881458341
 31
0.0
  0
LINE
  5
4F0
330
18
100
AcDbEntity
  8
1
 62
     1
100
AcDbLine
 10
60.0
 20
2.315542297683666
 30
0.0
 11
60.0
 21
0.0578173446848295
 31
0.0
  0
LINE
  5
4F1
330
18
100
AcDbEntity
  8
1
 62
     1
100
AcDbLine
 10
60.0
 20
0.0357524309536721
 30
0.0
 11
60.0
 21
-4.318363563624284
 31
0.0
  0
LINE
  5
4F2
330
18
100
AcDbEntity
  8
1
 62
     1
100
AcDbLine
 10
60.00000000000001
 20
-4.318363563624284
 30
0.0
 11
59.99999999999999
 21
-4.89965888145834
 31
0.0
  0
LINE
  5
4F3
330
18
100
AcDbEntity
  8
1
 62
     1
100
AcDbLine
 10
60.0
 20
4.899658881458341
 30
0.0
 11
59.9
 21
4.996867623623497
 31
0.0
  0
ARC
  5
4F4
330
18
100
AcDbEntity
  8
1
 62
     1
100
AcDbCircle
 10
56.14326258827216
 20
-0.7541527128552952
 30
0.0
 40
3.509125289836274
100
AcDbArc
 50
52.59663348827466
 51
63.66404121311484
  0
LINE
  5
4F5
330
18
100
AcDbEntity
  8
1
 62
     1
100
AcDbLine
 10
58.275
 20
3.866433719796214
 30
0.0
 11
58.27499999999998
 21
2.033704575389979
 31
0.0
  0
ARC
  5
4F6
330
18
100
AcDbEntity
  8
1
 62
     1
100
AcDbCircle
 10
69.45204981607726
 20
17.26212953066834
 30
0.0
 40
17.68965363837362
100
AcDbArc
 50
225.8252187750142
 51
228.3672939343
  0
LINE
  5
4F7
330
18
100
AcDbEntity
  8
1
 62
     1
100
AcDbLine
 10
57.12500000000002
 20
4.574777760769112
 30
0.0
 11
57.12500000000001
 21
3.183738997457032
 31
0.0
  0
ARC
  5
4F8
330
18
100
AcDbEntity
  8
1
 62
     1
100
AcDbCircle
 10
84.66945705152791
 20
22.54282196246584
 30
0.0
 40
33.66703771383186
100
AcDbArc
 50
215.1007161118104
 51
216.7678327186608
  0
LINE
  5
4F9
330
18
100
AcDbEntity
  8
1
 62
     1
100
AcDbLine
 10
57.7
 20
2.390695589028144
 30
0.0
 11
57.7
 21
4.04068625461322
 31
0.0
  0
LINE
  5
4FA
330
18
100
AcDbEntity
  8
1
 62
     1
100
AcDbLine
 10
55.58101462486779
 20
4.684811699894234
 30
0.0
 11
55.4
 21
4.54
 31
0.0
  0
ARC
  5
4FB
330
18
100
AcDbEntity
  8
1
 62
     1
100
AcDbCircle
 10
55.93996196802271
 20
1.663531580067847
 30
0.0
 40
2.43761215480996
100
AcDbArc
 50
89.17634874361467
 51
102.7976985195419
  0
LINE
  5
4FC
330
18
100
AcDbEntity
  8
1
 62
     1
100
AcDbLine
 10
55.97499999999999
 20
4.948243146317541
 30
0.0
 11
55.975
 21
4.100719710278245
 31
0.0
  0
ARC
  5
4FD
330
18
100
AcDbEntity
  8
1
 62
     1
100
AcDbCircle
 10
59.1131362839579
 20
-2.35398336584743
 30
0.0
 40
9.139715197687256
100
AcDbArc
 50
128.7385124968272
 51
131.1408555375354
  0
LINE
  5
4FE
330
18
100
AcDbEntity
  8
1
 62
     1
100
AcDbLine
 10
53.675
 20
5.0
 30
0.0
 11
53.3938242235358
 21
4.775059378828642
 31
0.0
  0
ARC
  5
4FF
330
18
100
AcDbEntity
  8
1
 62
     1
100
AcDbCircle
 10
50.03793794517052
 20
0.3609726969032065
 30
0.0
 40
5.171650061108683
100
AcDbArc
 50
53.69754152174833
 51
61.25523061881056
  0
ARC
  5
500
330
18
100
AcDbEntity
  8
1
 62
     1
100
AcDbCircle
 10
112.3836242906831
 20
-44.23825479621838
 30
0.0
 40
78.0508711054259
100
AcDbArc
 50
141.4120977089336
 51
141.714070597452
  0
ARC
  5
501
330
18
100
AcDbEntity
  8
1
 62
     1
100
AcDbCircle
 10
61.27117339927988
 20
-23.86043880475919
 30
0.0
 40
26.19677958174192
100
AcDbArc
 50
131.5373022810267
 51
133.2396867761636
  0
LINE
  5
502
330
18
100
AcDbEntity
  8
1
 62
     1
100
AcDbLine
 10
39.3
 20
-4.463013911312711
 30
0.0
 11
39.3
 21
-3.391468610448774
 31
0.0
  0
ARC
  5
503
330
18
100
AcDbEntity
  8
1
 62
     1
100
AcDbCircle
 10
47.58302139297188
 20
3.922814074593057
 30
0.0
 40
11.78683792920976
100
AcDbArc
 50
225.3533722730749
 51
229.1588697943635
  0
LINE
  5
504
330
18
100
AcDbEntity
  8
1
 62
     1
100
AcDbLine
 10
39.87499999999999
 20
-4.354292038823859
 30
0.0
 11
39.87499999999999
 21
-4.994065706966436
 31
0.0
  0
LINE
  5
505
330
18
100
AcDbEntity
  8
1
 62
     1
100
AcDbLine
 10
38.725
 20
-3.536093686427879
 30
0.0
 11
38.725
 21
-4.745996131030637
 31
0.0
  0
ARC
  5
506
330
18
100
AcDbEntity
  8
1
 62
     1
100
AcDbCircle
 10
37.31178816073815
 20
-1.154624053958916
 30
0.0
 40
3.859485912605279
100
AcDbArc
 50
291.4797334051328
 51
301.0042072830023
  0
ARC
  5
507
330
18
100
AcDbEntity
  8
1
 62
     1
100
AcDbCircle
 10
34.48494282511518
 20
5.382771668198611
 30
0.0
 40
12.14740341099453
100
AcDbArc
 50
302.574284113387
 51
305.8538265498422
  0
LINE
  5
508
330
18
100
AcDbEntity
  8
1
 62
     1
100
AcDbLine
 10
41.025
 20
-4.853750180329244
 30
0.0
 11
41.025
 21
-4.999999999009173
 31
0.0
  0
ARC
  5
509
330
18
100
AcDbEntity
  8
1
 62
     1
100
AcDbCircle
 10
40.60422446398035
 20
0.2379044179482612
 30
0.0
 40
5.326675710373396
100
AcDbArc
 50
240.7318388266401
 51
249.3405982208768
  0
ARC
  5
50A
330
18
100
AcDbEntity
  8
1
 62
     1
100
AcDbCircle
 10
47.65761150353813
 20
7.097472672703896
 30
0.0
 40
13.88777077035298
100
AcDbArc
 50
225.940739337505
 51
229.9684273084008
  0
ARC
  5
50B
330
18
100
AcDbEntity
  8
1
 62
     1
100
AcDbCircle
 10
40.60422446397853
 20
-0.2379044179445584
 30
0.0
 40
5.326675710369281
100
AcDbArc
 50
110.6594017791189
 51
119.2681611733622
  0
LINE
  5
50C
330
18
100
AcDbEntity
  8
1
 62
     1
100
AcDbLine
 10
38.0
 20
1.429226218579475
 30
0.0
 11
38.0
 21
2.3584589123037
 31
0.0
  0
ARC
  5
50D
330
18
100
AcDbEntity
  8
1
 62
     1
100
AcDbCircle
 10
60.05174321140164
 20
-2.954648512483527
 30
0.0
 40
5.98467281643703
100
AcDbArc
 50
90.49538334366495
 51
97.10969438629635
  0
ARC
  5
50E
330
18
100
AcDbEntity
  8
1
 62
     1
100
AcDbCircle
 10
38.23924482464798
 20
-0.3939188530615456
 30
0.0
 40
3.179531125872297
100
AcDbArc
 50
278.7879048362194
 51
289.4875517813128
  0
ARC
  5
50F
330
18
100
AcDbEntity
  8
1
 62
     1
100
AcDbCircle
 10
57.91974187280088
 20
7.069667744419759
 30
0.0
 40
21.3571649990055
100
AcDbArc
 50
209.3285997067684
 51
212.3375238287318
  0
ARC
  5
510
330
18
100
AcDbEntity
  8
1
 62
     1
100
AcDbCircle
 10
44.81964958218629
 20
-1.593573353862368
 30
0.0
 40
4.312659894097928
100
AcDbArc
 50
221.7080620633909
 51
230.7965301024612
  0
ARC
  5
511
330
18
100
AcDbEntity
  8
1
 62
     1
100
AcDbCircle
 10
44.0754613649875
 20
-2.875439588136438
 30
0.0
 40
1.387372300681414
100
AcDbArc
 50
262.7341533232071
 51
284.0065566498846
  0
ARC
  5
512
330
18
100
AcDbEntity
  8
1
 62
     1
100
AcDbCircle
 10
57.25156415236525
 20
2.61549307272251
 30
0.0
 40
2.659431162227029
100
AcDbArc
 50
118.6890534241546
 51
128.9137466206006
  0
ARC
  5
513
330
18
100
AcDbEntity
  8
1
 62
     1
100
AcDbCircle
 10
57.53768054643552
 20
2.477702271210844
 30
0.0
 40
1.571530371010669
100
AcDbArc
 50
62.0348180315886
 51
84.07095707695696
  0
LINE
  5
514
330
18
100
AcDbEntity
  8
1
 62
     1
100
AcDbLine
 10
59.99999999999999
 20
2.315542297683664
 30
0.0
 11
59.89999999999999
 21
2.399437523183832
 31
0.0
  0
LINE
  5
515
330
18
100
AcDbEntity
  8
1
 62
     1
100
AcDbLine
 10
60.00000000000001
 20
3.029795242427491
 30
0.0
 11
60.00000000000001
 21
2.315542297683667
 31
0.0
  0
LINE
  5
516
330
18
100
AcDbEntity
  8
1
 62
     1
100
AcDbLine
 10
60.0
 20
0.0357524309536689
 30
0.0
 11
58.16371103399004
 21
1.304688848601065
 31
0.0
  0
LINE
  5
517
330
18
100
AcDbEntity
  8
1
 62
     1
100
AcDbLine
 10
58.16371103399004
 20
1.304688848601065
 30
0.0
 11
57.24556655098505
 21
1.862098428760447
 31
0.0
  0
LINE
  5
518
330
18
100
AcDbEntity
  8
1
 62
     1
100
AcDbLine
 10
57.24556655098505
 20
1.862098428760447
 30
0.0
 11
56.78649430948254
 21
2.109631669468218
 31
0.0
  0
LINE
  5
519
330
18
100
AcDbEntity
  8
1
 62
     1
100
AcDbLine
 10
56.78649430948254
 20
2.109631669468218
 30
0.0
 11
56.32742206798005
 21
2.332428641536001
 31
0.0
  0
LINE
  5
51A
330
18
100
AcDbEntity
  8
1
 62
     1
100
AcDbLine
 10
56.32742206798005
 20
2.332428641536001
 30
0.0
 11
55.86834982647756
 21
2.527876963105425
 31
0.0
  0
LINE
  5
51B
330
18
100
AcDbEntity
  8
1
 62
     1
100
AcDbLine
 10
55.86834982647756
 20
2.527876963105425
 30
0.0
 11
55.40927758497507
 21
2.693684927168476
 31
0.0
  0
LINE
  5
51C
330
18
100
AcDbEntity
  8
1
 62
     1
100
AcDbLine
 10
55.40927758497507
 20
2.693684927168476
 30
0.0
 11
54.95020534347258
 21
2.827908371373497
 31
0.0
  0
LINE
  5
51D
330
18
100
AcDbEntity
  8
1
 62
     1
100
AcDbLine
 10
54.95020534347258
 20
2.827908371373497
 30
0.0
 11
54.72066922272133
 21
2.882669338768166
 31
0.0
  0
LINE
  5
51E
330
18
100
AcDbEntity
  8
1
 62
     1
100
AcDbLine
 10
54.72066922272133
 20
2.882669338768166
 30
0.0
 11
54.49113310197007
 21
2.928973474404871
 31
0.0
  0
LINE
  5
51F
330
18
100
AcDbEntity
  8
1
 62
     1
100
AcDbLine
 10
54.49113310197007
 20
2.928973474404871
 30
0.0
 11
54.26159698121883
 21
2.966686079724626
 31
0.0
  0
LINE
  5
520
330
18
100
AcDbEntity
  8
1
 62
     1
100
AcDbLine
 10
54.26159698121883
 20
2.966686079724626
 30
0.0
 11
54.03206086046758
 21
2.995695209506226
 31
0.0
  0
LINE
  5
521
330
18
100
AcDbEntity
  8
1
 62
     1
100
AcDbLine
 10
54.03206086046758
 20
2.995695209506226
 30
0.0
 11
53.80252473971633
 21
3.015917259939812
 31
0.0
  0
LINE
  5
522
330
18
100
AcDbEntity
  8
1
 62
     1
100
AcDbLine
 10
53.80252473971633
 20
3.015917259939812
 30
0.0
 11
53.57298861896508
 21
3.027291239364717
 31
0.0
  0
LINE
  5
523
330
18
100
AcDbEntity
  8
1
 62
     1
100
AcDbLine
 10
53.57298861896508
 20
3.027291239364717
 30
0.0
 11
53.34345249821382
 21
3.029785622906991
 31
0.0
  0
LINE
  5
524
330
18
100
AcDbEntity
  8
1
 62
     1
100
AcDbLine
 10
53.34345249821382
 20
3.029785622906991
 30
0.0
 11
53.11391637746259
 21
3.023391089272124
 31
0.0
  0
LINE
  5
525
330
18
100
AcDbEntity
  8
1
 62
     1
100
AcDbLine
 10
53.11391637746259
 20
3.023391089272124
 30
0.0
 11
52.88438025671132
 21
3.008128555076317
 31
0.0
  0
LINE
  5
526
330
18
100
AcDbEntity
  8
1
 62
     1
100
AcDbLine
 10
52.88438025671132
 20
3.008128555076317
 30
0.0
 11
52.65484413596008
 21
2.984040491049651
 31
0.0
  0
LINE
  5
527
330
18
100
AcDbEntity
  8
1
 62
     1
100
AcDbLine
 10
60.0
 20
0.0357524309536721
 30
0.0
 11
60.00000000000001
 21
0.057817344684829
 31
0.0
  0
ARC
  5
528
330
18
100
AcDbEntity
  8
1
 62
     1
100
AcDbCircle
 10
50.65677228461783
 20
2.53924764750338
 30
0.0
 40
2.909643570021435
100
AcDbArc
 50
122.931829977597
 51
128.7494081783055
  0
ARC
  5
529
330
18
100
AcDbEntity
  8
1
 62
     1
100
AcDbCircle
 10
64.800989761229
 20
19.90545638325221
 30
0.0
 40
21.0754318108504
100
AcDbArc
 50
226.2423540979109
 51
228.3688227017308
  0
ARC
  5
52A
330
18
100
AcDbEntity
  8
1
 62
     1
100
AcDbCircle
 10
50.81620830824622
 20
2.697710434069871
 30
0.0
 40
1.455518459779944
100
AcDbArc
 50
67.43374384626992
 51
90.63809077297138
  0
LINE
  5
52B
330
18
100
AcDbEntity
  8
1
 62
     1
100
AcDbLine
 10
52.52500000000001
 20
3.10555389332891
 30
0.0
 11
52.65484403592611
 21
2.984040381846768
 31
0.0
  0
ARC
  5
52C
330
18
100
AcDbEntity
  8
1
 62
     1
100
AcDbCircle
 10
48.8924603456807
 20
-1.590874726655856
 30
0.0
 40
5.944926491054496
100
AcDbArc
 50
36.4489270564282
 51
44.94643948389019
  0
ARC
  5
52D
330
18
100
AcDbEntity
  8
1
 62
     1
100
AcDbCircle
 10
56.80741722514232
 20
3.51019273186689
 30
0.0
 40
3.492150144487843
100
AcDbArc
 50
235.4124352231574
 51
246.2295770301954
  0
ARC
  5
52E
330
18
100
AcDbEntity
  8
1
 62
     1
100
AcDbCircle
 10
29.53414901596074
 20
-14.76312011678893
 30
0.0
 40
29.93968384069559
100
AcDbArc
 50
27.97754749470324
 51
30.23890048426136
  0
ARC
  5
52F
330
18
100
AcDbEntity
  8
1
 62
     1
100
AcDbCircle
 10
148.8049782438141
 20
44.82327752705511
 30
0.0
 40
102.4650287350292
100
AcDbArc
 50
207.2355950198147
 51
207.9298503058174
  0
LINE
  5
530
330
18
100
AcDbEntity
  8
1
 62
     1
100
AcDbLine
 10
59.99999999999999
 20
-4.318363563624284
 30
0.0
 11
59.90000000000001
 21
-4.386650153857433
 31
0.0
  0
ARC
  5
531
330
18
100
AcDbEntity
  8
1
 62
     1
100
AcDbCircle
 10
44.075621098875
 20
2.864911326391979
 30
0.0
 40
1.3978606645459
100
AcDbArc
 50
73.40340107112442
 51
97.21776173349951
  0
ARC
  5
532
330
18
100
AcDbEntity
  8
1
 62
     1
100
AcDbCircle
 10
42.85406654050576
 20
-0.8796274547750356
 30
0.0
 40
4.98701380644522
100
AcDbArc
 50
38.17608166639307
 51
47.85976796389129
  0
ARC
  5
533
330
18
100
AcDbEntity
  8
1
 62
     1
100
AcDbCircle
 10
27.14890614687377
 20
-12.28473786539196
 30
0.0
 40
24.92457614392198
100
AcDbArc
 50
28.39502113709197
 51
31.05976336063163
  0
ARC
  5
534
330
18
100
AcDbEntity
  8
1
 62
     1
100
AcDbCircle
 10
50.85403054000121
 20
0.5753797308828494
 30
0.0
 40
2.410225393831861
100
AcDbArc
 50
254.8717210023238
 51
268.7154025801252
  0
ARC
  5
535
330
18
100
AcDbEntity
  8
1
 62
     1
100
AcDbCircle
 10
210.8191718339816
 20
80.43941495502762
 30
0.0
 40
179.9307037781247
100
AcDbArc
 50
207.2098630713672
 51
207.6075344685855
  0
ARC
  5
536
330
18
100
AcDbEntity
  8
1
 62
     1
100
AcDbCircle
 10
51.5335318149757
 20
-0.1988617092078147
 30
0.0
 40
3.849654362206982
100
AcDbArc
 50
284.9247194432481
 51
294.0096869118306
  0
ARC
  5
537
330
18
100
AcDbEntity
  8
1
 62
     1
100
AcDbCircle
 10
66.09822382167592
 20
4.025667236475505
 30
0.0
 40
15.12876780986152
100
AcDbArc
 50
210.7765042584532
 51
214.796884698932
  0
ARC
  5
538
330
18
100
AcDbEntity
  8
1
 62
     1
100
AcDbCircle
 10
42.86447892461041
 20
11.61049646901928
 30
0.0
 40
20.43574298461157
100
AcDbArc
 50
305.8224433262428
 51
307.836290875943
  0
ARC
  5
539
330
18
100
AcDbEntity
  8
1
 62
     1
100
AcDbCircle
 10
57.75516127873493
 20
-1.975199143105697
 30
0.0
 40
3.474056352753442
100
AcDbArc
 50
227.3180958583804
 51
231.2570400293009
  0
ARC
  5
53A
330
18
100
AcDbEntity
  8
1
 62
     1
100
AcDbCircle
 10
57.56805273634148
 20
-2.650599964226132
 30
0.0
 40
1.396335569186471
100
AcDbArc
 50
275.4222809504142
 51
280.8424983158216
  0
LINE
  5
53B
330
18
100
AcDbEntity
  8
1
 62
     1
100
AcDbLine
 10
38.0
 20
4.085415959246672
 30
0.0
 11
38.0
 21
4.408817478528143
 31
0.0
  0
ARC
  5
53C
330
18
100
AcDbEntity
  8
1
 62
     1
100
AcDbCircle
 10
44.72172263676825
 20
9.623367760895864
 30
0.0
 40
8.545659966628739
100
AcDbArc
 50
225.4346061291562
 51
230.6198023955847
  0
LINE
  5
53D
330
18
100
AcDbEntity
  8
1
 62
     1
100
AcDbLine
 10
39.3
 20
3.018201561251454
 30
0.0
 11
39.3424923272642
 21
2.984040694510202
 31
0.0
  0
ARC
  5
53E
330
18
100
AcDbEntity
  8
1
 62
     1
100
AcDbCircle
 10
23.85260202274358
 20
-10.26064861099004
 30
0.0
 40
20.92925457828071
100
AcDbArc
 50
28.90363988837898
 51
32.00813970895812
  0
ARC
  5
53F
330
18
100
AcDbEntity
  8
1
 62
     1
100
AcDbCircle
 10
641.8111119383509
 20
306.4841061197374
 30
0.0
 40
672.6133321817631
100
AcDbArc
 50
207.2599865704661
 51
207.3667101921408
  0
ARC
  5
540
330
18
100
AcDbEntity
  8
1
 62
     1
100
AcDbCircle
 10
61.74440666474162
 20
5.413879611324392
 30
0.0
 40
17.94846094613935
100
AcDbArc
 50
209.9965192051253
 51
213.4847420544695
  0
ARC
  5
541
330
18
100
AcDbEntity
  8
1
 62
     1
100
AcDbCircle
 10
51.26996311873446
 20
-1.794741809153722
 30
0.0
 40
3.874249549694958
100
AcDbArc
 50
224.3598303318147
 51
231.0477284780439
  0
LINE
  5
542
330
18
100
AcDbEntity
  8
1
 62
     1
100
AcDbLine
 10
48.83440998333201
 20
-4.807527545400622
 30
0.0
 11
48.83557522069398
 21
-4.808460176547958
 31
0.0
  0
ARC
  5
543
330
18
100
AcDbEntity
  8
1
 62
     1
100
AcDbCircle
 10
64.80098976124079
 20
-19.9054563832652
 30
0.0
 40
21.07543181086793
100
AcDbArc
 50
131.6311772982697
 51
133.7576459020879
  0
ARC
  5
544
330
18
100
AcDbEntity
  8
1
 62
     1
100
AcDbCircle
 10
50.82193425234752
 20
-2.768349409988386
 30
0.0
 40
1.384871345504921
100
AcDbArc
 50
269.0924763892976
 51
282.3972673106735
  0
LINE
  5
545
330
18
100
AcDbEntity
  8
1
 62
     1
100
AcDbLine
 10
38.00000000000001
 20
-2.882598903755555
 30
0.0
 11
38.00000000000001
 21
-4.408817478528149
 31
0.0
  0
LINE
  5
546
330
18
100
AcDbEntity
  8
1
 62
     1
100
AcDbLine
 10
37.99999999999998
 20
-2.882598903755549
 30
0.0
 11
38.0
 21
1.429226218579475
 31
0.0
  0
LINE
  5
547
330
18
100
AcDbEntity
  8
1
 62
     1
100
AcDbLine
 10
38.00000000000001
 20
4.085415959246649
 30
0.0
 11
38.00000000000001
 21
2.358458912303695
 31
0.0
  0
LINE
  5
548
330
18
100
AcDbEntity
  8
1
 62
     1
100
AcDbLine
 10
46.77499999999999
 20
-4.999999999999999
 30
0.0
 11
47.92499999999998
 21
-4.999999999999999
 31
0.0
  0
LINE
  5
549
330
18
100
AcDbEntity
  8
1
 62
     1
100
AcDbLine
 10
48.5
 20
-4.54
 30
0.0
 11
48.50000000000001
 21
-4.539991496380305
 31
0.0
  0
LINE
  5
54A
330
18
100
AcDbEntity
  8
1
 62
     1
100
AcDbLine
 10
48.50000000000001
 20
-4.539991496380305
 30
0.0
 11
48.50000000000001
 21
-4.537511304441304
 31
0.0
  0
LINE
  5
54B
330
18
100
AcDbEntity
  8
1
 62
     1
100
AcDbLine
 10
48.50000000000001
 20
-4.537511304441304
 30
0.0
 11
48.5
 21
-4.503488381922305
 31
0.0
  0
LINE
  5
54C
330
18
100
AcDbEntity
  8
1
 62
     1
100
AcDbLine
 10
47.92499999999998
 20
-5.000000000000012
 30
0.0
 11
48.50000000000001
 21
-4.54
 31
0.0
  0
ARC
  5
54D
330
18
100
AcDbEntity
  8
1
 62
     1
100
AcDbCircle
 10
50.65675714207192
 20
-2.539265788430823
 30
0.0
 40
2.909619946872717
100
AcDbArc
 50
231.2506007783128
 51
237.068226091266
  0
LINE
  5
54E
330
18
100
AcDbEntity
  8
1
 62
     1
100
AcDbLine
 10
48.5
 20
-4.54
 30
0.0
 11
48.83557522069048
 21
-4.808460176552378
 31
0.0
  0
LINE
  5
54F
330
18
100
AcDbEntity
  8
1
 62
     1
100
AcDbLine
 10
46.73764834046295
 20
-4.970118672370356
 30
0.0
 11
46.775
 21
-4.999999999999998
 31
0.0
  0
LINE
  5
550
330
18
100
AcDbEntity
  8
1
 62
     1
100
AcDbLine
 10
53.675
 20
-4.999999999999998
 30
0.0
 11
54.825
 21
-4.999999999999998
 31
0.0
  0
LINE
  5
551
330
18
100
AcDbEntity
  8
1
 62
     1
100
AcDbLine
 10
55.4
 20
-4.539999998741299
 30
0.0
 11
55.39999999999999
 21
-4.539999808150901
 31
0.0
  0
LINE
  5
552
330
18
100
AcDbEntity
  8
1
 62
     1
100
AcDbLine
 10
55.39999999999999
 20
-4.539999808150901
 30
0.0
 11
55.4
 21
-4.53995260374551
 31
0.0
  0
LINE
  5
553
330
18
100
AcDbEntity
  8
1
 62
     1
100
AcDbLine
 10
55.4
 20
-4.53995260374551
 30
0.0
 11
55.39999999999999
 21
-4.529080913400978
 31
0.0
  0
ARC
  5
554
330
18
100
AcDbEntity
  8
1
 62
     1
100
AcDbCircle
 10
57.25159246089063
 20
-2.615452022317891
 30
0.0
 40
2.659480942181975
100
AcDbArc
 50
231.0863343642071
 51
241.3108361140882
  0
LINE
  5
555
330
18
100
AcDbEntity
  8
1
 62
     1
100
AcDbLine
 10
55.4
 20
-4.54
 30
0.0
 11
55.5810146248366
 21
-4.684811699869276
 31
0.0
  0
LINE
  5
556
330
18
100
AcDbEntity
  8
1
 62
     1
100
AcDbLine
 10
54.825
 20
-4.999999999999998
 30
0.0
 11
55.4
 21
-4.539999999999999
 31
0.0
  0
LINE
  5
557
330
18
100
AcDbEntity
  8
1
 62
     1
100
AcDbLine
 10
53.39382422349771
 20
-4.775059378798169
 30
0.0
 11
53.675
 21
-5.000000000000002
 31
0.0
  0
LINE
  5
558
330
18
100
AcDbEntity
  8
1
 62
     1
100
AcDbLine
 10
40.08147248690079
 20
-4.999999999999996
 30
0.0
 11
41.025
 21
-4.999999999999998
 31
0.0
  0
LINE
  5
559
330
18
100
AcDbEntity
  8
1
 62
     1
100
AcDbLine
 10
41.59999999999999
 20
-4.54
 30
0.0
 11
41.59999999999999
 21
-4.539982390912783
 31
0.0
  0
LINE
  5
55A
330
18
100
AcDbEntity
  8
1
 62
     1
100
AcDbLine
 10
41.59999999999999
 20
-4.539982390912783
 30
0.0
 11
41.59999999999999
 21
-4.534818668796261
 31
0.0
  0
LINE
  5
55B
330
18
100
AcDbEntity
  8
1
 62
     1
100
AcDbLine
 10
41.59999999999999
 20
-4.534818668796261
 30
0.0
 11
41.6
 21
-4.462989260230364
 31
0.0
  0
LINE
  5
55C
330
18
100
AcDbEntity
  8
1
 62
     1
100
AcDbLine
 10
41.02499999999999
 20
-5.000000000000001
 30
0.0
 11
41.59999999999999
 21
-4.54
 31
0.0
  0
LINE
  5
55D
330
18
100
AcDbEntity
  8
1
 62
     1
100
AcDbLine
 10
42.09396876948468
 20
-4.935175015585417
 30
0.0
 11
42.175
 21
-4.997907987585076
 31
0.0
  0
LINE
  5
55E
330
18
100
AcDbEntity
  8
1
 62
     1
100
AcDbLine
 10
41.59999999999999
 20
-4.54
 30
0.0
 11
42.09396876948355
 21
-4.935175015586834
 31
0.0
  0
ARC
  5
55F
330
18
100
AcDbEntity
  8
1
 62
     1
100
AcDbCircle
 10
140.4747543723185
 20
84.79461836208617
 30
0.0
 40
131.411279698136
100
AcDbArc
 50
220.1852531312582
 51
220.8184946715753
  0
LINE
  5
560
330
18
100
AcDbEntity
  8
1
 62
     1
100
AcDbLine
 10
40.08147248690054
 20
0.0000000000000048
 30
0.0
 11
37.99999999999999
 21
1.429226218579475
 31
0.0
  0
ARC
  5
561
330
18
100
AcDbEntity
  8
1
 62
     1
100
AcDbCircle
 10
46.70034582207013
 20
-10.30645247153061
 30
0.0
 40
18.32121527069898
100
AcDbArc
 50
43.90806468179342
 51
46.5034713794438
  0
ARC
  5
562
330
18
100
AcDbEntity
  8
1
 62
     1
100
AcDbCircle
 10
57.23353992873407
 20
7.960852428666936
 30
0.0
 40
6.762596779181012
100
AcDbArc
 50
227.3857643984372
 51
232.3200562201052
  0
ARC
  5
563
330
18
100
AcDbEntity
  8
1
 62
     1
100
AcDbCircle
 10
45.95836023847772
 20
-6.590051317791242
 30
0.0
 40
9.935542942185219
100
AcDbArc
 50
39.04350941843797
 51
41.55056940725427
  0
LINE
  5
564
330
18
100
AcDbEntity
  8
1
 62
     1
100
AcDbLine
 10
53.39382422353579
 20
0.0000000000000214
 30
0.0
 11
51.54503524779926
 21
1.28043677690275
 31
0.0
  0
LINE
  5
565
330
18
100
AcDbEntity
  8
1
 62
     1
100
AcDbLine
 10
51.54503524779926
 20
1.28043677690275
 30
0.0
 11
50.62064075993101
 21
1.844420404392452
 31
0.0
  0
LINE
  5
566
330
18
100
AcDbEntity
  8
1
 62
     1
100
AcDbLine
 10
50.62064075993101
 20
1.844420404392452
 30
0.0
 11
50.15844351599688
 21
2.095149970905451
 31
0.0
  0
LINE
  5
567
330
18
100
AcDbEntity
  8
1
 62
     1
100
AcDbLine
 10
50.15844351599688
 20
2.095149970905451
 30
0.0
 11
49.69624627206275
 21
2.320977819826028
 31
0.0
  0
LINE
  5
568
330
18
100
AcDbEntity
  8
1
 62
     1
100
AcDbLine
 10
49.69624627206275
 20
2.320977819826028
 30
0.0
 11
49.23404902812863
 21
2.519219890265511
 31
0.0
  0
LINE
  5
569
330
18
100
AcDbEntity
  8
1
 62
     1
100
AcDbLine
 10
49.23404902812863
 20
2.519219890265511
 30
0.0
 11
48.7718517841945
 21
2.687519989397811
 31
0.0
  0
LINE
  5
56A
330
18
100
AcDbEntity
  8
1
 62
     1
100
AcDbLine
 10
48.7718517841945
 20
2.687519989397811
 30
0.0
 11
48.30965454026037
 21
2.823877796957656
 31
0.0
  0
LINE
  5
56B
330
18
100
AcDbEntity
  8
1
 62
     1
100
AcDbLine
 10
48.30965454026037
 20
2.823877796957656
 30
0.0
 11
48.0785559182933
 21
2.879555521053645
 31
0.0
  0
LINE
  5
56C
330
18
100
AcDbEntity
  8
1
 62
     1
100
AcDbLine
 10
48.0785559182933
 20
2.879555521053645
 30
0.0
 11
47.84745729632623
 21
2.926672640072257
 31
0.0
  0
LINE
  5
56D
330
18
100
AcDbEntity
  8
1
 62
     1
100
AcDbLine
 10
47.84745729632623
 20
2.926672640072257
 30
0.0
 11
47.61635867435917
 21
2.965085137784996
 31
0.0
  0
LINE
  5
56E
330
18
100
AcDbEntity
  8
1
 62
     1
100
AcDbLine
 10
47.61635867435917
 20
2.965085137784996
 30
0.0
 11
47.3852600523921
 21
2.994682756514172
 31
0.0
  0
LINE
  5
56F
330
18
100
AcDbEntity
  8
1
 62
     1
100
AcDbLine
 10
47.3852600523921
 20
2.994682756514172
 30
0.0
 11
47.15416143042504
 21
3.015373501066991
 31
0.0
  0
LINE
  5
570
330
18
100
AcDbEntity
  8
1
 62
     1
100
AcDbLine
 10
47.15416143042504
 20
3.015373501066991
 30
0.0
 11
46.923062808458
 21
3.027099818484631
 31
0.0
  0
LINE
  5
571
330
18
100
AcDbEntity
  8
1
 62
     1
100
AcDbLine
 10
46.923062808458
 20
3.027099818484631
 30
0.0
 11
46.69196418649092
 21
3.029822913067534
 31
0.0
  0
LINE
  5
572
330
18
100
AcDbEntity
  8
1
 62
     1
100
AcDbLine
 10
46.69196418649092
 20
3.029822913067534
 30
0.0
 11
46.46086556452386
 21
3.023538537954056
 31
0.0
  0
LINE
  5
573
330
18
100
AcDbEntity
  8
1
 62
     1
100
AcDbLine
 10
46.46086556452386
 20
3.023538537954056
 30
0.0
 11
46.22976694255679
 21
3.008261636132255
 31
0.0
  0
LINE
  5
574
330
18
100
AcDbEntity
  8
1
 62
     1
100
AcDbLine
 10
46.22976694255679
 20
3.008261636132255
 30
0.0
 11
45.99866832058973
 21
2.984041244962003
 31
0.0
  0
ARC
  5
575
330
18
100
AcDbEntity
  8
1
 62
     1
100
AcDbCircle
 10
50.25422032237262
 20
7.94345509169957
 30
0.0
 40
6.534942464480626
100
AcDbArc
 50
229.3679117466928
 51
231.6551933760643
  0
LINE
  5
576
330
18
100
AcDbEntity
  8
1
 62
     1
100
AcDbLine
 10
46.73764834064875
 20
-0.0000000000536802
 30
0.0
 11
46.775
 21
-0.0440726949963966
 31
0.0
  0
LINE
  5
577
330
18
100
AcDbEntity
  8
1
 62
     1
100
AcDbLine
 10
46.73764834071174
 20
-0.0000000000000051
 30
0.0
 11
44.88885939592161
 21
1.28043650262104
 31
0.0
  0
LINE
  5
578
330
18
100
AcDbEntity
  8
1
 62
     1
100
AcDbLine
 10
44.88885939592161
 20
1.28043650262104
 30
0.0
 11
43.96446492352655
 21
1.844419960193196
 31
0.0
  0
LINE
  5
579
330
18
100
AcDbEntity
  8
1
 62
     1
100
AcDbLine
 10
43.96446492352655
 20
1.844419960193196
 30
0.0
 11
43.50226768732901
 21
2.0951494504521
 31
0.0
  0
LINE
  5
57A
330
18
100
AcDbEntity
  8
1
 62
     1
100
AcDbLine
 10
43.50226768732901
 20
2.0951494504521
 30
0.0
 11
43.04007045113147
 21
2.320977235805267
 31
0.0
  0
LINE
  5
57B
330
18
100
AcDbEntity
  8
1
 62
     1
100
AcDbLine
 10
43.04007045113147
 20
2.320977235805267
 30
0.0
 11
42.57787321493394
 21
2.519219260255618
 31
0.0
  0
LINE
  5
57C
330
18
100
AcDbEntity
  8
1
 62
     1
100
AcDbLine
 10
42.57787321493394
 20
2.519219260255618
 30
0.0
 11
42.11567597873641
 21
2.687519335361339
 31
0.0
  0
LINE
  5
57D
330
18
100
AcDbEntity
  8
1
 62
     1
100
AcDbLine
 10
42.11567597873641
 20
2.687519335361339
 30
0.0
 11
41.65347874253888
 21
2.823877144566628
 31
0.0
  0
LINE
  5
57E
330
18
100
AcDbEntity
  8
1
 62
     1
100
AcDbLine
 10
41.65347874253888
 20
2.823877144566628
 30
0.0
 11
41.42238012444011
 21
2.879556033029251
 31
0.0
  0
LINE
  5
57F
330
18
100
AcDbEntity
  8
1
 62
     1
100
AcDbLine
 10
41.42238012444011
 20
2.879556033029251
 30
0.0
 11
41.19128150634135
 21
2.926672017598452
 31
0.0
  0
LINE
  5
580
330
18
100
AcDbEntity
  8
1
 62
     1
100
AcDbLine
 10
41.19128150634135
 20
2.926672017598452
 30
0.0
 11
40.96018288824257
 21
2.965085599694027
 31
0.0
  0
LINE
  5
581
330
18
100
AcDbEntity
  8
1
 62
     1
100
AcDbLine
 10
40.96018288824257
 20
2.965085599694027
 30
0.0
 11
40.72908427014382
 21
2.994682193645385
 31
0.0
  0
LINE
  5
582
330
18
100
AcDbEntity
  8
1
 62
     1
100
AcDbLine
 10
40.72908427014382
 20
2.994682193645385
 30
0.0
 11
40.49798565204505
 21
3.015373898894955
 31
0.0
  0
LINE
  5
583
330
18
100
AcDbEntity
  8
1
 62
     1
100
AcDbLine
 10
40.49798565204505
 20
3.015373898894955
 30
0.0
 11
40.26688703394628
 21
3.027099339721483
 31
0.0
  0
LINE
  5
584
330
18
100
AcDbEntity
  8
1
 62
     1
100
AcDbLine
 10
40.26688703394628
 20
3.027099339721483
 30
0.0
 11
40.03578841584751
 21
3.029823240028187
 31
0.0
  0
LINE
  5
585
330
18
100
AcDbEntity
  8
1
 62
     1
100
AcDbLine
 10
40.03578841584751
 20
3.029823240028187
 30
0.0
 11
39.80468979774874
 21
3.023538168307676
 31
0.0
  0
LINE
  5
586
330
18
100
AcDbEntity
  8
1
 62
     1
100
AcDbLine
 10
39.80468979774874
 20
3.023538168307676
 30
0.0
 11
39.57359117964998
 21
3.00826187317786
 31
0.0
  0
LINE
  5
587
330
18
100
AcDbEntity
  8
1
 62
     1
100
AcDbLine
 10
39.57359117964998
 20
3.00826187317786
 30
0.0
 11
39.34249256155121
 21
2.984040980891359
 31
0.0
  0
ARC
  5
588
330
18
100
AcDbEntity
  8
1
 62
     1
100
AcDbCircle
 10
36.59723264412499
 20
-0.31974072024247
 30
0.0
 40
4.295628546829382
100
AcDbArc
 50
40.27621636422142
 51
50.27529259027007
  0
LINE
  5
589
330
18
100
AcDbEntity
  8
SK1
100
AcDbLine
 10
-39.5
 20
5.0
 30
0.0
 11
-40.0
 21
4.5
 31
0.0
  0
LINE
  5
58A
330
18
100
AcDbEntity
  8
SK1
100
AcDbLine
 10
-40.0
 20
4.5
 30
0.0
 11
-40.0
 21
4.495526130175515
 31
0.0
  0
LINE
  5
58B
330
18
100
AcDbEntity
  8
SK1
100
AcDbLine
 10
-40.0
 20
4.495526130175515
 30
0.0
 11
-40.0
 21
4.09623024490539
 31
0.0
  0
LINE
  5
58C
330
18
100
AcDbEntity
  8
SK1
100
AcDbLine
 10
-40.0
 20
4.09623024490539
 30
0.0
 11
-40.0
 21
-4.5
 31
0.0
  0
LINE
  5
58D
330
18
100
AcDbEntity
  8
SK1
100
AcDbLine
 10
-39.5
 20
5.0
 30
0.0
 11
0.0000000000000036
 21
5.0
 31
0.0
  0
LINE
  5
58E
330
18
100
AcDbEntity
  8
SK1
100
AcDbLine
 10
-39.5
 20
5.0
 30
0.0
 11
-39.5
 21
4.995029033528349
 31
0.0
  0
LINE
  5
58F
330
18
100
AcDbEntity
  8
SK1
100
AcDbLine
 10
-39.5
 20
4.995029033528349
 30
0.0
 11
-39.5
 21
4.551366938783767
 31
0.0
  0
LINE
  5
590
330
18
100
AcDbEntity
  8
SK1
100
AcDbLine
 10
-39.5
 20
4.551366938783767
 30
0.0
 11
-39.5
 21
-5.0
 31
0.0
  0
LINE
  5
591
330
18
100
AcDbEntity
  8
SK1
100
AcDbLine
 10
-40.0
 20
-4.5
 30
0.0
 11
-39.5
 21
-5.0
 31
0.0
  0
LINE
  5
592
330
18
100
AcDbEntity
  8
SK1
100
AcDbLine
 10
-39.5
 20
-4.999999999999998
 30
0.0
 11
-0.0000000000000027
 21
-4.999999999999998
 31
0.0
  0
DIMENSION
  5
593
330
18
100
AcDbEntity
  8
2
100
AcDbDimension
  2
*D0
 10
75.00000000000001
 20
-4.999999999999948
 30
0.0
 11
72.60925
 21
0.0000000000000456
 31
0.0
 70
    32
  1
%%c<>
 71
     5
 42
10.0
  3
STANDARD
100
AcDbAlignedDimension
 13
60.0
 23
5.0
 33
0.0
 14
60.0
 24
-5.0
 34
0.0
 50
90.0000000000002
100
AcDbRotatedDimension
  0
DIMENSION
  5
5A0
330
18
100
AcDbEntity
  8
2
100
AcDbDimension
  2
*D1
 10
60.0
 20
75.0
 30
0.0
 11
30.0
 21
77.39075
 31
0.0
 70
    32
  1
<>
 71
     5
 42
60.0
  3
STANDARD
100
AcDbAlignedDimension
 13
0.0
 23
0.0
 33
0.0
 14
60.0
 24
0.0
 34
0.0
100
AcDbRotatedDimension
  0
DIMENSION
  5
5AD
330
18
100
AcDbEntity
  8
2
100
AcDbDimension
  2
*D2
 10
60.0
 20
60.0
 30
0.0
 11
49.0
 21
62.39075
 31
0.0
 70
    32
  1
<>
 71
     5
 42
22.0
  3
STANDARD
100
AcDbAlignedDimension
 13
38.0
 23
5.0
 33
0.0
 14
60.0
 24
5.0
 34
0.0
100
AcDbRotatedDimension
  0
DIMENSION
  5
5BA
330
18
100
AcDbEntity
  8
SK2
100
AcDbDimension
  2
*D3
 10
-54.99999999997448
 20
-5.000000000076551
 30
0.0
 11
-57.39075
 21
-0.0000000000887515
 31
0.0
 70
    32
  1
%%c<>
 71
     5
 42
10.0
  3
STANDARD
100
AcDbAlignedDimension
 13
-40.0
 23
5.0
 33
0.0
 14
-40.0
 24
-5.0
 34
0.0
 50
90.0000000002924
100
AcDbRotatedDimension
  0
DIMENSION
  5
5C7
330
18
100
AcDbEntity
  8
SK2
100
AcDbDimension
  2
*D4
 10
60.0
 20
90.0
 30
0.0
 11
10.0
 21
92.39075
 31
0.0
 70
    32
  1
<>
 71
     5
 42
100.0
  3
STANDARD
100
AcDbAlignedDimension
 13
-40.0
 23
0.0
 33
0.0
 14
60.0
 24
0.0
 34
0.0
100
AcDbRotatedDimension
  0
DIMENSION
  5
5D4
330
18
100
AcDbEntity
  8
2
100
AcDbDimension
  2
*D5
 10
60.0
 20
20.0
 30
0.0
 11
74.5115
 21
22.438
 31
0.0
 70
    32
  1
<>x45°
 71
     5
 42
0.1000000000000014
  3
STANDARD
100
AcDbAlignedDimension
 13
59.9
 23
5.0
 33
0.0
 14
60.0
 24
5.0
 34
0.0
100
AcDbRotatedDimension
  0
ENDSEC
  0
SECTION
  2
OBJECTS
  0
DICTIONARY
  5
C
330
0
100
AcDbDictionary
281
     1
  3
ACAD_COLOR
350
387
  3
ACAD_GROUP
350
D
  3
ACAD_LAYOUT
350
301
  3
ACAD_MATERIAL
350
386
  3
ACAD_MLEADERSTYLE
350
3DE
  3
ACAD_MLINESTYLE
350
E
  3
ACAD_PLOTSETTINGS
350
302
  3
ACAD_PLOTSTYLENAME
350
2FF
  3
ACAD_SCALELIST
350
3A0
  3
ACAD_TABLESTYLE
350
388
  3
ACAD_VISUALSTYLE
350
3C2
  3
ACDBHEADERROUNDTRIPXREC
350
5E6
  3
AcDbVariableDictionary
350
357
  0
DICTIONARY
  5
5E9
330
8
100
AcDbDictionary
280
     1
281
     1
  3
ACAD_XREC_ROUNDTRIP
360
5EA
  0
DICTIONARY
  5
387
102
{ACAD_REACTORS
330
C
102
}
330
C
100
AcDbDictionary
281
     1
  0
DICTIONARY
  5
D
102
{ACAD_REACTORS
330
C
102
}
330
C
100
AcDbDictionary
281
     1
  0
DICTIONARY
  5
301
102
{ACAD_REACTORS
330
C
102
}
330
C
100
AcDbDictionary
281
     1
  3
Layout1
350
33B
  3
Model
350
303
  0
DICTIONARY
  5
386
102
{ACAD_REACTORS
330
C
102
}
330
C
100
AcDbDictionary
281
     1
  3
ByBlock
350
3DC
  3
ByLayer
350
3DB
  3
Global
350
3DD
  0
DICTIONARY
  5
3DE
102
{ACAD_REACTORS
330
C
102
}
330
C
100
AcDbDictionary
281
     1
  3
Standard
350
3DF
  0
DICTIONARY
  5
E
102
{ACAD_REACTORS
330
C
102
}
330
C
100
AcDbDictionary
281
     1
  3
STANDARD
350
1B
  0
DICTIONARY
  5
302
102
{ACAD_REACTORS
330
C
102
}
330
C
100
AcDbDictionary
281
     1
  0
ACDBDICTIONARYWDFLT
  5
2FF
102
{ACAD_REACTORS
330
C
102
}
330
C
100
AcDbDictionary
281
     1
  3
Normal
350
300
100
AcDbDictionaryWithDefault
340
300
  0
DICTIONARY
  5
3A0
102
{ACAD_REACTORS
330
C
102
}
330
C
100
AcDbDictionary
281
     1
  3
A0
350
3A1
  3
A1
350
3A2
  3
A2
350
3A3
  3
A3
350
3A4
  3
A4
350
3A5
  3
A5
350
3A6
  3
A6
350
3A7
  3
A7
350
3A8
  3
A8
350
3A9
  3
A9
350
3AA
  3
B0
350
3AB
  3
B1
350
3AC
  3
B2
350
3AD
  3
B3
350
3AE
  3
B4
350
3AF
  3
B5
350
3B0
  3
B6
350
3B1
  3
B7
350
3B2
  3
B8
350
3B3
  3
B9
350
3B4
  3
C0
350
3B5
  3
C1
350
3B6
  3
C2
350
3B7
  3
C3
350
3B8
  3
C4
350
3B9
  3
C5
350
3BA
  3
C6
350
3BB
  3
C7
350
3BC
  3
C8
350
3BD
  3
C9
350
3BE
  3
D0
350
3BF
  3
D1
350
3C0
  3
D2
350
3C1
  0
DICTIONARY
  5
388
102
{ACAD_REACTORS
330
C
102
}
330
C
100
AcDbDictionary
281
     1
  3
Standard
350
389
  0
DICTIONARY
  5
3C2
102
{ACAD_REACTORS
330
C
102
}
330
C
100
AcDbDictionary
281
     1
  3
2dWireframe
350
3C7
  3
Basic
350
3CA
  3
Brighten
350
3CE
  3
ColorChange
350
3D2
  3
Conceptual
350
3CC
  3
Dim
350
3CD
  3
EdgeColorOff
350
3D5
  3
Facepattern
350
3D1
  3
Flat
350
3C3
  3
FlatWithEdges
350
3C4
  3
Gouraud
350
3C5
  3
GouraudWithEdges
350
3C6
  3
Hidden
350
3C9
  3
JitterOff
350
3D3
  3
Linepattern
350
3D0
  3
OverhangOff
350
3D4
  3
Realistic
350
3CB
  3
Shaded
350
3DA
  3
Shaded with edges
350
3D9
  3
Shades of Gray
350
3D6
  3
Sketchy
350
3D7
  3
Thicken
350
3CF
  3
Wireframe
350
3C8
  3
X-Ray
350
3D8
  0
DICTIONARY
  5
5E6
102
{ACAD_REACTORS
330
C
102
}
330
C
100
AcDbDictionary
281
     1
  3
COLORDICT
350
5E7
  3
MATERIALDICT
350
5E8
  0
DICTIONARY
  5
357
102
{ACAD_REACTORS
330
C
102
}
330
C
100
AcDbDictionary
281
     1
  3
CANNOSCALE
350
5EB
  3
CMLEADERSTYLE
350
5E2
  3
CTABLESTYLE
350
38D
  3
DIMASSOC
350
359
  3
HIDETEXT
350
358
  3
MSLTSCALE
350
5E3
  3
PROJECTNAME
350
38E
  0
XRECORD
  5
5EA
102
{ACAD_REACTORS
330
5E9
102
}
330
5E9
100
AcDbXrecord
280
     1
102
VTR_0.000_0.000_1.000_1.000_VISUALSTYLE
340
3C7
102
VTR_0.000_0.000_1.000_1.000_GRIDDISPLAY
 70
     3
102
VTR_0.000_0.000_1.000_1.000_GRIDMAJOR
 70
     5
102
VTR_0.000_0.000_1.000_1.000_DEFAULTLIGHTING
280
     1
102
VTR_0.000_0.000_1.000_1.000_DEFAULTLIGHTINGTYPE
 70
     1
102
VTR_0.000_0.000_1.000_1.000_BRIGHTNESS
141
0.0
102
VTR_0.000_0.000_1.000_1.000_CONTRAST
142
0.0
  0
LAYOUT
  5
33B
102
{ACAD_REACTORS
330
301
102
}
330
301
100
AcDbPlotSettings
  1

  2
Lexmark Optra PS2
  4

  6

 40
0.0
 41
0.0
 42
0.0
 43
0.0
 44
0.0
 45
0.0
 46
0.0
 47
0.0
 48
0.0
 49
0.0
140
0.0
141
0.0
142
1.0
143
1.0
 70
   688
 72
     0
 73
     0
 74
     5
  7
monochrome.ctb
 75
    16
147
1.0
148
0.0
149
0.0
100
AcDbLayout
  1
Layout1
 70
     1
 71
     1
 10
0.0
 20
0.0
 11
12.0
 21
9.0
 12
0.0
 22
0.0
 32
0.0
 14
0.0
 24
0.0
 34
0.0
 15
0.0
 25
0.0
 35
0.0
146
0.0
 13
0.0
 23
0.0
 33
0.0
 16
1.0
 26
0.0
 36
0.0
 17
0.0
 27
1.0
 37
0.0
 76
     0
330
338
  0
LAYOUT
  5
303
102
{ACAD_REACTORS
330
301
102
}
330
301
100
AcDbPlotSettings
  1

  2
Lexmark Optra Rx
  4
A4
  6

 40
6.805083274841307
 41
5.535083293914794
 42
6.974411010742187
 43
7.14373779296875
 44
209.9733276367186
 45
296.9259948730469
 46
0.0
 47
0.0
 48
0.0
 49
0.0
140
0.0
141
0.0
142
1.0
143
2.976565420630886
 70
 11952
 72
     1
 73
     1
 74
     0
  7
monochrome.ctb
 75
     0
147
0.335957675604539
148
204.1199660668592
149
172.3933209647495
100
AcDbLayout
  1
Model
 70
     1
 71
     0
 10
0.0
 20
0.0
 11
12.0
 21
9.0
 12
0.0
 22
0.0
 32
0.0
 14
0.0
 24
0.0
 34
0.0
 15
0.0
 25
0.0
 35
0.0
146
0.0
 13
0.0
 23
0.0
 33
0.0
 16
1.0
 26
0.0
 36
0.0
 17
0.0
 27
1.0
 37
0.0
 76
     0
330
18
331
39A
  0
MATERIAL
  5
3DC
102
{ACAD_REACTORS
330
386
102
}
102
{ACAD_XDICTIONARY
360
5EE
102
}
330
386
100
AcDbMaterial
  1
ByBlock
  0
MATERIAL
  5
3DB
102
{ACAD_REACTORS
330
386
102
}
102
{ACAD_XDICTIONARY
360
5EC
102
}
330
386
100
AcDbMaterial
  1
ByLayer
  0
MATERIAL
  5
3DD
102
{ACAD_REACTORS
330
386
102
}
102
{ACAD_XDICTIONARY
360
5F0
102
}
330
386
100
AcDbMaterial
  1
Global
  0
MLEADERSTYLE
  5
3DF
102
{ACAD_REACTORS
330
3DE
102
}
102
{ACAD_XDICTIONARY
360
623
102
}
330
3DE
100
AcDbMLeaderStyle
170
     2
171
     1
172
     0
 90
        2
 40
0.0
 41
0.0
173
     1
 91
-1056964608
340
12
 92
       -2
290
     1
 42
2.0
291
     1
 43
8.0
  3
Standard
341
0
 44
4.0
300

342
10
174
     1
178
     6
175
     1
176
     0
 93
-1056964608
 45
4.0
292
     0
297
     0
 46
4.0
343
0
 94
-1056964608
 47
1.0
 49
1.0
140
1.0
293
     1
141
0.0
294
     1
177
     0
142
1.0
295
     0
296
     0
143
3.75
1001
ACAD_MLEADERVER
1070
     2
  0
MLINESTYLE
  5
1B
102
{ACAD_REACTORS
330
E
102
}
330
E
100
AcDbMlineStyle
  2
STANDARD
 70
     0
  3

 62
     0
 51
90.0
 52
90.0
 71
     2
 49
0.5
 62
   256
  6
BYLAYER
 49
-0.5
 62
   256
  6
BYLAYER
  0
ACDBPLACEHOLDER
  5
300
102
{ACAD_REACTORS
330
2FF
102
}
330
2FF
  0
SCALE
  5
3A1
102
{ACAD_REACTORS
330
3A0
102
}
330
3A0
100
AcDbScale
 70
     0
300
1:1
140
1.0
141
1.0
290
     1
  0
SCALE
  5
3A2
102
{ACAD_REACTORS
330
3A0
102
}
330
3A0
100
AcDbScale
 70
     0
300
1:2
140
1.0
141
2.0
290
     0
  0
SCALE
  5
3A3
102
{ACAD_REACTORS
330
3A0
102
}
330
3A0
100
AcDbScale
 70
     0
300
1:4
140
1.0
141
4.0
290
     0
  0
SCALE
  5
3A4
102
{ACAD_REACTORS
330
3A0
102
}
330
3A0
100
AcDbScale
 70
     0
300
1:5
140
1.0
141
5.0
290
     0
  0
SCALE
  5
3A5
102
{ACAD_REACTORS
330
3A0
102
}
330
3A0
100
AcDbScale
 70
     0
300
1:8
140
1.0
141
8.0
290
     0
  0
SCALE
  5
3A6
102
{ACAD_REACTORS
330
3A0
102
}
330
3A0
100
AcDbScale
 70
     0
300
1:10
140
1.0
141
10.0
290
     0
  0
SCALE
  5
3A7
102
{ACAD_REACTORS
330
3A0
102
}
330
3A0
100
AcDbScale
 70
     0
300
1:16
140
1.0
141
16.0
290
     0
  0
SCALE
  5
3A8
102
{ACAD_REACTORS
330
3A0
102
}
330
3A0
100
AcDbScale
 70
     0
300
1:20
140
1.0
141
20.0
290
     0
  0
SCALE
  5
3A9
102
{ACAD_REACTORS
330
3A0
102
}
330
3A0
100
AcDbScale
 70
     0
300
1:30
140
1.0
141
30.0
290
     0
  0
SCALE
  5
3AA
102
{ACAD_REACTORS
330
3A0
102
}
330
3A0
100
AcDbScale
 70
     0
300
1:40
140
1.0
141
40.0
290
     0
  0
SCALE
  5
3AB
102
{ACAD_REACTORS
330
3A0
102
}
330
3A0
100
AcDbScale
 70
     0
300
1:50
140
1.0
141
50.0
290
     0
  0
SCALE
  5
3AC
102
{ACAD_REACTORS
330
3A0
102
}
330
3A0
100
AcDbScale
 70
     0
300
1:100
140
1.0
141
100.0
290
     0
  0
SCALE
  5
3AD
102
{ACAD_REACTORS
330
3A0
102
}
330
3A0
100
AcDbScale
 70
     0
300
2:1
140
2.0
141
1.0
290
     0
  0
SCALE
  5
3AE
102
{ACAD_REACTORS
330
3A0
102
}
330
3A0
100
AcDbScale
 70
     0
300
4:1
140
4.0
141
1.0
290
     0
  0
SCALE
  5
3AF
102
{ACAD_REACTORS
330
3A0
102
}
330
3A0
100
AcDbScale
 70
     0
300
8:1
140
8.0
141
1.0
290
     0
  0
SCALE
  5
3B0
102
{ACAD_REACTORS
330
3A0
102
}
330
3A0
100
AcDbScale
 70
     0
300
10:1
140
10.0
141
1.0
290
     0
  0
SCALE
  5
3B1
102
{ACAD_REACTORS
330
3A0
102
}
330
3A0
100
AcDbScale
 70
     0
300
100:1
140
100.0
141
1.0
290
     0
  0
SCALE
  5
3B2
102
{ACAD_REACTORS
330
3A0
102
}
330
3A0
100
AcDbScale
 70
     0
300
1/128" = 1'-0"
140
0.0078125
141
12.0
290
     0
  0
SCALE
  5
3B3
102
{ACAD_REACTORS
330
3A0
102
}
330
3A0
100
AcDbScale
 70
     0
300
1/64" = 1'-0"
140
0.015625
141
12.0
290
     0
  0
SCALE
  5
3B4
102
{ACAD_REACTORS
330
3A0
102
}
330
3A0
100
AcDbScale
 70
     0
300
1/32" = 1'-0"
140
0.03125
141
12.0
290
     0
  0
SCALE
  5
3B5
102
{ACAD_REACTORS
330
3A0
102
}
330
3A0
100
AcDbScale
 70
     0
300
1/16" = 1'-0"
140
0.0625
141
12.0
290
     0
  0
SCALE
  5
3B6
102
{ACAD_REACTORS
330
3A0
102
}
330
3A0
100
AcDbScale
 70
     0
300
3/32" = 1'-0"
140
0.09375
141
12.0
290
     0
  0
SCALE
  5
3B7
102
{ACAD_REACTORS
330
3A0
102
}
330
3A0
100
AcDbScale
 70
     0
300
1/8" = 1'-0"
140
0.125
141
12.0
290
     0
  0
SCALE
  5
3B8
102
{ACAD_REACTORS
330
3A0
102
}
330
3A0
100
AcDbScale
 70
     0
300
3/16" = 1'-0"
140
0.1875
141
12.0
290
     0
  0
SCALE
  5
3B9
102
{ACAD_REACTORS
330
3A0
102
}
330
3A0
100
AcDbScale
 70
     0
300
1/4" = 1'-0"
140
0.25
141
12.0
290
     0
  0
SCALE
  5
3BA
102
{ACAD_REACTORS
330
3A0
102
}
330
3A0
100
AcDbScale
 70
     0
300
3/8" = 1'-0"
140
0.375
141
12.0
290
     0
  0
SCALE
  5
3BB
102
{ACAD_REACTORS
330
3A0
102
}
330
3A0
100
AcDbScale
 70
     0
300
1/2" = 1'-0"
140
0.5
141
12.0
290
     0
  0
SCALE
  5
3BC
102
{ACAD_REACTORS
330
3A0
102
}
330
3A0
100
AcDbScale
 70
     0
300
3/4" = 1'-0"
140
0.75
141
12.0
290
     0
  0
SCALE
  5
3BD
102
{ACAD_REACTORS
330
3A0
102
}
330
3A0
100
AcDbScale
 70
     0
300
1" = 1'-0"
140
1.0
141
12.0
290
     0
  0
SCALE
  5
3BE
102
{ACAD_REACTORS
330
3A0
102
}
330
3A0
100
AcDbScale
 70
     0
300
1-1/2" = 1'-0"
140
1.5
141
12.0
290
     0
  0
SCALE
  5
3BF
102
{ACAD_REACTORS
330
3A0
102
}
330
3A0
100
AcDbScale
 70
     0
300
3" = 1'-0"
140
3.0
141
12.0
290
     0
  0
SCALE
  5
3C0
102
{ACAD_REACTORS
330
3A0
102
}
330
3A0
100
AcDbScale
 70
     0
300
6" = 1'-0"
140
6.0
141
12.0
290
     0
  0
SCALE
  5
3C1
102
{ACAD_REACTORS
330
3A0
102
}
330
3A0
100
AcDbScale
 70
     0
300
1'-0" = 1'-0"
140
12.0
141
12.0
290
     0
  0
TABLESTYLE
  5
389
102
{ACAD_REACTORS
330
388
102
}
330
388
100
AcDbTableStyle
  3
Standard
 70
     0
 71
     0
 40
1.5
 41
1.5
280
     0
281
     0
  7
STANDARD
140
4.5
170
     2
 62
     0
 63
   257
283
     0
274
    -2
284
     1
 64
     0
275
    -2
285
     1
 65
     0
276
    -2
286
     1
 66
     0
277
    -2
287
     1
 67
     0
278
    -2
288
     1
 68
     0
279
    -2
289
     1
 69
     0
  7
STANDARD
140
6.0
170
     5
 62
     0
 63
   257
283
     0
274
    -2
284
     1
 64
     0
275
    -2
285
     1
 65
     0
276
    -2
286
     1
 66
     0
277
    -2
287
     1
 67
     0
278
    -2
288
     1
 68
     0
279
    -2
289
     1
 69
     0
  7
STANDARD
140
4.5
170
     5
 62
     0
 63
   257
283
     0
274
    -2
284
     1
 64
     0
275
    -2
285
     1
 65
     0
276
    -2
286
     1
 66
     0
277
    -2
287
     1
 67
     0
278
    -2
288
     1
 68
     0
279
    -2
289
     1
 69
     0
  0
VISUALSTYLE
  5
3C7
102
{ACAD_REACTORS
330
3C2
102
}
102
{ACAD_XDICTIONARY
360
5FA
102
}
330
3C2
100
AcDbVisualStyle
  2
2dWireframe
 70
     4
 71
     0
 72
     2
 73
     0
 90
        0
 40
0.6
 41
30.0
 62
     5
 63
     7
 74
     1
 91
        4
 64
     7
 65
   257
 75
     1
175
     1
 42
1.0
 92
        0
 66
   257
 43
1.0
 76
     1
 77
     6
 78
     2
 67
     7
 79
     5
170
     0
171
     0
290
     0
174
     0
 93
        1
 44
0.0
173
     0
291
     0
 45
0.0
1001
ACAD
1000
AcDbSavedByObjectVersion
1070
     0
  0
VISUALSTYLE
  5
3CA
102
{ACAD_REACTORS
330
3C2
102
}
102
{ACAD_XDICTIONARY
360
600
102
}
330
3C2
100
AcDbVisualStyle
  2
Basic
 70
     7
 71
     1
 72
     0
 73
     1
 90
        0
 40
0.6
 41
30.0
 62
     5
 63
     7
 74
     0
 91
        4
 64
     7
 65
   257
 75
     1
175
     1
 42
1.0
 92
        8
 66
     7
 43
1.0
 76
     1
 77
     6
 78
     2
 67
     7
 79
     5
170
     0
171
     0
290
     0
174
     0
 93
        1
 44
0.0
173
     0
291
     1
 45
0.0
1001
ACAD
1000
AcDbSavedByObjectVersion
1070
     0
  0
VISUALSTYLE
  5
3CE
102
{ACAD_REACTORS
330
3C2
102
}
102
{ACAD_XDICTIONARY
360
608
102
}
330
3C2
100
AcDbVisualStyle
  2
Brighten
 70
    12
 71
     2
 72
     2
 73
     0
 90
        0
 40
0.6
 41
30.0
 62
     5
 63
     7
 74
     1
 91
        4
 64
     7
 65
   257
 75
     1
175
     1
 42
1.0
 92
        8
 66
     7
 43
1.0
 76
     1
 77
     6
 78
     2
 67
     7
 79
     5
170
     0
171
     0
290
     0
174
     0
 93
        1
 44
50.0
173
     0
291
     1
 45
0.0
1001
ACAD
1000
AcDbSavedByObjectVersion
1070
     0
  0
VISUALSTYLE
  5
3D2
102
{ACAD_REACTORS
330
3C2
102
}
102
{ACAD_XDICTIONARY
360
610
102
}
330
3C2
100
AcDbVisualStyle
  2
ColorChange
 70
    16
 71
     2
 72
     2
 73
     3
 90
        0
 40
0.6
 41
30.0
 62
     5
 63
     8
 74
     1
 91
        4
 64
     7
 65
   257
 75
     1
175
     1
 42
1.0
 92
        8
 66
     8
 43
1.0
 76
     1
 77
     6
 78
     2
 67
     7
 79
     5
170
     0
171
     0
290
     0
174
     0
 93
        1
 44
0.0
173
     0
291
     1
 45
0.0
1001
ACAD
1000
AcDbSavedByObjectVersion
1070
     0
  0
VISUALSTYLE
  5
3CC
102
{ACAD_REACTORS
330
3C2
102
}
102
{ACAD_XDICTIONARY
360
604
102
}
330
3C2
100
AcDbVisualStyle
  2
Conceptual
 70
     9
 71
     3
 72
     2
 73
     0
 90
        0
 40
0.6
 41
30.0
 62
     5
 63
     7
 74
     2
 91
        2
 64
     7
 65
   257
 75
     1
175
     1
 42
179.0
 92
        8
 66
     7
 43
1.0
 76
     1
 77
     6
 78
     2
 67
     7
 79
     3
170
     0
171
     0
290
     0
174
     0
 93
        1
 44
0.0
173
     0
291
     0
 45
0.0
1001
ACAD
1000
AcDbSavedByObjectVersion
1070
     0
  0
VISUALSTYLE
  5
3CD
102
{ACAD_REACTORS
330
3C2
102
}
102
{ACAD_XDICTIONARY
360
606
102
}
330
3C2
100
AcDbVisualStyle
  2
Dim
 70
    11
 71
     2
 72
     2
 73
     0
 90
        0
 40
0.6
 41
30.0
 62
     5
 63
     7
 74
     1
 91
        4
 64
     7
 65
   257
 75
     1
175
     1
 42
1.0
 92
        8
 66
     7
 43
1.0
 76
     1
 77
     6
 78
     2
 67
     7
 79
     5
170
     0
171
     0
290
     0
174
     0
 93
        1
 44
-50.0
173
     0
291
     1
 45
0.0
1001
ACAD
1000
AcDbSavedByObjectVersion
1070
     0
  0
VISUALSTYLE
  5
3D5
102
{ACAD_REACTORS
330
3C2
102
}
102
{ACAD_XDICTIONARY
360
616
102
}
330
3C2
100
AcDbVisualStyle
  2
EdgeColorOff
 70
    22
 71
     2
 72
     2
 73
     0
 90
        0
 40
0.6
 41
30.0
 62
     5
 63
     7
 74
     1
 91
        4
 64
     7
 65
   257
 75
     1
175
     1
 42
1.0
 92
        8
 66
     7
 43
1.0
 76
     1
 77
     6
 78
     2
 67
     7
 79
     5
170
     0
171
     0
290
     0
174
     0
 93
        1
 44
0.0
173
     0
291
     1
 45
0.0
1001
ACAD
1000
AcDbSavedByObjectVersion
1070
     0
  0
VISUALSTYLE
  5
3D1
102
{ACAD_REACTORS
330
3C2
102
}
102
{ACAD_XDICTIONARY
360
60E
102
}
330
3C2
100
AcDbVisualStyle
  2
Facepattern
 70
    15
 71
     2
 72
     2
 73
     0
 90
        0
 40
0.6
 41
30.0
 62
     5
 63
     7
 74
     1
 91
        4
 64
     7
 65
   257
 75
     1
175
     1
 42
1.0
 92
        8
 66
     7
 43
1.0
 76
     1
 77
     6
 78
     2
 67
     7
 79
     5
170
     0
171
     0
290
     0
174
     0
 93
        1
 44
0.0
173
     0
291
     1
 45
0.0
1001
ACAD
1000
AcDbSavedByObjectVersion
1070
     0
  0
VISUALSTYLE
  5
3C3
102
{ACAD_REACTORS
330
3C2
102
}
102
{ACAD_XDICTIONARY
360
5F2
102
}
330
3C2
100
AcDbVisualStyle
  2
Flat
 70
     0
 71
     2
 72
     1
 73
     1
 90
        2
 40
0.6
 41
30.0
 62
     5
 63
     7
 74
     0
 91
        0
 64
     7
 65
   257
 75
     1
175
     1
 42
1.0
 92
        8
 66
     7
 43
1.0
 76
     1
 77
     6
 78
     2
 67
     7
 79
     5
170
     0
171
     0
290
     0
174
     0
 93
       13
 44
0.0
173
     0
291
     1
 45
0.0
1001
ACAD
1000
AcDbSavedByObjectVersion
1070
     0
  0
VISUALSTYLE
  5
3C4
102
{ACAD_REACTORS
330
3C2
102
}
102
{ACAD_XDICTIONARY
360
5F4
102
}
330
3C2
100
AcDbVisualStyle
  2
FlatWithEdges
 70
     1
 71
     2
 72
     1
 73
     1
 90
        2
 40
0.6
 41
30.0
 62
     5
 63
     7
 74
     1
 91
        0
 64
     7
 65
   257
 75
     1
175
     1
 42
1.0
 92
        0
 66
   257
 43
1.0
 76
     1
 77
     6
 78
     2
 67
     7
 79
     5
170
     0
171
     0
290
     0
174
     0
 93
       13
 44
0.0
173
     0
291
     1
 45
0.0
1001
ACAD
1000
AcDbSavedByObjectVersion
1070
     0
  0
VISUALSTYLE
  5
3C5
102
{ACAD_REACTORS
330
3C2
102
}
102
{ACAD_XDICTIONARY
360
5F6
102
}
330
3C2
100
AcDbVisualStyle
  2
Gouraud
 70
     2
 71
     2
 72
     2
 73
     1
 90
        2
 40
0.6
 41
30.0
 62
     5
 63
     7
 74
     0
 91
        0
 64
     7
 65
   257
 75
     1
175
     1
 42
1.0
 92
        0
 66
     7
 43
1.0
 76
     1
 77
     6
 78
     2
 67
     7
 79
     5
170
     0
171
     0
290
     0
174
     0
 93
       13
 44
0.0
173
     0
291
     1
 45
0.0
1001
ACAD
1000
AcDbSavedByObjectVersion
1070
     0
  0
VISUALSTYLE
  5
3C6
102
{ACAD_REACTORS
330
3C2
102
}
102
{ACAD_XDICTIONARY
360
5F8
102
}
330
3C2
100
AcDbVisualStyle
  2
GouraudWithEdges
 70
     3
 71
     2
 72
     2
 73
     1
 90
        2
 40
0.6
 41
30.0
 62
     5
 63
     7
 74
     1
 91
        0
 64
     7
 65
   257
 75
     1
175
     1
 42
1.0
 92
        0
 66
   257
 43
1.0
 76
     1
 77
     6
 78
     2
 67
     7
 79
     5
170
     0
171
     0
290
     0
174
     0
 93
       13
 44
0.0
173
     0
291
     1
 45
0.0
1001
ACAD
1000
AcDbSavedByObjectVersion
1070
     0
  0
VISUALSTYLE
  5
3C9
102
{ACAD_REACTORS
330
3C2
102
}
102
{ACAD_XDICTIONARY
360
5FE
102
}
330
3C2
100
AcDbVisualStyle
  2
Hidden
 70
     6
 71
     1
 72
     2
 73
     2
 90
        0
 40
0.6
 41
30.0
 62
     5
 63
     7
 74
     2
 91
        2
 64
     7
 65
   257
 75
     2
175
     1
 42
40.0
 92
        0
 66
   257
 43
1.0
 76
     1
 77
     6
 78
     2
 67
     7
 79
     3
170
     0
171
     0
290
     0
174
     0
 93
        1
 44
0.0
173
     0
291
     0
 45
0.0
1001
ACAD
1000
AcDbSavedByObjectVersion
1070
     0
  0
VISUALSTYLE
  5
3D3
102
{ACAD_REACTORS
330
3C2
102
}
102
{ACAD_XDICTIONARY
360
612
102
}
330
3C2
100
AcDbVisualStyle
  2
JitterOff
 70
    20
 71
     2
 72
     2
 73
     0
 90
        0
 40
0.6
 41
30.0
 62
     5
 63
     7
 74
     1
 91
        4
 64
     7
 65
   257
 75
     1
175
     1
 42
1.0
 92
       10
 66
     7
 43
1.0
 76
     1
 77
     6
 78
     2
 67
     7
 79
     5
170
     0
171
     0
290
     0
174
     0
 93
        1
 44
0.0
173
     0
291
     1
 45
0.0
1001
ACAD
1000
AcDbSavedByObjectVersion
1070
     0
  0
VISUALSTYLE
  5
3D0
102
{ACAD_REACTORS
330
3C2
102
}
102
{ACAD_XDICTIONARY
360
60C
102
}
330
3C2
100
AcDbVisualStyle
  2
Linepattern
 70
    14
 71
     2
 72
     2
 73
     0
 90
        0
 40
0.6
 41
30.0
 62
     5
 63
     7
 74
     1
 91
        4
 64
     7
 65
   257
 75
     7
175
     7
 42
1.0
 92
        8
 66
     7
 43
1.0
 76
     1
 77
     6
 78
     2
 67
     7
 79
     5
170
     0
171
     0
290
     0
174
     0
 93
        1
 44
0.0
173
     0
291
     1
 45
0.0
1001
ACAD
1000
AcDbSavedByObjectVersion
1070
     0
  0
VISUALSTYLE
  5
3D4
102
{ACAD_REACTORS
330
3C2
102
}
102
{ACAD_XDICTIONARY
360
614
102
}
330
3C2
100
AcDbVisualStyle
  2
OverhangOff
 70
    21
 71
     2
 72
     2
 73
     0
 90
        0
 40
0.6
 41
30.0
 62
     5
 63
     7
 74
     1
 91
        4
 64
     7
 65
   257
 75
     1
175
     1
 42
1.0
 92
        9
 66
     7
 43
1.0
 76
     1
 77
     6
 78
     2
 67
     7
 79
     5
170
     0
171
     0
290
     0
174
     0
 93
        1
 44
0.0
173
     0
291
     1
 45
0.0
1001
ACAD
1000
AcDbSavedByObjectVersion
1070
     0
  0
VISUALSTYLE
  5
3CB
102
{ACAD_REACTORS
330
3C2
102
}
102
{ACAD_XDICTIONARY
360
602
102
}
330
3C2
100
AcDbVisualStyle
  2
Realistic
 70
     8
 71
     2
 72
     3
 73
     0
 90
        2
 40
0.6
 41
30.0
 62
     5
 63
     7
 74
     0
 91
        0
 64
     7
 65
   257
 75
     1
175
     1
 42
1.0
 92
        8
 66
   257
 43
1.0
 76
     1
 77
     6
 78
     2
 67
     7
 79
     3
170
     0
171
     0
290
     0
174
     0
 93
       13
 44
0.0
173
     0
291
     0
 45
0.0
1001
ACAD
1000
AcDbSavedByObjectVersion
1070
     0
  0
VISUALSTYLE
  5
3DA
102
{ACAD_REACTORS
330
3C2
102
}
102
{ACAD_XDICTIONARY
360
620
102
}
330
3C2
100
AcDbVisualStyle
  2
Shaded
 70
    27
 71
     2
 72
     2
 73
     1
 90
        2
 40
0.6
 41
30.0
 62
     5
 63
     7
 74
     0
 91
        4
 64
     7
 65
   257
 75
     1
175
     1
 42
1.0
 92
        8
 66
   257
 43
1.0
 76
     1
 77
     6
 78
     2
 67
     8
 79
     3
170
     0
171
     0
290
     0
174
     0
 93
        5
 44
0.0
173
     0
291
     0
 45
0.0
1001
ACAD
1000
AcDbSavedByObjectVersion
1070
     0
  0
VISUALSTYLE
  5
3D9
102
{ACAD_REACTORS
330
3C2
102
}
102
{ACAD_XDICTIONARY
360
61E
102
}
330
3C2
100
AcDbVisualStyle
  2
Shaded with edges
 70
    26
 71
     2
 72
     2
 73
     1
 90
        2
 40
0.6
 41
30.0
 62
     5
 63
     7
 74
     1
 91
       10
 64
     7
 65
   257
 75
     2
175
     1
 42
1.0
 92
        8
 66
   257
 43
1.0
 76
     1
 77
     6
 78
     2
 67
     7
 79
     3
170
     0
171
     0
290
     0
174
     0
 93
        5
 44
0.0
173
     0
291
     0
 45
0.0
1001
ACAD
1000
AcDbSavedByObjectVersion
1070
     0
  0
VISUALSTYLE
  5
3D6
102
{ACAD_REACTORS
330
3C2
102
}
102
{ACAD_XDICTIONARY
360
618
102
}
330
3C2
100
AcDbVisualStyle
  2
Shades of Gray
 70
    23
 71
     2
 72
     2
 73
     3
 90
        0
 40
0.6
 41
30.0
 62
     5
 63
     7
 74
     2
 91
        2
 64
     7
 65
     7
 75
     1
175
     1
 42
40.0
 92
        8
 66
     7
 43
1.0
 76
     1
 77
     6
 78
     2
 67
     7
 79
     3
170
     0
171
     0
290
     0
174
     0
 93
        1
 44
0.0
173
     0
291
     0
 45
0.0
1001
ACAD
1000
AcDbSavedByObjectVersion
1070
     0
  0
VISUALSTYLE
  5
3D7
102
{ACAD_REACTORS
330
3C2
102
}
102
{ACAD_XDICTIONARY
360
61A
102
}
330
3C2
100
AcDbVisualStyle
  2
Sketchy
 70
    24
 71
     1
 72
     2
 73
     2
 90
        0
 40
0.6
 41
30.0
 62
     5
 63
     7
 74
     2
 91
        2
 64
     7
 65
     7
 75
     1
175
     1
 42
40.0
 92
       11
 66
     7
 43
1.0
 76
     1
 77
     6
 78
     2
 67
     7
 79
     6
170
     0
171
     0
290
     0
174
     0
 93
        1
 44
0.0
173
     0
291
     0
 45
0.0
1001
ACAD
1000
AcDbSavedByObjectVersion
1070
     0
  0
VISUALSTYLE
  5
3CF
102
{ACAD_REACTORS
330
3C2
102
}
102
{ACAD_XDICTIONARY
360
60A
102
}
330
3C2
100
AcDbVisualStyle
  2
Thicken
 70
    13
 71
     2
 72
     2
 73
     0
 90
        0
 40
0.6
 41
30.0
 62
     5
 63
     7
 74
     1
 91
        4
 64
     7
 65
   257
 75
     1
175
     1
 42
1.0
 92
       12
 66
     7
 43
1.0
 76
     1
 77
     6
 78
     2
 67
     7
 79
     5
170
     0
171
     0
290
     0
174
     0
 93
        1
 44
0.0
173
     0
291
     1
 45
0.0
1001
ACAD
1000
AcDbSavedByObjectVersion
1070
     0
  0
VISUALSTYLE
  5
3C8
102
{ACAD_REACTORS
330
3C2
102
}
102
{ACAD_XDICTIONARY
360
5FC
102
}
330
3C2
100
AcDbVisualStyle
  2
Wireframe
 70
     5
 71
     0
 72
     2
 73
     0
 90
        0
 40
0.6
 41
30.0
 62
     5
 63
     7
 74
     1
 91
        4
 64
     7
 65
   257
 75
     1
175
     1
 42
1.0
 92
        0
 66
   257
 43
1.0
 76
     1
 77
     6
 78
     2
 67
     7
 79
     3
170
     0
171
     0
290
     0
174
     0
 93
        1
 44
0.0
173
     0
291
     0
 45
0.0
1001
ACAD
1000
AcDbSavedByObjectVersion
1070
     0
  0
VISUALSTYLE
  5
3D8
102
{ACAD_REACTORS
330
3C2
102
}
102
{ACAD_XDICTIONARY
360
61C
102
}
330
3C2
100
AcDbVisualStyle
  2
X-Ray
 70
    25
 71
     2
 72
     2
 73
     1
 90
        1
 40
0.5
 41
30.0
 62
     5
 63
     7
 74
     1
 91
        0
 64
     7
 65
   257
 75
     1
175
     1
 42
1.0
 92
        8
 66
     7
 43
1.0
 76
     1
 77
     6
 78
     2
 67
     7
 79
     3
170
     0
171
     0
290
     0
174
     0
 93
       13
 44
0.0
173
     0
291
     0
 45
0.0
1001
ACAD
1000
AcDbSavedByObjectVersion
1070
     0
  0
XRECORD
  5
5E7
102
{ACAD_REACTORS
330
5E6
102
}
330
5E6
100
AcDbXrecord
280
     1
340
387
  0
XRECORD
  5
5E8
102
{ACAD_REACTORS
330
5E6
102
}
330
5E6
100
AcDbXrecord
280
     1
340
386
  0
DICTIONARYVAR
  5
5EB
102
{ACAD_REACTORS
330
357
102
}
330
357
100
DictionaryVariables
280
     0
  1
1:1
  0
DICTIONARYVAR
  5
5E2
102
{ACAD_REACTORS
330
357
102
}
330
357
100
DictionaryVariables
280
     0
  1
Standard
  0
DICTIONARYVAR
  5
38D
102
{ACAD_REACTORS
330
357
102
}
330
357
100
DictionaryVariables
280
     0
  1
Standard
  0
DICTIONARYVAR
  5
359
102
{ACAD_REACTORS
330
357
102
}
330
357
100
DictionaryVariables
280
     0
  1
2
  0
DICTIONARYVAR
  5
358
102
{ACAD_REACTORS
330
357
102
}
330
357
100
DictionaryVariables
280
     0
  1
1
  0
DICTIONARYVAR
  5
5E3
102
{ACAD_REACTORS
330
357
102
}
330
357
100
DictionaryVariables
280
     0
  1
0
  0
DICTIONARYVAR
  5
38E
102
{ACAD_REACTORS
330
357
102
}
330
357
100
DictionaryVariables
280
     0
  1

  0
DICTIONARY
  5
5EE
330
3DC
100
AcDbDictionary
280
     1
281
     1
  3
ACAD_XREC_ROUNDTRIP
360
5EF
  0
DICTIONARY
  5
5EC
330
3DB
100
AcDbDictionary
280
     1
281
     1
  3
ACAD_XREC_ROUNDTRIP
360
5ED
  0
DICTIONARY
  5
5F0
330
3DD
100
AcDbDictionary
280
     1
281
     1
  3
ACAD_XREC_ROUNDTRIP
360
5F1
  0
DICTIONARY
  5
623
330
3DF
100
AcDbDictionary
280
     1
281
     1
  3
ACAD_XREC_ROUNDTRIP
360
624
  0
DICTIONARY
  5
5FA
330
3C7
100
AcDbDictionary
280
     1
281
     1
  3
ACAD_XREC_ROUNDTRIP
360
5FB
  0
DICTIONARY
  5
600
330
3CA
100
AcDbDictionary
280
     1
281
     1
  3
ACAD_XREC_ROUNDTRIP
360
601
  0
DICTIONARY
  5
608
330
3CE
100
AcDbDictionary
280
     1
281
     1
  3
ACAD_XREC_ROUNDTRIP
360
609
  0
DICTIONARY
  5
610
330
3D2
100
AcDbDictionary
280
     1
281
     1
  3
ACAD_XREC_ROUNDTRIP
360
611
  0
DICTIONARY
  5
604
330
3CC
100
AcDbDictionary
280
     1
281
     1
  3
ACAD_XREC_ROUNDTRIP
360
605
  0
DICTIONARY
  5
606
330
3CD
100
AcDbDictionary
280
     1
281
     1
  3
ACAD_XREC_ROUNDTRIP
360
607
  0
DICTIONARY
  5
616
330
3D5
100
AcDbDictionary
280
     1
281
     1
  3
ACAD_XREC_ROUNDTRIP
360
617
  0
DICTIONARY
  5
60E
330
3D1
100
AcDbDictionary
280
     1
281
     1
  3
ACAD_XREC_ROUNDTRIP
360
60F
  0
DICTIONARY
  5
5F2
330
3C3
100
AcDbDictionary
280
     1
281
     1
  3
ACAD_XREC_ROUNDTRIP
360
5F3
  0
DICTIONARY
  5
5F4
330
3C4
100
AcDbDictionary
280
     1
281
     1
  3
ACAD_XREC_ROUNDTRIP
360
5F5
  0
DICTIONARY
  5
5F6
330
3C5
100
AcDbDictionary
280
     1
281
     1
  3
ACAD_XREC_ROUNDTRIP
360
5F7
  0
DICTIONARY
  5
5F8
330
3C6
100
AcDbDictionary
280
     1
281
     1
  3
ACAD_XREC_ROUNDTRIP
360
5F9
  0
DICTIONARY
  5
5FE
330
3C9
100
AcDbDictionary
280
     1
281
     1
  3
ACAD_XREC_ROUNDTRIP
360
5FF
  0
DICTIONARY
  5
612
330
3D3
100
AcDbDictionary
280
     1
281
     1
  3
ACAD_XREC_ROUNDTRIP
360
613
  0
DICTIONARY
  5
60C
330
3D0
100
AcDbDictionary
280
     1
281
     1
  3
ACAD_XREC_ROUNDTRIP
360
60D
  0
DICTIONARY
  5
614
330
3D4
100
AcDbDictionary
280
     1
281
     1
  3
ACAD_XREC_ROUNDTRIP
360
615
  0
DICTIONARY
  5
602
330
3CB
100
AcDbDictionary
280
     1
281
     1
  3
ACAD_XREC_ROUNDTRIP
360
603
  0
DICTIONARY
  5
620
330
3DA
100
AcDbDictionary
280
     1
281
     1
  3
ACAD_XREC_ROUNDTRIP
360
621
  0
DICTIONARY
  5
61E
330
3D9
100
AcDbDictionary
280
     1
281
     1
  3
ACAD_XREC_ROUNDTRIP
360
61F
  0
DICTIONARY
  5
618
330
3D6
100
AcDbDictionary
280
     1
281
     1
  3
ACAD_XREC_ROUNDTRIP
360
619
  0
DICTIONARY
  5
61A
330
3D7
100
AcDbDictionary
280
     1
281
     1
  3
ACAD_XREC_ROUNDTRIP
360
61B
  0
DICTIONARY
  5
60A
330
3CF
100
AcDbDictionary
280
     1
281
     1
  3
ACAD_XREC_ROUNDTRIP
360
60B
  0
DICTIONARY
  5
5FC
330
3C8
100
AcDbDictionary
280
     1
281
     1
  3
ACAD_XREC_ROUNDTRIP
360
5FD
  0
DICTIONARY
  5
61C
330
3D8
100
AcDbDictionary
280
     1
281
     1
  3
ACAD_XREC_ROUNDTRIP
360
61D
  0
XRECORD
  5
5EF
102
{ACAD_REACTORS
330
5EE
102
}
330
5EE
100
AcDbXrecord
280
     1
102
MATERIAL
148
0.0
149
0.0
149
0.0
 93
        0
 94
      127
282
     0
 72
     1
 77
     1
171
     1
175
     1
179
     1
273
     0
  0
XRECORD
  5
5ED
102
{ACAD_REACTORS
330
5EC
102
}
330
5EC
100
AcDbXrecord
280
     1
102
MATERIAL
148
0.0
149
0.0
149
0.0
 93
        0
 94
      127
282
     0
 72
     1
 77
     1
171
     1
175
     1
179
     1
273
     0
  0
XRECORD
  5
5F1
102
{ACAD_REACTORS
330
5F0
102
}
330
5F0
100
AcDbXrecord
280
     1
102
MATERIAL
148
0.0
149
0.0
149
0.0
 93
        0
 94
      127
282
     0
 72
     1
 77
     1
171
     1
175
     1
179
     1
273
     0
  0
XRECORD
  5
624
102
{ACAD_REACTORS
330
623
102
}
330
623
100
AcDbXrecord
280
     1
102
ACAD_ROUNDTRIP_2010_MLEADER_STYLE
  0
XRECORD
  5
5FB
102
{ACAD_REACTORS
330
5FA
102
}
330
5FA
100
AcDbXrecord
280
     1
102
RTVSPropertyOp0
 70
     1
102
RTVSPropertyOp1
 70
     1
102
RTVSPropertyOp2
 70
     1
102
RTVSPropertyOp3
 70
     1
102
RTVSPropertyOp4
 70
     1
102
RTVSPropertyOp5
 70
     1
102
RTVSPropertyOp6
 70
     1
102
RTVSPropertyOp7
 70
     1
102
RTVSPropertyOp8
 70
     1
102
RTVSPropertyOp9
 70
     1
102
RTVSPropertyOp10
 70
     1
102
RTVSPropertyOp11
 70
     1
102
RTVSPropertyOp12
 70
     1
102
RTVSPropertyOp13
 70
     1
102
RTVSPropertyOp14
 70
     1
102
RTVSPropertyOp15
 70
     1
102
RTVSPropertyOp16
 70
     1
102
RTVSPropertyOp17
 70
     1
102
RTVSPropertyOp18
 70
     1
102
RTVSPropertyOp19
 70
     1
102
RTVSPropertyOp20
 70
     1
102
RTVSPropertyOp21
 70
     1
102
RTVSPropertyOp22
 70
     1
102
RTVSPropertyOp23
 70
     1
102
RTVSPropertyOp24
 70
     1
102
RTVSPropertyOp25
 70
     1
102
RTVSPropertyOp26
 70
     1
102
RTVSPropertyOp27
 70
     1
102
RTVSPropertyOp28
 70
     1
102
RTVSPropertyOp29
 70
     1
102
RTVSPropertyOp30
 70
     1
102
RTVSPropertyOp31
 70
     1
102
RTVSPropertyOp32
 70
     1
102
RTVSPropertyOp33
 70
     1
102
RTVSPropertyOp34
 70
     1
102
RTVSPropertyOp35
 70
     1
102
RTVSPropertyOp36
 70
     1
102
RTVSPropertyOp37
 70
     1
102
RTVSPropertyOp38
 70
     1
102
RTVSPropertyOp39
 70
     1
102
RTVSPropertyOp40
 70
     1
102
RTVSPropertyOp41
 70
     1
102
RTVSPropertyOp42
 70
     1
102
RTVSPropertyOp43
 70
     1
102
RTVSPropertyOp44
 70
     1
102
RTVSPropertyOp45
 70
     1
102
RTVSPropertyOp46
 70
     1
102
RTVSPropertyOp47
 70
     1
102
RTVSPropertyOp48
 70
     1
102
RTVSPropertyOp49
 70
     1
102
RTVSPropertyOp50
 70
     1
102
RTVSPropertyOp51
 70
     0
102
RTVSPropertyOp52
 70
     0
102
RTVSPropertyOp53
 70
     1
102
RTVSPropertyOp54
 70
     1
102
RTVSPropertyOp55
 70
     1
102
RTVSPropertyOp56
 70
     1
102
RTVSPropertyOp57
 70
     1
102
RTVSPost2010Prop28
280
     1
102
RTVSPost2010PropOp28
 70
     1
102
RTVSPost2010Prop29
280
     1
102
RTVSPost2010PropOp29
 70
     1
102
RTVSPost2010Prop30
280
     0
102
RTVSPost2010PropOp30
 70
     1
102
RTVSPost2010Prop31
280
     0
102
RTVSPost2010PropOp31
 70
     1
102
RTVSPost2010Prop32
280
     0
102
RTVSPost2010PropOp32
 70
     1
102
RTVSPost2010Prop33
280
     0
102
RTVSPost2010PropOp33
 70
     1
102
RTVSPost2010Prop34
280
     0
102
RTVSPost2010PropOp34
 70
     1
102
RTVSPost2010Prop35
280
     0
102
RTVSPost2010PropOp35
 70
     1
102
RTVSPost2010Prop36
280
     0
102
RTVSPost2010PropOp36
 70
     1
102
RTVSPost2010Prop37
 90
       50
102
RTVSPost2010PropOp37
 70
     1
102
RTVSPost2010Prop38
140
0.0
102
RTVSPost2010PropOp38
 70
     1
102
RTVSPost2010Prop39
140
1.0
102
RTVSPost2010PropOp39
 70
     1
102
RTVSPost2010Prop40
 90
        0
102
RTVSPost2010PropOp40
 70
     1
102
RTVSPost2010Prop41ColorIndex
 90
       18
102
RTVSPost2010Prop41ColorRGB
 90
        0
102
RTVSPost2010PropOp41
 70
     1
102
RTVSPost2010Prop42
 90
       50
102
RTVSPost2010PropOp42
 70
     1
102
RTVSPost2010Prop43
 90
        3
102
RTVSPost2010PropOp43
 70
     1
102
RTVSPost2010Prop44ColorIndex
 90
        5
102
RTVSPost2010Prop44ColorRGB
 90
      255
102
RTVSPost2010PropOp44
 70
     1
102
RTVSPost2010Prop45
280
     0
102
RTVSPost2010PropOp45
 70
     1
102
RTVSPost2010Prop46
 90
       50
102
RTVSPost2010PropOp46
 70
     1
102
RTVSPost2010Prop47
 90
       50
102
RTVSPost2010PropOp47
 70
     1
102
RTVSPost2010Prop48
 90
       50
102
RTVSPost2010PropOp48
 70
     1
102
RTVSPost2010Prop49
280
     0
102
RTVSPost2010PropOp49
 70
     1
102
RTVSPost2010Prop50
 90
       50
102
RTVSPost2010PropOp50
 70
     1
102
RTVSPost2010Prop51ColorIndex
 90
      256
102
RTVSPost2010Prop51ColorRGB
 90
-16777216
102
RTVSPost2010PropOp51
 70
     0
102
RTVSPost2010Prop52
140
1.0
102
RTVSPost2010PropOp52
 70
     0
102
RTVSPost2010Prop53
 90
        2
102
RTVSPost2010PropOp53
 70
     1
102
RTVSPost2010Prop54
  1
strokes_ogs.tif
102
RTVSPost2010PropOp54
 70
     1
102
RTVSPost2010Prop55
280
     0
102
RTVSPost2010PropOp55
 70
     1
102
RTVSPost2010Prop56
140
1.0
102
RTVSPost2010PropOp56
 70
     1
102
RTVSPost2010Prop57
140
1.0
102
RTVSPost2010PropOp57
 70
     1
  0
XRECORD
  5
601
102
{ACAD_REACTORS
330
600
102
}
330
600
100
AcDbXrecord
280
     1
102
RTVSPropertyOp0
 70
     1
102
RTVSPropertyOp1
 70
     1
102
RTVSPropertyOp2
 70
     1
102
RTVSPropertyOp3
 70
     1
102
RTVSPropertyOp4
 70
     1
102
RTVSPropertyOp5
 70
     1
102
RTVSPropertyOp6
 70
     1
102
RTVSPropertyOp7
 70
     1
102
RTVSPropertyOp8
 70
     1
102
RTVSPropertyOp9
 70
     1
102
RTVSPropertyOp10
 70
     1
102
RTVSPropertyOp11
 70
     1
102
RTVSPropertyOp12
 70
     1
102
RTVSPropertyOp13
 70
     1
102
RTVSPropertyOp14
 70
     1
102
RTVSPropertyOp15
 70
     1
102
RTVSPropertyOp16
 70
     1
102
RTVSPropertyOp17
 70
     1
102
RTVSPropertyOp18
 70
     1
102
RTVSPropertyOp19
 70
     1
102
RTVSPropertyOp20
 70
     1
102
RTVSPropertyOp21
 70
     1
102
RTVSPropertyOp22
 70
     1
102
RTVSPropertyOp23
 70
     1
102
RTVSPropertyOp24
 70
     1
102
RTVSPropertyOp25
 70
     1
102
RTVSPropertyOp26
 70
     1
102
RTVSPropertyOp27
 70
     1
102
RTVSPropertyOp28
 70
     1
102
RTVSPropertyOp29
 70
     1
102
RTVSPropertyOp30
 70
     1
102
RTVSPropertyOp31
 70
     1
102
RTVSPropertyOp32
 70
     1
102
RTVSPropertyOp33
 70
     1
102
RTVSPropertyOp34
 70
     1
102
RTVSPropertyOp35
 70
     1
102
RTVSPropertyOp36
 70
     1
102
RTVSPropertyOp37
 70
     1
102
RTVSPropertyOp38
 70
     1
102
RTVSPropertyOp39
 70
     1
102
RTVSPropertyOp40
 70
     1
102
RTVSPropertyOp41
 70
     1
102
RTVSPropertyOp42
 70
     1
102
RTVSPropertyOp43
 70
     1
102
RTVSPropertyOp44
 70
     1
102
RTVSPropertyOp45
 70
     1
102
RTVSPropertyOp46
 70
     1
102
RTVSPropertyOp47
 70
     1
102
RTVSPropertyOp48
 70
     1
102
RTVSPropertyOp49
 70
     1
102
RTVSPropertyOp50
 70
     1
102
RTVSPropertyOp51
 70
     0
102
RTVSPropertyOp52
 70
     0
102
RTVSPropertyOp53
 70
     1
102
RTVSPropertyOp54
 70
     1
102
RTVSPropertyOp55
 70
     1
102
RTVSPropertyOp56
 70
     1
102
RTVSPropertyOp57
 70
     1
102
RTVSPost2010Prop28
280
     0
102
RTVSPost2010PropOp28
 70
     1
102
RTVSPost2010Prop29
280
     1
102
RTVSPost2010PropOp29
 70
     1
102
RTVSPost2010Prop30
280
     1
102
RTVSPost2010PropOp30
 70
     1
102
RTVSPost2010Prop31
280
     0
102
RTVSPost2010PropOp31
 70
     1
102
RTVSPost2010Prop32
280
     0
102
RTVSPost2010PropOp32
 70
     1
102
RTVSPost2010Prop33
280
     0
102
RTVSPost2010PropOp33
 70
     1
102
RTVSPost2010Prop34
280
     0
102
RTVSPost2010PropOp34
 70
     1
102
RTVSPost2010Prop35
280
     0
102
RTVSPost2010PropOp35
 70
     1
102
RTVSPost2010Prop36
280
     0
102
RTVSPost2010PropOp36
 70
     1
102
RTVSPost2010Prop37
 90
       50
102
RTVSPost2010PropOp37
 70
     1
102
RTVSPost2010Prop38
140
0.0
102
RTVSPost2010PropOp38
 70
     1
102
RTVSPost2010Prop39
140
1.0
102
RTVSPost2010PropOp39
 70
     1
102
RTVSPost2010Prop40
 90
        0
102
RTVSPost2010PropOp40
 70
     1
102
RTVSPost2010Prop41ColorIndex
 90
       18
102
RTVSPost2010Prop41ColorRGB
 90
        0
102
RTVSPost2010PropOp41
 70
     1
102
RTVSPost2010Prop42
 90
       50
102
RTVSPost2010PropOp42
 70
     1
102
RTVSPost2010Prop43
 90
        3
102
RTVSPost2010PropOp43
 70
     1
102
RTVSPost2010Prop44ColorIndex
 90
        5
102
RTVSPost2010Prop44ColorRGB
 90
      255
102
RTVSPost2010PropOp44
 70
     1
102
RTVSPost2010Prop45
280
     0
102
RTVSPost2010PropOp45
 70
     1
102
RTVSPost2010Prop46
 90
       50
102
RTVSPost2010PropOp46
 70
     1
102
RTVSPost2010Prop47
 90
       50
102
RTVSPost2010PropOp47
 70
     1
102
RTVSPost2010Prop48
 90
       50
102
RTVSPost2010PropOp48
 70
     1
102
RTVSPost2010Prop49
280
     0
102
RTVSPost2010PropOp49
 70
     1
102
RTVSPost2010Prop50
 90
       50
102
RTVSPost2010PropOp50
 70
     1
102
RTVSPost2010Prop51ColorIndex
 90
      256
102
RTVSPost2010Prop51ColorRGB
 90
-16777216
102
RTVSPost2010PropOp51
 70
     0
102
RTVSPost2010Prop52
140
1.0
102
RTVSPost2010PropOp52
 70
     0
102
RTVSPost2010Prop53
 90
        2
102
RTVSPost2010PropOp53
 70
     1
102
RTVSPost2010Prop54
  1
strokes_ogs.tif
102
RTVSPost2010PropOp54
 70
     1
102
RTVSPost2010Prop55
280
     0
102
RTVSPost2010PropOp55
 70
     1
102
RTVSPost2010Prop56
140
1.0
102
RTVSPost2010PropOp56
 70
     1
102
RTVSPost2010Prop57
140
1.0
102
RTVSPost2010PropOp57
 70
     1
  0
XRECORD
  5
609
102
{ACAD_REACTORS
330
608
102
}
330
608
100
AcDbXrecord
280
     1
102
RTVSPropertyOp0
 70
     1
102
RTVSPropertyOp1
 70
     1
102
RTVSPropertyOp2
 70
     1
102
RTVSPropertyOp3
 70
     1
102
RTVSPropertyOp4
 70
     1
102
RTVSPropertyOp5
 70
     1
102
RTVSPropertyOp6
 70
     1
102
RTVSPropertyOp7
 70
     1
102
RTVSPropertyOp8
 70
     1
102
RTVSPropertyOp9
 70
     1
102
RTVSPropertyOp10
 70
     1
102
RTVSPropertyOp11
 70
     1
102
RTVSPropertyOp12
 70
     1
102
RTVSPropertyOp13
 70
     1
102
RTVSPropertyOp14
 70
     1
102
RTVSPropertyOp15
 70
     1
102
RTVSPropertyOp16
 70
     1
102
RTVSPropertyOp17
 70
     1
102
RTVSPropertyOp18
 70
     1
102
RTVSPropertyOp19
 70
     1
102
RTVSPropertyOp20
 70
     1
102
RTVSPropertyOp21
 70
     1
102
RTVSPropertyOp22
 70
     1
102
RTVSPropertyOp23
 70
     1
102
RTVSPropertyOp24
 70
     1
102
RTVSPropertyOp25
 70
     1
102
RTVSPropertyOp26
 70
     1
102
RTVSPropertyOp27
 70
     1
102
RTVSPropertyOp28
 70
     1
102
RTVSPropertyOp29
 70
     1
102
RTVSPropertyOp30
 70
     1
102
RTVSPropertyOp31
 70
     1
102
RTVSPropertyOp32
 70
     1
102
RTVSPropertyOp33
 70
     1
102
RTVSPropertyOp34
 70
     1
102
RTVSPropertyOp35
 70
     1
102
RTVSPropertyOp36
 70
     1
102
RTVSPropertyOp37
 70
     1
102
RTVSPropertyOp38
 70
     1
102
RTVSPropertyOp39
 70
     1
102
RTVSPropertyOp40
 70
     1
102
RTVSPropertyOp41
 70
     1
102
RTVSPropertyOp42
 70
     1
102
RTVSPropertyOp43
 70
     1
102
RTVSPropertyOp44
 70
     1
102
RTVSPropertyOp45
 70
     1
102
RTVSPropertyOp46
 70
     1
102
RTVSPropertyOp47
 70
     1
102
RTVSPropertyOp48
 70
     1
102
RTVSPropertyOp49
 70
     1
102
RTVSPropertyOp50
 70
     1
102
RTVSPropertyOp51
 70
     0
102
RTVSPropertyOp52
 70
     0
102
RTVSPropertyOp53
 70
     1
102
RTVSPropertyOp54
 70
     1
102
RTVSPropertyOp55
 70
     1
102
RTVSPropertyOp56
 70
     1
102
RTVSPropertyOp57
 70
     1
102
RTVSPost2010Prop28
280
     0
102
RTVSPost2010PropOp28
 70
     1
102
RTVSPost2010Prop29
280
     1
102
RTVSPost2010PropOp29
 70
     1
102
RTVSPost2010Prop30
280
     1
102
RTVSPost2010PropOp30
 70
     1
102
RTVSPost2010Prop31
280
     0
102
RTVSPost2010PropOp31
 70
     1
102
RTVSPost2010Prop32
280
     0
102
RTVSPost2010PropOp32
 70
     1
102
RTVSPost2010Prop33
280
     0
102
RTVSPost2010PropOp33
 70
     1
102
RTVSPost2010Prop34
280
     0
102
RTVSPost2010PropOp34
 70
     1
102
RTVSPost2010Prop35
280
     0
102
RTVSPost2010PropOp35
 70
     1
102
RTVSPost2010Prop36
280
     0
102
RTVSPost2010PropOp36
 70
     1
102
RTVSPost2010Prop37
 90
       50
102
RTVSPost2010PropOp37
 70
     1
102
RTVSPost2010Prop38
140
0.0
102
RTVSPost2010PropOp38
 70
     1
102
RTVSPost2010Prop39
140
1.0
102
RTVSPost2010PropOp39
 70
     1
102
RTVSPost2010Prop40
 90
        0
102
RTVSPost2010PropOp40
 70
     1
102
RTVSPost2010Prop41ColorIndex
 90
       18
102
RTVSPost2010Prop41ColorRGB
 90
        0
102
RTVSPost2010PropOp41
 70
     1
102
RTVSPost2010Prop42
 90
       50
102
RTVSPost2010PropOp42
 70
     1
102
RTVSPost2010Prop43
 90
        3
102
RTVSPost2010PropOp43
 70
     1
102
RTVSPost2010Prop44ColorIndex
 90
        5
102
RTVSPost2010Prop44ColorRGB
 90
      255
102
RTVSPost2010PropOp44
 70
     1
102
RTVSPost2010Prop45
280
     0
102
RTVSPost2010PropOp45
 70
     1
102
RTVSPost2010Prop46
 90
       50
102
RTVSPost2010PropOp46
 70
     1
102
RTVSPost2010Prop47
 90
       50
102
RTVSPost2010PropOp47
 70
     1
102
RTVSPost2010Prop48
 90
       50
102
RTVSPost2010PropOp48
 70
     1
102
RTVSPost2010Prop49
280
     0
102
RTVSPost2010PropOp49
 70
     1
102
RTVSPost2010Prop50
 90
       50
102
RTVSPost2010PropOp50
 70
     1
102
RTVSPost2010Prop51ColorIndex
 90
      256
102
RTVSPost2010Prop51ColorRGB
 90
-16777216
102
RTVSPost2010PropOp51
 70
     0
102
RTVSPost2010Prop52
140
1.0
102
RTVSPost2010PropOp52
 70
     0
102
RTVSPost2010Prop53
 90
        2
102
RTVSPost2010PropOp53
 70
     1
102
RTVSPost2010Prop54
  1
strokes_ogs.tif
102
RTVSPost2010PropOp54
 70
     1
102
RTVSPost2010Prop55
280
     0
102
RTVSPost2010PropOp55
 70
     1
102
RTVSPost2010Prop56
140
1.0
102
RTVSPost2010PropOp56
 70
     1
102
RTVSPost2010Prop57
140
1.0
102
RTVSPost2010PropOp57
 70
     1
  0
XRECORD
  5
611
102
{ACAD_REACTORS
330
610
102
}
330
610
100
AcDbXrecord
280
     1
102
RTVSPropertyOp0
 70
     1
102
RTVSPropertyOp1
 70
     1
102
RTVSPropertyOp2
 70
     1
102
RTVSPropertyOp3
 70
     1
102
RTVSPropertyOp4
 70
     1
102
RTVSPropertyOp5
 70
     1
102
RTVSPropertyOp6
 70
     1
102
RTVSPropertyOp7
 70
     1
102
RTVSPropertyOp8
 70
     1
102
RTVSPropertyOp9
 70
     1
102
RTVSPropertyOp10
 70
     1
102
RTVSPropertyOp11
 70
     1
102
RTVSPropertyOp12
 70
     1
102
RTVSPropertyOp13
 70
     1
102
RTVSPropertyOp14
 70
     1
102
RTVSPropertyOp15
 70
     1
102
RTVSPropertyOp16
 70
     1
102
RTVSPropertyOp17
 70
     1
102
RTVSPropertyOp18
 70
     1
102
RTVSPropertyOp19
 70
     1
102
RTVSPropertyOp20
 70
     1
102
RTVSPropertyOp21
 70
     1
102
RTVSPropertyOp22
 70
     1
102
RTVSPropertyOp23
 70
     1
102
RTVSPropertyOp24
 70
     1
102
RTVSPropertyOp25
 70
     1
102
RTVSPropertyOp26
 70
     1
102
RTVSPropertyOp27
 70
     1
102
RTVSPropertyOp28
 70
     1
102
RTVSPropertyOp29
 70
     1
102
RTVSPropertyOp30
 70
     1
102
RTVSPropertyOp31
 70
     1
102
RTVSPropertyOp32
 70
     1
102
RTVSPropertyOp33
 70
     1
102
RTVSPropertyOp34
 70
     1
102
RTVSPropertyOp35
 70
     1
102
RTVSPropertyOp36
 70
     1
102
RTVSPropertyOp37
 70
     1
102
RTVSPropertyOp38
 70
     1
102
RTVSPropertyOp39
 70
     1
102
RTVSPropertyOp40
 70
     1
102
RTVSPropertyOp41
 70
     1
102
RTVSPropertyOp42
 70
     1
102
RTVSPropertyOp43
 70
     1
102
RTVSPropertyOp44
 70
     1
102
RTVSPropertyOp45
 70
     1
102
RTVSPropertyOp46
 70
     1
102
RTVSPropertyOp47
 70
     1
102
RTVSPropertyOp48
 70
     1
102
RTVSPropertyOp49
 70
     1
102
RTVSPropertyOp50
 70
     1
102
RTVSPropertyOp51
 70
     0
102
RTVSPropertyOp52
 70
     0
102
RTVSPropertyOp53
 70
     1
102
RTVSPropertyOp54
 70
     1
102
RTVSPropertyOp55
 70
     1
102
RTVSPropertyOp56
 70
     1
102
RTVSPropertyOp57
 70
     1
102
RTVSPost2010Prop28
280
     0
102
RTVSPost2010PropOp28
 70
     1
102
RTVSPost2010Prop29
280
     1
102
RTVSPost2010PropOp29
 70
     1
102
RTVSPost2010Prop30
280
     1
102
RTVSPost2010PropOp30
 70
     1
102
RTVSPost2010Prop31
280
     0
102
RTVSPost2010PropOp31
 70
     1
102
RTVSPost2010Prop32
280
     0
102
RTVSPost2010PropOp32
 70
     1
102
RTVSPost2010Prop33
280
     0
102
RTVSPost2010PropOp33
 70
     1
102
RTVSPost2010Prop34
280
     0
102
RTVSPost2010PropOp34
 70
     1
102
RTVSPost2010Prop35
280
     0
102
RTVSPost2010PropOp35
 70
     1
102
RTVSPost2010Prop36
280
     0
102
RTVSPost2010PropOp36
 70
     1
102
RTVSPost2010Prop37
 90
       50
102
RTVSPost2010PropOp37
 70
     1
102
RTVSPost2010Prop38
140
0.0
102
RTVSPost2010PropOp38
 70
     1
102
RTVSPost2010Prop39
140
1.0
102
RTVSPost2010PropOp39
 70
     1
102
RTVSPost2010Prop40
 90
        0
102
RTVSPost2010PropOp40
 70
     1
102
RTVSPost2010Prop41ColorIndex
 90
       18
102
RTVSPost2010Prop41ColorRGB
 90
        0
102
RTVSPost2010PropOp41
 70
     1
102
RTVSPost2010Prop42
 90
       50
102
RTVSPost2010PropOp42
 70
     1
102
RTVSPost2010Prop43
 90
        3
102
RTVSPost2010PropOp43
 70
     1
102
RTVSPost2010Prop44ColorIndex
 90
        5
102
RTVSPost2010Prop44ColorRGB
 90
      255
102
RTVSPost2010PropOp44
 70
     1
102
RTVSPost2010Prop45
280
     0
102
RTVSPost2010PropOp45
 70
     1
102
RTVSPost2010Prop46
 90
       50
102
RTVSPost2010PropOp46
 70
     1
102
RTVSPost2010Prop47
 90
       50
102
RTVSPost2010PropOp47
 70
     1
102
RTVSPost2010Prop48
 90
       50
102
RTVSPost2010PropOp48
 70
     1
102
RTVSPost2010Prop49
280
     0
102
RTVSPost2010PropOp49
 70
     1
102
RTVSPost2010Prop50
 90
       50
102
RTVSPost2010PropOp50
 70
     1
102
RTVSPost2010Prop51ColorIndex
 90
      256
102
RTVSPost2010Prop51ColorRGB
 90
-16777216
102
RTVSPost2010PropOp51
 70
     0
102
RTVSPost2010Prop52
140
1.0
102
RTVSPost2010PropOp52
 70
     0
102
RTVSPost2010Prop53
 90
        2
102
RTVSPost2010PropOp53
 70
     1
102
RTVSPost2010Prop54
  1
strokes_ogs.tif
102
RTVSPost2010PropOp54
 70
     1
102
RTVSPost2010Prop55
280
     0
102
RTVSPost2010PropOp55
 70
     1
102
RTVSPost2010Prop56
140
1.0
102
RTVSPost2010PropOp56
 70
     1
102
RTVSPost2010Prop57
140
1.0
102
RTVSPost2010PropOp57
 70
     1
  0
XRECORD
  5
605
102
{ACAD_REACTORS
330
604
102
}
330
604
100
AcDbXrecord
280
     1
102
RTVSPropertyOp0
 70
     1
102
RTVSPropertyOp1
 70
     1
102
RTVSPropertyOp2
 70
     1
102
RTVSPropertyOp3
 70
     1
102
RTVSPropertyOp4
 70
     1
102
RTVSPropertyOp5
 70
     1
102
RTVSPropertyOp6
 70
     1
102
RTVSPropertyOp7
 70
     1
102
RTVSPropertyOp8
 70
     1
102
RTVSPropertyOp9
 70
     1
102
RTVSPropertyOp10
 70
     1
102
RTVSPropertyOp11
 70
     1
102
RTVSPropertyOp12
 70
     1
102
RTVSPropertyOp13
 70
     1
102
RTVSPropertyOp14
 70
     1
102
RTVSPropertyOp15
 70
     1
102
RTVSPropertyOp16
 70
     1
102
RTVSPropertyOp17
 70
     1
102
RTVSPropertyOp18
 70
     1
102
RTVSPropertyOp19
 70
     1
102
RTVSPropertyOp20
 70
     1
102
RTVSPropertyOp21
 70
     1
102
RTVSPropertyOp22
 70
     1
102
RTVSPropertyOp23
 70
     1
102
RTVSPropertyOp24
 70
     1
102
RTVSPropertyOp25
 70
     1
102
RTVSPropertyOp26
 70
     1
102
RTVSPropertyOp27
 70
     1
102
RTVSPropertyOp28
 70
     1
102
RTVSPropertyOp29
 70
     1
102
RTVSPropertyOp30
 70
     1
102
RTVSPropertyOp31
 70
     1
102
RTVSPropertyOp32
 70
     1
102
RTVSPropertyOp33
 70
     1
102
RTVSPropertyOp34
 70
     1
102
RTVSPropertyOp35
 70
     1
102
RTVSPropertyOp36
 70
     1
102
RTVSPropertyOp37
 70
     1
102
RTVSPropertyOp38
 70
     1
102
RTVSPropertyOp39
 70
     1
102
RTVSPropertyOp40
 70
     1
102
RTVSPropertyOp41
 70
     1
102
RTVSPropertyOp42
 70
     1
102
RTVSPropertyOp43
 70
     1
102
RTVSPropertyOp44
 70
     1
102
RTVSPropertyOp45
 70
     1
102
RTVSPropertyOp46
 70
     1
102
RTVSPropertyOp47
 70
     1
102
RTVSPropertyOp48
 70
     1
102
RTVSPropertyOp49
 70
     1
102
RTVSPropertyOp50
 70
     1
102
RTVSPropertyOp51
 70
     0
102
RTVSPropertyOp52
 70
     0
102
RTVSPropertyOp53
 70
     1
102
RTVSPropertyOp54
 70
     1
102
RTVSPropertyOp55
 70
     1
102
RTVSPropertyOp56
 70
     1
102
RTVSPropertyOp57
 70
     1
102
RTVSPost2010Prop28
280
     0
102
RTVSPost2010PropOp28
 70
     1
102
RTVSPost2010Prop29
280
     1
102
RTVSPost2010PropOp29
 70
     1
102
RTVSPost2010Prop30
280
     1
102
RTVSPost2010PropOp30
 70
     1
102
RTVSPost2010Prop31
280
     0
102
RTVSPost2010PropOp31
 70
     1
102
RTVSPost2010Prop32
280
     0
102
RTVSPost2010PropOp32
 70
     1
102
RTVSPost2010Prop33
280
     0
102
RTVSPost2010PropOp33
 70
     1
102
RTVSPost2010Prop34
280
     0
102
RTVSPost2010PropOp34
 70
     1
102
RTVSPost2010Prop35
280
     0
102
RTVSPost2010PropOp35
 70
     1
102
RTVSPost2010Prop36
280
     0
102
RTVSPost2010PropOp36
 70
     1
102
RTVSPost2010Prop37
 90
       50
102
RTVSPost2010PropOp37
 70
     1
102
RTVSPost2010Prop38
140
0.0
102
RTVSPost2010PropOp38
 70
     1
102
RTVSPost2010Prop39
140
1.0
102
RTVSPost2010PropOp39
 70
     1
102
RTVSPost2010Prop40
 90
        0
102
RTVSPost2010PropOp40
 70
     1
102
RTVSPost2010Prop41ColorIndex
 90
       18
102
RTVSPost2010Prop41ColorRGB
 90
        0
102
RTVSPost2010PropOp41
 70
     1
102
RTVSPost2010Prop42
 90
       50
102
RTVSPost2010PropOp42
 70
     1
102
RTVSPost2010Prop43
 90
        3
102
RTVSPost2010PropOp43
 70
     1
102
RTVSPost2010Prop44ColorIndex
 90
        5
102
RTVSPost2010Prop44ColorRGB
 90
      255
102
RTVSPost2010PropOp44
 70
     1
102
RTVSPost2010Prop45
280
     0
102
RTVSPost2010PropOp45
 70
     1
102
RTVSPost2010Prop46
 90
       50
102
RTVSPost2010PropOp46
 70
     1
102
RTVSPost2010Prop47
 90
       50
102
RTVSPost2010PropOp47
 70
     1
102
RTVSPost2010Prop48
 90
       50
102
RTVSPost2010PropOp48
 70
     1
102
RTVSPost2010Prop49
280
     0
102
RTVSPost2010PropOp49
 70
     1
102
RTVSPost2010Prop50
 90
       50
102
RTVSPost2010PropOp50
 70
     1
102
RTVSPost2010Prop51ColorIndex
 90
      256
102
RTVSPost2010Prop51ColorRGB
 90
-16777216
102
RTVSPost2010PropOp51
 70
     0
102
RTVSPost2010Prop52
140
1.0
102
RTVSPost2010PropOp52
 70
     0
102
RTVSPost2010Prop53
 90
        2
102
RTVSPost2010PropOp53
 70
     1
102
RTVSPost2010Prop54
  1
strokes_ogs.tif
102
RTVSPost2010PropOp54
 70
     1
102
RTVSPost2010Prop55
280
     0
102
RTVSPost2010PropOp55
 70
     1
102
RTVSPost2010Prop56
140
1.0
102
RTVSPost2010PropOp56
 70
     1
102
RTVSPost2010Prop57
140
1.0
102
RTVSPost2010PropOp57
 70
     1
  0
XRECORD
  5
607
102
{ACAD_REACTORS
330
606
102
}
330
606
100
AcDbXrecord
280
     1
102
RTVSPropertyOp0
 70
     1
102
RTVSPropertyOp1
 70
     1
102
RTVSPropertyOp2
 70
     1
102
RTVSPropertyOp3
 70
     1
102
RTVSPropertyOp4
 70
     1
102
RTVSPropertyOp5
 70
     1
102
RTVSPropertyOp6
 70
     1
102
RTVSPropertyOp7
 70
     1
102
RTVSPropertyOp8
 70
     1
102
RTVSPropertyOp9
 70
     1
102
RTVSPropertyOp10
 70
     1
102
RTVSPropertyOp11
 70
     1
102
RTVSPropertyOp12
 70
     1
102
RTVSPropertyOp13
 70
     1
102
RTVSPropertyOp14
 70
     1
102
RTVSPropertyOp15
 70
     1
102
RTVSPropertyOp16
 70
     1
102
RTVSPropertyOp17
 70
     1
102
RTVSPropertyOp18
 70
     1
102
RTVSPropertyOp19
 70
     1
102
RTVSPropertyOp20
 70
     1
102
RTVSPropertyOp21
 70
     1
102
RTVSPropertyOp22
 70
     1
102
RTVSPropertyOp23
 70
     1
102
RTVSPropertyOp24
 70
     1
102
RTVSPropertyOp25
 70
     1
102
RTVSPropertyOp26
 70
     1
102
RTVSPropertyOp27
 70
     1
102
RTVSPropertyOp28
 70
     1
102
RTVSPropertyOp29
 70
     1
102
RTVSPropertyOp30
 70
     1
102
RTVSPropertyOp31
 70
     1
102
RTVSPropertyOp32
 70
     1
102
RTVSPropertyOp33
 70
     1
102
RTVSPropertyOp34
 70
     1
102
RTVSPropertyOp35
 70
     1
102
RTVSPropertyOp36
 70
     1
102
RTVSPropertyOp37
 70
     1
102
RTVSPropertyOp38
 70
     1
102
RTVSPropertyOp39
 70
     1
102
RTVSPropertyOp40
 70
     1
102
RTVSPropertyOp41
 70
     1
102
RTVSPropertyOp42
 70
     1
102
RTVSPropertyOp43
 70
     1
102
RTVSPropertyOp44
 70
     1
102
RTVSPropertyOp45
 70
     1
102
RTVSPropertyOp46
 70
     1
102
RTVSPropertyOp47
 70
     1
102
RTVSPropertyOp48
 70
     1
102
RTVSPropertyOp49
 70
     1
102
RTVSPropertyOp50
 70
     1
102
RTVSPropertyOp51
 70
     0
102
RTVSPropertyOp52
 70
     0
102
RTVSPropertyOp53
 70
     1
102
RTVSPropertyOp54
 70
     1
102
RTVSPropertyOp55
 70
     1
102
RTVSPropertyOp56
 70
     1
102
RTVSPropertyOp57
 70
     1
102
RTVSPost2010Prop28
280
     0
102
RTVSPost2010PropOp28
 70
     1
102
RTVSPost2010Prop29
280
     1
102
RTVSPost2010PropOp29
 70
     1
102
RTVSPost2010Prop30
280
     1
102
RTVSPost2010PropOp30
 70
     1
102
RTVSPost2010Prop31
280
     0
102
RTVSPost2010PropOp31
 70
     1
102
RTVSPost2010Prop32
280
     0
102
RTVSPost2010PropOp32
 70
     1
102
RTVSPost2010Prop33
280
     0
102
RTVSPost2010PropOp33
 70
     1
102
RTVSPost2010Prop34
280
     0
102
RTVSPost2010PropOp34
 70
     1
102
RTVSPost2010Prop35
280
     0
102
RTVSPost2010PropOp35
 70
     1
102
RTVSPost2010Prop36
280
     0
102
RTVSPost2010PropOp36
 70
     1
102
RTVSPost2010Prop37
 90
       50
102
RTVSPost2010PropOp37
 70
     1
102
RTVSPost2010Prop38
140
0.0
102
RTVSPost2010PropOp38
 70
     1
102
RTVSPost2010Prop39
140
1.0
102
RTVSPost2010PropOp39
 70
     1
102
RTVSPost2010Prop40
 90
        0
102
RTVSPost2010PropOp40
 70
     1
102
RTVSPost2010Prop41ColorIndex
 90
       18
102
RTVSPost2010Prop41ColorRGB
 90
        0
102
RTVSPost2010PropOp41
 70
     1
102
RTVSPost2010Prop42
 90
       50
102
RTVSPost2010PropOp42
 70
     1
102
RTVSPost2010Prop43
 90
        3
102
RTVSPost2010PropOp43
 70
     1
102
RTVSPost2010Prop44ColorIndex
 90
        5
102
RTVSPost2010Prop44ColorRGB
 90
      255
102
RTVSPost2010PropOp44
 70
     1
102
RTVSPost2010Prop45
280
     0
102
RTVSPost2010PropOp45
 70
     1
102
RTVSPost2010Prop46
 90
       50
102
RTVSPost2010PropOp46
 70
     1
102
RTVSPost2010Prop47
 90
       50
102
RTVSPost2010PropOp47
 70
     1
102
RTVSPost2010Prop48
 90
       50
102
RTVSPost2010PropOp48
 70
     1
102
RTVSPost2010Prop49
280
     0
102
RTVSPost2010PropOp49
 70
     1
102
RTVSPost2010Prop50
 90
       50
102
RTVSPost2010PropOp50
 70
     1
102
RTVSPost2010Prop51ColorIndex
 90
      256
102
RTVSPost2010Prop51ColorRGB
 90
-16777216
102
RTVSPost2010PropOp51
 70
     0
102
RTVSPost2010Prop52
140
1.0
102
RTVSPost2010PropOp52
 70
     0
102
RTVSPost2010Prop53
 90
        2
102
RTVSPost2010PropOp53
 70
     1
102
RTVSPost2010Prop54
  1
strokes_ogs.tif
102
RTVSPost2010PropOp54
 70
     1
102
RTVSPost2010Prop55
280
     0
102
RTVSPost2010PropOp55
 70
     1
102
RTVSPost2010Prop56
140
1.0
102
RTVSPost2010PropOp56
 70
     1
102
RTVSPost2010Prop57
140
1.0
102
RTVSPost2010PropOp57
 70
     1
  0
XRECORD
  5
617
102
{ACAD_REACTORS
330
616
102
}
330
616
100
AcDbXrecord
280
     1
102
RTVSPropertyOp0
 70
     0
102
RTVSPropertyOp1
 70
     0
102
RTVSPropertyOp2
 70
     0
102
RTVSPropertyOp3
 70
     0
102
RTVSPropertyOp4
 70
     0
102
RTVSPropertyOp5
 70
     0
102
RTVSPropertyOp6
 70
     0
102
RTVSPropertyOp7
 70
     0
102
RTVSPropertyOp8
 70
     0
102
RTVSPropertyOp9
 70
     0
102
RTVSPropertyOp10
 70
     0
102
RTVSPropertyOp11
 70
     0
102
RTVSPropertyOp12
 70
     0
102
RTVSPropertyOp13
 70
     0
102
RTVSPropertyOp14
 70
     2
102
RTVSPropertyOp15
 70
     0
102
RTVSPropertyOp16
 70
     0
102
RTVSPropertyOp17
 70
     0
102
RTVSPropertyOp18
 70
     0
102
RTVSPropertyOp19
 70
     0
102
RTVSPropertyOp20
 70
     0
102
RTVSPropertyOp21
 70
     0
102
RTVSPropertyOp22
 70
     0
102
RTVSPropertyOp23
 70
     0
102
RTVSPropertyOp24
 70
     0
102
RTVSPropertyOp25
 70
     0
102
RTVSPropertyOp26
 70
     0
102
RTVSPropertyOp27
 70
     0
102
RTVSPropertyOp28
 70
     0
102
RTVSPropertyOp29
 70
     0
102
RTVSPropertyOp30
 70
     0
102
RTVSPropertyOp31
 70
     0
102
RTVSPropertyOp32
 70
     0
102
RTVSPropertyOp33
 70
     0
102
RTVSPropertyOp34
 70
     0
102
RTVSPropertyOp35
 70
     0
102
RTVSPropertyOp36
 70
     0
102
RTVSPropertyOp37
 70
     0
102
RTVSPropertyOp38
 70
     0
102
RTVSPropertyOp39
 70
     0
102
RTVSPropertyOp40
 70
     0
102
RTVSPropertyOp41
 70
     0
102
RTVSPropertyOp42
 70
     0
102
RTVSPropertyOp43
 70
     0
102
RTVSPropertyOp44
 70
     0
102
RTVSPropertyOp45
 70
     0
102
RTVSPropertyOp46
 70
     0
102
RTVSPropertyOp47
 70
     0
102
RTVSPropertyOp48
 70
     0
102
RTVSPropertyOp49
 70
     0
102
RTVSPropertyOp50
 70
     0
102
RTVSPropertyOp51
 70
     0
102
RTVSPropertyOp52
 70
     0
102
RTVSPropertyOp53
 70
     0
102
RTVSPropertyOp54
 70
     0
102
RTVSPropertyOp55
 70
     0
102
RTVSPropertyOp56
 70
     0
102
RTVSPropertyOp57
 70
     0
102
RTVSPost2010Prop28
280
     0
102
RTVSPost2010PropOp28
 70
     0
102
RTVSPost2010Prop29
280
     1
102
RTVSPost2010PropOp29
 70
     0
102
RTVSPost2010Prop30
280
     1
102
RTVSPost2010PropOp30
 70
     0
102
RTVSPost2010Prop31
280
     0
102
RTVSPost2010PropOp31
 70
     0
102
RTVSPost2010Prop32
280
     0
102
RTVSPost2010PropOp32
 70
     0
102
RTVSPost2010Prop33
280
     0
102
RTVSPost2010PropOp33
 70
     0
102
RTVSPost2010Prop34
280
     0
102
RTVSPost2010PropOp34
 70
     0
102
RTVSPost2010Prop35
280
     0
102
RTVSPost2010PropOp35
 70
     0
102
RTVSPost2010Prop36
280
     0
102
RTVSPost2010PropOp36
 70
     0
102
RTVSPost2010Prop37
 90
       50
102
RTVSPost2010PropOp37
 70
     0
102
RTVSPost2010Prop38
140
0.0
102
RTVSPost2010PropOp38
 70
     0
102
RTVSPost2010Prop39
140
1.0
102
RTVSPost2010PropOp39
 70
     0
102
RTVSPost2010Prop40
 90
        0
102
RTVSPost2010PropOp40
 70
     0
102
RTVSPost2010Prop41ColorIndex
 90
       18
102
RTVSPost2010Prop41ColorRGB
 90
        0
102
RTVSPost2010PropOp41
 70
     0
102
RTVSPost2010Prop42
 90
       50
102
RTVSPost2010PropOp42
 70
     0
102
RTVSPost2010Prop43
 90
        3
102
RTVSPost2010PropOp43
 70
     0
102
RTVSPost2010Prop44ColorIndex
 90
        5
102
RTVSPost2010Prop44ColorRGB
 90
      255
102
RTVSPost2010PropOp44
 70
     0
102
RTVSPost2010Prop45
280
     0
102
RTVSPost2010PropOp45
 70
     0
102
RTVSPost2010Prop46
 90
       50
102
RTVSPost2010PropOp46
 70
     0
102
RTVSPost2010Prop47
 90
       50
102
RTVSPost2010PropOp47
 70
     0
102
RTVSPost2010Prop48
 90
       50
102
RTVSPost2010PropOp48
 70
     0
102
RTVSPost2010Prop49
280
     0
102
RTVSPost2010PropOp49
 70
     0
102
RTVSPost2010Prop50
 90
       50
102
RTVSPost2010PropOp50
 70
     0
102
RTVSPost2010Prop51ColorIndex
 90
      256
102
RTVSPost2010Prop51ColorRGB
 90
-16777216
102
RTVSPost2010PropOp51
 70
     0
102
RTVSPost2010Prop52
140
1.0
102
RTVSPost2010PropOp52
 70
     0
102
RTVSPost2010Prop53
 90
        2
102
RTVSPost2010PropOp53
 70
     0
102
RTVSPost2010Prop54
  1
strokes_ogs.tif
102
RTVSPost2010PropOp54
 70
     0
102
RTVSPost2010Prop55
280
     0
102
RTVSPost2010PropOp55
 70
     0
102
RTVSPost2010Prop56
140
1.0
102
RTVSPost2010PropOp56
 70
     0
102
RTVSPost2010Prop57
140
1.0
102
RTVSPost2010PropOp57
 70
     0
  0
XRECORD
  5
60F
102
{ACAD_REACTORS
330
60E
102
}
330
60E
100
AcDbXrecord
280
     1
102
RTVSPropertyOp0
 70
     1
102
RTVSPropertyOp1
 70
     1
102
RTVSPropertyOp2
 70
     1
102
RTVSPropertyOp3
 70
     1
102
RTVSPropertyOp4
 70
     1
102
RTVSPropertyOp5
 70
     1
102
RTVSPropertyOp6
 70
     1
102
RTVSPropertyOp7
 70
     1
102
RTVSPropertyOp8
 70
     1
102
RTVSPropertyOp9
 70
     1
102
RTVSPropertyOp10
 70
     1
102
RTVSPropertyOp11
 70
     1
102
RTVSPropertyOp12
 70
     1
102
RTVSPropertyOp13
 70
     1
102
RTVSPropertyOp14
 70
     1
102
RTVSPropertyOp15
 70
     1
102
RTVSPropertyOp16
 70
     1
102
RTVSPropertyOp17
 70
     1
102
RTVSPropertyOp18
 70
     1
102
RTVSPropertyOp19
 70
     1
102
RTVSPropertyOp20
 70
     1
102
RTVSPropertyOp21
 70
     1
102
RTVSPropertyOp22
 70
     1
102
RTVSPropertyOp23
 70
     1
102
RTVSPropertyOp24
 70
     1
102
RTVSPropertyOp25
 70
     1
102
RTVSPropertyOp26
 70
     1
102
RTVSPropertyOp27
 70
     1
102
RTVSPropertyOp28
 70
     1
102
RTVSPropertyOp29
 70
     1
102
RTVSPropertyOp30
 70
     1
102
RTVSPropertyOp31
 70
     1
102
RTVSPropertyOp32
 70
     1
102
RTVSPropertyOp33
 70
     1
102
RTVSPropertyOp34
 70
     1
102
RTVSPropertyOp35
 70
     1
102
RTVSPropertyOp36
 70
     1
102
RTVSPropertyOp37
 70
     1
102
RTVSPropertyOp38
 70
     1
102
RTVSPropertyOp39
 70
     1
102
RTVSPropertyOp40
 70
     1
102
RTVSPropertyOp41
 70
     1
102
RTVSPropertyOp42
 70
     1
102
RTVSPropertyOp43
 70
     1
102
RTVSPropertyOp44
 70
     1
102
RTVSPropertyOp45
 70
     1
102
RTVSPropertyOp46
 70
     1
102
RTVSPropertyOp47
 70
     1
102
RTVSPropertyOp48
 70
     1
102
RTVSPropertyOp49
 70
     1
102
RTVSPropertyOp50
 70
     1
102
RTVSPropertyOp51
 70
     0
102
RTVSPropertyOp52
 70
     0
102
RTVSPropertyOp53
 70
     1
102
RTVSPropertyOp54
 70
     1
102
RTVSPropertyOp55
 70
     1
102
RTVSPropertyOp56
 70
     1
102
RTVSPropertyOp57
 70
     1
102
RTVSPost2010Prop28
280
     0
102
RTVSPost2010PropOp28
 70
     1
102
RTVSPost2010Prop29
280
     1
102
RTVSPost2010PropOp29
 70
     1
102
RTVSPost2010Prop30
280
     1
102
RTVSPost2010PropOp30
 70
     1
102
RTVSPost2010Prop31
280
     0
102
RTVSPost2010PropOp31
 70
     1
102
RTVSPost2010Prop32
280
     0
102
RTVSPost2010PropOp32
 70
     1
102
RTVSPost2010Prop33
280
     0
102
RTVSPost2010PropOp33
 70
     1
102
RTVSPost2010Prop34
280
     0
102
RTVSPost2010PropOp34
 70
     1
102
RTVSPost2010Prop35
280
     0
102
RTVSPost2010PropOp35
 70
     1
102
RTVSPost2010Prop36
280
     0
102
RTVSPost2010PropOp36
 70
     1
102
RTVSPost2010Prop37
 90
       50
102
RTVSPost2010PropOp37
 70
     1
102
RTVSPost2010Prop38
140
0.0
102
RTVSPost2010PropOp38
 70
     1
102
RTVSPost2010Prop39
140
1.0
102
RTVSPost2010PropOp39
 70
     1
102
RTVSPost2010Prop40
 90
        0
102
RTVSPost2010PropOp40
 70
     1
102
RTVSPost2010Prop41ColorIndex
 90
       18
102
RTVSPost2010Prop41ColorRGB
 90
        0
102
RTVSPost2010PropOp41
 70
     1
102
RTVSPost2010Prop42
 90
       50
102
RTVSPost2010PropOp42
 70
     1
102
RTVSPost2010Prop43
 90
        3
102
RTVSPost2010PropOp43
 70
     1
102
RTVSPost2010Prop44ColorIndex
 90
        5
102
RTVSPost2010Prop44ColorRGB
 90
      255
102
RTVSPost2010PropOp44
 70
     1
102
RTVSPost2010Prop45
280
     0
102
RTVSPost2010PropOp45
 70
     1
102
RTVSPost2010Prop46
 90
       50
102
RTVSPost2010PropOp46
 70
     1
102
RTVSPost2010Prop47
 90
       50
102
RTVSPost2010PropOp47
 70
     1
102
RTVSPost2010Prop48
 90
       50
102
RTVSPost2010PropOp48
 70
     1
102
RTVSPost2010Prop49
280
     0
102
RTVSPost2010PropOp49
 70
     1
102
RTVSPost2010Prop50
 90
       50
102
RTVSPost2010PropOp50
 70
     1
102
RTVSPost2010Prop51ColorIndex
 90
      256
102
RTVSPost2010Prop51ColorRGB
 90
-16777216
102
RTVSPost2010PropOp51
 70
     0
102
RTVSPost2010Prop52
140
1.0
102
RTVSPost2010PropOp52
 70
     0
102
RTVSPost2010Prop53
 90
        2
102
RTVSPost2010PropOp53
 70
     1
102
RTVSPost2010Prop54
  1
strokes_ogs.tif
102
RTVSPost2010PropOp54
 70
     1
102
RTVSPost2010Prop55
280
     0
102
RTVSPost2010PropOp55
 70
     1
102
RTVSPost2010Prop56
140
1.0
102
RTVSPost2010PropOp56
 70
     1
102
RTVSPost2010Prop57
140
1.0
102
RTVSPost2010PropOp57
 70
     1
  0
XRECORD
  5
5F3
102
{ACAD_REACTORS
330
5F2
102
}
330
5F2
100
AcDbXrecord
280
     1
102
RTVSPropertyOp0
 70
     1
102
RTVSPropertyOp1
 70
     1
102
RTVSPropertyOp2
 70
     1
102
RTVSPropertyOp3
 70
     1
102
RTVSPropertyOp4
 70
     1
102
RTVSPropertyOp5
 70
     1
102
RTVSPropertyOp6
 70
     1
102
RTVSPropertyOp7
 70
     1
102
RTVSPropertyOp8
 70
     1
102
RTVSPropertyOp9
 70
     1
102
RTVSPropertyOp10
 70
     1
102
RTVSPropertyOp11
 70
     1
102
RTVSPropertyOp12
 70
     1
102
RTVSPropertyOp13
 70
     1
102
RTVSPropertyOp14
 70
     1
102
RTVSPropertyOp15
 70
     1
102
RTVSPropertyOp16
 70
     1
102
RTVSPropertyOp17
 70
     1
102
RTVSPropertyOp18
 70
     1
102
RTVSPropertyOp19
 70
     1
102
RTVSPropertyOp20
 70
     1
102
RTVSPropertyOp21
 70
     1
102
RTVSPropertyOp22
 70
     1
102
RTVSPropertyOp23
 70
     1
102
RTVSPropertyOp24
 70
     1
102
RTVSPropertyOp25
 70
     1
102
RTVSPropertyOp26
 70
     1
102
RTVSPropertyOp27
 70
     1
102
RTVSPropertyOp28
 70
     1
102
RTVSPropertyOp29
 70
     1
102
RTVSPropertyOp30
 70
     1
102
RTVSPropertyOp31
 70
     1
102
RTVSPropertyOp32
 70
     1
102
RTVSPropertyOp33
 70
     1
102
RTVSPropertyOp34
 70
     1
102
RTVSPropertyOp35
 70
     1
102
RTVSPropertyOp36
 70
     1
102
RTVSPropertyOp37
 70
     1
102
RTVSPropertyOp38
 70
     1
102
RTVSPropertyOp39
 70
     1
102
RTVSPropertyOp40
 70
     1
102
RTVSPropertyOp41
 70
     1
102
RTVSPropertyOp42
 70
     1
102
RTVSPropertyOp43
 70
     1
102
RTVSPropertyOp44
 70
     1
102
RTVSPropertyOp45
 70
     1
102
RTVSPropertyOp46
 70
     1
102
RTVSPropertyOp47
 70
     1
102
RTVSPropertyOp48
 70
     1
102
RTVSPropertyOp49
 70
     1
102
RTVSPropertyOp50
 70
     1
102
RTVSPropertyOp51
 70
     0
102
RTVSPropertyOp52
 70
     0
102
RTVSPropertyOp53
 70
     1
102
RTVSPropertyOp54
 70
     1
102
RTVSPropertyOp55
 70
     1
102
RTVSPropertyOp56
 70
     1
102
RTVSPropertyOp57
 70
     1
102
RTVSPost2010Prop28
280
     0
102
RTVSPost2010PropOp28
 70
     1
102
RTVSPost2010Prop29
280
     1
102
RTVSPost2010PropOp29
 70
     1
102
RTVSPost2010Prop30
280
     1
102
RTVSPost2010PropOp30
 70
     1
102
RTVSPost2010Prop31
280
     0
102
RTVSPost2010PropOp31
 70
     1
102
RTVSPost2010Prop32
280
     0
102
RTVSPost2010PropOp32
 70
     1
102
RTVSPost2010Prop33
280
     0
102
RTVSPost2010PropOp33
 70
     1
102
RTVSPost2010Prop34
280
     0
102
RTVSPost2010PropOp34
 70
     1
102
RTVSPost2010Prop35
280
     0
102
RTVSPost2010PropOp35
 70
     1
102
RTVSPost2010Prop36
280
     0
102
RTVSPost2010PropOp36
 70
     1
102
RTVSPost2010Prop37
 90
       50
102
RTVSPost2010PropOp37
 70
     1
102
RTVSPost2010Prop38
140
0.0
102
RTVSPost2010PropOp38
 70
     1
102
RTVSPost2010Prop39
140
1.0
102
RTVSPost2010PropOp39
 70
     1
102
RTVSPost2010Prop40
 90
        0
102
RTVSPost2010PropOp40
 70
     1
102
RTVSPost2010Prop41ColorIndex
 90
       18
102
RTVSPost2010Prop41ColorRGB
 90
        0
102
RTVSPost2010PropOp41
 70
     1
102
RTVSPost2010Prop42
 90
       50
102
RTVSPost2010PropOp42
 70
     1
102
RTVSPost2010Prop43
 90
        3
102
RTVSPost2010PropOp43
 70
     1
102
RTVSPost2010Prop44ColorIndex
 90
        5
102
RTVSPost2010Prop44ColorRGB
 90
      255
102
RTVSPost2010PropOp44
 70
     1
102
RTVSPost2010Prop45
280
     0
102
RTVSPost2010PropOp45
 70
     1
102
RTVSPost2010Prop46
 90
       50
102
RTVSPost2010PropOp46
 70
     1
102
RTVSPost2010Prop47
 90
       50
102
RTVSPost2010PropOp47
 70
     1
102
RTVSPost2010Prop48
 90
       50
102
RTVSPost2010PropOp48
 70
     1
102
RTVSPost2010Prop49
280
     0
102
RTVSPost2010PropOp49
 70
     1
102
RTVSPost2010Prop50
 90
       50
102
RTVSPost2010PropOp50
 70
     1
102
RTVSPost2010Prop51ColorIndex
 90
      256
102
RTVSPost2010Prop51ColorRGB
 90
-16777216
102
RTVSPost2010PropOp51
 70
     0
102
RTVSPost2010Prop52
140
1.0
102
RTVSPost2010PropOp52
 70
     0
102
RTVSPost2010Prop53
 90
        2
102
RTVSPost2010PropOp53
 70
     1
102
RTVSPost2010Prop54
  1
strokes_ogs.tif
102
RTVSPost2010PropOp54
 70
     1
102
RTVSPost2010Prop55
280
     0
102
RTVSPost2010PropOp55
 70
     1
102
RTVSPost2010Prop56
140
1.0
102
RTVSPost2010PropOp56
 70
     1
102
RTVSPost2010Prop57
140
1.0
102
RTVSPost2010PropOp57
 70
     1
  0
XRECORD
  5
5F5
102
{ACAD_REACTORS
330
5F4
102
}
330
5F4
100
AcDbXrecord
280
     1
102
RTVSPropertyOp0
 70
     1
102
RTVSPropertyOp1
 70
     1
102
RTVSPropertyOp2
 70
     1
102
RTVSPropertyOp3
 70
     1
102
RTVSPropertyOp4
 70
     1
102
RTVSPropertyOp5
 70
     1
102
RTVSPropertyOp6
 70
     1
102
RTVSPropertyOp7
 70
     1
102
RTVSPropertyOp8
 70
     1
102
RTVSPropertyOp9
 70
     1
102
RTVSPropertyOp10
 70
     1
102
RTVSPropertyOp11
 70
     1
102
RTVSPropertyOp12
 70
     1
102
RTVSPropertyOp13
 70
     1
102
RTVSPropertyOp14
 70
     1
102
RTVSPropertyOp15
 70
     1
102
RTVSPropertyOp16
 70
     1
102
RTVSPropertyOp17
 70
     1
102
RTVSPropertyOp18
 70
     1
102
RTVSPropertyOp19
 70
     1
102
RTVSPropertyOp20
 70
     1
102
RTVSPropertyOp21
 70
     1
102
RTVSPropertyOp22
 70
     1
102
RTVSPropertyOp23
 70
     1
102
RTVSPropertyOp24
 70
     1
102
RTVSPropertyOp25
 70
     1
102
RTVSPropertyOp26
 70
     1
102
RTVSPropertyOp27
 70
     1
102
RTVSPropertyOp28
 70
     1
102
RTVSPropertyOp29
 70
     1
102
RTVSPropertyOp30
 70
     1
102
RTVSPropertyOp31
 70
     1
102
RTVSPropertyOp32
 70
     1
102
RTVSPropertyOp33
 70
     1
102
RTVSPropertyOp34
 70
     1
102
RTVSPropertyOp35
 70
     1
102
RTVSPropertyOp36
 70
     1
102
RTVSPropertyOp37
 70
     1
102
RTVSPropertyOp38
 70
     1
102
RTVSPropertyOp39
 70
     1
102
RTVSPropertyOp40
 70
     1
102
RTVSPropertyOp41
 70
     1
102
RTVSPropertyOp42
 70
     1
102
RTVSPropertyOp43
 70
     1
102
RTVSPropertyOp44
 70
     1
102
RTVSPropertyOp45
 70
     1
102
RTVSPropertyOp46
 70
     1
102
RTVSPropertyOp47
 70
     1
102
RTVSPropertyOp48
 70
     1
102
RTVSPropertyOp49
 70
     1
102
RTVSPropertyOp50
 70
     1
102
RTVSPropertyOp51
 70
     0
102
RTVSPropertyOp52
 70
     0
102
RTVSPropertyOp53
 70
     1
102
RTVSPropertyOp54
 70
     1
102
RTVSPropertyOp55
 70
     1
102
RTVSPropertyOp56
 70
     1
102
RTVSPropertyOp57
 70
     1
102
RTVSPost2010Prop28
280
     0
102
RTVSPost2010PropOp28
 70
     1
102
RTVSPost2010Prop29
280
     1
102
RTVSPost2010PropOp29
 70
     1
102
RTVSPost2010Prop30
280
     1
102
RTVSPost2010PropOp30
 70
     1
102
RTVSPost2010Prop31
280
     0
102
RTVSPost2010PropOp31
 70
     1
102
RTVSPost2010Prop32
280
     0
102
RTVSPost2010PropOp32
 70
     1
102
RTVSPost2010Prop33
280
     0
102
RTVSPost2010PropOp33
 70
     1
102
RTVSPost2010Prop34
280
     0
102
RTVSPost2010PropOp34
 70
     1
102
RTVSPost2010Prop35
280
     0
102
RTVSPost2010PropOp35
 70
     1
102
RTVSPost2010Prop36
280
     0
102
RTVSPost2010PropOp36
 70
     1
102
RTVSPost2010Prop37
 90
       50
102
RTVSPost2010PropOp37
 70
     1
102
RTVSPost2010Prop38
140
0.0
102
RTVSPost2010PropOp38
 70
     1
102
RTVSPost2010Prop39
140
1.0
102
RTVSPost2010PropOp39
 70
     1
102
RTVSPost2010Prop40
 90
        0
102
RTVSPost2010PropOp40
 70
     1
102
RTVSPost2010Prop41ColorIndex
 90
       18
102
RTVSPost2010Prop41ColorRGB
 90
        0
102
RTVSPost2010PropOp41
 70
     1
102
RTVSPost2010Prop42
 90
       50
102
RTVSPost2010PropOp42
 70
     1
102
RTVSPost2010Prop43
 90
        3
102
RTVSPost2010PropOp43
 70
     1
102
RTVSPost2010Prop44ColorIndex
 90
        5
102
RTVSPost2010Prop44ColorRGB
 90
      255
102
RTVSPost2010PropOp44
 70
     1
102
RTVSPost2010Prop45
280
     0
102
RTVSPost2010PropOp45
 70
     1
102
RTVSPost2010Prop46
 90
       50
102
RTVSPost2010PropOp46
 70
     1
102
RTVSPost2010Prop47
 90
       50
102
RTVSPost2010PropOp47
 70
     1
102
RTVSPost2010Prop48
 90
       50
102
RTVSPost2010PropOp48
 70
     1
102
RTVSPost2010Prop49
280
     0
102
RTVSPost2010PropOp49
 70
     1
102
RTVSPost2010Prop50
 90
       50
102
RTVSPost2010PropOp50
 70
     1
102
RTVSPost2010Prop51ColorIndex
 90
      256
102
RTVSPost2010Prop51ColorRGB
 90
-16777216
102
RTVSPost2010PropOp51
 70
     0
102
RTVSPost2010Prop52
140
1.0
102
RTVSPost2010PropOp52
 70
     0
102
RTVSPost2010Prop53
 90
        2
102
RTVSPost2010PropOp53
 70
     1
102
RTVSPost2010Prop54
  1
strokes_ogs.tif
102
RTVSPost2010PropOp54
 70
     1
102
RTVSPost2010Prop55
280
     0
102
RTVSPost2010PropOp55
 70
     1
102
RTVSPost2010Prop56
140
1.0
102
RTVSPost2010PropOp56
 70
     1
102
RTVSPost2010Prop57
140
1.0
102
RTVSPost2010PropOp57
 70
     1
  0
XRECORD
  5
5F7
102
{ACAD_REACTORS
330
5F6
102
}
330
5F6
100
AcDbXrecord
280
     1
102
RTVSPropertyOp0
 70
     1
102
RTVSPropertyOp1
 70
     1
102
RTVSPropertyOp2
 70
     1
102
RTVSPropertyOp3
 70
     1
102
RTVSPropertyOp4
 70
     1
102
RTVSPropertyOp5
 70
     1
102
RTVSPropertyOp6
 70
     1
102
RTVSPropertyOp7
 70
     1
102
RTVSPropertyOp8
 70
     1
102
RTVSPropertyOp9
 70
     1
102
RTVSPropertyOp10
 70
     1
102
RTVSPropertyOp11
 70
     1
102
RTVSPropertyOp12
 70
     1
102
RTVSPropertyOp13
 70
     1
102
RTVSPropertyOp14
 70
     1
102
RTVSPropertyOp15
 70
     1
102
RTVSPropertyOp16
 70
     1
102
RTVSPropertyOp17
 70
     1
102
RTVSPropertyOp18
 70
     1
102
RTVSPropertyOp19
 70
     1
102
RTVSPropertyOp20
 70
     1
102
RTVSPropertyOp21
 70
     1
102
RTVSPropertyOp22
 70
     1
102
RTVSPropertyOp23
 70
     1
102
RTVSPropertyOp24
 70
     1
102
RTVSPropertyOp25
 70
     1
102
RTVSPropertyOp26
 70
     1
102
RTVSPropertyOp27
 70
     1
102
RTVSPropertyOp28
 70
     1
102
RTVSPropertyOp29
 70
     1
102
RTVSPropertyOp30
 70
     1
102
RTVSPropertyOp31
 70
     1
102
RTVSPropertyOp32
 70
     1
102
RTVSPropertyOp33
 70
     1
102
RTVSPropertyOp34
 70
     1
102
RTVSPropertyOp35
 70
     1
102
RTVSPropertyOp36
 70
     1
102
RTVSPropertyOp37
 70
     1
102
RTVSPropertyOp38
 70
     1
102
RTVSPropertyOp39
 70
     1
102
RTVSPropertyOp40
 70
     1
102
RTVSPropertyOp41
 70
     1
102
RTVSPropertyOp42
 70
     1
102
RTVSPropertyOp43
 70
     1
102
RTVSPropertyOp44
 70
     1
102
RTVSPropertyOp45
 70
     1
102
RTVSPropertyOp46
 70
     1
102
RTVSPropertyOp47
 70
     1
102
RTVSPropertyOp48
 70
     1
102
RTVSPropertyOp49
 70
     1
102
RTVSPropertyOp50
 70
     1
102
RTVSPropertyOp51
 70
     0
102
RTVSPropertyOp52
 70
     0
102
RTVSPropertyOp53
 70
     1
102
RTVSPropertyOp54
 70
     1
102
RTVSPropertyOp55
 70
     1
102
RTVSPropertyOp56
 70
     1
102
RTVSPropertyOp57
 70
     1
102
RTVSPost2010Prop28
280
     0
102
RTVSPost2010PropOp28
 70
     1
102
RTVSPost2010Prop29
280
     1
102
RTVSPost2010PropOp29
 70
     1
102
RTVSPost2010Prop30
280
     1
102
RTVSPost2010PropOp30
 70
     1
102
RTVSPost2010Prop31
280
     0
102
RTVSPost2010PropOp31
 70
     1
102
RTVSPost2010Prop32
280
     0
102
RTVSPost2010PropOp32
 70
     1
102
RTVSPost2010Prop33
280
     0
102
RTVSPost2010PropOp33
 70
     1
102
RTVSPost2010Prop34
280
     0
102
RTVSPost2010PropOp34
 70
     1
102
RTVSPost2010Prop35
280
     0
102
RTVSPost2010PropOp35
 70
     1
102
RTVSPost2010Prop36
280
     0
102
RTVSPost2010PropOp36
 70
     1
102
RTVSPost2010Prop37
 90
       50
102
RTVSPost2010PropOp37
 70
     1
102
RTVSPost2010Prop38
140
0.0
102
RTVSPost2010PropOp38
 70
     1
102
RTVSPost2010Prop39
140
1.0
102
RTVSPost2010PropOp39
 70
     1
102
RTVSPost2010Prop40
 90
        0
102
RTVSPost2010PropOp40
 70
     1
102
RTVSPost2010Prop41ColorIndex
 90
       18
102
RTVSPost2010Prop41ColorRGB
 90
        0
102
RTVSPost2010PropOp41
 70
     1
102
RTVSPost2010Prop42
 90
       50
102
RTVSPost2010PropOp42
 70
     1
102
RTVSPost2010Prop43
 90
        3
102
RTVSPost2010PropOp43
 70
     1
102
RTVSPost2010Prop44ColorIndex
 90
        5
102
RTVSPost2010Prop44ColorRGB
 90
      255
102
RTVSPost2010PropOp44
 70
     1
102
RTVSPost2010Prop45
280
     0
102
RTVSPost2010PropOp45
 70
     1
102
RTVSPost2010Prop46
 90
       50
102
RTVSPost2010PropOp46
 70
     1
102
RTVSPost2010Prop47
 90
       50
102
RTVSPost2010PropOp47
 70
     1
102
RTVSPost2010Prop48
 90
       50
102
RTVSPost2010PropOp48
 70
     1
102
RTVSPost2010Prop49
280
     0
102
RTVSPost2010PropOp49
 70
     1
102
RTVSPost2010Prop50
 90
       50
102
RTVSPost2010PropOp50
 70
     1
102
RTVSPost2010Prop51ColorIndex
 90
      256
102
RTVSPost2010Prop51ColorRGB
 90
-16777216
102
RTVSPost2010PropOp51
 70
     0
102
RTVSPost2010Prop52
140
1.0
102
RTVSPost2010PropOp52
 70
     0
102
RTVSPost2010Prop53
 90
        2
102
RTVSPost2010PropOp53
 70
     1
102
RTVSPost2010Prop54
  1
strokes_ogs.tif
102
RTVSPost2010PropOp54
 70
     1
102
RTVSPost2010Prop55
280
     0
102
RTVSPost2010PropOp55
 70
     1
102
RTVSPost2010Prop56
140
1.0
102
RTVSPost2010PropOp56
 70
     1
102
RTVSPost2010Prop57
140
1.0
102
RTVSPost2010PropOp57
 70
     1
  0
XRECORD
  5
5F9
102
{ACAD_REACTORS
330
5F8
102
}
330
5F8
100
AcDbXrecord
280
     1
102
RTVSPropertyOp0
 70
     1
102
RTVSPropertyOp1
 70
     1
102
RTVSPropertyOp2
 70
     1
102
RTVSPropertyOp3
 70
     1
102
RTVSPropertyOp4
 70
     1
102
RTVSPropertyOp5
 70
     1
102
RTVSPropertyOp6
 70
     1
102
RTVSPropertyOp7
 70
     1
102
RTVSPropertyOp8
 70
     1
102
RTVSPropertyOp9
 70
     1
102
RTVSPropertyOp10
 70
     1
102
RTVSPropertyOp11
 70
     1
102
RTVSPropertyOp12
 70
     1
102
RTVSPropertyOp13
 70
     1
102
RTVSPropertyOp14
 70
     1
102
RTVSPropertyOp15
 70
     1
102
RTVSPropertyOp16
 70
     1
102
RTVSPropertyOp17
 70
     1
102
RTVSPropertyOp18
 70
     1
102
RTVSPropertyOp19
 70
     1
102
RTVSPropertyOp20
 70
     1
102
RTVSPropertyOp21
 70
     1
102
RTVSPropertyOp22
 70
     1
102
RTVSPropertyOp23
 70
     1
102
RTVSPropertyOp24
 70
     1
102
RTVSPropertyOp25
 70
     1
102
RTVSPropertyOp26
 70
     1
102
RTVSPropertyOp27
 70
     1
102
RTVSPropertyOp28
 70
     1
102
RTVSPropertyOp29
 70
     1
102
RTVSPropertyOp30
 70
     1
102
RTVSPropertyOp31
 70
     1
102
RTVSPropertyOp32
 70
     1
102
RTVSPropertyOp33
 70
     1
102
RTVSPropertyOp34
 70
     1
102
RTVSPropertyOp35
 70
     1
102
RTVSPropertyOp36
 70
     1
102
RTVSPropertyOp37
 70
     1
102
RTVSPropertyOp38
 70
     1
102
RTVSPropertyOp39
 70
     1
102
RTVSPropertyOp40
 70
     1
102
RTVSPropertyOp41
 70
     1
102
RTVSPropertyOp42
 70
     1
102
RTVSPropertyOp43
 70
     1
102
RTVSPropertyOp44
 70
     1
102
RTVSPropertyOp45
 70
     1
102
RTVSPropertyOp46
 70
     1
102
RTVSPropertyOp47
 70
     1
102
RTVSPropertyOp48
 70
     1
102
RTVSPropertyOp49
 70
     1
102
RTVSPropertyOp50
 70
     1
102
RTVSPropertyOp51
 70
     0
102
RTVSPropertyOp52
 70
     0
102
RTVSPropertyOp53
 70
     1
102
RTVSPropertyOp54
 70
     1
102
RTVSPropertyOp55
 70
     1
102
RTVSPropertyOp56
 70
     1
102
RTVSPropertyOp57
 70
     1
102
RTVSPost2010Prop28
280
     0
102
RTVSPost2010PropOp28
 70
     1
102
RTVSPost2010Prop29
280
     1
102
RTVSPost2010PropOp29
 70
     1
102
RTVSPost2010Prop30
280
     1
102
RTVSPost2010PropOp30
 70
     1
102
RTVSPost2010Prop31
280
     0
102
RTVSPost2010PropOp31
 70
     1
102
RTVSPost2010Prop32
280
     0
102
RTVSPost2010PropOp32
 70
     1
102
RTVSPost2010Prop33
280
     0
102
RTVSPost2010PropOp33
 70
     1
102
RTVSPost2010Prop34
280
     0
102
RTVSPost2010PropOp34
 70
     1
102
RTVSPost2010Prop35
280
     0
102
RTVSPost2010PropOp35
 70
     1
102
RTVSPost2010Prop36
280
     0
102
RTVSPost2010PropOp36
 70
     1
102
RTVSPost2010Prop37
 90
       50
102
RTVSPost2010PropOp37
 70
     1
102
RTVSPost2010Prop38
140
0.0
102
RTVSPost2010PropOp38
 70
     1
102
RTVSPost2010Prop39
140
1.0
102
RTVSPost2010PropOp39
 70
     1
102
RTVSPost2010Prop40
 90
        0
102
RTVSPost2010PropOp40
 70
     1
102
RTVSPost2010Prop41ColorIndex
 90
       18
102
RTVSPost2010Prop41ColorRGB
 90
        0
102
RTVSPost2010PropOp41
 70
     1
102
RTVSPost2010Prop42
 90
       50
102
RTVSPost2010PropOp42
 70
     1
102
RTVSPost2010Prop43
 90
        3
102
RTVSPost2010PropOp43
 70
     1
102
RTVSPost2010Prop44ColorIndex
 90
        5
102
RTVSPost2010Prop44ColorRGB
 90
      255
102
RTVSPost2010PropOp44
 70
     1
102
RTVSPost2010Prop45
280
     0
102
RTVSPost2010PropOp45
 70
     1
102
RTVSPost2010Prop46
 90
       50
102
RTVSPost2010PropOp46
 70
     1
102
RTVSPost2010Prop47
 90
       50
102
RTVSPost2010PropOp47
 70
     1
102
RTVSPost2010Prop48
 90
       50
102
RTVSPost2010PropOp48
 70
     1
102
RTVSPost2010Prop49
280
     0
102
RTVSPost2010PropOp49
 70
     1
102
RTVSPost2010Prop50
 90
       50
102
RTVSPost2010PropOp50
 70
     1
102
RTVSPost2010Prop51ColorIndex
 90
      256
102
RTVSPost2010Prop51ColorRGB
 90
-16777216
102
RTVSPost2010PropOp51
 70
     0
102
RTVSPost2010Prop52
140
1.0
102
RTVSPost2010PropOp52
 70
     0
102
RTVSPost2010Prop53
 90
        2
102
RTVSPost2010PropOp53
 70
     1
102
RTVSPost2010Prop54
  1
strokes_ogs.tif
102
RTVSPost2010PropOp54
 70
     1
102
RTVSPost2010Prop55
280
     0
102
RTVSPost2010PropOp55
 70
     1
102
RTVSPost2010Prop56
140
1.0
102
RTVSPost2010PropOp56
 70
     1
102
RTVSPost2010Prop57
140
1.0
102
RTVSPost2010PropOp57
 70
     1
  0
XRECORD
  5
5FF
102
{ACAD_REACTORS
330
5FE
102
}
330
5FE
100
AcDbXrecord
280
     1
102
RTVSPropertyOp0
 70
     1
102
RTVSPropertyOp1
 70
     1
102
RTVSPropertyOp2
 70
     1
102
RTVSPropertyOp3
 70
     1
102
RTVSPropertyOp4
 70
     1
102
RTVSPropertyOp5
 70
     1
102
RTVSPropertyOp6
 70
     1
102
RTVSPropertyOp7
 70
     1
102
RTVSPropertyOp8
 70
     1
102
RTVSPropertyOp9
 70
     1
102
RTVSPropertyOp10
 70
     1
102
RTVSPropertyOp11
 70
     1
102
RTVSPropertyOp12
 70
     1
102
RTVSPropertyOp13
 70
     1
102
RTVSPropertyOp14
 70
     1
102
RTVSPropertyOp15
 70
     1
102
RTVSPropertyOp16
 70
     1
102
RTVSPropertyOp17
 70
     1
102
RTVSPropertyOp18
 70
     1
102
RTVSPropertyOp19
 70
     1
102
RTVSPropertyOp20
 70
     1
102
RTVSPropertyOp21
 70
     1
102
RTVSPropertyOp22
 70
     1
102
RTVSPropertyOp23
 70
     1
102
RTVSPropertyOp24
 70
     1
102
RTVSPropertyOp25
 70
     1
102
RTVSPropertyOp26
 70
     1
102
RTVSPropertyOp27
 70
     1
102
RTVSPropertyOp28
 70
     1
102
RTVSPropertyOp29
 70
     1
102
RTVSPropertyOp30
 70
     1
102
RTVSPropertyOp31
 70
     1
102
RTVSPropertyOp32
 70
     1
102
RTVSPropertyOp33
 70
     1
102
RTVSPropertyOp34
 70
     1
102
RTVSPropertyOp35
 70
     1
102
RTVSPropertyOp36
 70
     1
102
RTVSPropertyOp37
 70
     1
102
RTVSPropertyOp38
 70
     1
102
RTVSPropertyOp39
 70
     1
102
RTVSPropertyOp40
 70
     1
102
RTVSPropertyOp41
 70
     1
102
RTVSPropertyOp42
 70
     1
102
RTVSPropertyOp43
 70
     1
102
RTVSPropertyOp44
 70
     1
102
RTVSPropertyOp45
 70
     1
102
RTVSPropertyOp46
 70
     1
102
RTVSPropertyOp47
 70
     1
102
RTVSPropertyOp48
 70
     1
102
RTVSPropertyOp49
 70
     1
102
RTVSPropertyOp50
 70
     1
102
RTVSPropertyOp51
 70
     0
102
RTVSPropertyOp52
 70
     0
102
RTVSPropertyOp53
 70
     1
102
RTVSPropertyOp54
 70
     1
102
RTVSPropertyOp55
 70
     1
102
RTVSPropertyOp56
 70
     1
102
RTVSPropertyOp57
 70
     1
102
RTVSPost2010Prop28
280
     0
102
RTVSPost2010PropOp28
 70
     1
102
RTVSPost2010Prop29
280
     1
102
RTVSPost2010PropOp29
 70
     1
102
RTVSPost2010Prop30
280
     1
102
RTVSPost2010PropOp30
 70
     1
102
RTVSPost2010Prop31
280
     0
102
RTVSPost2010PropOp31
 70
     1
102
RTVSPost2010Prop32
280
     0
102
RTVSPost2010PropOp32
 70
     1
102
RTVSPost2010Prop33
280
     0
102
RTVSPost2010PropOp33
 70
     1
102
RTVSPost2010Prop34
280
     0
102
RTVSPost2010PropOp34
 70
     1
102
RTVSPost2010Prop35
280
     0
102
RTVSPost2010PropOp35
 70
     1
102
RTVSPost2010Prop36
280
     0
102
RTVSPost2010PropOp36
 70
     1
102
RTVSPost2010Prop37
 90
       50
102
RTVSPost2010PropOp37
 70
     1
102
RTVSPost2010Prop38
140
0.0
102
RTVSPost2010PropOp38
 70
     1
102
RTVSPost2010Prop39
140
1.0
102
RTVSPost2010PropOp39
 70
     1
102
RTVSPost2010Prop40
 90
        0
102
RTVSPost2010PropOp40
 70
     1
102
RTVSPost2010Prop41ColorIndex
 90
       18
102
RTVSPost2010Prop41ColorRGB
 90
        0
102
RTVSPost2010PropOp41
 70
     1
102
RTVSPost2010Prop42
 90
       50
102
RTVSPost2010PropOp42
 70
     1
102
RTVSPost2010Prop43
 90
        3
102
RTVSPost2010PropOp43
 70
     1
102
RTVSPost2010Prop44ColorIndex
 90
        5
102
RTVSPost2010Prop44ColorRGB
 90
      255
102
RTVSPost2010PropOp44
 70
     1
102
RTVSPost2010Prop45
280
     0
102
RTVSPost2010PropOp45
 70
     1
102
RTVSPost2010Prop46
 90
       50
102
RTVSPost2010PropOp46
 70
     1
102
RTVSPost2010Prop47
 90
       50
102
RTVSPost2010PropOp47
 70
     1
102
RTVSPost2010Prop48
 90
       50
102
RTVSPost2010PropOp48
 70
     1
102
RTVSPost2010Prop49
280
     0
102
RTVSPost2010PropOp49
 70
     1
102
RTVSPost2010Prop50
 90
       50
102
RTVSPost2010PropOp50
 70
     1
102
RTVSPost2010Prop51ColorIndex
 90
      256
102
RTVSPost2010Prop51ColorRGB
 90
-16777216
102
RTVSPost2010PropOp51
 70
     0
102
RTVSPost2010Prop52
140
1.0
102
RTVSPost2010PropOp52
 70
     0
102
RTVSPost2010Prop53
 90
        2
102
RTVSPost2010PropOp53
 70
     1
102
RTVSPost2010Prop54
  1
strokes_ogs.tif
102
RTVSPost2010PropOp54
 70
     1
102
RTVSPost2010Prop55
280
     0
102
RTVSPost2010PropOp55
 70
     1
102
RTVSPost2010Prop56
140
1.0
102
RTVSPost2010PropOp56
 70
     1
102
RTVSPost2010Prop57
140
1.0
102
RTVSPost2010PropOp57
 70
     1
  0
XRECORD
  5
613
102
{ACAD_REACTORS
330
612
102
}
330
612
100
AcDbXrecord
280
     1
102
RTVSPropertyOp0
 70
     0
102
RTVSPropertyOp1
 70
     0
102
RTVSPropertyOp2
 70
     0
102
RTVSPropertyOp3
 70
     0
102
RTVSPropertyOp4
 70
     0
102
RTVSPropertyOp5
 70
     0
102
RTVSPropertyOp6
 70
     0
102
RTVSPropertyOp7
 70
     0
102
RTVSPropertyOp8
 70
     0
102
RTVSPropertyOp9
 70
     0
102
RTVSPropertyOp10
 70
     0
102
RTVSPropertyOp11
 70
     0
102
RTVSPropertyOp12
 70
     0
102
RTVSPropertyOp13
 70
     0
102
RTVSPropertyOp14
 70
     2
102
RTVSPropertyOp15
 70
     0
102
RTVSPropertyOp16
 70
     0
102
RTVSPropertyOp17
 70
     0
102
RTVSPropertyOp18
 70
     0
102
RTVSPropertyOp19
 70
     0
102
RTVSPropertyOp20
 70
     0
102
RTVSPropertyOp21
 70
     0
102
RTVSPropertyOp22
 70
     0
102
RTVSPropertyOp23
 70
     0
102
RTVSPropertyOp24
 70
     0
102
RTVSPropertyOp25
 70
     0
102
RTVSPropertyOp26
 70
     0
102
RTVSPropertyOp27
 70
     0
102
RTVSPropertyOp28
 70
     0
102
RTVSPropertyOp29
 70
     0
102
RTVSPropertyOp30
 70
     0
102
RTVSPropertyOp31
 70
     0
102
RTVSPropertyOp32
 70
     0
102
RTVSPropertyOp33
 70
     0
102
RTVSPropertyOp34
 70
     0
102
RTVSPropertyOp35
 70
     0
102
RTVSPropertyOp36
 70
     0
102
RTVSPropertyOp37
 70
     0
102
RTVSPropertyOp38
 70
     0
102
RTVSPropertyOp39
 70
     0
102
RTVSPropertyOp40
 70
     0
102
RTVSPropertyOp41
 70
     0
102
RTVSPropertyOp42
 70
     0
102
RTVSPropertyOp43
 70
     0
102
RTVSPropertyOp44
 70
     0
102
RTVSPropertyOp45
 70
     0
102
RTVSPropertyOp46
 70
     0
102
RTVSPropertyOp47
 70
     0
102
RTVSPropertyOp48
 70
     0
102
RTVSPropertyOp49
 70
     0
102
RTVSPropertyOp50
 70
     0
102
RTVSPropertyOp51
 70
     0
102
RTVSPropertyOp52
 70
     0
102
RTVSPropertyOp53
 70
     0
102
RTVSPropertyOp54
 70
     0
102
RTVSPropertyOp55
 70
     0
102
RTVSPropertyOp56
 70
     0
102
RTVSPropertyOp57
 70
     0
102
RTVSPost2010Prop28
280
     0
102
RTVSPost2010PropOp28
 70
     0
102
RTVSPost2010Prop29
280
     1
102
RTVSPost2010PropOp29
 70
     0
102
RTVSPost2010Prop30
280
     1
102
RTVSPost2010PropOp30
 70
     0
102
RTVSPost2010Prop31
280
     0
102
RTVSPost2010PropOp31
 70
     0
102
RTVSPost2010Prop32
280
     0
102
RTVSPost2010PropOp32
 70
     0
102
RTVSPost2010Prop33
280
     0
102
RTVSPost2010PropOp33
 70
     0
102
RTVSPost2010Prop34
280
     0
102
RTVSPost2010PropOp34
 70
     0
102
RTVSPost2010Prop35
280
     0
102
RTVSPost2010PropOp35
 70
     0
102
RTVSPost2010Prop36
280
     0
102
RTVSPost2010PropOp36
 70
     0
102
RTVSPost2010Prop37
 90
       50
102
RTVSPost2010PropOp37
 70
     0
102
RTVSPost2010Prop38
140
0.0
102
RTVSPost2010PropOp38
 70
     0
102
RTVSPost2010Prop39
140
1.0
102
RTVSPost2010PropOp39
 70
     0
102
RTVSPost2010Prop40
 90
        0
102
RTVSPost2010PropOp40
 70
     0
102
RTVSPost2010Prop41ColorIndex
 90
       18
102
RTVSPost2010Prop41ColorRGB
 90
        0
102
RTVSPost2010PropOp41
 70
     0
102
RTVSPost2010Prop42
 90
       50
102
RTVSPost2010PropOp42
 70
     0
102
RTVSPost2010Prop43
 90
        3
102
RTVSPost2010PropOp43
 70
     0
102
RTVSPost2010Prop44ColorIndex
 90
        5
102
RTVSPost2010Prop44ColorRGB
 90
      255
102
RTVSPost2010PropOp44
 70
     0
102
RTVSPost2010Prop45
280
     0
102
RTVSPost2010PropOp45
 70
     0
102
RTVSPost2010Prop46
 90
       50
102
RTVSPost2010PropOp46
 70
     0
102
RTVSPost2010Prop47
 90
       50
102
RTVSPost2010PropOp47
 70
     0
102
RTVSPost2010Prop48
 90
       50
102
RTVSPost2010PropOp48
 70
     0
102
RTVSPost2010Prop49
280
     0
102
RTVSPost2010PropOp49
 70
     0
102
RTVSPost2010Prop50
 90
       50
102
RTVSPost2010PropOp50
 70
     0
102
RTVSPost2010Prop51ColorIndex
 90
      256
102
RTVSPost2010Prop51ColorRGB
 90
-16777216
102
RTVSPost2010PropOp51
 70
     0
102
RTVSPost2010Prop52
140
1.0
102
RTVSPost2010PropOp52
 70
     0
102
RTVSPost2010Prop53
 90
        2
102
RTVSPost2010PropOp53
 70
     0
102
RTVSPost2010Prop54
  1
strokes_ogs.tif
102
RTVSPost2010PropOp54
 70
     0
102
RTVSPost2010Prop55
280
     0
102
RTVSPost2010PropOp55
 70
     0
102
RTVSPost2010Prop56
140
1.0
102
RTVSPost2010PropOp56
 70
     0
102
RTVSPost2010Prop57
140
1.0
102
RTVSPost2010PropOp57
 70
     0
  0
XRECORD
  5
60D
102
{ACAD_REACTORS
330
60C
102
}
330
60C
100
AcDbXrecord
280
     1
102
RTVSPropertyOp0
 70
     1
102
RTVSPropertyOp1
 70
     1
102
RTVSPropertyOp2
 70
     1
102
RTVSPropertyOp3
 70
     1
102
RTVSPropertyOp4
 70
     1
102
RTVSPropertyOp5
 70
     1
102
RTVSPropertyOp6
 70
     1
102
RTVSPropertyOp7
 70
     1
102
RTVSPropertyOp8
 70
     1
102
RTVSPropertyOp9
 70
     1
102
RTVSPropertyOp10
 70
     1
102
RTVSPropertyOp11
 70
     1
102
RTVSPropertyOp12
 70
     1
102
RTVSPropertyOp13
 70
     1
102
RTVSPropertyOp14
 70
     1
102
RTVSPropertyOp15
 70
     1
102
RTVSPropertyOp16
 70
     1
102
RTVSPropertyOp17
 70
     1
102
RTVSPropertyOp18
 70
     1
102
RTVSPropertyOp19
 70
     1
102
RTVSPropertyOp20
 70
     1
102
RTVSPropertyOp21
 70
     1
102
RTVSPropertyOp22
 70
     1
102
RTVSPropertyOp23
 70
     1
102
RTVSPropertyOp24
 70
     1
102
RTVSPropertyOp25
 70
     1
102
RTVSPropertyOp26
 70
     1
102
RTVSPropertyOp27
 70
     1
102
RTVSPropertyOp28
 70
     1
102
RTVSPropertyOp29
 70
     1
102
RTVSPropertyOp30
 70
     1
102
RTVSPropertyOp31
 70
     1
102
RTVSPropertyOp32
 70
     1
102
RTVSPropertyOp33
 70
     1
102
RTVSPropertyOp34
 70
     1
102
RTVSPropertyOp35
 70
     1
102
RTVSPropertyOp36
 70
     1
102
RTVSPropertyOp37
 70
     1
102
RTVSPropertyOp38
 70
     1
102
RTVSPropertyOp39
 70
     1
102
RTVSPropertyOp40
 70
     1
102
RTVSPropertyOp41
 70
     1
102
RTVSPropertyOp42
 70
     1
102
RTVSPropertyOp43
 70
     1
102
RTVSPropertyOp44
 70
     1
102
RTVSPropertyOp45
 70
     1
102
RTVSPropertyOp46
 70
     1
102
RTVSPropertyOp47
 70
     1
102
RTVSPropertyOp48
 70
     1
102
RTVSPropertyOp49
 70
     1
102
RTVSPropertyOp50
 70
     1
102
RTVSPropertyOp51
 70
     0
102
RTVSPropertyOp52
 70
     0
102
RTVSPropertyOp53
 70
     1
102
RTVSPropertyOp54
 70
     1
102
RTVSPropertyOp55
 70
     1
102
RTVSPropertyOp56
 70
     1
102
RTVSPropertyOp57
 70
     1
102
RTVSPost2010Prop28
280
     0
102
RTVSPost2010PropOp28
 70
     1
102
RTVSPost2010Prop29
280
     1
102
RTVSPost2010PropOp29
 70
     1
102
RTVSPost2010Prop30
280
     1
102
RTVSPost2010PropOp30
 70
     1
102
RTVSPost2010Prop31
280
     0
102
RTVSPost2010PropOp31
 70
     1
102
RTVSPost2010Prop32
280
     0
102
RTVSPost2010PropOp32
 70
     1
102
RTVSPost2010Prop33
280
     0
102
RTVSPost2010PropOp33
 70
     1
102
RTVSPost2010Prop34
280
     0
102
RTVSPost2010PropOp34
 70
     1
102
RTVSPost2010Prop35
280
     0
102
RTVSPost2010PropOp35
 70
     1
102
RTVSPost2010Prop36
280
     0
102
RTVSPost2010PropOp36
 70
     1
102
RTVSPost2010Prop37
 90
       50
102
RTVSPost2010PropOp37
 70
     1
102
RTVSPost2010Prop38
140
0.0
102
RTVSPost2010PropOp38
 70
     1
102
RTVSPost2010Prop39
140
1.0
102
RTVSPost2010PropOp39
 70
     1
102
RTVSPost2010Prop40
 90
        0
102
RTVSPost2010PropOp40
 70
     1
102
RTVSPost2010Prop41ColorIndex
 90
       18
102
RTVSPost2010Prop41ColorRGB
 90
        0
102
RTVSPost2010PropOp41
 70
     1
102
RTVSPost2010Prop42
 90
       50
102
RTVSPost2010PropOp42
 70
     1
102
RTVSPost2010Prop43
 90
        3
102
RTVSPost2010PropOp43
 70
     1
102
RTVSPost2010Prop44ColorIndex
 90
        5
102
RTVSPost2010Prop44ColorRGB
 90
      255
102
RTVSPost2010PropOp44
 70
     1
102
RTVSPost2010Prop45
280
     0
102
RTVSPost2010PropOp45
 70
     1
102
RTVSPost2010Prop46
 90
       50
102
RTVSPost2010PropOp46
 70
     1
102
RTVSPost2010Prop47
 90
       50
102
RTVSPost2010PropOp47
 70
     1
102
RTVSPost2010Prop48
 90
       50
102
RTVSPost2010PropOp48
 70
     1
102
RTVSPost2010Prop49
280
     0
102
RTVSPost2010PropOp49
 70
     1
102
RTVSPost2010Prop50
 90
       50
102
RTVSPost2010PropOp50
 70
     1
102
RTVSPost2010Prop51ColorIndex
 90
      256
102
RTVSPost2010Prop51ColorRGB
 90
-16777216
102
RTVSPost2010PropOp51
 70
     0
102
RTVSPost2010Prop52
140
1.0
102
RTVSPost2010PropOp52
 70
     0
102
RTVSPost2010Prop53
 90
        2
102
RTVSPost2010PropOp53
 70
     1
102
RTVSPost2010Prop54
  1
strokes_ogs.tif
102
RTVSPost2010PropOp54
 70
     1
102
RTVSPost2010Prop55
280
     0
102
RTVSPost2010PropOp55
 70
     1
102
RTVSPost2010Prop56
140
1.0
102
RTVSPost2010PropOp56
 70
     1
102
RTVSPost2010Prop57
140
1.0
102
RTVSPost2010PropOp57
 70
     1
  0
XRECORD
  5
615
102
{ACAD_REACTORS
330
614
102
}
330
614
100
AcDbXrecord
280
     1
102
RTVSPropertyOp0
 70
     0
102
RTVSPropertyOp1
 70
     0
102
RTVSPropertyOp2
 70
     0
102
RTVSPropertyOp3
 70
     0
102
RTVSPropertyOp4
 70
     0
102
RTVSPropertyOp5
 70
     0
102
RTVSPropertyOp6
 70
     0
102
RTVSPropertyOp7
 70
     0
102
RTVSPropertyOp8
 70
     0
102
RTVSPropertyOp9
 70
     0
102
RTVSPropertyOp10
 70
     0
102
RTVSPropertyOp11
 70
     0
102
RTVSPropertyOp12
 70
     0
102
RTVSPropertyOp13
 70
     0
102
RTVSPropertyOp14
 70
     2
102
RTVSPropertyOp15
 70
     0
102
RTVSPropertyOp16
 70
     0
102
RTVSPropertyOp17
 70
     0
102
RTVSPropertyOp18
 70
     0
102
RTVSPropertyOp19
 70
     0
102
RTVSPropertyOp20
 70
     0
102
RTVSPropertyOp21
 70
     0
102
RTVSPropertyOp22
 70
     0
102
RTVSPropertyOp23
 70
     0
102
RTVSPropertyOp24
 70
     0
102
RTVSPropertyOp25
 70
     0
102
RTVSPropertyOp26
 70
     0
102
RTVSPropertyOp27
 70
     0
102
RTVSPropertyOp28
 70
     0
102
RTVSPropertyOp29
 70
     0
102
RTVSPropertyOp30
 70
     0
102
RTVSPropertyOp31
 70
     0
102
RTVSPropertyOp32
 70
     0
102
RTVSPropertyOp33
 70
     0
102
RTVSPropertyOp34
 70
     0
102
RTVSPropertyOp35
 70
     0
102
RTVSPropertyOp36
 70
     0
102
RTVSPropertyOp37
 70
     0
102
RTVSPropertyOp38
 70
     0
102
RTVSPropertyOp39
 70
     0
102
RTVSPropertyOp40
 70
     0
102
RTVSPropertyOp41
 70
     0
102
RTVSPropertyOp42
 70
     0
102
RTVSPropertyOp43
 70
     0
102
RTVSPropertyOp44
 70
     0
102
RTVSPropertyOp45
 70
     0
102
RTVSPropertyOp46
 70
     0
102
RTVSPropertyOp47
 70
     0
102
RTVSPropertyOp48
 70
     0
102
RTVSPropertyOp49
 70
     0
102
RTVSPropertyOp50
 70
     0
102
RTVSPropertyOp51
 70
     0
102
RTVSPropertyOp52
 70
     0
102
RTVSPropertyOp53
 70
     0
102
RTVSPropertyOp54
 70
     0
102
RTVSPropertyOp55
 70
     0
102
RTVSPropertyOp56
 70
     0
102
RTVSPropertyOp57
 70
     0
102
RTVSPost2010Prop28
280
     0
102
RTVSPost2010PropOp28
 70
     0
102
RTVSPost2010Prop29
280
     1
102
RTVSPost2010PropOp29
 70
     0
102
RTVSPost2010Prop30
280
     1
102
RTVSPost2010PropOp30
 70
     0
102
RTVSPost2010Prop31
280
     0
102
RTVSPost2010PropOp31
 70
     0
102
RTVSPost2010Prop32
280
     0
102
RTVSPost2010PropOp32
 70
     0
102
RTVSPost2010Prop33
280
     0
102
RTVSPost2010PropOp33
 70
     0
102
RTVSPost2010Prop34
280
     0
102
RTVSPost2010PropOp34
 70
     0
102
RTVSPost2010Prop35
280
     0
102
RTVSPost2010PropOp35
 70
     0
102
RTVSPost2010Prop36
280
     0
102
RTVSPost2010PropOp36
 70
     0
102
RTVSPost2010Prop37
 90
       50
102
RTVSPost2010PropOp37
 70
     0
102
RTVSPost2010Prop38
140
0.0
102
RTVSPost2010PropOp38
 70
     0
102
RTVSPost2010Prop39
140
1.0
102
RTVSPost2010PropOp39
 70
     0
102
RTVSPost2010Prop40
 90
        0
102
RTVSPost2010PropOp40
 70
     0
102
RTVSPost2010Prop41ColorIndex
 90
       18
102
RTVSPost2010Prop41ColorRGB
 90
        0
102
RTVSPost2010PropOp41
 70
     0
102
RTVSPost2010Prop42
 90
       50
102
RTVSPost2010PropOp42
 70
     0
102
RTVSPost2010Prop43
 90
        3
102
RTVSPost2010PropOp43
 70
     0
102
RTVSPost2010Prop44ColorIndex
 90
        5
102
RTVSPost2010Prop44ColorRGB
 90
      255
102
RTVSPost2010PropOp44
 70
     0
102
RTVSPost2010Prop45
280
     0
102
RTVSPost2010PropOp45
 70
     0
102
RTVSPost2010Prop46
 90
       50
102
RTVSPost2010PropOp46
 70
     0
102
RTVSPost2010Prop47
 90
       50
102
RTVSPost2010PropOp47
 70
     0
102
RTVSPost2010Prop48
 90
       50
102
RTVSPost2010PropOp48
 70
     0
102
RTVSPost2010Prop49
280
     0
102
RTVSPost2010PropOp49
 70
     0
102
RTVSPost2010Prop50
 90
       50
102
RTVSPost2010PropOp50
 70
     0
102
RTVSPost2010Prop51ColorIndex
 90
      256
102
RTVSPost2010Prop51ColorRGB
 90
-16777216
102
RTVSPost2010PropOp51
 70
     0
102
RTVSPost2010Prop52
140
1.0
102
RTVSPost2010PropOp52
 70
     0
102
RTVSPost2010Prop53
 90
        2
102
RTVSPost2010PropOp53
 70
     0
102
RTVSPost2010Prop54
  1
strokes_ogs.tif
102
RTVSPost2010PropOp54
 70
     0
102
RTVSPost2010Prop55
280
     0
102
RTVSPost2010PropOp55
 70
     0
102
RTVSPost2010Prop56
140
1.0
102
RTVSPost2010PropOp56
 70
     0
102
RTVSPost2010Prop57
140
1.0
102
RTVSPost2010PropOp57
 70
     0
  0
XRECORD
  5
603
102
{ACAD_REACTORS
330
602
102
}
330
602
100
AcDbXrecord
280
     1
102
RTVSPropertyOp0
 70
     1
102
RTVSPropertyOp1
 70
     1
102
RTVSPropertyOp2
 70
     1
102
RTVSPropertyOp3
 70
     1
102
RTVSPropertyOp4
 70
     1
102
RTVSPropertyOp5
 70
     1
102
RTVSPropertyOp6
 70
     1
102
RTVSPropertyOp7
 70
     1
102
RTVSPropertyOp8
 70
     1
102
RTVSPropertyOp9
 70
     1
102
RTVSPropertyOp10
 70
     1
102
RTVSPropertyOp11
 70
     1
102
RTVSPropertyOp12
 70
     1
102
RTVSPropertyOp13
 70
     1
102
RTVSPropertyOp14
 70
     1
102
RTVSPropertyOp15
 70
     1
102
RTVSPropertyOp16
 70
     1
102
RTVSPropertyOp17
 70
     1
102
RTVSPropertyOp18
 70
     1
102
RTVSPropertyOp19
 70
     1
102
RTVSPropertyOp20
 70
     1
102
RTVSPropertyOp21
 70
     1
102
RTVSPropertyOp22
 70
     1
102
RTVSPropertyOp23
 70
     1
102
RTVSPropertyOp24
 70
     1
102
RTVSPropertyOp25
 70
     1
102
RTVSPropertyOp26
 70
     1
102
RTVSPropertyOp27
 70
     1
102
RTVSPropertyOp28
 70
     1
102
RTVSPropertyOp29
 70
     1
102
RTVSPropertyOp30
 70
     1
102
RTVSPropertyOp31
 70
     1
102
RTVSPropertyOp32
 70
     1
102
RTVSPropertyOp33
 70
     1
102
RTVSPropertyOp34
 70
     1
102
RTVSPropertyOp35
 70
     1
102
RTVSPropertyOp36
 70
     1
102
RTVSPropertyOp37
 70
     1
102
RTVSPropertyOp38
 70
     1
102
RTVSPropertyOp39
 70
     1
102
RTVSPropertyOp40
 70
     1
102
RTVSPropertyOp41
 70
     1
102
RTVSPropertyOp42
 70
     1
102
RTVSPropertyOp43
 70
     1
102
RTVSPropertyOp44
 70
     1
102
RTVSPropertyOp45
 70
     1
102
RTVSPropertyOp46
 70
     1
102
RTVSPropertyOp47
 70
     1
102
RTVSPropertyOp48
 70
     1
102
RTVSPropertyOp49
 70
     1
102
RTVSPropertyOp50
 70
     1
102
RTVSPropertyOp51
 70
     0
102
RTVSPropertyOp52
 70
     0
102
RTVSPropertyOp53
 70
     1
102
RTVSPropertyOp54
 70
     1
102
RTVSPropertyOp55
 70
     1
102
RTVSPropertyOp56
 70
     1
102
RTVSPropertyOp57
 70
     1
102
RTVSPost2010Prop28
280
     0
102
RTVSPost2010PropOp28
 70
     1
102
RTVSPost2010Prop29
280
     1
102
RTVSPost2010PropOp29
 70
     1
102
RTVSPost2010Prop30
280
     1
102
RTVSPost2010PropOp30
 70
     1
102
RTVSPost2010Prop31
280
     0
102
RTVSPost2010PropOp31
 70
     1
102
RTVSPost2010Prop32
280
     0
102
RTVSPost2010PropOp32
 70
     1
102
RTVSPost2010Prop33
280
     0
102
RTVSPost2010PropOp33
 70
     1
102
RTVSPost2010Prop34
280
     0
102
RTVSPost2010PropOp34
 70
     1
102
RTVSPost2010Prop35
280
     0
102
RTVSPost2010PropOp35
 70
     1
102
RTVSPost2010Prop36
280
     0
102
RTVSPost2010PropOp36
 70
     1
102
RTVSPost2010Prop37
 90
       50
102
RTVSPost2010PropOp37
 70
     1
102
RTVSPost2010Prop38
140
0.0
102
RTVSPost2010PropOp38
 70
     1
102
RTVSPost2010Prop39
140
1.0
102
RTVSPost2010PropOp39
 70
     1
102
RTVSPost2010Prop40
 90
        0
102
RTVSPost2010PropOp40
 70
     1
102
RTVSPost2010Prop41ColorIndex
 90
       18
102
RTVSPost2010Prop41ColorRGB
 90
        0
102
RTVSPost2010PropOp41
 70
     1
102
RTVSPost2010Prop42
 90
       50
102
RTVSPost2010PropOp42
 70
     1
102
RTVSPost2010Prop43
 90
        3
102
RTVSPost2010PropOp43
 70
     1
102
RTVSPost2010Prop44ColorIndex
 90
        5
102
RTVSPost2010Prop44ColorRGB
 90
      255
102
RTVSPost2010PropOp44
 70
     1
102
RTVSPost2010Prop45
280
     0
102
RTVSPost2010PropOp45
 70
     1
102
RTVSPost2010Prop46
 90
       50
102
RTVSPost2010PropOp46
 70
     1
102
RTVSPost2010Prop47
 90
       50
102
RTVSPost2010PropOp47
 70
     1
102
RTVSPost2010Prop48
 90
       50
102
RTVSPost2010PropOp48
 70
     1
102
RTVSPost2010Prop49
280
     0
102
RTVSPost2010PropOp49
 70
     1
102
RTVSPost2010Prop50
 90
       50
102
RTVSPost2010PropOp50
 70
     1
102
RTVSPost2010Prop51ColorIndex
 90
      256
102
RTVSPost2010Prop51ColorRGB
 90
-16777216
102
RTVSPost2010PropOp51
 70
     0
102
RTVSPost2010Prop52
140
1.0
102
RTVSPost2010PropOp52
 70
     0
102
RTVSPost2010Prop53
 90
        2
102
RTVSPost2010PropOp53
 70
     1
102
RTVSPost2010Prop54
  1
strokes_ogs.tif
102
RTVSPost2010PropOp54
 70
     1
102
RTVSPost2010Prop55
280
     0
102
RTVSPost2010PropOp55
 70
     1
102
RTVSPost2010Prop56
140
1.0
102
RTVSPost2010PropOp56
 70
     1
102
RTVSPost2010Prop57
140
1.0
102
RTVSPost2010PropOp57
 70
     1
  0
XRECORD
  5
621
102
{ACAD_REACTORS
330
620
102
}
330
620
100
AcDbXrecord
280
     1
102
RTVSPropertyOp0
 70
     1
102
RTVSPropertyOp1
 70
     1
102
RTVSPropertyOp2
 70
     1
102
RTVSPropertyOp3
 70
     1
102
RTVSPropertyOp4
 70
     1
102
RTVSPropertyOp5
 70
     1
102
RTVSPropertyOp6
 70
     1
102
RTVSPropertyOp7
 70
     1
102
RTVSPropertyOp8
 70
     1
102
RTVSPropertyOp9
 70
     1
102
RTVSPropertyOp10
 70
     1
102
RTVSPropertyOp11
 70
     1
102
RTVSPropertyOp12
 70
     1
102
RTVSPropertyOp13
 70
     1
102
RTVSPropertyOp14
 70
     1
102
RTVSPropertyOp15
 70
     1
102
RTVSPropertyOp16
 70
     1
102
RTVSPropertyOp17
 70
     1
102
RTVSPropertyOp18
 70
     1
102
RTVSPropertyOp19
 70
     1
102
RTVSPropertyOp20
 70
     1
102
RTVSPropertyOp21
 70
     1
102
RTVSPropertyOp22
 70
     1
102
RTVSPropertyOp23
 70
     1
102
RTVSPropertyOp24
 70
     1
102
RTVSPropertyOp25
 70
     1
102
RTVSPropertyOp26
 70
     1
102
RTVSPropertyOp27
 70
     1
102
RTVSPropertyOp28
 70
     1
102
RTVSPropertyOp29
 70
     1
102
RTVSPropertyOp30
 70
     1
102
RTVSPropertyOp31
 70
     1
102
RTVSPropertyOp32
 70
     1
102
RTVSPropertyOp33
 70
     1
102
RTVSPropertyOp34
 70
     1
102
RTVSPropertyOp35
 70
     1
102
RTVSPropertyOp36
 70
     1
102
RTVSPropertyOp37
 70
     1
102
RTVSPropertyOp38
 70
     1
102
RTVSPropertyOp39
 70
     1
102
RTVSPropertyOp40
 70
     1
102
RTVSPropertyOp41
 70
     1
102
RTVSPropertyOp42
 70
     1
102
RTVSPropertyOp43
 70
     1
102
RTVSPropertyOp44
 70
     1
102
RTVSPropertyOp45
 70
     1
102
RTVSPropertyOp46
 70
     1
102
RTVSPropertyOp47
 70
     1
102
RTVSPropertyOp48
 70
     1
102
RTVSPropertyOp49
 70
     1
102
RTVSPropertyOp50
 70
     1
102
RTVSPropertyOp51
 70
     0
102
RTVSPropertyOp52
 70
     0
102
RTVSPropertyOp53
 70
     1
102
RTVSPropertyOp54
 70
     1
102
RTVSPropertyOp55
 70
     1
102
RTVSPropertyOp56
 70
     1
102
RTVSPropertyOp57
 70
     1
102
RTVSPost2010Prop28
280
     0
102
RTVSPost2010PropOp28
 70
     1
102
RTVSPost2010Prop29
280
     1
102
RTVSPost2010PropOp29
 70
     1
102
RTVSPost2010Prop30
280
     1
102
RTVSPost2010PropOp30
 70
     1
102
RTVSPost2010Prop31
280
     0
102
RTVSPost2010PropOp31
 70
     1
102
RTVSPost2010Prop32
280
     0
102
RTVSPost2010PropOp32
 70
     1
102
RTVSPost2010Prop33
280
     0
102
RTVSPost2010PropOp33
 70
     1
102
RTVSPost2010Prop34
280
     0
102
RTVSPost2010PropOp34
 70
     1
102
RTVSPost2010Prop35
280
     0
102
RTVSPost2010PropOp35
 70
     1
102
RTVSPost2010Prop36
280
     0
102
RTVSPost2010PropOp36
 70
     1
102
RTVSPost2010Prop37
 90
       50
102
RTVSPost2010PropOp37
 70
     1
102
RTVSPost2010Prop38
140
0.0
102
RTVSPost2010PropOp38
 70
     1
102
RTVSPost2010Prop39
140
1.0
102
RTVSPost2010PropOp39
 70
     1
102
RTVSPost2010Prop40
 90
        0
102
RTVSPost2010PropOp40
 70
     1
102
RTVSPost2010Prop41ColorIndex
 90
       18
102
RTVSPost2010Prop41ColorRGB
 90
        0
102
RTVSPost2010PropOp41
 70
     1
102
RTVSPost2010Prop42
 90
       50
102
RTVSPost2010PropOp42
 70
     1
102
RTVSPost2010Prop43
 90
        3
102
RTVSPost2010PropOp43
 70
     1
102
RTVSPost2010Prop44ColorIndex
 90
        5
102
RTVSPost2010Prop44ColorRGB
 90
      255
102
RTVSPost2010PropOp44
 70
     1
102
RTVSPost2010Prop45
280
     0
102
RTVSPost2010PropOp45
 70
     1
102
RTVSPost2010Prop46
 90
       50
102
RTVSPost2010PropOp46
 70
     1
102
RTVSPost2010Prop47
 90
       50
102
RTVSPost2010PropOp47
 70
     1
102
RTVSPost2010Prop48
 90
       50
102
RTVSPost2010PropOp48
 70
     1
102
RTVSPost2010Prop49
280
     0
102
RTVSPost2010PropOp49
 70
     1
102
RTVSPost2010Prop50
 90
       50
102
RTVSPost2010PropOp50
 70
     1
102
RTVSPost2010Prop51ColorIndex
 90
      256
102
RTVSPost2010Prop51ColorRGB
 90
-16777216
102
RTVSPost2010PropOp51
 70
     0
102
RTVSPost2010Prop52
140
1.0
102
RTVSPost2010PropOp52
 70
     0
102
RTVSPost2010Prop53
 90
        2
102
RTVSPost2010PropOp53
 70
     1
102
RTVSPost2010Prop54
  1
strokes_ogs.tif
102
RTVSPost2010PropOp54
 70
     1
102
RTVSPost2010Prop55
280
     0
102
RTVSPost2010PropOp55
 70
     1
102
RTVSPost2010Prop56
140
1.0
102
RTVSPost2010PropOp56
 70
     1
102
RTVSPost2010Prop57
140
1.0
102
RTVSPost2010PropOp57
 70
     1
  0
XRECORD
  5
61F
102
{ACAD_REACTORS
330
61E
102
}
330
61E
100
AcDbXrecord
280
     1
102
RTVSPropertyOp0
 70
     1
102
RTVSPropertyOp1
 70
     1
102
RTVSPropertyOp2
 70
     1
102
RTVSPropertyOp3
 70
     1
102
RTVSPropertyOp4
 70
     1
102
RTVSPropertyOp5
 70
     1
102
RTVSPropertyOp6
 70
     1
102
RTVSPropertyOp7
 70
     1
102
RTVSPropertyOp8
 70
     1
102
RTVSPropertyOp9
 70
     1
102
RTVSPropertyOp10
 70
     1
102
RTVSPropertyOp11
 70
     1
102
RTVSPropertyOp12
 70
     1
102
RTVSPropertyOp13
 70
     1
102
RTVSPropertyOp14
 70
     1
102
RTVSPropertyOp15
 70
     1
102
RTVSPropertyOp16
 70
     1
102
RTVSPropertyOp17
 70
     1
102
RTVSPropertyOp18
 70
     1
102
RTVSPropertyOp19
 70
     1
102
RTVSPropertyOp20
 70
     1
102
RTVSPropertyOp21
 70
     1
102
RTVSPropertyOp22
 70
     1
102
RTVSPropertyOp23
 70
     1
102
RTVSPropertyOp24
 70
     1
102
RTVSPropertyOp25
 70
     1
102
RTVSPropertyOp26
 70
     1
102
RTVSPropertyOp27
 70
     1
102
RTVSPropertyOp28
 70
     1
102
RTVSPropertyOp29
 70
     1
102
RTVSPropertyOp30
 70
     1
102
RTVSPropertyOp31
 70
     1
102
RTVSPropertyOp32
 70
     1
102
RTVSPropertyOp33
 70
     1
102
RTVSPropertyOp34
 70
     1
102
RTVSPropertyOp35
 70
     1
102
RTVSPropertyOp36
 70
     1
102
RTVSPropertyOp37
 70
     1
102
RTVSPropertyOp38
 70
     1
102
RTVSPropertyOp39
 70
     1
102
RTVSPropertyOp40
 70
     1
102
RTVSPropertyOp41
 70
     1
102
RTVSPropertyOp42
 70
     1
102
RTVSPropertyOp43
 70
     1
102
RTVSPropertyOp44
 70
     1
102
RTVSPropertyOp45
 70
     1
102
RTVSPropertyOp46
 70
     1
102
RTVSPropertyOp47
 70
     1
102
RTVSPropertyOp48
 70
     1
102
RTVSPropertyOp49
 70
     1
102
RTVSPropertyOp50
 70
     1
102
RTVSPropertyOp51
 70
     0
102
RTVSPropertyOp52
 70
     0
102
RTVSPropertyOp53
 70
     1
102
RTVSPropertyOp54
 70
     1
102
RTVSPropertyOp55
 70
     1
102
RTVSPropertyOp56
 70
     1
102
RTVSPropertyOp57
 70
     1
102
RTVSPost2010Prop28
280
     0
102
RTVSPost2010PropOp28
 70
     1
102
RTVSPost2010Prop29
280
     1
102
RTVSPost2010PropOp29
 70
     1
102
RTVSPost2010Prop30
280
     1
102
RTVSPost2010PropOp30
 70
     1
102
RTVSPost2010Prop31
280
     0
102
RTVSPost2010PropOp31
 70
     1
102
RTVSPost2010Prop32
280
     0
102
RTVSPost2010PropOp32
 70
     1
102
RTVSPost2010Prop33
280
     0
102
RTVSPost2010PropOp33
 70
     1
102
RTVSPost2010Prop34
280
     0
102
RTVSPost2010PropOp34
 70
     1
102
RTVSPost2010Prop35
280
     0
102
RTVSPost2010PropOp35
 70
     1
102
RTVSPost2010Prop36
280
     0
102
RTVSPost2010PropOp36
 70
     1
102
RTVSPost2010Prop37
 90
       50
102
RTVSPost2010PropOp37
 70
     1
102
RTVSPost2010Prop38
140
0.0
102
RTVSPost2010PropOp38
 70
     1
102
RTVSPost2010Prop39
140
1.0
102
RTVSPost2010PropOp39
 70
     1
102
RTVSPost2010Prop40
 90
        0
102
RTVSPost2010PropOp40
 70
     1
102
RTVSPost2010Prop41ColorIndex
 90
       18
102
RTVSPost2010Prop41ColorRGB
 90
        0
102
RTVSPost2010PropOp41
 70
     1
102
RTVSPost2010Prop42
 90
       50
102
RTVSPost2010PropOp42
 70
     1
102
RTVSPost2010Prop43
 90
        3
102
RTVSPost2010PropOp43
 70
     1
102
RTVSPost2010Prop44ColorIndex
 90
        5
102
RTVSPost2010Prop44ColorRGB
 90
      255
102
RTVSPost2010PropOp44
 70
     1
102
RTVSPost2010Prop45
280
     0
102
RTVSPost2010PropOp45
 70
     1
102
RTVSPost2010Prop46
 90
       50
102
RTVSPost2010PropOp46
 70
     1
102
RTVSPost2010Prop47
 90
       50
102
RTVSPost2010PropOp47
 70
     1
102
RTVSPost2010Prop48
 90
       50
102
RTVSPost2010PropOp48
 70
     1
102
RTVSPost2010Prop49
280
     0
102
RTVSPost2010PropOp49
 70
     1
102
RTVSPost2010Prop50
 90
       50
102
RTVSPost2010PropOp50
 70
     1
102
RTVSPost2010Prop51ColorIndex
 90
      256
102
RTVSPost2010Prop51ColorRGB
 90
-16777216
102
RTVSPost2010PropOp51
 70
     0
102
RTVSPost2010Prop52
140
1.0
102
RTVSPost2010PropOp52
 70
     0
102
RTVSPost2010Prop53
 90
        2
102
RTVSPost2010PropOp53
 70
     1
102
RTVSPost2010Prop54
  1
strokes_ogs.tif
102
RTVSPost2010PropOp54
 70
     1
102
RTVSPost2010Prop55
280
     0
102
RTVSPost2010PropOp55
 70
     1
102
RTVSPost2010Prop56
140
1.0
102
RTVSPost2010PropOp56
 70
     1
102
RTVSPost2010Prop57
140
1.0
102
RTVSPost2010PropOp57
 70
     1
  0
XRECORD
  5
619
102
{ACAD_REACTORS
330
618
102
}
330
618
100
AcDbXrecord
280
     1
102
RTVSPropertyOp0
 70
     1
102
RTVSPropertyOp1
 70
     1
102
RTVSPropertyOp2
 70
     1
102
RTVSPropertyOp3
 70
     1
102
RTVSPropertyOp4
 70
     1
102
RTVSPropertyOp5
 70
     1
102
RTVSPropertyOp6
 70
     1
102
RTVSPropertyOp7
 70
     1
102
RTVSPropertyOp8
 70
     1
102
RTVSPropertyOp9
 70
     1
102
RTVSPropertyOp10
 70
     1
102
RTVSPropertyOp11
 70
     1
102
RTVSPropertyOp12
 70
     1
102
RTVSPropertyOp13
 70
     1
102
RTVSPropertyOp14
 70
     1
102
RTVSPropertyOp15
 70
     1
102
RTVSPropertyOp16
 70
     1
102
RTVSPropertyOp17
 70
     1
102
RTVSPropertyOp18
 70
     1
102
RTVSPropertyOp19
 70
     1
102
RTVSPropertyOp20
 70
     1
102
RTVSPropertyOp21
 70
     1
102
RTVSPropertyOp22
 70
     1
102
RTVSPropertyOp23
 70
     1
102
RTVSPropertyOp24
 70
     1
102
RTVSPropertyOp25
 70
     1
102
RTVSPropertyOp26
 70
     1
102
RTVSPropertyOp27
 70
     1
102
RTVSPropertyOp28
 70
     1
102
RTVSPropertyOp29
 70
     1
102
RTVSPropertyOp30
 70
     1
102
RTVSPropertyOp31
 70
     1
102
RTVSPropertyOp32
 70
     1
102
RTVSPropertyOp33
 70
     1
102
RTVSPropertyOp34
 70
     1
102
RTVSPropertyOp35
 70
     1
102
RTVSPropertyOp36
 70
     1
102
RTVSPropertyOp37
 70
     1
102
RTVSPropertyOp38
 70
     1
102
RTVSPropertyOp39
 70
     1
102
RTVSPropertyOp40
 70
     1
102
RTVSPropertyOp41
 70
     1
102
RTVSPropertyOp42
 70
     1
102
RTVSPropertyOp43
 70
     1
102
RTVSPropertyOp44
 70
     1
102
RTVSPropertyOp45
 70
     1
102
RTVSPropertyOp46
 70
     1
102
RTVSPropertyOp47
 70
     1
102
RTVSPropertyOp48
 70
     1
102
RTVSPropertyOp49
 70
     1
102
RTVSPropertyOp50
 70
     1
102
RTVSPropertyOp51
 70
     0
102
RTVSPropertyOp52
 70
     0
102
RTVSPropertyOp53
 70
     1
102
RTVSPropertyOp54
 70
     1
102
RTVSPropertyOp55
 70
     1
102
RTVSPropertyOp56
 70
     1
102
RTVSPropertyOp57
 70
     1
102
RTVSPost2010Prop28
280
     0
102
RTVSPost2010PropOp28
 70
     1
102
RTVSPost2010Prop29
280
     1
102
RTVSPost2010PropOp29
 70
     1
102
RTVSPost2010Prop30
280
     1
102
RTVSPost2010PropOp30
 70
     1
102
RTVSPost2010Prop31
280
     0
102
RTVSPost2010PropOp31
 70
     1
102
RTVSPost2010Prop32
280
     0
102
RTVSPost2010PropOp32
 70
     1
102
RTVSPost2010Prop33
280
     0
102
RTVSPost2010PropOp33
 70
     1
102
RTVSPost2010Prop34
280
     0
102
RTVSPost2010PropOp34
 70
     1
102
RTVSPost2010Prop35
280
     0
102
RTVSPost2010PropOp35
 70
     1
102
RTVSPost2010Prop36
280
     0
102
RTVSPost2010PropOp36
 70
     1
102
RTVSPost2010Prop37
 90
       50
102
RTVSPost2010PropOp37
 70
     1
102
RTVSPost2010Prop38
140
0.0
102
RTVSPost2010PropOp38
 70
     1
102
RTVSPost2010Prop39
140
1.0
102
RTVSPost2010PropOp39
 70
     1
102
RTVSPost2010Prop40
 90
        0
102
RTVSPost2010PropOp40
 70
     1
102
RTVSPost2010Prop41ColorIndex
 90
       18
102
RTVSPost2010Prop41ColorRGB
 90
        0
102
RTVSPost2010PropOp41
 70
     1
102
RTVSPost2010Prop42
 90
       50
102
RTVSPost2010PropOp42
 70
     1
102
RTVSPost2010Prop43
 90
        3
102
RTVSPost2010PropOp43
 70
     1
102
RTVSPost2010Prop44ColorIndex
 90
        5
102
RTVSPost2010Prop44ColorRGB
 90
      255
102
RTVSPost2010PropOp44
 70
     1
102
RTVSPost2010Prop45
280
     0
102
RTVSPost2010PropOp45
 70
     1
102
RTVSPost2010Prop46
 90
       50
102
RTVSPost2010PropOp46
 70
     1
102
RTVSPost2010Prop47
 90
       50
102
RTVSPost2010PropOp47
 70
     1
102
RTVSPost2010Prop48
 90
       50
102
RTVSPost2010PropOp48
 70
     1
102
RTVSPost2010Prop49
280
     0
102
RTVSPost2010PropOp49
 70
     1
102
RTVSPost2010Prop50
 90
       50
102
RTVSPost2010PropOp50
 70
     1
102
RTVSPost2010Prop51ColorIndex
 90
      256
102
RTVSPost2010Prop51ColorRGB
 90
-16777216
102
RTVSPost2010PropOp51
 70
     0
102
RTVSPost2010Prop52
140
1.0
102
RTVSPost2010PropOp52
 70
     0
102
RTVSPost2010Prop53
 90
        2
102
RTVSPost2010PropOp53
 70
     1
102
RTVSPost2010Prop54
  1
strokes_ogs.tif
102
RTVSPost2010PropOp54
 70
     1
102
RTVSPost2010Prop55
280
     0
102
RTVSPost2010PropOp55
 70
     1
102
RTVSPost2010Prop56
140
1.0
102
RTVSPost2010PropOp56
 70
     1
102
RTVSPost2010Prop57
140
1.0
102
RTVSPost2010PropOp57
 70
     1
  0
XRECORD
  5
61B
102
{ACAD_REACTORS
330
61A
102
}
330
61A
100
AcDbXrecord
280
     1
102
RTVSPropertyOp0
 70
     1
102
RTVSPropertyOp1
 70
     1
102
RTVSPropertyOp2
 70
     1
102
RTVSPropertyOp3
 70
     1
102
RTVSPropertyOp4
 70
     1
102
RTVSPropertyOp5
 70
     1
102
RTVSPropertyOp6
 70
     1
102
RTVSPropertyOp7
 70
     1
102
RTVSPropertyOp8
 70
     1
102
RTVSPropertyOp9
 70
     1
102
RTVSPropertyOp10
 70
     1
102
RTVSPropertyOp11
 70
     1
102
RTVSPropertyOp12
 70
     1
102
RTVSPropertyOp13
 70
     1
102
RTVSPropertyOp14
 70
     1
102
RTVSPropertyOp15
 70
     1
102
RTVSPropertyOp16
 70
     1
102
RTVSPropertyOp17
 70
     1
102
RTVSPropertyOp18
 70
     1
102
RTVSPropertyOp19
 70
     1
102
RTVSPropertyOp20
 70
     1
102
RTVSPropertyOp21
 70
     1
102
RTVSPropertyOp22
 70
     1
102
RTVSPropertyOp23
 70
     1
102
RTVSPropertyOp24
 70
     1
102
RTVSPropertyOp25
 70
     1
102
RTVSPropertyOp26
 70
     1
102
RTVSPropertyOp27
 70
     1
102
RTVSPropertyOp28
 70
     1
102
RTVSPropertyOp29
 70
     1
102
RTVSPropertyOp30
 70
     1
102
RTVSPropertyOp31
 70
     1
102
RTVSPropertyOp32
 70
     1
102
RTVSPropertyOp33
 70
     1
102
RTVSPropertyOp34
 70
     1
102
RTVSPropertyOp35
 70
     1
102
RTVSPropertyOp36
 70
     1
102
RTVSPropertyOp37
 70
     1
102
RTVSPropertyOp38
 70
     1
102
RTVSPropertyOp39
 70
     1
102
RTVSPropertyOp40
 70
     1
102
RTVSPropertyOp41
 70
     1
102
RTVSPropertyOp42
 70
     1
102
RTVSPropertyOp43
 70
     1
102
RTVSPropertyOp44
 70
     1
102
RTVSPropertyOp45
 70
     1
102
RTVSPropertyOp46
 70
     1
102
RTVSPropertyOp47
 70
     1
102
RTVSPropertyOp48
 70
     1
102
RTVSPropertyOp49
 70
     1
102
RTVSPropertyOp50
 70
     1
102
RTVSPropertyOp51
 70
     0
102
RTVSPropertyOp52
 70
     0
102
RTVSPropertyOp53
 70
     1
102
RTVSPropertyOp54
 70
     1
102
RTVSPropertyOp55
 70
     1
102
RTVSPropertyOp56
 70
     1
102
RTVSPropertyOp57
 70
     1
102
RTVSPost2010Prop28
280
     0
102
RTVSPost2010PropOp28
 70
     1
102
RTVSPost2010Prop29
280
     1
102
RTVSPost2010PropOp29
 70
     1
102
RTVSPost2010Prop30
280
     1
102
RTVSPost2010PropOp30
 70
     1
102
RTVSPost2010Prop31
280
     0
102
RTVSPost2010PropOp31
 70
     1
102
RTVSPost2010Prop32
280
     0
102
RTVSPost2010PropOp32
 70
     1
102
RTVSPost2010Prop33
280
     0
102
RTVSPost2010PropOp33
 70
     1
102
RTVSPost2010Prop34
280
     0
102
RTVSPost2010PropOp34
 70
     1
102
RTVSPost2010Prop35
280
     0
102
RTVSPost2010PropOp35
 70
     1
102
RTVSPost2010Prop36
280
     0
102
RTVSPost2010PropOp36
 70
     1
102
RTVSPost2010Prop37
 90
       50
102
RTVSPost2010PropOp37
 70
     1
102
RTVSPost2010Prop38
140
0.0
102
RTVSPost2010PropOp38
 70
     1
102
RTVSPost2010Prop39
140
1.0
102
RTVSPost2010PropOp39
 70
     1
102
RTVSPost2010Prop40
 90
        0
102
RTVSPost2010PropOp40
 70
     1
102
RTVSPost2010Prop41ColorIndex
 90
       18
102
RTVSPost2010Prop41ColorRGB
 90
        0
102
RTVSPost2010PropOp41
 70
     1
102
RTVSPost2010Prop42
 90
       50
102
RTVSPost2010PropOp42
 70
     1
102
RTVSPost2010Prop43
 90
        3
102
RTVSPost2010PropOp43
 70
     1
102
RTVSPost2010Prop44ColorIndex
 90
        5
102
RTVSPost2010Prop44ColorRGB
 90
      255
102
RTVSPost2010PropOp44
 70
     1
102
RTVSPost2010Prop45
280
     0
102
RTVSPost2010PropOp45
 70
     1
102
RTVSPost2010Prop46
 90
       50
102
RTVSPost2010PropOp46
 70
     1
102
RTVSPost2010Prop47
 90
       50
102
RTVSPost2010PropOp47
 70
     1
102
RTVSPost2010Prop48
 90
       50
102
RTVSPost2010PropOp48
 70
     1
102
RTVSPost2010Prop49
280
     0
102
RTVSPost2010PropOp49
 70
     1
102
RTVSPost2010Prop50
 90
       50
102
RTVSPost2010PropOp50
 70
     1
102
RTVSPost2010Prop51ColorIndex
 90
      256
102
RTVSPost2010Prop51ColorRGB
 90
-16777216
102
RTVSPost2010PropOp51
 70
     0
102
RTVSPost2010Prop52
140
1.0
102
RTVSPost2010PropOp52
 70
     0
102
RTVSPost2010Prop53
 90
        2
102
RTVSPost2010PropOp53
 70
     1
102
RTVSPost2010Prop54
  1
strokes_ogs.tif
102
RTVSPost2010PropOp54
 70
     1
102
RTVSPost2010Prop55
280
     0
102
RTVSPost2010PropOp55
 70
     1
102
RTVSPost2010Prop56
140
1.0
102
RTVSPost2010PropOp56
 70
     1
102
RTVSPost2010Prop57
140
1.0
102
RTVSPost2010PropOp57
 70
     1
  0
XRECORD
  5
60B
102
{ACAD_REACTORS
330
60A
102
}
330
60A
100
AcDbXrecord
280
     1
102
RTVSPropertyOp0
 70
     1
102
RTVSPropertyOp1
 70
     1
102
RTVSPropertyOp2
 70
     1
102
RTVSPropertyOp3
 70
     1
102
RTVSPropertyOp4
 70
     1
102
RTVSPropertyOp5
 70
     1
102
RTVSPropertyOp6
 70
     1
102
RTVSPropertyOp7
 70
     1
102
RTVSPropertyOp8
 70
     1
102
RTVSPropertyOp9
 70
     1
102
RTVSPropertyOp10
 70
     1
102
RTVSPropertyOp11
 70
     1
102
RTVSPropertyOp12
 70
     1
102
RTVSPropertyOp13
 70
     1
102
RTVSPropertyOp14
 70
     1
102
RTVSPropertyOp15
 70
     1
102
RTVSPropertyOp16
 70
     1
102
RTVSPropertyOp17
 70
     1
102
RTVSPropertyOp18
 70
     1
102
RTVSPropertyOp19
 70
     1
102
RTVSPropertyOp20
 70
     1
102
RTVSPropertyOp21
 70
     1
102
RTVSPropertyOp22
 70
     1
102
RTVSPropertyOp23
 70
     1
102
RTVSPropertyOp24
 70
     1
102
RTVSPropertyOp25
 70
     1
102
RTVSPropertyOp26
 70
     1
102
RTVSPropertyOp27
 70
     1
102
RTVSPropertyOp28
 70
     1
102
RTVSPropertyOp29
 70
     1
102
RTVSPropertyOp30
 70
     1
102
RTVSPropertyOp31
 70
     1
102
RTVSPropertyOp32
 70
     1
102
RTVSPropertyOp33
 70
     1
102
RTVSPropertyOp34
 70
     1
102
RTVSPropertyOp35
 70
     1
102
RTVSPropertyOp36
 70
     1
102
RTVSPropertyOp37
 70
     1
102
RTVSPropertyOp38
 70
     1
102
RTVSPropertyOp39
 70
     1
102
RTVSPropertyOp40
 70
     1
102
RTVSPropertyOp41
 70
     1
102
RTVSPropertyOp42
 70
     1
102
RTVSPropertyOp43
 70
     1
102
RTVSPropertyOp44
 70
     1
102
RTVSPropertyOp45
 70
     1
102
RTVSPropertyOp46
 70
     1
102
RTVSPropertyOp47
 70
     1
102
RTVSPropertyOp48
 70
     1
102
RTVSPropertyOp49
 70
     1
102
RTVSPropertyOp50
 70
     1
102
RTVSPropertyOp51
 70
     0
102
RTVSPropertyOp52
 70
     0
102
RTVSPropertyOp53
 70
     1
102
RTVSPropertyOp54
 70
     1
102
RTVSPropertyOp55
 70
     1
102
RTVSPropertyOp56
 70
     1
102
RTVSPropertyOp57
 70
     1
102
RTVSPost2010Prop28
280
     0
102
RTVSPost2010PropOp28
 70
     1
102
RTVSPost2010Prop29
280
     1
102
RTVSPost2010PropOp29
 70
     1
102
RTVSPost2010Prop30
280
     1
102
RTVSPost2010PropOp30
 70
     1
102
RTVSPost2010Prop31
280
     0
102
RTVSPost2010PropOp31
 70
     1
102
RTVSPost2010Prop32
280
     0
102
RTVSPost2010PropOp32
 70
     1
102
RTVSPost2010Prop33
280
     0
102
RTVSPost2010PropOp33
 70
     1
102
RTVSPost2010Prop34
280
     0
102
RTVSPost2010PropOp34
 70
     1
102
RTVSPost2010Prop35
280
     0
102
RTVSPost2010PropOp35
 70
     1
102
RTVSPost2010Prop36
280
     0
102
RTVSPost2010PropOp36
 70
     1
102
RTVSPost2010Prop37
 90
       50
102
RTVSPost2010PropOp37
 70
     1
102
RTVSPost2010Prop38
140
0.0
102
RTVSPost2010PropOp38
 70
     1
102
RTVSPost2010Prop39
140
1.0
102
RTVSPost2010PropOp39
 70
     1
102
RTVSPost2010Prop40
 90
        0
102
RTVSPost2010PropOp40
 70
     1
102
RTVSPost2010Prop41ColorIndex
 90
       18
102
RTVSPost2010Prop41ColorRGB
 90
        0
102
RTVSPost2010PropOp41
 70
     1
102
RTVSPost2010Prop42
 90
       50
102
RTVSPost2010PropOp42
 70
     1
102
RTVSPost2010Prop43
 90
        3
102
RTVSPost2010PropOp43
 70
     1
102
RTVSPost2010Prop44ColorIndex
 90
        5
102
RTVSPost2010Prop44ColorRGB
 90
      255
102
RTVSPost2010PropOp44
 70
     1
102
RTVSPost2010Prop45
280
     0
102
RTVSPost2010PropOp45
 70
     1
102
RTVSPost2010Prop46
 90
       50
102
RTVSPost2010PropOp46
 70
     1
102
RTVSPost2010Prop47
 90
       50
102
RTVSPost2010PropOp47
 70
     1
102
RTVSPost2010Prop48
 90
       50
102
RTVSPost2010PropOp48
 70
     1
102
RTVSPost2010Prop49
280
     0
102
RTVSPost2010PropOp49
 70
     1
102
RTVSPost2010Prop50
 90
       50
102
RTVSPost2010PropOp50
 70
     1
102
RTVSPost2010Prop51ColorIndex
 90
      256
102
RTVSPost2010Prop51ColorRGB
 90
-16777216
102
RTVSPost2010PropOp51
 70
     0
102
RTVSPost2010Prop52
140
1.0
102
RTVSPost2010PropOp52
 70
     0
102
RTVSPost2010Prop53
 90
        2
102
RTVSPost2010PropOp53
 70
     1
102
RTVSPost2010Prop54
  1
strokes_ogs.tif
102
RTVSPost2010PropOp54
 70
     1
102
RTVSPost2010Prop55
280
     0
102
RTVSPost2010PropOp55
 70
     1
102
RTVSPost2010Prop56
140
1.0
102
RTVSPost2010PropOp56
 70
     1
102
RTVSPost2010Prop57
140
1.0
102
RTVSPost2010PropOp57
 70
     1
  0
XRECORD
  5
5FD
102
{ACAD_REACTORS
330
5FC
102
}
330
5FC
100
AcDbXrecord
280
     1
102
RTVSPropertyOp0
 70
     1
102
RTVSPropertyOp1
 70
     1
102
RTVSPropertyOp2
 70
     1
102
RTVSPropertyOp3
 70
     1
102
RTVSPropertyOp4
 70
     1
102
RTVSPropertyOp5
 70
     1
102
RTVSPropertyOp6
 70
     1
102
RTVSPropertyOp7
 70
     1
102
RTVSPropertyOp8
 70
     1
102
RTVSPropertyOp9
 70
     1
102
RTVSPropertyOp10
 70
     1
102
RTVSPropertyOp11
 70
     1
102
RTVSPropertyOp12
 70
     1
102
RTVSPropertyOp13
 70
     1
102
RTVSPropertyOp14
 70
     1
102
RTVSPropertyOp15
 70
     1
102
RTVSPropertyOp16
 70
     1
102
RTVSPropertyOp17
 70
     1
102
RTVSPropertyOp18
 70
     1
102
RTVSPropertyOp19
 70
     1
102
RTVSPropertyOp20
 70
     1
102
RTVSPropertyOp21
 70
     1
102
RTVSPropertyOp22
 70
     1
102
RTVSPropertyOp23
 70
     1
102
RTVSPropertyOp24
 70
     1
102
RTVSPropertyOp25
 70
     1
102
RTVSPropertyOp26
 70
     1
102
RTVSPropertyOp27
 70
     1
102
RTVSPropertyOp28
 70
     1
102
RTVSPropertyOp29
 70
     1
102
RTVSPropertyOp30
 70
     1
102
RTVSPropertyOp31
 70
     1
102
RTVSPropertyOp32
 70
     1
102
RTVSPropertyOp33
 70
     1
102
RTVSPropertyOp34
 70
     1
102
RTVSPropertyOp35
 70
     1
102
RTVSPropertyOp36
 70
     1
102
RTVSPropertyOp37
 70
     1
102
RTVSPropertyOp38
 70
     1
102
RTVSPropertyOp39
 70
     1
102
RTVSPropertyOp40
 70
     1
102
RTVSPropertyOp41
 70
     1
102
RTVSPropertyOp42
 70
     1
102
RTVSPropertyOp43
 70
     1
102
RTVSPropertyOp44
 70
     1
102
RTVSPropertyOp45
 70
     1
102
RTVSPropertyOp46
 70
     1
102
RTVSPropertyOp47
 70
     1
102
RTVSPropertyOp48
 70
     1
102
RTVSPropertyOp49
 70
     1
102
RTVSPropertyOp50
 70
     1
102
RTVSPropertyOp51
 70
     0
102
RTVSPropertyOp52
 70
     0
102
RTVSPropertyOp53
 70
     1
102
RTVSPropertyOp54
 70
     1
102
RTVSPropertyOp55
 70
     1
102
RTVSPropertyOp56
 70
     1
102
RTVSPropertyOp57
 70
     1
102
RTVSPost2010Prop28
280
     0
102
RTVSPost2010PropOp28
 70
     1
102
RTVSPost2010Prop29
280
     1
102
RTVSPost2010PropOp29
 70
     1
102
RTVSPost2010Prop30
280
     1
102
RTVSPost2010PropOp30
 70
     1
102
RTVSPost2010Prop31
280
     0
102
RTVSPost2010PropOp31
 70
     1
102
RTVSPost2010Prop32
280
     0
102
RTVSPost2010PropOp32
 70
     1
102
RTVSPost2010Prop33
280
     0
102
RTVSPost2010PropOp33
 70
     1
102
RTVSPost2010Prop34
280
     0
102
RTVSPost2010PropOp34
 70
     1
102
RTVSPost2010Prop35
280
     0
102
RTVSPost2010PropOp35
 70
     1
102
RTVSPost2010Prop36
280
     0
102
RTVSPost2010PropOp36
 70
     1
102
RTVSPost2010Prop37
 90
       50
102
RTVSPost2010PropOp37
 70
     1
102
RTVSPost2010Prop38
140
0.0
102
RTVSPost2010PropOp38
 70
     1
102
RTVSPost2010Prop39
140
1.0
102
RTVSPost2010PropOp39
 70
     1
102
RTVSPost2010Prop40
 90
        0
102
RTVSPost2010PropOp40
 70
     1
102
RTVSPost2010Prop41ColorIndex
 90
       18
102
RTVSPost2010Prop41ColorRGB
 90
        0
102
RTVSPost2010PropOp41
 70
     1
102
RTVSPost2010Prop42
 90
       50
102
RTVSPost2010PropOp42
 70
     1
102
RTVSPost2010Prop43
 90
        3
102
RTVSPost2010PropOp43
 70
     1
102
RTVSPost2010Prop44ColorIndex
 90
        5
102
RTVSPost2010Prop44ColorRGB
 90
      255
102
RTVSPost2010PropOp44
 70
     1
102
RTVSPost2010Prop45
280
     0
102
RTVSPost2010PropOp45
 70
     1
102
RTVSPost2010Prop46
 90
       50
102
RTVSPost2010PropOp46
 70
     1
102
RTVSPost2010Prop47
 90
       50
102
RTVSPost2010PropOp47
 70
     1
102
RTVSPost2010Prop48
 90
       50
102
RTVSPost2010PropOp48
 70
     1
102
RTVSPost2010Prop49
280
     0
102
RTVSPost2010PropOp49
 70
     1
102
RTVSPost2010Prop50
 90
       50
102
RTVSPost2010PropOp50
 70
     1
102
RTVSPost2010Prop51ColorIndex
 90
      256
102
RTVSPost2010Prop51ColorRGB
 90
-16777216
102
RTVSPost2010PropOp51
 70
     0
102
RTVSPost2010Prop52
140
1.0
102
RTVSPost2010PropOp52
 70
     0
102
RTVSPost2010Prop53
 90
        2
102
RTVSPost2010PropOp53
 70
     1
102
RTVSPost2010Prop54
  1
strokes_ogs.tif
102
RTVSPost2010PropOp54
 70
     1
102
RTVSPost2010Prop55
280
     0
102
RTVSPost2010PropOp55
 70
     1
102
RTVSPost2010Prop56
140
1.0
102
RTVSPost2010PropOp56
 70
     1
102
RTVSPost2010Prop57
140
1.0
102
RTVSPost2010PropOp57
 70
     1
  0
XRECORD
  5
61D
102
{ACAD_REACTORS
330
61C
102
}
330
61C
100
AcDbXrecord
280
     1
102
RTVSPropertyOp0
 70
     1
102
RTVSPropertyOp1
 70
     1
102
RTVSPropertyOp2
 70
     1
102
RTVSPropertyOp3
 70
     1
102
RTVSPropertyOp4
 70
     1
102
RTVSPropertyOp5
 70
     1
102
RTVSPropertyOp6
 70
     1
102
RTVSPropertyOp7
 70
     1
102
RTVSPropertyOp8
 70
     1
102
RTVSPropertyOp9
 70
     1
102
RTVSPropertyOp10
 70
     1
102
RTVSPropertyOp11
 70
     1
102
RTVSPropertyOp12
 70
     1
102
RTVSPropertyOp13
 70
     1
102
RTVSPropertyOp14
 70
     1
102
RTVSPropertyOp15
 70
     1
102
RTVSPropertyOp16
 70
     1
102
RTVSPropertyOp17
 70
     1
102
RTVSPropertyOp18
 70
     1
102
RTVSPropertyOp19
 70
     1
102
RTVSPropertyOp20
 70
     1
102
RTVSPropertyOp21
 70
     1
102
RTVSPropertyOp22
 70
     1
102
RTVSPropertyOp23
 70
     1
102
RTVSPropertyOp24
 70
     1
102
RTVSPropertyOp25
 70
     1
102
RTVSPropertyOp26
 70
     1
102
RTVSPropertyOp27
 70
     1
102
RTVSPropertyOp28
 70
     1
102
RTVSPropertyOp29
 70
     1
102
RTVSPropertyOp30
 70
     1
102
RTVSPropertyOp31
 70
     1
102
RTVSPropertyOp32
 70
     1
102
RTVSPropertyOp33
 70
     1
102
RTVSPropertyOp34
 70
     1
102
RTVSPropertyOp35
 70
     1
102
RTVSPropertyOp36
 70
     1
102
RTVSPropertyOp37
 70
     1
102
RTVSPropertyOp38
 70
     1
102
RTVSPropertyOp39
 70
     1
102
RTVSPropertyOp40
 70
     1
102
RTVSPropertyOp41
 70
     1
102
RTVSPropertyOp42
 70
     1
102
RTVSPropertyOp43
 70
     1
102
RTVSPropertyOp44
 70
     1
102
RTVSPropertyOp45
 70
     1
102
RTVSPropertyOp46
 70
     1
102
RTVSPropertyOp47
 70
     1
102
RTVSPropertyOp48
 70
     1
102
RTVSPropertyOp49
 70
     1
102
RTVSPropertyOp50
 70
     1
102
RTVSPropertyOp51
 70
     0
102
RTVSPropertyOp52
 70
     0
102
RTVSPropertyOp53
 70
     1
102
RTVSPropertyOp54
 70
     1
102
RTVSPropertyOp55
 70
     1
102
RTVSPropertyOp56
 70
     1
102
RTVSPropertyOp57
 70
     1
102
RTVSPost2010Prop28
280
     0
102
RTVSPost2010PropOp28
 70
     1
102
RTVSPost2010Prop29
280
     1
102
RTVSPost2010PropOp29
 70
     1
102
RTVSPost2010Prop30
280
     1
102
RTVSPost2010PropOp30
 70
     1
102
RTVSPost2010Prop31
280
     0
102
RTVSPost2010PropOp31
 70
     1
102
RTVSPost2010Prop32
280
     0
102
RTVSPost2010PropOp32
 70
     1
102
RTVSPost2010Prop33
280
     0
102
RTVSPost2010PropOp33
 70
     1
102
RTVSPost2010Prop34
280
     0
102
RTVSPost2010PropOp34
 70
     1
102
RTVSPost2010Prop35
280
     0
102
RTVSPost2010PropOp35
 70
     1
102
RTVSPost2010Prop36
280
     0
102
RTVSPost2010PropOp36
 70
     1
102
RTVSPost2010Prop37
 90
       50
102
RTVSPost2010PropOp37
 70
     1
102
RTVSPost2010Prop38
140
0.0
102
RTVSPost2010PropOp38
 70
     1
102
RTVSPost2010Prop39
140
1.0
102
RTVSPost2010PropOp39
 70
     1
102
RTVSPost2010Prop40
 90
        0
102
RTVSPost2010PropOp40
 70
     1
102
RTVSPost2010Prop41ColorIndex
 90
       18
102
RTVSPost2010Prop41ColorRGB
 90
        0
102
RTVSPost2010PropOp41
 70
     1
102
RTVSPost2010Prop42
 90
       50
102
RTVSPost2010PropOp42
 70
     1
102
RTVSPost2010Prop43
 90
        3
102
RTVSPost2010PropOp43
 70
     1
102
RTVSPost2010Prop44ColorIndex
 90
        5
102
RTVSPost2010Prop44ColorRGB
 90
      255
102
RTVSPost2010PropOp44
 70
     1
102
RTVSPost2010Prop45
280
     0
102
RTVSPost2010PropOp45
 70
     1
102
RTVSPost2010Prop46
 90
       50
102
RTVSPost2010PropOp46
 70
     1
102
RTVSPost2010Prop47
 90
       50
102
RTVSPost2010PropOp47
 70
     1
102
RTVSPost2010Prop48
 90
       50
102
RTVSPost2010PropOp48
 70
     1
102
RTVSPost2010Prop49
280
     0
102
RTVSPost2010PropOp49
 70
     1
102
RTVSPost2010Prop50
 90
       50
102
RTVSPost2010PropOp50
 70
     1
102
RTVSPost2010Prop51ColorIndex
 90
      256
102
RTVSPost2010Prop51ColorRGB
 90
-16777216
102
RTVSPost2010PropOp51
 70
     0
102
RTVSPost2010Prop52
140
1.0
102
RTVSPost2010PropOp52
 70
     0
102
RTVSPost2010Prop53
 90
        2
102
RTVSPost2010PropOp53
 70
     1
102
RTVSPost2010Prop54
  1
strokes_ogs.tif
102
RTVSPost2010PropOp54
 70
     1
102
RTVSPost2010Prop55
280
     0
102
RTVSPost2010PropOp55
 70
     1
102
RTVSPost2010Prop56
140
1.0
102
RTVSPost2010PropOp56
 70
     1
102
RTVSPost2010Prop57
140
1.0
102
RTVSPost2010PropOp57
 70
     1
  0
ENDSEC
  0
EOF
