0
SECTION
2
HEADER
9
$ACADVER
1
AC1015
9
$DWGCODEPAGE
3
ANSI_1252
9
$HANDSEED
5
39f
9
$ANGBASE
50
0
9
$ANGDIR
70
0
9
$ATTMODE
70
1
9
$AUNITS
70
0
9
$AUPREC
70
0
9
$CECOLOR
62
256
9
$CELTSCALE
40
1
9
$CELTYPE
6
ByLayer
9
$CELWEIGHT
370
-1
9
$CLAYER
8
0
9
$CMLJUST
70
0
9
$CMLSCALE
40
1
9
$CMLSTYLE
2
Standard
9
$DIMSTYLE
2
Standard
9
$TEXTSIZE
40
0.2
9
$TEXTSTYLE
7
Standard
9
$LUNITS
70
2
9
$LUPREC
70
4
9
$EXTNAMES
290
1
9
$INSUNITS
70
4
9
$LTSCALE
40
1
9
$LWDISPLAY
290
0
9
$PDMODE
70
0
9
$PDSIZE
40
0
9
$PLINEGEN
70
0
0
ENDSEC
0
SECTION
2
CLASSES
0
CLASS
1
RASTERVARIABLES
2
AcDbRasterVariables
3
ISM
90
0
280
0
281
0
0
ENDSEC
0
SECTION
2
TABLES
0
TABLE
2
VPORT
5
395
100
AcDbSymbolTable
0
VPORT
5
1
100
AcDbSymbolTableRecord
100
AcDbViewportTableRecord
2
*Active
70
0
10
0
20
0
11
1
21
1
12
-1
22
1
13
0
23
0
14
0.5
24
0.5
15
10
25
10
16
0
26
0
36
1
17
0
27
0
37
0
0
ENDTAB
0
TABLE
2
LTYPE
5
396
100
AcDbSymbolTable
0
LTYPE
5
14
100
AcDbSymbolTableRecord
100
AcDbLinetypeTableRecord
70
0
2
ByBlock
3

72
65
73
0
40
0
0
LTYPE
5
15
100
AcDbSymbolTableRecord
100
AcDbLinetypeTableRecord
70
0
2
ByLayer
3

72
65
73
0
40
0
0
LTYPE
5
16
100
AcDbSymbolTableRecord
100
AcDbLinetypeTableRecord
70
0
2
CONTINUOUS
3
Solid line
72
65
73
0
40
0
0
LTYPE
5
3C
100
AcDbSymbolTableRecord
100
AcDbLinetypeTableRecord
70
0
2
DASHED
3
__ __ __ __ __ __ __ __ __
72
65
73
2
40
25.72
49
12.86
74
0
49
-12.86
74
0
0
LTYPE
5
3D
100
AcDbSymbolTableRecord
100
AcDbLinetypeTableRecord
70
0
2
HIDDEN
3
_ _ _ _ _ _ _ _ _ _ _ _ _ _ _
72
65
73
2
40
0.5
49
0.25
74
0
49
-0.25
74
0
0
LTYPE
5
3E
100
AcDbSymbolTableRecord
100
AcDbLinetypeTableRecord
70
0
2
PHANTOM
3
____ _ _ ____ _ _ _____ _ _ ____
72
65
73
6
40
50.5
49
18
74
0
49
-6.5
74
0
49
6.5
74
0
49
-6.5
74
0
49
6.5
74
0
49
-6.5
74
0
0
LTYPE
5
3F
100
AcDbSymbolTableRecord
100
AcDbLinetypeTableRecord
70
0
2
CENTER
3
____ _ ____ _ ____ _ ____
72
65
73
4
40
47.5
49
22
74
0
49
-8.5
74
0
49
8.5
74
0
49
-8.5
74
0
0
LTYPE
5
40
100
AcDbSymbolTableRecord
100
AcDbLinetypeTableRecord
70
0
2
DOT
3
.........................
72
65
73
2
40
10
49
0
74
0
49
-10
74
0
0
LTYPE
5
41
100
AcDbSymbolTableRecord
100
AcDbLinetypeTableRecord
70
0
2
DASHDOT
3
_._._._._._._._._._._._._._._._.
72
65
73
4
40
70
49
31
74
0
49
-13
74
0
49
13
74
0
49
-13
74
0
0
ENDTAB
0
TABLE
2
LAYER
5
397
100
AcDbSymbolTable
0
LAYER
5
10
100
AcDbSymbolTableRecord
100
AcDbLayerTableRecord
2
0
70
0
62
7
6
CONTINUOUS
290
1
370
-3
390
0
0
LAYER
5
43
100
AcDbSymbolTableRecord
100
AcDbLayerTableRecord
2
80
70
0
62
-6
6
CONTINUOUS
290
1
370
-3
390
0
0
LAYER
5
45
100
AcDbSymbolTableRecord
100
AcDbLayerTableRecord
2
2
70
0
62
7
6
CONTINUOUS
290
1
370
-3
390
0
0
LAYER
5
47
100
AcDbSymbolTableRecord
100
AcDbLayerTableRecord
2
81
70
0
62
-3
6
CONTINUOUS
290
1
370
-3
390
0
0
LAYER
5
49
100
AcDbSymbolTableRecord
100
AcDbLayerTableRecord
2
4
70
0
62
-2
6
CENTER
290
1
370
-3
390
0
0
LAYER
5
58
100
AcDbSymbolTableRecord
100
AcDbLayerTableRecord
2
1
70
0
62
4
6
CONTINUOUS
290
1
370
-3
390
0
0
LAYER
5
382
100
AcDbSymbolTableRecord
100
AcDbLayerTableRecord
2
SK1
70
0
62
4
6
CONTINUOUS
290
1
370
-3
390
0
0
LAYER
5
383
100
AcDbSymbolTableRecord
100
AcDbLayerTableRecord
2
SK6
70
0
62
5
6
CONTINUOUS
290
1
370
-3
390
0
0
LAYER
5
384
100
AcDbSymbolTableRecord
100
AcDbLayerTableRecord
2
SK2
70
0
62
7
6
CONTINUOUS
290
1
370
-3
390
0
0
ENDTAB
0
TABLE
2
STYLE
5
398
100
AcDbSymbolTable
0
STYLE
5
11
100
AcDbSymbolTableRecord
100
AcDbTextStyleTableRecord
2
Standard
3
txt
70
0
71
0
40
0
41
1
42
0
50
0
0
STYLE
5
302
100
AcDbSymbolTableRecord
100
AcDbTextStyleTableRecord
2
DEFAULT
3
simplex.shx
70
0
71
0
40
0
41
1
42
0
50
0
0
STYLE
5
303
100
AcDbSymbolTableRecord
100
AcDbTextStyleTableRecord
2
DWGDirectTextStyle
3
SIMPLEX
70
0
71
0
40
0
41
1
42
0
50
0
0
ENDTAB
0
TABLE
2
DIMSTYLE
5
399
100
AcDbSymbolTable
100
AcDbDimStyleTable
0
DIMSTYLE
105
27
100
AcDbSymbolTableRecord
100
AcDbDimStyleTableRecord
2
Standard
70
0
3
<>
41
0.18
42
0.0625
44
0.18
140
0.18
147
0.09
73
0
74
0
77
1
271
2
275
0
278
52
280
0
340
11
0
ENDTAB
0
TABLE
2
VIEW
5
39a
100
AcDbSymbolTable
0
ENDTAB
0
TABLE
2
UCS
5
39b
100
AcDbSymbolTable
0
ENDTAB
0
TABLE
2
APPID
5
39c
100
AcDbSymbolTable
0
APPID
5
12
100
AcDbSymbolTableRecord
100
AcDbRegAppTableRecord
2
ACAD
70
0
0
ENDTAB
0
TABLE
2
BLOCK_RECORD
5
39d
100
AcDbSymbolTable
0
BLOCK_RECORD
5
1F
100
AcDbSymbolTableRecord
100
AcDbBlockTableRecord
2
*Model_Space
340
0
70
0
0
BLOCK_RECORD
5
1B
100
AcDbSymbolTableRecord
100
AcDbBlockTableRecord
2
*Paper_Space
340
0
70
0
0
BLOCK_RECORD
5
23
100
AcDbSymbolTableRecord
100
AcDbBlockTableRecord
2
*Paper_Space0
340
0
70
0
0
BLOCK_RECORD
5
305
100
AcDbSymbolTableRecord
100
AcDbBlockTableRecord
2
DimnDraft3D1
340
0
70
0
0
BLOCK_RECORD
5
313
100
AcDbSymbolTableRecord
100
AcDbBlockTableRecord
2
_CLOSED
340
0
70
0
0
BLOCK_RECORD
5
31A
100
AcDbSymbolTableRecord
100
AcDbBlockTableRecord
2
DimnDraft3D2
340
0
70
0
0
BLOCK_RECORD
5
329
100
AcDbSymbolTableRecord
100
AcDbBlockTableRecord
2
DimnDraft3D3
340
0
70
0
0
BLOCK_RECORD
5
337
100
AcDbSymbolTableRecord
100
AcDbBlockTableRecord
2
DimnDraft3D4
340
0
70
0
0
ENDTAB
0
ENDSEC
0
SECTION
2
BLOCKS
0
BLOCK
5
20
100
AcDbEntity
8
0
100
AcDbBlockBegin
2
*Model_Space
70
0
10
0
20
0
30
0
3
*Model_Space
0
ENDBLK
5
21
100
AcDbEntity
8
0
100
AcDbBlockEnd
0
BLOCK
5
1C
100
AcDbEntity
8
0
100
AcDbBlockBegin
2
*Paper_Space
70
0
10
0
20
0
30
0
3
*Paper_Space
0
ENDBLK
5
1D
100
AcDbEntity
8
0
100
AcDbBlockEnd
0
BLOCK
5
24
100
AcDbEntity
8
0
100
AcDbBlockBegin
2
*Paper_Space0
70
0
10
0
20
0
30
0
3
*Paper_Space0
0
ENDBLK
5
25
100
AcDbEntity
8
0
100
AcDbBlockEnd
0
BLOCK
5
310
100
AcDbEntity
8
0
100
AcDbBlockBegin
2
DimnDraft3D1
70
0
10
0
20
0
30
0
3
DimnDraft3D1
0
MTEXT
5
306
100
AcDbEntity
8
2
62
256
6
ByLayer
370
-1
48
1
60
0
100
AcDbMText
10
30.215789
20
46.875
30
0
210
0
220
0
230
1
1
\W01.000;\fsimplex.shx,bigfont.shx;70.0\P
40
4.5
41
0
44
1.084337
50
0
71
7
72
5
7
DEFAULT
0
LINE
5
307
100
AcDbEntity
8
2
62
256
6
ByLayer
370
-1
48
1
60
0
100
AcDbLine
10
70
20
28
30
0
11
70
21
47.75
31
0
39
0
210
0
220
0
230
1
0
LINE
5
308
100
AcDbEntity
8
2
62
256
6
ByLayer
370
-1
48
1
60
0
100
AcDbLine
10
0
20
27
30
0
11
0
21
47.75
31
0
39
0
210
0
220
0
230
1
0
LINE
5
309
100
AcDbEntity
8
2
62
256
6
ByLayer
370
-1
48
1
60
0
100
AcDbLine
10
70
20
45.75
30
0
11
0
21
45.75
31
0
39
0
210
0
220
0
230
1
0
LINE
5
30A
100
AcDbEntity
8
2
62
256
6
ByLayer
370
-1
48
1
60
0
100
AcDbLine
10
70
20
45.75
30
0
11
66.825002
21
45.332003
31
0
39
0
210
0
220
0
230
1
0
LINE
5
30B
100
AcDbEntity
8
2
62
256
6
ByLayer
370
-1
48
1
60
0
100
AcDbLine
10
70
20
45.75
30
0
11
66.824998
21
46.167997
31
0
39
0
210
0
220
0
230
1
0
LINE
5
30C
100
AcDbEntity
8
2
62
256
6
ByLayer
370
-1
48
1
60
0
100
AcDbLine
10
66.825002
20
45.332003
30
0
11
66.824998
21
46.167997
31
0
39
0
210
0
220
0
230
1
0
LINE
5
30D
100
AcDbEntity
8
2
62
256
6
ByLayer
370
-1
48
1
60
0
100
AcDbLine
10
0
20
45.75
30
0
11
3.174998
21
46.167997
31
0
39
0
210
0
220
0
230
1
0
LINE
5
30E
100
AcDbEntity
8
2
62
256
6
ByLayer
370
-1
48
1
60
0
100
AcDbLine
10
0
20
45.75
30
0
11
3.175002
21
45.332003
31
0
39
0
210
0
220
0
230
1
0
LINE
5
30F
100
AcDbEntity
8
2
62
256
6
ByLayer
370
-1
48
1
60
0
100
AcDbLine
10
3.174998
20
46.167997
30
0
11
3.175002
21
45.332003
31
0
39
0
210
0
220
0
230
1
0
ENDBLK
5
311
100
AcDbEntity
8
0
100
AcDbBlockEnd
0
BLOCK
5
314
100
AcDbEntity
8
0
100
AcDbBlockBegin
2
_CLOSED
70
0
10
0
20
0
30
0
3
_CLOSED
0
LINE
5
316
100
AcDbEntity
8
0
62
256
6
ByLayer
370
-2
48
1
60
0
100
AcDbLine
10
-1
20
0.166667
30
0
11
0
21
0
31
0
39
0
210
0
220
0
230
1
0
LINE
5
317
100
AcDbEntity
8
0
62
256
6
ByLayer
370
-2
48
1
60
0
100
AcDbLine
10
0
20
0
30
0
11
-1
21
-0.166667
31
0
39
0
210
0
220
0
230
1
0
LINE
5
318
100
AcDbEntity
8
0
62
256
6
ByLayer
370
-2
48
1
60
0
100
AcDbLine
10
-1
20
0.166667
30
0
11
-1
21
-0.166667
31
0
39
0
210
0
220
0
230
1
0
LINE
5
319
100
AcDbEntity
8
0
62
256
6
ByLayer
370
-2
48
1
60
0
100
AcDbLine
10
0
20
0
30
0
11
-1
21
0
31
0
39
0
210
0
220
0
230
1
0
ENDBLK
5
315
100
AcDbEntity
8
0
100
AcDbBlockEnd
0
BLOCK
5
326
100
AcDbEntity
8
0
100
AcDbBlockBegin
2
DimnDraft3D2
70
0
10
0
20
0
30
0
3
DimnDraft3D2
0
MTEXT
5
31B
100
AcDbEntity
8
SK2
62
256
6
ByLayer
370
-1
48
1
60
0
100
AcDbMText
10
80.19375
20
34.875
30
0
210
0
220
0
230
1
1
\W01.000;\fsimplex.shx,bigfont.shx;1.2\P
40
4.5
41
0
44
1.084337
50
0
71
7
72
5
7
DEFAULT
0
LINE
5
31D
100
AcDbEntity
8
SK2
62
256
6
ByLayer
370
-1
48
1
60
0
100
AcDbLine
10
70
20
28
30
0
11
70
21
35.75
31
0
39
0
210
0
220
0
230
1
0
LINE
5
31E
100
AcDbEntity
8
SK2
62
256
6
ByLayer
370
-1
48
1
60
0
100
AcDbLine
10
68.8
20
28
30
0
11
68.8
21
35.75
31
0
39
0
210
0
220
0
230
1
0
LINE
5
31F
100
AcDbEntity
8
SK2
62
256
6
ByLayer
370
-1
48
1
60
0
100
AcDbLine
10
57.55
20
33.75
30
0
11
85.753618
21
33.75
31
0
39
0
210
0
220
0
230
1
0
LINE
5
320
100
AcDbEntity
8
SK2
62
256
6
ByLayer
370
-1
48
1
60
0
100
AcDbLine
10
70
20
33.75
30
0
11
73.174998
21
34.167997
31
0
39
0
210
0
220
0
230
1
0
LINE
5
321
100
AcDbEntity
8
SK2
62
256
6
ByLayer
370
-1
48
1
60
0
100
AcDbLine
10
70
20
33.75
30
0
11
73.175002
21
33.332003
31
0
39
0
210
0
220
0
230
1
0
LINE
5
322
100
AcDbEntity
8
SK2
62
256
6
ByLayer
370
-1
48
1
60
0
100
AcDbLine
10
73.174998
20
34.167997
30
0
11
73.175002
21
33.332003
31
0
39
0
210
0
220
0
230
1
0
LINE
5
323
100
AcDbEntity
8
SK2
62
256
6
ByLayer
370
-1
48
1
60
0
100
AcDbLine
10
68.8
20
33.75
30
0
11
65.625002
21
33.332003
31
0
39
0
210
0
220
0
230
1
0
LINE
5
324
100
AcDbEntity
8
SK2
62
256
6
ByLayer
370
-1
48
1
60
0
100
AcDbLine
10
68.8
20
33.75
30
0
11
65.624998
21
34.167997
31
0
39
0
210
0
220
0
230
1
0
LINE
5
325
100
AcDbEntity
8
SK2
62
256
6
ByLayer
370
-1
48
1
60
0
100
AcDbLine
10
65.625002
20
33.332003
30
0
11
65.624998
21
34.167997
31
0
39
0
210
0
220
0
230
1
0
ENDBLK
5
327
100
AcDbEntity
8
0
100
AcDbBlockEnd
0
BLOCK
5
334
100
AcDbEntity
8
0
100
AcDbBlockBegin
2
DimnDraft3D3
70
0
10
0
20
0
30
0
3
DimnDraft3D3
0
MTEXT
5
32A
100
AcDbEntity
8
SK2
62
256
6
ByLayer
370
-1
48
1
60
0
100
AcDbMText
10
-40.875
20
-7.467928
30
0
210
0
220
0
230
1
1
\W01.000;\fsimplex.shx,bigfont.shx;%%c50.0\P
40
4.5
41
0
44
1.084337
50
90
71
7
72
5
7
DEFAULT
0
LINE
5
32B
100
AcDbEntity
8
SK2
62
256
6
ByLayer
370
-1
48
1
60
0
100
AcDbLine
10
-2
20
25
30
0
11
-41.75
21
25
31
0
39
0
210
0
220
0
230
1
0
LINE
5
32C
100
AcDbEntity
8
SK2
62
256
6
ByLayer
370
-1
48
1
60
0
100
AcDbLine
10
-2
20
-25
30
0
11
-41.75
21
-25
31
0
39
0
210
0
220
0
230
1
0
LINE
5
32D
100
AcDbEntity
8
SK2
62
256
6
ByLayer
370
-1
48
1
60
0
100
AcDbLine
10
-39.75
20
25
30
0
11
-39.75
21
-25
31
0
39
0
210
0
220
0
230
1
0
LINE
5
32E
100
AcDbEntity
8
SK2
62
256
6
ByLayer
370
-1
48
1
60
0
100
AcDbLine
10
-39.75
20
25
30
0
11
-39.332003
21
21.825002
31
0
39
0
210
0
220
0
230
1
0
LINE
5
32F
100
AcDbEntity
8
SK2
62
256
6
ByLayer
370
-1
48
1
60
0
100
AcDbLine
10
-39.75
20
25
30
0
11
-40.167997
21
21.824998
31
0
39
0
210
0
220
0
230
1
0
LINE
5
330
100
AcDbEntity
8
SK2
62
256
6
ByLayer
370
-1
48
1
60
0
100
AcDbLine
10
-39.332003
20
21.825002
30
0
11
-40.167997
21
21.824998
31
0
39
0
210
0
220
0
230
1
0
LINE
5
331
100
AcDbEntity
8
SK2
62
256
6
ByLayer
370
-1
48
1
60
0
100
AcDbLine
10
-39.75
20
-25
30
0
11
-40.167997
21
-21.825002
31
0
39
0
210
0
220
0
230
1
0
LINE
5
332
100
AcDbEntity
8
SK2
62
256
6
ByLayer
370
-1
48
1
60
0
100
AcDbLine
10
-39.75
20
-25
30
0
11
-39.332003
21
-21.824998
31
0
39
0
210
0
220
0
230
1
0
LINE
5
333
100
AcDbEntity
8
SK2
62
256
6
ByLayer
370
-1
48
1
60
0
100
AcDbLine
10
-40.167997
20
-21.825002
30
0
11
-39.332003
21
-21.824998
31
0
39
0
210
0
220
0
230
1
0
ENDBLK
5
335
100
AcDbEntity
8
0
100
AcDbBlockEnd
0
BLOCK
5
342
100
AcDbEntity
8
0
100
AcDbBlockBegin
2
DimnDraft3D4
70
0
10
0
20
0
30
0
3
DimnDraft3D4
0
MTEXT
5
338
100
AcDbEntity
8
2
62
256
6
ByLayer
370
-1
48
1
60
0
100
AcDbMText
10
81.125
20
-7.467928
30
0
210
0
220
0
230
1
1
\W01.000;\fsimplex.shx,bigfont.shx;%%c52.0\P
40
4.5
41
0
44
1.084337
50
90
71
7
72
5
7
DEFAULT
0
LINE
5
339
100
AcDbEntity
8
2
62
256
6
ByLayer
370
-1
48
1
60
0
100
AcDbLine
10
72
20
26
30
0
11
84.25
21
26
31
0
39
0
210
0
220
0
230
1
0
LINE
5
33A
100
AcDbEntity
8
2
62
256
6
ByLayer
370
-1
48
1
60
0
100
AcDbLine
10
72
20
-26
30
0
11
84.25
21
-26
31
0
39
0
210
0
220
0
230
1
0
LINE
5
33B
100
AcDbEntity
8
2
62
256
6
ByLayer
370
-1
48
1
60
0
100
AcDbLine
10
82.25
20
26
30
0
11
82.25
21
-26
31
0
39
0
210
0
220
0
230
1
0
LINE
5
33C
100
AcDbEntity
8
2
62
256
6
ByLayer
370
-1
48
1
60
0
100
AcDbLine
10
82.25
20
26
30
0
11
82.667997
21
22.825002
31
0
39
0
210
0
220
0
230
1
0
LINE
5
33D
100
AcDbEntity
8
2
62
256
6
ByLayer
370
-1
48
1
60
0
100
AcDbLine
10
82.25
20
26
30
0
11
81.832003
21
22.824998
31
0
39
0
210
0
220
0
230
1
0
LINE
5
33E
100
AcDbEntity
8
2
62
256
6
ByLayer
370
-1
48
1
60
0
100
AcDbLine
10
82.667997
20
22.825002
30
0
11
81.832003
21
22.824998
31
0
39
0
210
0
220
0
230
1
0
LINE
5
33F
100
AcDbEntity
8
2
62
256
6
ByLayer
370
-1
48
1
60
0
100
AcDbLine
10
82.25
20
-26
30
0
11
81.832003
21
-22.825002
31
0
39
0
210
0
220
0
230
1
0
LINE
5
340
100
AcDbEntity
8
2
62
256
6
ByLayer
370
-1
48
1
60
0
100
AcDbLine
10
82.25
20
-26
30
0
11
82.667997
21
-22.824998
31
0
39
0
210
0
220
0
230
1
0
LINE
5
341
100
AcDbEntity
8
2
62
256
6
ByLayer
370
-1
48
1
60
0
100
AcDbLine
10
81.832003
20
-22.825002
30
0
11
82.667997
21
-22.824998
31
0
39
0
210
0
220
0
230
1
0
ENDBLK
5
343
100
AcDbEntity
8
0
100
AcDbBlockEnd
0
ENDSEC
0
SECTION
2
ENTITIES
0
ARC
5
17E
100
AcDbEntity
8
1
62
256
6
ByLayer
370
-1
48
1
60
0
100
AcDbCircle
39
0
10
64.971333
20
6.259315
30
0
40
7
210
0
220
0
230
1
100
AcDbArc
50
283.554743
51
285.377886
0
ARC
5
17F
100
AcDbEntity
8
1
62
256
6
ByLayer
370
-1
48
1
60
0
100
AcDbCircle
39
0
10
64.971333
20
6.259315
30
0
40
7
210
0
220
0
230
1
100
AcDbArc
50
251.663446
51
254.442095
0
ARC
5
180
100
AcDbEntity
8
SK1
62
256
6
ByLayer
370
-1
48
1
60
0
100
AcDbCircle
39
0
10
0.6
20
18.75
30
0
40
1
210
0
220
0
230
-1
100
AcDbArc
50
233.130102
51
246.421822
0
ARC
5
181
100
AcDbEntity
8
SK1
62
256
6
ByLayer
370
-1
48
1
60
0
100
AcDbCircle
39
0
10
0.6
20
-18.75
30
0
40
1
210
0
220
0
230
-1
100
AcDbArc
50
113.578178
51
126.869898
0
ARC
5
182
100
AcDbEntity
8
1
62
256
6
ByLayer
370
-1
48
1
60
0
100
AcDbCircle
39
0
10
-20.5
20
23.046307
30
0
40
0.5
210
0
220
0
230
-1
100
AcDbArc
50
264.931734
51
0
0
ARC
5
183
100
AcDbEntity
8
1
62
256
6
ByLayer
370
-1
48
1
60
0
100
AcDbCircle
39
0
10
-20.5
20
-23.046307
30
0
40
0.5
210
0
220
0
230
-1
100
AcDbArc
50
0
51
95.068266
0
ARC
5
184
100
AcDbEntity
8
1
62
256
6
ByLayer
370
-1
48
1
60
0
100
AcDbCircle
39
0
10
43.045932
20
-9.485051
30
0
40
15
210
0
220
0
230
1
100
AcDbArc
50
264.931734
51
270
0
ELLIPSE
5
185
100
AcDbEntity
8
1
62
256
6
ByLayer
370
-1
48
1
60
0
100
AcDbEllipse
10
70.730124
20
0.12144
30
0
11
0.738715332896231
21
26.1783427194144
31
0
210
0
220
0
230
-1
40
0.174974
41
-1.24460385334348
42
-1.06813498381767
0
ELLIPSE
5
186
100
AcDbEntity
8
1
62
256
6
ByLayer
370
-1
48
1
60
0
100
AcDbEllipse
10
57.757698
20
46.1818
30
0
11
5.55540918416948
21
-31.2343615422559
31
0
210
0
220
0
230
-1
40
0.819332
41
0.770005975995367
42
0.948303453046283
0
ELLIPSE
5
187
100
AcDbEntity
8
1
62
256
6
ByLayer
370
-1
48
1
60
0
100
AcDbEllipse
10
21.056258
20
0
30
0
11
11.7092723497247
21
24.6771864409344
31
0
210
0
220
0
230
-1
40
0.341999
41
-2.9743795816808
42
-2.05975995310042
0
ELLIPSE
5
188
100
AcDbEntity
8
1
62
256
6
ByLayer
370
-1
48
1
60
0
100
AcDbEllipse
10
63.463519
20
0
30
0
11
3.85067363736787
21
24.4726142593446
31
0
210
0
220
0
230
-1
40
0.202643
41
3.09705212425004
42
3.10971879927917
0
ELLIPSE
5
189
100
AcDbEntity
8
1
62
256
6
ByLayer
370
-1
48
1
60
0
100
AcDbEllipse
10
64.77769
20
-21.098881
30
0
11
1.97915920256371
21
0.287973698290956
31
0
210
0
220
0
230
1
40
0.992627
41
-3.0082523483532
42
-2.78097752138267
0
ELLIPSE
5
18A
100
AcDbEntity
8
1
62
256
6
ByLayer
370
-1
48
1
60
0
100
AcDbEllipse
10
63.463519
20
0
30
0
11
4.26367045643091
21
-24.4718800983057
31
0
210
0
220
0
230
-1
40
0.188336
41
-3.0828182294189
42
-3.01077817538968
0
ELLIPSE
5
18B
100
AcDbEntity
8
1
62
256
6
ByLayer
370
-1
48
1
60
0
100
AcDbEllipse
10
21.056258
20
0
30
0
11
11.709272349725
21
-24.6771864409347
31
0
210
0
220
0
230
-1
40
0.341999
41
2.05975995310043
42
2.9743795816808
0
ELLIPSE
5
18C
100
AcDbEntity
8
1
62
256
6
ByLayer
370
-1
48
1
60
0
100
AcDbEllipse
10
144.823675
20
-5E-06
30
0
11
1402.74777034137
21
-0.854776392573792
31
0
210
0
220
0
230
-1
40
0.017444
41
-1.64342675101992
42
-1.63168637899761
0
ELLIPSE
5
18D
100
AcDbEntity
8
1
62
256
6
ByLayer
370
-1
48
1
60
0
100
AcDbEllipse
10
66.155924
20
0.74562
30
0
11
4.40106649121461
21
25.4130727667215
31
0
210
0
220
0
230
-1
40
0.037344
41
2.65289478766108
42
2.85199748488555
0
ELLIPSE
5
18E
100
AcDbEntity
8
1
62
256
6
ByLayer
370
-1
48
1
60
0
100
AcDbEllipse
10
144.823826
20
0
30
0
11
1402.74887608711
21
-24.4464394486945
31
0
210
0
220
0
230
-1
40
0.00098
41
1.63165872757036
42
1.64339909038052
0
ELLIPSE
5
18F
100
AcDbEntity
8
1
62
256
6
ByLayer
370
-1
48
1
60
0
100
AcDbEllipse
10
64.240538
20
20.369876
30
0
11
2.98698175835131
21
-0.421957527771082
31
0
210
0
220
0
230
-1
40
0.943978
41
1.23931449023153
42
2.13932482427982
0
ELLIPSE
5
190
100
AcDbEntity
8
1
62
256
6
ByLayer
370
-1
48
1
60
0
100
AcDbEllipse
10
63.196798
20
-3.408596
30
0
11
-0.109278571579469
21
-3.99850699559142
31
0
210
0
220
0
230
1
40
0.17235
41
1.01697666965374
42
2.37035663021541
0
ELLIPSE
5
191
100
AcDbEntity
8
1
62
256
6
ByLayer
370
-1
48
1
60
0
100
AcDbEllipse
10
64.240538
20
-18.985619
30
0
11
0.949749412598226
21
4.39129397622379
31
0
210
0
220
0
230
-1
40
0.651253
41
-1.02173677092309
42
-0.121726436874374
0
ELLIPSE
5
192
100
AcDbEntity
8
1
62
256
6
ByLayer
370
-1
48
1
60
0
100
AcDbEllipse
10
66.155924
20
0.117841
30
0
11
0.716825759253602
21
25.4026275124852
31
0
210
0
220
0
230
-1
40
0.174974
41
-1.22871682961641
42
-1.0296141324006
0
ELLIPSE
5
193
100
AcDbEntity
8
1
62
256
6
ByLayer
370
-1
48
1
60
0
100
AcDbEllipse
10
57.687889
20
-5.068367
30
0
11
30.1507270484088
21
-0.883010914514316
31
0
210
0
220
0
230
-1
40
0.009552
41
1.36890746236695
42
2.38858066928034
0
ELLIPSE
5
194
100
AcDbEntity
8
1
62
256
6
ByLayer
370
-1
48
1
60
0
100
AcDbEllipse
10
-1.056258
20
0
30
0
11
11.7092723497273
21
-24.6771864409375
31
0
210
0
220
0
230
-1
40
0.341999
41
-1.08183270048927
42
-0.167213071908978
0
ELLIPSE
5
195
100
AcDbEntity
8
1
62
256
6
ByLayer
370
-1
48
1
60
0
100
AcDbEllipse
10
-1.056258
20
0
30
0
11
11.7092723497274
21
24.6771864409376
31
0
210
0
220
0
230
-1
40
0.341999
41
0.167213071908978
42
1.08183270048927
0
ELLIPSE
5
196
100
AcDbEntity
8
1
62
256
6
ByLayer
370
-1
48
1
60
0
100
AcDbEllipse
10
548.420947
20
103.18239
30
0
11
608.473557439104
21
107.181867120472
31
0
210
0
220
0
230
-1
40
0.001472
41
2.4838743177378
42
2.48984156611261
0
ELLIPSE
5
197
100
AcDbEntity
8
1
62
256
6
ByLayer
370
-1
48
1
60
0
100
AcDbEllipse
10
70.730124
20
0.768389
30
0
11
4.53546103133991
21
26.1891069960015
31
0
210
0
220
0
230
-1
40
0.037344
41
2.69141563929584
42
2.86788450858959
0
ELLIPSE
5
198
100
AcDbEntity
8
1
62
256
6
ByLayer
370
-1
48
1
60
0
100
AcDbEllipse
10
64.853707
20
8.825958
30
0
11
-1.99969442642656
21
0.0349599902541615
31
0
210
0
220
0
230
1
40
0.056161
41
0
42
2.67380992916045
0
ELLIPSE
5
199
100
AcDbEntity
8
1
62
256
6
ByLayer
370
-1
48
1
60
0
100
AcDbEllipse
10
64.853707
20
8.825958
30
0
11
-1.99969442642656
21
0.0349599902541615
31
0
210
0
220
0
230
1
40
0.056161
41
-2.68181965646941
42
0
0
ELLIPSE
5
19A
100
AcDbEntity
8
1
62
256
6
ByLayer
370
-1
48
1
60
0
100
AcDbEllipse
10
64.853707
20
-21.621322
30
0
11
-2.22655410288418
21
-0.323970410577325
31
0
210
0
220
0
230
1
40
0.992627
41
2.82368113101465
42
2.99730340116568
0
ELLIPSE
5
19B
100
AcDbEntity
8
1
62
256
6
ByLayer
370
-1
48
1
60
0
100
AcDbEllipse
10
548.431233
20
-5.481737
30
0
11
608.484089656824
21
-5.70713343041987
31
0
210
0
220
0
230
-1
40
0.047621
41
2.48345463058327
42
2.48914069596566
0
ELLIPSE
5
19C
100
AcDbEntity
8
1
62
256
6
ByLayer
370
-1
48
1
60
0
100
AcDbEllipse
10
64.853707
20
8.825958
30
0
11
2.24965622972987
21
-0.0393299890359328
31
0
210
0
220
0
230
1
40
0.056161
41
0.647838955481751
42
2.96810135947176
0
ELLIPSE
5
19D
100
AcDbEntity
8
1
62
256
6
ByLayer
370
-1
48
1
60
0
100
AcDbEllipse
10
63.463519
20
0
30
0
11
4.95803671757507
21
24.4726105456777
31
0
210
0
220
0
230
-1
40
0.157407
41
-1.59799564706258
42
-1.52595559345902
0
ELLIPSE
5
19E
100
AcDbEntity
8
1
62
256
6
ByLayer
370
-1
48
1
60
0
100
AcDbEllipse
10
64.853707
20
-21.621322
30
0
11
1.97915920256371
21
0.287973698290956
31
0
210
0
220
0
230
1
40
0.992627
41
2.99604564792405
42
0
0
ELLIPSE
5
19F
100
AcDbEntity
8
1
62
256
6
ByLayer
370
-1
48
1
60
0
100
AcDbEllipse
10
64.853707
20
-21.621322
30
0
11
1.97915920256371
21
0.287973698290956
31
0
210
0
220
0
230
1
40
0.992627
41
0
42
0.133340278847834
0
ELLIPSE
5
1A0
100
AcDbEntity
8
1
62
256
6
ByLayer
370
-1
48
1
60
0
100
AcDbEllipse
10
64.853707
20
-21.621322
30
0
11
1.97915920256371
21
0.287973698290956
31
0
210
0
220
0
230
1
40
0.992627
41
2.86230440995326
42
2.99604514428919
0
ELLIPSE
5
1A1
100
AcDbEntity
8
1
62
256
6
ByLayer
370
-1
48
1
60
0
100
AcDbEllipse
10
69.057369
20
-1.901284
30
0
11
-0.485181169896933
21
0.120827283249452
31
0
210
0
220
0
230
1
40
0.221819
41
1.80594771089016
42
3.13041480844315
0
ELLIPSE
5
1A2
100
AcDbEntity
8
1
62
256
6
ByLayer
370
-1
48
1
60
0
100
AcDbEllipse
10
68.749452
20
-3.137722
30
0
11
0.516942451171191
21
0.007379879998747
31
0
210
0
220
0
230
-1
40
0.096324
41
0.0366261443567113
42
1.36109324191104
0
ELLIPSE
5
1A3
100
AcDbEntity
8
1
62
256
6
ByLayer
370
-1
48
1
60
0
100
AcDbEllipse
10
66.491236
20
-25.09061
30
0
11
0.484626177287199
21
-0.270405732849241
31
0
210
0
220
0
230
-1
40
0.896878
41
0.974329346687766
42
1.19760740657029
0
ELLIPSE
5
1A4
100
AcDbEntity
8
1
62
256
6
ByLayer
370
-1
48
1
60
0
100
AcDbEllipse
10
69.617718
20
-21.136064
30
0
11
0.821815626223037
21
-0.0986923576176048
31
0
210
0
220
0
230
-1
40
0.959964
41
-2.6952241949597
42
-2.30232839616618
0
ELLIPSE
5
1A5
100
AcDbEntity
8
1
62
256
6
ByLayer
370
-1
48
1
60
0
100
AcDbEllipse
10
64.904173
20
-21.082931
30
0
11
-2.0286381826278
21
-0.29517304074823
31
0
210
0
220
0
230
1
40
0.992627
41
0.0343803623319557
42
0.221403100570525
0
ELLIPSE
5
1A6
100
AcDbEntity
8
1
62
256
6
ByLayer
370
-1
48
1
60
0
100
AcDbEllipse
10
65.420065
20
-25.050804
30
0
11
0.896025289263804
21
0.152244425684435
31
0
210
0
220
0
230
-1
40
0.524331
41
1.37821771487191
42
2.10446290644172
0
ELLIPSE
5
1A7
100
AcDbEntity
8
1
62
256
6
ByLayer
370
-1
48
1
60
0
100
AcDbEllipse
10
65.207192
20
-25.523847
30
0
11
0.818170151248933
21
-0.131189457360392
31
0
210
0
220
0
230
-1
40
0.044836
41
1.77816185911761
42
1.83731483832469
0
ELLIPSE
5
1A8
100
AcDbEntity
8
1
62
256
6
ByLayer
370
-1
48
1
60
0
100
AcDbEllipse
10
68.133544
20
-21.58375
30
0
11
1.37573526526031
21
1.02924238894164
31
0
210
0
220
0
230
-1
40
0.335956
41
-0.441116064350616
42
0.285129127223722
0
ELLIPSE
5
1A9
100
AcDbEntity
8
1
62
256
6
ByLayer
370
-1
48
1
60
0
100
AcDbEllipse
10
68.634719
20
-23.133355
30
0
11
0.520952256698403
21
0.950041988669948
31
0
210
0
220
0
230
-1
40
0.326553
41
0.768171075340967
42
0.827324064468741
0
ELLIPSE
5
1AA
100
AcDbEntity
8
1
62
256
6
ByLayer
370
-1
48
1
60
0
100
AcDbEllipse
10
68.798647
20
-19.691638
30
0
11
0.302226469931877
21
0.464491459542662
31
0
210
0
220
0
230
-1
40
0.899473
41
0.906817838142279
42
1.13009589872623
0
ELLIPSE
5
1AB
100
AcDbEntity
8
1
62
256
6
ByLayer
370
-1
48
1
60
0
100
AcDbEllipse
10
63.610975
20
-24.737967
30
0
11
0.896025289259183
21
0.152244425682303
31
0
210
0
220
0
230
-1
40
0.524331
41
2.22276885009094
42
2.94901404166421
0
ELLIPSE
5
1AC
100
AcDbEntity
8
1
62
256
6
ByLayer
370
-1
48
1
60
0
100
AcDbEllipse
10
67.814664
20
-23.380716
30
0
11
1.37573526527307
21
1.02924238894936
31
0
210
0
220
0
230
-1
40
0.335956
41
0.403435070872259
42
1.12968026244305
0
ELLIPSE
5
1AD
100
AcDbEntity
8
1
62
256
6
ByLayer
370
-1
48
1
60
0
100
AcDbEllipse
10
67.924906
20
-25.295581
30
0
11
0.00658410220058903
21
0.499956647718792
31
0
210
0
220
0
230
1
40
0.350312
41
-3.08373923919562
42
-2.99118786739806
0
ELLIPSE
5
1AE
100
AcDbEntity
8
1
62
256
6
ByLayer
370
-1
48
1
60
0
100
AcDbEllipse
10
68.953599
20
-21.336388
30
0
11
0.520951922280466
21
0.950041609620911
31
0
210
0
220
0
230
-1
40
0.326553
41
0.709018269595562
42
0.768171275436629
0
ELLIPSE
5
1AF
100
AcDbEntity
8
1
62
256
6
ByLayer
370
-1
48
1
60
0
100
AcDbEllipse
10
64.924303
20
-21.221278
30
0
11
2.0286381826278
21
0.29517304074823
31
0
210
0
220
0
230
1
40
0.992627
41
3.04697132632233
42
-2.92028738760107
0
ELLIPSE
5
1B0
100
AcDbEntity
8
1
62
256
6
ByLayer
370
-1
48
1
60
0
100
AcDbEllipse
10
60.756212
20
-24.175122
30
0
11
0.0219161537583617
21
-0.499519451277365
31
0
210
0
220
0
230
1
40
0.963035
41
-1.11720669111897
42
-0.220749068374083
0
ELLIPSE
5
1B1
100
AcDbEntity
8
1
62
256
6
ByLayer
370
-1
48
1
60
0
100
AcDbEllipse
10
65.034798
20
-25.906939
30
0
11
0.203083856199384
21
0.797391874324768
31
0
210
0
220
0
230
-1
40
0.971369
41
0.301693622314519
42
0.709475378485115
0
ELLIPSE
5
1B2
100
AcDbEntity
8
1
62
256
6
ByLayer
370
-1
48
1
60
0
100
AcDbEllipse
10
69.088293
20
-19.03202
30
0
11
-0.457807383495197
21
0.201028355256869
31
0
210
0
220
0
230
1
40
0.850612
41
-2.88181994116464
42
-2.6585418808689
0
ELLIPSE
5
1B3
100
AcDbEntity
8
1
62
256
6
ByLayer
370
-1
48
1
60
0
100
AcDbEllipse
10
69.057369
20
-18.026712
30
0
11
-0.358171573565241
21
0.348874080277969
31
0
210
0
220
0
230
1
40
0.941251
41
-2.33320064830284
42
-1.3273921300069
0
ELLIPSE
5
1B4
100
AcDbEntity
8
1
62
256
6
ByLayer
370
-1
48
1
60
0
100
AcDbEllipse
10
69.143331
20
-18.825583
30
0
11
-0.498678223381353
21
0.0363322105743339
31
0
210
0
220
0
230
1
40
0.297666
41
-2.9788058600635
42
-2.8828985261709
0
ELLIPSE
5
1B5
100
AcDbEntity
8
1
62
256
6
ByLayer
370
-1
48
1
60
0
100
AcDbEllipse
10
67.158558
20
-25.2799
30
0
11
0.0138817429952092
21
0.499807260062732
31
0
210
0
220
0
230
1
40
0.430392
41
-3.08138576530455
42
-2.98547843141193
0
ELLIPSE
5
1B6
100
AcDbEntity
8
1
62
256
6
ByLayer
370
-1
48
1
60
0
100
AcDbEllipse
10
63.398102
20
-25.21101
30
0
11
0.818169469990259
21
-0.131189364679498
31
0
210
0
220
0
230
-1
40
0.044836
41
1.83731458670159
42
1.89646761088236
0
ELLIPSE
5
1B7
100
AcDbEntity
8
1
62
256
6
ByLayer
370
-1
48
1
60
0
100
AcDbEllipse
10
63.225708
20
-25.594102
30
0
11
0.203083856115284
21
0.79739187434799
31
0
210
0
220
0
230
-1
40
0.971369
41
-0.861320948200059
42
-0.462032381098128
0
ELLIPSE
5
1B8
100
AcDbEntity
8
1
62
256
6
ByLayer
370
-1
48
1
60
0
100
AcDbEllipse
10
69.298838
20
-22.933031
30
0
11
0.821815626206156
21
-0.0986923576641926
31
0
210
0
220
0
230
-1
40
0.959964
41
2.41006058415739
42
2.80185180046776
0
ELLIPSE
5
1B9
100
AcDbEntity
8
1
62
256
6
ByLayer
370
-1
48
1
60
0
100
AcDbEllipse
10
67.849748
20
-25.038918
30
0
11
0.261862447641902
21
-0.446791440204741
31
0
210
0
220
0
230
-1
40
0.964628
41
-0.847211795266963
42
0.477255302288188
0
ELLIPSE
5
1BA
100
AcDbEntity
8
1
62
256
6
ByLayer
370
-1
48
1
60
0
100
AcDbEllipse
10
67.994133
20
-25.215685
30
0
11
0.387237975798588
21
0.316301675777117
31
0
210
0
220
0
230
1
40
0.984629
41
-2.20840918803948
42
-0.883942090499254
0
ELLIPSE
5
1BB
100
AcDbEntity
8
1
62
256
6
ByLayer
370
-1
48
1
60
0
100
AcDbEllipse
10
66.984718
20
-25.250817
30
0
11
0.154390416813874
21
0.475566608579743
31
0
210
0
220
0
230
1
40
0.92553
41
-2.98519509152559
42
-2.7619170312298
0
ELLIPSE
5
1BC
100
AcDbEntity
8
1
62
256
6
ByLayer
370
-1
48
1
60
0
100
AcDbEllipse
10
61.10788
20
-24.159693
30
0
11
0.475395377915297
21
0.212981289992129
31
0
210
0
220
0
230
-1
40
0.953369
41
2.18553763635358
42
3.00569301435976
0
ELLIPSE
5
1BD
100
AcDbEntity
8
1
62
256
6
ByLayer
370
-1
48
1
60
0
100
AcDbEllipse
10
69.298838
20
3.64694
30
0
11
0.827258205317283
21
-0.014994652923594
31
0
210
0
220
0
230
-1
40
0.054356
41
2.5238513555899
42
3.12722769382192
0
ELLIPSE
5
1BE
100
AcDbEntity
8
1
62
256
6
ByLayer
370
-1
48
1
60
0
100
AcDbEllipse
10
68.634719
20
6.357123
30
0
11
0.589552553712685
21
-5.7145020926377
31
0
210
0
220
0
230
-1
40
0.02479
41
-0.00476323288057804
42
0.0543897383138768
0
ELLIPSE
5
1BF
100
AcDbEntity
8
1
62
256
6
ByLayer
370
-1
48
1
60
0
100
AcDbEllipse
10
67.994133
20
2.280501
30
0
11
0.496813206165772
21
0.0563616729638664
31
0
210
0
220
0
230
1
40
0.198019
41
0.184148705986023
42
1.50861580352629
0
ELLIPSE
5
1C0
100
AcDbEntity
8
1
62
256
6
ByLayer
370
-1
48
1
60
0
100
AcDbEllipse
10
66.491236
20
3.574129
30
0
11
0.541921122196583
21
-0.0122193929164222
31
0
210
0
220
0
230
-1
40
0.053189
41
1.43712065436841
42
1.66039871409464
0
ELLIPSE
5
1C1
100
AcDbEntity
8
1
62
256
6
ByLayer
370
-1
48
1
60
0
100
AcDbEllipse
10
63.225708
20
3.602939
30
0
11
0.800742564572463
21
-0.0134492857867595
31
0
210
0
220
0
230
-1
40
0.058018
41
-2.17667169921552
42
-1.77738308766205
0
ELLIPSE
5
1C2
100
AcDbEntity
8
1
62
256
6
ByLayer
370
-1
48
1
60
0
100
AcDbEllipse
10
67.924906
20
1.742985
30
0
11
0.17450754865113
21
0.468558550731681
31
0
210
0
220
0
230
1
40
0.034732
41
1.36497962039038
42
1.457530992188
0
ELLIPSE
5
1C3
100
AcDbEntity
8
1
62
256
6
ByLayer
370
-1
48
1
60
0
100
AcDbEllipse
10
67.814664
20
9.70366
30
0
11
1.41140682099357
21
-9.06683845487751
31
0
210
0
220
0
230
-1
40
0.015653
41
0.0569756708534069
42
0.783220862434976
0
ELLIPSE
5
1C4
100
AcDbEntity
8
1
62
256
6
ByLayer
370
-1
48
1
60
0
100
AcDbEllipse
10
68.953599
20
6.453197
30
0
11
0.589552538757071
21
-5.71450194765278
31
0
210
0
220
0
230
-1
40
0.02479
41
-0.0639162048862496
42
-0.0047632329407336
0
ELLIPSE
5
1C5
100
AcDbEntity
8
1
62
256
6
ByLayer
370
-1
48
1
60
0
100
AcDbEllipse
10
66.984718
20
2.318879
30
0
11
0.465331943380622
21
0.182937646397928
31
0
210
0
220
0
230
1
40
0.17593
41
1.45942419784792
42
1.68270225814368
0
ELLIPSE
5
1C6
100
AcDbEntity
8
1
62
256
6
ByLayer
370
-1
48
1
60
0
100
AcDbEllipse
10
68.133544
20
9.799735
30
0
11
1.4114068210393
21
-9.0668384551772
31
0
210
0
220
0
230
-1
40
0.015653
41
-0.787575464365158
42
-0.0613302727966701
0
ELLIPSE
5
1C7
100
AcDbEntity
8
1
62
256
6
ByLayer
370
-1
48
1
60
0
100
AcDbEllipse
10
65.034798
20
3.553497
30
0
11
0.800742564579874
21
-0.0134492857862779
31
0
210
0
220
0
230
-1
40
0.058018
41
-1.0136562140861
42
-0.605875372419606
0
ELLIPSE
5
1C8
100
AcDbEntity
8
1
62
256
6
ByLayer
370
-1
48
1
60
0
100
AcDbEllipse
10
63.610975
20
9.700627
30
0
11
0.435799700382649
21
9.1071725739638
31
0
210
0
220
0
230
-1
40
0.086411
41
-3.08421074394397
42
-2.35796555237396
0
ELLIPSE
5
1C9
100
AcDbEntity
8
1
62
256
6
ByLayer
370
-1
48
1
60
0
100
AcDbEllipse
10
65.207192
20
6.282011
30
0
11
0.222398893679852
21
5.7321072279848
31
0
210
0
220
0
230
-1
40
0.137364
41
3.0808659290203
42
3.14001890104801
0
ELLIPSE
5
1CA
100
AcDbEntity
8
1
62
256
6
ByLayer
370
-1
48
1
60
0
100
AcDbEllipse
10
60.756212
20
2.466371
30
0
11
0.481452011846607
21
-0.134922052640979
31
0
210
0
220
0
230
1
40
0.073427
41
1.76659256486673
42
3.09105966240696
0
ELLIPSE
5
1CB
100
AcDbEntity
8
1
62
256
6
ByLayer
370
-1
48
1
60
0
100
AcDbEllipse
10
65.420065
20
9.651185
30
0
11
0.435799700378498
21
9.10717257397125
31
0
210
0
220
0
230
-1
40
0.086411
41
2.35442342801616
42
3.0806686195859
0
ELLIPSE
5
1CC
100
AcDbEntity
8
1
62
256
6
ByLayer
370
-1
48
1
60
0
100
AcDbEllipse
10
69.617718
20
3.743015
30
0
11
0.827258205334071
21
-0.0149946529239155
31
0
210
0
220
0
230
-1
40
0.054356
41
-2.58143366514768
42
-2.18853762479402
0
ELLIPSE
5
1CD
100
AcDbEntity
8
1
62
256
6
ByLayer
370
-1
48
1
60
0
100
AcDbEllipse
10
69.143331
20
2.397714
30
0
11
0.490869502901442
21
0.0951164082652978
31
0
210
0
220
0
230
1
40
0.93114
41
-0.0374045595412633
42
0.0585027743513428
0
ELLIPSE
5
1CE
100
AcDbEntity
8
1
62
256
6
ByLayer
370
-1
48
1
60
0
100
AcDbEllipse
10
67.849748
20
3.553218
30
0
11
0.504303460628811
21
-0.00979309406835728
31
0
210
0
220
0
230
-1
40
0.057533
41
0.17648787292998
42
1.5009549704866
0
ELLIPSE
5
1CF
100
AcDbEntity
8
1
62
256
6
ByLayer
370
-1
48
1
60
0
100
AcDbEllipse
10
61.10788
20
3.721256
30
0
11
0.516942750333057
21
-0.0080851232059701
31
0
210
0
220
0
230
-1
40
0.054761
41
1.7810180629859
42
3.10548516053894
0
ELLIPSE
5
1D0
100
AcDbEntity
8
1
62
256
6
ByLayer
370
-1
48
1
60
0
100
AcDbEllipse
10
63.398102
20
6.331453
30
0
11
0.222398896676584
21
5.7321073067681
31
0
210
0
220
0
230
-1
40
0.137364
41
3.14001890106019
42
-3.08401343449835
0
ELLIPSE
5
1D1
100
AcDbEntity
8
1
62
256
6
ByLayer
370
-1
48
1
60
0
100
AcDbEllipse
10
60.602411
20
1.941817
30
0
11
0.493919452137505
21
-0.0777404322099285
31
0
210
0
220
0
230
1
40
0.92249
41
3.01072078508952
42
3.10327215688723
0
ELLIPSE
5
1D2
100
AcDbEntity
8
1
62
256
6
ByLayer
370
-1
48
1
60
0
100
AcDbEllipse
10
67.158558
20
2.067363
30
0
11
0.214248977082388
21
0.451771375608449
31
0
210
0
220
0
230
1
40
0.052558
41
1.36874926240412
42
1.46465659629686
0
ELLIPSE
5
1D3
100
AcDbEntity
8
1
62
256
6
ByLayer
370
-1
48
1
60
0
100
AcDbEllipse
10
60.662467
20
2.292075
30
0
11
0.491850871279826
21
-0.0899039510882383
31
0
210
0
220
0
230
1
40
0.88526
41
3.0330685481388
42
3.12897588203141
0
ELLIPSE
5
1D4
100
AcDbEntity
8
1
62
256
6
ByLayer
370
-1
48
1
60
0
100
AcDbEllipse
10
68.798647
20
3.83911
30
0
11
0.515650598759872
21
-0.00612757782216453
31
0
210
0
220
0
230
-1
40
0.058768
41
-0.0384312466848234
42
0.184846813419221
0
ELLIPSE
5
1D5
100
AcDbEntity
8
1
62
256
6
ByLayer
370
-1
48
1
60
0
100
AcDbEllipse
10
68.749452
20
3.916287
30
0
11
0.516942750331918
21
-0.00808512320599201
31
0
210
0
220
0
230
-1
40
0.054761
41
-0.882607865573144
42
-0.0361074930509352
0
ELLIPSE
5
1D6
100
AcDbEntity
8
1
62
256
6
ByLayer
370
-1
48
1
60
0
100
AcDbEllipse
10
69.088293
20
2.633821
30
0
11
0.486159183581711
21
0.116829997086211
31
0
210
0
220
0
230
1
40
0.425989
41
-0.199709095744782
42
0.0235689645509916
0
ELLIPSE
5
1D7
100
AcDbEntity
8
1
62
256
6
ByLayer
370
-1
48
1
60
0
100
AcDbEllipse
10
64.897336
20
-21.035939
30
0
11
1.99692135725304
21
0.29055814595382
31
0
210
0
220
0
230
1
40
0.992627
41
-3.1397083369781
42
-3.00815423285125
0
ELLIPSE
5
1D8
100
AcDbEntity
8
1
62
256
6
ByLayer
370
-1
48
1
60
0
100
AcDbEllipse
10
64.994639
20
-21.704677
30
0
11
1.97915920256371
21
0.287973698290956
31
0
210
0
220
0
230
1
40
0.992627
41
2.99604564792405
42
0
0
ELLIPSE
5
1D9
100
AcDbEntity
8
1
62
256
6
ByLayer
370
-1
48
1
60
0
100
AcDbEllipse
10
64.994639
20
-21.704677
30
0
11
1.97915920256371
21
0.287973698290956
31
0
210
0
220
0
230
1
40
0.992627
41
2.63542247468968
42
2.99604514428919
0
ELLIPSE
5
1DA
100
AcDbEntity
8
1
62
256
6
ByLayer
370
-1
48
1
60
0
100
AcDbEllipse
10
64.924829
20
-21.224895
30
0
11
1.97915920256371
21
0.287973698290956
31
0
210
0
220
0
230
1
40
0.992627
41
3.01683160301826
42
3.14151359690963
0
ELLIPSE
5
1DB
100
AcDbEntity
8
1
62
256
6
ByLayer
370
-1
48
1
60
0
100
AcDbEllipse
10
65.00162
20
-21.752655
30
0
11
1.58332736205097
21
0.230378958632765
31
0
210
0
220
0
230
1
40
0.992627
41
2.99604539610662
42
0
0
ELLIPSE
5
1DC
100
AcDbEntity
8
1
62
256
6
ByLayer
370
-1
48
1
60
0
100
AcDbEllipse
10
65.00162
20
-21.752655
30
0
11
1.58332736205097
21
0.230378958632765
31
0
210
0
220
0
230
1
40
0.992627
41
0
42
0.814673569706424
0
ELLIPSE
5
1DD
100
AcDbEntity
8
1
62
256
6
ByLayer
370
-1
48
1
60
0
100
AcDbEllipse
10
65.00162
20
-21.752655
30
0
11
1.58332736205097
21
0.230378958632765
31
0
210
0
220
0
230
1
40
0.992627
41
1.85022071727891
42
2.99604539610662
0
ELLIPSE
5
1DE
100
AcDbEntity
8
1
62
256
6
ByLayer
370
-1
48
1
60
0
100
AcDbEllipse
10
64.853275
20
-0.49359
30
0
11
-1.7997249837839
21
0.0314639912287453
31
0
210
0
220
0
230
1
40
0.056161
41
0.212961080485471
42
2.9285740842214
0
ELLIPSE
5
1DF
100
AcDbEntity
8
1
62
256
6
ByLayer
370
-1
48
1
60
0
100
AcDbEllipse
10
64.853275
20
-0.49359
30
0
11
-1.7997249837839
21
0.0314639912287453
31
0
210
0
220
0
230
1
40
0.056161
41
0
42
6.28318530717959
0
ELLIPSE
5
1E0
100
AcDbEntity
8
1
62
256
6
ByLayer
370
-1
48
1
60
0
100
AcDbEllipse
10
64.853275
20
20.813177
30
0
11
-1.60987083298404
21
0.805180663644682
31
0
210
0
220
0
230
1
40
0.999239
41
0
42
6.28318530717959
0
ELLIPSE
5
1E1
100
AcDbEntity
8
1
62
256
6
ByLayer
370
-1
48
1
60
0
100
AcDbEllipse
10
64.858803
20
20.824231
30
0
11
-2.43716556660083
21
1.21895406023987
31
0
210
0
220
0
230
1
40
0.999239
41
0
42
6.28318530717959
0
ELLIPSE
5
1E2
100
AcDbEntity
8
1
62
256
6
ByLayer
370
-1
48
1
60
0
100
AcDbEllipse
10
64.875963
20
20.85854
30
0
11
-2.43716556660083
21
1.21895406023987
31
0
210
0
220
0
230
1
40
0.999239
41
-3.14157016176427
42
-2.67751857431257
0
ELLIPSE
5
1E3
100
AcDbEntity
8
1
62
256
6
ByLayer
370
-1
48
1
60
0
100
AcDbEllipse
10
64.875963
20
20.85854
30
0
11
-2.43716556660083
21
1.21895406023987
31
0
210
0
220
0
230
1
40
0.999239
41
-2.67751820711655
42
0
0
ELLIPSE
5
1E4
100
AcDbEntity
8
1
62
256
6
ByLayer
370
-1
48
1
60
0
100
AcDbEllipse
10
66.092324
20
19.411538
30
0
11
0.613539661903921
21
-0.306863297366797
31
0
210
0
220
0
230
1
40
0.999239
41
1.94694714814417
42
2.73093779176497
0
ELLIPSE
5
1E5
100
AcDbEntity
8
1
62
256
6
ByLayer
370
-1
48
1
60
0
100
AcDbEllipse
10
65.118442
20
19.500105
30
0
11
0.261156824017412
21
-0.1306181965468
31
0
210
0
220
0
230
1
40
0.999239
41
-2.23905250896091
42
-3.262674508445E-05
0
ELLIPSE
5
1E6
100
AcDbEntity
8
1
62
256
6
ByLayer
370
-1
48
1
60
0
100
AcDbEllipse
10
64.233345
20
19.085147
30
0
11
0.613539661903921
21
-0.306863297366797
31
0
210
0
220
0
230
1
40
0.999239
41
0.902540144628926
42
1.6865307882497
0
ELLIPSE
5
1E7
100
AcDbEntity
8
1
62
256
6
ByLayer
370
-1
48
1
60
0
100
AcDbEllipse
10
63.820151
20
19.971257
30
0
11
0.261156824017412
21
-0.1306181965468
31
0
210
0
220
0
230
1
40
0.999239
41
-3.14158651450677
42
-0.671071221719333
0
ELLIPSE
5
1E8
100
AcDbEntity
8
1
62
256
6
ByLayer
370
-1
48
1
60
0
100
AcDbEllipse
10
63.022478
20
20.537092
30
0
11
0.613539661903921
21
-0.306863297366797
31
0
210
0
220
0
230
1
40
0.999239
41
4.74946626780019E-06
42
0.5163239219956
0
ELLIPSE
5
1E9
100
AcDbEntity
8
1
62
256
6
ByLayer
370
-1
48
1
60
0
100
AcDbEllipse
10
63.578693
20
21.340635
30
0
11
0.261156824017412
21
-0.1306181965468
31
0
210
0
220
0
230
1
40
0.999239
41
-3.14156932093013
42
-1.71239335545612
0
ELLIPSE
5
1EA
100
AcDbEntity
8
1
62
256
6
ByLayer
370
-1
48
1
60
0
100
AcDbEllipse
10
64.637847
20
22.225698
30
0
11
0.261156824017412
21
-0.1306181965468
31
0
210
0
220
0
230
1
40
0.999239
41
3.14156111621512
42
-2.76825687179386
0
ELLIPSE
5
1EB
100
AcDbEntity
8
1
62
256
6
ByLayer
370
-1
48
1
60
0
100
AcDbEllipse
10
66.73381
20
21.188711
30
0
11
0.613539661903921
21
-0.306863297366797
31
0
210
0
220
0
230
1
40
0.999239
41
2.98826928188098
42
-3.14158736597505
0
ELLIPSE
5
1EC
100
AcDbEntity
8
1
62
256
6
ByLayer
370
-1
48
1
60
0
100
AcDbEllipse
10
66.177596
20
20.385167
30
0
11
0.261156824017412
21
-0.1306181965468
31
0
210
0
220
0
230
1
40
0.999239
41
-1.19464550544554
42
-0.136293966330185
0
ELLIPSE
5
1ED
100
AcDbEntity
8
1
62
256
6
ByLayer
370
-1
48
1
60
0
100
AcDbEllipse
10
64.878144
20
20.862901
30
0
11
1.07906064444181
21
-0.539694705937376
31
0
210
0
220
0
230
1
40
0.999239
41
-2.43462205696546
42
-1.45506186534006
0
ELLIPSE
5
1EE
100
AcDbEntity
8
1
62
256
6
ByLayer
370
-1
48
1
60
0
100
AcDbEllipse
10
64.85801
20
20.822646
30
0
11
-1.0790606444418
21
0.539694705937393
31
0
210
0
220
0
230
1
40
0.999239
41
0.568905329800641
42
0.70697059662431
0
ELLIPSE
5
1EF
100
AcDbEntity
8
1
62
256
6
ByLayer
370
-1
48
1
60
0
100
AcDbEllipse
10
64.853275
20
20.813177
30
0
11
-1.49941580638763
21
0.749936323666837
31
0
210
0
220
0
230
1
40
0.999239
41
1.16432728649212
42
2.20873429000737
0
ELLIPSE
5
1F0
100
AcDbEntity
8
1
62
256
6
ByLayer
370
-1
48
1
60
0
100
AcDbEllipse
10
66.092324
20
19.411538
30
0
11
0.613539661903921
21
-0.306863297366797
31
0
210
0
220
0
230
1
40
0.999239
41
2.73093779176497
42
3.14158914244382
0
ELLIPSE
5
1F1
100
AcDbEntity
8
1
62
256
6
ByLayer
370
-1
48
1
60
0
100
AcDbEllipse
10
64.853275
20
20.813177
30
0
11
-1.49941580638763
21
0.749936323666837
31
0
210
0
220
0
230
1
40
0.999239
41
2.20873429000737
42
-3.03004401365697
0
ELLIPSE
5
1F2
100
AcDbEntity
8
1
62
256
6
ByLayer
370
-1
48
1
60
0
100
AcDbEllipse
10
64.878144
20
20.862901
30
0
11
1.07906064444181
21
-0.539694705937376
31
0
210
0
220
0
230
1
40
0.999239
41
-1.45506186534006
42
-0.410654861824815
0
ELLIPSE
5
1F3
100
AcDbEntity
8
1
62
256
6
ByLayer
370
-1
48
1
60
0
100
AcDbEllipse
10
64.85801
20
20.822646
30
0
11
-1.0790606444418
21
0.539694705937393
31
0
210
0
220
0
230
1
40
0.999239
41
-2.57268732378931
42
-2.43462205696538
0
ELLIPSE
5
1F4
100
AcDbEntity
8
1
62
256
6
ByLayer
370
-1
48
1
60
0
100
AcDbEllipse
10
64.878144
20
20.862901
30
0
11
1.07906064444181
21
-0.539694705937376
31
0
210
0
220
0
230
1
40
0.999239
41
1.81137005842498
42
2.6824217141216
0
ELLIPSE
5
1F5
100
AcDbEntity
8
1
62
256
6
ByLayer
370
-1
48
1
60
0
100
AcDbEllipse
10
64.878144
20
20.862901
30
0
11
1.07906064444181
21
-0.539694705937376
31
0
210
0
220
0
230
1
40
0.999239
41
2.77803351684587
42
-2.57268732378921
0
ELLIPSE
5
1F6
100
AcDbEntity
8
1
62
256
6
ByLayer
370
-1
48
1
60
0
100
AcDbEllipse
10
64.853275
20
20.813177
30
0
11
-1.49941580638763
21
0.749936323666837
31
0
210
0
220
0
230
1
40
0.999239
41
-3.03004401365697
42
-1.97726536709769
0
ELLIPSE
5
1F7
100
AcDbEntity
8
1
62
256
6
ByLayer
370
-1
48
1
60
0
100
AcDbEllipse
10
63.663964
20
22.314264
30
0
11
0.613539661903921
21
-0.306863297366797
31
0
210
0
220
0
230
1
40
0.999239
41
-2.68038595865806E-06
42
0.373335781795993
0
ELLIPSE
5
1F8
100
AcDbEntity
8
1
62
256
6
ByLayer
370
-1
48
1
60
0
100
AcDbEllipse
10
64.853275
20
20.813177
30
0
11
-1.49941580638763
21
0.749936323666837
31
0
210
0
220
0
230
1
40
0.999239
41
0.111548639932837
42
1.16432728649212
0
ELLIPSE
5
1F9
100
AcDbEntity
8
1
62
256
6
ByLayer
370
-1
48
1
60
0
100
AcDbEllipse
10
64.878144
20
20.862901
30
0
11
-1.0790606444418
21
0.539694705937392
31
0
210
0
220
0
230
1
40
0.999239
41
0.568905329800594
42
0.706970596624345
0
ELLIPSE
5
1FA
100
AcDbEntity
8
1
62
256
6
ByLayer
370
-1
48
1
60
0
100
AcDbEllipse
10
64.233345
20
19.085147
30
0
11
0.613539661903921
21
-0.306863297366797
31
0
210
0
220
0
230
1
40
0.999239
41
1.6865307882497
42
2.47052143187051
0
ELLIPSE
5
1FB
100
AcDbEntity
8
1
62
256
6
ByLayer
370
-1
48
1
60
0
100
AcDbEllipse
10
64.853275
20
20.813177
30
0
11
-1.49941580638763
21
0.749936323666837
31
0
210
0
220
0
230
1
40
0.999239
41
-0.932858363582455
42
0.111548639932837
0
ELLIPSE
5
1FC
100
AcDbEntity
8
1
62
256
6
ByLayer
370
-1
48
1
60
0
100
AcDbEllipse
10
63.022478
20
20.537092
30
0
11
0.613539661903921
21
-0.306863297366797
31
0
210
0
220
0
230
1
40
0.999239
41
0.759552004429308
42
1.42919929813369
0
ELLIPSE
5
1FD
100
AcDbEntity
8
1
62
256
6
ByLayer
370
-1
48
1
60
0
100
AcDbEllipse
10
64.878144
20
20.862901
30
0
11
1.07906064444181
21
-0.539694705937376
31
0
210
0
220
0
230
1
40
0.999239
41
-0.410654861824815
42
0.489744902514888
0
ELLIPSE
5
1FE
100
AcDbEntity
8
1
62
256
6
ByLayer
370
-1
48
1
60
0
100
AcDbEllipse
10
64.853275
20
20.813177
30
0
11
-1.49941580638763
21
0.749936323666837
31
0
210
0
220
0
230
1
40
0.999239
41
-1.97726536709769
42
-0.932858363582455
0
ELLIPSE
5
1FF
100
AcDbEntity
8
1
62
256
6
ByLayer
370
-1
48
1
60
0
100
AcDbEllipse
10
64.878144
20
20.862901
30
0
11
-1.0790606444418
21
0.539694705937392
31
0
210
0
220
0
230
1
40
0.999239
41
-2.38884305561845
42
-1.56761924057316
0
ELLIPSE
5
200
100
AcDbEntity
8
1
62
256
6
ByLayer
370
-1
48
1
60
0
100
AcDbEllipse
10
64.880774
20
20.868158
30
0
11
2.43007774132991
21
-1.21540906784756
31
0
210
0
220
0
230
1
40
0.999239
41
0
42
6.28318530717959
0
ELLIPSE
5
201
100
AcDbEntity
8
1
62
256
6
ByLayer
370
-1
48
1
60
0
100
AcDbEllipse
10
64.858857
20
20.824338
30
0
11
2.50861719530649
21
-1.25469075950846
31
0
210
0
220
0
230
1
40
0.999239
41
0
42
6.28318530717959
0
POINT
5
42
100
AcDbEntity
8
80
62
256
6
ByLayer
370
-1
48
1
60
0
100
AcDbPoint
10
0
20
0
30
0
39
0
210
0
220
0
230
1
50
360
0
POINT
5
44
100
AcDbEntity
8
2
62
256
6
ByLayer
370
-1
48
1
60
0
100
AcDbPoint
10
70
20
25.96
30
0
39
0
210
0
220
0
230
1
50
360
0
POINT
5
46
100
AcDbEntity
8
81
62
256
6
ByLayer
370
-1
48
1
60
0
100
AcDbPoint
10
70
20
25.96
30
0
39
0
210
0
220
0
230
1
50
360
0
POINT
5
48
100
AcDbEntity
8
4
62
256
6
ByLayer
370
-1
48
1
60
0
100
AcDbPoint
10
60.545396
20
24.836547
30
0
39
0
210
0
220
0
230
1
50
360
0
POINT
5
4A
100
AcDbEntity
8
4
62
256
6
ByLayer
370
-1
48
1
60
0
100
AcDbPoint
10
59.71912
20
23.85697
30
0
39
0
210
0
220
0
230
1
50
360
0
POINT
5
4B
100
AcDbEntity
8
4
62
256
6
ByLayer
370
-1
48
1
60
0
100
AcDbPoint
10
60.545396
20
24.836547
30
0
39
0
210
0
220
0
230
1
50
360
0
POINT
5
4C
100
AcDbEntity
8
4
62
256
6
ByLayer
370
-1
48
1
60
0
100
AcDbPoint
10
60.840797
20
24.888412
30
0
39
0
210
0
220
0
230
1
50
360
0
POINT
5
4D
100
AcDbEntity
8
4
62
256
6
ByLayer
370
-1
48
1
60
0
100
AcDbPoint
10
60.546166
20
24.838085
30
0
39
0
210
0
220
0
230
1
50
360
0
POINT
5
4E
100
AcDbEntity
8
4
62
256
6
ByLayer
370
-1
48
1
60
0
100
AcDbPoint
10
59.71912
20
23.85697
30
0
39
0
210
0
220
0
230
1
50
360
0
POINT
5
4F
100
AcDbEntity
8
4
62
256
6
ByLayer
370
-1
48
1
60
0
100
AcDbPoint
10
59.719889
20
23.858509
30
0
39
0
210
0
220
0
230
1
50
360
0
POINT
5
50
100
AcDbEntity
8
4
62
256
6
ByLayer
370
-1
48
1
60
0
100
AcDbPoint
10
59.71912
20
23.85697
30
0
39
0
210
0
220
0
230
1
50
360
0
POINT
5
51
100
AcDbEntity
8
4
62
256
6
ByLayer
370
-1
48
1
60
0
100
AcDbPoint
10
59.719102
20
23.557152
30
0
39
0
210
0
220
0
230
1
50
360
0
POINT
5
52
100
AcDbEntity
8
4
62
256
6
ByLayer
370
-1
48
1
60
0
100
AcDbPoint
10
59.71912
20
23.85697
30
0
39
0
210
0
220
0
230
1
50
360
0
POINT
5
53
100
AcDbEntity
8
4
62
256
6
ByLayer
370
-1
48
1
60
0
100
AcDbPoint
10
59.969083
20
23.856802
30
0
39
0
210
0
220
0
230
1
50
360
0
POINT
5
54
100
AcDbEntity
8
4
62
256
6
ByLayer
370
-1
48
1
60
0
100
AcDbPoint
10
60.545396
20
24.836547
30
0
39
0
210
0
220
0
230
1
50
360
0
POINT
5
55
100
AcDbEntity
8
4
62
256
6
ByLayer
370
-1
48
1
60
0
100
AcDbPoint
10
60.545396
20
24.836547
30
0
39
0
210
0
220
0
230
1
50
360
0
POINT
5
56
100
AcDbEntity
8
4
62
256
6
ByLayer
370
-1
48
1
60
0
100
AcDbPoint
10
60.588787
20
24.590466
30
0
39
0
210
0
220
0
230
1
50
360
0
SPLINE
5
202
100
AcDbEntity
8
1
62
256
6
ByLayer
370
-1
48
1
60
0
100
AcDbSpline
70
4
71
1
72
4
73
2
40
0
40
0
40
1
40
1
41
1
10
68.5962508841333
20
-0.485606646575121
30
6E-16
41
1
10
68.8305142161112
20
-0.450541630307839
30
7E-16
0
SPLINE
5
203
100
AcDbEntity
8
1
62
256
6
ByLayer
370
-1
48
1
60
0
100
AcDbSpline
70
4
71
1
72
4
73
2
40
0
40
0
40
1
40
1
41
1
10
59.7784730261532
20
-0.23074396998274
30
1E-16
41
1
10
60.0099774759695
20
-0.273571839454178
30
1E-16
0
SPLINE
5
204
100
AcDbEntity
8
1
62
256
6
ByLayer
370
-1
48
1
60
0
100
AcDbSpline
70
4
71
3
72
12
73
8
40
0
40
0
40
0
40
0
40
0.338200331404202
40
0.747124206109177
40
0.96297890796137
40
0.998776416567149
40
1
40
1
40
1
40
1
41
1
10
60.2310124184499
20
2.62883445030658
30
1E-16
41
1
10
60.2226815096013
20
2.59790049092984
30
1E-16
41
1
10
60.2054471411246
20
2.53219610634582
30
1E-16
41
1
10
60.1858255129428
20
2.45354924308774
30
1E-16
41
1
10
60.1750497229293
20
2.40542410455407
30
1E-16
41
1
10
60.171264321676
20
2.38551326645805
30
1E-16
41
1
10
60.1707192631654
20
2.38254152399921
30
1E-16
41
1
10
60.1707012574432
20
2.38244325624521
30
1E-16
0
SPLINE
5
205
100
AcDbEntity
8
1
62
256
6
ByLayer
370
-1
48
1
60
0
100
AcDbSpline
70
4
71
1
72
4
73
2
40
0
40
0
40
1
40
1
41
1
10
60.243223227526
20
2.67527478247934
30
1E-16
41
1
10
60.2310124184499
20
2.62883445030658
30
1E-16
0
SPLINE
5
206
100
AcDbEntity
8
1
62
256
6
ByLayer
370
-1
48
1
60
0
100
AcDbSpline
70
4
71
1
72
4
73
2
40
0
40
0
40
1
40
1
41
1
10
60.172644198945
20
2.39266958284006
30
1E-16
41
1
10
59.8597342398745
20
0.785516132705681
30
1E-16
0
SPLINE
5
207
100
AcDbEntity
8
1
62
256
6
ByLayer
370
-1
48
1
60
0
100
AcDbSpline
70
4
71
3
72
10
73
6
40
0
40
0
40
0
40
0
40
0.0281798453751288
40
0.698895865871791
40
1
40
1
40
1
40
1
41
1
10
62.9877912757365
20
-21.8076378929752
30
0
41
1
10
62.9863404395575
20
-21.8038732120612
30
0
41
1
10
62.9506298218673
20
-21.7103971933663
30
0
41
1
10
62.9091885259484
20
-21.5729007768139
30
1E-16
41
1
10
62.8851275592372
20
-21.4364417229494
30
1E-16
41
1
10
62.8791704915445
20
-21.3938483645594
30
1E-16
0
SPLINE
5
208
100
AcDbEntity
8
SK1
62
256
6
ByLayer
370
-1
48
1
60
0
100
AcDbSpline
70
4
71
2
72
6
73
3
40
0
40
0
40
0
40
1
40
1
40
1
41
1
10
-2.19492113517947
20
17.5202263833814
30
-1E-16
41
1
10
-2.59746056758974
20
17.5101131917171
30
-2E-16
41
1
10
-3
20
17.5000000000527
30
-2E-16
0
SPLINE
5
209
100
AcDbEntity
8
SK1
62
256
6
ByLayer
370
-1
48
1
60
0
100
AcDbSpline
70
4
71
2
72
6
73
3
40
0
40
0
40
0
40
1
40
1
40
1
41
1
10
-3
20
-17.5000000000204
30
-2E-16
41
1
10
-2.59746056758974
20
-17.5101131916847
30
-2E-16
41
1
10
-2.19492113517947
20
-17.5202263833491
30
-1E-16
0
SPLINE
5
20A
100
AcDbEntity
8
SK1
62
256
6
ByLayer
370
-1
48
1
60
0
100
AcDbSpline
70
4
71
2
72
6
73
3
40
0
40
0
40
0
40
1
40
1
40
1
41
1
10
-3
20
17.5000000000527
30
-2E-16
41
1
10
-15.7502365839533
20
17.1796696772131
30
-1E-16
41
1
10
-28.5004731679065
20
16.8593393543736
30
0
0
SPLINE
5
20B
100
AcDbEntity
8
SK1
62
256
6
ByLayer
370
-1
48
1
60
0
100
AcDbSpline
70
4
71
2
72
6
73
3
40
0
40
0
40
0
40
1
40
1
40
1
41
1
10
-28.5004731679065
20
-16.8593393543424
30
0
41
1
10
-15.7502365839533
20
-17.1796696771814
30
-1E-16
41
1
10
-3
20
-17.5000000000204
30
-2E-16
0
SPLINE
5
20C
100
AcDbEntity
8
SK1
62
256
6
ByLayer
370
-1
48
1
60
0
100
AcDbSpline
70
4
71
3
72
13
73
9
40
0
40
0
40
0
40
0
40
0.239468143101079
40
0.368375717557468
40
0.500016413682615
40
0.631654380070995
40
0.76055442752932
40
1
40
1
40
1
40
1
41
1
10
-2
20
17.3251501409626
30
-1E-16
41
1
10
-2.02607195862896
20
17.3254032171872
30
-1E-16
41
1
10
-2.06363514911806
20
17.3325204701499
30
-1E-16
41
1
10
-2.11047805080222
20
17.3567460306058
30
-1E-16
41
1
10
-2.14242236455522
20
17.382721349279
30
-1E-16
41
1
10
-2.16840047419731
20
17.414662371353
30
-1E-16
41
1
10
-2.19262861856618
20
17.4615002450208
30
-1E-16
41
1
10
-2.19974657466872
20
17.4990601036781
30
-1E-16
41
1
10
-2.19999999999999
20
17.5251299249899
30
-1E-16
0
SPLINE
5
20D
100
AcDbEntity
8
SK1
62
256
6
ByLayer
370
-1
48
1
60
0
100
AcDbSpline
70
4
71
3
72
13
73
9
40
0
40
0
40
0
40
0
40
0.239445575724629
40
0.36834562484808
40
0.499983592440217
40
0.631624288955059
40
0.760531862675218
40
1
40
1
40
1
40
1
41
1
10
-2.19999999999999
20
-17.5251299251292
30
-1E-16
41
1
10
-2.1997465746748
20
-17.4990601038703
30
-1E-16
41
1
10
-2.19262861856453
20
-17.4615002452731
30
-1E-16
41
1
10
-2.16840047423858
20
-17.4146623717452
30
-1E-16
41
1
10
-2.14242236464554
20
-17.38272134974
30
-1E-16
41
1
10
-2.11047805094364
20
-17.3567460311215
30
-1E-16
41
1
10
-2.06363514965125
20
-17.3325204707743
30
-1E-16
41
1
10
-2.02607195888453
20
-17.3254032177991
30
-1E-16
41
1
10
-2
20
-17.3251501414069
30
-1E-16
0
SPLINE
5
20E
100
AcDbEntity
8
SK1
62
256
6
ByLayer
370
-1
48
1
60
0
100
AcDbSpline
70
4
71
2
72
6
73
3
40
0
40
0
40
0
40
1
40
1
40
1
41
1
10
-0.400000000000034
20
17.3251501409626
30
0
41
1
10
-1.19999999999999
20
17.3251501409626
30
-1E-16
41
1
10
-2
20
17.3251501409626
30
-1E-16
0
SPLINE
5
20F
100
AcDbEntity
8
SK1
62
256
6
ByLayer
370
-1
48
1
60
0
100
AcDbSpline
70
4
71
2
72
6
73
3
40
0
40
0
40
0
40
1
40
1
40
1
41
1
10
-2
20
-17.3251501414068
30
-1E-16
41
1
10
-1.19999999999999
20
-17.3251501414068
30
-1E-16
41
1
10
-0.400000000000034
20
-17.3251501414068
30
0
0
SPLINE
5
210
100
AcDbEntity
8
SK1
62
256
6
ByLayer
370
-1
48
1
60
0
100
AcDbSpline
70
4
71
2
72
6
73
3
40
0
40
0
40
0
40
1
40
1
40
1
41
1
10
-28.5003904504266
20
16.8597456617469
30
0
41
1
10
-29.2501952787077
20
16.4010253845872
30
0
41
1
10
-30
20
15.9423013487186
30
-1E-16
0
SPLINE
5
211
100
AcDbEntity
8
SK1
62
256
6
ByLayer
370
-1
48
1
60
0
100
AcDbSpline
70
4
71
2
72
6
73
3
40
0
40
0
40
0
40
1
40
1
40
1
41
1
10
-30
20
-15.9408160639395
30
-1E-16
41
1
10
-29.2502016135251
20
-16.3993636736336
30
0
41
1
10
-28.5004032853135
20
-16.8579102610953
30
0
0
SPLINE
5
212
100
AcDbEntity
8
SK1
62
256
6
ByLayer
370
-1
48
1
60
0
100
AcDbSpline
70
4
71
3
72
11
73
7
40
0
40
0
40
0
40
0
40
0.245755007744082
40
0.501794198211016
40
0.7569538702584
40
1
40
1
40
1
40
1
41
1
10
-0.199999999999989
20
17.5191731511753
30
0
41
1
10
-0.199994647676419
20
17.493844966999
30
0
41
1
10
-0.20935024226452
20
17.4456228534321
30
0
41
1
10
-0.254178184246655
20
17.3766360753193
30
0
41
1
10
-0.324420736760771
20
17.33275982811
30
0
41
1
10
-0.373991067023667
20
17.3239685556464
30
0
41
1
10
-0.400000000000034
20
17.3241476526065
30
0
0
SPLINE
5
213
100
AcDbEntity
8
SK1
62
256
6
ByLayer
370
-1
48
1
60
0
100
AcDbSpline
70
4
71
3
72
11
73
7
40
0
40
0
40
0
40
0
40
0.243046950855206
40
0.49820466819262
40
0.754242469704742
40
1
40
1
40
1
40
1
41
1
10
-0.400000000000034
20
-17.3241468641747
30
0
41
1
10
-0.373991174653781
20
-17.323967489369
30
0
41
1
10
-0.324421202647557
20
-17.332758304075
30
0
41
1
10
-0.254178044541106
20
-17.3766339294131
30
0
41
1
10
-0.209350044376038
20
-17.4456203921356
30
0
41
1
10
-0.199994500672233
20
-17.4938412312525
30
0
41
1
10
-0.199999999999989
20
-17.5191688355708
30
0
0
SPLINE
5
214
100
AcDbEntity
8
1
62
256
6
ByLayer
370
-1
48
1
60
0
100
AcDbSpline
70
4
71
3
72
12
73
8
40
0
40
0
40
0
40
0
40
0.284825177814581
40
0.508754830138726
40
0.703902922154057
40
0.877915566857249
40
1
40
1
40
1
40
1
41
1
10
68.2038254358194
20
13.763578022633
30
6E-16
41
1
10
68.1568466964489
20
13.9558308234857
30
6E-16
41
1
10
68.0732757742006
20
14.2998290673752
30
6E-16
41
1
10
67.9589058259228
20
14.7766716379145
30
6E-16
41
1
10
67.8624806980663
20
15.18038401284
30
6E-16
41
1
10
67.782714222156
20
15.5167068586013
30
6E-16
41
1
10
67.7349935788464
20
15.7192218727886
30
6E-16
41
1
10
67.7153592162653
20
15.8027584423169
30
6E-16
0
SPLINE
5
215
100
AcDbEntity
8
1
62
256
6
ByLayer
370
-1
48
1
60
0
100
AcDbSpline
70
4
71
1
72
4
73
2
40
0
40
0
40
1
40
1
41
1
10
69.9483229581888
20
0.383892067206261
30
7E-16
41
1
10
69.9935775720062
20
0.812654435732497
30
7E-16
0
SPLINE
5
216
100
AcDbEntity
8
1
62
256
6
ByLayer
370
-1
48
1
60
0
100
AcDbSpline
70
4
71
1
72
4
73
2
40
0
40
0
40
1
40
1
41
1
10
69.686442417513
20
-1.4426078503374
30
7E-16
41
1
10
69.8874164442515
20
-0.180089812457339
30
7E-16
0
SPLINE
5
217
100
AcDbEntity
8
1
62
256
6
ByLayer
370
-1
48
1
60
0
100
AcDbSpline
70
4
71
3
72
8
73
4
40
0
40
0
40
0
40
0
40
1
40
1
40
1
40
1
41
1
10
69.9940478238184
20
17.7932367739704
30
0
41
1
10
69.99573152786
20
17.880351965726
30
0
41
1
10
69.9972836988052
20
17.967466077241
30
0
41
1
10
69.9987043547472
20
18.054578517518
30
0
0
SPLINE
5
218
100
AcDbEntity
8
1
62
256
6
ByLayer
370
-1
48
1
60
0
100
AcDbSpline
70
4
71
3
72
8
73
4
40
0
40
0
40
0
40
0
40
1
40
1
40
1
40
1
41
1
10
59.845358233086
20
24.3638290168914
30
1E-16
41
1
10
59.8427298294507
20
24.3650735907705
30
1E-16
41
1
10
59.8401026430833
20
24.3663096311674
30
1E-16
41
1
10
59.8374766781858
20
24.3675371323459
30
1E-16
0
SPLINE
5
219
100
AcDbEntity
8
1
62
256
6
ByLayer
370
-1
48
1
60
0
100
AcDbSpline
70
4
71
3
72
8
73
4
40
0
40
0
40
0
40
0
40
1
40
1
40
1
40
1
41
1
10
61.5101907607047
20
3.69302373521086
30
2E-16
41
1
10
63.3640532729307
20
3.6422828158276
30
3E-16
41
1
10
65.218020420831
20
3.59157326188355
30
4E-16
41
1
10
67.0720799249316
20
3.54089154767016
30
6E-16
0
SPLINE
5
21A
100
AcDbEntity
8
1
62
256
6
ByLayer
370
-1
48
1
60
0
100
AcDbSpline
70
4
71
3
72
8
73
4
40
0
40
0
40
0
40
0
40
1
40
1
40
1
40
1
41
1
10
66.8734787934756
20
-18.6901202744216
30
5E-16
41
1
10
66.9561489547386
20
-17.3322891688602
30
5E-16
41
1
10
67.0188061801674
20
-15.9727275212963
30
6E-16
41
1
10
67.0533290653079
20
-14.6123124816101
30
6E-16
0
SPLINE
5
21B
100
AcDbEntity
8
1
62
256
6
ByLayer
370
-1
48
1
60
0
100
AcDbSpline
70
4
71
3
72
8
73
4
40
0
40
0
40
0
40
0
40
1
40
1
40
1
40
1
41
1
10
61.9663279614817
20
18.5340909329975
30
2E-16
41
1
10
61.8143763759204
20
18.5063905892493
30
2E-16
41
1
10
61.6623210189989
20
18.4794906647249
30
2E-16
41
1
10
61.5101907607047
20
18.4533988697542
30
2E-16
0
SPLINE
5
21C
100
AcDbEntity
8
1
62
256
6
ByLayer
370
-1
48
1
60
0
100
AcDbSpline
70
4
71
3
72
8
73
4
40
0
40
0
40
0
40
0
40
1
40
1
40
1
40
1
41
1
10
68.2233920071826
20
-24.6814309850392
30
0
41
1
10
68.5036008613621
20
-23.1119202611677
30
2E-16
41
1
10
68.7828402778382
20
-21.5422398501284
30
2E-16
41
1
10
69.0602385568427
20
-19.9722426769394
30
-2E-16
0
SPLINE
5
21D
100
AcDbEntity
8
1
62
256
6
ByLayer
370
-1
48
1
60
0
100
AcDbSpline
70
4
71
3
72
12
73
8
40
0
40
0
40
0
40
0
40
0.380280494608863
40
0.380280494608863
40
0.761215115607837
40
0.761215115607837
40
1
40
1
40
1
40
1
41
1
10
69.2793285962245
20
-4.61224535943799
30
7E-16
41
1
10
69.2383531662054
20
-4.5268841689327
30
7E-16
41
1
10
69.2009504944261
20
-4.39593173564634
30
7E-16
41
1
10
69.138528574916
20
-4.0639468536996
30
7E-16
41
1
10
69.1126527881065
20
-3.85820132250029
30
7E-16
41
1
10
69.0821652868194
20
-3.48670281685361
30
7E-16
41
1
10
69.0730108046683
20
-3.33237053747726
30
7E-16
41
1
10
69.0666654163603
20
-3.17209000753712
30
7E-16
0
SPLINE
5
21E
100
AcDbEntity
8
1
62
256
6
ByLayer
370
-1
48
1
60
0
100
AcDbSpline
70
4
71
3
72
16
73
12
40
0
40
0
40
0
40
0
40
0.0773436766578125
40
0.0773436766578125
40
0.181588290672542
40
0.181588290672542
40
0.353924998169895
40
0.353924998169895
40
0.659870482235859
40
0.659870482235859
40
1
40
1
40
1
40
1
41
1
10
8.53867513459483
20
-7.52966679426501
30
5E-16
41
1
10
8.51930872656192
20
-7.52966679426501
30
5E-16
41
1
10
8.49980795201662
20
-7.53205286469702
30
5E-16
41
1
10
8.45563565444411
20
-7.54265601007379
30
5E-16
41
1
10
8.43110003395827
20
-7.55272636772355
30
5E-16
41
1
10
8.37136994789256
20
-7.58609718460599
30
5E-16
41
1
10
8.33841285721002
20
-7.61407037421819
30
5E-16
41
1
10
8.25926399475679
20
-7.69895209889248
30
5E-16
41
1
10
8.22011072567562
20
-7.76300791758402
30
5E-16
41
1
10
8.15317557860794
20
-7.90167589305835
30
5E-16
41
1
10
8.12652521949877
20
-7.97837348437849
30
5E-16
41
1
10
8.10566243270262
20
-8.05584836782774
30
5E-16
0
SPLINE
5
21F
100
AcDbEntity
8
1
62
256
6
ByLayer
370
-1
48
1
60
0
100
AcDbSpline
70
4
71
3
72
8
73
4
40
0
40
0
40
0
40
0
40
1
40
1
40
1
40
1
41
1
10
41.720792692346
20
-12.297717968524
30
-1E-15
41
1
10
39.121973704517
20
-10.2929069981018
30
-1.2E-15
41
1
10
37.0653458617368
20
-7.69470381668214
30
-1.3E-15
41
1
10
35.6831711187232
20
-4.62104596420954
30
-1.4E-15
0
SPLINE
5
220
100
AcDbEntity
8
1
62
256
6
ByLayer
370
-1
48
1
60
0
100
AcDbSpline
70
4
71
3
72
8
73
4
40
0
40
0
40
0
40
0
40
1
40
1
40
1
40
1
41
1
10
59.8374766781856
20
-16.6750634216294
30
1E-16
41
1
10
60.3972094233884
20
-16.6525175073872
30
1E-16
41
1
10
60.9587121637095
20
-16.6596521206029
30
2E-16
41
1
10
61.5101907607048
20
-16.6959218987114
30
2E-16
0
SPLINE
5
221
100
AcDbEntity
8
1
62
256
6
ByLayer
370
-1
48
1
60
0
100
AcDbSpline
70
4
71
3
72
8
73
4
40
0
40
0
40
0
40
0
40
1
40
1
40
1
40
1
41
1
10
67.9756856157629
20
-8.45011960583571
30
6E-16
41
1
10
67.8216048502799
20
-7.51129959598615
30
6E-16
41
1
10
67.6705725776508
20
-6.5718908847052
30
6E-16
41
1
10
67.5252842301293
20
-5.63143740005594
30
6E-16
0
SPLINE
5
222
100
AcDbEntity
8
1
62
256
6
ByLayer
370
-1
48
1
60
0
100
AcDbSpline
70
4
71
3
72
8
73
4
40
0
40
0
40
0
40
0
40
1
40
1
40
1
40
1
41
1
10
67.0720799249316
20
17.1114178657522
30
6E-16
41
1
10
67.0406512527351
20
17.3492714200884
30
6E-16
41
1
10
67.0094444248569
20
17.5829894840735
30
6E-16
41
1
10
66.9780632253704
20
17.8122387382512
30
5E-16
0
SPLINE
5
223
100
AcDbEntity
8
1
62
256
6
ByLayer
370
-1
48
1
60
0
100
AcDbSpline
70
4
71
3
72
8
73
4
40
0
40
0
40
0
40
0
40
1
40
1
40
1
40
1
41
1
10
61.5101907607047
20
-24.5339155458882
30
2E-16
41
1
10
60.9897831877753
20
-24.4435511785904
30
2E-16
41
1
10
60.4602006390325
20
-24.3948421852369
30
1E-16
41
1
10
59.9317522133074
20
-24.3889493065872
30
1E-16
0
SPLINE
5
224
100
AcDbEntity
8
1
62
256
6
ByLayer
370
-1
48
1
60
0
100
AcDbSpline
70
4
71
3
72
18
73
14
40
0
40
0
40
0
40
0
40
0.0809805960320801
40
0.0809805960320801
40
0.544227292214068
40
0.544227292214068
40
0.699318265621658
40
0.699318265621658
40
0.856346274356475
40
0.856346274356475
40
0.966571999538822
40
0.966571999538822
40
1
40
1
40
1
40
1
41
1
10
8.10566243270262
20
-23.6665017920809
30
5E-16
41
1
10
8.11065289887432
20
-23.672810013698
30
5E-16
41
1
10
8.11597900857612
20
-23.6790700603507
30
5E-16
41
1
10
8.15400172089505
20
-23.7205303134149
30
-4E-16
41
1
10
8.1977744361825
20
-23.7548029562659
30
-4E-16
41
1
10
8.28487257800725
20
-23.7938243006291
30
-4E-16
41
1
10
8.30967508046024
20
-23.8031592998669
30
-4E-16
41
1
10
8.36604668219428
20
-23.8196134016841
30
-4E-16
41
1
10
8.3983775068167
20
-23.8268687494612
30
-4E-16
41
1
10
8.45889576423616
20
-23.8353793525422
30
-4E-16
41
1
10
8.48604318765894
20
-23.8378105604685
30
-4E-16
41
1
10
8.52183069664625
20
-23.8389905264494
30
-4E-16
41
1
10
8.53025906116034
20
-23.8391299750503
30
-4E-16
41
1
10
8.53867513459483
20
-23.8391299750503
30
-4E-16
0
SPLINE
5
225
100
AcDbEntity
8
1
62
256
6
ByLayer
370
-1
48
1
60
0
100
AcDbSpline
70
4
71
3
72
24
73
20
40
0
40
0
40
0
40
0
40
0.506265462433286
40
0.506265462433286
40
0.67460117026223
40
0.67460117026223
40
0.784957018177794
40
0.784957018177794
40
0.858225198850636
40
0.858225198850636
40
0.90761262702812
40
0.90761262702812
40
0.955844436186029
40
0.955844436186029
40
0.975513680762715
40
0.975513680762715
40
0.991347483565987
40
0.991347483565987
40
1
40
1
40
1
40
1
41
1
10
68.9414120032949
20
9.82878375954564
30
7E-16
41
1
10
69.0216873717953
20
9.3145289847115
30
7E-16
41
1
10
69.0977508590323
20
8.78633654643784
30
7E-16
41
1
10
69.1882973102163
20
8.08353872141879
30
7E-16
41
1
10
69.2097012616617
20
7.9080276067647
30
7E-16
41
1
10
69.24234359401
20
7.62143531585164
30
7E-16
41
1
10
69.2544998736572
20
7.50882289761606
30
7E-16
41
1
10
69.2723489091036
20
7.32605445440529
30
7E-16
41
1
10
69.2788997322568
20
7.25436752158225
30
7E-16
41
1
10
69.2878637683776
20
7.13936383000436
30
7E-16
41
1
10
69.2909466004859
20
7.09429692267989
30
7E-16
41
1
10
69.2949733099172
20
7.01129231243993
30
7E-16
41
1
10
69.2961101121401
20
6.97231245231399
30
7E-16
41
1
10
69.2940813063182
20
6.93040573852704
30
7E-16
41
1
10
69.2930286314188
20
6.91977792357528
30
7E-16
41
1
10
69.2896585119903
20
6.90693858264532
30
7E-16
41
1
10
69.2875808653119
20
6.90345872692069
30
7E-16
41
1
10
69.2831750865475
20
6.90443431443157
30
7E-16
41
1
10
69.2813573996605
20
6.90605109985299
30
7E-16
41
1
10
69.2793285962245
20
6.90909016974496
30
7E-16
0
SPLINE
5
226
100
AcDbEntity
8
1
62
256
6
ByLayer
370
-1
48
1
60
0
100
AcDbSpline
70
4
71
3
72
8
73
4
40
0
40
0
40
0
40
0
40
1
40
1
40
1
40
1
41
1
10
59.9317522133075
20
3.72892097768755
30
1E-16
41
1
10
59.8991331781292
20
3.12720411388204
30
1E-16
41
1
10
59.8702865795903
20
2.52143778736107
30
1E-16
41
1
10
59.8453582330861
20
1.91416611644237
30
1E-16
0
SPLINE
5
227
100
AcDbEntity
8
1
62
256
6
ByLayer
370
-1
48
1
60
0
100
AcDbSpline
70
4
71
3
72
8
73
4
40
0
40
0
40
0
40
0
40
1
40
1
40
1
40
1
41
1
10
59.845358233086
20
1.91416611644237
30
1E-16
41
1
10
59.8427298294507
20
1.90166090499218
30
1E-16
41
1
10
59.8401026430832
20
1.88915476521819
30
1E-16
41
1
10
59.8374766781857
20
1.87664771394847
30
1E-16
0
SPLINE
5
228
100
AcDbEntity
8
1
62
256
6
ByLayer
370
-1
48
1
60
0
100
AcDbSpline
70
4
71
3
72
12
73
8
40
0
40
0
40
0
40
0
40
0.499999999999999
40
0.499999999999999
40
0.75
40
0.75
40
1
40
1
40
1
40
1
41
1
10
40.2057545707954
20
0.462605946855575
30
-1.1E-15
41
1
10
38.835279171786
20
0.493437860409017
30
-1.2E-15
41
1
10
37.4419297752905
20
0.0564942994893727
30
-1.3E-15
41
1
10
35.9745807798798
20
-1.35988582719838
30
-1.3E-15
41
1
10
35.606703745198
20
-1.96053771084783
30
-1.4E-15
41
1
10
35.314295381479
20
-3.29423697506365
30
-1.4E-15
41
1
10
35.4021886613753
20
-3.99620171727162
30
-1.4E-15
41
1
10
35.6831711187234
20
-4.62104596420949
30
-1.4E-15
0
SPLINE
5
229
100
AcDbEntity
8
1
62
256
6
ByLayer
370
-1
48
1
60
0
100
AcDbSpline
70
4
71
3
72
16
73
12
40
0
40
0
40
0
40
0
40
0.143857404558717
40
0.143857404558717
40
0.388254872047181
40
0.388254872047181
40
0.633397678335881
40
0.633397678335881
40
0.879021967317775
40
0.879021967317775
40
1
40
1
40
1
40
1
41
1
10
68.0509126365009
20
16.6127731043091
30
2E-16
41
1
10
68.0398996028507
20
16.5287834634301
30
2E-16
41
1
10
68.0303178630733
20
16.452449716709
30
2E-16
41
1
10
68.0092901752566
20
16.2734498045513
30
2E-16
41
1
10
68.0008679210417
20
16.1865503635964
30
2E-16
41
1
10
67.9952851613077
20
16.0781428201292
30
2E-16
41
1
10
67.9980843364911
20
16.0553318009834
30
2E-16
41
1
10
68.0143370562863
20
16.0765624555065
30
2E-16
41
1
10
68.0280307954761
20
16.121045969415
30
-3E-16
41
1
10
68.0548660639078
20
16.2332118090975
30
-3E-16
41
1
10
68.0649003484175
20
16.2782618938017
30
-3E-16
41
1
10
68.0758045538756
20
16.3301553327534
30
-3E-16
0
SPLINE
5
22A
100
AcDbEntity
8
1
62
256
6
ByLayer
370
-1
48
1
60
0
100
AcDbSpline
70
4
71
3
72
10
73
6
40
0
40
0
40
0
40
0
40
0.545134487250099
40
0.545134487250099
40
1
40
1
40
1
40
1
41
1
10
68.41836989474
20
-4.11048487726805
30
6E-16
41
1
10
68.3139342117341
20
-3.9934680100296
30
6E-16
41
1
10
68.2307510302875
20
-3.86451595876488
30
6E-16
41
1
10
68.1238284344365
20
-3.62219448357311
30
6E-16
41
1
10
68.0914873655469
20
-3.507591456412
30
6E-16
41
1
10
68.0758045538756
20
-3.39322631348736
30
6E-16
0
SPLINE
5
22B
100
AcDbEntity
8
1
62
256
6
ByLayer
370
-1
48
1
60
0
100
AcDbSpline
70
4
71
3
72
8
73
4
40
0
40
0
40
0
40
0
40
1
40
1
40
1
40
1
41
1
10
41.720792692346
20
0.428523319672223
30
-1E-15
41
1
10
42.161177579495
20
0.418616773055391
30
-1E-15
41
1
10
42.6037591135939
20
0.409768616500912
30
-9E-16
41
1
10
43.0459317816291
20
0.402031110919808
30
-9E-16
0
SPLINE
5
22C
100
AcDbEntity
8
1
62
256
6
ByLayer
370
-1
48
1
60
0
100
AcDbSpline
70
4
71
3
72
8
73
4
40
0
40
0
40
0
40
0
40
1
40
1
40
1
40
1
41
1
10
68.41836989474
20
-4.11048487726805
30
6E-16
41
1
10
68.5758039207136
20
-4.28688470523798
30
6E-16
41
1
10
68.7550693210036
20
-4.43590755448741
30
7E-16
41
1
10
68.9414120032948
20
-4.54580284406379
30
7E-16
0
SPLINE
5
22D
100
AcDbEntity
8
1
62
256
6
ByLayer
370
-1
48
1
60
0
100
AcDbSpline
70
4
71
3
72
14
73
10
40
0
40
0
40
0
40
0
40
0.683072813584683
40
0.683072813584683
40
0.873037609573759
40
0.873037609573759
40
0.997911195927233
40
0.997911195927233
40
1
40
1
40
1
40
1
41
1
10
68.9414120032949
20
14.8443364108969
30
7E-16
41
1
10
69.0281030503307
20
15.3088521636796
30
7E-16
41
1
10
69.1112697236791
20
15.7541363869404
30
7E-16
41
1
10
69.203073545185
20
16.3300489437167
30
7E-16
41
1
10
69.2220604358014
20
16.4559908025594
30
7E-16
41
1
10
69.2506445160649
20
16.6698434265148
30
-2E-16
41
1
10
69.2613649990759
20
16.7562799841355
30
-2E-16
41
1
10
69.2708322747686
20
16.8474601464149
30
-2E-16
41
1
10
69.2709876388971
20
16.8489610797141
30
-2E-16
41
1
10
69.271142611933
20
16.8504629591663
30
-2E-16
0
SPLINE
5
22E
100
AcDbEntity
8
1
62
256
6
ByLayer
370
-1
48
1
60
0
100
AcDbSpline
70
4
71
3
72
8
73
4
40
0
40
0
40
0
40
0
40
1
40
1
40
1
40
1
41
1
10
67.9756856157629
20
-8.45011960583571
30
6E-16
41
1
10
68.0094530249108
20
-8.9881091874708
30
6E-16
41
1
10
68.0429669843764
20
-9.52258758906066
30
6E-16
41
1
10
68.0758045538756
20
-10.0530568151607
30
6E-16
0
SPLINE
5
22F
100
AcDbEntity
8
1
62
256
6
ByLayer
370
-1
48
1
60
0
100
AcDbSpline
70
4
71
3
72
16
73
12
40
0
40
0
40
0
40
0
40
0.210989483867827
40
0.210989483867827
40
0.422091884476333
40
0.422091884476333
40
0.633584132486931
40
0.633584132486931
40
0.847858776114771
40
0.847858776114771
40
1
40
1
40
1
40
1
41
1
10
67.0720799249315
20
-25.4979437841932
30
1E-16
41
1
10
67.180253831002
20
-25.5166606538829
30
-1E-16
41
1
10
67.293211082995
20
-25.5171222006047
30
-1E-16
41
1
10
67.510060909918
20
-25.481327340094
30
-1E-16
41
1
10
67.6169148925839
20
-25.4445649532959
30
-1E-16
41
1
10
67.8100991134983
20
-25.3395591982312
30
-1E-16
41
1
10
67.8990169762188
20
-25.2698528269587
30
-1E-16
41
1
10
68.0483174761358
20
-25.1067898198128
30
-1E-16
41
1
10
68.1103482307637
20
-25.0109485854893
30
0
41
1
10
68.1862600927744
20
-24.8363870512874
30
0
41
1
10
68.2094638827067
20
-24.7594454389092
30
0
41
1
10
68.2233920071826
20
-24.6814309850392
30
0
0
SPLINE
5
230
100
AcDbEntity
8
1
62
256
6
ByLayer
370
-1
48
1
60
0
100
AcDbSpline
70
4
71
3
72
18
73
14
40
0
40
0
40
0
40
0
40
0.0809805960320615
40
0.0809805960320615
40
0.544227292213941
40
0.544227292213941
40
0.699318265621571
40
0.699318265621571
40
0.856346274356429
40
0.856346274356429
40
0.966571999538782
40
0.966571999538782
40
1
40
1
40
1
40
1
41
1
10
11.8943375672974
20
-8.05584836782771
30
7E-16
41
1
10
11.8893471011256
20
-8.03731605051118
30
7E-16
41
1
10
11.8840209914239
20
-8.0188538367336
30
7E-16
41
1
10
11.845998279105
20
-7.89611164850155
30
7E-16
41
1
10
11.8022255638175
20
-7.79219397274093
30
7E-16
41
1
10
11.7151274219928
20
-7.67169814060131
30
7E-16
41
1
10
11.6903249195398
20
-7.64266520230271
30
7E-16
41
1
10
11.6339533178057
20
-7.59122859579532
30
7E-16
41
1
10
11.6016224931834
20
-7.56839473241365
30
7E-16
41
1
10
11.5411042357638
20
-7.54154007085771
30
7E-16
41
1
10
11.5139568123411
20
-7.53384342094336
30
7E-16
41
1
10
11.4781693033538
20
-7.53010833377257
30
7E-16
41
1
10
11.4697409388397
20
-7.52966679426501
30
7E-16
41
1
10
11.4613248654052
20
-7.52966679426501
30
7E-16
0
SPLINE
5
231
100
AcDbEntity
8
1
62
256
6
ByLayer
370
-1
48
1
60
0
100
AcDbSpline
70
4
71
3
72
8
73
4
40
0
40
0
40
0
40
0
40
1
40
1
40
1
40
1
41
1
10
68.41836989474
20
-12.2683551491515
30
6E-16
41
1
10
68.4027619416967
20
-12.3483239701262
30
6E-16
41
1
10
68.3872637218272
20
-12.4269423198518
30
6E-16
41
1
10
68.3719113531084
20
-12.503955032991
30
6E-16
0
SPLINE
5
232
100
AcDbEntity
8
1
62
256
6
ByLayer
370
-1
48
1
60
0
100
AcDbSpline
70
4
71
3
72
8
73
4
40
0
40
0
40
0
40
0
40
1
40
1
40
1
40
1
41
1
10
61.5101907607046
20
-24.5339155458883
30
2E-16
41
1
10
63.3640532729306
20
-24.8558230693154
30
-1E-16
41
1
10
65.218020420831
20
-25.1771437743223
30
0
41
1
10
67.0720799249315
20
-25.4979437841932
30
1E-16
0
SPLINE
5
233
100
AcDbEntity
8
1
62
256
6
ByLayer
370
-1
48
1
60
0
100
AcDbSpline
70
4
71
3
72
10
73
6
40
0
40
0
40
0
40
0
40
0.5
40
0.5
40
1
40
1
40
1
40
1
41
1
10
61.9663279614816
20
-16.723154246099
30
2E-16
41
1
10
62.0155940297673
20
-16.6286150722104
30
2E-16
41
1
10
62.0675996360503
20
-16.5348997885516
30
2E-16
41
1
10
62.1775471984309
20
-16.3492241483576
30
3E-16
41
1
10
62.2354871774518
20
-16.2572633026061
30
3E-16
41
1
10
62.2967082995925
20
-16.1662544294102
30
3E-16
0
SPLINE
5
234
100
AcDbEntity
8
1
62
256
6
ByLayer
370
-1
48
1
60
0
100
AcDbSpline
70
4
71
3
72
8
73
4
40
0
40
0
40
0
40
0
40
1
40
1
40
1
40
1
41
1
10
40.2057545707954
20
0.462605946855575
30
-1.1E-15
41
1
10
40.7107664555602
20
0.45124457343303
30
-1.1E-15
41
1
10
41.2157791675198
20
0.439883700493169
30
-1E-15
41
1
10
41.720792692346
20
0.428523319672223
30
-1E-15
0
SPLINE
5
235
100
AcDbEntity
8
1
62
256
6
ByLayer
370
-1
48
1
60
0
100
AcDbSpline
70
4
71
3
72
8
73
4
40
0
40
0
40
0
40
0
40
1
40
1
40
1
40
1
41
1
10
68.0309265003178
20
16.6117186035368
30
0
41
1
10
67.9876219102026
20
16.3254514958679
30
1E-16
41
1
10
67.9443249055241
20
16.0391832371261
30
1E-16
41
1
10
67.9010367867454
20
15.7529136307497
30
0
0
SPLINE
5
236
100
AcDbEntity
8
1
62
256
6
ByLayer
370
-1
48
1
60
0
100
AcDbSpline
70
4
71
3
72
8
73
4
40
0
40
0
40
0
40
0
40
1
40
1
40
1
40
1
41
1
10
67.0720799249315
20
-22.885196885526
30
6E-16
41
1
10
67.097901526689
20
-22.7834770748421
30
6E-16
41
1
10
67.1243119038373
20
-22.6779430824041
30
6E-16
41
1
10
67.1512989346651
20
-22.5686078526984
30
6E-16
0
SPLINE
5
237
100
AcDbEntity
8
1
62
256
6
ByLayer
370
-1
48
1
60
0
100
AcDbSpline
70
4
71
3
72
12
73
8
40
0
40
0
40
0
40
0
40
0.499999999999999
40
0.499999999999999
40
0.75
40
0.75
40
1
40
1
40
1
40
1
41
1
10
40.2057545707955
20
24.2722751446532
30
0
41
1
10
38.835279171786
20
24.1494904832169
30
-1E-16
41
1
10
37.4419297752905
20
24.0588731230551
30
0
41
1
10
35.9745807798798
20
23.906328566371
30
0
41
1
10
35.606703745198
20
23.8493854747969
30
0
41
1
10
35.314295381479
20
23.7040379193763
30
-1E-16
41
1
10
35.4021886613754
20
23.6172976999313
30
-1E-16
41
1
10
35.6831711187234
20
23.5328382104631
30
4E-16
0
SPLINE
5
238
100
AcDbEntity
8
1
62
256
6
ByLayer
370
-1
48
1
60
0
100
AcDbSpline
70
4
71
3
72
8
73
4
40
0
40
0
40
0
40
0
40
1
40
1
40
1
40
1
41
1
10
43.045931781629
20
-13.1820352115192
30
-9E-16
41
1
10
42.5858545748777
20
-12.9202263000175
30
-9E-16
41
1
10
42.1446047564079
20
-12.6246599677197
30
-1E-15
41
1
10
41.7207926923459
20
-12.297717968524
30
-1E-15
0
SPLINE
5
239
100
AcDbEntity
8
1
62
256
6
ByLayer
370
-1
48
1
60
0
100
AcDbSpline
70
4
71
3
72
8
73
4
40
0
40
0
40
0
40
0
40
1
40
1
40
1
40
1
41
1
10
40.2057545707954
20
24.2722751446532
30
0
41
1
10
40.7107664555602
20
24.3175205487932
30
1E-16
41
1
10
41.2157791675199
20
24.362756791227
30
0
41
1
10
41.7207926923461
20
24.4079840252165
30
0
0
SPLINE
5
23A
100
AcDbEntity
8
1
62
256
6
ByLayer
370
-1
48
1
60
0
100
AcDbSpline
70
4
71
3
72
18
73
14
40
0
40
0
40
0
40
0
40
0.0809805960321051
40
0.0809805960321051
40
0.544227292214096
40
0.544227292214096
40
0.69931826562168
40
0.69931826562168
40
0.856346274356486
40
0.856346274356486
40
0.966571999538835
40
0.966571999538835
40
1
40
1
40
1
40
1
41
1
10
11.8943375672974
20
23.6665017920809
30
7E-16
41
1
10
11.8893471011256
20
23.672810013698
30
7E-16
41
1
10
11.8840209914239
20
23.6790700603507
30
7E-16
41
1
10
11.845998279105
20
23.7205303134149
30
-2E-16
41
1
10
11.8022255638174
20
23.7548029562659
30
-2E-16
41
1
10
11.7151274219928
20
23.7938243006291
30
-2E-16
41
1
10
11.6903249195398
20
23.8031592998669
30
-2E-16
41
1
10
11.6339533178057
20
23.8196134016841
30
-2E-16
41
1
10
11.6016224931833
20
23.8268687494612
30
-2E-16
41
1
10
11.5411042357638
20
23.8353793525422
30
-2E-16
41
1
10
11.5139568123411
20
23.8378105604685
30
-2E-16
41
1
10
11.4781693033538
20
23.8389905264494
30
-2E-16
41
1
10
11.4697409388397
20
23.8391299750503
30
-2E-16
41
1
10
11.4613248654052
20
23.8391299750503
30
-2E-16
0
SPLINE
5
23B
100
AcDbEntity
8
1
62
256
6
ByLayer
370
-1
48
1
60
0
100
AcDbSpline
70
4
71
3
72
8
73
4
40
0
40
0
40
0
40
0
40
1
40
1
40
1
40
1
41
1
10
41.7207926923461
20
21.3619162368436
30
8E-16
41
1
10
39.1215134848582
20
22.2206114428045
30
6E-16
41
1
10
37.0639588286012
20
23.117792281472
30
-4E-16
41
1
10
35.6831711187234
20
23.5328382104631
30
4E-16
0
SPLINE
5
23C
100
AcDbEntity
8
1
62
256
6
ByLayer
370
-1
48
1
60
0
100
AcDbSpline
70
4
71
3
72
8
73
4
40
0
40
0
40
0
40
0
40
1
40
1
40
1
40
1
41
1
10
67.1512989346651
20
-22.5686078526984
30
6E-16
41
1
10
67.224312464424
20
-22.2728009112561
30
6E-16
41
1
10
67.2200856368073
20
-21.9504530258654
30
6E-16
41
1
10
67.0720799249326
20
-21.5886571807482
30
6E-16
0
SPLINE
5
23D
100
AcDbEntity
8
1
62
256
6
ByLayer
370
-1
48
1
60
0
100
AcDbSpline
70
4
71
3
72
16
73
12
40
0
40
0
40
0
40
0
40
0.145380207045039
40
0.145380207045039
40
0.38534728149754
40
0.38534728149754
40
0.614528701554717
40
0.614528701554717
40
0.835280582313739
40
0.835280582313739
40
1
40
1
40
1
40
1
41
1
10
67.5252842301293
20
-5.63143740005594
30
6E-16
41
1
10
67.4899743345804
20
-5.40287595739298
30
6E-16
41
1
10
67.4569846716324
20
-5.15762210930745
30
6E-16
41
1
10
67.3800221902918
20
-4.48338828994136
30
6E-16
41
1
10
67.3418527247966
20
-4.02711902102308
30
6E-16
41
1
10
67.2981969330008
20
-3.14153549804411
30
6E-16
41
1
10
67.2908954668665
20
-2.69956590331242
30
6E-16
41
1
10
67.3065364157624
20
-1.89043772119018
30
6E-16
41
1
10
67.3284959269715
20
-1.51039763055317
30
6E-16
41
1
10
67.3858570885275
20
-0.92762829304715
30
6E-16
41
1
10
67.4167979342669
20
-0.699528264915898
30
6E-16
41
1
10
67.4519401716672
20
-0.50012357702218
30
6E-16
0
SPLINE
5
23E
100
AcDbEntity
8
1
62
256
6
ByLayer
370
-1
48
1
60
0
100
AcDbSpline
70
4
71
3
72
8
73
4
40
0
40
0
40
0
40
0
40
1
40
1
40
1
40
1
41
1
10
41.7207926923461
20
24.4079840252165
30
0
41
1
10
42.161177579495
20
24.447423345863
30
0
41
1
10
42.603759113594
20
24.4673490686622
30
1E-16
41
1
10
43.0459317816291
20
24.4676408449731
30
0
0
SPLINE
5
23F
100
AcDbEntity
8
1
62
256
6
ByLayer
370
-1
48
1
60
0
100
AcDbSpline
70
4
71
3
72
16
73
12
40
0
40
0
40
0
40
0
40
0.0773436766578767
40
0.0773436766578767
40
0.181588290672618
40
0.181588290672618
40
0.353924998170011
40
0.353924998170011
40
0.659870482236094
40
0.659870482236094
40
1
40
1
40
1
40
1
41
1
10
11.4613248654052
20
-23.8391299750503
30
-2E-16
41
1
10
11.4806912734381
20
-23.8391299750503
30
-2E-16
41
1
10
11.5001920479834
20
-23.8383766644784
30
-2E-16
41
1
10
11.5443643455559
20
-23.8350242537624
30
-2E-16
41
1
10
11.5688999660418
20
-23.8318379431383
30
-2E-16
41
1
10
11.6286300521075
20
-23.8212426939765
30
-2E-16
41
1
10
11.66158714279
20
-23.812328084785
30
-2E-16
41
1
10
11.7407360052433
20
-23.7850663392819
30
-2E-16
41
1
10
11.7798892743244
20
-23.7642694363116
30
-2E-16
41
1
10
11.8468244213921
20
-23.7185457490814
30
-2E-16
41
1
10
11.8734747805012
20
-23.692873493267
30
-2E-16
41
1
10
11.8943375672974
20
-23.6665017920809
30
7E-16
0
SPLINE
5
240
100
AcDbEntity
8
1
62
256
6
ByLayer
370
-1
48
1
60
0
100
AcDbSpline
70
4
71
3
72
8
73
4
40
0
40
0
40
0
40
0
40
1
40
1
40
1
40
1
41
1
10
68.1335264800411
20
-3.21914552692402
30
6E-16
41
1
10
68.1240196526286
20
-3.28086346012756
30
6E-16
41
1
10
68.1132120686656
20
-3.3374846266631
30
6E-16
41
1
10
68.101636065811
20
-3.38771939323587
30
6E-16
0
SPLINE
5
241
100
AcDbEntity
8
1
62
256
6
ByLayer
370
-1
48
1
60
0
100
AcDbSpline
70
4
71
3
72
8
73
4
40
0
40
0
40
0
40
0
40
1
40
1
40
1
40
1
41
1
10
68.41836989474
20
12.7933223606766
30
6E-16
41
1
10
68.3425708976041
20
13.162222252369
30
6E-16
41
1
10
68.2688976607239
20
13.4973472727599
30
6E-16
41
1
10
68.2022509119053
20
13.7698754979512
30
6E-16
0
SPLINE
5
242
100
AcDbEntity
8
1
62
256
6
ByLayer
370
-1
48
1
60
0
100
AcDbSpline
70
4
71
3
72
8
73
4
40
0
40
0
40
0
40
0
40
1
40
1
40
1
40
1
41
1
10
67.0720799249316
20
-20.056376615803
30
6E-16
41
1
10
67.0055622075994
20
-19.6209211795667
30
6E-16
41
1
10
66.9399344008127
20
-19.1654706106014
30
5E-16
41
1
10
66.8734787934758
20
-18.6901202744208
30
5E-16
0
SPLINE
5
243
100
AcDbEntity
8
1
62
256
6
ByLayer
370
-1
48
1
60
0
100
AcDbSpline
70
4
71
3
72
14
73
10
40
0
40
0
40
0
40
0
40
0.25
40
0.25
40
0.5
40
0.5
40
0.75
40
0.75
40
1
40
1
40
1
40
1
41
1
10
67.0720799249314
20
15.0553719357718
30
6E-16
41
1
10
66.9305111525852
20
15.532635738619
30
5E-16
41
1
10
66.6491769792764
20
15.9695068988391
30
5E-16
41
1
10
65.6416402089603
20
16.4145363403263
30
5E-16
41
1
10
64.9354661036575
20
16.3319386877691
30
4E-16
41
1
10
63.8666010530578
20
15.7487694087648
30
4E-16
41
1
10
63.4735871891697
20
15.3010984991358
30
3E-16
41
1
10
62.9390152876069
20
14.3521194330684
30
3E-16
41
1
10
62.7855625525976
20
13.8347243247697
30
3E-16
41
1
10
62.715564495015
20
13.311497114319
30
3E-16
0
SPLINE
5
244
100
AcDbEntity
8
1
62
256
6
ByLayer
370
-1
48
1
60
0
100
AcDbSpline
70
4
71
3
72
8
73
4
40
0
40
0
40
0
40
0
40
1
40
1
40
1
40
1
41
1
10
67.1512989346651
20
13.4608270046915
30
6E-16
41
1
10
67.224312464424
20
14.0088776108854
30
6E-16
41
1
10
67.2200856368074
20
14.5564075969429
30
6E-16
41
1
10
67.0720799249324
20
15.0553719357722
30
6E-16
0
SPLINE
5
245
100
AcDbEntity
8
1
62
256
6
ByLayer
370
-1
48
1
60
0
100
AcDbSpline
70
4
71
3
72
8
73
4
40
0
40
0
40
0
40
0
40
1
40
1
40
1
40
1
41
1
10
43.045931781629
20
20.9097376058055
30
9E-16
41
1
10
42.5858545748778
20
21.0713841067197
30
8E-16
41
1
10
42.1446047564079
20
21.2219061191964
30
8E-16
41
1
10
41.720792692346
20
21.3619162368436
30
8E-16
0
SPLINE
5
246
100
AcDbEntity
8
1
62
256
6
ByLayer
370
-1
48
1
60
0
100
AcDbSpline
70
4
71
3
72
12
73
8
40
0
40
0
40
0
40
0
40
0.346034249869885
40
0.346034249869885
40
0.692663718631953
40
0.692663718631953
40
1
40
1
40
1
40
1
41
1
10
69.2793285962245
20
5.39251054035978
30
7E-16
41
1
10
69.2383531662054
20
5.31813217176267
30
7E-16
41
1
10
69.2009504944261
20
5.19774736960903
30
7E-16
41
1
10
69.138528574916
20
4.88433003425254
30
7E-16
41
1
10
69.1126527881065
20
4.68683585777566
30
7E-16
41
1
10
69.0772959162636
20
4.26830499587251
30
7E-16
41
1
10
69.0658680117224
20
4.0480200486991
30
7E-16
41
1
10
69.0602385568426
20
3.81864388171272
30
7E-16
0
SPLINE
5
247
100
AcDbEntity
8
1
62
256
6
ByLayer
370
-1
48
1
60
0
100
AcDbSpline
70
4
71
3
72
8
73
4
40
0
40
0
40
0
40
0
40
1
40
1
40
1
40
1
41
1
10
59.8374766781858
20
18.2802765603574
30
1E-16
41
1
10
60.3972094233886
20
18.300760490881
30
1E-16
41
1
10
60.9587121637095
20
18.3588150134924
30
2E-16
41
1
10
61.5101907607048
20
18.4533988697541
30
2E-16
0
SPLINE
5
248
100
AcDbEntity
8
1
62
256
6
ByLayer
370
-1
48
1
60
0
100
AcDbSpline
70
4
71
3
72
8
73
4
40
0
40
0
40
0
40
0
40
1
40
1
40
1
40
1
41
1
10
68.0758045538756
20
-0.604961548405612
30
6E-16
41
1
10
68.0741793966274
20
-0.570955090075273
30
6E-16
41
1
10
68.0725698357368
20
-0.536947153410097
30
6E-16
41
1
10
68.0709759600295
20
-0.502937752227126
30
6E-16
0
SPLINE
5
249
100
AcDbEntity
8
1
62
256
6
ByLayer
370
-1
48
1
60
0
100
AcDbSpline
70
4
71
3
72
8
73
4
40
0
40
0
40
0
40
0
40
1
40
1
40
1
40
1
41
1
10
62.2091244301753
20
-23.6561740246561
30
3E-16
41
1
10
63.6818027974097
20
-23.9358386637281
30
3E-16
41
1
10
65.1547203967125
20
-24.2142765375689
30
4E-16
41
1
10
66.6278496665304
20
-24.4916149092589
30
-4E-16
0
SPLINE
5
24A
100
AcDbEntity
8
1
62
256
6
ByLayer
370
-1
48
1
60
0
100
AcDbSpline
70
4
71
3
72
8
73
4
40
0
40
0
40
0
40
0
40
1
40
1
40
1
40
1
41
1
10
68.5122587047125
20
12.3250278284988
30
6E-16
41
1
10
68.6572918518879
20
13.2444680671873
30
7E-16
41
1
10
68.7994868274713
20
14.0838601894121
30
7E-16
41
1
10
68.9414120032949
20
14.8443364108968
30
7E-16
0
SPLINE
5
24B
100
AcDbEntity
8
1
62
256
6
ByLayer
370
-1
48
1
60
0
100
AcDbSpline
70
4
71
3
72
10
73
6
40
0
40
0
40
0
40
0
40
0.5
40
0.5
40
1
40
1
40
1
40
1
41
1
10
64.7662795067815
20
-18.5397090648188
30
4E-16
41
1
10
64.1473050624458
20
-18.4953000819695
30
4E-16
41
1
10
63.5337284012523
20
-18.248875384254
30
3E-16
41
1
10
62.5837114108987
20
-17.584466855073
30
3E-16
41
1
10
62.2258157022031
20
-17.1675292882814
30
3E-16
41
1
10
61.9663279614816
20
-16.723154246099
30
2E-16
0
SPLINE
5
24C
100
AcDbEntity
8
1
62
256
6
ByLayer
370
-1
48
1
60
0
100
AcDbSpline
70
4
71
3
72
8
73
4
40
0
40
0
40
0
40
0
40
1
40
1
40
1
40
1
41
1
10
68.41836989474
20
12.7933223606766
30
6E-16
41
1
10
68.595788909204
20
11.9298563823291
30
6E-16
41
1
10
68.7679231385052
20
10.9401766907143
30
7E-16
41
1
10
68.9414120032949
20
9.82878375954547
30
7E-16
0
SPLINE
5
24D
100
AcDbEntity
8
1
62
256
6
ByLayer
370
-1
48
1
60
0
100
AcDbSpline
70
4
71
3
72
10
73
6
40
0
40
0
40
0
40
0
40
0.499776710670712
40
0.499776710670712
40
1
40
1
40
1
40
1
41
1
10
69.2793285962245
20
6.90909016974493
30
7E-16
41
1
10
69.1031458254537
20
7.17300521672757
30
7E-16
41
1
10
68.9270701654605
20
7.42268746137748
30
7E-16
41
1
10
68.575084020993
20
7.89388536279469
30
6E-16
41
1
10
68.3991370083003
20
8.11527243166648
30
6E-16
41
1
10
68.2233920071827
20
8.3214338418102
30
6E-16
0
SPLINE
5
24E
100
AcDbEntity
8
1
62
256
6
ByLayer
370
-1
48
1
60
0
100
AcDbSpline
70
4
71
3
72
10
73
6
40
0
40
0
40
0
40
0
40
0.499769652369489
40
0.499769652369489
40
1
40
1
40
1
40
1
41
1
10
69.2793285962245
20
-18.0218995915139
30
-2E-16
41
1
10
69.1031306224725
20
-18.9797074764431
30
-2E-16
41
1
10
68.9270647634392
20
-19.9410362195001
30
-2E-16
41
1
10
68.5750906944394
20
-21.8695041319397
30
-2E-16
41
1
10
68.3991253150911
20
-22.8367955164832
30
-3E-16
41
1
10
68.2233920071827
20
-23.8065084456295
30
-3E-16
0
SPLINE
5
24F
100
AcDbEntity
8
1
62
256
6
ByLayer
370
-1
48
1
60
0
100
AcDbSpline
70
4
71
3
72
10
73
6
40
0
40
0
40
0
40
0
40
0.935728996366232
40
0.935728996366232
40
1
40
1
40
1
40
1
41
1
10
67.8327999007274
20
15.3029169134274
30
0
41
1
10
67.8541425153821
20
15.4432844429743
30
0
41
1
10
67.8754686352573
20
15.5838786884778
30
0
41
1
10
67.8980947364999
20
15.7334590727285
30
0
41
1
10
67.8995659729514
20
15.7431869598352
30
0
41
1
10
67.9010367867454
20
15.7529136307497
30
0
0
SPLINE
5
250
100
AcDbEntity
8
1
62
256
6
ByLayer
370
-1
48
1
60
0
100
AcDbSpline
70
4
71
3
72
8
73
4
40
0
40
0
40
0
40
0
40
1
40
1
40
1
40
1
41
1
10
61.5101907607048
20
3.69302373521086
30
2E-16
41
1
10
60.9897831877755
20
3.70726748766302
30
2E-16
41
1
10
60.4602006390326
20
3.71931542060912
30
1E-16
41
1
10
59.9317522133075
20
3.72892097768755
30
1E-16
0
SPLINE
5
251
100
AcDbEntity
8
1
62
256
6
ByLayer
370
-1
48
1
60
0
100
AcDbSpline
70
4
71
3
72
10
73
6
40
0
40
0
40
0
40
0
40
0.773410332547399
40
0.773410332547399
40
1
40
1
40
1
40
1
41
1
10
69.2950894942053
20
-18.2303297199302
30
-2E-16
41
1
10
69.2960308537562
20
-18.2870538823318
30
-2E-16
41
1
10
69.2928257662576
20
-18.343310360209
30
-2E-16
41
1
10
69.2841583906971
20
-18.4138094384772
30
-2E-16
41
1
10
69.2818844263788
20
-18.4297414083191
30
-2E-16
41
1
10
69.2793285962246
20
-18.4455360737005
30
-2E-16
0
SPLINE
5
252
100
AcDbEntity
8
1
62
256
6
ByLayer
370
-1
48
1
60
0
100
AcDbSpline
70
4
71
3
72
16
73
12
40
0
40
0
40
0
40
0
40
0.236117085062356
40
0.236117085062356
40
0.473064736818138
40
0.473064736818138
40
0.704373488660499
40
0.704373488660499
40
0.953704739661714
40
0.953704739661714
40
1
40
1
40
1
40
1
41
1
10
68.9414120032949
20
-4.54580284406379
30
7E-16
41
1
10
69.0042625528653
20
-4.58286885202369
30
7E-16
41
1
10
69.0631685071718
20
-4.61458450120099
30
7E-16
41
1
10
69.1620616393839
20
-4.66176698204873
30
7E-16
41
1
10
69.2032320394038
20
-4.67777179095327
30
7E-16
41
1
10
69.2617580932832
20
-4.69184459571179
30
7E-16
41
1
10
69.2804693205231
20
-4.69054722778446
30
7E-16
41
1
10
69.2985698166838
20
-4.6719685922383
30
7E-16
41
1
10
69.2966943721531
20
-4.65330512069519
30
7E-16
41
1
10
69.284158390697
20
-4.62265028890496
30
7E-16
41
1
10
69.2818844263788
20
-4.61756973808622
30
7E-16
41
1
10
69.2793285962246
20
-4.61224535943805
30
7E-16
0
SPLINE
5
253
100
AcDbEntity
8
1
62
256
6
ByLayer
370
-1
48
1
60
0
100
AcDbSpline
70
4
71
3
72
16
73
12
40
0
40
0
40
0
40
0
40
0.210989483867826
40
0.210989483867826
40
0.42209188447633
40
0.42209188447633
40
0.633584132486935
40
0.633584132486935
40
0.847858776114771
40
0.847858776114771
40
1
40
1
40
1
40
1
41
1
10
67.0720799249316
20
3.54089154767016
30
6E-16
41
1
10
67.1802538310021
20
3.53793455573938
30
6E-16
41
1
10
67.2932110829951
20
3.5359264962421
30
6E-16
41
1
10
67.5100609099181
20
3.53414687696448
30
6E-16
41
1
10
67.616914892584
20
3.53435198400382
30
6E-16
41
1
10
67.8100991134983
20
3.53690345771818
30
6E-16
41
1
10
67.8990169762189
20
3.53928719666993
30
6E-16
41
1
10
68.0483174761358
20
3.54589345237355
30
6E-16
41
1
10
68.1103482307638
20
3.55022762643267
30
6E-16
41
1
10
68.1862600927745
20
3.55877212856004
30
6E-16
41
1
10
68.2094638827068
20
3.56271824533604
30
6E-16
41
1
10
68.2233920071827
20
3.56688781265208
30
6E-16
0
SPLINE
5
254
100
AcDbEntity
8
1
62
256
6
ByLayer
370
-1
48
1
60
0
100
AcDbSpline
70
4
71
3
72
8
73
4
40
0
40
0
40
0
40
0
40
1
40
1
40
1
40
1
41
1
10
66.9780632253704
20
17.8122387382515
30
5E-16
41
1
10
67.0610884191334
20
17.8702100345808
30
6E-16
41
1
10
67.1223682778464
20
17.924402212807
30
6E-16
41
1
10
67.1581173794456
20
17.9741134881719
30
6E-16
0
SPLINE
5
255
100
AcDbEntity
8
1
62
256
6
ByLayer
370
-1
48
1
60
0
100
AcDbSpline
70
4
71
3
72
24
73
20
40
0
40
0
40
0
40
0
40
0.506144870571088
40
0.506144870571088
40
0.674455874392378
40
0.674455874392378
40
0.784773617536884
40
0.784773617536884
40
0.858041345498904
40
0.858041345498904
40
0.907436644964115
40
0.907436644964115
40
0.956559402469142
40
0.956559402469142
40
0.976058699217329
40
0.976058699217329
40
0.99174302122147
40
0.99174302122147
40
1
40
1
40
1
40
1
41
1
10
68.9414120032949
20
-15.6549328225929
30
7E-16
41
1
10
69.0215452678171
20
-16.037935174353
30
7E-16
41
1
10
69.0976081835892
20
-16.4035659470621
30
-2E-16
41
1
10
69.1882351356281
20
-16.893698516627
30
-2E-16
41
1
10
69.2097514457433
20
-17.0162827741085
30
-2E-16
41
1
10
69.2423035602356
20
-17.2243388821281
30
-2E-16
41
1
10
69.2545255112579
20
-17.3083198924954
30
-2E-16
41
1
10
69.2723473995741
20
-17.4535940094883
30
-2E-16
41
1
10
69.2788540236986
20
-17.5131161795251
30
-2E-16
41
1
10
69.2878298113996
20
-17.618583433502
30
-2E-16
41
1
10
69.2909117649747
20
-17.6625799937228
30
-2E-16
41
1
10
69.2949765689822
20
-17.7554297490788
30
-2E-16
41
1
10
69.2961587966012
20
-17.8046335823204
30
-2E-16
41
1
10
69.2940045501115
20
-17.8817405986417
30
-2E-16
41
1
10
69.2929215852374
20
-17.9049204987361
30
-2E-16
41
1
10
69.2894925622915
20
-17.9486248659264
30
-2E-16
41
1
10
69.2873870496041
20
-17.9691805448473
30
-2E-16
41
1
10
69.2830140184527
20
-18.0004428173704
30
-2E-16
41
1
10
69.2812674785744
20
-18.0113598743812
30
-2E-16
41
1
10
69.2793285962244
20
-18.0218995915139
30
-2E-16
0
SPLINE
5
256
100
AcDbEntity
8
1
62
256
6
ByLayer
370
-1
48
1
60
0
100
AcDbSpline
70
4
71
3
72
8
73
4
40
0
40
0
40
0
40
0
40
1
40
1
40
1
40
1
41
1
10
59.9317522133074
20
-24.3889493065872
30
1E-16
41
1
10
59.8991331781291
20
-24.4426504318433
30
-1E-16
41
1
10
59.8702865795902
20
-24.4739528957124
30
0
41
1
10
59.845358233086
20
-24.4825846091618
30
0
0
SPLINE
5
257
100
AcDbEntity
8
1
62
256
6
ByLayer
370
-1
48
1
60
0
100
AcDbSpline
70
4
71
3
72
8
73
4
40
0
40
0
40
0
40
0
40
1
40
1
40
1
40
1
41
1
10
68.0758045538756
20
-0.604961548405583
30
6E-16
41
1
10
68.0805869245355
20
-0.705032780734939
30
6E-16
41
1
10
68.0870748575284
20
-0.804968458042737
30
6E-16
41
1
10
68.095733749833
20
-0.904608315700386
30
6E-16
0
SPLINE
5
258
100
AcDbEntity
8
1
62
256
6
ByLayer
370
-1
48
1
60
0
100
AcDbSpline
70
4
71
3
72
8
73
4
40
0
40
0
40
0
40
0
40
1
40
1
40
1
40
1
41
1
10
67.0720799249315
20
12.8463691785164
30
6E-16
41
1
10
67.097901526689
20
13.0533538234711
30
6E-16
41
1
10
67.1243119038373
20
13.258258266357
30
6E-16
41
1
10
67.1512989346651
20
13.4608270046915
30
6E-16
0
SPLINE
5
259
100
AcDbEntity
8
1
62
256
6
ByLayer
370
-1
48
1
60
0
100
AcDbSpline
70
4
71
3
72
8
73
4
40
0
40
0
40
0
40
0
40
1
40
1
40
1
40
1
41
1
10
68.2233920071827
20
3.56688781265208
30
6E-16
41
1
10
68.5036008613621
20
3.65077201989558
30
6E-16
41
1
10
68.7828402778382
20
3.73468283754016
30
7E-16
41
1
10
69.0602385568427
20
3.81864388171269
30
7E-16
0
SPLINE
5
25A
100
AcDbEntity
8
1
62
256
6
ByLayer
370
-1
48
1
60
0
100
AcDbSpline
70
4
71
3
72
10
73
6
40
0
40
0
40
0
40
0
40
0.5
40
0.5
40
1
40
1
40
1
40
1
41
1
10
64.7662795067814
20
17.4270071959745
30
4E-16
41
1
10
64.1473126252653
20
17.3192078703228
30
4E-16
41
1
10
63.5337277843364
20
17.4316303097931
30
3E-16
41
1
10
62.5837135021153
20
17.8742369068278
30
3E-16
41
1
10
62.2258172293236
20
18.1947276841667
30
3E-16
41
1
10
61.9663279614817
20
18.5340909329975
30
2E-16
0
SPLINE
5
25B
100
AcDbEntity
8
1
62
256
6
ByLayer
370
-1
48
1
60
0
100
AcDbSpline
70
4
71
3
72
10
73
6
40
0
40
0
40
0
40
0
40
0.5
40
0.5
40
1
40
1
40
1
40
1
41
1
10
59.8374766781857
20
-16.6750634216319
30
1E-16
41
1
10
56.8730410173652
20
-16.79447025062
30
-1E-16
41
1
10
53.9567512201361
20
-16.5992530722881
30
-2E-16
41
1
10
48.2249247170732
20
-15.4870037069213
30
-6E-16
41
1
10
45.5120243635997
20
-14.5853757923478
30
-8E-16
41
1
10
43.045931781629
20
-13.1820352115192
30
-9E-16
0
SPLINE
5
25C
100
AcDbEntity
8
1
62
256
6
ByLayer
370
-1
48
1
60
0
100
AcDbSpline
70
4
71
3
72
16
73
12
40
0
40
0
40
0
40
0
40
0.221612894318044
40
0.221612894318044
40
0.443814007038375
40
0.443814007038375
40
0.66669276635001
40
0.66669276635001
40
0.890009279748389
40
0.890009279748389
40
1
40
1
40
1
40
1
41
1
10
68.0758045538756
20
-0.989795531534298
30
6E-16
41
1
10
68.0540701962047
20
-1.11364913194382
30
6E-16
41
1
10
68.035727536957
20
-1.26563073191099
30
6E-16
41
1
10
68.0092901752566
20
-1.60073580323908
30
6E-16
41
1
10
68.0008679210417
20
-1.78856560116662
30
6E-16
41
1
10
67.9952851613077
20
-2.17384668918612
30
6E-16
41
1
10
67.9980843364911
20
-2.37664646645913
30
6E-16
41
1
10
68.0143370562863
20
-2.76887634560634
30
6E-16
41
1
10
68.0280307954761
20
-2.96372897364679
30
6E-16
41
1
10
68.0548660639078
20
-3.22895721320469
30
6E-16
41
1
10
68.0649003484174
20
-3.31370861973139
30
6E-16
41
1
10
68.0758045538756
20
-3.39322631348736
30
6E-16
0
SPLINE
5
25D
100
AcDbEntity
8
1
62
256
6
ByLayer
370
-1
48
1
60
0
100
AcDbSpline
70
4
71
3
72
10
73
6
40
0
40
0
40
0
40
0
40
0.5
40
0.5
40
1
40
1
40
1
40
1
41
1
10
61.9663279614817
20
18.5340909329975
30
2E-16
41
1
10
62.0155940297673
20
18.4797036875927
30
2E-16
41
1
10
62.0675996360503
20
18.4263376605235
30
2E-16
41
1
10
62.177547198431
20
18.3218724667138
30
3E-16
41
1
10
62.2354871774518
20
18.2707723757655
30
3E-16
41
1
10
62.2967082995925
20
18.2209572269909
30
3E-16
0
SPLINE
5
25E
100
AcDbEntity
8
1
62
256
6
ByLayer
370
-1
48
1
60
0
100
AcDbSpline
70
4
71
3
72
10
73
6
40
0
40
0
40
0
40
0
40
0.763176381539796
40
0.763176381539796
40
1
40
1
40
1
40
1
41
1
10
69.2952085666723
20
5.43711888116232
30
7E-16
41
1
10
69.2956617988469
20
5.4294982117398
30
7E-16
41
1
10
69.2924517115256
20
5.41889873909173
30
7E-16
41
1
10
69.284158390697
20
5.40153994347841
30
7E-16
41
1
10
69.2818844263788
20
5.39714986878647
30
7E-16
41
1
10
69.2793285962246
20
5.39251054035984
30
7E-16
0
SPLINE
5
25F
100
AcDbEntity
8
1
62
256
6
ByLayer
370
-1
48
1
60
0
100
AcDbSpline
70
4
71
3
72
10
73
6
40
0
40
0
40
0
40
0
40
0.5
40
0.5
40
1
40
1
40
1
40
1
41
1
10
59.8374766781857
20
18.280276560358
30
1E-16
41
1
10
56.8730410173656
20
18.1717903325321
30
-1E-16
41
1
10
53.9567512201362
20
18.363900321802
30
-2E-16
41
1
10
48.2249247170734
20
19.3046996411246
30
-6E-16
41
1
10
45.5120243635997
20
20.0432846910416
30
-8E-16
41
1
10
43.045931781629
20
20.9097376058055
30
9E-16
0
SPLINE
5
260
100
AcDbEntity
8
1
62
256
6
ByLayer
370
-1
48
1
60
0
100
AcDbSpline
70
4
71
3
72
10
73
6
40
0
40
0
40
0
40
0
40
0.624566135660189
40
0.624566135660189
40
1
40
1
40
1
40
1
41
1
10
68.41836989474
20
-12.7910931653324
30
6E-16
41
1
10
68.3355866490563
20
-12.2878528323518
30
6E-16
41
1
10
68.2556877146946
20
-11.7451344064805
30
6E-16
41
1
10
68.142504802458
20
-10.8126931996457
30
6E-16
41
1
10
68.1000364083026
20
-10.4445064035697
30
6E-16
41
1
10
68.0758045538757
20
-10.0530568151605
30
6E-16
0
SPLINE
5
261
100
AcDbEntity
8
1
62
256
6
ByLayer
370
-1
48
1
60
0
100
AcDbSpline
70
4
71
3
72
10
73
6
40
0
40
0
40
0
40
0
40
0.044981144264662
40
0.044981144264662
40
1
40
1
40
1
40
1
41
1
10
68.0758045538756
20
-0.989795531534298
30
6E-16
41
1
10
68.0760299511254
20
-0.988511101539615
30
6E-16
41
1
10
68.0762587269953
20
-0.987226669490525
30
6E-16
41
1
10
68.0813933105346
20
-0.958818951744718
30
6E-16
41
1
10
68.0878070758441
20
-0.931680846062932
30
6E-16
41
1
10
68.0957337498365
20
-0.904608315704678
30
6E-16
0
SPLINE
5
262
100
AcDbEntity
8
1
62
256
6
ByLayer
370
-1
48
1
60
0
100
AcDbSpline
70
4
71
3
72
8
73
4
40
0
40
0
40
0
40
0
40
1
40
1
40
1
40
1
41
1
10
68.41836989474
20
-12.2683551491516
30
6E-16
41
1
10
68.5961928267842
20
-11.3572625684398
30
6E-16
41
1
10
68.7678164452826
20
-10.3246675831019
30
7E-16
41
1
10
68.9414120032948
20
-9.17596650671319
30
7E-16
0
SPLINE
5
263
100
AcDbEntity
8
1
62
256
6
ByLayer
370
-1
48
1
60
0
100
AcDbSpline
70
4
71
3
72
12
73
8
40
0
40
0
40
0
40
0
40
0.346034249869893
40
0.346034249869893
40
0.692663718631967
40
0.692663718631967
40
1
40
1
40
1
40
1
41
1
10
69.2793285962245
20
-18.4455360737005
30
-2E-16
41
1
10
69.2383531662054
20
-18.6987583799407
30
-2E-16
41
1
10
69.2009504944261
20
-18.9403248803775
30
-2E-16
41
1
10
69.138528574916
20
-19.3604141907679
30
-2E-16
41
1
10
69.1126527881065
20
-19.5446165187779
30
-2E-16
41
1
10
69.0772959162636
20
-19.8139560996459
30
-2E-16
41
1
10
69.0658680117224
20
-19.911065616273
30
-2E-16
41
1
10
69.0602385568426
20
-19.9722426769395
30
-2E-16
0
SPLINE
5
264
100
AcDbEntity
8
1
62
256
6
ByLayer
370
-1
48
1
60
0
100
AcDbSpline
70
4
71
3
72
16
73
12
40
0
40
0
40
0
40
0
40
0.0773436766578803
40
0.0773436766578803
40
0.181588290672623
40
0.181588290672623
40
0.353924998170025
40
0.353924998170025
40
0.659870482236126
40
0.659870482236126
40
1
40
1
40
1
40
1
41
1
10
11.4613248654052
20
7.52966679426498
30
7E-16
41
1
10
11.4806912734381
20
7.52966679426498
30
7E-16
41
1
10
11.5001920479834
20
7.53205286469702
30
7E-16
41
1
10
11.5443643455559
20
7.54265601007381
30
7E-16
41
1
10
11.5688999660418
20
7.55272636772358
30
7E-16
41
1
10
11.6286300521075
20
7.58609718460602
30
7E-16
41
1
10
11.66158714279
20
7.61407037421822
30
7E-16
41
1
10
11.7407360052433
20
7.69895209889256
30
7E-16
41
1
10
11.7798892743244
20
7.76300791758413
30
7E-16
41
1
10
11.8468244213921
20
7.90167589305847
30
7E-16
41
1
10
11.8734747805012
20
7.97837348437852
30
7E-16
41
1
10
11.8943375672974
20
8.05584836782771
30
7E-16
0
SPLINE
5
265
100
AcDbEntity
8
1
62
256
6
ByLayer
370
-1
48
1
60
0
100
AcDbSpline
70
4
71
3
72
8
73
4
40
0
40
0
40
0
40
0
40
1
40
1
40
1
40
1
41
1
10
61.9663279614816
20
-16.723154246099
30
2E-16
41
1
10
61.8143763759204
20
-16.7150068656863
30
2E-16
41
1
10
61.6623210189989
20
-16.7059272384327
30
2E-16
41
1
10
61.5101907607047
20
-16.6959218987115
30
2E-16
0
SPLINE
5
266
100
AcDbEntity
8
1
62
256
6
ByLayer
370
-1
48
1
60
0
100
AcDbSpline
70
4
71
3
72
8
73
4
40
0
40
0
40
0
40
0
40
1
40
1
40
1
40
1
41
1
10
62.2091244301753
20
8.75723022095769
30
3E-16
41
1
10
63.6818027974097
20
8.71556759540925
30
3E-16
41
1
10
65.1547203967125
20
8.67397018097992
30
4E-16
41
1
10
66.6278496665305
20
8.63243126089506
30
5E-16
0
SPLINE
5
267
100
AcDbEntity
8
1
62
256
6
ByLayer
370
-1
48
1
60
0
100
AcDbSpline
70
4
71
3
72
10
73
6
40
0
40
0
40
0
40
0
40
0.402273488263366
40
0.402273488263366
40
1
40
1
40
1
40
1
41
1
10
68.2935787205897
20
16.670078396487
30
-3E-16
41
1
10
68.2458045045231
20
16.6317119187085
30
-3E-16
41
1
10
68.205254653772
20
16.589288549488
30
-3E-16
41
1
10
68.1238284344365
20
16.4778180181924
30
-3E-16
41
1
10
68.0914873655468
20
16.4047903011766
30
-3E-16
41
1
10
68.0758045538756
20
16.3301553327534
30
-3E-16
0
SPLINE
5
268
100
AcDbEntity
8
1
62
256
6
ByLayer
370
-1
48
1
60
0
100
AcDbSpline
70
4
71
3
72
18
73
14
40
0
40
0
40
0
40
0
40
0.0809805960320918
40
0.0809805960320918
40
0.544227292214085
40
0.544227292214085
40
0.699318265621671
40
0.699318265621671
40
0.856346274356483
40
0.856346274356483
40
0.966571999538831
40
0.966571999538831
40
1
40
1
40
1
40
1
41
1
10
8.10566243270262
20
8.05584836782774
30
5E-16
41
1
10
8.11065289887432
20
8.03731605051118
30
5E-16
41
1
10
8.11597900857612
20
8.01885383673363
30
5E-16
41
1
10
8.15400172089505
20
7.89611164850155
30
5E-16
41
1
10
8.1977744361825
20
7.79219397274088
30
5E-16
41
1
10
8.28487257800725
20
7.67169814060125
30
5E-16
41
1
10
8.30967508046024
20
7.64266520230268
30
5E-16
41
1
10
8.36604668219428
20
7.59122859579529
30
5E-16
41
1
10
8.3983775068167
20
7.56839473241365
30
5E-16
41
1
10
8.45889576423616
20
7.54154007085771
30
5E-16
41
1
10
8.48604318765894
20
7.53384342094336
30
5E-16
41
1
10
8.52183069664625
20
7.53010833377257
30
5E-16
41
1
10
8.53025906116034
20
7.52966679426501
30
5E-16
41
1
10
8.53867513459483
20
7.52966679426501
30
5E-16
0
SPLINE
5
269
100
AcDbEntity
8
1
62
256
6
ByLayer
370
-1
48
1
60
0
100
AcDbSpline
70
4
71
3
72
16
73
12
40
0
40
0
40
0
40
0
40
0.077343676657827
40
0.077343676657827
40
0.181588290672556
40
0.181588290672556
40
0.353924998169922
40
0.353924998169922
40
0.659870482235914
40
0.659870482235914
40
1
40
1
40
1
40
1
41
1
10
8.53867513459483
20
23.8391299750503
30
-4E-16
41
1
10
8.51930872656192
20
23.8391299750503
30
-4E-16
41
1
10
8.49980795201657
20
23.8383766644784
30
-4E-16
41
1
10
8.45563565444411
20
23.8350242537625
30
-4E-16
41
1
10
8.43110003395827
20
23.8318379431383
30
-4E-16
41
1
10
8.37136994789256
20
23.8212426939765
30
-4E-16
41
1
10
8.33841285720996
20
23.812328084785
30
-4E-16
41
1
10
8.25926399475679
20
23.7850663392819
30
-4E-16
41
1
10
8.22011072567562
20
23.7642694363116
30
-4E-16
41
1
10
8.15317557860794
20
23.7185457490814
30
-4E-16
41
1
10
8.12652521949877
20
23.692873493267
30
-4E-16
41
1
10
8.10566243270262
20
23.6665017920809
30
5E-16
0
SPLINE
5
26A
100
AcDbEntity
8
1
62
256
6
ByLayer
370
-1
48
1
60
0
100
AcDbSpline
70
4
71
3
72
14
73
10
40
0
40
0
40
0
40
0
40
0.25
40
0.25
40
0.5
40
0.5
40
0.75
40
0.75
40
1
40
1
40
1
40
1
41
1
10
67.0720799249316
20
-21.5886571807479
30
6E-16
41
1
10
66.9305111525854
20
-21.2425962552311
30
5E-16
41
1
10
66.6491769792765
20
-20.8621648668828
30
5E-16
41
1
10
65.6416402089608
20
-20.3021534641756
30
5E-16
41
1
10
64.9354661036578
20
-20.2090680408995
30
4E-16
41
1
10
63.866601053058
20
-20.4195585336977
30
4E-16
41
1
10
63.4735871891698
20
-20.6656211661484
30
3E-16
41
1
10
62.9390152876069
20
-21.1935582758119
30
3E-16
41
1
10
62.7855625525976
20
-21.4858115198115
30
3E-16
41
1
10
62.715564495015
20
-21.7698827460117
30
3E-16
0
SPLINE
5
26B
100
AcDbEntity
8
1
62
256
6
ByLayer
370
-1
48
1
60
0
100
AcDbSpline
70
4
71
3
72
10
73
6
40
0
40
0
40
0
40
0
40
0.288101550441341
40
0.288101550441341
40
1
40
1
40
1
40
1
41
1
10
67.7155522092102
20
15.8021046541308
30
6E-16
41
1
10
67.6661972632235
20
16.0114643290829
30
6E-16
41
1
10
67.6153931872097
20
16.2205577401606
30
6E-16
41
1
10
67.4348359524652
20
16.94554788685
30
6E-16
41
1
10
67.299301658149
20
17.4603857940759
30
6E-16
41
1
10
67.1581173794456
20
17.9741134881719
30
6E-16
0
SPLINE
5
26C
100
AcDbEntity
8
1
62
256
6
ByLayer
370
-1
48
1
60
0
100
AcDbSpline
70
4
71
3
72
18
73
14
40
0
40
0
40
0
40
0
40
0.0312500000000001
40
0.0312500000000001
40
0.0625000000000003
40
0.0625000000000003
40
0.125
40
0.125
40
0.25
40
0.25
40
0.5
40
0.5
40
1
40
1
40
1
40
1
41
1
10
68.2233920071827
20
8.32143384181015
30
6E-16
41
1
10
68.2040092240283
20
8.34417122769418
30
6E-16
41
1
10
68.179067468145
20
8.48615465216983
30
6E-16
41
1
10
68.1424264043828
20
8.69722125919498
30
6E-16
41
1
10
68.1259537315614
20
8.80306803089374
30
6E-16
41
1
10
68.0787926263893
20
9.11721233617757
30
6E-16
41
1
10
68.0502391742425
20
9.32526079255624
30
6E-16
41
1
10
67.9664436334351
20
9.94393561377234
30
6E-16
41
1
10
67.9150970141518
20
10.3452963493637
30
6E-16
41
1
10
67.7665005734995
20
11.5310364621843
30
6E-16
41
1
10
67.6730408292048
20
12.3001203053244
30
6E-16
41
1
10
67.4012648669874
20
14.5201724984229
30
6E-16
41
1
10
67.2356013417751
20
15.873880690677
30
6E-16
41
1
10
67.0720799249314
20
17.1114178657534
30
6E-16
0
SPLINE
5
26D
100
AcDbEntity
8
1
62
256
6
ByLayer
370
-1
48
1
60
0
100
AcDbSpline
70
4
71
3
72
8
73
4
40
0
40
0
40
0
40
0
40
1
40
1
40
1
40
1
41
1
10
68.41836989474
20
-12.7910931653324
30
6E-16
41
1
10
68.5965215709737
20
-13.8740793194587
30
6E-16
41
1
10
68.7682553856541
20
-14.8273190697441
30
7E-16
41
1
10
68.9414120032949
20
-15.6549328225931
30
7E-16
0
SPLINE
5
26E
100
AcDbEntity
8
1
62
256
6
ByLayer
370
-1
48
1
60
0
100
AcDbSpline
70
4
71
3
72
18
73
14
40
0
40
0
40
0
40
0
40
0.03125
40
0.03125
40
0.0625
40
0.0625
40
0.125
40
0.125
40
0.25
40
0.25
40
0.5
40
0.5
40
1
40
1
40
1
40
1
41
1
10
68.2233920071827
20
-23.8065084456295
30
-3E-16
41
1
10
68.2040130284039
20
-23.9134434740486
30
-3E-16
41
1
10
68.179125570338
20
-23.9353319531572
30
-3E-16
41
1
10
68.1424801321721
20
-23.9640562539595
30
-3E-16
41
1
10
68.1260449672135
20
-23.965002407205
30
-3E-16
41
1
10
68.0791288927102
20
-23.9548240931728
30
-3E-16
41
1
10
68.0500793320365
20
-23.9298022982368
30
-3E-16
41
1
10
67.9668148920896
20
-23.8302273777879
30
6E-16
41
1
10
67.915495594781
20
-23.7324716275919
30
6E-16
41
1
10
67.7661918924421
20
-23.3873640070396
30
6E-16
41
1
10
67.6732693017927
20
-23.0834639439276
30
6E-16
41
1
10
67.401570221894
20
-22.0238365106646
30
6E-16
41
1
10
67.2355788866925
20
-21.1267156859543
30
6E-16
41
1
10
67.0720799249316
20
-20.0563766158029
30
6E-16
0
SPLINE
5
26F
100
AcDbEntity
8
1
62
256
6
ByLayer
370
-1
48
1
60
0
100
AcDbSpline
70
4
71
3
72
10
73
6
40
0
40
0
40
0
40
0
40
0.601634359437834
40
0.601634359437834
40
1
40
1
40
1
40
1
41
1
10
67.975685615763
20
-8.45011960583594
30
6E-16
41
1
10
67.8280293673913
20
-9.68696666509945
30
6E-16
41
1
10
67.6508277392168
20
-10.9233949135054
30
6E-16
41
1
10
67.3293073563427
20
-12.9769913010606
30
6E-16
41
1
10
67.1937326304886
20
-13.7947973742745
30
6E-16
41
1
10
67.0533290653079
20
-14.6123124816101
30
6E-16
0
SPLINE
5
270
100
AcDbEntity
8
1
62
256
6
ByLayer
370
-1
48
1
60
0
100
AcDbSpline
70
4
71
3
72
18
73
14
40
0
40
0
40
0
40
0
40
0.544985755887809
40
0.544985755887809
40
0.726033765581519
40
0.726033765581519
40
0.844878398882227
40
0.844878398882227
40
0.923746909032389
40
0.923746909032389
40
0.976892924930012
40
0.976892924930012
40
1
40
1
40
1
40
1
41
1
10
68.9414120032949
20
-9.17596650671325
30
7E-16
41
1
10
69.0217452853879
20
-8.64439226215151
30
7E-16
41
1
10
69.0982895038493
20
-8.10012828654632
30
7E-16
41
1
10
69.1881185419419
20
-7.37443077930206
30
7E-16
41
1
10
69.2096291661235
20
-7.1936305465332
30
7E-16
41
1
10
69.2423463157515
20
-6.8978330200467
30
7E-16
41
1
10
69.2545891551425
20
-6.78156310041245
30
7E-16
41
1
10
69.2724124049109
20
-6.59216768867913
30
7E-16
41
1
10
69.2788723655997
20
-6.51750061684371
30
7E-16
41
1
10
69.2878315229439
20
-6.39770419881276
30
7E-16
41
1
10
69.2909215497023
20
-6.35070928917639
30
7E-16
41
1
10
69.2938505551812
20
-6.28735721099548
30
7E-16
41
1
10
69.294570367641
20
-6.26852983825461
30
7E-16
41
1
10
69.2949718490925
20
-6.25070374734912
30
7E-16
0
SPLINE
5
271
100
AcDbEntity
8
1
62
256
6
ByLayer
370
-1
48
1
60
0
100
AcDbSpline
70
4
71
3
72
8
73
4
40
0
40
0
40
0
40
0
40
1
40
1
40
1
40
1
41
1
10
59.845358233086
20
-24.4825846091618
30
0
41
1
10
59.8427298294507
20
-24.482760688597
30
0
41
1
10
59.8401026430832
20
-24.4829281709681
30
0
41
1
10
59.8374766781857
20
-24.4830870519837
30
0
0
SPLINE
5
272
100
AcDbEntity
8
SK1
62
256
6
ByLayer
370
-1
48
1
60
0
100
AcDbSpline
70
4
71
3
72
73
73
69
40
0
40
0
40
0
40
0
40
0.0018466562012542
40
0.0173088926072078
40
0.0327711290131614
40
0.048233365419115
40
0.0636956018250685
40
0.0791578382310221
40
0.0946200746369757
40
0.110082311042929
40
0.125544547448883
40
0.141006783854836
40
0.15646902026079
40
0.171931256666744
40
0.187393493072697
40
0.202855729478651
40
0.218317965884604
40
0.233780202290558
40
0.249242438696511
40
0.264704675102465
40
0.280166911508419
40
0.295629147914372
40
0.311091384320326
40
0.32655362072628
40
0.342015857132233
40
0.357478093538187
40
0.37294032994414
40
0.388402566350094
40
0.403864802756047
40
0.419327039162001
40
0.434789275567954
40
0.450251511973908
40
0.465713748379862
40
0.481175984785815
40
0.496638221191769
40
0.512100457597722
40
0.527562694003676
40
0.54302493040963
40
0.558487166815583
40
0.573949403221537
40
0.58941163962749
40
0.604873876033444
40
0.620336112439398
40
0.635798348845351
40
0.651260585251305
40
0.666722821657258
40
0.682185058063212
40
0.697647294469165
40
0.713109530875119
40
0.728571767281073
40
0.744034003687026
40
0.75949624009298
40
0.774958476498933
40
0.790420712904887
40
0.80588294931084
40
0.821345185716794
40
0.836807422122748
40
0.852269658528701
40
0.867731894934655
40
0.883194131340608
40
0.898656367746562
40
0.914118604152515
40
0.929580840558469
40
0.945043076964423
40
0.960505313370376
40
0.97596754977633
40
0.991429786182284
40
1
40
1
40
1
40
1
41
1
10
-28.5004731679065
20
16.5843275741633
30
0
41
1
10
-28.5004731679065
20
16.5890126474462
30
0
41
1
10
-28.5004731679065
20
16.632528426062
30
0
41
1
10
-28.5004731679065
20
16.7076779742402
30
0
41
1
10
-28.5004731679065
20
16.7910009100058
30
0
41
1
10
-28.5004731679065
20
16.8457973580111
30
0
41
1
10
-28.5004731679065
20
16.8661113679711
30
0
41
1
10
-28.5004731679065
20
16.8457932960415
30
0
41
1
10
-28.5004731679065
20
16.7787920295583
30
0
41
1
10
-28.5004731679065
20
16.6594441325878
30
0
41
1
10
-28.5004731679065
20
16.4827618905288
30
0
41
1
10
-28.5004731679065
20
16.2446845781523
30
0
41
1
10
-28.5004731679065
20
15.9423067030317
30
0
41
1
10
-28.5004731679065
20
15.5740550609709
30
0
41
1
10
-28.5004731679065
20
15.1398218356871
30
0
41
1
10
-28.5004731679065
20
14.6410360299331
30
0
41
1
10
-28.5004731679065
20
14.0806798361698
30
0
41
1
10
-28.5004731679065
20
13.4632415716312
30
0
41
1
10
-28.5004731679065
20
12.7946107775085
30
0
41
1
10
-28.5004731679065
20
12.0819181856553
30
0
41
1
10
-28.5004731679065
20
11.3333237326369
30
0
41
1
10
-28.5004731679065
20
10.557766572068
30
0
41
1
10
-28.5004731679065
20
9.76467681695502
30
0
41
1
10
-28.5004731679065
20
8.96367263859335
30
0
41
1
10
-28.5004731679065
20
8.16423852984713
30
0
41
1
10
-28.5004731679065
20
7.37541494914311
30
0
41
1
10
-28.5004731679065
20
6.60549138939066
30
0
41
1
10
-28.5004731679065
20
5.8617355376129
30
-1.7E-15
41
1
10
-28.5004731679065
20
5.15014758540386
30
-1.7E-15
41
1
10
-28.5004731679065
20
4.47527023543961
30
-1.7E-15
41
1
10
-28.5004731679065
20
3.84004176429181
30
-1.7E-15
41
1
10
-28.5004731679065
20
3.24571625932083
30
-1.7E-15
41
1
10
-28.5004731679065
20
2.69183828529168
30
-1.7E-15
41
1
10
-28.5004731679065
20
2.1762862832866
30
-1.7E-15
41
1
10
-28.5004731679065
20
1.69537351492639
30
-1.7E-15
41
1
10
-28.5004731679065
20
1.24400909015813
30
-1.7E-15
41
1
10
-28.5004731679065
20
0.815910920503427
30
-1.7E-15
41
1
10
-28.5004731679065
20
0.403861164287036
30
-1.7E-15
41
1
10
-28.5004731679065
20
8.53071356E-08
30
-1.7E-15
41
1
10
-28.5004731679065
20
-0.403861505515493
30
-1.7E-15
41
1
10
-28.5004731679065
20
-0.815910763441764
30
-1.7E-15
41
1
10
-28.5004731679065
20
-1.24400937717618
30
-1.7E-15
41
1
10
-28.5004731679065
20
-1.69537339652359
30
-1.7E-15
41
1
10
-28.5004731679065
20
-2.17628646987959
30
-1.7E-15
41
1
10
-28.5004731679065
20
-2.69183822496618
30
-1.7E-15
41
1
10
-28.5004731679065
20
-3.24571631402978
30
-1.7E-15
41
1
10
-28.5004731679065
20
-3.84004177292724
30
-1.7E-15
41
1
10
-28.5004731679065
20
-4.47527014618882
30
-1.7E-15
41
1
10
-28.5004731679065
20
-5.15014766379645
30
-1.7E-15
41
1
10
-28.5004731679065
20
-5.86173531329328
30
-1.7E-15
41
1
10
-28.5004731679065
20
-6.60549152820971
30
0
41
1
10
-28.5004731679065
20
-7.37541461818645
30
0
41
1
10
-28.5004731679065
20
-8.16423871111448
30
0
41
1
10
-28.5004731679065
20
-8.96367224448034
30
0
41
1
10
-28.5004731679065
20
-9.7646770167907
30
0
41
1
10
-28.5004731679065
20
-10.5577661668381
30
0
41
1
10
-28.5004731679065
20
-11.3333239249002
30
0
41
1
10
-28.5004731679065
20
-12.0819178218314
30
0
41
1
10
-28.5004731679066
20
-12.7946109377403
30
0
41
1
10
-28.5004731679066
20
-13.4632412945279
30
0
41
1
10
-28.5004731679065
20
-14.0806799452205
30
0
41
1
10
-28.5004731679065
20
-14.6410358708332
30
0
41
1
10
-28.5004731679065
20
-15.1398218825485
30
0
41
1
10
-28.5004731679065
20
-15.5740550326248
30
0
41
1
10
-28.5004731679065
20
-15.942306686368
30
0
41
1
10
-28.5004731679065
20
-16.2446846731531
30
0
41
1
10
-28.5004731679065
20
-16.4473889049666
30
0
41
1
10
-28.5004731679065
20
-16.5460151001543
30
0
41
1
10
-28.5004731679065
20
-16.578157866072
30
0
0
SPLINE
5
273
100
AcDbEntity
8
SK1
62
256
6
ByLayer
370
-1
48
1
60
0
100
AcDbSpline
70
4
71
3
72
26
73
22
40
0
40
0
40
0
40
0
40
0.466011607458034
40
0.466011607458034
40
0.67024046630168
40
0.67024046630168
40
0.77456727018221
40
0.77456727018221
40
0.857070717706419
40
0.857070717706419
40
0.898538406950324
40
0.898538406950324
40
0.918045307993239
40
0.918045307993239
40
0.937772855809251
40
0.937772855809251
40
0.955553297254221
40
0.955553297254221
40
0.984230712729842
40
0.984230712729842
40
1
40
1
40
1
40
1
41
1
10
-0.200000000000046
20
-5.88142397393347
30
0
41
1
10
-0.200000000000046
20
-5.75538988127934
30
0
41
1
10
-0.204053336884726
20
-5.62782146467677
30
0
41
1
10
-0.224291300237951
20
-5.44372978251536
30
0
41
1
10
-0.232375898168357
20
-5.3873284499669
30
0
41
1
10
-0.251389677244674
20
-5.30297629006839
30
0
41
1
10
-0.259003952916999
20
-5.27447755328694
30
0
41
1
10
-0.277073232762461
20
-5.22483382882945
30
0
41
1
10
-0.286541211569727
20
-5.20296176881411
30
0
41
1
10
-0.306529791401147
20
-5.17375294403038
30
0
41
1
10
-0.314426911926432
20
-5.1643717298173
30
0
41
1
10
-0.328481919155991
20
-5.15398148698225
30
0
41
1
10
-0.333472930985636
20
-5.15114386616668
30
0
41
1
10
-0.343977733072507
20
-5.14732547572157
30
0
41
1
10
-0.349636276202261
20
-5.14634920679938
30
0
41
1
10
-0.360093315739732
20
-5.1465317925306
30
0
41
1
10
-0.365036235354125
20
-5.14747094480913
30
0
41
1
10
-0.377122372198755
20
-5.15149960910935
30
0
41
1
10
-0.384002450469666
20
-5.1555505154767
30
0
41
1
10
-0.393629001799525
20
-5.16285427826699
30
0
41
1
10
-0.39689046960973
20
-5.16568716298278
30
0
41
1
10
-0.400000000000034
20
-5.16866679574503
30
0
0
SPLINE
5
274
100
AcDbEntity
8
SK1
62
256
6
ByLayer
370
-1
48
1
60
0
100
AcDbSpline
70
4
71
3
72
24
73
20
40
0
40
0
40
0
40
0
40
0.0299003298961631
40
0.0299003298961631
40
0.0528622635029669
40
0.0528622635029669
40
0.0709275158044995
40
0.0709275158044995
40
0.0890039000876294
40
0.0890039000876294
40
0.11362248491787
40
0.11362248491787
40
0.157577258657195
40
0.157577258657195
40
0.29602514002948
40
0.29602514002948
40
0.878150828056824
40
0.878150828056824
40
1
40
1
40
1
40
1
41
1
10
-0.400000000000034
20
5.16866682996297
30
0
41
1
10
-0.394094307655564
20
5.16300784544387
30
0
41
1
10
-0.38760623850834
20
5.15782429554133
30
0
41
1
10
-0.374945775641891
20
5.1507540726119
30
0
41
1
10
-0.368929355824321
20
5.14835070696066
30
0
41
1
10
-0.35770867701234
20
5.14629827954846
30
0
41
1
10
-0.352495529695659
20
5.14618209741417
30
0
41
1
10
-0.342356257615734
20
5.14777530545462
30
0
41
1
10
-0.337316914191888
20
5.1495007928761
30
0
41
1
10
-0.32635373840418
20
5.15512166080455
30
0
41
1
10
-0.320571087776045
20
5.15961290941803
30
0
41
1
10
-0.306345382412019
20
5.17348963231112
30
0
41
1
10
-0.298929389281341
20
5.1841444040335
30
0
41
1
10
-0.27264918279883
20
5.22929437458617
30
0
41
1
10
-0.260939846150848
20
5.26761390191822
30
0
41
1
10
-0.210796530798689
20
5.46289223314824
30
0
41
1
10
-0.204366482898251
20
5.62478131775705
30
0
41
1
10
-0.200325121553306
20
5.8154278903541
30
0
41
1
10
-0.200000000000046
20
5.8484679854401
30
0
41
1
10
-0.200000000000046
20
5.88142452370542
30
0
0
SPLINE
5
275
100
AcDbEntity
8
SK1
62
256
6
ByLayer
370
-1
48
1
60
0
100
AcDbSpline
70
4
71
3
72
22
73
18
40
0
40
0
40
0
40
0
40
0.0434921783994969
40
0.0434921783994969
40
0.0876860403067026
40
0.0876860403067026
40
0.118952127699588
40
0.118952127699588
40
0.1501558424283
40
0.1501558424283
40
0.196307791916001
40
0.196307791916001
40
0.283435745194102
40
0.283435745194102
40
0.579041181948967
40
0.579041181948967
40
1
40
1
40
1
40
1
41
1
10
-0.400000000000034
20
-5.16866679574528
30
0
41
1
10
-0.420550053748514
20
-5.18835839085108
30
0
41
1
10
-0.443027188827443
20
-5.20675192843447
30
0
41
1
10
-0.492732016073376
20
-5.23775963373393
30
0
41
1
10
-0.520750465867991
20
-5.25056923469424
30
0
41
1
10
-0.57132317141145
20
-5.26230651341535
30
0
41
1
10
-0.593569294960218
20
-5.26418855716773
30
0
41
1
10
-0.636876257397944
20
-5.26111275520464
30
0
41
1
10
-0.658413974519078
20
-5.25617334660447
30
0
41
1
10
-0.708019059178241
20
-5.23795018495881
30
0
41
1
10
-0.73522293133459
20
-5.22174262348992
30
0
41
1
10
-0.805307091704549
20
-5.16870577827882
30
0
41
1
10
-0.843008552736933
20
-5.12565182749091
30
-1E-16
41
1
10
-0.98697835479976
20
-4.93030734845306
30
-1E-16
41
1
10
-1.05565821402411
20
-4.75512394253201
30
-1E-16
41
1
10
-1.19912511806342
20
-4.32976589005261
30
-1E-16
41
1
10
-1.25838015422249
20
-4.06924736884375
30
-1E-16
41
1
10
-1.30710678118658
20
-3.80474664113271
30
-1E-16
0
SPLINE
5
276
100
AcDbEntity
8
SK1
62
256
6
ByLayer
370
-1
48
1
60
0
100
AcDbSpline
70
4
71
3
72
20
73
16
40
0
40
0
40
0
40
0
40
0.0482625705633769
40
0.0482625705633769
40
0.325220898602857
40
0.325220898602857
40
0.463381471378072
40
0.463381471378072
40
0.601551524432698
40
0.601551524432698
40
0.739735425201894
40
0.739735425201894
40
0.877939603514401
40
0.877939603514401
40
1
40
1
40
1
40
1
41
1
10
-2.19999999999999
20
15.024780913897
30
-1E-16
41
1
10
-2.19999999999999
20
15.0987632316058
30
-1E-16
41
1
10
-2.19999999163144
20
15.1713153633957
30
-1E-16
41
1
10
-2.19999985652709
20
15.6498272161843
30
-1E-16
41
1
10
-2.19999939887509
20
16.0101821224506
30
-1E-16
41
1
10
-2.19999683011554
20
16.4712024133173
30
-1E-16
41
1
10
-2.19999564996834
20
16.6117543332689
30
-1E-16
41
1
10
-2.19999230715831
20
16.8650200442632
30
1E-16
41
1
10
-2.19999013861343
20
16.9778482087754
30
1E-16
41
1
10
-2.19998437020206
20
17.1737303581388
30
0
41
1
10
-2.19998076728285
20
17.2568757984567
30
0
41
1
10
-2.19997155592222
20
17.390896629152
30
1E-16
41
1
10
-2.19996594630391
20
17.4418577268988
30
1E-16
41
1
10
-2.19995283284749
20
17.5043876537361
30
-1E-16
41
1
10
-2.19994561248387
20
17.5199107584746
30
-1E-16
41
1
10
-2.19993704319944
20
17.5200998959623
30
-1E-16
0
SPLINE
5
277
100
AcDbEntity
8
SK1
62
256
6
ByLayer
370
-1
48
1
60
0
100
AcDbSpline
70
4
71
3
72
20
73
16
40
0
40
0
40
0
40
0
40
0.107709859721965
40
0.107709859721965
40
0.254805889938703
40
0.254805889938703
40
0.401872722909155
40
0.401872722909155
40
0.54892027414468
40
0.54892027414468
40
0.695955076712821
40
0.695955076712821
40
0.842981467918194
40
0.842981467918194
40
1
40
1
40
1
40
1
41
1
10
-2.19993655780451
20
-17.5200998571236
30
-1E-16
41
1
10
-2.19994418187713
20
-17.5204461970859
30
-1E-16
41
1
10
-2.19995074650438
20
-17.5087568436266
30
-1E-16
41
1
10
-2.19996422500265
20
-17.4552443316022
30
1E-16
41
1
10
-2.19997041029711
20
-17.4038992989506
30
1E-16
41
1
10
-2.19998045819511
20
-17.2645372816575
30
0
41
1
10
-2.19998432672412
20
-17.1764163911093
30
0
41
1
10
-2.19999043378135
20
-16.9665639550929
30
1E-16
41
1
10
-2.19999267824221
20
-16.8447172876608
30
1E-16
41
1
10
-2.19999607391787
20
-16.569798663462
30
-1E-16
41
1
10
-2.1999972302832
20
-16.4165791409565
30
-1E-16
41
1
10
-2.19999885859687
20
-16.0808080953317
30
-1E-16
41
1
10
-2.19999933084273
20
-15.8980848535623
30
-1E-16
41
1
10
-2.19999991533382
20
-15.4916218225697
30
-1E-16
41
1
10
-2.19999999999999
20
-15.2657541717873
30
-1E-16
41
1
10
-2.19999999999999
20
-15.0247808645654
30
-1E-16
0
SPLINE
5
278
100
AcDbEntity
8
SK1
62
256
6
ByLayer
370
-1
48
1
60
0
100
AcDbSpline
70
4
71
3
72
41
73
37
40
0
40
0
40
0
40
0
40
0.003586261541826
40
0.0346121196535795
40
0.065637977765333
40
0.0966638358770865
40
0.12768969398884
40
0.158715552100593
40
0.189741410212347
40
0.220767268324101
40
0.251793126435854
40
0.282818984547608
40
0.313844842659361
40
0.344870700771115
40
0.375896558882868
40
0.406922416994622
40
0.437948275106375
40
0.468974133218129
40
0.499999991329882
40
0.531025849441636
40
0.562051707553389
40
0.593077565665143
40
0.624103423776896
40
0.65512928188865
40
0.686155140000403
40
0.717180998112157
40
0.74820685622391
40
0.779232714335664
40
0.810258572447417
40
0.841284430559171
40
0.872310288670924
40
0.903336146782678
40
0.934362004894431
40
0.965387863006185
40
0.996413721117938
40
1
40
1
40
1
40
1
41
1
10
-2.20000000000005
20
-10.2416915120114
30
-1E-16
41
1
10
-2.20000000000005
20
-10.2098170446198
30
-1E-16
41
1
10
-2.20000000000005
20
-9.90198508683847
30
-1E-16
41
1
10
-2.20000000000005
20
-9.3149808480191
30
-1E-16
41
1
10
-2.20000000000005
20
-8.48421552667966
30
-1E-16
41
1
10
-2.20000000000005
20
-7.66447545612931
30
-1E-16
41
1
10
-2.20000000000005
20
-6.86437716583347
30
-1E-16
41
1
10
-2.20000000000005
20
-6.09147129549578
30
-1E-16
41
1
10
-2.20000000000005
20
-5.35199475664402
30
-1E-16
41
1
10
-2.20000000000005
20
-4.6506671110304
30
-1E-16
41
1
10
-2.20000000000005
20
-3.99054255831777
30
-1E-16
41
1
10
-2.20000000000005
20
-3.37292400688881
30
-1E-16
41
1
10
-2.20000000000005
20
-2.79733805829036
30
-1E-16
41
1
10
-2.20000000000005
20
-2.26158054799637
30
-1E-16
41
1
10
-2.20000000000005
20
-1.76181929549949
30
-1E-16
41
1
10
-2.20000000000005
20
-1.29276519791185
30
-1E-16
41
1
10
-2.20000000000005
20
-0.847888335032877
30
-1E-16
41
1
10
-2.20000000000005
20
-0.419689842123091
30
-1E-16
41
1
10
-2.20000000000005
20
8.86504949E-08
30
-1E-16
41
1
10
-2.20000000000005
20
0.419689487520998
30
-1E-16
41
1
10
-2.20000000000005
20
0.847888498250114
30
-1E-16
41
1
10
-2.20000000000005
20
1.29276489964477
30
-1E-16
41
1
10
-2.20000000000005
20
1.7618194185427
30
-1E-16
41
1
10
-2.20000000000005
20
2.26158035409029
30
-1E-16
41
1
10
-2.20000000000005
20
2.79733812098013
30
-1E-16
41
1
10
-2.20000000000005
20
3.37292395003561
30
-1E-16
41
1
10
-2.20000000000005
20
3.99054254934384
30
-1E-16
41
1
10
-2.20000000000005
20
4.65066720377908
30
-1E-16
41
1
10
-2.20000000000005
20
5.35199467517899
30
-1E-16
41
1
10
-2.20000000000005
20
6.091471528607
30
-1E-16
41
1
10
-2.20000000000005
20
6.86437702157369
30
-1E-16
41
1
10
-2.20000000000005
20
7.66447580005692
30
-1E-16
41
1
10
-2.20000000000005
20
8.48421533830793
30
-1E-16
41
1
10
-2.20000000000005
20
9.31498125757835
30
-1E-16
41
1
10
-2.20000000000005
20
9.90198521620599
30
-1E-16
41
1
10
-2.20000000000005
20
10.2098173562794
30
-1E-16
41
1
10
-2.20000000000005
20
10.2416919827174
30
-1E-16
0
SPLINE
5
279
100
AcDbEntity
8
SK1
62
256
6
ByLayer
370
-1
48
1
60
0
100
AcDbSpline
70
4
71
3
72
30
73
26
40
0
40
0
40
0
40
0
40
0.0056618334911046
40
0.0508667594127283
40
0.096071685334352
40
0.141276611255976
40
0.186481537177599
40
0.231686463099223
40
0.276891389020847
40
0.32209631494247
40
0.367301240864094
40
0.412506166785718
40
0.457711092707342
40
0.502916018628965
40
0.548120944550589
40
0.593325870472213
40
0.638530796393836
40
0.68373572231546
40
0.728940648237084
40
0.774145574158708
40
0.819350500080331
40
0.864555426001955
40
0.909760351923579
40
0.954965277845202
40
1
40
1
40
1
40
1
41
1
10
-0.400000000000034
20
-5.16866679574528
30
0
41
1
10
-0.400000000000034
20
-5.1981823917107
30
0
41
1
10
-0.400000000000034
20
-5.46426938707833
30
0
41
1
10
-0.400000000000034
20
-5.98219146197602
30
0
41
1
10
-0.400000000000034
20
-6.74713361247495
30
0
41
1
10
-0.400000000000034
20
-7.53968849279406
30
0
41
1
10
-0.400000000000034
20
-8.35230648563555
30
0
41
1
10
-0.400000000000034
20
-9.17636769820604
30
0
41
1
10
-0.400000000000034
20
-10.0024728331477
30
0
41
1
10
-0.400000000000034
20
-10.8207538150476
30
0
41
1
10
-0.400000000000034
20
-11.6212070931939
30
0
41
1
10
-0.400000000000034
20
-12.3940190774915
30
0
41
1
10
-0.400000000000034
20
-13.1298916243886
30
0
41
1
10
-0.400000000000034
20
-13.8203332490725
30
0
41
1
10
-0.400000000000034
20
-14.4579281585871
30
0
41
1
10
-0.400000000000034
20
-15.0365497976464
30
0
41
1
10
-0.400000000000034
20
-15.5515337877379
30
0
41
1
10
-0.400000000000034
20
-15.9997825456108
30
0
41
1
10
-0.400000000000034
20
-16.379817481596
30
0
41
1
10
-0.400000000000034
20
-16.6917603323907
30
0
41
1
10
-0.400000000000034
20
-16.9372586651848
30
0
41
1
10
-0.400000000000034
20
-17.1193485969266
30
0
41
1
10
-0.400000000000034
20
-17.2422669751987
30
0
41
1
10
-0.400000000000034
20
-17.3111334340151
30
0
41
1
10
-0.400000000000034
20
-17.3250933642434
30
0
41
1
10
-0.400000000000034
20
-17.3251497957129
30
0
0
SPLINE
5
27A
100
AcDbEntity
8
SK1
62
256
6
ByLayer
370
-1
48
1
60
0
100
AcDbSpline
70
4
71
3
72
14
73
10
40
0
40
0
40
0
40
0
40
0.10357574079845
40
0.255914577449822
40
0.408253414101195
40
0.560592250752568
40
0.712931087403941
40
0.865269924055314
40
1
40
1
40
1
40
1
41
1
10
-2.20000000000005
20
-15.0247808645648
30
-1E-16
41
1
10
-2.20000000000005
20
-14.8954704310019
30
-1E-16
41
1
10
-2.20000000000005
20
-14.5640748657279
30
-1E-16
41
1
10
-2.20000000000005
20
-13.9908991973699
30
-1E-16
41
1
10
-2.20000000000005
20
-13.2960635543425
30
-1E-16
41
1
10
-2.20000000000005
20
-12.5554382231013
30
-1E-16
41
1
10
-2.20000000000005
20
-11.7775050699617
30
-1E-16
41
1
10
-2.20000000000005
20
-11.0026045240078
30
-1E-16
41
1
10
-2.20000000000005
20
-10.4855729233102
30
-1E-16
41
1
10
-2.20000000000005
20
-10.2416915120114
30
-1E-16
0
SPLINE
5
27B
100
AcDbEntity
8
SK1
62
256
6
ByLayer
370
-1
48
1
60
0
100
AcDbSpline
70
4
71
3
72
79
73
75
40
0
40
0
40
0
40
0
40
0.0067087494196552
40
0.0208027852829943
40
0.0348968211463333
40
0.0489908570096724
40
0.0630848928730114
40
0.0771789287363505
40
0.0912729645996895
40
0.105367000463029
40
0.119461036326368
40
0.133555072189707
40
0.147649108053046
40
0.161743143916385
40
0.175837179779724
40
0.189931215643063
40
0.204025251506402
40
0.218119287369741
40
0.23221332323308
40
0.246307359096419
40
0.260401394959758
40
0.274495430823097
40
0.288589466686436
40
0.302683502549775
40
0.316777538413114
40
0.330871574276453
40
0.344965610139792
40
0.359059646003131
40
0.373153681866471
40
0.387247717729809
40
0.401341753593149
40
0.415435789456488
40
0.429529825319827
40
0.443623861183166
40
0.457717897046505
40
0.471811932909844
40
0.485905968773183
40
0.500000004636522
40
0.514094040499861
40
0.5281880763632
40
0.542282112226539
40
0.556376148089878
40
0.570470183953217
40
0.584564219816556
40
0.598658255679895
40
0.612752291543234
40
0.626846327406573
40
0.640940363269912
40
0.655034399133251
40
0.66912843499659
40
0.68322247085993
40
0.697316506723269
40
0.711410542586608
40
0.725504578449947
40
0.739598614313286
40
0.753692650176625
40
0.767786686039964
40
0.781880721903303
40
0.795974757766642
40
0.810068793629981
40
0.82416282949332
40
0.838256865356659
40
0.852350901219998
40
0.866444937083337
40
0.880538972946676
40
0.894633008810015
40
0.908727044673354
40
0.922821080536693
40
0.936915116400032
40
0.951009152263371
40
0.965103188126711
40
0.979197223990049
40
0.993291259853389
40
1
40
1
40
1
40
1
41
1
10
-3
20
-17.2891030022515
30
-2E-16
41
1
10
-3
20
-17.3064425245463
30
-2E-16
41
1
10
-3
20
-17.3576824676036
30
-2E-16
41
1
10
-3
20
-17.4290648746259
30
-2E-16
41
1
10
-3
20
-17.4859427971309
30
-2E-16
41
1
10
-3
20
-17.5070292572437
30
-2E-16
41
1
10
-3
20
-17.4859401738945
30
-2E-16
41
1
10
-3
20
-17.4163913620312
30
0
41
1
10
-3
20
-17.2925088911448
30
0
41
1
10
-3
20
-17.1091123896189
30
0
41
1
10
-3
20
-16.8619882313057
30
0
41
1
10
-3
20
-16.5481197778907
30
-2E-16
41
1
10
-3
20
-16.1658744357057
30
-2E-16
41
1
10
-3
20
-15.7151402778227
30
-2E-16
41
1
10
-3
20
-15.1974002275414
30
-2E-16
41
1
10
-3
20
-14.6157505856349
30
-2E-16
41
1
10
-3
20
-13.9748490556261
30
-2E-16
41
1
10
-3
20
-13.2808105172309
30
-2E-16
41
1
10
-3
20
-12.5410348198394
30
-2E-16
41
1
10
-3
20
-11.763994099502
30
-2E-16
41
1
10
-3
20
-10.9589648821141
30
-2E-16
41
1
10
-3
20
-10.1357380738661
30
-2E-16
41
1
10
-3
20
-9.30429484700929
30
-2E-16
41
1
10
-3
20
-8.47448256671282
30
-2E-16
41
1
10
-3
20
-7.6556828892094
30
-2E-16
41
1
10
-3
20
-6.85650245921596
30
-2E-16
41
1
10
-3
20
-6.08448325445985
30
-2E-16
41
1
10
-3
20
-5.34585503158101
30
-2E-16
41
1
10
-3
20
-4.64533193812392
30
-2E-16
41
1
10
-3
20
-3.9859646700211
30
-2E-16
41
1
10
-3
20
-3.36905464097902
30
-2E-16
41
1
10
-3
20
-2.79412899561987
30
-2E-16
41
1
10
-3
20
-2.25898609800083
30
-2E-16
41
1
10
-3
20
-1.75979816383233
30
-2E-16
41
1
10
-3
20
-1.29128215780307
30
-2E-16
41
1
10
-3
20
-0.846915650735156
30
-2E-16
41
1
10
-3
20
-0.41920838047011
30
-2E-16
41
1
10
-3
20
8.85488021E-08
30
-2E-16
41
1
10
-3
20
0.419208026274788
30
-2E-16
41
1
10
-3
20
0.84691581376515
30
-2E-16
41
1
10
-3
20
1.29128185987813
30
-2E-16
41
1
10
-3
20
1.75979828673439
30
-2E-16
41
1
10
-3
20
2.25898590431717
30
-2E-16
41
1
10
-3
20
2.79412905823773
30
-2E-16
41
1
10
-3
20
3.36905458419105
30
-2E-16
41
1
10
-3
20
3.98596466105747
30
-2E-16
41
1
10
-3
20
4.64533203076618
30
-2E-16
41
1
10
-3
20
5.34585495020943
30
-2E-16
41
1
10
-3
20
6.08448348730366
30
-2E-16
41
1
10
-3
20
6.85650231512167
30
-2E-16
41
1
10
-3
20
7.65568323274246
30
-2E-16
41
1
10
-3
20
8.47448237855718
30
-2E-16
41
1
10
-3
20
9.3042952560987
30
-2E-16
41
1
10
-3
20
10.1357378664365
30
-2E-16
41
1
10
-3
20
10.9589653027428
30
-2E-16
41
1
10
-3
20
11.7639938999324
30
-2E-16
41
1
10
-3
20
12.5410351974886
30
-2E-16
41
1
10
-3
20
13.2808103509102
30
-2E-16
41
1
10
-3
20
13.9748493432595
30
-2E-16
41
1
10
-3
20
14.6157504724401
30
-2E-16
41
1
10
-3
20
15.1974003926871
30
-2E-16
41
1
10
-3
20
15.7151402291805
30
-2E-16
41
1
10
-3
20
16.1658744651289
30
-2E-16
41
1
10
-3
20
16.5481197951877
30
-2E-16
41
1
10
-3
20
16.8619881326948
30
0
41
1
10
-3
20
17.1091124641426
30
0
41
1
10
-3
20
17.2925086916609
30
0
41
1
10
-3
20
17.4163918494222
30
0
41
1
10
-3
20
17.4859391868839
30
-2E-16
41
1
10
-3
20
17.5070293524766
30
-2E-16
41
1
10
-3
20
17.4859434032096
30
-2E-16
41
1
10
-3
20
17.4290646714908
30
-2E-16
41
1
10
-3
20
17.3576822650584
30
-2E-16
41
1
10
-3
20
17.3064424609915
30
-2E-16
41
1
10
-3
20
17.2891029979489
30
-2E-16
0
SPLINE
5
27C
100
AcDbEntity
8
SK1
62
256
6
ByLayer
370
-1
48
1
60
0
100
AcDbSpline
70
4
71
3
72
14
73
10
40
0
40
0
40
0
40
0
40
0.134730002443746
40
0.287068852257179
40
0.439407702070613
40
0.591746551884047
40
0.744085401697481
40
0.896424251510915
40
1
40
1
40
1
40
1
41
1
10
-2.20000000000005
20
10.2416919827174
30
-1E-16
41
1
10
-2.20000000000005
20
10.4855732775987
30
-1E-16
41
1
10
-2.20000000000005
20
11.0026050713442
30
-1E-16
41
1
10
-2.20000000000005
20
11.777504870163
30
-1E-16
41
1
10
-2.20000000000005
20
12.5554386011843
30
-1E-16
41
1
10
-2.20000000000005
20
13.2960633878308
30
-1E-16
41
1
10
-2.20000000000005
20
13.9908994853336
30
-1E-16
41
1
10
-2.20000000000005
20
14.5640747934535
30
-1E-16
41
1
10
-2.20000000000005
20
14.8954704523378
30
-1E-16
41
1
10
-2.20000000000005
20
15.0247809138972
30
-1E-16
0
SPLINE
5
27D
100
AcDbEntity
8
SK1
62
256
6
ByLayer
370
-1
48
1
60
0
100
AcDbSpline
70
4
71
3
72
79
73
75
40
0
40
0
40
0
40
0
40
0.0074030719668266
40
0.0214772709930679
40
0.0355514700193092
40
0.0496256690455505
40
0.0636998680717918
40
0.0777740670980331
40
0.0918482661242744
40
0.105922465150516
40
0.119996664176757
40
0.134070863202998
40
0.14814506222924
40
0.162219261255481
40
0.176293460281722
40
0.190367659307964
40
0.204441858334205
40
0.218516057360446
40
0.232590256386687
40
0.246664455412929
40
0.26073865443917
40
0.274812853465411
40
0.288887052491653
40
0.302961251517894
40
0.317035450544135
40
0.331109649570376
40
0.345183848596618
40
0.359258047622859
40
0.3733322466491
40
0.387406445675342
40
0.401480644701583
40
0.415554843727824
40
0.429629042754066
40
0.443703241780307
40
0.457777440806548
40
0.471851639832789
40
0.485925838859031
40
0.500000037885272
40
0.514074236911513
40
0.528148435937755
40
0.542222634963996
40
0.556296833990237
40
0.570371033016479
40
0.58444523204272
40
0.598519431068961
40
0.612593630095203
40
0.626667829121444
40
0.640742028147685
40
0.654816227173926
40
0.668890426200168
40
0.682964625226409
40
0.69703882425265
40
0.711113023278892
40
0.725187222305133
40
0.739261421331374
40
0.753335620357615
40
0.767409819383857
40
0.781484018410098
40
0.795558217436339
40
0.809632416462581
40
0.823706615488822
40
0.837780814515063
40
0.851855013541305
40
0.865929212567546
40
0.880003411593787
40
0.894077610620029
40
0.90815180964627
40
0.922226008672511
40
0.936300207698752
40
0.950374406724994
40
0.964448605751235
40
0.978522804777476
40
0.992597003803718
40
1
40
1
40
1
40
1
41
1
10
-2
20
17.1116144542523
30
-1E-16
41
1
10
-2
20
17.130673773544
30
-1E-16
41
1
10
-2
20
17.1831798973958
30
-1E-16
41
1
10
-2
20
17.2550395308993
30
-1E-16
41
1
10
-2
20
17.3112459497451
30
-1E-16
41
1
10
-2
20
17.3321089735132
30
-1E-16
41
1
10
-2
20
17.311218988921
30
-1E-16
41
1
10
-2
20
17.2422674474922
30
1E-16
41
1
10
-2
20
17.1193484069474
30
0
41
1
10
-2
20
16.9372587367204
30
0
41
1
10
-2
20
16.6917602356259
30
1E-16
41
1
10
-2
20
16.3798174953022
30
-1E-16
41
1
10
-2
20
15.9997825770269
30
-1E-16
41
1
10
-2
20
15.5515337348698
30
-1E-16
41
1
10
-2
20
15.0365499649754
30
-1E-16
41
1
10
-2
20
14.4579280405673
30
-1E-16
41
1
10
-2
20
13.8203335391023
30
-1E-16
41
1
10
-2
20
13.1298914527523
30
-1E-16
41
1
10
-2
20
12.39401945775
30
-1E-16
41
1
10
-2
20
11.6212068879994
30
-1E-16
41
1
10
-2
20
10.8207542384819
30
-1E-16
41
1
10
-2
20
10.00247262006
30
-1E-16
41
1
10
-2
20
9.17636811026827
30
-1E-16
41
1
10
-2
20
8.35230629219913
30
-1E-16
41
1
10
-2
20
7.53968883941312
30
-1E-16
41
1
10
-2
20
6.74713346409783
30
-1E-16
41
1
10
-2
20
5.98219169787032
30
-1E-16
41
1
10
-2
20
5.2510926488325
30
-1E-16
41
1
10
-2
20
4.55854550233684
30
-1E-16
41
1
10
-2
20
3.90758262960779
30
-1E-16
41
1
10
-2
20
3.29948777527221
30
-1E-16
41
1
10
-2
20
2.73375387844547
30
-1E-16
41
1
10
-2
20
2.20813463136872
30
-1E-16
41
1
10
-2
20
1.71876156390923
30
-1E-16
41
1
10
-2
20
1.26029526086333
30
-1E-16
41
1
10
-2
20
0.826158476850765
30
-1E-16
41
1
10
-2
20
0.408799134273892
30
-1E-16
41
1
10
-2
20
2.402494488E-07
30
-1E-16
41
1
10
-2
20
-0.408799553455736
30
-1E-16
41
1
10
-2
20
-0.82615842677356
30
-1E-16
41
1
10
-2
20
-1.26029551010325
30
-1E-16
41
1
10
-2
20
-1.71876142586774
30
-1E-16
41
1
10
-2
20
-2.20813448047156
30
-1E-16
41
1
10
-2
20
-2.7337537633878
30
-1E-16
41
1
10
-2
20
-3.29948825001514
30
-1E-16
41
1
10
-2
20
-3.90758266192117
30
-1E-16
41
1
10
-2
20
-4.55854530449344
30
-1E-16
41
1
10
-2
20
-5.25109273249788
30
-1E-16
41
1
10
-2
20
-5.98219146197602
30
-1E-16
41
1
10
-2
20
-6.74713361247495
30
-1E-16
41
1
10
-2
20
-7.53968849279406
30
-1E-16
41
1
10
-2
20
-8.35230648563552
30
-1E-16
41
1
10
-2
20
-9.17636769820604
30
-1E-16
41
1
10
-2
20
-10.0024728331477
30
-1E-16
41
1
10
-2
20
-10.8207538150476
30
-1E-16
41
1
10
-2
20
-11.6212070931939
30
-1E-16
41
1
10
-2
20
-12.3940190774914
30
-1E-16
41
1
10
-2
20
-13.1298916243886
30
-1E-16
41
1
10
-2
20
-13.8203332490725
30
-1E-16
41
1
10
-2
20
-14.4579281585871
30
-1E-16
41
1
10
-2
20
-15.0365497976464
30
-1E-16
41
1
10
-2
20
-15.5515337877379
30
-1E-16
41
1
10
-2
20
-15.9997825456108
30
-1E-16
41
1
10
-2
20
-16.379817481596
30
-1E-16
41
1
10
-2
20
-16.6917603323907
30
1E-16
41
1
10
-2
20
-16.9372586651848
30
0
41
1
10
-2
20
-17.1193485969266
30
0
41
1
10
-2
20
-17.2422669751987
30
1E-16
41
1
10
-2
20
-17.3112199736996
30
-1E-16
41
1
10
-2
20
-17.3321088799281
30
-1E-16
41
1
10
-2
20
-17.3112453434672
30
-1E-16
41
1
10
-2
20
-17.2550397180126
30
-1E-16
41
1
10
-2
20
-17.1831802767639
30
-1E-16
41
1
10
-1.99999999999994
20
-17.1306742509789
30
-1E-16
41
1
10
-2
20
-17.1116151105923
30
-1E-16
0
SPLINE
5
27E
100
AcDbEntity
8
SK1
62
256
6
ByLayer
370
-1
48
1
60
0
100
AcDbSpline
70
4
71
3
72
10
73
6
40
0
40
0
40
0
40
0
40
0.5
40
0.5
40
1
40
1
40
1
40
1
41
1
10
-1.30710678118658
20
3.80474436172742
30
-1E-16
41
1
10
-1.52921682270318
20
2.59907728352434
30
-1E-16
41
1
10
-1.70909405340865
20
1.31281235086666
30
-1E-16
41
1
10
-1.70963179300867
20
-1.30649832374493
30
-1E-16
41
1
10
-1.52966155970608
20
-2.5966617696443
30
-1E-16
41
1
10
-1.30710678118663
20
-3.80474664113297
30
-1E-16
0
SPLINE
5
27F
100
AcDbEntity
8
SK1
62
256
6
ByLayer
370
-1
48
1
60
0
100
AcDbSpline
70
4
71
3
72
22
73
18
40
0
40
0
40
0
40
0
40
0.352684316750051
40
0.352684316750051
40
0.750046292484899
40
0.750046292484899
40
0.835479263400861
40
0.835479263400861
40
0.86935277413835
40
0.86935277413835
40
0.903637365464604
40
0.903637365464604
40
0.934112944215775
40
0.934112944215775
40
0.983611230456553
40
0.983611230456553
40
1
40
1
40
1
40
1
41
1
10
-1.30710678118658
20
3.80474436172742
30
-1E-16
41
1
10
-1.26637440296071
20
4.02584957204775
30
-1E-16
41
1
10
-1.21786346361694
20
4.24386265362048
30
-1E-16
41
1
10
-1.08311917044625
20
4.69265802851214
30
-1E-16
41
1
10
-1.00360006874376
20
4.93633956823067
30
-1E-16
41
1
10
-0.8033447497628
20
5.16879396055813
30
0
41
1
10
-0.761021311877812
20
5.20853400127967
30
0
41
1
10
-0.689167148695731
20
5.24561851051851
30
0
41
1
10
-0.666676206231386
20
5.25408214518689
30
0
41
1
10
-0.619919785859736
20
5.26355270960357
30
0
41
1
10
-0.595012690956537
20
5.26445496143654
30
0
41
1
10
-0.549926195162811
20
5.25839930645884
30
0
41
1
10
-0.529028206588009
20
5.25231844804927
30
0
41
1
10
-0.478237300450644
20
5.2307965704984
30
0
41
1
10
-0.449806665426422
20
5.21177878736736
30
0
41
1
10
-0.416050679082105
20
5.18357602352128
30
0
41
1
10
-0.407890864165267
20
5.17622805658175
30
0
41
1
10
-0.400000000000034
20
5.16866682996363
30
0
0
SPLINE
5
280
100
AcDbEntity
8
1
62
256
6
ByLayer
370
-1
48
1
60
0
100
AcDbSpline
70
4
71
3
72
14
73
10
40
0
40
0
40
0
40
0
40
0.245608019549652
40
0.245608019549652
40
0.497072013033101
40
0.497072013033101
40
0.748536006516551
40
0.748536006516551
40
1
40
1
40
1
40
1
41
1
10
67.8962093659562
20
25.7099758969667
30
0
41
1
10
67.9863779618869
20
25.708917683969
30
0
41
1
10
68.0579907775204
20
25.6956819300152
30
0
41
1
10
68.2327383233414
20
25.6312775564812
30
0
41
1
10
68.2968740218956
20
25.594092221899
30
0
41
1
10
68.440877544789
20
25.4725785396902
30
0
41
1
10
68.4884927886182
20
25.4157663101965
30
0
41
1
10
68.5823623126404
20
25.2525887022043
30
0
41
1
10
68.6077159737806
20
25.1828228265909
30
0
41
1
10
68.6241288923265
20
25.0900311099996
30
0
0
SPLINE
5
281
100
AcDbEntity
8
1
62
256
6
ByLayer
370
-1
48
1
60
0
100
AcDbSpline
70
4
71
1
72
4
73
2
40
0
40
0
40
1
40
1
41
1
10
67.6165593719682
20
25.9607414084617
30
0
41
1
10
67.589788300673
20
25.9600801184507
30
0
0
SPLINE
5
282
100
AcDbEntity
8
1
62
256
6
ByLayer
370
-1
48
1
60
0
100
AcDbSpline
70
4
71
1
72
4
73
2
40
0
40
0
40
1
40
1
41
1
10
69.9992891560181
20
18.0647634971743
30
0
41
1
10
69.9986112480321
20
18.0915227487201
30
0
0
SPLINE
5
283
100
AcDbEntity
8
1
62
256
6
ByLayer
370
-1
48
1
60
0
100
AcDbSpline
70
4
71
3
72
12
73
8
40
0
40
0
40
0
40
0
40
0.256234765497273
40
0.256234765497273
40
0.51246953099509
40
0.51246953099509
40
1
40
1
40
1
40
1
41
1
10
69.7485794410272
20
17.7853940066533
30
0
41
1
10
69.7695453141589
20
17.7860502549714
30
0
41
1
10
69.7905111777642
20
17.7867065092057
30
0
41
1
10
69.8324428816919
20
17.7880190531874
30
0
41
1
10
69.8534087222742
20
17.7886753379066
30
0
41
1
10
69.9142656253746
20
17.7905803560196
30
0
41
1
10
69.9541566558318
20
17.791829125267
30
0
41
1
10
69.9940476414957
20
17.7930779445996
30
0
0
SPLINE
5
284
100
AcDbEntity
8
1
62
256
6
ByLayer
370
-1
48
1
60
0
100
AcDbSpline
70
4
71
3
72
8
73
4
40
0
40
0
40
0
40
0
40
1
40
1
40
1
40
1
41
1
10
67.6270354343168
20
25.9602458638457
30
0
41
1
10
67.6235583503495
20
25.9604118608429
30
0
41
1
10
67.6200795724185
20
25.9605773701806
30
0
41
1
10
67.6165991049214
20
25.9607423899317
30
0
0
SPLINE
5
285
100
AcDbEntity
8
1
62
256
6
ByLayer
370
-1
48
1
60
0
100
AcDbSpline
70
4
71
3
72
12
73
8
40
0
40
0
40
0
40
0
40
0.256234765497282
40
0.256234765497282
40
0.512469530995062
40
0.512469530995062
40
1
40
1
40
1
40
1
41
1
10
67.8962093707463
20
25.709975896988
30
0
41
1
10
67.8957331205012
20
25.7309968485162
30
0
41
1
10
67.8952568674506
20
25.7520177915602
30
0
41
1
10
67.8943043332488
20
25.7940596568648
30
0
41
1
10
67.893828057085
20
25.8150805793679
30
0
41
1
10
67.8924455559574
20
25.8760973709854
30
0
41
1
10
67.8915393054646
20
25.9160932115103
30
0
41
1
10
67.8906330193097
20
25.9560890120909
30
0
0
SPLINE
5
286
100
AcDbEntity
8
1
62
256
6
ByLayer
370
-1
48
1
60
0
100
AcDbSpline
70
4
71
3
72
8
73
4
40
0
40
0
40
0
40
0
40
1
40
1
40
1
40
1
41
1
10
69.9987043547431
20
18.0545785172699
30
0
41
1
10
69.9989001699136
20
18.0579584107921
30
0
41
1
10
69.9990954397775
20
18.0613401668309
30
0
41
1
10
69.9992901621521
20
18.0647237817637
30
0
0
SPLINE
5
287
100
AcDbEntity
8
1
62
256
6
ByLayer
370
-1
48
1
60
0
100
AcDbSpline
70
4
71
3
72
8
73
4
40
0
40
0
40
0
40
0
40
1
40
1
40
1
40
1
41
1
10
67.890473946877
20
25.9560892344435
30
0
41
1
10
67.8026609586483
20
25.9576066471207
30
0
41
1
10
67.7148479224661
20
25.958992183822
30
0
41
1
10
67.6270354343167
20
25.9602458638457
30
0
0
SPLINE
5
288
100
AcDbEntity
8
1
62
256
6
ByLayer
370
-1
48
1
60
0
100
AcDbSpline
70
4
71
3
72
8
73
4
40
0
40
0
40
0
40
0
40
1
40
1
40
1
40
1
41
1
10
69.9018441568341
20
0.825408888313149
30
7E-16
41
1
10
69.9325786781358
20
0.820641949511185
30
7E-16
41
1
10
69.9633131731106
20
0.815874851544976
30
7E-16
41
1
10
69.9940476414957
20
0.811107592840926
30
7E-16
0
SPLINE
5
289
100
AcDbEntity
8
1
62
256
6
ByLayer
370
-1
48
1
60
0
100
AcDbSpline
70
4
71
2
72
6
73
3
40
0
40
0
40
0
40
1
40
1
40
1
41
1
10
69.9982845677616
20
0.931196569697676
30
7E-16
41
1
10
69.9974003571476
20
0.947971235180006
30
7E-16
41
1
10
69.9679497812063
20
0.963995822971839
30
7E-16
0
SPLINE
5
28A
100
AcDbEntity
8
1
62
256
6
ByLayer
370
-1
48
1
60
0
100
AcDbSpline
70
4
71
2
72
16
73
13
40
0
40
0
40
0
40
0.0714285714285714
40
0.0714285714285714
40
0.125
40
0.125
40
0.25
40
0.25
40
0.5
40
0.5
40
0.75
40
0.75
40
1
40
1
40
1
41
1
10
69.6774785286706
20
-1.48617025779927
30
7E-16
41
1
10
69.678256809766
20
-1.4823621193996
30
7E-16
41
1
10
69.6708447489287
20
-1.51130217748738
30
7E-16
41
1
10
69.667811842657
20
-1.52314402358186
30
7E-16
41
1
10
69.6635208560912
20
-1.54003196552054
30
7E-16
41
1
10
69.6562918603312
20
-1.56848296596036
30
7E-16
41
1
10
69.6460633800255
20
-1.60900381323654
30
7E-16
41
1
10
69.6306098705738
20
-1.67022398257379
30
7E-16
41
1
10
69.6110789184382
20
-1.74801237882616
30
7E-16
41
1
10
69.5938747565606
20
-1.81653357287902
30
7E-16
41
1
10
69.5763767324077
20
-1.88648293170132
30
7E-16
41
1
10
69.5579092023701
20
-1.96030794610687
30
7E-16
41
1
10
69.5422202851908
20
-2.02330669098174
30
7E-16
0
SPLINE
5
28B
100
AcDbEntity
8
1
62
256
6
ByLayer
370
-1
48
1
60
0
100
AcDbSpline
70
4
71
3
72
12
73
8
40
0
40
0
40
0
40
0
40
0.470028301589371
40
0.470028301589371
40
0.940073053311502
40
0.940073053311502
40
1
40
1
40
1
40
1
41
1
10
69.6281820088705
20
-1.71771852526274
30
7E-16
41
1
10
69.6372385799828
20
-1.67621933396384
30
7E-16
41
1
10
69.6456972525467
20
-1.63705750269361
30
7E-16
41
1
10
69.6613353090748
20
-1.56375000987788
30
7E-16
41
1
10
69.6685179073708
20
-1.52958919072756
30
7E-16
41
1
10
69.6758525132752
20
-1.49407388906084
30
7E-16
41
1
10
69.6766710158063
20
-1.49010048528587
30
7E-16
41
1
10
69.6774785286672
20
-1.48617025781263
30
7E-16
0
SPLINE
5
28C
100
AcDbEntity
8
1
62
256
6
ByLayer
370
-1
48
1
60
0
100
AcDbSpline
70
4
71
3
72
10
73
6
40
0
40
0
40
0
40
0
40
0.829216299517487
40
0.829216299517487
40
1
40
1
40
1
40
1
41
1
10
69.9929568947903
20
0.806930673266805
30
7E-16
41
1
10
69.9883352583164
20
0.797215903392186
30
7E-16
41
1
10
69.9691927683068
20
0.787243678921726
30
7E-16
41
1
10
69.9298957679098
20
0.775630562332793
30
7E-16
41
1
10
69.9225811151042
20
0.773653424345923
30
7E-16
41
1
10
69.9146901490238
20
0.771687485991066
30
7E-16
0
SPLINE
5
28D
100
AcDbEntity
8
1
62
256
6
ByLayer
370
-1
48
1
60
0
100
AcDbSpline
70
4
71
3
72
12
73
8
40
0
40
0
40
0
40
0
40
0.319903545078753
40
0.319903545078753
40
0.793516743526665
40
0.793516743526665
40
1
40
1
40
1
40
1
41
1
10
69.5731442449338
20
-1.94541350831537
30
7E-16
41
1
10
69.580254615234
20
-1.91646499530464
30
7E-16
41
1
10
69.5872348773398
20
-1.88798687560197
30
7E-16
41
1
10
69.6038105827051
20
-1.82011427539413
30
7E-16
41
1
10
69.6134413471977
20
-1.78049530399213
30
7E-16
41
1
10
69.6239113406938
20
-1.73644279078874
30
7E-16
41
1
10
69.626678891911
20
-1.72460616662451
30
7E-16
41
1
10
69.6281820544597
20
-1.71771834694252
30
7E-16
0
SPLINE
5
28E
100
AcDbEntity
8
1
62
256
6
ByLayer
370
-1
48
1
60
0
100
AcDbSpline
70
4
71
3
72
30
73
26
40
0
40
0
40
0
40
0
40
5.9504225189E-05
40
5.9504225189E-05
40
0.222010550379733
40
0.222010550379733
40
0.313939703133623
40
0.313939703133623
40
0.636452601787036
40
0.636452601787036
40
0.807345124783007
40
0.807345124783007
40
0.876164772548537
40
0.876164772548537
40
0.904609094135001
40
0.904609094135001
40
0.939971734568853
40
0.939971734568853
40
0.959842476966361
40
0.959842476966361
40
0.981991309629712
40
0.981991309629712
40
0.999940495776306
40
0.999940495776306
40
1
40
1
40
1
40
1
41
1
10
69.1443473230975
20
-2.0340959643998
30
7E-16
41
1
10
69.144365195735
20
-2.03408702182335
30
7E-16
41
1
10
69.1443830679645
20
-2.03407807843092
30
7E-16
41
1
10
69.2110637025932
20
-2.00070911676525
30
7E-16
41
1
10
69.2744299175045
20
-1.96016070607558
30
7E-16
41
1
10
69.3539370558733
20
-1.89607638471222
30
7E-16
41
1
10
69.3763186837221
20
-1.87627977198412
30
7E-16
41
1
10
69.4712863830733
20
-1.78492167973877
30
7E-16
41
1
10
69.5326200109239
20
-1.70447271319401
30
7E-16
41
1
10
69.6086788550151
20
-1.58692960824925
30
7E-16
41
1
10
69.6323222914415
20
-1.54630865546153
30
7E-16
41
1
10
69.6586060518177
20
-1.49829220809531
30
7E-16
41
1
10
69.6654021369303
20
-1.48546245110975
30
7E-16
41
1
10
69.67326920742
20
-1.47021158660772
30
7E-16
41
1
10
69.6753697618636
20
-1.46608067361387
30
7E-16
41
1
10
69.6795225064292
20
-1.45779369346732
30
7E-16
41
1
10
69.6814486999845
20
-1.45385616785302
30
7E-16
41
1
10
69.6837591485171
20
-1.44898006260806
30
7E-16
41
1
10
69.6844520654122
20
-1.44747730699373
30
7E-16
41
1
10
69.6856031862396
20
-1.4448802954208
30
7E-16
41
1
10
69.6860267570589
20
-1.44384950687672
30
7E-16
41
1
10
69.68645198952
20
-1.44261962189608
30
7E-16
41
1
10
69.6865189164035
20
-1.44229851162245
30
7E-16
41
1
10
69.6864657600548
20
-1.44220921279083
30
7E-16
41
1
10
69.6864606077293
20
-1.44220064133052
30
7E-16
41
1
10
69.686455423248
20
-1.44219208900969
30
7E-16
0
SPLINE
5
28F
100
AcDbEntity
8
1
62
256
6
ByLayer
370
-1
48
1
60
0
100
AcDbSpline
70
4
71
3
72
8
73
4
40
0
40
0
40
0
40
0
40
1
40
1
40
1
40
1
41
1
10
69.9987043547431
20
0.874694863790666
30
7E-16
41
1
10
69.9989001699136
20
0.876854004989724
30
7E-16
41
1
10
69.9990954397775
20
0.879010096758634
30
7E-16
41
1
10
69.9992901621521
20
0.881163123979178
30
7E-16
0
SPLINE
5
290
100
AcDbEntity
8
1
62
256
6
ByLayer
370
-1
48
1
60
0
100
AcDbSpline
70
4
71
2
72
6
73
3
40
0
40
0
40
0
40
1
40
1
40
1
41
1
10
69.9993106826917
20
0.883812712398026
30
7E-16
41
1
10
69.9994662401645
20
0.907516280899785
30
7E-16
41
1
10
69.9982845674826
20
0.931196570088247
30
7E-16
0
SPLINE
5
291
100
AcDbEntity
8
1
62
256
6
ByLayer
370
-1
48
1
60
0
100
AcDbSpline
70
4
71
3
72
9
73
5
40
0
40
0
40
0
40
0
40
0.500000037732711
40
1
40
1
40
1
40
1
41
1
10
69.6864628623532
20
-1.44220471913656
30
7E-16
41
1
10
69.6852284498821
20
-1.44958217747794
30
7E-16
41
1
10
69.6827596251265
20
-1.46433709304725
30
7E-16
41
1
10
69.6792388940651
20
-1.47889253659025
30
7E-16
41
1
10
69.6774785286672
20
-1.48617025781255
30
7E-16
0
SPLINE
5
292
100
AcDbEntity
8
1
62
256
6
ByLayer
370
-1
48
1
60
0
100
AcDbSpline
70
4
71
3
72
8
73
4
40
0
40
0
40
0
40
0
40
1
40
1
40
1
40
1
41
1
10
69.9940478238184
20
0.811126546002214
30
7E-16
41
1
10
69.99573152786
20
0.832295382409427
30
7E-16
41
1
10
69.9972836988052
20
0.853484871127449
30
7E-16
41
1
10
69.9987043547472
20
0.874694863851062
30
7E-16
0
SPLINE
5
293
100
AcDbEntity
8
1
62
256
6
ByLayer
370
-1
48
1
60
0
100
AcDbSpline
70
4
71
1
72
4
73
2
40
0
40
0
40
1
40
1
41
1
10
69.9992891560181
20
0.881167032666127
30
7E-16
41
1
10
69.9986112480321
20
0.883800608276232
30
7E-16
0
SPLINE
5
294
100
AcDbEntity
8
1
62
256
6
ByLayer
370
-1
48
1
60
0
100
AcDbSpline
70
4
71
3
72
8
73
4
40
0
40
0
40
0
40
0
40
1
40
1
40
1
40
1
41
1
10
67.6270354343167
20
-25.869753650073
30
1E-16
41
1
10
67.6235583503494
20
-25.8697681281286
30
1E-16
41
1
10
67.6200795724184
20
-25.869782399666
30
1E-16
41
1
10
67.6165991049213
20
-25.8697964640219
30
1E-16
0
SPLINE
5
295
100
AcDbEntity
8
1
62
256
6
ByLayer
370
-1
48
1
60
0
100
AcDbSpline
70
4
71
3
72
9
73
5
40
0
40
0
40
0
40
0
40
0.500000037739249
40
1
40
1
40
1
40
1
41
1
10
69.6864628623533
20
-18.0295645968047
30
0
41
1
10
69.6852284498822
20
-18.0278344013197
30
0
41
1
10
69.6827596251266
20
-18.024374010611
30
0
41
1
10
69.6792388940651
20
-18.0209699522328
30
0
41
1
10
69.6774785286672
20
-18.0192679231721
30
0
0
SPLINE
5
296
100
AcDbEntity
8
1
62
256
6
ByLayer
370
-1
48
1
60
0
100
AcDbSpline
70
4
71
3
72
16
73
12
40
0
40
0
40
0
40
0
40
0.0001612263823297
40
0.0001612263823297
40
0.229290574977921
40
0.229290574977921
40
0.700369669956826
40
0.700369669956826
40
0.999838773613818
40
0.999838773613818
40
1
40
1
40
1
40
1
41
1
10
69.6371689553737
20
-18.8373773461652
30
0
41
1
10
69.6371679198427
20
-18.837396989654
30
0
41
1
10
69.6371668848207
20
-18.8374166336239
30
0
41
1
10
69.635693040386
20
-18.8653522358412
30
0
41
1
10
69.6327585036772
20
-18.8924441664157
30
0
41
1
10
69.6214012350009
20
-18.9687426912193
30
0
41
1
10
69.610428814556
20
-19.0136985434756
30
0
41
1
10
69.591049839429
20
-19.0795116056932
30
0
41
1
10
69.5829981690725
20
-19.103514350201
30
0
41
1
10
69.5746716165598
20
-19.1262531686347
30
0
41
1
10
69.5746671394526
20
-19.1262653939918
30
0
41
1
10
69.5746626623551
20
-19.126277619709
30
0
0
SPLINE
5
297
100
AcDbEntity
8
1
62
256
6
ByLayer
370
-1
48
1
60
0
100
AcDbSpline
70
4
71
2
72
6
73
3
40
0
40
0
40
0
40
1
40
1
40
1
41
1
10
67.1100815469874
20
-25.8698586131824
30
1E-16
41
1
10
66.9401657256462
20
-25.86933645331
30
1E-16
41
1
10
66.7728192777931
20
-25.8404445257542
30
1E-16
0
SPLINE
5
298
100
AcDbEntity
8
1
62
256
6
ByLayer
370
-1
48
1
60
0
100
AcDbSpline
70
4
71
2
72
6
73
3
40
0
40
0
40
0
40
1
40
1
40
1
41
1
10
67.5897887542927
20
-25.8698729795915
30
1E-16
41
1
10
67.3499348851458
20
-25.8705296844539
30
1E-16
41
1
10
67.1100815429857
20
-25.8698586129138
30
1E-16
0
SPLINE
5
299
100
AcDbEntity
8
1
62
256
6
ByLayer
370
-1
48
1
60
0
100
AcDbSpline
70
4
71
5
72
12
73
6
40
0
40
0
40
0
40
0
40
0
40
0
40
1
40
1
40
1
40
1
40
1
40
1
41
1
10
68.7668212565475
20
-25.1450836030694
30
0
41
1
10
68.724463746264
20
-25.3837786042934
30
0
41
1
10
68.5984488812985
20
-25.6086884731652
30
0
41
1
10
68.3949873540355
20
-25.7792588903469
30
0
41
1
10
68.1507968587787
20
-25.865067393709
30
0
41
1
10
67.9066867046262
20
-25.8665821500712
30
-1E-16
0
SPLINE
5
29A
100
AcDbEntity
8
1
62
256
6
ByLayer
370
-1
48
1
60
0
100
AcDbSpline
70
4
71
3
72
12
73
8
40
0
40
0
40
0
40
0
40
0.319903545078799
40
0.319903545078799
40
0.793516743526683
40
0.793516743526683
40
1
40
1
40
1
40
1
41
1
10
69.5731442449338
20
-19.029169677454
30
0
41
1
10
69.580254615234
20
-19.0129770362392
30
0
41
1
10
69.5872348773398
20
-18.9957515447436
30
0
41
1
10
69.6038105827051
20
-18.9493139580223
30
0
41
1
10
69.6134413471977
20
-18.9182134303011
30
0
41
1
10
69.6239113406938
20
-18.8624182383464
30
0
41
1
10
69.6266788919111
20
-18.8433642492255
30
0
41
1
10
69.6281820544597
20
-18.8227325744585
30
0
0
SPLINE
5
29B
100
AcDbEntity
8
1
62
256
6
ByLayer
370
-1
48
1
60
0
100
AcDbSpline
70
4
71
3
72
12
73
8
40
0
40
0
40
0
40
0
40
0.319903545078288
40
0.319903545078288
40
0.7935167435266
40
0.7935167435266
40
1
40
1
40
1
40
1
41
1
10
67.0044507064127
20
-25.7454746999721
30
0
41
1
10
67.0165649307593
20
-25.7494075247463
30
0
41
1
10
67.0297697929627
20
-25.7532461105352
30
0
41
1
10
67.0665896721232
20
-25.7622686969901
30
0
41
1
10
67.0920499538166
20
-25.7674419347421
30
0
41
1
10
67.141434853915
20
-25.772697540098
30
0
41
1
10
67.1587398467555
20
-25.7740146081516
30
0
41
1
10
67.1782912890501
20
-25.7745576337649
30
0
0
SPLINE
5
29C
100
AcDbEntity
8
1
62
256
6
ByLayer
370
-1
48
1
60
0
100
AcDbSpline
70
4
71
3
72
12
73
8
40
0
40
0
40
0
40
0
40
0.375360243573875
40
0.375360243573875
40
0.750318846982834
40
0.750318846982834
40
1
40
1
40
1
40
1
41
1
10
67.1782913726082
20
-25.7745576058123
30
0
41
1
10
67.2723552325938
20
-25.7771701532697
30
0
41
1
10
67.3671324870612
20
-25.7795485798938
30
0
41
1
10
67.5579223937006
20
-25.7838115906486
30
0
41
1
10
67.6539589903387
20
-25.785697252872
30
0
41
1
10
67.8150154661515
20
-25.7884121567463
30
0
41
1
10
67.8796894276824
20
-25.7893840595768
30
0
41
1
10
67.9446386141378
20
-25.7902393974909
30
0
0
SPLINE
5
29D
100
AcDbEntity
8
1
62
256
6
ByLayer
370
-1
48
1
60
0
100
AcDbSpline
70
4
71
3
72
16
73
12
40
0
40
0
40
0
40
0
40
0.0001612263823309
40
0.0001612263823309
40
0.229290574977991
40
0.229290574977991
40
0.700369669957252
40
0.700369669957252
40
0.999838773613815
40
0.999838773613815
40
1
40
1
40
1
40
1
41
1
10
67.1576451030497
20
-25.7791608025412
30
0
41
1
10
67.157626141286
20
-25.7791604222992
30
0
41
1
10
67.1576071787072
20
-25.7791600423196
30
0
41
1
10
67.1306415626304
20
-25.7786184691555
30
0
41
1
10
67.1051960653085
20
-25.7771187347909
30
0
41
1
10
67.0349759153835
20
-25.7708863598681
30
0
41
1
10
66.9955952066937
20
-25.7644329120562
30
0
41
1
10
66.939461414578
20
-25.7528110449867
30
0
41
1
10
66.9194401812885
20
-25.7479280082348
30
0
41
1
10
66.9007899487292
20
-25.7428415332418
30
0
41
1
10
66.9007799217687
20
-25.7428387982877
30
0
41
1
10
66.9007698944122
20
-25.7428360633191
30
0
0
SPLINE
5
29E
100
AcDbEntity
8
1
62
256
6
ByLayer
370
-1
48
1
60
0
100
AcDbSpline
70
4
71
3
72
16
73
12
40
0
40
0
40
0
40
0
40
0.242357006778994
40
0.242357006778994
40
0.484784571203347
40
0.484784571203347
40
0.727217194262381
40
0.727217194262381
40
0.969649409280335
40
0.969649409280335
40
1
40
1
40
1
40
1
41
1
10
69.9940468359438
20
-17.7563186707918
30
1E-16
41
1
10
69.9935674903512
20
-17.6458278673887
30
1E-16
41
1
10
69.9738831661834
20
-17.5339317689754
30
1E-16
41
1
10
69.8993198863532
20
-17.3258376495932
30
1E-16
41
1
10
69.8434095867642
20
-17.2267677472168
30
1E-16
41
1
10
69.7036050357084
20
-17.0550267833648
30
0
41
1
10
69.6177839825926
20
-16.9799806641775
30
0
41
1
10
69.4285080901302
20
-16.8639890784865
30
0
41
1
10
69.3224435924265
20
-16.8214461864073
30
0
41
1
10
69.1999388300238
20
-16.7948698206065
30
0
41
1
10
69.1860692439711
20
-16.7921673004868
30
0
41
1
10
69.1721505105634
20
-16.7897600860634
30
0
0
SPLINE
5
29F
100
AcDbEntity
8
1
62
256
6
ByLayer
370
-1
48
1
60
0
100
AcDbSpline
70
4
71
2
72
14
73
11
40
0
40
0
40
0
40
0.0714285714285714
40
0.0714285714285714
40
0.125
40
0.125
40
0.25
40
0.25
40
0.5
40
0.75
40
1
40
1
40
1
41
1
10
67.9446385295088
20
-25.7902394327869
30
0
41
1
10
67.9602086028003
20
-25.7904444804498
30
0
41
1
10
67.9750267759264
20
-25.7858364629613
30
0
41
1
10
67.9810553963194
20
-25.7839617387313
30
0
41
1
10
67.986618509198
20
-25.781362468669
30
0
41
1
10
67.9959579726626
20
-25.7769987628964
30
0
41
1
10
68.0033368528624
20
-25.7709344275258
30
0
41
1
10
68.014507952898
20
-25.7617534549065
30
0
41
1
10
68.0238101137026
20
-25.7402425985272
30
-1E-16
41
1
10
68.0212312401716
20
-25.7193592222297
30
-1E-16
41
1
10
68.0138662812921
20
-25.7103425397823
30
-1E-16
0
SPLINE
5
2A0
100
AcDbEntity
8
1
62
256
6
ByLayer
370
-1
48
1
60
0
100
AcDbSpline
70
4
71
3
72
16
73
12
40
0
40
0
40
0
40
0
40
0.242357006779
40
0.242357006779
40
0.484784571203349
40
0.484784571203349
40
0.727217194262381
40
0.727217194262381
40
0.969649409280343
40
0.969649409280343
40
1
40
1
40
1
40
1
41
1
10
67.8906309237783
20
-25.8684474141096
30
2E-16
41
1
10
68.0019108872646
20
-25.8677394527605
30
2E-16
41
1
10
68.1146428732893
20
-25.8479564545013
30
2E-16
41
1
10
68.3243781544313
20
-25.7734827626651
30
2E-16
41
1
10
68.4242694533703
20
-25.7177571428213
30
2E-16
41
1
10
68.59752967238
20
-25.5785793780318
30
2E-16
41
1
10
68.6732900337778
20
-25.4932056384384
30
2E-16
41
1
10
68.7905076400253
20
-25.3050232376588
30
2E-16
41
1
10
68.8335788187316
20
-25.1996197153331
30
2E-16
41
1
10
68.8606011368938
20
-25.0779233176379
30
2E-16
41
1
10
68.8633519569451
20
-25.0641458923503
30
2E-16
41
1
10
68.8658054840495
20
-25.0503202985772
30
2E-16
0
SPLINE
5
2A1
100
AcDbEntity
8
1
62
256
6
ByLayer
370
-1
48
1
60
0
100
AcDbSpline
70
4
71
2
72
6
73
3
40
0
40
0
40
0
40
1
40
1
40
1
41
1
10
69.9993106826917
20
-18.0490956853798
30
1E-16
41
1
10
69.9994662401645
20
-18.287253347437
30
1E-16
41
1
10
69.9982845674826
20
-18.5254132863558
30
1E-16
0
SPLINE
5
2A2
100
AcDbEntity
8
1
62
256
6
ByLayer
370
-1
48
1
60
0
100
AcDbSpline
70
4
71
1
72
4
73
2
40
0
40
0
40
1
40
1
41
1
10
69.9992891560181
20
-18.0225143938275
30
1E-16
41
1
10
69.9986112480321
20
-18.0490976003888
30
1E-16
0
SPLINE
5
2A3
100
AcDbEntity
8
1
62
256
6
ByLayer
370
-1
48
1
60
0
100
AcDbSpline
70
4
71
5
72
12
73
6
40
0
40
0
40
0
40
0
40
0
40
0
40
1
40
1
40
1
40
1
40
1
40
1
41
1
10
69.8929726066564
20
-18.6450143866933
30
0
41
1
10
69.8926579869674
20
-18.7083485478176
30
0
41
1
10
69.8896419860271
20
-18.7714535388732
30
0
41
1
10
69.883947518666
20
-18.8343292930718
30
0
41
1
10
69.8755760489113
20
-18.8969773109621
30
0
41
1
10
69.8645001430612
20
-18.959392767932
30
0
0
SPLINE
5
2A4
100
AcDbEntity
8
1
62
256
6
ByLayer
370
-1
48
1
60
0
100
AcDbSpline
70
4
71
3
72
16
73
12
40
0
40
0
40
0
40
0
40
7.1642172813E-05
40
7.1642172813E-05
40
0.0598354361742001
40
0.0598354361742001
40
0.529963658695897
40
0.529963658695897
40
0.999928357827184
40
0.999928357827184
40
1
40
1
40
1
40
1
41
1
10
69.686462862352
20
-18.0295645968265
30
0
41
1
10
69.6864618976742
20
-18.0295841114032
30
0
41
1
10
69.686460933012
20
-18.0296036259943
30
0
41
1
10
69.6856552221976
20
-18.0459021593088
30
0
41
1
10
69.6848394406242
20
-18.0621711745957
30
0
41
1
10
69.6775106819013
20
-18.2062996442201
30
0
41
1
10
69.6703291974856
20
-18.333561938746
30
0
41
1
10
69.6546913472472
20
-18.5865550006531
30
0
41
1
10
69.6462321943465
20
-18.7123397926792
30
0
41
1
10
69.6371716644269
20
-18.8373392922936
30
0
41
1
10
69.6371702831212
20
-18.8373583484297
30
0
41
1
10
69.6371689018295
20
-18.8373774045839
30
0
0
SPLINE
5
2A5
100
AcDbEntity
8
1
62
256
6
ByLayer
370
-1
48
1
60
0
100
AcDbSpline
70
4
71
2
72
6
73
3
40
0
40
0
40
0
40
1
40
1
40
1
41
1
10
69.9982845677616
20
-18.5254132823817
30
1E-16
41
1
10
69.9974003571476
20
-18.6941295692636
30
1E-16
41
1
10
69.9679497812062
20
-18.8603544665198
30
1E-16
0
SPLINE
5
2A6
100
AcDbEntity
8
1
62
256
6
ByLayer
370
-1
48
1
60
0
100
AcDbSpline
70
4
71
3
72
16
73
12
40
0
40
0
40
0
40
0
40
7.16507861623E-05
40
7.16507861623E-05
40
0.24971294577806
40
0.24971294577806
40
0.62467982150471
40
0.62467982150471
40
0.999928349213847
40
0.999928349213847
40
1
40
1
40
1
40
1
41
1
10
67.9284593118284
20
-25.7948349693745
30
0
41
1
10
67.9284405681124
20
-25.7948347246236
30
0
41
1
10
67.9284218243735
20
-25.7948344798823
30
0
41
1
10
67.863097449368
20
-25.7939814553387
30
0
41
1
10
67.7980657129281
20
-25.7930117126213
30
0
41
1
10
67.6360931948662
20
-25.7903008611308
30
0
41
1
10
67.539496976586
20
-25.7884164719516
30
0
41
1
10
67.347612902659
20
-25.7841544707002
30
0
41
1
10
67.2523007245117
20
-25.7817759403854
30
0
41
1
10
67.157681203527
20
-25.7791617699191
30
0
41
1
10
67.1576631389404
20
-25.7791612708079
30
0
41
1
10
67.1576450743282
20
-25.7791607717052
30
0
0
SPLINE
5
2A7
100
AcDbEntity
8
1
62
256
6
ByLayer
370
-1
48
1
60
0
100
AcDbSpline
70
4
71
3
72
16
73
12
40
0
40
0
40
0
40
0
40
9.82457462357E-05
40
9.82457462357E-05
40
0.256513822096396
40
0.256513822096396
40
0.815064766409693
40
0.815064766409693
40
0.980644182204305
40
0.980644182204305
40
1
40
1
40
1
40
1
41
1
10
60.6722638227391
20
-24.667141697212
30
1E-16
41
1
10
60.6722456530935
20
-24.66713907249
30
1E-16
41
1
10
60.6722274838274
20
-24.6671364475924
30
1E-16
41
1
10
60.6247891064653
20
-24.6602800158789
30
0
41
1
10
60.5788862931307
20
-24.6477391250027
30
0
41
1
10
60.4442325030332
20
-24.5952559879153
30
0
41
1
10
60.3649266875087
20
-24.5403885386612
30
0
41
1
10
60.280583442251
20
-24.4566431745706
30
0
41
1
10
60.2622003035591
20
-24.4362159589127
30
0
41
1
10
60.2429351932108
20
-24.412130474893
30
0
41
1
10
60.2409493039343
20
-24.4096160519823
30
0
41
1
10
60.2389753681197
20
-24.4070836378938
30
0
0
SPLINE
5
2A8
100
AcDbEntity
8
1
62
256
6
ByLayer
370
-1
48
1
60
0
100
AcDbSpline
70
4
71
3
72
12
73
8
40
0
40
0
40
0
40
0
40
0.470028301589368
40
0.470028301589368
40
0.940073053311505
40
0.940073053311505
40
1
40
1
40
1
40
1
41
1
10
69.6281820088705
20
-18.8227325149808
30
0
41
1
10
69.637238579983
20
-18.6984264236186
30
0
41
1
10
69.6456972525467
20
-18.573311344012
30
0
41
1
10
69.6613353090748
20
-18.3216876287195
30
0
41
1
10
69.6685179073708
20
-18.1951252656325
30
0
41
1
10
69.6758525132752
20
-18.0517335383342
30
0
41
1
10
69.6766710158063
20
-18.0355057626776
30
0
41
1
10
69.6774785286672
20
-18.0192679231724
30
0
0
SPLINE
5
2A9
100
AcDbEntity
8
1
62
256
6
ByLayer
370
-1
48
1
60
0
100
AcDbSpline
70
4
71
5
72
12
73
6
40
0
40
0
40
0
40
0
40
0
40
0
40
1
40
1
40
1
40
1
40
1
40
1
41
1
10
69.8932808805163
20
-17.8719712850177
30
0
41
1
10
69.8939255990763
20
-18.026578556188
30
0
41
1
10
69.8942171242869
20
-18.1811865074504
30
0
41
1
10
69.8941554629502
20
-18.3357951386203
30
0
41
1
10
69.8937406163085
20
-18.490404449731
30
0
41
1
10
69.8929725734897
20
-18.6450144406264
30
0
0
SPLINE
5
2AA
100
AcDbEntity
8
1
62
256
6
ByLayer
370
-1
48
1
60
0
100
AcDbSpline
70
4
71
5
72
12
73
6
40
0
40
0
40
0
40
0
40
0
40
0
40
1
40
1
40
1
40
1
40
1
40
1
41
1
10
67.9066866490461
20
-25.8665821158427
30
-1E-16
41
1
10
67.7509770869161
20
-25.8675483273779
30
-1E-16
41
1
10
67.5952675846945
20
-25.8681638426838
30
-1E-16
41
1
10
67.439558142553
20
-25.8684286685142
30
-1E-16
41
1
10
67.2838487604552
20
-25.8683428061025
30
-1E-16
41
1
10
67.1281394385815
20
-25.8679062446532
30
-1E-16
0
SPLINE
5
2AB
100
AcDbEntity
8
1
62
256
6
ByLayer
370
-1
48
1
60
0
100
AcDbSpline
70
4
71
3
72
8
73
4
40
0
40
0
40
0
40
0
40
1
40
1
40
1
40
1
41
1
10
69.9940478238184
20
-17.7564741088209
30
1E-16
41
1
10
69.99573152786
20
-17.8419403250332
30
1E-16
41
1
10
69.9972836988052
20
-17.9274036949472
30
1E-16
41
1
10
69.9987043547472
20
-18.0128636391534
30
1E-16
0
SPLINE
5
2AC
100
AcDbEntity
8
1
62
256
6
ByLayer
370
-1
48
1
60
0
100
AcDbSpline
70
4
71
1
72
4
73
2
40
0
40
0
40
1
40
1
41
1
10
67.616559371968
20
-25.8697955482014
30
1E-16
41
1
10
67.5897883006729
20
-25.8691784912187
30
1E-16
0
SPLINE
5
2AD
100
AcDbEntity
8
1
62
256
6
ByLayer
370
-1
48
1
60
0
100
AcDbSpline
70
4
71
5
72
12
73
6
40
0
40
0
40
0
40
0
40
0
40
0
40
1
40
1
40
1
40
1
40
1
40
1
41
1
10
60.5841593420605
20
-24.7634202653743
30
0
41
1
10
60.4468399099914
20
-24.7396742900104
30
0
41
1
10
60.3141115446268
20
-24.6887943371791
30
0
41
1
10
60.1935930169095
20
-24.61191515828
30
0
41
1
10
60.0918081982615
20
-24.5134037189566
30
0
41
1
10
60.0129155830005
20
-24.3992637080008
30
0
0
SPLINE
5
2AE
100
AcDbEntity
8
1
62
256
6
ByLayer
370
-1
48
1
60
0
100
AcDbSpline
70
4
71
3
72
28
73
24
40
0
40
0
40
0
40
0
40
0.0667381080795122
40
0.0667381080795122
40
0.177014635690015
40
0.177014635690015
40
0.563895200860807
40
0.563895200860807
40
0.768894740898471
40
0.768894740898471
40
0.851449529663694
40
0.851449529663694
40
0.885570816772588
40
0.885570816772588
40
0.927991192435413
40
0.927991192435413
40
0.95182777100703
40
0.95182777100703
40
0.978397104929648
40
0.978397104929648
40
0.999928619823307
40
0.999928619823307
40
1
40
1
40
1
40
1
41
1
10
69.2870204971599
20
-17.5759376336057
30
0
41
1
10
69.3019277796702
20
-17.5797504234903
30
0
41
1
10
69.3164392419132
20
-17.5840125061463
30
0
41
1
10
69.3539370558733
20
-17.5964111881898
30
0
41
1
10
69.3763186837221
20
-17.6052704673656
30
0
41
1
10
69.4712863830734
20
-17.6488674057241
30
0
41
1
10
69.532620010924
20
-17.6926894562359
30
0
41
1
10
69.6086788550151
20
-17.7791201293462
30
0
41
1
10
69.6323222914415
20
-17.8134866038044
30
0
41
1
10
69.6586060518177
20
-17.8721924031993
30
0
41
1
10
69.6654021369303
20
-17.8905380130504
30
0
41
1
10
69.67326920742
20
-17.9184989186136
30
0
41
1
10
69.6753697618636
20
-17.9269672283164
30
0
41
1
10
69.6795225064292
20
-17.9464696156495
30
0
41
1
10
69.6814486999845
20
-17.9576814918887
30
0
41
1
10
69.6837591485171
20
-17.9756199059894
30
0
41
1
10
69.6844520654122
20
-17.9821806836759
30
0
41
1
10
69.6856031862396
20
-17.9961827456128
30
0
41
1
10
69.6860267570589
20
-18.0036575484306
30
0
41
1
10
69.68645198952
20
-18.017255847898
30
0
41
1
10
69.6865189164035
20
-18.0233793972096
30
0
41
1
10
69.6864632915739
20
-18.0295245575558
30
0
41
1
10
69.6864631087231
20
-18.0295445435883
30
0
41
1
10
69.6864629258606
20
-18.0295645295209
30
0
0
SPLINE
5
2AF
100
AcDbEntity
8
1
62
256
6
ByLayer
370
-1
48
1
60
0
100
AcDbSpline
70
4
71
5
72
12
73
6
40
0
40
0
40
0
40
0
40
0
40
0
40
1
40
1
40
1
40
1
40
1
40
1
41
1
10
67.1281394928286
20
-25.8679062774718
30
-1E-16
41
1
10
67.0643550037216
20
-25.8677274452201
30
1E-16
41
1
10
67.0008070134594
20
-25.8648658365504
30
1E-16
41
1
10
66.937495540981
20
-25.8593442042345
30
1E-16
41
1
10
66.8744190719655
20
-25.8511640051192
30
1E-16
41
1
10
66.8115825232343
20
-25.8402979891764
30
1E-16
0
SPLINE
5
2B0
100
AcDbEntity
8
1
62
256
6
ByLayer
370
-1
48
1
60
0
100
AcDbSpline
70
4
71
3
72
8
73
4
40
0
40
0
40
0
40
0
40
1
40
1
40
1
40
1
41
1
10
69.9987043547431
20
-18.01286363891
30
1E-16
41
1
10
69.9989001699136
20
-18.016065280221
30
1E-16
41
1
10
69.9990954397775
20
-18.0192690479298
30
1E-16
41
1
10
69.9992901621521
20
-18.0224749396984
30
1E-16
0
SPLINE
5
2B1
100
AcDbEntity
8
1
62
256
6
ByLayer
370
-1
48
1
60
0
100
AcDbSpline
70
4
71
3
72
8
73
4
40
0
40
0
40
0
40
0
40
1
40
1
40
1
40
1
41
1
10
67.8904739468769
20
-25.868448404555
30
2E-16
41
1
10
67.8026609586482
20
-25.8690164501061
30
2E-16
41
1
10
67.714847922466
20
-25.8694515232828
30
1E-16
41
1
10
67.6270354343166
20
-25.869753650073
30
1E-16
0
SPLINE
5
2B2
100
AcDbEntity
8
1
62
256
6
ByLayer
370
-1
48
1
60
0
100
AcDbSpline
70
4
71
3
72
28
73
24
40
0
40
0
40
0
40
0
40
5.90385901825E-05
40
5.90385901825E-05
40
0.154146260789354
40
0.154146260789354
40
0.48979499435023
40
0.48979499435023
40
0.589296251629345
40
0.589296251629345
40
0.82954557882284
40
0.82954557882284
40
0.905423872995072
40
0.905423872995072
40
0.938427982513173
40
0.938427982513173
40
0.961295188463229
40
0.961295188463229
40
0.980714928422778
40
0.980714928422778
40
0.999940961411308
40
0.999940961411308
40
1
40
1
40
1
40
1
41
1
10
68.4805029078617
20
-25.3099421825161
30
0
41
1
10
68.4805011058336
20
-25.3099590590774
30
0
41
1
10
68.4804993037139
20
-25.3099759351494
30
0
41
1
10
68.4757911287945
20
-25.3540377997745
30
0
41
1
10
68.4656625654573
20
-25.3961861173863
30
0
41
1
10
68.4214546376279
20
-25.5181160352617
30
0
41
1
10
68.3734728230494
20
-25.5870752799856
30
0
41
1
10
68.2988278836755
20
-25.6578633340699
30
0
41
1
10
68.2805206485342
20
-25.6730944606781
30
0
41
1
10
68.2144395112404
20
-25.7210784121096
30
0
41
1
10
68.1604525332698
20
-25.7499769266411
30
0
41
1
10
68.0719437343703
20
-25.7767652096123
30
0
41
1
10
68.0487354548093
20
-25.7823882330157
30
0
41
1
10
68.0136593305446
20
-25.7884088084774
30
0
41
1
10
68.0027012899625
20
-25.7899761025299
30
0
41
1
10
67.9839023263766
20
-25.7920973570975
30
0
41
1
10
67.976112253933
20
-25.7928175520842
30
0
41
1
10
67.9616519629094
20
-25.7938531312863
30
0
41
1
10
67.954974969557
20
-25.7942142706853
30
0
41
1
10
67.9417025625351
20
-25.7946982107202
30
0
41
1
10
67.93509330412
20
-25.7948238573202
30
0
41
1
10
67.9284991369087
20
-25.7948349422039
30
0
41
1
10
67.9284792405466
20
-25.7948349742285
30
0
41
1
10
67.9284593439072
20
-25.7948350059613
30
0
0
SPLINE
5
2B3
100
AcDbEntity
8
1
62
256
6
ByLayer
370
-1
48
1
60
0
100
AcDbSpline
70
4
71
5
72
12
73
6
40
0
40
0
40
0
40
0
40
0
40
0
40
1
40
1
40
1
40
1
40
1
40
1
41
1
10
69.1684586260607
20
-17.0194359972163
30
0
41
1
10
69.4087640056003
20
-17.0609908269761
30
0
41
1
10
69.6350096677265
20
-17.1856409546363
30
0
41
1
10
69.8063656105107
20
-17.3873050972488
30
0
41
1
10
69.8922701721042
20
-17.6295891673965
30
0
41
1
10
69.8932809151058
20
-17.871971229758
30
0
0
SPLINE
5
2B4
100
AcDbEntity
8
1
62
256
6
ByLayer
370
-1
48
1
60
0
100
AcDbSpline
70
4
71
3
72
14
73
10
40
0
40
0
40
0
40
0
40
0.0374863827405416
40
0.0374863827405416
40
0.490393434664918
40
0.490393434664918
40
0.943299724296323
40
0.943299724296323
40
1
40
1
40
1
40
1
41
1
10
59.9286445861407
20
-24.3908328972143
30
-1E-16
41
1
10
59.9342360172409
20
-24.3981165901183
30
-1E-16
41
1
10
59.9399259309386
20
-24.4053145295118
30
-1E-16
41
1
10
60.0156149343649
20
-24.4982947836055
30
-1E-16
41
1
10
60.1014357011001
20
-24.5733389345833
30
-1E-16
41
1
10
60.2907118217677
20
-24.6893320886612
30
-1E-16
41
1
10
60.3967767406239
20
-24.7318778751985
30
-1E-16
41
1
10
60.5192810887129
20
-24.7584513935424
30
-1E-16
41
1
10
60.5331506259072
20
-24.7611535778724
30
-1E-16
41
1
10
60.5470693134661
20
-24.7635604771903
30
-1E-16
0
SPLINE
5
2B5
100
AcDbEntity
8
1
62
256
6
ByLayer
370
-1
48
1
60
0
100
AcDbSpline
70
4
71
2
72
15
73
12
40
0
40
0
40
0
40
0.0714285714285714
40
0.0714285714285714
40
0.125
40
0.125
40
0.25
40
0.25
40
0.5
40
0.5
40
0.75
40
1
40
1
40
1
41
1
10
69.6774785286706
20
-18.0192679231754
30
0
41
1
10
69.678256809766
20
-18.0031656135342
30
0
41
1
10
69.6708447489287
20
-17.9923333476256
30
0
41
1
10
69.667811842657
20
-17.987900943746
30
0
41
1
10
69.6635208560912
20
-17.9846320358773
30
0
41
1
10
69.6562918603312
20
-17.9791249291175
30
0
41
1
10
69.6460633800255
20
-17.9772672022135
30
0
41
1
10
69.6306098705738
20
-17.9744604900321
30
0
41
1
10
69.6110789184382
20
-17.9802156611531
30
0
41
1
10
69.5938747565606
20
-17.9852851987215
30
0
41
1
10
69.5579092023701
20
-18.0077547425593
30
0
41
1
10
69.5422202851908
20
-18.0238617693384
30
0
0
SPLINE
5
2B6
100
AcDbEntity
8
1
62
256
6
ByLayer
370
-1
48
1
60
0
100
AcDbSpline
70
4
71
5
72
12
73
6
40
0
40
0
40
0
40
0
40
0
40
0
40
1
40
1
40
1
40
1
40
1
40
1
41
1
10
68.7668212565476
20
0.515034852511405
30
7E-16
41
1
10
68.7244637462641
20
0.502273023474459
30
7E-16
41
1
10
68.5984488812985
20
0.491758988536788
30
6E-16
41
1
10
68.3949873540356
20
0.485678282324727
30
6E-16
41
1
10
68.1507968587787
20
0.485107917698599
30
6E-16
41
1
10
67.9066867046263
20
0.489305367058108
30
6E-16
0
SPLINE
5
2B7
100
AcDbEntity
8
1
62
256
6
ByLayer
370
-1
48
1
60
0
100
AcDbSpline
70
4
71
2
72
6
73
3
40
0
40
0
40
0
40
1
40
1
40
1
41
1
10
59.7184024725551
20
-0.238140090255001
30
1E-16
41
1
10
59.7182469150823
20
-0.224662729636691
30
1E-16
41
1
10
59.7194285877641
20
-0.211208703211895
30
1E-16
0
SPLINE
5
2B8
100
AcDbEntity
8
1
62
256
6
ByLayer
370
-1
48
1
60
0
100
AcDbSpline
70
4
71
1
72
4
73
2
40
0
40
0
40
1
40
1
41
1
10
69.9992891560181
20
-0.108966601125417
30
7E-16
41
1
10
69.9986112480321
20
-0.110458747634283
30
7E-16
0
SPLINE
5
2B9
100
AcDbEntity
8
1
62
256
6
ByLayer
370
-1
48
1
60
0
100
AcDbSpline
70
4
71
5
72
12
73
6
40
0
40
0
40
0
40
0
40
0
40
0
40
1
40
1
40
1
40
1
40
1
40
1
41
1
10
67.1281394928287
20
0.502890824516641
30
6E-16
41
1
10
67.0643550037217
20
0.504020104046049
30
6E-16
41
1
10
67.0008070134595
20
0.505297021751346
30
5E-16
41
1
10
66.9374955409811
20
0.506720289979825
30
5E-16
41
1
10
66.8744190719655
20
0.508289852875407
30
5E-16
41
1
10
66.8115825232343
20
0.510007165936457
30
5E-16
0
SPLINE
5
2BA
100
AcDbEntity
8
1
62
256
6
ByLayer
370
-1
48
1
60
0
100
AcDbSpline
70
4
71
3
72
8
73
4
40
0
40
0
40
0
40
0
40
1
40
1
40
1
40
1
41
1
10
69.9987043547431
20
-0.102918879974595
30
7E-16
41
1
10
69.9989001699136
20
-0.104937188605078
30
7E-16
41
1
10
69.9990954397775
20
-0.106952362450073
30
7E-16
41
1
10
69.9992901621521
20
-0.108964386518949
30
7E-16
0
SPLINE
5
2BB
100
AcDbEntity
8
1
62
256
6
ByLayer
370
-1
48
1
60
0
100
AcDbSpline
70
4
71
3
72
8
73
4
40
0
40
0
40
0
40
0
40
1
40
1
40
1
40
1
41
1
10
59.7191994557368
20
-0.234786735295557
30
1E-16
41
1
10
59.7189399759701
20
-0.236410010581125
30
1E-16
41
1
10
59.7186811541903
20
-0.238029975392521
30
1E-16
41
1
10
59.7184229930946
20
-0.239646615289161
30
1E-16
0
SPLINE
5
2BC
100
AcDbEntity
8
1
62
256
6
ByLayer
370
-1
48
1
60
0
100
AcDbSpline
70
4
71
3
72
14
73
10
40
0
40
0
40
0
40
0
40
0.245608019549642
40
0.245608019549642
40
0.497072013033095
40
0.497072013033095
40
0.748536006516547
40
0.748536006516547
40
1
40
1
40
1
40
1
41
1
10
59.9691337142315
20
-0.259723985442065
30
1E-16
41
1
10
59.9701374576051
20
-0.264807021815471
30
1E-16
41
1
10
59.9833356177039
20
-0.269060139096638
30
1E-16
41
1
10
60.047662933332
20
-0.279998272734986
30
1E-16
41
1
10
60.084826179469
20
-0.284248987909564
30
1E-16
41
1
10
60.2063076480891
20
-0.294456020425798
30
1E-16
41
1
10
60.2631168299215
20
-0.298121019607891
30
1E-16
41
1
10
60.4263118250867
20
-0.306238558070049
30
1E-16
41
1
10
60.4960941421084
20
-0.308879022567538
30
2E-16
41
1
10
60.588918275242
20
-0.311418770262918
30
2E-16
0
SPLINE
5
2BD
100
AcDbEntity
8
1
62
256
6
ByLayer
370
-1
48
1
60
0
100
AcDbSpline
70
4
71
3
72
16
73
12
40
0
40
0
40
0
40
0
40
7.16507861623E-05
40
7.16507861623E-05
40
0.249712945778062
40
0.249712945778062
40
0.624679821504713
40
0.624679821504713
40
0.999928349213848
40
0.999928349213848
40
1
40
1
40
1
40
1
41
1
10
67.9284593118284
20
1.80196534674107
30
6E-16
41
1
10
67.9284405681124
20
1.80197228909344
30
6E-16
41
1
10
67.9284218243735
20
1.8019792313853
30
6E-16
41
1
10
67.8630974493681
20
1.82617450482869
30
6E-16
41
1
10
67.7980657129281
20
1.85109862588911
30
6E-16
41
1
10
67.6360931948663
20
1.91522912186596
30
6E-16
41
1
10
67.539496976586
20
1.95533431342534
30
6E-16
41
1
10
67.347612902659
20
2.03860453960635
30
6E-16
41
1
10
67.2523007245118
20
2.08178275477104
30
6E-16
41
1
10
67.1576812035271
20
2.12640391813099
30
6E-16
41
1
10
67.1576631389405
20
2.12641243725127
30
6E-16
41
1
10
67.1576450743283
20
2.12642095631907
30
6E-16
0
SPLINE
5
2BE
100
AcDbEntity
8
1
62
256
6
ByLayer
370
-1
48
1
60
0
100
AcDbSpline
70
4
71
3
72
12
73
8
40
0
40
0
40
0
40
0
40
0.319903545078296
40
0.319903545078296
40
0.793516743526586
40
0.793516743526586
40
1
40
1
40
1
40
1
41
1
10
67.0044507064128
20
2.42056975801847
30
6E-16
41
1
10
67.0165649307594
20
2.38975523923614
30
6E-16
41
1
10
67.0297697929627
20
2.35929156921742
30
6E-16
41
1
10
67.0665896721233
20
2.28606419318678
30
6E-16
41
1
10
67.0920499538167
20
2.24285766852694
30
6E-16
41
1
10
67.141434853915
20
2.19236290943195
30
6E-16
41
1
10
67.1587398467556
20
2.17832554495186
30
6E-16
41
1
10
67.1782912890502
20
2.16905342849344
30
6E-16
0
SPLINE
5
2BF
100
AcDbEntity
8
1
62
256
6
ByLayer
370
-1
48
1
60
0
100
AcDbSpline
70
4
71
2
72
16
73
13
40
0
40
0
40
0
40
0.0714285714285714
40
0.0714285714285714
40
0.125
40
0.125
40
0.25
40
0.25
40
0.5
40
0.5
40
0.75
40
0.75
40
1
40
1
40
1
41
1
10
67.9446385295088
20
1.8446757674362
30
6E-16
41
1
10
67.9602086028004
20
1.83887692918614
30
6E-16
41
1
10
67.9750267759264
20
1.86683991313811
30
6E-16
41
1
10
67.9810553963194
20
1.87821636378885
30
6E-16
41
1
10
67.9866185091981
20
1.89477410064259
30
6E-16
41
1
10
67.9959579726626
20
1.9225715553726
30
6E-16
41
1
10
68.0033368528624
20
1.96277392997985
30
6E-16
41
1
10
68.0145079528981
20
2.0236374670269
30
6E-16
41
1
10
68.019455974627
20
2.10200918034235
30
6E-16
41
1
10
68.0238101137026
20
2.17097438665417
30
6E-16
41
1
10
68.0225573954055
20
2.24203994186527
30
6E-16
41
1
10
68.0212312401716
20
2.31727150685978
30
6E-16
41
1
10
68.0138662812922
20
2.38219166699488
30
6E-16
0
SPLINE
5
2C0
100
AcDbEntity
8
1
62
256
6
ByLayer
370
-1
48
1
60
0
100
AcDbSpline
70
4
71
3
72
8
73
4
40
0
40
0
40
0
40
0
40
1
40
1
40
1
40
1
41
1
10
59.7251718921782
20
-0.212007414516506
30
1E-16
41
1
10
59.7230503575704
20
-0.219575193708181
30
1E-16
41
1
10
59.7210595504035
20
-0.227168319651213
30
1E-16
41
1
10
59.7191994557368
20
-0.234786735295557
30
1E-16
0
SPLINE
5
2C1
100
AcDbEntity
8
1
62
256
6
ByLayer
370
-1
48
1
60
0
100
AcDbSpline
70
4
71
3
72
12
73
8
40
0
40
0
40
0
40
0
40
0.375360243573858
40
0.375360243573858
40
0.75031884698283
40
0.75031884698283
40
1
40
1
40
1
40
1
41
1
10
60.1821300837051
20
2.428610626731
30
1E-16
41
1
10
60.1734118932079
20
2.38091472861089
30
1E-16
41
1
10
60.1651248318349
20
2.33459404481852
30
1E-16
41
1
10
60.1494704279871
20
2.2449389051655
30
1E-16
41
1
10
60.1421000574159
20
2.2015894827081
30
1E-16
41
1
10
60.1306158207685
20
2.13195146131901
30
1E-16
41
1
10
60.1262358464858
20
2.10479672466153
30
1E-16
41
1
10
60.1220735866311
20
2.07835203909181
30
1E-16
0
SPLINE
5
2C2
100
AcDbEntity
8
1
62
256
6
ByLayer
370
-1
48
1
60
0
100
AcDbSpline
70
4
71
5
72
12
73
6
40
0
40
0
40
0
40
0
40
0
40
0
40
1
40
1
40
1
40
1
40
1
40
1
41
1
10
67.9066866490462
20
0.489305369969941
30
6E-16
41
1
10
67.7509770869162
20
0.491982780109964
30
6E-16
41
1
10
67.5952675846946
20
0.494680031106555
30
6E-16
41
1
10
67.439558142553
20
0.497397122574625
30
6E-16
41
1
10
67.2838487604552
20
0.500134054444999
30
6E-16
41
1
10
67.1281394385815
20
0.502890827325274
30
6E-16
0
SPLINE
5
2C3
100
AcDbEntity
8
1
62
256
6
ByLayer
370
-1
48
1
60
0
100
AcDbSpline
70
4
71
3
72
12
73
8
40
0
40
0
40
0
40
0
40
0.319903545078216
40
0.319903545078216
40
0.793516743526627
40
0.793516743526627
40
1
40
1
40
1
40
1
41
1
10
60.2457371243996
20
2.68266284151693
30
1E-16
41
1
10
60.2375720202945
20
2.65192063146489
30
1E-16
41
1
10
60.2295496846536
20
2.62147720939814
30
1E-16
41
1
10
60.2104717758621
20
2.54808670354313
30
1E-16
41
1
10
60.1993666103511
20
2.50462814368785
30
1E-16
41
1
10
60.1871839141217
20
2.45302017014862
30
1E-16
41
1
10
60.1839421332956
20
2.43852419189545
30
1E-16
41
1
10
60.182130032169
20
2.42861046202614
30
1E-16
0
SPLINE
5
2C4
100
AcDbEntity
8
1
62
256
6
ByLayer
370
-1
48
1
60
0
100
AcDbSpline
70
4
71
3
72
8
73
4
40
0
40
0
40
0
40
0
40
1
40
1
40
1
40
1
41
1
10
67.890473946877
20
-0.472484066877399
30
6E-16
41
1
10
67.8026609586483
20
-0.483586254680631
30
6E-16
41
1
10
67.714847922466
20
-0.494704123497627
30
6E-16
41
1
10
67.6270354343166
20
-0.505837594459933
30
6E-16
0
SPLINE
5
2C5
100
AcDbEntity
8
1
62
256
6
ByLayer
370
-1
48
1
60
0
100
AcDbSpline
70
4
71
3
72
12
73
8
40
0
40
0
40
0
40
0
40
0.319903545078768
40
0.319903545078768
40
0.793516743526685
40
0.793516743526685
40
1
40
1
40
1
40
1
41
1
10
69.5731442449338
20
2.7554987607266
30
7E-16
41
1
10
69.580254615234
20
2.72591071051076
30
7E-16
41
1
10
69.5872348773398
20
2.69674803357509
30
7E-16
41
1
10
69.6038105827051
20
2.6270137213491
30
7E-16
41
1
10
69.6134413471977
20
2.5861372605942
30
7E-16
41
1
10
69.6239113406938
20
2.53977947141431
30
7E-16
41
1
10
69.6266788919111
20
2.52714974685878
30
7E-16
41
1
10
69.6281820544597
20
2.5193923404465
30
7E-16
0
SPLINE
5
2C6
100
AcDbEntity
8
1
62
256
6
ByLayer
370
-1
48
1
60
0
100
AcDbSpline
70
4
71
3
72
12
73
8
40
0
40
0
40
0
40
0
40
0.375360243573875
40
0.375360243573875
40
0.750318846982843
40
0.750318846982843
40
1
40
1
40
1
40
1
41
1
10
67.1782913726082
20
2.16905359989556
30
6E-16
41
1
10
67.272355232594
20
2.1244445653947
30
6E-16
41
1
10
67.3671324870613
20
2.0812673325216
30
6E-16
41
1
10
67.5579223937006
20
1.99800863868771
30
6E-16
41
1
10
67.6539589903387
20
1.95791294294318
30
6E-16
41
1
10
67.8150154661516
20
1.89378997993399
30
6E-16
41
1
10
67.8796894276825
20
1.86886532947182
30
6E-16
41
1
10
67.9446386141379
20
1.84467598972648
30
6E-16
0
SPLINE
5
2C7
100
AcDbEntity
8
1
62
256
6
ByLayer
370
-1
48
1
60
0
100
AcDbSpline
70
4
71
5
72
12
73
6
40
0
40
0
40
0
40
0
40
0
40
0
40
1
40
1
40
1
40
1
40
1
40
1
41
1
10
59.8593370876051
20
0.741154654102303
30
1E-16
41
1
10
59.8586923690451
20
0.749913431943668
30
1E-16
41
1
10
59.8584008438344
20
0.758666051139841
30
1E-16
41
1
10
59.8584625051711
20
0.767412511799733
30
1E-16
41
1
10
59.8588773518129
20
0.776152813946993
30
1E-16
41
1
10
59.8596453946316
20
0.784886957382014
30
1E-16
0
SPLINE
5
2C8
100
AcDbEntity
8
1
62
256
6
ByLayer
370
-1
48
1
60
0
100
AcDbSpline
70
4
71
3
72
8
73
4
40
0
40
0
40
0
40
0
40
1
40
1
40
1
40
1
41
1
10
69.9940478238184
20
-0.0504290456877357
30
7E-16
41
1
10
69.99573152786
20
-0.0679049618888143
30
7E-16
41
1
10
69.9972836988052
20
-0.0854016144212721
30
7E-16
41
1
10
69.9987043547472
20
-0.102918880024475
30
7E-16
0
SPLINE
5
2C9
100
AcDbEntity
8
1
62
256
6
ByLayer
370
-1
48
1
60
0
100
AcDbSpline
70
4
71
5
72
12
73
6
40
0
40
0
40
0
40
0
40
0
40
0
40
1
40
1
40
1
40
1
40
1
40
1
41
1
10
69.8932808805163
20
0.906772651260212
30
7E-16
41
1
10
69.8939255990763
20
0.898013873418847
30
7E-16
41
1
10
69.8942171242869
20
0.889261254222674
30
7E-16
41
1
10
69.8941554629502
20
0.88051479356281
30
7E-16
41
1
10
69.8937406163085
20
0.87177449141555
30
7E-16
41
1
10
69.8929725734897
20
0.863040347980501
30
7E-16
0
SPLINE
5
2CA
100
AcDbEntity
8
1
62
256
6
ByLayer
370
-1
48
1
60
0
100
AcDbSpline
70
4
71
3
72
28
73
24
40
0
40
0
40
0
40
0
40
5.90385901895E-05
40
5.90385901895E-05
40
0.154146260790518
40
0.154146260790518
40
0.489794994349019
40
0.489794994349019
40
0.589296251630299
40
0.589296251630299
40
0.829545578823083
40
0.829545578823083
40
0.905423872995194
40
0.905423872995194
40
0.938427982513231
40
0.938427982513231
40
0.961295188463279
40
0.961295188463279
40
0.980714928422781
40
0.980714928422781
40
0.999940961411295
40
0.999940961411295
40
1
40
1
40
1
40
1
41
1
10
60.6722638227391
20
2.52729563792627
30
2E-16
41
1
10
60.6722456530935
20
2.52728755052527
30
2E-16
41
1
10
60.6722274838274
20
2.52727946230377
30
2E-16
41
1
10
60.6247891064654
20
2.50616124655761
30
2E-16
41
1
10
60.5788862931308
20
2.48240759591991
30
2E-16
41
1
10
60.4442325030333
20
2.40087114147019
30
1E-16
41
1
10
60.3649266875087
20
2.33298141822351
30
1E-16
41
1
10
60.2805834422512
20
2.24317308946149
30
1E-16
41
1
10
60.2622003035591
20
2.22224399058979
30
1E-16
41
1
10
60.2036808126488
20
2.15228746009029
30
1E-16
41
1
10
60.1672354588544
20
2.10207123712829
30
1E-16
41
1
10
60.1334458534243
20
2.05705629696524
30
1E-16
41
1
10
60.1263632424242
20
2.04786924906185
30
1E-16
41
1
10
60.1189041474163
20
2.03934732096235
30
1E-16
41
1
10
60.1169846837969
20
2.03736452251482
30
1E-16
41
1
10
60.1144415851882
20
2.0352384678817
30
1E-16
41
1
10
60.1135975981322
20
2.03471436290133
30
1E-16
41
1
10
60.1124303108078
20
2.03442795633705
30
1E-16
41
1
10
60.112046452186
20
2.03456234476141
30
1E-16
41
1
10
60.1115937876851
20
2.03536451499664
30
1E-16
41
1
10
60.1115214032296
20
2.03602777705345
30
1E-16
41
1
10
60.1116003676485
20
2.03694642202342
30
1E-16
41
1
10
60.1116012281964
20
2.03695638593027
30
1E-16
41
1
10
60.1116020912548
20
2.03696634962105
30
1E-16
0
SPLINE
5
2CB
100
AcDbEntity
8
1
62
256
6
ByLayer
370
-1
48
1
60
0
100
AcDbSpline
70
4
71
2
72
6
73
3
40
0
40
0
40
0
40
1
40
1
40
1
41
1
10
67.1100815469875
20
-0.502264503799466
30
6E-16
41
1
10
66.9401657256462
20
-0.499253620905904
30
5E-16
41
1
10
66.7728192777932
20
-0.494682697963725
30
5E-16
0
SPLINE
5
2CC
100
AcDbEntity
8
1
62
256
6
ByLayer
370
-1
48
1
60
0
100
AcDbSpline
70
4
71
3
72
16
73
12
40
0
40
0
40
0
40
0
40
0.242357006779001
40
0.242357006779001
40
0.48478457120335
40
0.48478457120335
40
0.727217194262374
40
0.727217194262374
40
0.969649409280331
40
0.969649409280331
40
1
40
1
40
1
40
1
41
1
10
67.8906309237784
20
-0.472483639463661
30
6E-16
41
1
10
68.0019108872647
20
-0.474386187293817
30
6E-16
41
1
10
68.1146428732894
20
-0.47526245651531
30
6E-16
41
1
10
68.3243781544314
20
-0.474713475100515
30
6E-16
41
1
10
68.4242694533704
20
-0.473327617666428
30
6E-16
41
1
10
68.5975296723801
20
-0.468482346489509
30
6E-16
41
1
10
68.6732900337778
20
-0.464989556834894
30
7E-16
41
1
10
68.7905076400254
20
-0.456392581743017
30
7E-16
41
1
10
68.8335788187316
20
-0.451172591852327
30
7E-16
41
1
10
68.8606011368939
20
-0.444773244488999
30
7E-16
41
1
10
68.8633519569451
20
-0.444043409920539
30
7E-16
41
1
10
68.8658054840496
20
-0.443305547064
30
7E-16
0
SPLINE
5
2CD
100
AcDbEntity
8
1
62
256
6
ByLayer
370
-1
48
1
60
0
100
AcDbSpline
70
4
71
2
72
6
73
3
40
0
40
0
40
0
40
1
40
1
40
1
41
1
10
69.9993106826917
20
-0.110470911553108
30
7E-16
41
1
10
69.9994662401645
20
-0.123948272171418
30
7E-16
41
1
10
69.9982845674826
20
-0.137402298596214
30
7E-16
0
SPLINE
5
2CE
100
AcDbEntity
8
1
62
256
6
ByLayer
370
-1
48
1
60
0
100
AcDbSpline
70
4
71
5
72
12
73
6
40
0
40
0
40
0
40
0
40
0
40
0
40
1
40
1
40
1
40
1
40
1
40
1
41
1
10
60.5841593420606
20
0.68020166868709
30
2E-16
41
1
10
60.3438539625209
20
0.686769177171612
30
1E-16
41
1
10
60.1176083003947
20
0.697791411172744
30
1E-16
41
1
10
59.9462523576106
20
0.71220789766906
30
1E-16
41
1
10
59.860347796017
20
0.727423275167183
30
1E-16
41
1
10
59.8593370530155
20
0.74115465158269
30
1E-16
0
SPLINE
5
2CF
100
AcDbEntity
8
1
62
256
6
ByLayer
370
-1
48
1
60
0
100
AcDbSpline
70
4
71
3
72
16
73
12
40
0
40
0
40
0
40
0
40
0.0001612263823312
40
0.0001612263823312
40
0.22929057497797
40
0.22929057497797
40
0.700369669957279
40
0.700369669957279
40
0.999838773613814
40
0.999838773613814
40
1
40
1
40
1
40
1
41
1
10
67.1576451030497
20
2.12642073596769
30
6E-16
41
1
10
67.157626141286
20
2.12642704738144
30
6E-16
41
1
10
67.1576071787072
20
2.12643335639868
30
6E-16
41
1
10
67.1306415626305
20
2.13541254946165
30
6E-16
41
1
10
67.1051960653086
20
2.14927099893421
30
6E-16
41
1
10
67.0349759153835
20
2.19882137744113
30
6E-16
41
1
10
66.9955952066937
20
2.24256798629275
30
5E-16
41
1
10
66.939461414578
20
2.31768893087539
30
5E-16
41
1
10
66.9194401812886
20
2.34838132733137
30
5E-16
41
1
10
66.9007899487293
20
2.37976996787094
30
5E-16
41
1
10
66.9007799217688
20
2.3797868451903
30
5E-16
41
1
10
66.9007698944123
20
2.37980372227449
30
5E-16
0
SPLINE
5
2D0
100
AcDbEntity
8
1
62
256
6
ByLayer
370
-1
48
1
60
0
100
AcDbSpline
70
4
71
3
72
28
73
24
40
0
40
0
40
0
40
0
40
5.90385901824E-05
40
5.90385901824E-05
40
0.154146260789404
40
0.154146260789404
40
0.489794994350259
40
0.489794994350259
40
0.589296251629367
40
0.589296251629367
40
0.829545578822862
40
0.829545578822862
40
0.905423872995083
40
0.905423872995083
40
0.93842798251318
40
0.93842798251318
40
0.961295188463235
40
0.961295188463235
40
0.98071492842278
40
0.98071492842278
40
0.999940961411308
40
0.999940961411308
40
1
40
1
40
1
40
1
41
1
10
68.4805030066551
20
2.35392417856781
30
6E-16
41
1
10
68.4805011386424
20
2.35391435357269
30
6E-16
41
1
10
68.4804992706687
20
2.35390452857013
30
6E-16
41
1
10
68.4757911287946
20
2.32915585639924
30
6E-16
41
1
10
68.4656625654573
20
2.30168027164785
30
6E-16
41
1
10
68.4214546376281
20
2.2086888063148
30
6E-16
41
1
10
68.3734728230494
20
2.13324352960976
30
6E-16
41
1
10
68.2988278836755
20
2.03452174743364
30
6E-16
41
1
10
68.2805206485343
20
2.01157381706085
30
6E-16
41
1
10
68.2144395112405
20
1.93489570363229
30
6E-16
41
1
10
68.1604525332699
20
1.88001053653843
30
6E-16
41
1
10
68.0719437343703
20
1.82917788399735
30
6E-16
41
1
10
68.0487354548093
20
1.81859098997708
30
6E-16
41
1
10
68.0136593305446
20
1.80818162854686
30
6E-16
41
1
10
68.0027012899625
20
1.8056380731916
30
6E-16
41
1
10
67.9839023263766
20
1.80260268065163
30
6E-16
41
1
10
67.976112253933
20
1.80171649500278
30
6E-16
41
1
10
67.9616519629095
20
1.80078601264634
30
6E-16
41
1
10
67.9549749695571
20
1.80063389144226
30
6E-16
41
1
10
67.9417025625352
20
1.80088832735851
30
6E-16
41
1
10
67.93509330412
20
1.80128957533597
30
6E-16
41
1
10
67.9284991369087
20
1.80196102614298
30
6E-16
41
1
10
67.9284792405467
20
1.80196305718405
30
6E-16
41
1
10
67.9284593439073
20
1.80196508549776
30
6E-16
0
SPLINE
5
2D1
100
AcDbEntity
8
1
62
256
6
ByLayer
370
-1
48
1
60
0
100
AcDbSpline
70
4
71
5
72
12
73
6
40
0
40
0
40
0
40
0
40
0
40
0
40
1
40
1
40
1
40
1
40
1
40
1
41
1
10
69.8929726066564
20
0.863040350450007
30
7E-16
41
1
10
69.8926579869674
20
0.859462511499231
30
7E-16
41
1
10
69.8896419860271
20
0.855945037058774
30
7E-16
41
1
10
69.883947518666
20
0.852487528844193
30
7E-16
41
1
10
69.8755760489113
20
0.849089876268778
30
7E-16
41
1
10
69.8645001430612
20
0.84575283365362
30
7E-16
0
SPLINE
5
2D2
100
AcDbEntity
8
1
62
256
6
ByLayer
370
-1
48
1
60
0
100
AcDbSpline
70
4
71
1
72
4
73
2
40
0
40
0
40
1
40
1
41
1
10
67.6165593719681
20
-0.511147586074742
30
6E-16
41
1
10
67.589788300673
20
-0.510642949129732
30
6E-16
0
SPLINE
5
2D3
100
AcDbEntity
8
1
62
256
6
ByLayer
370
-1
48
1
60
0
100
AcDbSpline
70
4
71
2
72
6
73
3
40
0
40
0
40
0
40
1
40
1
40
1
41
1
10
67.5897887542928
20
-0.51068225028078
30
6E-16
41
1
10
67.3499348851458
20
-0.506510934250599
30
6E-16
41
1
10
67.1100815429858
20
-0.502264503714059
30
6E-16
0
SPLINE
5
2D4
100
AcDbEntity
8
1
62
256
6
ByLayer
370
-1
48
1
60
0
100
AcDbSpline
70
4
71
3
72
16
73
12
40
0
40
0
40
0
40
0
40
7.16507861672E-05
40
7.16507861672E-05
40
0.24971294577807
40
0.24971294577807
40
0.624679821504722
40
0.624679821504722
40
0.999928349213841
40
0.999928349213841
40
1
40
1
40
1
40
1
41
1
10
60.1116006919424
20
2.03695241026557
30
1E-16
41
1
10
60.1116022451281
20
2.0369622899222
30
1E-16
41
1
10
60.1116037983067
20
2.03697216957997
30
1E-16
41
1
10
60.1157642685313
20
2.06343630225402
30
1E-16
41
1
10
60.120141902337
20
2.09060453290638
30
1E-16
41
1
10
60.1316228464357
20
2.16028581102455
30
1E-16
41
1
10
60.1389930805116
20
2.20366642479237
30
1E-16
41
1
10
60.1546477285424
20
2.29337546413424
30
1E-16
41
1
10
60.1629348657224
20
2.3397178371028
30
1E-16
41
1
10
60.1716561109597
20
2.38744680851025
30
1E-16
41
1
10
60.171657908635
20
2.38745664661801
30
1E-16
41
1
10
60.1716597063042
20
2.3874664847269
30
1E-16
0
SPLINE
5
2D5
100
AcDbEntity
8
1
62
256
6
ByLayer
370
-1
48
1
60
0
100
AcDbSpline
70
4
71
3
72
8
73
4
40
0
40
0
40
0
40
0
40
1
40
1
40
1
40
1
41
1
10
67.6270354343167
20
-0.505837594459933
30
6E-16
41
1
10
67.6235583503495
20
-0.507611133181143
30
6E-16
41
1
10
67.6200795724184
20
-0.509381384969402
30
6E-16
41
1
10
67.6165991049214
20
-0.511148335044254
30
6E-16
0
SPLINE
5
2D6
100
AcDbEntity
8
1
62
256
6
ByLayer
370
-1
48
1
60
0
100
AcDbSpline
70
4
71
2
72
16
73
13
40
0
40
0
40
0
40
0.0714285714285714
40
0.0714285714285714
40
0.125
40
0.125
40
0.25
40
0.25
40
0.5
40
0.5
40
0.75
40
0.75
40
1
40
1
40
1
41
1
10
60.1220735207565
20
2.07835182449719
30
1E-16
41
1
10
60.1210757145623
20
2.07201231897991
30
1E-16
41
1
10
60.1295315361235
20
2.0988332217685
30
1E-16
41
1
10
60.132971699622
20
2.10974502851633
30
1E-16
41
1
10
60.1378484794485
20
2.12576042660419
30
1E-16
41
1
10
60.1460357134679
20
2.15264739233285
30
1E-16
41
1
10
60.1576281652184
20
2.19178854823906
30
1E-16
41
1
10
60.1751783130262
20
2.25104547561787
30
1E-16
41
1
10
60.1973944583315
20
2.32774197065209
30
1E-16
41
1
10
60.216944127206
20
2.39523302552013
30
1E-16
41
1
10
60.2368565266372
20
2.46501889823722
30
1E-16
41
1
10
60.2579362320947
20
2.5388957631049
30
1E-16
41
1
10
60.2758745455996
20
2.60290633037366
30
1E-16
0
SPLINE
5
2D7
100
AcDbEntity
8
1
62
256
6
ByLayer
370
-1
48
1
60
0
100
AcDbSpline
70
4
71
2
72
6
73
3
40
0
40
0
40
0
40
1
40
1
40
1
41
1
10
69.9982845677616
20
-0.137402298376259
30
7E-16
41
1
10
69.9974003571476
20
-0.146932518254971
30
7E-16
41
1
10
69.9679497812063
20
-0.15582055384408
30
7E-16
0
SPLINE
5
2D8
100
AcDbEntity
8
1
62
256
6
ByLayer
370
-1
48
1
60
0
100
AcDbSpline
70
4
71
3
72
12
73
8
40
0
40
0
40
0
40
0
40
0.256234765497278
40
0.256234765497278
40
0.512469530995056
40
0.512469530995056
40
1
40
1
40
1
40
1
41
1
10
67.8962093707462
20
-0.501936672098367
30
6E-16
41
1
10
67.8957331205011
20
-0.499421311285658
30
6E-16
41
1
10
67.8952568674505
20
-0.496905890576386
30
6E-16
41
1
10
67.8943043332488
20
-0.49187490585382
30
6E-16
41
1
10
67.893828057085
20
-0.489359342761958
30
6E-16
41
1
10
67.8924455559573
20
-0.482057271327534
30
6E-16
41
1
10
67.8915393054645
20
-0.477270563747425
30
6E-16
41
1
10
67.8906330193096
20
-0.472483577846504
30
6E-16
0
SPLINE
5
2D9
100
AcDbEntity
8
1
62
256
6
ByLayer
370
-1
48
1
60
0
100
AcDbSpline
70
4
71
3
72
16
73
12
40
0
40
0
40
0
40
0
40
0.242357006778979
40
0.242357006778979
40
0.484784571203321
40
0.484784571203321
40
0.72721719426236
40
0.72721719426236
40
0.969649409280309
40
0.969649409280309
40
1
40
1
40
1
40
1
41
1
10
59.7251729885726
20
-0.212013144730832
30
1E-16
41
1
10
59.725652678326
20
-0.218263199216437
30
1E-16
41
1
10
59.745336392466
20
-0.224956829210953
30
1E-16
41
1
10
59.8199002060683
20
-0.238023635363618
30
1E-16
41
1
10
59.8758100081309
20
-0.244624002554815
30
1E-16
41
1
10
60.0156149343649
20
-0.256783223074308
30
1E-16
41
1
10
60.1014357011002
20
-0.262543175535598
30
1E-16
41
1
10
60.2907118217677
20
-0.27242037008341
30
1E-16
41
1
10
60.3967767406239
20
-0.276676434494789
30
1E-16
41
1
10
60.5192810887129
20
-0.280341319866466
30
2E-16
41
1
10
60.5331506259072
20
-0.280738967625354
30
2E-16
41
1
10
60.5470693134662
20
-0.281120684272622
30
2E-16
0
SPLINE
5
2DA
100
AcDbEntity
8
1
62
256
6
ByLayer
370
-1
48
1
60
0
100
AcDbSpline
70
4
71
3
72
16
73
12
40
0
40
0
40
0
40
0
40
7.16421728146E-05
40
7.16421728146E-05
40
0.0598354361742
40
0.0598354361742
40
0.529963658695896
40
0.529963658695896
40
0.999928357827186
40
0.999928357827186
40
1
40
1
40
1
40
1
41
1
10
69.6864640012981
20
2.21046120154889
30
7E-16
41
1
10
69.6864622773229
20
2.21047105283867
30
7E-16
41
1
10
69.6864605533505
20
2.21048090412896
30
7E-16
41
1
10
69.6856552221976
20
2.21508277287944
30
7E-16
41
1
10
69.6848394406242
20
2.21972406475211
30
7E-16
41
1
10
69.6775106819013
20
2.26124371933508
30
7E-16
41
1
10
69.6703291974856
20
2.30071354329911
30
7E-16
41
1
10
69.6546913472472
20
2.38456106907182
30
7E-16
41
1
10
69.6462321943465
20
2.42895449210326
30
7E-16
41
1
10
69.6371719261276
20
2.47565619319028
30
7E-16
41
1
10
69.6371700214093
20
2.47566601113556
30
7E-16
41
1
10
69.6371681166938
20
2.47567582908135
30
7E-16
0
SPLINE
5
2DB
100
AcDbEntity
8
1
62
256
6
ByLayer
370
-1
48
1
60
0
100
AcDbSpline
70
4
71
1
72
4
73
2
40
0
40
0
40
1
40
1
41
1
10
59.7184239992287
20
-0.239644400682692
30
1E-16
41
1
10
59.7191019072147
20
-0.238152254173826
30
1E-16
0
SPLINE
5
2DC
100
AcDbEntity
8
1
62
256
6
ByLayer
370
-1
48
1
60
0
100
AcDbSpline
70
4
71
3
72
16
73
12
40
0
40
0
40
0
40
0
40
0.0001612263823351
40
0.0001612263823351
40
0.229290574978186
40
0.229290574978186
40
0.700369669956942
40
0.700369669956942
40
0.999838773613824
40
0.999838773613824
40
1
40
1
40
1
40
1
41
1
10
69.6371705258658
20
2.47566418960801
30
7E-16
41
1
10
69.6371684433408
20
2.47567397138144
30
7E-16
41
1
10
69.6371663606596
20
2.47568375312156
30
7E-16
41
1
10
69.635693040386
20
2.48260200753387
30
7E-16
41
1
10
69.6327585036772
20
2.49444780324686
30
7E-16
41
1
10
69.6214012350008
20
2.53829589055712
30
7E-16
41
1
10
69.610428814556
20
2.57863538100418
30
7E-16
41
1
10
69.591049839429
20
2.64873026503133
30
7E-16
41
1
10
69.5829981690725
20
2.67757832619864
30
7E-16
41
1
10
69.5746716165598
20
2.70721151101509
30
7E-16
41
1
10
69.5746671394526
20
2.70722744452311
30
7E-16
41
1
10
69.5746626623551
20
2.70724337776764
30
7E-16
0
SPLINE
5
2DD
100
AcDbEntity
8
1
62
256
6
ByLayer
370
-1
48
1
60
0
100
AcDbSpline
70
4
71
3
72
14
73
10
40
0
40
0
40
0
40
0
40
0.276396351020591
40
0.276396351020591
40
0.559382754882049
40
0.559382754882049
40
0.842369158743508
40
0.842369158743508
40
1
40
1
40
1
40
1
41
1
10
67.8962093659562
20
-0.50193667271634
30
6E-16
41
1
10
67.9863779618869
20
-0.503451697692981
30
6E-16
41
1
10
68.0579907775204
20
-0.503958276666566
30
6E-16
41
1
10
68.2327383233414
20
-0.503389873566505
30
6E-16
41
1
10
68.2968740218956
20
-0.502419820538933
30
6E-16
41
1
10
68.440877544789
20
-0.498104786634826
30
6E-16
41
1
10
68.4884927886181
20
-0.495743142504892
30
6E-16
41
1
10
68.5615425088054
20
-0.489881585808433
30
6E-16
41
1
10
68.5810063730558
20
-0.487871742947874
30
6E-16
41
1
10
68.5959497869127
20
-0.485651502398923
30
6E-16
0
SPLINE
5
2DE
100
AcDbEntity
8
1
62
256
6
ByLayer
370
-1
48
1
60
0
100
AcDbSpline
70
4
71
3
72
18
73
14
40
0
40
0
40
0
40
0
40
0.211036201430826
40
0.211036201430826
40
0.385385811299773
40
0.385385811299773
40
0.561433374579264
40
0.561433374579264
40
0.714421898625654
40
0.714421898625654
40
0.916998679884819
40
0.916998679884819
40
1
40
1
40
1
40
1
41
1
10
63.5811838834171
20
21.5854076630737
30
0
41
1
10
63.6520400961489
20
21.5804966794325
30
0
41
1
10
63.7261674784198
20
21.5862912609148
30
0
41
1
10
63.8593702018674
20
21.6189459095401
30
0
41
1
10
63.9202890736726
20
21.6424894898994
30
0
41
1
10
64.0341850139648
20
21.7062972744653
30
0
41
1
10
64.0886726177617
20
21.7478270550351
30
0
41
1
10
64.1746104474659
20
21.8355554058094
30
0
41
1
10
64.2092332043656
20
21.8814210042063
30
0
41
1
10
64.2729827633955
20
21.9912107510811
30
0
41
1
10
64.2980143997628
20
22.0579607767664
30
0
41
1
10
64.3178420301263
20
22.1514281612583
30
0
41
1
10
64.3218433978893
20
22.1788831219321
30
0
41
1
10
64.3241076517445
20
22.2062182824433
30
0
0
SPLINE
5
2DF
100
AcDbEntity
8
1
62
256
6
ByLayer
370
-1
48
1
60
0
100
AcDbSpline
70
4
71
3
72
16
73
12
40
0
40
0
40
0
40
0
40
0.0482542128662685
40
0.0482542128662685
40
0.271323428606266
40
0.271323428606266
40
0.496347295892107
40
0.496347295892107
40
0.735140818993988
40
0.735140818993988
40
1
40
1
40
1
40
1
41
1
10
66.1344054315063
20
21.8928745343158
30
0
41
1
10
66.1302352971872
20
21.8978171169034
30
0
41
1
10
66.1258996731747
20
21.9026280110101
30
0
41
1
10
66.1008608335563
20
21.9286532401122
30
0
41
1
10
66.0767749217349
20
21.9470935851503
30
0
41
1
10
66.0254225540979
20
21.9755732213909
30
0
41
1
10
65.997486200187
20
21.9859205418168
30
0
41
1
10
65.9399678858893
20
21.9982570113319
30
0
41
1
10
65.9096753464344
20
21.9998812144908
30
0
41
1
10
65.8488347499152
20
21.9941655658972
30
0
41
1
10
65.8178307276723
20
21.9857978223006
30
0
41
1
10
65.7898024793232
20
21.9731872607061
30
0
0
SPLINE
5
2E0
100
AcDbEntity
8
1
62
256
6
ByLayer
370
-1
48
1
60
0
100
AcDbSpline
70
4
71
3
72
12
73
8
40
0
40
0
40
0
40
0
40
0.317245638034796
40
0.317245638034796
40
0.785160244079902
40
0.785160244079902
40
1
40
1
40
1
40
1
41
1
10
63.6583936956984
20
20.6964755399779
30
0
41
1
10
63.6433322883145
20
20.7453182879172
30
0
41
1
10
63.6226003786285
20
20.7921173453314
30
0
41
1
10
63.5614255604583
20
20.8971996352135
30
0
41
1
10
63.5154102941141
20
20.9522422399731
30
0
41
1
10
63.4406206216011
20
21.0185338757638
30
0
41
1
10
63.4156291708804
20
21.0376751327316
30
0
41
1
10
63.3896867278483
20
21.0548605408094
30
0
0
SPLINE
5
2E1
100
AcDbEntity
8
1
62
256
6
ByLayer
370
-1
48
1
60
0
100
AcDbSpline
70
4
71
3
72
18
73
14
40
0
40
0
40
0
40
0
40
0.208932687181267
40
0.208932687181267
40
0.383668176390133
40
0.383668176390133
40
0.560126565577652
40
0.560126565577652
40
0.713203013193123
40
0.713203013193123
40
0.915419879697306
40
0.915419879697306
40
1
40
1
40
1
40
1
41
1
10
64.8791402920793
20
22.3036684869923
30
0
41
1
10
64.9094350224206
20
22.2417822333161
30
0
41
1
10
64.9504501071621
20
22.1823373717108
30
0
41
1
10
65.0437894571033
20
22.0854625148775
30
0
41
1
10
65.0943412394063
20
22.0450258704167
30
0
41
1
10
65.2063661044579
20
21.9788969589105
30
0
41
1
10
65.2697077897595
20
21.952523863811
30
0
41
1
10
65.3891839203356
20
21.9216113554066
30
0
41
1
10
65.4465685108265
20
21.9141953476616
30
0
41
1
10
65.5743670340394
20
21.9127201451317
30
0
41
1
10
65.6452668813309
20
21.9234537603027
30
0
41
1
10
65.7376093302736
20
21.9516435813173
30
0
41
1
10
65.7642103015547
20
21.9616727439917
30
0
41
1
10
65.7898024793232
20
21.9731872607061
30
0
0
SPLINE
5
2E2
100
AcDbEntity
8
1
62
256
6
ByLayer
370
-1
48
1
60
0
100
AcDbSpline
70
4
71
3
72
16
73
12
40
0
40
0
40
0
40
0
40
0.0541033684413755
40
0.0541033684413755
40
0.277090666990167
40
0.277090666990167
40
0.502368633601191
40
0.502368633601191
40
0.741690902558604
40
0.741690902558604
40
1
40
1
40
1
40
1
41
1
10
65.1442527749431
20
19.1629580244
30
0
41
1
10
65.1513875798597
20
19.164210722256
30
0
41
1
10
65.1584837693627
20
19.1657349897853
30
0
41
1
10
65.1942261637965
20
19.1748344434125
30
0
41
1
10
65.2221348250965
20
19.1868029662009
30
0
41
1
10
65.2722515565943
20
19.2179339585124
30
0
41
1
10
65.2950487866057
20
19.2375457105379
30
0
41
1
10
65.3341988127996
20
19.2826077551536
30
0
41
1
10
65.3505754307563
20
19.3088891375944
30
0
41
1
10
65.3752906229292
20
19.3655864903861
30
0
41
1
10
65.3832245262865
20
19.3968421520074
30
0
41
1
10
65.3862442661069
20
19.4277389384285
30
0
0
SPLINE
5
2E3
100
AcDbEntity
8
1
62
256
6
ByLayer
370
-1
48
1
60
0
100
AcDbSpline
70
4
71
3
72
16
73
12
40
0
40
0
40
0
40
0
40
0.177028935846395
40
0.177028935846395
40
0.39966816169783
40
0.39966816169783
40
0.631329571453499
40
0.631329571453499
40
0.882428483149469
40
0.882428483149469
40
1
40
1
40
1
40
1
41
1
10
63.5721438224713
20
19.7334796752888
30
0
41
1
10
63.5873154241926
20
19.7154977857964
30
0
41
1
10
63.6048602235993
20
19.6992795899015
30
0
41
1
10
63.6476789432166
20
19.668467056596
30
0
41
1
10
63.6743466332552
20
19.6550065955908
30
0
41
1
10
63.730082002483
20
19.6366333939476
30
0
41
1
10
63.7598956334068
20
19.6318305320811
30
0
41
1
10
63.8203819134671
20
19.6311007791862
30
0
41
1
10
63.8516729258464
20
19.6359086241892
30
0
41
1
10
63.8944431259675
20
19.6493461304492
30
0
41
1
10
63.9077650654439
20
19.654626222312
30
0
41
1
10
63.9205494385307
20
19.6607699601668
30
0
0
SPLINE
5
2E4
100
AcDbEntity
8
1
62
256
6
ByLayer
370
-1
48
1
60
0
100
AcDbSpline
70
4
71
3
72
18
73
14
40
0
40
0
40
0
40
0
40
0.195088243984976
40
0.195088243984976
40
0.372343637385042
40
0.372343637385042
40
0.551483191700651
40
0.551483191700651
40
0.705164117868682
40
0.705164117868682
40
0.9050233494869
40
0.9050233494869
40
1
40
1
40
1
40
1
41
1
10
66.1291680344341
20
20.0485495577983
30
0
41
1
10
66.0648560912894
20
20.0554468229525
30
0
41
1
10
65.9977808266045
20
20.0530941501511
30
0
41
1
10
65.8707740333051
20
20.0283489137517
30
0
41
1
10
65.8092996033359
20
20.0073429688774
30
0
41
1
10
65.6933068624709
20
19.9467734481166
30
0
41
1
10
65.6371891192765
20
19.9058850422649
30
0
41
1
10
65.5483407388149
20
19.8178215224385
30
0
41
1
10
65.5123034286383
20
19.77137085218
30
0
41
1
10
65.445771123272
20
19.6602788650666
30
0
41
1
10
65.418854785493
20
19.5926014574577
30
0
41
1
10
65.3948584038117
20
19.4928310900016
30
0
41
1
10
65.3894187011028
20
19.4602185048504
30
0
41
1
10
65.3862442661069
20
19.4277389384285
30
0
0
SPLINE
5
2E5
100
AcDbEntity
8
1
62
256
6
ByLayer
370
-1
48
1
60
0
100
AcDbSpline
70
4
71
3
72
18
73
14
40
0
40
0
40
0
40
0
40
0.209419412835528
40
0.209419412835528
40
0.38408609550537
40
0.38408609550537
40
0.560470318303843
40
0.560470318303843
40
0.71354182737607
40
0.71354182737607
40
0.91585788098943
40
0.91585788098943
40
1
40
1
40
1
40
1
41
1
10
64.8312116257718
20
19.3302887338794
30
0
41
1
10
64.8021148097085
20
19.3948455262751
30
0
41
1
10
64.7621773616861
20
19.4568128258676
30
0
41
1
10
64.6704308018344
20
19.5572763449522
30
0
41
1
10
64.6205269465254
20
19.5989831869465
30
0
41
1
10
64.509274705639
20
19.6665555989322
30
0
41
1
10
64.4460552812296
20
19.6930908495663
30
0
41
1
10
64.3262237964832
20
19.7231677016725
30
0
41
1
10
64.2684368534489
20
19.7297323721921
30
0
41
1
10
64.1393128473463
20
19.7285222211808
30
0
41
1
10
64.0673683864029
20
19.7156913292903
30
0
41
1
10
63.9735288836325
20
19.684255874326
30
0
41
1
10
63.9465460948112
20
19.673263075019
30
0
41
1
10
63.9205494385306
20
19.6607699601669
30
0
0
SPLINE
5
2E6
100
AcDbEntity
8
1
62
256
6
ByLayer
370
-1
48
1
60
0
100
AcDbSpline
70
4
71
3
72
12
73
8
40
0
40
0
40
0
40
0
40
0.195508015818415
40
0.195508015818415
40
0.556971006696018
40
0.556971006696018
40
1
40
1
40
1
40
1
41
1
10
66.0576271407406
20
20.9488160647171
30
0
41
1
10
66.0668000449316
20
20.918435592851
30
0
41
1
10
66.0780249512944
20
20.8887265237557
30
0
41
1
10
66.1148311583676
20
20.8077698706198
30
0
41
1
10
66.1449198392733
20
20.7588586554471
30
0
41
1
10
66.2204987402685
20
20.6625679948777
30
0
41
1
10
66.2687989430423
20
20.6167087243975
30
0
41
1
10
66.3207258953594
20
20.5792180537953
30
0
0
SPLINE
5
2E7
100
AcDbEntity
8
1
62
256
6
ByLayer
370
-1
48
1
60
0
100
AcDbSpline
70
4
71
3
72
14
73
10
40
0
40
0
40
0
40
0
40
0.226587353040066
40
0.226587353040066
40
0.520090515594944
40
0.520090515594944
40
0.78524211174162
40
0.78524211174162
40
1
40
1
40
1
40
1
41
1
10
63.5811838834172
20
21.5854076630745
30
0
41
1
10
63.5542740094956
20
21.5872727634732
30
0
41
1
10
63.5264528408069
20
21.5854881218158
30
0
41
1
10
63.463888839808
20
21.572452915007
30
0
41
1
10
63.4284845056694
20
21.5582382619267
30
0
41
1
10
63.3682711433285
20
21.5192270896951
30
0
41
1
10
63.3418847298568
20
21.4949327914444
30
0
41
1
10
63.303691233137
20
21.4442188747154
30
0
41
1
10
63.289615280192
20
21.4184879604401
30
0
41
1
10
63.2797604041306
20
21.3916684400854
30
0
0
SPLINE
5
2E8
100
AcDbEntity
8
1
62
256
6
ByLayer
370
-1
48
1
60
0
100
AcDbSpline
70
4
71
3
72
16
73
12
40
0
40
0
40
0
40
0
40
0.132243443027873
40
0.132243443027873
40
0.434972473825648
40
0.434972473825648
40
0.708863001686427
40
0.708863001686427
40
0.951154311696
40
0.951154311696
40
1
40
1
40
1
40
1
41
1
10
63.5590531848221
20
20.0943356325133
30
0
41
1
10
63.5497721246492
20
20.0811733893846
30
0
41
1
10
63.5414491947608
20
20.0671370005686
30
0
41
1
10
63.517992036825
20
20.0190033571165
30
0
41
1
10
63.5074488032288
20
19.9811702176133
30
0
41
1
10
63.5021527311898
20
19.907548521084
30
0
41
1
10
63.5059856539148
20
19.870755659224
30
0
41
1
10
63.5257960612796
20
19.805359500539
30
0
41
1
10
63.5406502614625
20
19.7753622026428
30
0
41
1
10
63.5637653030131
20
19.7437667381416
30
0
41
1
10
63.567868706467
20
19.7385466856789
30
0
41
1
10
63.5721438224713
20
19.7334796752888
30
0
0
SPLINE
5
2E9
100
AcDbEntity
8
1
62
256
6
ByLayer
370
-1
48
1
60
0
100
AcDbSpline
70
4
71
3
72
16
73
12
40
0
40
0
40
0
40
0
40
0.0590198323432307
40
0.0590198323432307
40
0.279826760391406
40
0.279826760391406
40
0.503213158487249
40
0.503213158487249
40
0.740764396871231
40
0.740764396871231
40
1
40
1
40
1
40
1
41
1
10
66.426788849847
20
20.2346857695192
30
0
41
1
10
66.4295371644822
20
20.2421651614305
30
0
41
1
10
66.431983677526
20
20.2497706563892
30
0
41
1
10
66.4420285304058
20
20.2860041090875
30
0
41
1
10
66.4455850567247
20
20.3161545601932
30
0
41
1
10
66.443794383396
20
20.3751234307745
30
0
41
1
10
66.4383432975728
20
20.4046735933764
30
0
41
1
10
66.4193065022369
20
20.4611137037486
30
0
41
1
10
66.4050184814065
20
20.4884331961322
30
0
41
1
10
66.3687747963824
20
20.5384314518348
30
0
41
1
10
66.3458164429097
20
20.5611029630483
30
0
41
1
10
66.3207258953594
20
20.5792180537953
30
0
0
SPLINE
5
2EA
100
AcDbEntity
8
1
62
256
6
ByLayer
370
-1
48
1
60
0
100
AcDbSpline
70
4
71
3
72
16
73
12
40
0
40
0
40
0
40
0
40
0.160034292694699
40
0.160034292694699
40
0.382552083446307
40
0.382552083446307
40
0.613196833923255
40
0.613196833923255
40
0.862576722972251
40
0.862576722972251
40
1
40
1
40
1
40
1
41
1
10
64.5622964790345
20
22.4633961852046
30
0
41
1
10
64.5413483977134
20
22.4597182126652
30
0
41
1
10
64.5206821639259
20
22.4537257813913
30
0
41
1
10
64.4740573979256
20
22.4345692267355
30
0
41
1
10
64.4486058479407
20
22.4192260205018
30
0
41
1
10
64.4038227596603
20
22.3823156075376
30
0
41
1
10
64.384166095991
20
22.3600974106028
30
0
41
1
10
64.3519794772441
20
22.3106027933956
30
0
41
1
10
64.3397265500202
20
22.2824610861603
30
0
41
1
10
64.3281477079868
20
22.2382264446024
30
0
41
1
10
64.3254306305318
20
22.222189918057
30
0
41
1
10
64.3241076517442
20
22.2062182824433
30
0
0
SPLINE
5
2EB
100
AcDbEntity
8
1
62
256
6
ByLayer
370
-1
48
1
60
0
100
AcDbSpline
70
4
71
3
72
12
73
8
40
0
40
0
40
0
40
0
40
0.390670935257993
40
0.390670935257993
40
0.815189653871173
40
0.815189653871173
40
1
40
1
40
1
40
1
41
1
10
66.1513594383835
20
21.5397429620968
30
0
41
1
10
66.1193189831358
20
21.4948988762186
30
0
41
1
10
66.0921972174957
20
21.444902408892
30
0
41
1
10
66.0493855561514
20
21.3325363776438
30
0
41
1
10
66.034531553928
20
21.2680286976176
30
0
41
1
10
66.0274113415429
20
21.1722473922519
30
0
41
1
10
66.0270967840169
20
21.1424743896707
30
0
41
1
10
66.0287387342254
20
21.1126503593848
30
0
0
SPLINE
5
2EC
100
AcDbEntity
8
1
62
256
6
ByLayer
370
-1
48
1
60
0
100
AcDbSpline
70
4
71
3
72
14
73
10
40
0
40
0
40
0
40
0
40
0.279151400000965
40
0.279151400000965
40
0.566078964937862
40
0.566078964937862
40
0.825731067436
40
0.825731067436
40
1
40
1
40
1
40
1
41
1
10
66.129168034434
20
20.0485495577979
30
0
41
1
10
66.1616992443117
20
20.0450606820255
30
0
41
1
10
66.1957507273783
20
20.0472017043646
30
0
41
1
10
66.2623183369313
20
20.0639271874858
30
0
41
1
10
66.295786639096
20
20.0791828615361
30
0
41
1
10
66.3519960961741
20
20.1197412271496
30
0
41
1
10
66.3762684262272
20
20.1446138484689
30
0
41
1
10
66.4080843039616
20
20.1919615629888
30
0
41
1
10
66.4187849890434
20
20.2129036886083
30
0
41
1
10
66.426788849847
20
20.2346857695192
30
0
0
SPLINE
5
2ED
100
AcDbEntity
8
1
62
256
6
ByLayer
370
-1
48
1
60
0
100
AcDbSpline
70
4
71
3
72
18
73
14
40
0
40
0
40
0
40
0
40
0.0220517257901948
40
0.0220517257901948
40
0.243780847872405
40
0.243780847872405
40
0.46594716684367
40
0.46594716684367
40
0.700541367573432
40
0.700541367573432
40
0.957088582626506
40
0.957088582626506
40
1
40
1
40
1
40
1
41
1
10
63.2797604041306
20
21.3916684400854
30
0
41
1
10
63.2787295670448
20
21.3888630718563
30
0
41
1
10
63.2777421113335
20
21.3860421992255
30
0
41
1
10
63.2674220803687
20
21.3550358235198
30
0
41
1
10
63.2624188881228
20
21.3251178248335
30
0
41
1
10
63.2616601337418
20
21.2666668238454
30
0
41
1
10
63.2658914456779
20
21.2373890583202
30
0
41
1
10
63.282695298089
20
21.1815104769586
30
0
41
1
10
63.295902199969
20
21.1544413823617
30
0
41
1
10
63.3302790270263
20
21.1046739744207
30
0
41
1
10
63.3524802368729
20
21.0819771580789
30
0
41
1
10
63.3811719738088
20
21.0606665492971
30
0
41
1
10
63.3853960966696
20
21.057702842424
30
0
41
1
10
63.3896867278483
20
21.0548605408094
30
0
0
SPLINE
5
2EE
100
AcDbEntity
8
1
62
256
6
ByLayer
370
-1
48
1
60
0
100
AcDbSpline
70
4
71
3
72
14
73
10
40
0
40
0
40
0
40
0
40
0.270152923335618
40
0.270152923335618
40
0.556389694231059
40
0.556389694231059
40
0.815241235470811
40
0.815241235470811
40
1
40
1
40
1
40
1
41
1
10
66.1513594383835
20
21.5397429620968
30
0
41
1
10
66.1696690846498
20
21.5653692942827
30
0
41
1
10
66.1841016077952
20
21.5949320472613
30
0
41
1
10
66.2025042529099
20
21.6598954986345
30
0
41
1
10
66.2060198325193
20
21.696586185244
30
0
41
1
10
66.1990644795134
20
21.7658907872152
30
0
41
1
10
66.1897315755206
20
21.7996048648518
30
0
41
1
10
66.1641447223103
20
21.8526840160289
30
0
41
1
10
66.150425009491
20
21.8738875950112
30
0
41
1
10
66.1344054315063
20
21.8928745343158
30
0
0
SPLINE
5
2EF
100
AcDbEntity
8
1
62
256
6
ByLayer
370
-1
48
1
60
0
100
AcDbSpline
70
4
71
3
72
14
73
10
40
0
40
0
40
0
40
0
40
0.271509259764563
40
0.271509259764563
40
0.559396471751168
40
0.559396471751168
40
0.819827230184413
40
0.819827230184413
40
1
40
1
40
1
40
1
41
1
10
64.8312116257718
20
19.3302887338794
30
0
41
1
10
64.8445483980246
20
19.3006985809334
30
0
41
1
10
64.8631866053931
20
19.2725741115571
30
0
41
1
10
64.9106502384328
20
19.2226707486703
30
0
41
1
10
64.9408246472565
20
19.2006419331642
30
0
41
1
10
65.004473104594
20
19.1711594361518
30
0
41
1
10
65.0383474172559
20
19.1621266511212
30
0
41
1
10
65.0962637193784
20
19.1576478709807
30
0
41
1
10
65.1206136849313
20
19.158807576319
30
0
41
1
10
65.1442527749431
20
19.1629580244
30
0
0
SPLINE
5
2F0
100
AcDbEntity
8
1
62
256
6
ByLayer
370
-1
48
1
60
0
100
AcDbSpline
70
4
71
3
72
12
73
8
40
0
40
0
40
0
40
0
40
0.487379210032584
40
0.487379210032584
40
0.893714314741521
40
0.893714314741521
40
1
40
1
40
1
40
1
41
1
10
63.5590531848261
20
20.0943356325107
30
0
41
1
10
63.6002714931211
20
20.1527907427076
30
0
41
1
10
63.6338670932758
20
20.2193580582081
30
0
41
1
10
63.6750183056126
20
20.3506622693696
30
0
41
1
10
63.686282842996
20
20.415396974413
30
0
41
1
10
63.6883755673328
20
20.4980041392482
30
0
41
1
10
63.6881619935063
20
20.5153284987624
30
0
41
1
10
63.6872821022135
20
20.5326412453105
30
0
0
SPLINE
5
2F1
100
AcDbEntity
8
1
62
256
6
ByLayer
370
-1
48
1
60
0
100
AcDbSpline
70
4
71
3
72
16
73
12
40
0
40
0
40
0
40
0
40
0.0985875278266547
40
0.0985875278266547
40
0.406858157893578
40
0.406858157893578
40
0.686153775572185
40
0.686153775572185
40
0.932807266120551
40
0.932807266120551
40
1
40
1
40
1
40
1
41
1
10
64.8791402920822
20
22.3036684869931
30
0
41
1
10
64.8740598990257
20
22.3140467438691
30
0
41
1
10
64.8683068142258
20
22.3242071760303
30
0
41
1
10
64.8420918864467
20
22.3645216003579
30
0
41
1
10
64.8154362042274
20
22.3925008583993
30
0
41
1
10
64.7553804477456
20
22.4343707256269
30
0
41
1
10
64.7218636262086
20
22.4499308891968
30
0
41
1
10
64.6553690130164
20
22.4666923210038
30
0
41
1
10
64.6218014849372
20
22.4695609444397
30
0
41
1
10
64.5801461672239
20
22.4661111384544
30
0
41
1
10
64.5711773904174
20
22.4649554568005
30
0
41
1
10
64.5622964790345
20
22.4633961852046
30
0
0
SPLINE
5
2F2
100
AcDbEntity
8
1
62
256
6
ByLayer
370
-1
48
1
60
0
100
AcDbSpline
70
4
71
3
72
8
73
4
40
0
40
0
40
0
40
0
40
1
40
1
40
1
40
1
41
1
10
59.7191994557368
20
23.5944778884502
30
0
41
1
10
59.7189399759701
20
23.5909707045184
30
0
41
1
10
59.7186811541903
20
23.5874618833621
30
0
41
1
10
59.7184229930946
20
23.5839514296324
30
0
0
SPLINE
5
2F3
100
AcDbEntity
8
1
62
256
6
ByLayer
370
-1
48
1
60
0
100
AcDbSpline
70
4
71
3
72
12
73
8
40
0
40
0
40
0
40
0
40
0.256234765497267
40
0.256234765497267
40
0.512469530995085
40
0.512469530995085
40
1
40
1
40
1
40
1
41
1
10
59.9691337142441
20
23.8632812047918
30
0
41
1
10
59.948296519067
20
23.8628822339958
30
0
41
1
10
59.9274593354875
20
23.8624832614248
30
0
41
1
10
59.885784996553
20
23.8616852906496
30
0
41
1
10
59.8649478409094
20
23.8612862974164
30
0
41
1
10
59.8044644754256
20
23.8601281269877
30
0
41
1
10
59.7648183045254
20
23.8593689276923
30
0
41
1
10
59.7251721880279
20
23.858609697525
30
0
0
SPLINE
5
2F4
100
AcDbEntity
8
1
62
256
6
ByLayer
370
-1
48
1
60
0
100
AcDbSpline
70
4
71
3
72
8
73
4
40
0
40
0
40
0
40
0
40
1
40
1
40
1
40
1
41
1
10
59.7251718921782
20
23.8584506411693
30
0
41
1
10
59.7230503575704
20
23.7704600550752
30
0
41
1
10
59.7210595504035
20
23.6824689384022
30
0
41
1
10
59.7191994557368
20
23.5944778884503
30
0
0
SPLINE
5
2F5
100
AcDbEntity
8
1
62
256
6
ByLayer
370
-1
48
1
60
0
100
AcDbSpline
70
4
71
1
72
4
73
2
40
0
40
0
40
1
40
1
41
1
10
59.7184239992287
20
23.5839117142217
30
0
41
1
10
59.7191019072147
20
23.5571524626759
30
0
0
SPLINE
5
2F6
100
AcDbEntity
8
1
62
256
6
ByLayer
370
-1
48
1
60
0
100
AcDbSpline
70
4
71
2
72
6
73
3
40
0
40
0
40
0
40
1
40
1
40
1
41
1
10
69.9993106826917
20
18.0915218692309
30
0
41
1
10
69.9994662401645
20
18.3312660453336
30
0
41
1
10
69.9982845674826
20
18.5710105092948
30
0
0
SPLINE
5
2F7
100
AcDbEntity
8
1
62
256
6
ByLayer
370
-1
48
1
60
0
100
AcDbSpline
70
4
71
3
72
16
73
12
40
0
40
0
40
0
40
0
40
0.242357006779006
40
0.242357006779006
40
0.484784571203357
40
0.484784571203357
40
0.72721719426238
40
0.72721719426238
40
0.969649409280337
40
0.969649409280337
40
1
40
1
40
1
40
1
41
1
10
67.8906309237785
20
25.9560882056788
30
0
41
1
10
68.0019108872647
20
25.9555414625292
30
0
41
1
10
68.1146428732894
20
25.9357971544387
30
0
41
1
10
68.3243781544314
20
25.861140447326
30
0
41
1
10
68.4242694533704
20
25.8051945953053
30
0
41
1
10
68.5975296723801
20
25.6653485684546
30
0
41
1
10
68.6732900337778
20
25.5795204357952
30
0
41
1
10
68.7905076400255
20
25.3902597389857
30
0
41
1
10
68.8335788187316
20
25.2842176790271
30
0
41
1
10
68.8606011368939
20
25.1617522251549
30
0
41
1
10
68.8633519569452
20
25.1478872764738
30
0
41
1
10
68.8658054840496
20
25.1339733855032
30
0
0
SPLINE
5
2F8
100
AcDbEntity
8
1
62
256
6
ByLayer
370
-1
48
1
60
0
100
AcDbSpline
70
4
71
3
72
16
73
12
40
0
40
0
40
0
40
0
40
0.242357006779002
40
0.242357006779002
40
0.484784571203348
40
0.484784571203348
40
0.727217194262382
40
0.727217194262382
40
0.969649409280334
40
0.969649409280334
40
1
40
1
40
1
40
1
41
1
10
69.9940468359438
20
17.7930800321543
30
0
41
1
10
69.9935674903512
20
17.6818517248488
30
0
41
1
10
69.9738831661834
20
17.5691823265783
30
0
41
1
10
69.8993198863532
20
17.3595891038715
30
0
41
1
10
69.8434095867642
20
17.259776761904
30
0
41
1
10
69.7036050357084
20
17.0866814398624
30
0
41
1
10
69.6177839825926
20
17.0110075465937
30
0
41
1
10
69.4285080901302
20
16.8939591455083
30
0
41
1
10
69.3224435924265
20
16.8509728909075
30
0
41
1
10
69.1999388300238
20
16.8240369254773
30
0
41
1
10
69.1860692439711
20
16.8212957380802
30
0
41
1
10
69.1721505105634
20
16.8188517422384
30
0
0
SPLINE
5
2F9
100
AcDbEntity
8
1
62
256
6
ByLayer
370
-1
48
1
60
0
100
AcDbSpline
70
4
71
2
72
6
73
3
40
0
40
0
40
0
40
1
40
1
40
1
41
1
10
67.5897887542928
20
25.9607792332359
30
0
41
1
10
67.3499348851459
20
25.961080832125
30
0
41
1
10
67.1100815429858
20
25.9600458115695
30
0
0
SPLINE
5
2FA
100
AcDbEntity
8
1
62
256
6
ByLayer
370
-1
48
1
60
0
100
AcDbSpline
70
4
71
2
72
6
73
3
40
0
40
0
40
0
40
1
40
1
40
1
41
1
10
69.9982845677616
20
18.5710105052947
30
0
41
1
10
69.9974003571476
20
18.7408492243233
30
0
41
1
10
69.9679497812062
20
18.9081371457653
30
0
0
SPLINE
5
2FB
100
AcDbEntity
8
1
62
256
6
ByLayer
370
-1
48
1
60
0
100
AcDbSpline
70
4
71
3
72
14
73
10
40
0
40
0
40
0
40
0
40
0.245608019549646
40
0.245608019549646
40
0.497072013033097
40
0.497072013033097
40
0.748536006516549
40
0.748536006516549
40
1
40
1
40
1
40
1
41
1
10
59.9691337142315
20
23.8632811999916
30
0
41
1
10
59.9701374576051
20
23.9534079830353
30
0
41
1
10
59.9833356177039
20
24.0249800361088
30
0
41
1
10
60.047662933332
20
24.1996085467201
30
0
41
1
10
60.0848261794691
20
24.2636923004082
30
0
41
1
10
60.2063076480892
20
24.4075560194303
30
0
41
1
10
60.2631168299216
20
24.4551148994393
30
0
41
1
10
60.4263118250868
20
24.5488421169525
30
0
41
1
10
60.4960941421085
20
24.5741416835462
30
0
41
1
10
60.588918275242
20
24.5904905564565
30
0
0
SPLINE
5
2FC
100
AcDbEntity
8
1
62
256
6
ByLayer
370
-1
48
1
60
0
100
AcDbSpline
70
4
71
3
72
16
73
12
40
0
40
0
40
0
40
0
40
0.242357006778981
40
0.242357006778981
40
0.484784571203319
40
0.484784571203319
40
0.727217194262355
40
0.727217194262355
40
0.969649409280306
40
0.969649409280306
40
1
40
1
40
1
40
1
41
1
10
59.7251729885726
20
23.8586075999588
30
0
41
1
10
59.725652678326
20
23.969836595376
30
0
41
1
10
59.745336392466
20
24.0825047739628
30
0
41
1
10
59.8199002060683
20
24.2920990638886
30
0
41
1
10
59.875810008131
20
24.3919104111065
30
0
41
1
10
60.015614934365
20
24.565006483276
30
0
41
1
10
60.1014357011002
20
24.6406798039581
30
0
41
1
10
60.2907118217678
20
24.7577286613147
30
0
41
1
10
60.396776740624
20
24.8007157579639
30
0
41
1
10
60.519281088713
20
24.8276508950191
30
0
41
1
10
60.5331506259073
20
24.8303919847292
30
0
41
1
10
60.5470693134662
20
24.8328358889012
30
0
0
SPLINE
5
2FD
100
AcDbEntity
8
1
62
256
6
ByLayer
370
-1
48
1
60
0
100
AcDbSpline
70
4
71
2
72
6
73
3
40
0
40
0
40
0
40
1
40
1
40
1
41
1
10
67.1100815469875
20
25.9600458118458
30
0
41
1
10
66.9401657256463
20
25.9592655133885
30
0
41
1
10
66.7728192777932
20
25.9299303374609
30
0
0
SPLINE
5
2FE
100
AcDbEntity
8
1
62
256
6
ByLayer
370
-1
48
1
60
0
100
AcDbSpline
70
4
71
3
72
14
73
10
40
0
40
0
40
0
40
0
40
0.245608019549646
40
0.245608019549646
40
0.497072013033097
40
0.497072013033097
40
0.748536006516549
40
0.748536006516549
40
1
40
1
40
1
40
1
41
1
10
69.7485794410152
20
17.7853940114045
30
0
41
1
10
69.7475756976417
20
17.6952672283607
30
0
41
1
10
69.7343775375429
20
17.6236951752872
30
0
41
1
10
69.6700502219147
20
17.4490666646759
30
0
41
1
10
69.6328869757777
20
17.3849829109878
30
0
41
1
10
69.5114055071576
20
17.2411191919657
30
0
41
1
10
69.4545963253252
20
17.1935603119567
30
0
41
1
10
69.2914013301601
20
17.0998330944435
30
0
41
1
10
69.2216190131384
20
17.0745335278498
30
0
41
1
10
69.1287948800048
20
17.0581846549395
30
0
0
SPLINE
5
2FF
100
AcDbEntity
8
1
62
256
6
ByLayer
370
-1
48
1
60
0
100
AcDbSpline
70
4
71
2
72
6
73
3
40
0
40
0
40
0
40
1
40
1
40
1
41
1
10
59.7184024725551
20
23.5571533421651
30
0
41
1
10
59.7182469150823
20
23.3174091660624
30
0
41
1
10
59.7194285877641
20
23.0776647021013
30
0
0
SPLINE
5
300
100
AcDbEntity
8
1
62
256
6
ByLayer
370
-1
48
1
60
0
100
AcDbSpline
70
4
71
2
72
6
73
3
40
0
40
0
40
0
40
1
40
1
40
1
41
1
10
59.7194285874851
20
23.0776647061013
30
0
41
1
10
59.7203127980991
20
22.9078259870727
30
0
41
1
10
59.7497633740405
20
22.7405380656307
30
0
0
LINE
5
57
100
AcDbEntity
8
1
62
256
6
ByLayer
370
-1
48
1
60
0
100
AcDbLine
10
60.51969
20
3.716881
30
0
11
60.242828
21
2.674477
31
0
39
0
210
0
220
0
230
1
0
LINE
5
59
100
AcDbEntity
8
80
62
256
6
ByLayer
370
-1
48
1
60
0
100
AcDbLine
10
0
20
0
30
0
11
-10
21
0
31
0
39
0
210
0
220
0
230
1
0
LINE
5
5A
100
AcDbEntity
8
1
62
256
6
ByLayer
370
-1
48
1
60
0
100
AcDbLine
10
69.574452
20
2.750651
30
0
11
69.314246
21
3.833433
31
0
39
0
210
0
220
0
230
1
0
LINE
5
5B
100
AcDbEntity
8
1
62
256
6
ByLayer
370
-1
48
1
60
0
100
AcDbLine
10
66.12027
20
21.495574
30
0
11
66.098203
21
21.451452
31
0
39
0
210
0
220
0
230
1
0
LINE
5
5C
100
AcDbEntity
8
1
62
256
6
ByLayer
370
-1
48
1
60
0
100
AcDbLine
10
64.256445
20
21.965296
30
0
11
64.277504
21
22.007401
31
0
39
0
210
0
220
0
230
1
0
LINE
5
5D
100
AcDbEntity
8
1
62
256
6
ByLayer
370
-1
48
1
60
0
100
AcDbLine
10
65.478785
20
19.718402
30
0
11
65.457716
21
19.676277
31
0
39
0
210
0
220
0
230
1
0
LINE
5
5E
100
AcDbEntity
8
1
62
256
6
ByLayer
370
-1
48
1
60
0
100
AcDbLine
10
63.613922
20
20.186049
30
0
11
63.636018
21
20.230228
31
0
39
0
210
0
220
0
230
1
0
LINE
5
5F
100
AcDbEntity
8
1
62
256
6
ByLayer
370
-1
48
1
60
0
100
AcDbLine
10
62.438797
20
22.077494
30
0
11
62.421638
21
22.043185
31
0
39
0
210
0
220
0
230
1
0
LINE
5
60
100
AcDbEntity
8
1
62
256
6
ByLayer
370
-1
48
1
60
0
100
AcDbLine
10
67.295969
20
19.605277
30
0
11
67.313128
21
19.639585
31
0
39
0
210
0
220
0
230
1
0
LINE
5
61
100
AcDbEntity
8
1
62
256
6
ByLayer
370
-1
48
1
60
0
100
AcDbLine
10
62.94567
20
-21.512869
30
0
11
63.01548
21
-21.99265
31
0
39
0
210
0
220
0
230
1
0
LINE
5
62
100
AcDbEntity
8
1
62
256
6
ByLayer
370
-1
48
1
60
0
100
AcDbLine
10
19.5
20
-25
30
0
11
20
21
-24.5
31
0
39
0
210
0
220
0
230
1
0
LINE
5
63
100
AcDbEntity
8
1
62
256
6
ByLayer
370
-1
48
1
60
0
100
AcDbLine
10
20
20
24.5
30
0
11
19.5
21
25
31
0
39
0
210
0
220
0
230
1
0
LINE
5
64
100
AcDbEntity
8
1
62
256
6
ByLayer
370
-1
48
1
60
0
100
AcDbLine
10
19.5
20
25
30
0
11
0.3
21
25
31
0
39
0
210
0
220
0
230
1
0
LINE
5
65
100
AcDbEntity
8
1
62
256
6
ByLayer
370
-1
48
1
60
0
100
AcDbLine
10
0.3
20
-25
30
0
11
19.5
21
-25
31
0
39
0
210
0
220
0
230
1
0
LINE
5
66
100
AcDbEntity
8
1
62
256
6
ByLayer
370
-1
48
1
60
0
100
AcDbLine
10
0.3
20
25
30
0
11
0
21
24.7
31
0
39
0
210
0
220
0
230
1
0
LINE
5
67
100
AcDbEntity
8
1
62
256
6
ByLayer
370
-1
48
1
60
0
100
AcDbLine
10
0
20
-24.7
30
0
11
0.3
21
-25
31
0
39
0
210
0
220
0
230
1
0
LINE
5
68
100
AcDbEntity
8
1
62
256
6
ByLayer
370
-1
48
1
60
0
100
AcDbLine
10
36.932448
20
24.001728
30
0
11
20.544171
21
22.548262
31
0
39
0
210
0
220
0
230
1
0
LINE
5
69
100
AcDbEntity
8
1
62
256
6
ByLayer
370
-1
48
1
60
0
100
AcDbLine
10
20.544171
20
-22.548262
30
0
11
41.720793
21
-24.426403
31
0
39
0
210
0
220
0
230
1
0
LINE
5
6A
100
AcDbEntity
8
1
62
256
6
ByLayer
370
-1
48
1
60
0
100
AcDbLine
10
43.045932
20
-24.485051
30
0
11
59.772845
21
-24.485051
31
0
39
0
210
0
220
0
230
1
0
LINE
5
6B
100
AcDbEntity
8
81
62
256
6
ByLayer
370
-1
48
1
60
0
100
AcDbLine
10
65
20
25.96
30
0
11
75
21
25.96
31
0
39
0
210
0
220
0
230
1
0
LINE
5
6C
100
AcDbEntity
8
4
62
256
6
ByLayer
370
-1
48
0.05
60
0
100
AcDbLine
10
60.546166
20
24.838085
30
0
11
60.588787
21
24.590466
31
0
39
0
210
0
220
0
230
1
0
LINE
5
6D
100
AcDbEntity
8
4
62
256
6
ByLayer
370
-1
48
0.05
60
0
100
AcDbLine
10
60.588787
20
24.590466
30
0
11
60.545396
21
24.836547
31
0
39
0
210
0
220
0
230
1
0
LINE
5
6E
100
AcDbEntity
8
4
62
256
6
ByLayer
370
-1
48
0.05
60
0
100
AcDbLine
10
60.545396
20
24.836547
30
0
11
60.546166
21
24.838085
31
0
39
0
210
0
220
0
230
1
0
LINE
5
6F
100
AcDbEntity
8
4
62
256
6
ByLayer
370
-1
48
0.05
60
0
100
AcDbLine
10
59.969083
20
23.856802
30
0
11
59.719889
21
23.858509
31
0
39
0
210
0
220
0
230
1
0
LINE
5
70
100
AcDbEntity
8
4
62
256
6
ByLayer
370
-1
48
0.05
60
0
100
AcDbLine
10
59.719889
20
23.858509
30
0
11
59.71912
21
23.85697
31
0
39
0
210
0
220
0
230
1
0
LINE
5
71
100
AcDbEntity
8
4
62
256
6
ByLayer
370
-1
48
0.05
60
0
100
AcDbLine
10
59.71912
20
23.85697
30
0
11
59.969083
21
23.856802
31
0
39
0
210
0
220
0
230
1
0
LINE
5
72
100
AcDbEntity
8
4
62
256
6
ByLayer
370
-1
48
0.05
60
0
100
AcDbLine
10
60.840797
20
24.888412
30
0
11
60.546166
21
24.838085
31
0
39
0
210
0
220
0
230
1
0
LINE
5
73
100
AcDbEntity
8
4
62
256
6
ByLayer
370
-1
48
0.05
60
0
100
AcDbLine
10
59.719889
20
23.858509
30
0
11
59.719102
21
23.557152
31
0
39
0
210
0
220
0
230
1
0
LINE
5
74
100
AcDbEntity
8
1
62
256
6
ByLayer
370
-1
48
1
60
0
100
AcDbLine
10
69.295288
20
5.434167
30
0
11
69.295288
21
7.00403
31
0
39
0
210
0
220
0
230
1
0
LINE
5
75
100
AcDbEntity
8
1
62
256
6
ByLayer
370
-1
48
1
60
0
100
AcDbLine
10
69.295288
20
-18.249225
30
0
11
69.295288
21
-17.799697
31
0
39
0
210
0
220
0
230
1
0
LINE
5
76
100
AcDbEntity
8
1
62
256
6
ByLayer
370
-1
48
1
60
0
100
AcDbLine
10
69.295288
20
-6.262043
30
0
11
69.295288
21
-4.666693
31
0
39
0
210
0
220
0
230
1
0
LINE
5
77
100
AcDbEntity
8
1
62
256
6
ByLayer
370
-1
48
1
60
0
100
AcDbLine
10
67.053329
20
-14.612312
30
0
11
64.836
21
-14.551713
31
0
39
0
210
0
220
0
230
1
0
LINE
5
78
100
AcDbEntity
8
1
62
256
6
ByLayer
370
-1
48
1
60
0
100
AcDbLine
10
41.720793
20
-12.297718
30
0
11
41.720793
21
-24.426403
31
0
39
0
210
0
220
0
230
1
0
LINE
5
79
100
AcDbEntity
8
1
62
256
6
ByLayer
370
-1
48
1
60
0
100
AcDbLine
10
67.07208
20
17.111418
30
0
11
67.07208
21
15.055372
31
0
39
0
210
0
220
0
230
1
0
LINE
5
7A
100
AcDbEntity
8
1
62
256
6
ByLayer
370
-1
48
1
60
0
100
AcDbLine
10
8.105662
20
8.055848
30
0
11
8.105662
21
23.666502
31
0
39
0
210
0
220
0
230
1
0
LINE
5
7B
100
AcDbEntity
8
1
62
256
6
ByLayer
370
-1
48
1
60
0
100
AcDbLine
10
68.075805
20
-3.393226
30
0
11
68.075805
21
-10.061087
31
0
39
0
210
0
220
0
230
1
0
LINE
5
7C
100
AcDbEntity
8
1
62
256
6
ByLayer
370
-1
48
1
60
0
100
AcDbLine
10
62.296708
20
-16.166254
30
0
11
63.725455
21
-5.527589
31
0
39
0
210
0
220
0
230
1
0
LINE
5
7D
100
AcDbEntity
8
1
62
256
6
ByLayer
370
-1
48
1
60
0
100
AcDbLine
10
68.223392
20
3.566888
30
0
11
68.223392
21
8.321434
31
0
39
0
210
0
220
0
230
1
0
LINE
5
7E
100
AcDbEntity
8
1
62
256
6
ByLayer
370
-1
48
1
60
0
100
AcDbLine
10
61.510191
20
-24.533916
30
0
11
61.510191
21
-16.695922
31
0
39
0
210
0
220
0
230
1
0
LINE
5
7F
100
AcDbEntity
8
1
62
256
6
ByLayer
370
-1
48
1
60
0
100
AcDbLine
10
68.223392
20
-24.681431
30
0
11
68.223392
21
-23.806508
31
0
39
0
210
0
220
0
230
1
0
LINE
5
80
100
AcDbEntity
8
1
62
256
6
ByLayer
370
-1
48
1
60
0
100
AcDbLine
10
11.461325
20
-23.83913
30
0
11
8.538675
21
-23.83913
31
0
39
0
210
0
220
0
230
1
0
LINE
5
81
100
AcDbEntity
8
1
62
256
6
ByLayer
370
-1
48
1
60
0
100
AcDbLine
10
20
20
24.5
30
0
11
20
21
-24.5
31
0
39
0
210
0
220
0
230
1
0
LINE
5
82
100
AcDbEntity
8
1
62
256
6
ByLayer
370
-1
48
1
60
0
100
AcDbLine
10
62.715564
20
13.311497
30
0
11
62.638204
21
8.886507
31
0
39
0
210
0
220
0
230
1
0
LINE
5
83
100
AcDbEntity
8
1
62
256
6
ByLayer
370
-1
48
1
60
0
100
AcDbLine
10
68.075805
20
-0.604962
30
0
11
68.075805
21
-0.989796
31
0
39
0
210
0
220
0
230
1
0
LINE
5
84
100
AcDbEntity
8
1
62
256
6
ByLayer
370
-1
48
1
60
0
100
AcDbLine
10
0.3
20
-25
30
0
11
0.3
21
25
31
0
39
0
210
0
220
0
230
1
0
LINE
5
85
100
AcDbEntity
8
1
62
256
6
ByLayer
370
-1
48
1
60
0
100
AcDbLine
10
68.941412
20
16.773055
30
0
11
68.941412
21
14.844336
31
0
39
0
210
0
220
0
230
1
0
LINE
5
86
100
AcDbEntity
8
1
62
256
6
ByLayer
370
-1
48
1
60
0
100
AcDbLine
10
11.461325
20
7.529667
30
0
11
8.538675
21
7.529667
31
0
39
0
210
0
220
0
230
1
0
LINE
5
87
100
AcDbEntity
8
1
62
256
6
ByLayer
370
-1
48
1
60
0
100
AcDbLine
10
11.894338
20
8.055848
30
0
11
11.894338
21
23.666502
31
0
39
0
210
0
220
0
230
1
0
LINE
5
88
100
AcDbEntity
8
1
62
256
6
ByLayer
370
-1
48
1
60
0
100
AcDbLine
10
43.045932
20
0.402031
30
0
11
43.045932
21
20.909738
31
0
39
0
210
0
220
0
230
1
0
LINE
5
89
100
AcDbEntity
8
1
62
256
6
ByLayer
370
-1
48
1
60
0
100
AcDbLine
10
67.07208
20
12.846369
30
0
11
67.07208
21
3.540892
31
0
39
0
210
0
220
0
230
1
0
LINE
5
8A
100
AcDbEntity
8
1
62
256
6
ByLayer
370
-1
48
1
60
0
100
AcDbLine
10
8.105662
20
-23.666502
30
0
11
8.105662
21
-8.055848
31
0
39
0
210
0
220
0
230
1
0
LINE
5
8B
100
AcDbEntity
8
1
62
256
6
ByLayer
370
-1
48
1
60
0
100
AcDbLine
10
67.151299
20
-22.568608
30
0
11
67.06921
21
-22.004438
31
0
39
0
210
0
220
0
230
1
0
LINE
5
8C
100
AcDbEntity
8
1
62
256
6
ByLayer
370
-1
48
1
60
0
100
AcDbLine
10
64.76628
20
-18.539709
30
0
11
64.836
21
-14.551713
31
0
39
0
210
0
220
0
230
1
0
LINE
5
8D
100
AcDbEntity
8
1
62
256
6
ByLayer
370
-1
48
1
60
0
100
AcDbLine
10
69.279329
20
-18.0219
30
0
11
69.279329
21
-18.445536
31
0
39
0
210
0
220
0
230
1
0
LINE
5
8E
100
AcDbEntity
8
1
62
256
6
ByLayer
370
-1
48
1
60
0
100
AcDbLine
10
8.538675
20
23.83913
30
0
11
11.461325
21
23.83913
31
0
39
0
210
0
220
0
230
1
0
LINE
5
8F
100
AcDbEntity
8
1
62
256
6
ByLayer
370
-1
48
1
60
0
100
AcDbLine
10
11.461325
20
7.529667
30
0
11
11.461325
21
23.83913
31
0
39
0
210
0
220
0
230
1
0
LINE
5
90
100
AcDbEntity
8
1
62
256
6
ByLayer
370
-1
48
1
60
0
100
AcDbLine
10
67.06921
20
-22.004438
30
0
11
66.62785
21
-24.491615
31
0
39
0
210
0
220
0
230
1
0
LINE
5
91
100
AcDbEntity
8
1
62
256
6
ByLayer
370
-1
48
1
60
0
100
AcDbLine
10
8.538675
20
7.529667
30
0
11
8.538675
21
23.83913
31
0
39
0
210
0
220
0
230
1
0
LINE
5
92
100
AcDbEntity
8
1
62
256
6
ByLayer
370
-1
48
1
60
0
100
AcDbLine
10
19.5
20
25
30
0
11
19.5
21
-25
31
0
39
0
210
0
220
0
230
1
0
LINE
5
93
100
AcDbEntity
8
1
62
256
6
ByLayer
370
-1
48
1
60
0
100
AcDbLine
10
68.075805
20
16.330155
30
0
11
68.075805
21
14.299687
31
0
39
0
210
0
220
0
230
1
0
LINE
5
94
100
AcDbEntity
8
1
62
256
6
ByLayer
370
-1
48
1
60
0
100
AcDbLine
10
59.741206
20
22.964192
30
0
11
59.477943
21
24.476793
31
0
39
0
210
0
220
0
230
1
0
LINE
5
95
100
AcDbEntity
8
1
62
256
6
ByLayer
370
-1
48
1
60
0
100
AcDbLine
10
43.045932
20
-24.485051
30
0
11
43.045932
21
-13.182035
31
0
39
0
210
0
220
0
230
1
0
LINE
5
96
100
AcDbEntity
8
1
62
256
6
ByLayer
370
-1
48
1
60
0
100
AcDbLine
10
11.461325
20
-23.83913
30
0
11
11.461325
21
-7.529667
31
0
39
0
210
0
220
0
230
1
0
LINE
5
97
100
AcDbEntity
8
1
62
256
6
ByLayer
370
-1
48
1
60
0
100
AcDbLine
10
69.279329
20
6.90909
30
0
11
69.279329
21
5.392511
31
0
39
0
210
0
220
0
230
1
0
LINE
5
98
100
AcDbEntity
8
1
62
256
6
ByLayer
370
-1
48
1
60
0
100
AcDbLine
10
62.209124
20
8.75723
30
0
11
62.638204
21
8.886507
31
0
39
0
210
0
220
0
230
1
0
LINE
5
99
100
AcDbEntity
8
1
62
256
6
ByLayer
370
-1
48
1
60
0
100
AcDbLine
10
63.725455
20
-5.527589
30
0
11
67.525284
21
-5.631437
31
0
39
0
210
0
220
0
230
1
0
LINE
5
9A
100
AcDbEntity
8
1
62
256
6
ByLayer
370
-1
48
1
60
0
100
AcDbLine
10
41.720793
20
21.361916
30
0
11
41.720793
21
0.428523
31
0
39
0
210
0
220
0
230
1
0
LINE
5
9B
100
AcDbEntity
8
1
62
256
6
ByLayer
370
-1
48
1
60
0
100
AcDbLine
10
59.85403
20
24.314738
30
0
11
59.845358
21
24.363829
31
0
39
0
210
0
220
0
230
1
0
LINE
5
9C
100
AcDbEntity
8
1
62
256
6
ByLayer
370
-1
48
1
60
0
100
AcDbLine
10
67.901037
20
15.752914
30
0
11
67.73398
21
15.723583
31
0
39
0
210
0
220
0
230
1
0
LINE
5
9D
100
AcDbEntity
8
1
62
256
6
ByLayer
370
-1
48
1
60
0
100
AcDbLine
10
67.07208
20
-20.056377
30
0
11
67.07208
21
-21.588657
31
0
39
0
210
0
220
0
230
1
0
LINE
5
9E
100
AcDbEntity
8
1
62
256
6
ByLayer
370
-1
48
1
60
0
100
AcDbLine
10
67.158117
20
17.974113
30
0
11
64.836
21
17.566406
31
0
39
0
210
0
220
0
230
1
0
LINE
5
9F
100
AcDbEntity
8
1
62
256
6
ByLayer
370
-1
48
1
60
0
100
AcDbLine
10
68.41837
20
-12.268355
30
0
11
68.41837
21
-4.110485
31
0
39
0
210
0
220
0
230
1
0
LINE
5
A0
100
AcDbEntity
8
1
62
256
6
ByLayer
370
-1
48
1
60
0
100
AcDbLine
10
64.76628
20
17.427007
30
0
11
64.836
21
17.566406
31
0
39
0
210
0
220
0
230
1
0
LINE
5
A1
100
AcDbEntity
8
1
62
256
6
ByLayer
370
-1
48
1
60
0
100
AcDbLine
10
8.538675
20
-23.83913
30
0
11
8.538675
21
-7.529667
31
0
39
0
210
0
220
0
230
1
0
LINE
5
A2
100
AcDbEntity
8
1
62
256
6
ByLayer
370
-1
48
1
60
0
100
AcDbLine
10
68.941412
20
-4.545803
30
0
11
68.941412
21
-9.175967
31
0
39
0
210
0
220
0
230
1
0
LINE
5
A3
100
AcDbEntity
8
1
62
256
6
ByLayer
370
-1
48
1
60
0
100
AcDbLine
10
59.778211
20
0.206306
30
0
11
59.477943
21
0.114585
31
0
39
0
210
0
220
0
230
1
0
LINE
5
A4
100
AcDbEntity
8
1
62
256
6
ByLayer
370
-1
48
1
60
0
100
AcDbLine
10
20.544171
20
-22.548262
30
0
11
20.544171
21
22.548262
31
0
39
0
210
0
220
0
230
1
0
LINE
5
A5
100
AcDbEntity
8
1
62
256
6
ByLayer
370
-1
48
1
60
0
100
AcDbLine
10
0
20
-24.7
30
0
11
0
21
24.7
31
0
39
0
210
0
220
0
230
1
0
LINE
5
A6
100
AcDbEntity
8
1
62
256
6
ByLayer
370
-1
48
1
60
0
100
AcDbLine
10
67.07208
20
-22.885197
30
0
11
67.07208
21
-25.497944
31
0
39
0
210
0
220
0
230
1
0
LINE
5
A7
100
AcDbEntity
8
1
62
256
6
ByLayer
370
-1
48
1
60
0
100
AcDbLine
10
59.837477
20
-16.675063
30
0
11
59.837477
21
-24.483087
31
0
39
0
210
0
220
0
230
1
0
LINE
5
A8
100
AcDbEntity
8
1
62
256
6
ByLayer
370
-1
48
1
60
0
100
AcDbLine
10
11.894338
20
-23.666502
30
0
11
11.894338
21
-8.055848
31
0
39
0
210
0
220
0
230
1
0
LINE
5
A9
100
AcDbEntity
8
1
62
256
6
ByLayer
370
-1
48
1
60
0
100
AcDbLine
10
60.098018
20
2.009372
30
0
11
59.845358
21
1.914166
31
0
39
0
210
0
220
0
230
1
0
LINE
5
AA
100
AcDbEntity
8
1
62
256
6
ByLayer
370
-1
48
1
60
0
100
AcDbLine
10
61.510191
20
3.693024
30
0
11
61.510191
21
18.453399
31
0
39
0
210
0
220
0
230
1
0
LINE
5
AB
100
AcDbEntity
8
1
62
256
6
ByLayer
370
-1
48
1
60
0
100
AcDbLine
10
59.837477
20
18.280277
30
0
11
59.837477
21
1.876648
31
0
39
0
210
0
220
0
230
1
0
LINE
5
AC
100
AcDbEntity
8
1
62
256
6
ByLayer
370
-1
48
1
60
0
100
AcDbLine
10
68.41837
20
12.802005
30
0
11
68.41837
21
16.679739
31
0
39
0
210
0
220
0
230
1
0
LINE
5
AD
100
AcDbEntity
8
1
62
256
6
ByLayer
370
-1
48
1
60
0
100
AcDbLine
10
8.538675
20
-7.529667
30
0
11
11.461325
21
-7.529667
31
0
39
0
210
0
220
0
230
1
0
LINE
5
AE
100
AcDbEntity
8
SK1
62
256
6
ByLayer
370
-1
48
1
60
0
100
AcDbLine
10
-0.2
20
17.833485
30
0
11
-0.2
21
5.881425
31
0
39
0
210
0
220
0
230
1
0
LINE
5
B0
100
AcDbEntity
8
SK1
62
256
6
ByLayer
370
-1
48
1
60
0
100
AcDbLine
10
-30
20
-15.939791
30
0
11
-30
21
15.941288
31
0
39
0
210
0
220
0
230
1
0
LINE
5
B1
100
AcDbEntity
8
SK1
62
256
6
ByLayer
370
-1
48
1
60
0
100
AcDbLine
10
-0.4
20
17.32515
30
0
11
-0.4
21
5.168667
31
0
39
0
210
0
220
0
230
1
0
LINE
5
B2
100
AcDbEntity
8
SK1
62
256
6
ByLayer
370
-1
48
1
60
0
100
AcDbLine
10
-1.307107
20
3.804744
30
0
11
-1.307107
21
-3.804747
31
0
39
0
210
0
220
0
230
1
0
LINE
5
B3
100
AcDbEntity
8
SK1
62
256
6
ByLayer
370
-1
48
1
60
0
100
AcDbLine
10
-0.2
20
-5.881424
30
0
11
-0.2
21
-17.833485
31
0
39
0
210
0
220
0
230
1
0
LINE
5
B4
100
AcDbEntity
8
1
62
256
6
ByLayer
370
-1
48
1
60
0
100
AcDbLine
10
69.128814
20
17.058077
30
0
11
68.876917
21
16.760263
31
0
39
0
210
0
220
0
230
1
0
LINE
5
B5
100
AcDbEntity
8
1
62
256
6
ByLayer
370
-1
48
1
60
0
100
AcDbLine
10
69.172148
20
16.818851
30
0
11
69.128814
21
17.058077
31
0
39
0
210
0
220
0
230
1
0
LINE
5
B6
100
AcDbEntity
8
1
62
256
6
ByLayer
370
-1
48
1
60
0
100
AcDbLine
10
68.865805
20
25.133973
30
0
11
68.92234
21
24.838086
31
0
39
0
210
0
220
0
230
1
0
LINE
5
B7
100
AcDbEntity
8
1
62
256
6
ByLayer
370
-1
48
1
60
0
100
AcDbLine
10
68.624237
20
25.09005
30
0
11
68.92234
21
24.838086
31
0
39
0
210
0
220
0
230
1
0
LINE
5
B8
100
AcDbEntity
8
1
62
256
6
ByLayer
370
-1
48
1
60
0
100
AcDbLine
10
69.172151
20
16.818852
30
0
11
68.876917
21
16.760263
31
0
39
0
210
0
220
0
230
1
0
LINE
5
B9
100
AcDbEntity
8
1
62
256
6
ByLayer
370
-1
48
1
60
0
100
AcDbLine
10
68.865806
20
25.133971
30
0
11
68.624237
21
25.09005
31
0
39
0
210
0
220
0
230
1
0
LINE
5
BA
100
AcDbEntity
8
1
62
256
6
ByLayer
370
-1
48
1
60
0
100
AcDbLine
10
67.589788
20
25.96008
30
0
11
67.896209
21
25.704628
31
0
39
0
210
0
220
0
230
1
0
LINE
5
BB
100
AcDbEntity
8
1
62
256
6
ByLayer
370
-1
48
1
60
0
100
AcDbLine
10
67.896209
20
25.704628
30
0
11
67.896209
21
25.709976
31
0
39
0
210
0
220
0
230
1
0
LINE
5
BC
100
AcDbEntity
8
1
62
256
6
ByLayer
370
-1
48
1
60
0
100
AcDbLine
10
69.994045
20
17.793081
30
0
11
69.994044
21
17.793215
31
0
39
0
210
0
220
0
230
1
0
LINE
5
BD
100
AcDbEntity
8
1
62
256
6
ByLayer
370
-1
48
1
60
0
100
AcDbLine
10
69.998704
20
18.054579
30
0
11
69.998611
21
18.091523
31
0
39
0
210
0
220
0
230
1
0
LINE
5
BE
100
AcDbEntity
8
1
62
256
6
ByLayer
370
-1
48
1
60
0
100
AcDbLine
10
67.627035
20
25.960246
30
0
11
67.589788
21
25.96008
31
0
39
0
210
0
220
0
230
1
0
LINE
5
BF
100
AcDbEntity
8
1
62
256
6
ByLayer
370
-1
48
1
60
0
100
AcDbLine
10
67.890631
20
25.956087
30
0
11
67.890496
21
25.956086
31
0
39
0
210
0
220
0
230
1
0
LINE
5
C0
100
AcDbEntity
8
1
62
256
6
ByLayer
370
-1
48
1
60
0
100
AcDbLine
10
69.998611
20
18.091523
30
0
11
69.743229
21
17.785398
31
0
39
0
210
0
220
0
230
1
0
LINE
5
C1
100
AcDbEntity
8
1
62
256
6
ByLayer
370
-1
48
1
60
0
100
AcDbLine
10
69.743229
20
17.785398
30
0
11
69.994044
21
17.793081
31
0
39
0
210
0
220
0
230
1
0
LINE
5
C2
100
AcDbEntity
8
1
62
256
6
ByLayer
370
-1
48
1
60
0
100
AcDbLine
10
67.896209
20
25.704628
30
0
11
67.890631
21
25.956086
31
0
39
0
210
0
220
0
230
1
0
LINE
5
C3
100
AcDbEntity
8
1
62
256
6
ByLayer
370
-1
48
1
60
0
100
AcDbLine
10
69.743229
20
17.785398
30
0
11
69.748579
21
17.785394
31
0
39
0
210
0
220
0
230
1
0
LINE
5
C4
100
AcDbEntity
8
1
62
256
6
ByLayer
370
-1
48
1
60
0
100
AcDbLine
10
60.547072
20
24.832836
30
0
11
60.588899
21
24.590598
31
0
39
0
210
0
220
0
230
1
0
LINE
5
C5
100
AcDbEntity
8
1
62
256
6
ByLayer
370
-1
48
1
60
0
100
AcDbLine
10
60.547069
20
24.832836
30
0
11
60.840797
21
24.888412
31
0
39
0
210
0
220
0
230
1
0
LINE
5
C6
100
AcDbEntity
8
1
62
256
6
ByLayer
370
-1
48
1
60
0
100
AcDbLine
10
60.588899
20
24.590598
30
0
11
60.840797
21
24.888412
31
0
39
0
210
0
220
0
230
1
0
LINE
5
C7
100
AcDbEntity
8
1
62
256
6
ByLayer
370
-1
48
1
60
0
100
AcDbLine
10
69.128795
20
17.058185
30
0
11
69.172148
21
16.818851
31
0
39
0
210
0
220
0
230
1
0
LINE
5
C8
100
AcDbEntity
8
1
62
256
6
ByLayer
370
-1
48
1
60
0
100
AcDbLine
10
69.128795
20
17.058185
30
0
11
69.128814
21
17.058077
31
0
39
0
210
0
220
0
230
1
0
LINE
5
C9
100
AcDbEntity
8
1
62
256
6
ByLayer
370
-1
48
1
60
0
100
AcDbLine
10
69.998704
20
0.874695
30
0
11
69.998611
21
0.883801
31
0
39
0
210
0
220
0
230
1
0
LINE
5
CA
100
AcDbEntity
8
1
62
256
6
ByLayer
370
-1
48
1
60
0
100
AcDbLine
10
69.887354
20
-0.180111
30
0
11
69.686463
21
-1.442205
31
0
39
0
210
0
220
0
230
1
0
LINE
5
CB
100
AcDbEntity
8
1
62
256
6
ByLayer
370
-1
48
1
60
0
100
AcDbLine
10
69.994045
20
0.811089
30
0
11
69.994044
21
0.811122
31
0
39
0
210
0
220
0
230
1
0
LINE
5
CC
100
AcDbEntity
8
1
62
256
6
ByLayer
370
-1
48
1
60
0
100
AcDbLine
10
69.313931
20
-3.000751
30
0
11
69.573144
21
-1.945414
31
0
39
0
210
0
220
0
230
1
0
LINE
5
CD
100
AcDbEntity
8
1
62
256
6
ByLayer
370
-1
48
1
60
0
100
AcDbLine
10
69.54222
20
-2.023307
30
0
11
69.266074
21
-3.132171
31
0
39
0
210
0
220
0
230
1
0
LINE
5
CE
100
AcDbEntity
8
1
62
256
6
ByLayer
370
-1
48
1
60
0
100
AcDbLine
10
69.994048
20
0.811127
30
0
11
69.948622
21
0.381065
31
0
39
0
210
0
220
0
230
1
0
LINE
5
CF
100
AcDbEntity
8
1
62
256
6
ByLayer
370
-1
48
1
60
0
100
AcDbLine
10
69.998611
20
0.883801
30
0
11
69.897149
21
0.870009
31
0
39
0
210
0
220
0
230
1
0
LINE
5
D0
100
AcDbEntity
8
1
62
256
6
ByLayer
370
-1
48
1
60
0
100
AcDbLine
10
68.857759
20
-3.184889
30
0
11
69.144347
21
-2.034096
31
0
39
0
210
0
220
0
230
1
0
LINE
5
D1
100
AcDbEntity
8
1
62
256
6
ByLayer
370
-1
48
1
60
0
100
AcDbLine
10
69.313931
20
-3.000751
30
0
11
69.266074
21
-3.132171
31
0
39
0
210
0
220
0
230
1
0
LINE
5
D2
100
AcDbEntity
8
1
62
256
6
ByLayer
370
-1
48
1
60
0
100
AcDbLine
10
69.96795
20
0.963996
30
0
11
69.876312
21
1.013776
31
0
39
0
210
0
220
0
230
1
0
LINE
5
D3
100
AcDbEntity
8
1
62
256
6
ByLayer
370
-1
48
1
60
0
100
AcDbLine
10
69.16635
20
-0.397347
30
0
11
69.144347
21
-2.034096
31
0
39
0
210
0
220
0
230
1
0
LINE
5
D4
100
AcDbEntity
8
1
62
256
6
ByLayer
370
-1
48
1
60
0
100
AcDbLine
10
68.054453
20
-3.212834
30
0
11
68.857759
21
-3.184889
31
0
39
0
210
0
220
0
230
1
0
LINE
5
D5
100
AcDbEntity
8
1
62
256
6
ByLayer
370
-1
48
1
60
0
100
AcDbLine
10
69.543819
20
-20.771337
30
0
11
69.22494
21
-22.568303
31
0
39
0
210
0
220
0
230
1
0
LINE
5
D6
100
AcDbEntity
8
1
62
256
6
ByLayer
370
-1
48
1
60
0
100
AcDbLine
10
63.13076
20
-25.203791
30
0
11
60.584159
21
-24.76342
31
0
39
0
210
0
220
0
230
1
0
LINE
5
D7
100
AcDbEntity
8
1
62
256
6
ByLayer
370
-1
48
1
60
0
100
AcDbLine
10
66.442097
20
-25.59393
30
0
11
65.703045
21
-25.466129
31
0
39
0
210
0
220
0
230
1
0
LINE
5
D8
100
AcDbEntity
8
1
62
256
6
ByLayer
370
-1
48
1
60
0
100
AcDbLine
10
66.772819
20
-25.840445
30
0
11
60.840797
21
-24.814649
31
0
39
0
210
0
220
0
230
1
0
LINE
5
D9
100
AcDbEntity
8
1
62
256
6
ByLayer
370
-1
48
1
60
0
100
AcDbLine
10
69.574663
20
-19.126278
30
0
11
69.305447
21
-19.739369
31
0
39
0
210
0
220
0
230
1
0
LINE
5
DA
100
AcDbEntity
8
1
62
256
6
ByLayer
370
-1
48
1
60
0
100
AcDbLine
10
65.693868
20
-25.476158
30
0
11
65.669906
21
-25.482794
31
0
39
0
210
0
220
0
230
1
0
LINE
5
DB
100
AcDbEntity
8
1
62
256
6
ByLayer
370
-1
48
1
60
0
100
AcDbLine
10
65.706082
20
-25.449017
30
0
11
65.703045
21
-25.466129
31
0
39
0
210
0
220
0
230
1
0
LINE
5
DC
100
AcDbEntity
8
1
62
256
6
ByLayer
370
-1
48
1
60
0
100
AcDbLine
10
62.739864
20
-24.965336
30
0
11
62.749041
21
-24.955308
31
0
39
0
210
0
220
0
230
1
0
LINE
5
DD
100
AcDbEntity
8
1
62
256
6
ByLayer
370
-1
48
1
60
0
100
AcDbLine
10
66.562818
20
-25.602101
30
0
11
67.884379
21
-25.551815
31
0
39
0
210
0
220
0
230
1
0
LINE
5
DE
100
AcDbEntity
8
1
62
256
6
ByLayer
370
-1
48
1
60
0
100
AcDbLine
10
69.139238
20
-20.483065
30
0
11
69.172557
21
-20.473015
31
0
39
0
210
0
220
0
230
1
0
LINE
5
DF
100
AcDbEntity
8
1
62
256
6
ByLayer
370
-1
48
1
60
0
100
AcDbLine
10
69.179716
20
-20.470856
30
0
11
69.229957
21
-20.455701
31
0
39
0
210
0
220
0
230
1
0
LINE
5
E0
100
AcDbEntity
8
1
62
256
6
ByLayer
370
-1
48
1
60
0
100
AcDbLine
10
69.543819
20
-20.771337
30
0
11
68.882812
21
-20.970723
31
0
39
0
210
0
220
0
230
1
0
LINE
5
E1
100
AcDbEntity
8
1
62
256
6
ByLayer
370
-1
48
1
60
0
100
AcDbLine
10
69.96795
20
-18.860354
30
0
11
68.92234
21
-24.752624
31
0
39
0
210
0
220
0
230
1
0
LINE
5
E2
100
AcDbEntity
8
1
62
256
6
ByLayer
370
-1
48
1
60
0
100
AcDbLine
10
64.986032
20
-25.524683
30
0
11
63.176943
21
-25.211846
31
0
39
0
210
0
220
0
230
1
0
LINE
5
E3
100
AcDbEntity
8
1
62
256
6
ByLayer
370
-1
48
1
60
0
100
AcDbLine
10
69.96795
20
-18.860354
30
0
11
69.8645
21
-18.959393
31
0
39
0
210
0
220
0
230
1
0
LINE
5
E4
100
AcDbEntity
8
1
62
256
6
ByLayer
370
-1
48
1
60
0
100
AcDbLine
10
63.339343
20
-24.850962
30
0
11
63.176943
21
-25.211846
31
0
39
0
210
0
220
0
230
1
0
LINE
5
E5
100
AcDbEntity
8
1
62
256
6
ByLayer
370
-1
48
1
60
0
100
AcDbLine
10
62.752077
20
-24.938196
30
0
11
62.770341
21
-24.924984
31
0
39
0
210
0
220
0
230
1
0
LINE
5
E6
100
AcDbEntity
8
1
62
256
6
ByLayer
370
-1
48
1
60
0
100
AcDbLine
10
69.15795
20
-20.470489
30
0
11
69.175178
21
-20.473468
31
0
39
0
210
0
220
0
230
1
0
LINE
5
E7
100
AcDbEntity
8
1
62
256
6
ByLayer
370
-1
48
1
60
0
100
AcDbLine
10
62.749041
20
-24.955308
30
0
11
60.999573
21
-24.652781
31
0
39
0
210
0
220
0
230
1
0
LINE
5
E8
100
AcDbEntity
8
1
62
256
6
ByLayer
370
-1
48
1
60
0
100
AcDbLine
10
60.547069
20
-24.76356
30
0
11
60.584159
21
-24.76342
31
0
39
0
210
0
220
0
230
1
0
LINE
5
E9
100
AcDbEntity
8
1
62
256
6
ByLayer
370
-1
48
1
60
0
100
AcDbLine
10
67.890474
20
-25.868448
30
0
11
67.906687
21
-25.866582
31
0
39
0
210
0
220
0
230
1
0
LINE
5
EA
100
AcDbEntity
8
1
62
256
6
ByLayer
370
-1
48
1
60
0
100
AcDbLine
10
69.305447
20
-19.739369
30
0
11
69.175178
21
-20.473468
31
0
39
0
210
0
220
0
230
1
0
LINE
5
EB
100
AcDbEntity
8
1
62
256
6
ByLayer
370
-1
48
1
60
0
100
AcDbLine
10
68.714713
20
-23.359227
30
0
11
68.684312
21
-23.390505
31
0
39
0
210
0
220
0
230
1
0
LINE
5
EC
100
AcDbEntity
8
1
62
256
6
ByLayer
370
-1
48
1
60
0
100
AcDbLine
10
60.584159
20
-24.76342
30
0
11
60.672264
21
-24.667142
31
0
39
0
210
0
220
0
230
1
0
LINE
5
ED
100
AcDbEntity
8
1
62
256
6
ByLayer
370
-1
48
1
60
0
100
AcDbLine
10
67.906687
20
-25.866582
30
0
11
67.928459
21
-25.794835
31
0
39
0
210
0
220
0
230
1
0
LINE
5
EE
100
AcDbEntity
8
1
62
256
6
ByLayer
370
-1
48
1
60
0
100
AcDbLine
10
69.994045
20
-17.756322
30
0
11
69.994044
21
-17.756453
31
0
39
0
210
0
220
0
230
1
0
LINE
5
EF
100
AcDbEntity
8
1
62
256
6
ByLayer
370
-1
48
1
60
0
100
AcDbLine
10
69.313931
20
-19.619483
30
0
11
69.272649
21
-18.48764
31
0
39
0
210
0
220
0
230
1
0
LINE
5
F0
100
AcDbEntity
8
1
62
256
6
ByLayer
370
-1
48
1
60
0
100
AcDbLine
10
69.892973
20
-18.645014
30
0
11
69.637169
21
-18.837377
31
0
39
0
210
0
220
0
230
1
0
LINE
5
F1
100
AcDbEntity
8
1
62
256
6
ByLayer
370
-1
48
1
60
0
100
AcDbLine
10
68.637262
20
-23.404698
30
0
11
68.623994
21
-23.386591
31
0
39
0
210
0
220
0
230
1
0
LINE
5
F2
100
AcDbEntity
8
1
62
256
6
ByLayer
370
-1
48
1
60
0
100
AcDbLine
10
69.998285
20
-18.525413
30
0
11
69.892973
21
-18.645014
31
0
39
0
210
0
220
0
230
1
0
LINE
5
F3
100
AcDbEntity
8
1
62
256
6
ByLayer
370
-1
48
1
60
0
100
AcDbLine
10
66.772819
20
-25.840445
30
0
11
66.811583
21
-25.840298
31
0
39
0
210
0
220
0
230
1
0
LINE
5
F4
100
AcDbEntity
8
1
62
256
6
ByLayer
370
-1
48
1
60
0
100
AcDbLine
10
69.8645
20
-18.959393
30
0
11
69.550996
21
-20.726067
31
0
39
0
210
0
220
0
230
1
0
LINE
5
F5
100
AcDbEntity
8
1
62
256
6
ByLayer
370
-1
48
1
60
0
100
AcDbLine
10
69.175178
20
-20.473468
30
0
11
69.205
21
-20.456297
31
0
39
0
210
0
220
0
230
1
0
LINE
5
F6
100
AcDbEntity
8
1
62
256
6
ByLayer
370
-1
48
1
60
0
100
AcDbLine
10
69.8645
20
-18.959393
30
0
11
69.574663
21
-19.126278
31
0
39
0
210
0
220
0
230
1
0
LINE
5
F7
100
AcDbEntity
8
1
62
256
6
ByLayer
370
-1
48
1
60
0
100
AcDbLine
10
67.128139
20
-25.867906
30
0
11
67.157645
21
-25.779161
31
0
39
0
210
0
220
0
230
1
0
LINE
5
F8
100
AcDbEntity
8
1
62
256
6
ByLayer
370
-1
48
1
60
0
100
AcDbLine
10
65.693455
20
-25.430464
30
0
11
65.706082
21
-25.449017
31
0
39
0
210
0
220
0
230
1
0
LINE
5
F9
100
AcDbEntity
8
1
62
256
6
ByLayer
370
-1
48
1
60
0
100
AcDbLine
10
68.865805
20
-25.05032
30
0
11
68.766821
21
-25.145084
31
0
39
0
210
0
220
0
230
1
0
LINE
5
FA
100
AcDbEntity
8
1
62
256
6
ByLayer
370
-1
48
1
60
0
100
AcDbLine
10
68.766821
20
-25.145084
30
0
11
68.480503
21
-25.309942
31
0
39
0
210
0
220
0
230
1
0
LINE
5
FB
100
AcDbEntity
8
1
62
256
6
ByLayer
370
-1
48
1
60
0
100
AcDbLine
10
69.893281
20
-17.871971
30
0
11
69.686463
21
-18.029565
31
0
39
0
210
0
220
0
230
1
0
LINE
5
FC
100
AcDbEntity
8
1
62
256
6
ByLayer
370
-1
48
1
60
0
100
AcDbLine
10
66.811583
20
-25.840298
30
0
11
65.032989
21
-25.532735
31
0
39
0
210
0
220
0
230
1
0
LINE
5
FD
100
AcDbEntity
8
1
62
256
6
ByLayer
370
-1
48
1
60
0
100
AcDbLine
10
68.684312
20
-23.390505
30
0
11
68.637262
21
-23.404698
31
0
39
0
210
0
220
0
230
1
0
LINE
5
FE
100
AcDbEntity
8
1
62
256
6
ByLayer
370
-1
48
1
60
0
100
AcDbLine
10
69.139238
20
-20.483065
30
0
11
69.15795
21
-20.470489
31
0
39
0
210
0
220
0
230
1
0
LINE
5
FF
100
AcDbEntity
8
1
62
256
6
ByLayer
370
-1
48
1
60
0
100
AcDbLine
10
65.706082
20
-25.449017
30
0
11
65.693868
21
-25.476158
31
0
39
0
210
0
220
0
230
1
0
LINE
5
100
100
AcDbEntity
8
1
62
256
6
ByLayer
370
-1
48
1
60
0
100
AcDbLine
10
69.215699
20
-22.615549
30
0
11
68.766821
21
-25.145084
31
0
39
0
210
0
220
0
230
1
0
LINE
5
101
100
AcDbEntity
8
1
62
256
6
ByLayer
370
-1
48
1
60
0
100
AcDbLine
10
69.313931
20
-19.619483
30
0
11
69.573144
21
-19.02917
31
0
39
0
210
0
220
0
230
1
0
LINE
5
102
100
AcDbEntity
8
1
62
256
6
ByLayer
370
-1
48
1
60
0
100
AcDbLine
10
68.865805
20
-25.05032
30
0
11
68.92234
21
-24.752624
31
0
39
0
210
0
220
0
230
1
0
LINE
5
103
100
AcDbEntity
8
1
62
256
6
ByLayer
370
-1
48
1
60
0
100
AcDbLine
10
68.654489
20
-23.407677
30
0
11
68.637262
21
-23.404698
31
0
39
0
210
0
220
0
230
1
0
LINE
5
104
100
AcDbEntity
8
1
62
256
6
ByLayer
370
-1
48
1
60
0
100
AcDbLine
10
68.714713
20
-23.359227
30
0
11
68.623994
21
-23.386591
31
0
39
0
210
0
220
0
230
1
0
LINE
5
105
100
AcDbEntity
8
1
62
256
6
ByLayer
370
-1
48
1
60
0
100
AcDbLine
10
62.749041
20
-24.955308
30
0
11
62.752077
21
-24.938196
31
0
39
0
210
0
220
0
230
1
0
LINE
5
106
100
AcDbEntity
8
1
62
256
6
ByLayer
370
-1
48
1
60
0
100
AcDbLine
10
60.547069
20
-24.76356
30
0
11
60.840797
21
-24.814649
31
0
39
0
210
0
220
0
230
1
0
LINE
5
107
100
AcDbEntity
8
1
62
256
6
ByLayer
370
-1
48
1
60
0
100
AcDbLine
10
68.013866
20
-25.710343
30
0
11
67.884379
21
-25.551815
31
0
39
0
210
0
220
0
230
1
0
LINE
5
108
100
AcDbEntity
8
1
62
256
6
ByLayer
370
-1
48
1
60
0
100
AcDbLine
10
67.890631
20
-25.868447
30
0
11
67.890496
21
-25.868445
31
0
39
0
210
0
220
0
230
1
0
LINE
5
109
100
AcDbEntity
8
1
62
256
6
ByLayer
370
-1
48
1
60
0
100
AcDbLine
10
68.684312
20
-23.390505
30
0
11
68.654489
21
-23.407677
31
0
39
0
210
0
220
0
230
1
0
LINE
5
10A
100
AcDbEntity
8
1
62
256
6
ByLayer
370
-1
48
1
60
0
100
AcDbLine
10
62.746792
20
-24.977315
30
0
11
62.770341
21
-24.924984
31
0
39
0
210
0
220
0
230
1
0
LINE
5
10B
100
AcDbEntity
8
1
62
256
6
ByLayer
370
-1
48
1
60
0
100
AcDbLine
10
65.703045
20
-25.466129
30
0
11
65.693868
21
-25.476158
31
0
39
0
210
0
220
0
230
1
0
LINE
5
10C
100
AcDbEntity
8
1
62
256
6
ByLayer
370
-1
48
1
60
0
100
AcDbLine
10
68.654489
20
-23.407677
30
0
11
68.346119
21
-25.14542
31
0
39
0
210
0
220
0
230
1
0
LINE
5
10D
100
AcDbEntity
8
1
62
256
6
ByLayer
370
-1
48
1
60
0
100
AcDbLine
10
69.205
20
-20.456297
30
0
11
69.229957
21
-20.455701
31
0
39
0
210
0
220
0
230
1
0
LINE
5
10E
100
AcDbEntity
8
1
62
256
6
ByLayer
370
-1
48
1
60
0
100
AcDbLine
10
62.746792
20
-24.977315
30
0
11
62.739864
21
-24.965336
31
0
39
0
210
0
220
0
230
1
0
LINE
5
10F
100
AcDbEntity
8
1
62
256
6
ByLayer
370
-1
48
1
60
0
100
AcDbLine
10
66.811583
20
-25.840298
30
0
11
66.90077
21
-25.742836
31
0
39
0
210
0
220
0
230
1
0
LINE
5
110
100
AcDbEntity
8
1
62
256
6
ByLayer
370
-1
48
1
60
0
100
AcDbLine
10
69.172151
20
-16.78976
30
0
11
69.168459
21
-17.019436
31
0
39
0
210
0
220
0
230
1
0
LINE
5
111
100
AcDbEntity
8
1
62
256
6
ByLayer
370
-1
48
1
60
0
100
AcDbLine
10
67.110082
20
-25.869859
30
0
11
67.128139
21
-25.867906
31
0
39
0
210
0
220
0
230
1
0
LINE
5
112
100
AcDbEntity
8
1
62
256
6
ByLayer
370
-1
48
1
60
0
100
AcDbLine
10
69.54222
20
-18.023862
30
0
11
69.287419
21
-18.285453
31
0
39
0
210
0
220
0
230
1
0
LINE
5
113
100
AcDbEntity
8
1
62
256
6
ByLayer
370
-1
48
1
60
0
100
AcDbLine
10
66.562818
20
-25.602101
30
0
11
67.004451
21
-25.745475
31
0
39
0
210
0
220
0
230
1
0
LINE
5
114
100
AcDbEntity
8
1
62
256
6
ByLayer
370
-1
48
1
60
0
100
AcDbLine
10
66.90077
20
-25.742836
30
0
11
66.442097
21
-25.59393
31
0
39
0
210
0
220
0
230
1
0
LINE
5
115
100
AcDbEntity
8
1
62
256
6
ByLayer
370
-1
48
1
60
0
100
AcDbLine
10
64.986032
20
-25.524683
30
0
11
65.148129
21
-25.164474
31
0
39
0
210
0
220
0
230
1
0
LINE
5
116
100
AcDbEntity
8
1
62
256
6
ByLayer
370
-1
48
1
60
0
100
AcDbLine
10
60.999573
20
-24.652781
30
0
11
60.672264
21
-24.667142
31
0
39
0
210
0
220
0
230
1
0
LINE
5
117
100
AcDbEntity
8
1
62
256
6
ByLayer
370
-1
48
1
60
0
100
AcDbLine
10
68.346119
20
-25.14542
30
0
11
68.480503
21
-25.309942
31
0
39
0
210
0
220
0
230
1
0
LINE
5
118
100
AcDbEntity
8
1
62
256
6
ByLayer
370
-1
48
1
60
0
100
AcDbLine
10
68.563457
20
-22.767832
30
0
11
69.22494
21
-22.568303
31
0
39
0
210
0
220
0
230
1
0
LINE
5
119
100
AcDbEntity
8
1
62
256
6
ByLayer
370
-1
48
1
60
0
100
AcDbLine
10
69.994048
20
-17.756474
30
0
11
69.893281
21
-17.871971
31
0
39
0
210
0
220
0
230
1
0
LINE
5
11A
100
AcDbEntity
8
1
62
256
6
ByLayer
370
-1
48
1
60
0
100
AcDbLine
10
65.693455
20
-25.430464
30
0
11
65.669906
21
-25.482794
31
0
39
0
210
0
220
0
230
1
0
LINE
5
11B
100
AcDbEntity
8
1
62
256
6
ByLayer
370
-1
48
1
60
0
100
AcDbLine
10
68.714713
20
3.262906
30
0
11
68.684312
21
3.439856
31
0
39
0
210
0
220
0
230
1
0
LINE
5
11C
100
AcDbEntity
8
1
62
256
6
ByLayer
370
-1
48
1
60
0
100
AcDbLine
10
60.588899
20
-0.311425
30
0
11
60.840797
21
-0.332561
31
0
39
0
210
0
220
0
230
1
0
LINE
5
11D
100
AcDbEntity
8
1
62
256
6
ByLayer
370
-1
48
1
60
0
100
AcDbLine
10
60.547069
20
-0.281121
30
0
11
60.584159
21
0.680202
31
0
39
0
210
0
220
0
230
1
0
LINE
5
11E
100
AcDbEntity
8
1
62
256
6
ByLayer
370
-1
48
1
60
0
100
AcDbLine
10
69.543819
20
0.73883
30
0
11
69.22494
21
0.642755
31
0
39
0
210
0
220
0
230
1
0
LINE
5
11F
100
AcDbEntity
8
1
62
256
6
ByLayer
370
-1
48
1
60
0
100
AcDbLine
10
69.139238
20
3.788356
30
0
11
69.15795
21
3.788739
31
0
39
0
210
0
220
0
230
1
0
LINE
5
120
100
AcDbEntity
8
1
62
256
6
ByLayer
370
-1
48
1
60
0
100
AcDbLine
10
63.13076
20
0.610603
30
0
11
60.584159
21
0.680202
31
0
39
0
210
0
220
0
230
1
0
LINE
5
121
100
AcDbEntity
8
1
62
256
6
ByLayer
370
-1
48
1
60
0
100
AcDbLine
10
60.245737
20
2.682663
30
0
11
60.242828
21
2.674477
31
0
39
0
210
0
220
0
230
1
0
LINE
5
122
100
AcDbEntity
8
1
62
256
6
ByLayer
370
-1
48
1
60
0
100
AcDbLine
10
68.013866
20
2.382192
30
0
11
67.884379
21
3.523591
31
0
39
0
210
0
220
0
230
1
0
LINE
5
123
100
AcDbEntity
8
1
62
256
6
ByLayer
370
-1
48
1
60
0
100
AcDbLine
10
69.998285
20
-0.137402
30
0
11
69.892973
21
0.86304
31
0
39
0
210
0
220
0
230
1
0
LINE
5
124
100
AcDbEntity
8
1
62
256
6
ByLayer
370
-1
48
1
60
0
100
AcDbLine
10
59.725176
20
-0.211994
30
0
11
59.725175
21
-0.212006
31
0
39
0
210
0
220
0
230
1
0
LINE
5
125
100
AcDbEntity
8
1
62
256
6
ByLayer
370
-1
48
1
60
0
100
AcDbLine
10
68.637703
20
-0.479402
30
0
11
68.92234
21
-0.470851
31
0
39
0
210
0
220
0
230
1
0
LINE
5
126
100
AcDbEntity
8
1
62
256
6
ByLayer
370
-1
48
1
60
0
100
AcDbLine
10
67.6193
20
-0.509775
30
0
11
67.896209
21
-0.501636
31
0
39
0
210
0
220
0
230
1
0
LINE
5
127
100
AcDbEntity
8
1
62
256
6
ByLayer
370
-1
48
1
60
0
100
AcDbLine
10
69.574663
20
2.707243
30
0
11
69.305447
21
3.827517
31
0
39
0
210
0
220
0
230
1
0
LINE
5
128
100
AcDbEntity
8
1
62
256
6
ByLayer
370
-1
48
1
60
0
100
AcDbLine
10
59.859337
20
0.741155
30
0
11
60.111601
21
2.036956
31
0
39
0
210
0
220
0
230
1
0
LINE
5
129
100
AcDbEntity
8
1
62
256
6
ByLayer
370
-1
48
1
60
0
100
AcDbLine
10
69.139238
20
3.788356
30
0
11
69.229957
21
3.418143
31
0
39
0
210
0
220
0
230
1
0
LINE
5
12A
100
AcDbEntity
8
1
62
256
6
ByLayer
370
-1
48
1
60
0
100
AcDbLine
10
69.96795
20
-0.155821
30
0
11
68.92234
21
-0.470851
31
0
39
0
210
0
220
0
230
1
0
LINE
5
12B
100
AcDbEntity
8
1
62
256
6
ByLayer
370
-1
48
1
60
0
100
AcDbLine
10
66.772819
20
-0.494683
30
0
11
60.840797
21
-0.332561
31
0
39
0
210
0
220
0
230
1
0
LINE
5
12C
100
AcDbEntity
8
1
62
256
6
ByLayer
370
-1
48
1
60
0
100
AcDbLine
10
69.892973
20
0.86304
30
0
11
69.637169
21
2.475672
31
0
39
0
210
0
220
0
230
1
0
LINE
5
12D
100
AcDbEntity
8
1
62
256
6
ByLayer
370
-1
48
1
60
0
100
AcDbLine
10
69.994045
20
-0.050398
30
0
11
69.994044
21
-0.050425
31
0
39
0
210
0
220
0
230
1
0
LINE
5
12E
100
AcDbEntity
8
1
62
256
6
ByLayer
370
-1
48
1
60
0
100
AcDbLine
10
68.637262
20
3.631862
30
0
11
68.623994
21
3.633119
31
0
39
0
210
0
220
0
230
1
0
LINE
5
12F
100
AcDbEntity
8
1
62
256
6
ByLayer
370
-1
48
1
60
0
100
AcDbLine
10
62.749041
20
3.647445
30
0
11
60.999573
21
3.695258
31
0
39
0
210
0
220
0
230
1
0
LINE
5
130
100
AcDbEntity
8
1
62
256
6
ByLayer
370
-1
48
1
60
0
100
AcDbLine
10
69.215699
20
0.650276
30
0
11
68.766821
21
0.515035
31
0
39
0
210
0
220
0
230
1
0
LINE
5
131
100
AcDbEntity
8
1
62
256
6
ByLayer
370
-1
48
1
60
0
100
AcDbLine
10
69.084413
20
1.216224
30
0
11
69.22494
21
0.642755
31
0
39
0
210
0
220
0
230
1
0
LINE
5
132
100
AcDbEntity
8
1
62
256
6
ByLayer
370
-1
48
1
60
0
100
AcDbLine
10
67.128139
20
0.502891
30
0
11
67.157645
21
2.126421
31
0
39
0
210
0
220
0
230
1
0
LINE
5
133
100
AcDbEntity
8
1
62
256
6
ByLayer
370
-1
48
1
60
0
100
AcDbLine
10
64.986032
20
0.549863
30
0
11
65.178284
21
3.592665
31
0
39
0
210
0
220
0
230
1
0
LINE
5
134
100
AcDbEntity
8
1
62
256
6
ByLayer
370
-1
48
1
60
0
100
AcDbLine
10
67.906687
20
0.489305
30
0
11
67.928459
21
1.801965
31
0
39
0
210
0
220
0
230
1
0
LINE
5
135
100
AcDbEntity
8
1
62
256
6
ByLayer
370
-1
48
1
60
0
100
AcDbLine
10
67.110082
20
-0.502265
30
0
11
67.128139
21
0.502891
31
0
39
0
210
0
220
0
230
1
0
LINE
5
136
100
AcDbEntity
8
1
62
256
6
ByLayer
370
-1
48
1
60
0
100
AcDbLine
10
68.684312
20
3.439856
30
0
11
68.654489
21
3.631391
31
0
39
0
210
0
220
0
230
1
0
LINE
5
137
100
AcDbEntity
8
1
62
256
6
ByLayer
370
-1
48
1
60
0
100
AcDbLine
10
69.15795
20
3.788739
30
0
11
69.205
21
3.596733
31
0
39
0
210
0
220
0
230
1
0
LINE
5
138
100
AcDbEntity
8
1
62
256
6
ByLayer
370
-1
48
1
60
0
100
AcDbLine
10
69.8645
20
0.845753
30
0
11
69.574663
21
2.707243
31
0
39
0
210
0
220
0
230
1
0
LINE
5
139
100
AcDbEntity
8
1
62
256
6
ByLayer
370
-1
48
1
60
0
100
AcDbLine
10
62.746792
20
3.276069
30
0
11
62.770341
21
3.648787
31
0
39
0
210
0
220
0
230
1
0
LINE
5
13A
100
AcDbEntity
8
1
62
256
6
ByLayer
370
-1
48
1
60
0
100
AcDbLine
10
60.520421
20
3.716867
30
0
11
60.245737
21
2.682663
31
0
39
0
210
0
220
0
230
1
0
LINE
5
13B
100
AcDbEntity
8
1
62
256
6
ByLayer
370
-1
48
1
60
0
100
AcDbLine
10
59.859645
20
0.784887
30
0
11
60.171659
21
2.387465
31
0
39
0
210
0
220
0
230
1
0
LINE
5
13C
100
AcDbEntity
8
1
62
256
6
ByLayer
370
-1
48
1
60
0
100
AcDbLine
10
69.543819
20
0.73883
30
0
11
68.807745
21
3.742652
31
0
39
0
210
0
220
0
230
1
0
LINE
5
13D
100
AcDbEntity
8
1
62
256
6
ByLayer
370
-1
48
1
60
0
100
AcDbLine
10
68.346119
20
3.538483
30
0
11
68.480503
21
2.353924
31
0
39
0
210
0
220
0
230
1
0
LINE
5
13E
100
AcDbEntity
8
1
62
256
6
ByLayer
370
-1
48
1
60
0
100
AcDbLine
10
68.654489
20
3.631391
30
0
11
68.346119
21
3.538483
31
0
39
0
210
0
220
0
230
1
0
LINE
5
13F
100
AcDbEntity
8
1
62
256
6
ByLayer
370
-1
48
1
60
0
100
AcDbLine
10
66.90077
20
2.379804
30
0
11
66.442097
21
3.546514
31
0
39
0
210
0
220
0
230
1
0
LINE
5
140
100
AcDbEntity
8
1
62
256
6
ByLayer
370
-1
48
1
60
0
100
AcDbLine
10
59.719199
20
-0.234787
30
0
11
59.719102
21
-0.238152
31
0
39
0
210
0
220
0
230
1
0
LINE
5
141
100
AcDbEntity
8
1
62
256
6
ByLayer
370
-1
48
1
60
0
100
AcDbLine
10
60.584159
20
0.680202
30
0
11
60.672264
21
2.527296
31
0
39
0
210
0
220
0
230
1
0
LINE
5
142
100
AcDbEntity
8
1
62
256
6
ByLayer
370
-1
48
1
60
0
100
AcDbLine
10
69.175178
20
3.788269
30
0
11
69.205
21
3.596733
31
0
39
0
210
0
220
0
230
1
0
LINE
5
143
100
AcDbEntity
8
1
62
256
6
ByLayer
370
-1
48
1
60
0
100
AcDbLine
10
66.562818
20
3.543934
30
0
11
67.004451
21
2.42057
31
0
39
0
210
0
220
0
230
1
0
LINE
5
144
100
AcDbEntity
8
1
62
256
6
ByLayer
370
-1
48
1
60
0
100
AcDbLine
10
68.865805
20
-0.443306
30
0
11
68.766821
21
0.515035
31
0
39
0
210
0
220
0
230
1
0
LINE
5
145
100
AcDbEntity
8
1
62
256
6
ByLayer
370
-1
48
1
60
0
100
AcDbLine
10
69.205
20
3.596733
30
0
11
69.229957
21
3.418143
31
0
39
0
210
0
220
0
230
1
0
LINE
5
146
100
AcDbEntity
8
1
62
256
6
ByLayer
370
-1
48
1
60
0
100
AcDbLine
10
65.706082
20
3.567628
30
0
11
65.703045
21
3.566713
31
0
39
0
210
0
220
0
230
1
0
LINE
5
147
100
AcDbEntity
8
1
62
256
6
ByLayer
370
-1
48
1
60
0
100
AcDbLine
10
69.15795
20
3.788739
30
0
11
69.175178
21
3.788269
31
0
39
0
210
0
220
0
230
1
0
LINE
5
148
100
AcDbEntity
8
1
62
256
6
ByLayer
370
-1
48
1
60
0
100
AcDbLine
10
65.693455
20
3.568899
30
0
11
65.706082
21
3.567628
31
0
39
0
210
0
220
0
230
1
0
LINE
5
149
100
AcDbEntity
8
1
62
256
6
ByLayer
370
-1
48
1
60
0
100
AcDbLine
10
69.994048
20
-0.050429
30
0
11
69.893281
21
0.906773
31
0
39
0
210
0
220
0
230
1
0
LINE
5
14A
100
AcDbEntity
8
1
62
256
6
ByLayer
370
-1
48
1
60
0
100
AcDbLine
10
69.96795
20
-0.155821
30
0
11
69.8645
21
0.845753
31
0
39
0
210
0
220
0
230
1
0
LINE
5
14B
100
AcDbEntity
8
1
62
256
6
ByLayer
370
-1
48
1
60
0
100
AcDbLine
10
64.986032
20
0.549863
30
0
11
63.176943
21
0.599305
31
0
39
0
210
0
220
0
230
1
0
LINE
5
14C
100
AcDbEntity
8
1
62
256
6
ByLayer
370
-1
48
1
60
0
100
AcDbLine
10
59.719429
20
-0.211209
30
0
11
59.859645
21
0.784887
31
0
39
0
210
0
220
0
230
1
0
LINE
5
14D
100
AcDbEntity
8
1
62
256
6
ByLayer
370
-1
48
1
60
0
100
AcDbLine
10
67.890474
20
-0.472484
30
0
11
67.906687
21
0.489305
31
0
39
0
210
0
220
0
230
1
0
LINE
5
14E
100
AcDbEntity
8
1
62
256
6
ByLayer
370
-1
48
1
60
0
100
AcDbLine
10
69.313931
20
3.834151
30
0
11
69.266074
21
3.909229
31
0
39
0
210
0
220
0
230
1
0
LINE
5
14F
100
AcDbEntity
8
1
62
256
6
ByLayer
370
-1
48
1
60
0
100
AcDbLine
10
60.999573
20
3.695258
30
0
11
60.672264
21
2.527296
31
0
39
0
210
0
220
0
230
1
0
LINE
5
150
100
AcDbEntity
8
1
62
256
6
ByLayer
370
-1
48
1
60
0
100
AcDbLine
10
60.275875
20
2.602906
30
0
11
60.591259
21
3.728314
31
0
39
0
210
0
220
0
230
1
0
LINE
5
151
100
AcDbEntity
8
1
62
256
6
ByLayer
370
-1
48
1
60
0
100
AcDbLine
10
65.693455
20
3.568899
30
0
11
65.669906
21
3.196181
31
0
39
0
210
0
220
0
230
1
0
LINE
5
152
100
AcDbEntity
8
1
62
256
6
ByLayer
370
-1
48
1
60
0
100
AcDbLine
10
63.369198
20
3.642155
30
0
11
63.176943
21
0.599305
31
0
39
0
210
0
220
0
230
1
0
LINE
5
153
100
AcDbEntity
8
1
62
256
6
ByLayer
370
-1
48
1
60
0
100
AcDbLine
10
66.772819
20
-0.494683
30
0
11
66.811583
21
0.510007
31
0
39
0
210
0
220
0
230
1
0
LINE
5
154
100
AcDbEntity
8
1
62
256
6
ByLayer
370
-1
48
1
60
0
100
AcDbLine
10
66.811583
20
0.510007
30
0
11
66.90077
21
2.379804
31
0
39
0
210
0
220
0
230
1
0
LINE
5
155
100
AcDbEntity
8
1
62
256
6
ByLayer
370
-1
48
1
60
0
100
AcDbLine
10
66.442097
20
3.546514
30
0
11
65.703045
21
3.566713
31
0
39
0
210
0
220
0
230
1
0
LINE
5
156
100
AcDbEntity
8
1
62
256
6
ByLayer
370
-1
48
1
60
0
100
AcDbLine
10
66.562818
20
3.543934
30
0
11
67.884379
21
3.523591
31
0
39
0
210
0
220
0
230
1
0
LINE
5
157
100
AcDbEntity
8
1
62
256
6
ByLayer
370
-1
48
1
60
0
100
AcDbLine
10
69.8645
20
0.845753
30
0
11
69.550996
21
0.751298
31
0
39
0
210
0
220
0
230
1
0
LINE
5
158
100
AcDbEntity
8
1
62
256
6
ByLayer
370
-1
48
1
60
0
100
AcDbLine
10
62.746792
20
3.276069
30
0
11
62.739864
21
3.455055
31
0
39
0
210
0
220
0
230
1
0
LINE
5
159
100
AcDbEntity
8
1
62
256
6
ByLayer
370
-1
48
1
60
0
100
AcDbLine
10
68.865805
20
-0.443306
30
0
11
68.92234
21
-0.470851
31
0
39
0
210
0
220
0
230
1
0
LINE
5
15A
100
AcDbEntity
8
1
62
256
6
ByLayer
370
-1
48
1
60
0
100
AcDbLine
10
69.893281
20
0.906773
30
0
11
69.686463
21
2.210468
31
0
39
0
210
0
220
0
230
1
0
LINE
5
15B
100
AcDbEntity
8
1
62
256
6
ByLayer
370
-1
48
1
60
0
100
AcDbLine
10
62.739864
20
3.455055
30
0
11
62.752077
21
3.64836
31
0
39
0
210
0
220
0
230
1
0
LINE
5
15C
100
AcDbEntity
8
1
62
256
6
ByLayer
370
-1
48
1
60
0
100
AcDbLine
10
66.811583
20
0.510007
30
0
11
65.032989
21
0.558616
31
0
39
0
210
0
220
0
230
1
0
LINE
5
15D
100
AcDbEntity
8
1
62
256
6
ByLayer
370
-1
48
1
60
0
100
AcDbLine
10
60.547069
20
-0.281121
30
0
11
60.840797
21
-0.332561
31
0
39
0
210
0
220
0
230
1
0
LINE
5
15E
100
AcDbEntity
8
1
62
256
6
ByLayer
370
-1
48
1
60
0
100
AcDbLine
10
60.547072
20
-0.281121
30
0
11
60.588899
21
-0.311425
31
0
39
0
210
0
220
0
230
1
0
LINE
5
15F
100
AcDbEntity
8
1
62
256
6
ByLayer
370
-1
48
1
60
0
100
AcDbLine
10
62.749041
20
3.647445
30
0
11
62.752077
21
3.64836
31
0
39
0
210
0
220
0
230
1
0
LINE
5
160
100
AcDbEntity
8
1
62
256
6
ByLayer
370
-1
48
1
60
0
100
AcDbLine
10
65.693868
20
3.374322
30
0
11
65.669906
21
3.196181
31
0
39
0
210
0
220
0
230
1
0
LINE
5
161
100
AcDbEntity
8
1
62
256
6
ByLayer
370
-1
48
1
60
0
100
AcDbLine
10
68.766821
20
0.515035
30
0
11
68.480503
21
2.353924
31
0
39
0
210
0
220
0
230
1
0
LINE
5
162
100
AcDbEntity
8
1
62
256
6
ByLayer
370
-1
48
1
60
0
100
AcDbLine
10
67.890631
20
-0.472464
30
0
11
67.890496
21
-0.472482
31
0
39
0
210
0
220
0
230
1
0
LINE
5
163
100
AcDbEntity
8
1
62
256
6
ByLayer
370
-1
48
1
60
0
100
AcDbLine
10
59.719102
20
-0.238152
30
0
11
59.902714
21
-0.253729
31
0
39
0
210
0
220
0
230
1
0
LINE
5
164
100
AcDbEntity
8
1
62
256
6
ByLayer
370
-1
48
1
60
0
100
AcDbLine
10
62.752077
20
3.64836
30
0
11
62.770341
21
3.648787
31
0
39
0
210
0
220
0
230
1
0
LINE
5
165
100
AcDbEntity
8
1
62
256
6
ByLayer
370
-1
48
1
60
0
100
AcDbLine
10
68.654489
20
3.631391
30
0
11
68.637262
21
3.631862
31
0
39
0
210
0
220
0
230
1
0
LINE
5
166
100
AcDbEntity
8
1
62
256
6
ByLayer
370
-1
48
1
60
0
100
AcDbLine
10
62.739864
20
3.455055
30
0
11
62.749041
21
3.647445
31
0
39
0
210
0
220
0
230
1
0
LINE
5
167
100
AcDbEntity
8
1
62
256
6
ByLayer
370
-1
48
1
60
0
100
AcDbLine
10
69.305447
20
3.827517
30
0
11
69.175178
21
3.788269
31
0
39
0
210
0
220
0
230
1
0
LINE
5
168
100
AcDbEntity
8
1
62
256
6
ByLayer
370
-1
48
1
60
0
100
AcDbLine
10
59.725172
20
-0.212007
30
0
11
59.859337
21
0.741155
31
0
39
0
210
0
220
0
230
1
0
LINE
5
169
100
AcDbEntity
8
1
62
256
6
ByLayer
370
-1
48
1
60
0
100
AcDbLine
10
65.703045
20
3.566713
30
0
11
65.693868
21
3.374322
31
0
39
0
210
0
220
0
230
1
0
LINE
5
16A
100
AcDbEntity
8
1
62
256
6
ByLayer
370
-1
48
1
60
0
100
AcDbLine
10
66.174297
20
21.585605
30
0
11
66.151359
21
21.539743
31
0
39
0
210
0
220
0
230
1
0
LINE
5
16B
100
AcDbEntity
8
1
62
256
6
ByLayer
370
-1
48
1
60
0
100
AcDbLine
10
64.347076
20
22.252141
30
0
11
64.324108
21
22.206218
31
0
39
0
210
0
220
0
230
1
0
LINE
5
16C
100
AcDbEntity
8
1
62
256
6
ByLayer
370
-1
48
1
60
0
100
AcDbLine
10
63.412625
20
21.100723
30
0
11
63.389687
21
21.054861
31
0
39
0
210
0
220
0
230
1
0
LINE
5
16D
100
AcDbEntity
8
1
62
256
6
ByLayer
370
-1
48
1
60
0
100
AcDbLine
10
63.943518
20
19.706693
30
0
11
63.920549
21
19.66077
31
0
39
0
210
0
220
0
230
1
0
LINE
5
16E
100
AcDbEntity
8
1
62
256
6
ByLayer
370
-1
48
1
60
0
100
AcDbLine
10
64.85418
20
19.376211
30
0
11
64.831212
21
19.330289
31
0
39
0
210
0
220
0
230
1
0
LINE
5
16F
100
AcDbEntity
8
1
62
256
6
ByLayer
370
-1
48
1
60
0
100
AcDbLine
10
66.152136
20
20.094472
30
0
11
66.129168
21
20.04855
31
0
39
0
210
0
220
0
230
1
0
LINE
5
170
100
AcDbEntity
8
1
62
256
6
ByLayer
370
-1
48
1
60
0
100
AcDbLine
10
63.687282
20
20.532641
30
0
11
63.707416
21
20.572897
31
0
39
0
210
0
220
0
230
1
0
LINE
5
171
100
AcDbEntity
8
1
62
256
6
ByLayer
370
-1
48
1
60
0
100
AcDbLine
10
63.678528
20
20.736731
30
0
11
63.658394
21
20.696476
31
0
39
0
210
0
220
0
230
1
0
LINE
5
172
100
AcDbEntity
8
1
62
256
6
ByLayer
370
-1
48
1
60
0
100
AcDbLine
10
59.719102
20
23.557152
30
0
11
59.974484
21
23.863278
31
0
39
0
210
0
220
0
230
1
0
LINE
5
173
100
AcDbEntity
8
1
62
256
6
ByLayer
370
-1
48
1
60
0
100
AcDbLine
10
59.974484
20
23.863278
30
0
11
59.969134
21
23.863281
31
0
39
0
210
0
220
0
230
1
0
LINE
5
174
100
AcDbEntity
8
1
62
256
6
ByLayer
370
-1
48
1
60
0
100
AcDbLine
10
59.725176
20
23.858608
30
0
11
59.725175
21
23.858472
31
0
39
0
210
0
220
0
230
1
0
LINE
5
175
100
AcDbEntity
8
1
62
256
6
ByLayer
370
-1
48
1
60
0
100
AcDbLine
10
67.538226
20
16.525222
30
0
11
68.876917
21
16.760263
31
0
39
0
210
0
220
0
230
1
0
LINE
5
176
100
AcDbEntity
8
1
62
256
6
ByLayer
370
-1
48
1
60
0
100
AcDbLine
10
59.719199
20
23.594478
30
0
11
59.719102
21
23.557152
31
0
39
0
210
0
220
0
230
1
0
LINE
5
177
100
AcDbEntity
8
1
62
256
6
ByLayer
370
-1
48
1
60
0
100
AcDbLine
10
69.96795
20
18.908137
30
0
11
68.92234
21
24.838086
31
0
39
0
210
0
220
0
230
1
0
LINE
5
178
100
AcDbEntity
8
1
62
256
6
ByLayer
370
-1
48
1
60
0
100
AcDbLine
10
66.772819
20
25.92993
30
0
11
60.840797
21
24.888412
31
0
39
0
210
0
220
0
230
1
0
LINE
5
179
100
AcDbEntity
8
1
62
256
6
ByLayer
370
-1
48
1
60
0
100
AcDbLine
10
59.974484
20
23.863278
30
0
11
59.725176
21
23.858608
31
0
39
0
210
0
220
0
230
1
0
LINE
5
17A
100
AcDbEntity
8
1
62
256
6
ByLayer
370
-1
48
1
60
0
100
AcDbLine
10
60.588918
20
24.590491
30
0
11
60.588899
21
24.590598
31
0
39
0
210
0
220
0
230
1
0
LINE
5
17B
100
AcDbEntity
8
1
62
256
6
ByLayer
370
-1
48
1
60
0
100
AcDbLine
10
68.624129
20
25.090031
30
0
11
68.624237
21
25.09005
31
0
39
0
210
0
220
0
230
1
0
LINE
5
17C
100
AcDbEntity
8
1
62
256
6
ByLayer
370
-1
48
1
60
0
100
AcDbLine
10
68.624129
20
25.090031
30
0
11
68.865806
21
25.133971
31
0
39
0
210
0
220
0
230
1
0
LINE
5
17D
100
AcDbEntity
8
1
62
256
6
ByLayer
370
-1
48
1
60
0
100
AcDbLine
10
59.749763
20
22.740538
30
0
11
60.527714
21
18.328563
31
0
39
0
210
0
220
0
230
1
0
MTEXT
5
301
100
AcDbEntity
8
SK6
62
256
6
ByLayer
370
-1
48
1
60
0
100
AcDbMText
10
23.282868
20
-41.78929
30
0
210
0
220
0
230
1
1
\W00.718;\fsimplex.shx,bigfont.shx;R210-052C5-09M\P
40
3.5
41
0
44
1.084337
50
0
71
7
72
5
7
DEFAULT
0
DIMENSION
5
312
100
AcDbEntity
8
2
62
256
6
ByLayer
370
-3
48
1
60
0
100
AcDbDimension
2
DimnDraft3D1
10
0
20
45.75
30
0
11
28.697039
21
45.75
31
0
70
32
71
5
72
1
41
1
210
0
220
0
230
1
3
Standard
100
AcDbAlignedDimension
13
70
23
28
33
0
14
0
24
27
34
0
50
0
100
AcDbRotatedDimension
1001
ACAD
1000
DSTYLE
1002
{
1070
   279
1070
     0
1070
   172
1070
     1
1070
   173
1070
     1
1070
   340
1005
302
1070
   271
1070
     2
1070
   272
1070
     2
1070
    77
1070
     1
1070
    73
1070
     0
1070
   171
1070
     4
1070
   274
1070
     4
1070
   177
1070
     2
1070
   176
1070
     2
1070
   178
1070
     7
1070
    78
1070
     8
1070
    41
1041
3.175
1070
   147
1041
2.25
1070
    42
1041
2.0
1070
    44
1041
2.0
1070
   140
1041
4.5
1070
   343
1005
313
1070
   344
1005
313
1002
}
0
DIMENSION
5
328
100
AcDbEntity
8
SK2
62
256
6
ByLayer
370
-3
48
1
60
0
100
AcDbDimension
2
DimnDraft3D2
10
68.8
20
33.75
30
0
11
78.675
21
33.75
31
0
70
32
71
5
72
1
41
1
210
0
220
0
230
1
3
Standard
100
AcDbAlignedDimension
13
70
23
28
33
0
14
68.8
24
28
34
0
50
0
100
AcDbRotatedDimension
1001
ACAD
1000
DSTYLE
1002
{
1070
   279
1070
     0
1070
   172
1070
     1
1070
   173
1070
     1
1070
   340
1005
302
1070
   271
1070
     2
1070
   272
1070
     2
1070
    77
1070
     1
1070
    73
1070
     0
1070
   171
1070
     4
1070
   274
1070
     4
1070
   177
1070
     2
1070
   176
1070
     2
1070
   178
1070
     7
1070
    78
1070
     8
1070
    41
1041
3.175
1070
   147
1041
2.25
1070
    42
1041
2.0
1070
    44
1041
2.0
1070
   140
1041
4.5
1070
   343
1005
313
1070
   344
1005
313
1002
}
0
DIMENSION
5
336
100
AcDbEntity
8
SK2
62
256
6
ByLayer
370
-3
48
1
60
0
100
AcDbDimension
2
DimnDraft3D3
10
-39.75
20
-25
30
0
11
-39.75
21
-8.986678
31
0
70
32
71
5
72
1
41
1
210
0
220
0
230
1
3
Standard
100
AcDbAlignedDimension
13
-2
23
25
33
0
14
-2
24
-25
34
0
50
90
100
AcDbRotatedDimension
1001
ACAD
1000
DSTYLE
1002
{
1070
    74
1070
     0
1070
   279
1070
     0
1070
   172
1070
     1
1070
   173
1070
     1
1070
   340
1005
302
1070
   271
1070
     2
1070
   272
1070
     2
1070
    77
1070
     1
1070
    73
1070
     0
1070
   171
1070
     4
1070
   274
1070
     4
1070
   177
1070
     2
1070
   176
1070
     2
1070
   178
1070
     7
1070
    78
1070
     8
1070
    41
1041
3.175
1070
   147
1041
2.25
1070
    42
1041
2.0
1070
    44
1041
2.0
1070
   140
1041
4.5
1070
   343
1005
313
1070
   344
1005
313
1002
}
0
DIMENSION
5
344
100
AcDbEntity
8
2
62
256
6
ByLayer
370
-3
48
1
60
0
100
AcDbDimension
2
DimnDraft3D4
10
82.25
20
-26
30
0
11
82.25
21
-8.986678
31
0
70
32
71
5
72
1
41
1
210
0
220
0
230
1
3
Standard
100
AcDbAlignedDimension
13
72
23
26
33
0
14
72
24
-26
34
0
50
90
100
AcDbRotatedDimension
1001
ACAD
1000
DSTYLE
1002
{
1070
    74
1070
     0
1070
   279
1070
     0
1070
   172
1070
     1
1070
   173
1070
     1
1070
   340
1005
302
1070
   271
1070
     2
1070
   272
1070
     2
1070
    77
1070
     1
1070
    73
1070
     0
1070
   171
1070
     4
1070
   274
1070
     4
1070
   177
1070
     2
1070
   176
1070
     2
1070
   178
1070
     7
1070
    78
1070
     8
1070
    41
1041
3.175
1070
   147
1041
2.25
1070
    42
1041
2.0
1070
    44
1041
2.0
1070
   140
1041
4.5
1070
   343
1005
313
1070
   344
1005
313
1002
}
0
ENDSEC
0
SECTION
2
OBJECTS
0
DICTIONARY
5
392
330
0
100
AcDbDictionary
280
0
281
1
3
ACAD_GROUP
350
393
3
ACAD_MLINESTYLE
350
394
0
DICTIONARY
5
393
330
0
100
AcDbDictionary
280
0
281
1
0
DICTIONARY
5
394
330
0
100
AcDbDictionary
280
0
281
1
3
Standard
350
18
0
MLINESTYLE
5
18
330
394
100
AcDbMlineStyle
2
Standard
70
0
3

62
256
51
90
52
90
71
2
49
-0.5
62
256
6
ByLayer
49
0.5
62
256
6
ByLayer
0
RASTERVARIABLES
5
381
330

100
AcDbRasterVariables
90
0
70
1
71
1
72
1
0
ENDSEC
0
EOF
