0
SECTION
2
HEADER
9
$ACADVER
1
AC1015
9
$DWGCODEPAGE
3
ANSI_1252
9
$HANDSEED
5
2ac
9
$ANGBASE
50
0
9
$ANGDIR
70
0
9
$ATTMODE
70
1
9
$AUNITS
70
0
9
$AUPREC
70
0
9
$CECOLOR
62
256
9
$CELTSCALE
40
1
9
$CELTYPE
6
ByLayer
9
$CELWEIGHT
370
-1
9
$CLAYER
8
0
9
$CMLJUST
70
0
9
$CMLSCALE
40
1
9
$CMLSTYLE
2
Standard
9
$DIMSTYLE
2
Standard
9
$TEXTSIZE
40
0.2
9
$TEXTSTYLE
7
Standard
9
$LUNITS
70
2
9
$LUPREC
70
4
9
$EXTNAMES
290
1
9
$INSUNITS
70
4
9
$LTSCALE
40
1
9
$LWDISPLAY
290
0
9
$PDMODE
70
0
9
$PDSIZE
40
0
9
$PLINEGEN
70
0
0
ENDSEC
0
SECTION
2
CLASSES
0
CLASS
1
RASTERVARIABLES
2
AcDbRasterVariables
3
ISM
90
0
280
0
281
0
0
ENDSEC
0
SECTION
2
TABLES
0
TABLE
2
VPORT
5
2a2
100
AcDbSymbolTable
0
VPORT
5
1
100
AcDbSymbolTableRecord
100
AcDbViewportTableRecord
2
*Active
70
0
10
0
20
0
11
1
21
1
12
-1
22
1
13
0
23
0
14
0.5
24
0.5
15
10
25
10
16
0
26
0
36
1
17
0
27
0
37
0
0
ENDTAB
0
TABLE
2
LTYPE
5
2a3
100
AcDbSymbolTable
0
LTYPE
5
14
100
AcDbSymbolTableRecord
100
AcDbLinetypeTableRecord
70
0
2
ByBlock
3

72
65
73
0
40
0
0
LTYPE
5
15
100
AcDbSymbolTableRecord
100
AcDbLinetypeTableRecord
70
0
2
ByLayer
3

72
65
73
0
40
0
0
LTYPE
5
16
100
AcDbSymbolTableRecord
100
AcDbLinetypeTableRecord
70
0
2
CONTINUOUS
3
Solid line
72
65
73
0
40
0
0
LTYPE
5
3C
100
AcDbSymbolTableRecord
100
AcDbLinetypeTableRecord
70
0
2
DASHED
3
__ __ __ __ __ __ __ __ __
72
65
73
2
40
25.72
49
12.86
74
0
49
-12.86
74
0
0
LTYPE
5
3D
100
AcDbSymbolTableRecord
100
AcDbLinetypeTableRecord
70
0
2
HIDDEN
3
_ _ _ _ _ _ _ _ _ _ _ _ _ _ _
72
65
73
2
40
0.5
49
0.25
74
0
49
-0.25
74
0
0
LTYPE
5
3E
100
AcDbSymbolTableRecord
100
AcDbLinetypeTableRecord
70
0
2
PHANTOM
3
____ _ _ ____ _ _ _____ _ _ ____
72
65
73
6
40
50.5
49
18
74
0
49
-6.5
74
0
49
6.5
74
0
49
-6.5
74
0
49
6.5
74
0
49
-6.5
74
0
0
LTYPE
5
3F
100
AcDbSymbolTableRecord
100
AcDbLinetypeTableRecord
70
0
2
CENTER
3
____ _ ____ _ ____ _ ____
72
65
73
4
40
47.5
49
22
74
0
49
-8.5
74
0
49
8.5
74
0
49
-8.5
74
0
0
LTYPE
5
40
100
AcDbSymbolTableRecord
100
AcDbLinetypeTableRecord
70
0
2
DOT
3
.........................
72
65
73
2
40
10
49
0
74
0
49
-10
74
0
0
LTYPE
5
41
100
AcDbSymbolTableRecord
100
AcDbLinetypeTableRecord
70
0
2
DASHDOT
3
_._._._._._._._._._._._._._._._.
72
65
73
4
40
70
49
31
74
0
49
-13
74
0
49
13
74
0
49
-13
74
0
0
ENDTAB
0
TABLE
2
LAYER
5
2a4
100
AcDbSymbolTable
0
LAYER
5
10
100
AcDbSymbolTableRecord
100
AcDbLayerTableRecord
2
0
70
0
62
7
6
CONTINUOUS
290
1
370
-3
390
0
0
LAYER
5
43
100
AcDbSymbolTableRecord
100
AcDbLayerTableRecord
2
80
70
0
62
-6
6
CONTINUOUS
290
1
370
-3
390
0
0
LAYER
5
45
100
AcDbSymbolTableRecord
100
AcDbLayerTableRecord
2
2
70
0
62
7
6
CONTINUOUS
290
1
370
-3
390
0
0
LAYER
5
47
100
AcDbSymbolTableRecord
100
AcDbLayerTableRecord
2
81
70
0
62
-3
6
CONTINUOUS
290
1
370
-3
390
0
0
LAYER
5
49
100
AcDbSymbolTableRecord
100
AcDbLayerTableRecord
2
4
70
0
62
-2
6
CENTER
290
1
370
-3
390
0
0
LAYER
5
5D
100
AcDbSymbolTableRecord
100
AcDbLayerTableRecord
2
1
70
0
62
4
6
CONTINUOUS
290
1
370
-3
390
0
0
LAYER
5
28f
100
AcDbSymbolTableRecord
100
AcDbLayerTableRecord
2
SK1
70
0
62
4
6
CONTINUOUS
290
1
370
-3
390
0
0
LAYER
5
290
100
AcDbSymbolTableRecord
100
AcDbLayerTableRecord
2
SK6
70
0
62
5
6
CONTINUOUS
290
1
370
-3
390
0
0
LAYER
5
291
100
AcDbSymbolTableRecord
100
AcDbLayerTableRecord
2
SK2
70
0
62
7
6
CONTINUOUS
290
1
370
-3
390
0
0
ENDTAB
0
TABLE
2
STYLE
5
2a5
100
AcDbSymbolTable
0
STYLE
5
11
100
AcDbSymbolTableRecord
100
AcDbTextStyleTableRecord
2
Standard
3
txt
70
0
71
0
40
0
41
1
42
0
50
0
0
STYLE
5
20F
100
AcDbSymbolTableRecord
100
AcDbTextStyleTableRecord
2
DEFAULT
3
simplex.shx
70
0
71
0
40
0
41
1
42
0
50
0
0
STYLE
5
210
100
AcDbSymbolTableRecord
100
AcDbTextStyleTableRecord
2
DWGDirectTextStyle
3
SIMPLEX
70
0
71
0
40
0
41
1
42
0
50
0
0
ENDTAB
0
TABLE
2
DIMSTYLE
5
2a6
100
AcDbSymbolTable
100
AcDbDimStyleTable
0
DIMSTYLE
105
27
100
AcDbSymbolTableRecord
100
AcDbDimStyleTableRecord
2
Standard
70
0
3
<>
41
0.18
42
0.0625
44
0.18
140
0.18
147
0.09
73
0
74
0
77
1
271
2
275
0
278
52
280
0
340
11
0
ENDTAB
0
TABLE
2
VIEW
5
2a7
100
AcDbSymbolTable
0
ENDTAB
0
TABLE
2
UCS
5
2a8
100
AcDbSymbolTable
0
ENDTAB
0
TABLE
2
APPID
5
2a9
100
AcDbSymbolTable
0
APPID
5
12
100
AcDbSymbolTableRecord
100
AcDbRegAppTableRecord
2
ACAD
70
0
0
ENDTAB
0
TABLE
2
BLOCK_RECORD
5
2aa
100
AcDbSymbolTable
0
BLOCK_RECORD
5
1F
100
AcDbSymbolTableRecord
100
AcDbBlockTableRecord
2
*Model_Space
340
0
70
0
0
BLOCK_RECORD
5
1B
100
AcDbSymbolTableRecord
100
AcDbBlockTableRecord
2
*Paper_Space
340
0
70
0
0
BLOCK_RECORD
5
23
100
AcDbSymbolTableRecord
100
AcDbBlockTableRecord
2
*Paper_Space0
340
0
70
0
0
BLOCK_RECORD
5
212
100
AcDbSymbolTableRecord
100
AcDbBlockTableRecord
2
DimnDraft3D1
340
0
70
0
0
BLOCK_RECORD
5
221
100
AcDbSymbolTableRecord
100
AcDbBlockTableRecord
2
_CLOSED
340
0
70
0
0
BLOCK_RECORD
5
228
100
AcDbSymbolTableRecord
100
AcDbBlockTableRecord
2
DimnDraft3D2
340
0
70
0
0
BLOCK_RECORD
5
236
100
AcDbSymbolTableRecord
100
AcDbBlockTableRecord
2
DimnDraft3D3
340
0
70
0
0
BLOCK_RECORD
5
244
100
AcDbSymbolTableRecord
100
AcDbBlockTableRecord
2
DimnDraft3D4
340
0
70
0
0
ENDTAB
0
ENDSEC
0
SECTION
2
BLOCKS
0
BLOCK
5
20
100
AcDbEntity
8
0
100
AcDbBlockBegin
2
*Model_Space
70
0
10
0
20
0
30
0
3
*Model_Space
0
ENDBLK
5
21
100
AcDbEntity
8
0
100
AcDbBlockEnd
0
BLOCK
5
1C
100
AcDbEntity
8
0
100
AcDbBlockBegin
2
*Paper_Space
70
0
10
0
20
0
30
0
3
*Paper_Space
0
ENDBLK
5
1D
100
AcDbEntity
8
0
100
AcDbBlockEnd
0
BLOCK
5
24
100
AcDbEntity
8
0
100
AcDbBlockBegin
2
*Paper_Space0
70
0
10
0
20
0
30
0
3
*Paper_Space0
0
ENDBLK
5
25
100
AcDbEntity
8
0
100
AcDbBlockEnd
0
BLOCK
5
21E
100
AcDbEntity
8
0
100
AcDbBlockBegin
2
DimnDraft3D1
70
0
10
0
20
0
30
0
3
DimnDraft3D1
0
MTEXT
5
213
100
AcDbEntity
8
SK2
62
256
6
ByLayer
370
-1
48
1
60
0
100
AcDbMText
10
57.211513
20
44.871
30
0
210
0
220
0
230
1
1
\W01.000;\fsimplex.shx,bigfont.shx;250.0\P
40
4.5
41
0
44
1.084337
50
0
71
7
72
5
7
DEFAULT
0
LINE
5
215
100
AcDbEntity
8
SK2
62
256
6
ByLayer
370
-1
48
1
60
0
100
AcDbLine
10
189
20
23
30
0
11
189
21
45.746
31
0
39
0
210
0
220
0
230
1
0
LINE
5
216
100
AcDbEntity
8
SK2
62
256
6
ByLayer
370
-1
48
1
60
0
100
AcDbLine
10
-61
20
17.996
30
0
11
-61
21
45.746
31
0
39
0
210
0
220
0
230
1
0
LINE
5
217
100
AcDbEntity
8
SK2
62
256
6
ByLayer
370
-1
48
1
60
0
100
AcDbLine
10
189
20
43.746
30
0
11
-61
21
43.746
31
0
39
0
210
0
220
0
230
1
0
LINE
5
218
100
AcDbEntity
8
SK2
62
256
6
ByLayer
370
-1
48
1
60
0
100
AcDbLine
10
189
20
43.746
30
0
11
185.825002
21
43.328003
31
0
39
0
210
0
220
0
230
1
0
LINE
5
219
100
AcDbEntity
8
SK2
62
256
6
ByLayer
370
-1
48
1
60
0
100
AcDbLine
10
189
20
43.746
30
0
11
185.824998
21
44.163997
31
0
39
0
210
0
220
0
230
1
0
LINE
5
21A
100
AcDbEntity
8
SK2
62
256
6
ByLayer
370
-1
48
1
60
0
100
AcDbLine
10
185.825002
20
43.328003
30
0
11
185.824998
21
44.163997
31
0
39
0
210
0
220
0
230
1
0
LINE
5
21B
100
AcDbEntity
8
SK2
62
256
6
ByLayer
370
-1
48
1
60
0
100
AcDbLine
10
-61
20
43.746
30
0
11
-57.825002
21
44.163997
31
0
39
0
210
0
220
0
230
1
0
LINE
5
21C
100
AcDbEntity
8
SK2
62
256
6
ByLayer
370
-1
48
1
60
0
100
AcDbLine
10
-61
20
43.746
30
0
11
-57.824998
21
43.328003
31
0
39
0
210
0
220
0
230
1
0
LINE
5
21D
100
AcDbEntity
8
SK2
62
256
6
ByLayer
370
-1
48
1
60
0
100
AcDbLine
10
-57.825002
20
44.163997
30
0
11
-57.824998
21
43.328003
31
0
39
0
210
0
220
0
230
1
0
ENDBLK
5
21F
100
AcDbEntity
8
0
100
AcDbBlockEnd
0
BLOCK
5
222
100
AcDbEntity
8
0
100
AcDbBlockBegin
2
_CLOSED
70
0
10
0
20
0
30
0
3
_CLOSED
0
LINE
5
224
100
AcDbEntity
8
0
62
256
6
ByLayer
370
-2
48
1
60
0
100
AcDbLine
10
-1
20
0.166667
30
0
11
0
21
0
31
0
39
0
210
0
220
0
230
1
0
LINE
5
225
100
AcDbEntity
8
0
62
256
6
ByLayer
370
-2
48
1
60
0
100
AcDbLine
10
0
20
0
30
0
11
-1
21
-0.166667
31
0
39
0
210
0
220
0
230
1
0
LINE
5
226
100
AcDbEntity
8
0
62
256
6
ByLayer
370
-2
48
1
60
0
100
AcDbLine
10
-1
20
0.166667
30
0
11
-1
21
-0.166667
31
0
39
0
210
0
220
0
230
1
0
LINE
5
227
100
AcDbEntity
8
0
62
256
6
ByLayer
370
-2
48
1
60
0
100
AcDbLine
10
0
20
0
30
0
11
-1
21
0
31
0
39
0
210
0
220
0
230
1
0
ENDBLK
5
223
100
AcDbEntity
8
0
100
AcDbBlockEnd
0
BLOCK
5
233
100
AcDbEntity
8
0
100
AcDbBlockBegin
2
DimnDraft3D2
70
0
10
0
20
0
30
0
3
DimnDraft3D2
0
MTEXT
5
229
100
AcDbEntity
8
SK2
62
256
6
ByLayer
370
-1
48
1
60
0
100
AcDbMText
10
199.19375
20
29.875
30
0
210
0
220
0
230
1
1
\W01.000;\fsimplex.shx,bigfont.shx;1.2\P
40
4.5
41
0
44
1.084337
50
0
71
7
72
5
7
DEFAULT
0
LINE
5
22A
100
AcDbEntity
8
SK2
62
256
6
ByLayer
370
-1
48
1
60
0
100
AcDbLine
10
189
20
23
30
0
11
189
21
30.75
31
0
39
0
210
0
220
0
230
1
0
LINE
5
22B
100
AcDbEntity
8
SK2
62
256
6
ByLayer
370
-1
48
1
60
0
100
AcDbLine
10
187.8
20
23
30
0
11
187.8
21
30.75
31
0
39
0
210
0
220
0
230
1
0
LINE
5
22C
100
AcDbEntity
8
SK2
62
256
6
ByLayer
370
-1
48
1
60
0
100
AcDbLine
10
176.55
20
28.75
30
0
11
204.753618
21
28.75
31
0
39
0
210
0
220
0
230
1
0
LINE
5
22D
100
AcDbEntity
8
SK2
62
256
6
ByLayer
370
-1
48
1
60
0
100
AcDbLine
10
189
20
28.75
30
0
11
192.174998
21
29.167997
31
0
39
0
210
0
220
0
230
1
0
LINE
5
22E
100
AcDbEntity
8
SK2
62
256
6
ByLayer
370
-1
48
1
60
0
100
AcDbLine
10
189
20
28.75
30
0
11
192.175002
21
28.332003
31
0
39
0
210
0
220
0
230
1
0
LINE
5
22F
100
AcDbEntity
8
SK2
62
256
6
ByLayer
370
-1
48
1
60
0
100
AcDbLine
10
192.174998
20
29.167997
30
0
11
192.175002
21
28.332003
31
0
39
0
210
0
220
0
230
1
0
LINE
5
230
100
AcDbEntity
8
SK2
62
256
6
ByLayer
370
-1
48
1
60
0
100
AcDbLine
10
187.8
20
28.75
30
0
11
184.625002
21
28.332003
31
0
39
0
210
0
220
0
230
1
0
LINE
5
231
100
AcDbEntity
8
SK2
62
256
6
ByLayer
370
-1
48
1
60
0
100
AcDbLine
10
187.8
20
28.75
30
0
11
184.624998
21
29.167997
31
0
39
0
210
0
220
0
230
1
0
LINE
5
232
100
AcDbEntity
8
SK2
62
256
6
ByLayer
370
-1
48
1
60
0
100
AcDbLine
10
184.625002
20
28.332003
30
0
11
184.624998
21
29.167997
31
0
39
0
210
0
220
0
230
1
0
ENDBLK
5
234
100
AcDbEntity
8
0
100
AcDbBlockEnd
0
BLOCK
5
241
100
AcDbEntity
8
0
100
AcDbBlockBegin
2
DimnDraft3D3
70
0
10
0
20
0
30
0
3
DimnDraft3D3
0
MTEXT
5
237
100
AcDbEntity
8
SK2
62
256
6
ByLayer
370
-1
48
1
60
0
100
AcDbMText
10
-71.875
20
-4.49852
30
0
210
0
220
0
230
1
1
\W01.000;\fsimplex.shx,bigfont.shx;%%c32\P
40
4.5
41
0
44
1.084337
50
90
71
7
72
5
7
DEFAULT
0
LINE
5
238
100
AcDbEntity
8
SK2
62
256
6
ByLayer
370
-1
48
1
60
0
100
AcDbLine
10
-63
20
15.996
30
0
11
-72.75
21
15.996
31
0
39
0
210
0
220
0
230
1
0
LINE
5
239
100
AcDbEntity
8
SK2
62
256
6
ByLayer
370
-1
48
1
60
0
100
AcDbLine
10
-63
20
-15.996
30
0
11
-72.75
21
-15.996
31
0
39
0
210
0
220
0
230
1
0
LINE
5
23A
100
AcDbEntity
8
SK2
62
256
6
ByLayer
370
-1
48
1
60
0
100
AcDbLine
10
-70.75
20
15.996
30
0
11
-70.75
21
-15.996
31
0
39
0
210
0
220
0
230
1
0
LINE
5
23B
100
AcDbEntity
8
SK2
62
256
6
ByLayer
370
-1
48
1
60
0
100
AcDbLine
10
-70.75
20
15.996
30
0
11
-70.332003
21
12.821002
31
0
39
0
210
0
220
0
230
1
0
LINE
5
23C
100
AcDbEntity
8
SK2
62
256
6
ByLayer
370
-1
48
1
60
0
100
AcDbLine
10
-70.75
20
15.996
30
0
11
-71.167997
21
12.820998
31
0
39
0
210
0
220
0
230
1
0
LINE
5
23D
100
AcDbEntity
8
SK2
62
256
6
ByLayer
370
-1
48
1
60
0
100
AcDbLine
10
-70.332003
20
12.821002
30
0
11
-71.167997
21
12.820998
31
0
39
0
210
0
220
0
230
1
0
LINE
5
23E
100
AcDbEntity
8
SK2
62
256
6
ByLayer
370
-1
48
1
60
0
100
AcDbLine
10
-70.75
20
-15.996
30
0
11
-71.167997
21
-12.821002
31
0
39
0
210
0
220
0
230
1
0
LINE
5
23F
100
AcDbEntity
8
SK2
62
256
6
ByLayer
370
-1
48
1
60
0
100
AcDbLine
10
-70.75
20
-15.996
30
0
11
-70.332003
21
-12.820998
31
0
39
0
210
0
220
0
230
1
0
LINE
5
240
100
AcDbEntity
8
SK2
62
256
6
ByLayer
370
-1
48
1
60
0
100
AcDbLine
10
-71.167997
20
-12.821002
30
0
11
-70.332003
21
-12.820998
31
0
39
0
210
0
220
0
230
1
0
ENDBLK
5
242
100
AcDbEntity
8
0
100
AcDbBlockEnd
0
BLOCK
5
24F
100
AcDbEntity
8
0
100
AcDbBlockBegin
2
DimnDraft3D4
70
0
10
0
20
0
30
0
3
DimnDraft3D4
0
MTEXT
5
245
100
AcDbEntity
8
2
62
256
6
ByLayer
370
-1
48
1
60
0
100
AcDbMText
10
200.125
20
-7.787664
30
0
210
0
220
0
230
1
1
\W01.000;\fsimplex.shx,bigfont.shx;%%c42.0\P
40
4.5
41
0
44
1.084337
50
90
71
7
72
5
7
DEFAULT
0
LINE
5
246
100
AcDbEntity
8
2
62
256
6
ByLayer
370
-1
48
1
60
0
100
AcDbLine
10
191
20
21
30
0
11
203.25
21
21
31
0
39
0
210
0
220
0
230
1
0
LINE
5
247
100
AcDbEntity
8
2
62
256
6
ByLayer
370
-1
48
1
60
0
100
AcDbLine
10
191
20
-21
30
0
11
203.25
21
-21
31
0
39
0
210
0
220
0
230
1
0
LINE
5
248
100
AcDbEntity
8
2
62
256
6
ByLayer
370
-1
48
1
60
0
100
AcDbLine
10
201.25
20
21
30
0
11
201.25
21
-21
31
0
39
0
210
0
220
0
230
1
0
LINE
5
249
100
AcDbEntity
8
2
62
256
6
ByLayer
370
-1
48
1
60
0
100
AcDbLine
10
201.25
20
21
30
0
11
201.667997
21
17.825002
31
0
39
0
210
0
220
0
230
1
0
LINE
5
24A
100
AcDbEntity
8
2
62
256
6
ByLayer
370
-1
48
1
60
0
100
AcDbLine
10
201.25
20
21
30
0
11
200.832003
21
17.824998
31
0
39
0
210
0
220
0
230
1
0
LINE
5
24B
100
AcDbEntity
8
2
62
256
6
ByLayer
370
-1
48
1
60
0
100
AcDbLine
10
201.667997
20
17.825002
30
0
11
200.832003
21
17.824998
31
0
39
0
210
0
220
0
230
1
0
LINE
5
24C
100
AcDbEntity
8
2
62
256
6
ByLayer
370
-1
48
1
60
0
100
AcDbLine
10
201.25
20
-21
30
0
11
200.832003
21
-17.825002
31
0
39
0
210
0
220
0
230
1
0
LINE
5
24D
100
AcDbEntity
8
2
62
256
6
ByLayer
370
-1
48
1
60
0
100
AcDbLine
10
201.25
20
-21
30
0
11
201.667997
21
-17.824998
31
0
39
0
210
0
220
0
230
1
0
LINE
5
24E
100
AcDbEntity
8
2
62
256
6
ByLayer
370
-1
48
1
60
0
100
AcDbLine
10
200.832003
20
-17.825002
30
0
11
201.667997
21
-17.824998
31
0
39
0
210
0
220
0
230
1
0
ENDBLK
5
250
100
AcDbEntity
8
0
100
AcDbBlockEnd
0
ENDSEC
0
SECTION
2
ENTITIES
0
ARC
5
117
100
AcDbEntity
8
1
62
256
6
ByLayer
370
-1
48
1
60
0
100
AcDbCircle
39
0
10
-139.433013
20
-16.246
30
0
40
0.5
210
0
220
0
230
-1
100
AcDbArc
50
30
51
90
0
ARC
5
118
100
AcDbEntity
8
1
62
256
6
ByLayer
370
-1
48
1
60
0
100
AcDbCircle
39
0
10
-139.433013
20
16.246
30
0
40
0.5
210
0
220
0
230
-1
100
AcDbArc
50
270
51
330
0
ARC
5
119
100
AcDbEntity
8
1
62
256
6
ByLayer
370
-1
48
1
60
0
100
AcDbCircle
39
0
10
-139.958241
20
-16.246
30
0
40
0.5
210
0
220
0
230
-1
100
AcDbArc
50
90
51
99.548213
0
ARC
5
11A
100
AcDbEntity
8
1
62
256
6
ByLayer
370
-1
48
1
60
0
100
AcDbCircle
39
0
10
-139.958241
20
16.246
30
0
40
0.5
210
0
220
0
230
-1
100
AcDbArc
50
260.451787
51
270
0
ARC
5
11B
100
AcDbEntity
8
1
62
256
6
ByLayer
370
-1
48
1
60
0
100
AcDbCircle
39
0
10
162.287455
20
-9.354441
30
0
40
10
210
0
220
0
230
1
100
AcDbArc
50
260.451787
51
270
0
ARC
5
11C
100
AcDbEntity
8
1
62
256
6
ByLayer
370
-1
48
1
60
0
100
AcDbCircle
39
0
10
-178.816884
20
-29.354441
30
0
40
10
210
0
220
0
230
-1
100
AcDbArc
50
90
51
99.500332
0
ELLIPSE
5
11D
100
AcDbEntity
8
1
62
256
6
ByLayer
370
-1
48
1
60
0
100
AcDbEllipse
10
189.986273
20
-1E-06
30
0
11
554.23868348502
21
0.338193820458125
31
0
210
0
220
0
230
-1
40
0.034915
41
-1.62077218330564
42
-1.59148894362349
0
ELLIPSE
5
11E
100
AcDbEntity
8
1
62
256
6
ByLayer
370
-1
48
1
60
0
100
AcDbEllipse
10
184.012925
20
-0.939185
30
0
11
-1.99828781277435
21
0.082739454418831
31
0
210
0
220
0
230
1
40
0.536972
41
0
42
2.87871679653603
0
ELLIPSE
5
11F
100
AcDbEntity
8
1
62
256
6
ByLayer
370
-1
48
1
60
0
100
AcDbEllipse
10
184.012925
20
-0.939185
30
0
11
-1.99828781277435
21
0.082739454418831
31
0
210
0
220
0
230
1
40
0.536972
41
-2.95738139725887
42
-4.13512445574502E-16
0
ELLIPSE
5
120
100
AcDbEntity
8
1
62
256
6
ByLayer
370
-1
48
1
60
0
100
AcDbEllipse
10
184.278382
20
0.418663
30
0
11
2.54440197889743
21
20.1219438781056
31
0
210
0
220
0
230
-1
40
0.128081
41
-1.70237181879135
42
-1.48526197509026
0
ELLIPSE
5
121
100
AcDbEntity
8
1
62
256
6
ByLayer
370
-1
48
1
60
0
100
AcDbEllipse
10
176.766988
20
41.154067
30
0
11
5.46372451105407
21
-31.2576508694473
31
0
210
0
220
0
230
-1
40
0.81897
41
0.749456746755531
42
0.933750498954233
0
ELLIPSE
5
122
100
AcDbEntity
8
1
62
256
6
ByLayer
370
-1
48
1
60
0
100
AcDbEllipse
10
189.986273
20
0
30
0
11
554.238593393402
21
-16.329111203688
31
0
210
0
220
0
230
-1
40
0.018747
41
1.59095792979801
42
1.62024116977964
0
ELLIPSE
5
123
100
AcDbEntity
8
1
62
256
6
ByLayer
370
-1
48
1
60
0
100
AcDbEllipse
10
529.642222
20
73.953971
30
0
11
442.042579650404
21
77.9009065944355
31
0
210
0
220
0
230
-1
40
0.001268
41
-2.46987665721617
42
-2.46283860976283
0
ELLIPSE
5
124
100
AcDbEntity
8
1
62
256
6
ByLayer
370
-1
48
1
60
0
100
AcDbEllipse
10
184.012925
20
-0.939185
30
0
11
2.24807378937114
21
-0.093081886221184
31
0
210
0
220
0
230
1
40
0.536972
41
0.481993095677272
42
2.98922970501563
0
ELLIPSE
5
125
100
AcDbEntity
8
1
62
256
6
ByLayer
370
-1
48
1
60
0
100
AcDbEllipse
10
188.854784
20
0.434591
30
0
11
2.64120792750718
21
20.8875162516664
31
0
210
0
220
0
230
-1
40
0.128081
41
-1.72843667146866
42
-1.58447953732835
0
ELLIPSE
5
126
100
AcDbEntity
8
1
62
256
6
ByLayer
370
-1
48
1
60
0
100
AcDbEllipse
10
181.815278
20
0
30
0
11
3.6022413055348
21
-19.3415095034642
31
0
210
0
220
0
230
-1
40
0.196372
41
-3.06686856884586
42
-2.99256838608699
0
ELLIPSE
5
127
100
AcDbEntity
8
1
62
256
6
ByLayer
370
-1
48
1
60
0
100
AcDbEllipse
10
181.815278
20
0
30
0
11
5.19159749235162
21
19.3536058753588
31
0
210
0
220
0
230
-1
40
0.034634
41
-2.12660472640749
42
-2.05230454487037
0
ELLIPSE
5
128
100
AcDbEntity
8
1
62
256
6
ByLayer
370
-1
48
1
60
0
100
AcDbEllipse
10
182.914077
20
-24.632546
30
0
11
0.682659784360596
21
5.181738760956
31
0
210
0
220
0
230
-1
40
0.569262
41
-0.340452910740111
42
-0.00417836229337593
0
ELLIPSE
5
129
100
AcDbEntity
8
1
62
256
6
ByLayer
370
-1
48
1
60
0
100
AcDbEllipse
10
529.858471
20
-39.382066
30
0
11
442.261277281306
21
-41.5735980283667
31
0
210
0
220
0
230
-1
40
0.04649
41
2.45844146719707
42
2.46588171341882
0
ELLIPSE
5
12A
100
AcDbEntity
8
1
62
256
6
ByLayer
370
-1
48
1
60
0
100
AcDbEllipse
10
176.62739
20
-25.10194
30
0
11
30.127996923325
21
-0.475908279682589
31
0
210
0
220
0
230
-1
40
0.558086
41
-2.36795657688378
42
-2.00235155870198
0
ELLIPSE
5
12B
100
AcDbEntity
8
1
62
256
6
ByLayer
370
-1
48
1
60
0
100
AcDbEllipse
10
187.868946
20
-9.84174
30
0
11
0.514827687866481
21
0.051551473144133
31
0
210
0
220
0
230
-1
40
0.479685
41
0.0103878684603512
42
0.233665928518535
0
ELLIPSE
5
12C
100
AcDbEntity
8
1
62
256
6
ByLayer
370
-1
48
1
60
0
100
AcDbEllipse
10
182.517294
20
-4.930667
30
0
11
0.31310128904948
21
5.17674306195214
31
0
210
0
220
0
230
-1
40
0.152687
41
-3.13192405870123
42
-3.07277108562862
0
ELLIPSE
5
12D
100
AcDbEntity
8
1
62
256
6
ByLayer
370
-1
48
1
60
0
100
AcDbEllipse
10
179.644752
20
-8.287362
30
0
11
0.498239780215627
21
-0.0419180320468902
31
0
210
0
220
0
230
1
40
0.618721
41
2.902065617953
42
2.99461698975071
0
ELLIPSE
5
12E
100
AcDbEntity
8
1
62
256
6
ByLayer
370
-1
48
1
60
0
100
AcDbEllipse
10
182.78827
20
-1.65799
30
0
11
0.588179548874395
21
8.45483719321815
31
0
210
0
220
0
230
-1
40
0.093479
41
-3.07736876860979
42
-2.35112357703221
0
ELLIPSE
5
12F
100
AcDbEntity
8
1
62
256
6
ByLayer
370
-1
48
1
60
0
100
AcDbEllipse
10
179.778141
20
-7.313429
30
0
11
0.482561888365104
21
-0.130896997282233
31
0
210
0
220
0
230
1
40
0.161142
41
-3.14158927107261
42
-2.95160290834548
0
ELLIPSE
5
130
100
AcDbEntity
8
1
62
256
6
ByLayer
370
-1
48
1
60
0
100
AcDbEllipse
10
186.96375
20
-9.184639
30
0
11
0.169404455601624
21
0.470427603805642
31
0
210
0
220
0
230
1
40
0.148957
41
-1.93568490713573
42
-1.84313353533814
0
ELLIPSE
5
131
100
AcDbEntity
8
1
62
256
6
ByLayer
370
-1
48
1
60
0
100
AcDbEllipse
10
188.368518
20
-6.326905
30
0
11
0.826613681098805
21
-0.0403568821097454
31
0
210
0
220
0
230
-1
40
0.519456
41
2.49959690863879
42
2.89057786881972
0
ELLIPSE
5
132
100
AcDbEntity
8
1
62
256
6
ByLayer
370
-1
48
1
60
0
100
AcDbEllipse
10
188.070717
20
-3.003903
30
0
11
0.47734166917873
21
-4.91252350232752
31
0
210
0
220
0
230
-1
40
0.036343
41
-0.141060928398248
42
-0.0819079523604773
0
ELLIPSE
5
133
100
AcDbEntity
8
1
62
256
6
ByLayer
370
-1
48
1
60
0
100
AcDbEllipse
10
182.297844
20
-7.581033
30
0
11
0.800243631877341
21
-0.0264478565997085
31
0
210
0
220
0
230
-1
40
0.55497
41
-2.19391326469721
42
-1.79021831437184
0
ELLIPSE
5
134
100
AcDbEntity
8
1
62
256
6
ByLayer
370
-1
48
1
60
0
100
AcDbEllipse
10
188.187784
20
-5.440255
30
0
11
-0.457933234729082
21
0.200741506745763
31
0
210
0
220
0
230
1
40
0.98788
41
-2.60781244823015
42
-2.51190511433756
0
ELLIPSE
5
135
100
AcDbEntity
8
1
62
256
6
ByLayer
370
-1
48
1
60
0
100
AcDbEllipse
10
179.807751
20
-7.875972
30
0
11
0.475002563671405
21
-0.156117149940653
31
0
210
0
220
0
230
1
40
0.403042
41
-2.93650350674843
42
-1.61203640920826
0
ELLIPSE
5
136
100
AcDbEntity
8
1
62
256
6
ByLayer
370
-1
48
1
60
0
100
AcDbEllipse
10
187.868946
20
-4.557325
30
0
11
0.515320984440385
21
0.0180881925958109
31
0
210
0
220
0
230
-1
40
0.561997
41
-0.0178838128768336
42
0.205394245487542
0
ELLIPSE
5
137
100
AcDbEntity
8
1
62
256
6
ByLayer
370
-1
48
1
60
0
100
AcDbEllipse
10
185.561941
20
-7.408583
30
0
11
0.540910279253885
21
-0.056698750076645
31
0
210
0
220
0
230
-1
40
0.505159
41
1.38553139645599
42
1.60880945503797
0
ELLIPSE
5
138
100
AcDbEntity
8
1
62
256
6
ByLayer
370
-1
48
1
60
0
100
AcDbEllipse
10
188.105853
20
-4.802739
30
0
11
0.479869359527022
21
0.14044713520441
31
0
210
0
220
0
230
1
40
0.627103
41
-0.117619709398536
42
8.79682050417489E-06
0
ELLIPSE
5
139
100
AcDbEntity
8
1
62
256
6
ByLayer
370
-1
48
1
60
0
100
AcDbEllipse
10
186.033673
20
-8.628491
30
0
11
0.466347055917933
21
0.180334199298625
31
0
210
0
220
0
230
1
40
0.297879
41
-1.86203742153731
42
-1.63875936124158
0
ELLIPSE
5
13A
100
AcDbEntity
8
1
62
256
6
ByLayer
370
-1
48
1
60
0
100
AcDbEllipse
10
184.596495
20
-1.882722
30
0
11
0.588179548889108
21
8.45483719341911
31
0
210
0
220
0
230
-1
40
0.093479
41
2.36126540335165
42
3.08751059491977
0
ELLIPSE
5
13B
100
AcDbEntity
8
1
62
256
6
ByLayer
370
-1
48
1
60
0
100
AcDbEllipse
10
187.042238
20
-8.66087
30
0
11
0.497576475730593
21
0.0491696125622576
31
0
210
0
220
0
230
1
40
0.304562
41
-1.55682789039014
42
-0.232360792850006
0
ELLIPSE
5
13C
100
AcDbEntity
8
1
62
256
6
ByLayer
370
-1
48
1
60
0
100
AcDbEllipse
10
186.203142
20
-8.872555
30
0
11
0.209222855644951
21
0.454120905349855
31
0
210
0
220
0
230
1
40
0.17177
41
-1.92522620016522
42
-1.82931886627251
0
ELLIPSE
5
13D
100
AcDbEntity
8
1
62
256
6
ByLayer
370
-1
48
1
60
0
100
AcDbEllipse
10
187.30915
20
-0.089467
30
0
11
1.24483885849719
21
-7.82534853659215
31
0
210
0
220
0
230
-1
40
0.025653
41
-0.834914002925173
42
-0.108668811362384
0
ELLIPSE
5
13E
100
AcDbEntity
8
1
62
256
6
ByLayer
370
-1
48
1
60
0
100
AcDbEllipse
10
187.751766
20
-3.96666
30
0
11
0.477341646455888
21
-4.91252326008161
31
0
210
0
220
0
230
-1
40
0.036343
41
-0.0819079543997811
42
-0.0227549769195474
0
ELLIPSE
5
13F
100
AcDbEntity
8
1
62
256
6
ByLayer
370
-1
48
1
60
0
100
AcDbEllipse
10
186.919837
20
-7.422226
30
0
11
0.503713644343996
21
-0.0345806800584444
31
0
210
0
220
0
230
-1
40
0.548992
41
0.140056311226626
42
1.46452340878549
0
ELLIPSE
5
140
100
AcDbEntity
8
1
62
256
6
ByLayer
370
-1
48
1
60
0
100
AcDbEllipse
10
179.710256
20
-7.61433
30
0
11
0.497037994642178
21
-0.0543436461978998
31
0
210
0
220
0
230
1
40
0.54921
41
2.91667327818246
42
3.01258061207506
0
ELLIPSE
5
141
100
AcDbEntity
8
1
62
256
6
ByLayer
370
-1
48
1
60
0
100
AcDbEllipse
10
186.9902
20
-1.052224
30
0
11
1.24483885856128
21
-7.82534853704841
31
0
210
0
220
0
230
-1
40
0.025653
41
0.009637132287539
42
0.735882323828395
0
ELLIPSE
5
142
100
AcDbEntity
8
1
62
256
6
ByLayer
370
-1
48
1
60
0
100
AcDbEllipse
10
184.325518
20
-5.155399
30
0
11
0.313101300234385
21
5.17674321989099
31
0
210
0
220
0
230
-1
40
0.152687
41
3.09210827611494
42
-3.13192405889606
0
ELLIPSE
5
143
100
AcDbEntity
8
1
62
256
6
ByLayer
370
-1
48
1
60
0
100
AcDbEllipse
10
187.819936
20
-3.825839
30
0
11
0.516689637126722
21
-0.00847918346494765
31
0
210
0
220
0
230
-1
40
0.524082
41
-0.748248644951951
42
-0.043734718710131
0
ELLIPSE
5
144
100
AcDbEntity
8
1
62
256
6
ByLayer
370
-1
48
1
60
0
100
AcDbEllipse
10
180.181158
20
-6.739842
30
0
11
0.516689637126648
21
-0.00847918346486221
31
0
210
0
220
0
230
-1
40
0.524082
41
1.77339083732392
42
2.6265970376592
0
ELLIPSE
5
145
100
AcDbEntity
8
1
62
256
6
ByLayer
370
-1
48
1
60
0
100
AcDbEllipse
10
188.137035
20
-5.327295
30
0
11
0.472196375297659
21
0.164409802492893
31
0
210
0
220
0
230
1
40
0.803685
41
-0.377500180500594
42
-0.154222120204828
0
ELLIPSE
5
146
100
AcDbEntity
8
1
62
256
6
ByLayer
370
-1
48
1
60
0
100
AcDbEllipse
10
184.106069
20
-7.805765
30
0
11
0.80024363187306
21
-0.0264478566022235
31
0
210
0
220
0
230
-1
40
0.55497
41
-1.03507071898185
42
-0.623116937903352
0
ELLIPSE
5
147
100
AcDbEntity
8
1
62
256
6
ByLayer
370
-1
48
1
60
0
100
AcDbEllipse
10
188.687468
20
-5.364148
30
0
11
0.826613681112903
21
-0.0403568821147478
31
0
210
0
220
0
230
-1
40
0.519456
41
-2.60282861057789
42
-2.21279207175582
0
ELLIPSE
5
148
100
AcDbEntity
8
1
62
256
6
ByLayer
370
-1
48
1
60
0
100
AcDbEllipse
10
183.899519
20
15.796192
30
0
11
-0.539365938504562
21
-1.07922501563905
31
0
210
0
220
0
230
1
40
0.999239
41
-0.863401502482264
42
0.116158689142863
0
ELLIPSE
5
149
100
AcDbEntity
8
1
62
256
6
ByLayer
370
-1
48
1
60
0
100
AcDbEllipse
10
183.859257
20
15.816313
30
0
11
0.539365938504538
21
1.07922501563906
31
0
210
0
220
0
230
1
40
0.999239
41
2.1401258842832
42
2.2781911511075
0
ELLIPSE
5
14A
100
AcDbEntity
8
1
62
256
6
ByLayer
370
-1
48
1
60
0
100
AcDbEllipse
10
183.849787
20
15.821046
30
0
11
0.749479482720977
21
1.49964420946447
31
0
210
0
220
0
230
1
40
0.999239
41
2.73554784097496
42
-2.50323046268935
0
ELLIPSE
5
14B
100
AcDbEntity
8
1
62
256
6
ByLayer
370
-1
48
1
60
0
100
AcDbEllipse
10
183.849787
20
15.821046
30
0
11
0.749479482720977
21
1.49964420946447
31
0
210
0
220
0
230
1
40
0.999239
41
-2.50323046268935
42
-1.45882345917409
0
ELLIPSE
5
14C
100
AcDbEntity
8
1
62
256
6
ByLayer
370
-1
48
1
60
0
100
AcDbEllipse
10
183.899519
20
15.796192
30
0
11
-0.539365938504562
21
-1.07922501563905
31
0
210
0
220
0
230
1
40
0.999239
41
0.145532765451878
42
1.02513558794947
0
ELLIPSE
5
14D
100
AcDbEntity
8
1
62
256
6
ByLayer
370
-1
48
1
60
0
100
AcDbEllipse
10
183.859257
20
15.816313
30
0
11
0.539365938504538
21
1.07922501563906
31
0
210
0
220
0
230
1
40
0.999239
41
-1.00146676930625
42
-0.863401502482638
0
ELLIPSE
5
14E
100
AcDbEntity
8
1
62
256
6
ByLayer
370
-1
48
1
60
0
100
AcDbEllipse
10
183.899519
20
15.796192
30
0
11
0.539365938504537
21
1.07922501563906
31
0
210
0
220
0
230
1
40
0.999239
41
0.234192933554055
42
1.16056569265805
0
ELLIPSE
5
14F
100
AcDbEntity
8
1
62
256
6
ByLayer
370
-1
48
1
60
0
100
AcDbEllipse
10
183.899519
20
15.796192
30
0
11
-0.539365938504562
21
-1.07922501563905
31
0
210
0
220
0
230
1
40
0.999239
41
-1.98102696093172
42
-1.00146676930656
0
ELLIPSE
5
150
100
AcDbEntity
8
1
62
256
6
ByLayer
370
-1
48
1
60
0
100
AcDbEllipse
10
183.849787
20
15.821046
30
0
11
0.749479482720977
21
1.49964420946447
31
0
210
0
220
0
230
1
40
0.999239
41
-1.45882345917409
42
-0.406044812614835
0
ELLIPSE
5
151
100
AcDbEntity
8
1
62
256
6
ByLayer
370
-1
48
1
60
0
100
AcDbEllipse
10
182.68572
20
17.246593
30
0
11
-0.306676364537198
21
-0.613633121200484
31
0
210
0
220
0
230
1
40
0.999239
41
1.16056569265811
42
1.94455633627891
0
ELLIPSE
5
152
100
AcDbEntity
8
1
62
256
6
ByLayer
370
-1
48
1
60
0
100
AcDbEllipse
10
183.849787
20
15.821046
30
0
11
0.749479482720977
21
1.49964420946447
31
0
210
0
220
0
230
1
40
0.999239
41
1.68276919441569
42
2.73554784097496
0
ELLIPSE
5
153
100
AcDbEntity
8
1
62
256
6
ByLayer
370
-1
48
1
60
0
100
AcDbEllipse
10
183.899519
20
15.796192
30
0
11
0.539365938504537
21
1.07922501563906
31
0
210
0
220
0
230
1
40
0.999239
41
2.14012588428321
42
2.2781911511075
0
ELLIPSE
5
154
100
AcDbEntity
8
1
62
256
6
ByLayer
370
-1
48
1
60
0
100
AcDbEllipse
10
183.849787
20
15.821046
30
0
11
0.749479482720977
21
1.49964420946447
31
0
210
0
220
0
230
1
40
0.999239
41
0.638362190900499
42
1.68276919441569
0
ELLIPSE
5
155
100
AcDbEntity
8
1
62
256
6
ByLayer
370
-1
48
1
60
0
100
AcDbEllipse
10
182.04474
20
15.46775
30
0
11
-0.306676364537198
21
-0.613633121200484
31
0
210
0
220
0
230
1
40
0.999239
41
2.33077255891269
42
3.00041985261671
0
ELLIPSE
5
156
100
AcDbEntity
8
1
62
256
6
ByLayer
370
-1
48
1
60
0
100
AcDbEllipse
10
183.899519
20
15.796192
30
0
11
-0.539365938504562
21
-1.07922501563905
31
0
210
0
220
0
230
1
40
0.999239
41
1.26609816959459
42
2.07740385205471
0
ELLIPSE
5
157
100
AcDbEntity
8
1
62
256
6
ByLayer
370
-1
48
1
60
0
100
AcDbEllipse
10
183.849787
20
15.821046
30
0
11
0.749479482720977
21
1.49964420946447
31
0
210
0
220
0
230
1
40
0.999239
41
-0.406044812614835
42
0.638362190900499
0
ELLIPSE
5
158
100
AcDbEntity
8
1
62
256
6
ByLayer
370
-1
48
1
60
0
100
AcDbEllipse
10
183.899519
20
15.796192
30
0
11
-0.539365938504562
21
-1.07922501563905
31
0
210
0
220
0
230
1
40
0.999239
41
2.35542317372087
42
-3.02543396444698
0
ELLIPSE
5
159
100
AcDbEntity
8
1
62
256
6
ByLayer
370
-1
48
1
60
0
100
AcDbEllipse
10
184.543811
20
17.575622
30
0
11
-0.306676364537198
21
-0.613633121200484
31
0
210
0
220
0
230
1
40
0.999239
41
0.116158689142775
42
0.900149332763519
0
ELLIPSE
5
15A
100
AcDbEntity
8
1
62
256
6
ByLayer
370
-1
48
1
60
0
100
AcDbEllipse
10
183.849787
20
15.821046
30
0
11
0.804690169339549
21
1.61011606145901
31
0
210
0
220
0
230
1
40
0.999239
41
0
42
6.28318530717959
0
ELLIPSE
5
15B
100
AcDbEntity
8
1
62
256
6
ByLayer
370
-1
48
1
60
0
100
AcDbEllipse
10
183.860843
20
15.815521
30
0
11
1.21821150636126
21
2.43753681526434
31
0
210
0
220
0
230
1
40
0.999239
41
-2.02164300871846
42
-1.10763580384218
0
ELLIPSE
5
15C
100
AcDbEntity
8
1
62
256
6
ByLayer
370
-1
48
1
60
0
100
AcDbEllipse
10
183.860843
20
15.815521
30
0
11
1.21821150636126
21
2.43753681526434
31
0
210
0
220
0
230
1
40
0.999239
41
-1.10763617087041
42
0
0
ELLIPSE
5
15D
100
AcDbEntity
8
1
62
256
6
ByLayer
370
-1
48
1
60
0
100
AcDbEllipse
10
183.860843
20
15.815521
30
0
11
1.21821150636126
21
2.43753681526434
31
0
210
0
220
0
230
1
40
0.999239
41
0
42
-3.03922479817235
0
ELLIPSE
5
15E
100
AcDbEntity
8
1
62
256
6
ByLayer
370
-1
48
1
60
0
100
AcDbEllipse
10
183.895156
20
15.798372
30
0
11
1.21821150636126
21
2.43753681526434
31
0
210
0
220
0
230
1
40
0.999239
41
-2.01683241216868
42
-1.10763580384218
0
ELLIPSE
5
15F
100
AcDbEntity
8
1
62
256
6
ByLayer
370
-1
48
1
60
0
100
AcDbEllipse
10
183.895156
20
15.798372
30
0
11
1.21821150636126
21
2.43753681526434
31
0
210
0
220
0
230
1
40
0.999239
41
-3.14152278624372
42
-3.05797602045744
0
ELLIPSE
5
160
100
AcDbEntity
8
1
62
256
6
ByLayer
370
-1
48
1
60
0
100
AcDbEllipse
10
183.895156
20
15.798372
30
0
11
1.21821150636126
21
2.43753681526434
31
0
210
0
220
0
230
1
40
0.999239
41
-1.10763617087041
42
0
0
ELLIPSE
5
161
100
AcDbEntity
8
1
62
256
6
ByLayer
370
-1
48
1
60
0
100
AcDbEllipse
10
184.139869
20
14.433094
30
0
11
-0.130538627470644
21
-0.26119660552557
31
0
210
0
220
0
230
1
40
0.999239
41
-0.667831954478122
42
1.2091842290083E-06
0
ELLIPSE
5
162
100
AcDbEntity
8
1
62
256
6
ByLayer
370
-1
48
1
60
0
100
AcDbEllipse
10
183.255226
20
14.016762
30
0
11
-0.306676364537198
21
-0.613633121200484
31
0
210
0
220
0
230
1
40
0.999239
41
2.47376069911187
42
3.14158631878999
0
ELLIPSE
5
163
100
AcDbEntity
8
1
62
256
6
ByLayer
370
-1
48
1
60
0
100
AcDbEllipse
10
182.842115
20
14.902724
30
0
11
-0.130538627470644
21
-0.26119660552557
31
0
210
0
220
0
230
1
40
0.999239
41
-1.72369547081555
42
-0.132498298292836
0
ELLIPSE
5
164
100
AcDbEntity
8
1
62
256
6
ByLayer
370
-1
48
1
60
0
100
AcDbEllipse
10
182.04474
20
15.46775
30
0
11
-0.306676364537198
21
-0.613633121200484
31
0
210
0
220
0
230
1
40
0.999239
41
1.41789718277406
42
2.08754447647802
0
ELLIPSE
5
165
100
AcDbEntity
8
1
62
256
6
ByLayer
370
-1
48
1
60
0
100
AcDbEllipse
10
182.600604
20
16.272405
30
0
11
-0.130538627470644
21
-0.26119660552557
31
0
210
0
220
0
230
1
40
0.999239
41
-2.76501760455231
42
-0.141172800973414
0
ELLIPSE
5
166
100
AcDbEntity
8
1
62
256
6
ByLayer
370
-1
48
1
60
0
100
AcDbEllipse
10
182.68572
20
17.246593
30
0
11
-0.306676364537198
21
-0.613633121200484
31
0
210
0
220
0
230
1
40
0.999239
41
0.376575049037129
42
1.16056569265811
0
ELLIPSE
5
167
100
AcDbEntity
8
1
62
256
6
ByLayer
370
-1
48
1
60
0
100
AcDbEllipse
10
183.659168
20
17.159289
30
0
11
-0.130538627470644
21
-0.26119660552557
31
0
210
0
220
0
230
1
40
0.999239
41
-2.98137892648001
42
-1.19703631731092
0
ELLIPSE
5
168
100
AcDbEntity
8
1
62
256
6
ByLayer
370
-1
48
1
60
0
100
AcDbEllipse
10
184.956922
20
16.689659
30
0
11
-0.130538627470644
21
-0.26119660552557
31
0
210
0
220
0
230
1
40
0.999239
41
3.14155985298531
42
-2.24144332082599
0
ELLIPSE
5
169
100
AcDbEntity
8
1
62
256
6
ByLayer
370
-1
48
1
60
0
100
AcDbEllipse
10
184.146432
20
-1.759476
30
0
11
-1.59863025021948
21
0.0661915635350648
31
0
210
0
220
0
230
1
40
0.536972
41
-2.84899581776154
42
-0.0726132573319288
0
ELLIPSE
5
16A
100
AcDbEntity
8
1
62
256
6
ByLayer
370
-1
48
1
60
0
100
AcDbEllipse
10
184.132473
20
-2.096627
30
0
11
-1.99828781277435
21
0.082739454418831
31
0
210
0
220
0
230
1
40
0.536972
41
-2.49595952845309
42
-2.45158441667193
0
ELLIPSE
5
16B
100
AcDbEntity
8
1
62
256
6
ByLayer
370
-1
48
1
60
0
100
AcDbEllipse
10
184.132473
20
-2.096627
30
0
11
-1.99828781277435
21
0.082739454418831
31
0
210
0
220
0
230
1
40
0.536972
41
-0.689936232343936
42
-0.489855964966451
0
ELLIPSE
5
16C
100
AcDbEntity
8
1
62
256
6
ByLayer
370
-1
48
1
60
0
100
AcDbEllipse
10
183.860949
20
15.815468
30
0
11
-1.25392643579833
21
-2.50899932805679
31
0
210
0
220
0
230
1
40
0.999239
41
-1.10763600855264
42
-0.0146163340649896
0
ELLIPSE
5
16D
100
AcDbEntity
8
1
62
256
6
ByLayer
370
-1
48
1
60
0
100
AcDbEllipse
10
183.860949
20
15.815468
30
0
11
-1.25392643579833
21
-2.50899932805679
31
0
210
0
220
0
230
1
40
0.999239
41
0
42
6.28318530717959
0
ELLIPSE
5
16E
100
AcDbEntity
8
1
62
256
6
ByLayer
370
-1
48
1
60
0
100
AcDbEllipse
10
183.860949
20
15.815468
30
0
11
-1.25392643579833
21
-2.50899932805679
31
0
210
0
220
0
230
1
40
0.999239
41
1.12185486900026
42
-1.10763600855264
0
POINT
5
42
100
AcDbEntity
8
80
62
256
6
ByLayer
370
-1
48
1
60
0
100
AcDbPoint
10
0
20
0
30
0
39
0
210
0
220
0
230
1
50
360
0
POINT
5
44
100
AcDbEntity
8
2
62
256
6
ByLayer
370
-1
48
1
60
0
100
AcDbPoint
10
189
20
20.96
30
0
39
0
210
0
220
0
230
1
50
360
0
POINT
5
46
100
AcDbEntity
8
81
62
256
6
ByLayer
370
-1
48
1
60
0
100
AcDbPoint
10
189
20
20.96
30
0
39
0
210
0
220
0
230
1
50
360
0
POINT
5
48
100
AcDbEntity
8
4
62
256
6
ByLayer
370
-1
48
1
60
0
100
AcDbPoint
10
179.54898
20
19.823738
30
0
39
0
210
0
220
0
230
1
50
360
0
POINT
5
4A
100
AcDbEntity
8
4
62
256
6
ByLayer
370
-1
48
1
60
0
100
AcDbPoint
10
178.723199
20
18.842608
30
0
39
0
210
0
220
0
230
1
50
360
0
POINT
5
4B
100
AcDbEntity
8
4
62
256
6
ByLayer
370
-1
48
1
60
0
100
AcDbPoint
10
179.54898
20
19.823738
30
0
39
0
210
0
220
0
230
1
50
360
0
POINT
5
4C
100
AcDbEntity
8
4
62
256
6
ByLayer
370
-1
48
1
60
0
100
AcDbPoint
10
179.844239
20
19.876022
30
0
39
0
210
0
220
0
230
1
50
360
0
POINT
5
4D
100
AcDbEntity
8
4
62
256
6
ByLayer
370
-1
48
1
60
0
100
AcDbPoint
10
179.550519
20
19.822969
30
0
39
0
210
0
220
0
230
1
50
360
0
POINT
5
4E
100
AcDbEntity
8
4
62
256
6
ByLayer
370
-1
48
1
60
0
100
AcDbPoint
10
178.723199
20
18.842608
30
0
39
0
210
0
220
0
230
1
50
360
0
POINT
5
4F
100
AcDbEntity
8
4
62
256
6
ByLayer
370
-1
48
1
60
0
100
AcDbPoint
10
178.724738
20
18.841839
30
0
39
0
210
0
220
0
230
1
50
360
0
POINT
5
50
100
AcDbEntity
8
4
62
256
6
ByLayer
370
-1
48
1
60
0
100
AcDbPoint
10
178.723199
20
18.842608
30
0
39
0
210
0
220
0
230
1
50
360
0
POINT
5
51
100
AcDbEntity
8
4
62
256
6
ByLayer
370
-1
48
1
60
0
100
AcDbPoint
10
178.723216
20
18.542654
30
0
39
0
210
0
220
0
230
1
50
360
0
POINT
5
52
100
AcDbEntity
8
4
62
256
6
ByLayer
370
-1
48
1
60
0
100
AcDbPoint
10
178.723199
20
18.842608
30
0
39
0
210
0
220
0
230
1
50
360
0
POINT
5
53
100
AcDbEntity
8
4
62
256
6
ByLayer
370
-1
48
1
60
0
100
AcDbPoint
10
178.973047
20
18.842775
30
0
39
0
210
0
220
0
230
1
50
360
0
POINT
5
54
100
AcDbEntity
8
4
62
256
6
ByLayer
370
-1
48
1
60
0
100
AcDbPoint
10
179.54898
20
19.823738
30
0
39
0
210
0
220
0
230
1
50
360
0
POINT
5
55
100
AcDbEntity
8
4
62
256
6
ByLayer
370
-1
48
1
60
0
100
AcDbPoint
10
179.54898
20
19.823738
30
0
39
0
210
0
220
0
230
1
50
360
0
POINT
5
56
100
AcDbEntity
8
4
62
256
6
ByLayer
370
-1
48
1
60
0
100
AcDbPoint
10
179.59238
20
19.577603
30
0
39
0
210
0
220
0
230
1
50
360
0
SPLINE
5
16F
100
AcDbEntity
8
1
62
256
6
ByLayer
370
-1
48
1
60
0
100
AcDbSpline
70
4
71
1
72
4
73
2
40
0
40
0
40
1
40
1
41
1
10
179.269265791934
20
-7.28250427341732
30
5E-16
41
1
10
178.898167041123
20
-8.74373194866453
30
5E-16
0
SPLINE
5
170
100
AcDbEntity
8
1
62
256
6
ByLayer
370
-1
48
1
60
0
100
AcDbSpline
70
4
71
1
72
4
73
2
40
0
40
0
40
1
40
1
41
1
10
178.889664252601
20
-8.7830814681391
30
5E-16
41
1
10
178.732609661566
20
-9.61609434254004
30
5E-16
0
SPLINE
5
171
100
AcDbEntity
8
1
62
256
6
ByLayer
370
-1
48
1
60
0
100
AcDbSpline
70
4
71
3
72
12
73
8
40
0
40
0
40
0
40
0
40
0.0443056255207588
40
0.20948382150885
40
0.48180839660323
40
0.922637318665389
40
1
40
1
40
1
40
1
41
1
10
188.707020316678
20
-5.11556819428193
30
-7E-16
41
1
10
188.705267916924
20
-5.10793134284219
30
-7E-16
41
1
10
188.696950581833
20
-5.07213258217379
30
-7E-16
41
1
10
188.677049806777
20
-4.99450154802093
30
-7E-16
41
1
10
188.641515274967
20
-4.85932183964903
30
-7E-16
41
1
10
188.609297535859
20
-4.74365498700766
30
-7E-16
41
1
10
188.588984583436
20
-4.67387352297109
30
-7E-16
41
1
10
188.585960546814
20
-4.66355759964137
30
-7E-16
0
SPLINE
5
172
100
AcDbEntity
8
1
62
256
6
ByLayer
370
-1
48
1
60
0
100
AcDbSpline
70
4
71
2
72
6
73
3
40
0
40
0
40
0
40
1
40
1
40
1
41
1
10
188.723949173938
20
-5.19583352483698
30
-7E-16
41
1
10
188.716804181707
20
-5.15494995717421
30
-7E-16
41
1
10
188.707020316678
20
-5.11556819428193
30
-7E-16
0
SPLINE
5
173
100
AcDbEntity
8
1
62
256
6
ByLayer
370
-1
48
1
60
0
100
AcDbSpline
70
4
71
1
72
4
73
2
40
0
40
0
40
1
40
1
41
1
10
188.993789149902
20
-7.117061612763
30
-7E-16
41
1
10
188.909458290483
20
-6.3058856930306
30
-7E-16
0
SPLINE
5
174
100
AcDbEntity
8
1
62
256
6
ByLayer
370
-1
48
1
60
0
100
AcDbSpline
70
4
71
1
72
4
73
2
40
0
40
0
40
1
40
1
41
1
10
188.937257841257
20
-6.5732849086813
30
-7E-16
41
1
10
188.996230750809
20
-5.97625542853481
30
-7E-16
0
SPLINE
5
175
100
AcDbEntity
8
1
62
256
6
ByLayer
370
-1
48
1
60
0
100
AcDbSpline
70
4
71
2
72
6
73
3
40
0
40
0
40
0
40
1
40
1
40
1
41
1
10
187.061906115215
20
8.46197734923788
30
1E-16
41
1
10
187.036806042631
20
8.55876294765838
30
1E-16
41
1
10
187.012393084599
20
8.65543864177477
30
1E-16
0
SPLINE
5
176
100
AcDbEntity
8
1
62
256
6
ByLayer
370
-1
48
1
60
0
100
AcDbSpline
70
4
71
3
72
21
73
17
40
0
40
0
40
0
40
0
40
0.0974270939638225
40
0.203124688802158
40
0.290723218503903
40
0.361980628044141
40
0.425506542913539
40
0.481919269510578
40
0.533478818123382
40
0.589027330854778
40
0.681227186329986
40
0.771334836878801
40
0.852226527077662
40
0.911238341177436
40
0.990152530532063
40
1
40
1
40
1
40
1
41
1
10
186.766241924007
20
-18.381953531425
30
-8E-16
41
1
10
186.813208069815
20
-18.1635221157649
30
-8E-16
41
1
10
186.911478095137
20
-17.7082206039011
30
-8E-16
41
1
10
187.053947907738
20
-17.0571567904449
30
-8E-16
41
1
10
187.183212476535
20
-16.4645027275447
30
-8E-16
41
1
10
187.293561622669
20
-15.9663585376933
30
-8E-16
41
1
10
187.388098817838
20
-15.5380874009076
30
-8E-16
41
1
10
187.473591492032
20
-15.1541168871199
30
-8E-16
41
1
10
187.555598369358
20
-14.7879692146507
30
-8E-16
41
1
10
187.655804118742
20
-14.3428146722445
30
-8E-16
41
1
10
187.774516991403
20
-13.8158068631141
30
-8E-16
41
1
10
187.908287158501
20
-13.2353935475617
30
-7E-16
41
1
10
188.023704745172
20
-12.7301417412063
30
-7E-16
41
1
10
188.137279168989
20
-12.2466006790315
30
-7E-16
41
1
10
188.213053670687
20
-11.9194647056982
30
-7E-16
41
1
10
188.259600325101
20
-11.7238717457896
30
-7E-16
41
1
10
188.264768994084
20
-11.7021766878931
30
-7E-16
0
SPLINE
5
177
100
AcDbEntity
8
1
62
256
6
ByLayer
370
-1
48
1
60
0
100
AcDbSpline
70
4
71
3
72
8
73
4
40
0
40
0
40
0
40
0
40
1
40
1
40
1
40
1
41
1
10
188.994909315676
20
12.7875926578923
30
0
41
1
10
188.996362832747
20
12.8754068923641
30
0
41
1
10
188.997684473978
20
12.9632210789835
30
0
41
1
10
188.998874259103
20
13.0510346217774
30
0
0
SPLINE
5
178
100
AcDbEntity
8
1
62
256
6
ByLayer
370
-1
48
1
60
0
100
AcDbSpline
70
4
71
3
72
8
73
4
40
0
40
0
40
0
40
0
40
1
40
1
40
1
40
1
41
1
10
181.238310242853
20
-19.418743734282
30
2E-16
41
1
10
181.683042322832
20
-19.4854881501079
30
2E-16
41
1
10
182.12780150959
20
-19.5520576240702
30
-2E-16
41
1
10
182.572586766879
20
-19.6184575613313
30
-2E-16
0
SPLINE
5
179
100
AcDbEntity
8
1
62
256
6
ByLayer
370
-1
48
1
60
0
100
AcDbSpline
70
4
71
3
72
8
73
4
40
0
40
0
40
0
40
0
40
1
40
1
40
1
40
1
41
1
10
188.011542138909
20
-12.1419636302303
30
1E-16
41
1
10
188.103242744511
20
-11.9811568561226
30
2E-16
41
1
10
188.19002588869
20
-11.7769934226085
30
2E-16
41
1
10
188.264791773527
20
-11.5735719263298
30
2E-16
0
SPLINE
5
17A
100
AcDbEntity
8
1
62
256
6
ByLayer
370
-1
48
1
60
0
100
AcDbSpline
70
4
71
3
72
8
73
4
40
0
40
0
40
0
40
0
40
1
40
1
40
1
40
1
41
1
10
178.816884401257
20
-19.179574105523
30
0
41
1
10
179.36952796588
20
-19.176463969528
30
1E-16
41
1
10
179.923665731623
20
-19.2175591209295
30
1E-16
41
1
10
180.467417539874
20
-19.3014257489092
30
1E-16
0
SPLINE
5
17B
100
AcDbEntity
8
1
62
256
6
ByLayer
370
-1
48
1
60
0
100
AcDbSpline
70
4
71
3
72
8
73
4
40
0
40
0
40
0
40
0
40
1
40
1
40
1
40
1
41
1
10
178.895678307211
20
-8.48758625155702
30
5E-16
41
1
10
178.869291902599
20
-8.59325472141794
30
5E-16
41
1
10
178.843026871358
20
-8.69859732438309
30
5E-16
41
1
10
178.816884401257
20
-8.80361087149311
30
5E-16
0
SPLINE
5
17C
100
AcDbEntity
8
1
62
256
6
ByLayer
370
-1
48
1
60
0
100
AcDbSpline
70
4
71
3
72
10
73
6
40
0
40
0
40
0
40
0
40
0.5
40
0.5
40
1
40
1
40
1
40
1
41
1
10
178.816884401257
20
12.7505386306139
30
5E-16
41
1
10
175.911223428137
20
12.6588131133386
30
3E-16
41
1
10
173.055388182862
20
12.8830944090536
30
1E-16
41
1
10
167.44494994166
20
13.8976565398885
30
-2E-16
41
1
10
164.752030315503
20
14.6847509656849
30
-4E-16
41
1
10
162.287455420839
20
15.6041240647512
30
-5E-16
0
SPLINE
5
17D
100
AcDbEntity
8
1
62
256
6
ByLayer
370
-1
48
1
60
0
100
AcDbSpline
70
4
71
3
72
8
73
4
40
0
40
0
40
0
40
0
40
1
40
1
40
1
40
1
41
1
10
162.287455420838
20
15.6041240647513
30
-5E-16
41
1
10
161.707311747117
20
15.8205380549966
30
-6E-16
41
1
10
161.149189612245
20
16.0118066470584
30
-6E-16
41
1
10
160.628680597023
20
16.1745532958681
30
-6E-16
0
SPLINE
5
17E
100
AcDbEntity
8
1
62
256
6
ByLayer
370
-1
48
1
60
0
100
AcDbSpline
70
4
71
3
72
10
73
6
40
0
40
0
40
0
40
0
40
0.5
40
0.5
40
1
40
1
40
1
40
1
41
1
10
178.816884401257
20
-19.179574105523
30
0
41
1
10
175.911223428137
20
-19.1959264189493
30
-1E-16
41
1
10
173.055388182862
20
-19.1692868523476
30
1E-16
41
1
10
167.44494994166
20
-18.9186072295099
30
-2E-16
41
1
10
164.752030315503
20
-18.6979510762109
30
-4E-16
41
1
10
162.287455420839
20
-18.160601892484
30
3E-16
0
SPLINE
5
17F
100
AcDbEntity
8
1
62
256
6
ByLayer
370
-1
48
1
60
0
100
AcDbSpline
70
4
71
3
72
12
73
8
40
0
40
0
40
0
40
0
40
0.249999999999997
40
0.249999999999997
40
0.499999999999995
40
0.499999999999995
40
1
40
1
40
1
40
1
41
1
10
186.143595213154
20
4.45909754257821
30
9E-16
41
1
10
185.925123211013
20
4.94590795278228
30
9E-16
41
1
10
185.53469872004
20
5.35914062552538
30
9E-16
41
1
10
184.518820197091
20
5.66199260141957
30
8E-16
41
1
10
183.926748362792
20
5.53005426467664
30
8E-16
41
1
10
182.546159508258
20
4.6377193001675
30
7E-16
41
1
10
182.076751276204
20
3.54377082599424
30
7E-16
41
1
10
181.927927849982
20
2.46238106007709
30
7E-16
0
SPLINE
5
180
100
AcDbEntity
8
1
62
256
6
ByLayer
370
-1
48
1
60
0
100
AcDbSpline
70
4
71
3
72
8
73
4
40
0
40
0
40
0
40
0
40
1
40
1
40
1
40
1
41
1
10
187.292731328768
20
-7.24273401212596
30
1E-15
41
1
10
187.573599354789
20
-6.40112569026348
30
1E-15
41
1
10
187.853462192418
20
-5.55939087268362
30
-7E-16
41
1
10
188.130959711272
20
-4.71736331498892
30
-7E-16
0
SPLINE
5
181
100
AcDbEntity
8
1
62
256
6
ByLayer
370
-1
48
1
60
0
100
AcDbSpline
70
4
71
3
72
8
73
4
40
0
40
0
40
0
40
0
40
1
40
1
40
1
40
1
41
1
10
160.628680597023
20
19.1677228555985
30
0
41
1
10
161.175749304302
20
19.2612152027952
30
1E-16
41
1
10
161.732519488294
20
19.3091224966074
30
1E-16
41
1
10
162.287455420838
20
19.3104302480288
30
-1E-16
0
SPLINE
5
182
100
AcDbEntity
8
1
62
256
6
ByLayer
370
-1
48
1
60
0
100
AcDbSpline
70
4
71
3
72
8
73
4
40
0
40
0
40
0
40
0
40
1
40
1
40
1
40
1
41
1
10
188.264791773527
20
0.351680830123286
30
-7E-16
41
1
10
188.264791773527
20
-0.13674280627194
30
-7E-16
41
1
10
188.264791773527
20
-0.645832882869144
30
-7E-16
41
1
10
188.264791773527
20
-1.18662723834981
30
-7E-16
0
SPLINE
5
183
100
AcDbEntity
8
1
62
256
6
ByLayer
370
-1
48
1
60
0
100
AcDbSpline
70
4
71
3
72
8
73
4
40
0
40
0
40
0
40
0
40
1
40
1
40
1
40
1
41
1
10
187.478131759292
20
-12.3873400672371
30
0
41
1
10
187.654342838695
20
-12.5284090156939
30
-1E-16
41
1
10
187.835906093356
20
-12.4499601338116
30
1E-16
41
1
10
188.011542138908
20
-12.1419636302338
30
1E-16
0
SPLINE
5
184
100
AcDbEntity
8
1
62
256
6
ByLayer
370
-1
48
1
60
0
100
AcDbSpline
70
4
71
3
72
8
73
4
40
0
40
0
40
0
40
0
40
1
40
1
40
1
40
1
41
1
10
186.368370545564
20
2.19099533101516
30
9E-16
41
1
10
186.47438713676
20
2.95156685731769
30
9E-16
41
1
10
186.454949154511
20
3.76532287843693
30
9E-16
41
1
10
186.143595213155
20
4.45909754257855
30
9E-16
0
SPLINE
5
185
100
AcDbEntity
8
1
62
256
6
ByLayer
370
-1
48
1
60
0
100
AcDbSpline
70
4
71
3
72
10
73
6
40
0
40
0
40
0
40
0
40
0.452597315774638
40
0.452597315774638
40
1
40
1
40
1
40
1
41
1
10
187.065581662806
20
-11.455900017149
30
1E-16
41
1
10
186.874546213978
20
-12.7040073046416
30
1E-16
41
1
10
186.668969641546
20
-13.9499740722221
30
1E-16
41
1
10
186.20105393412
20
-16.7004865759353
30
0
41
1
10
185.935388592927
20
-18.2045764330337
30
0
41
1
10
185.665055528
20
-19.7078183059033
30
0
0
SPLINE
5
186
100
AcDbEntity
8
1
62
256
6
ByLayer
370
-1
48
1
60
0
100
AcDbSpline
70
4
71
3
72
8
73
4
40
0
40
0
40
0
40
0
40
1
40
1
40
1
40
1
41
1
10
186.750255818977
20
9.60794529755975
30
0
41
1
10
186.815979338318
20
9.97375309934253
30
0
41
1
10
186.884462454715
20
10.3529741435941
30
0
41
1
10
186.951545293588
20
10.7323222317083
30
0
0
SPLINE
5
187
100
AcDbEntity
8
1
62
256
6
ByLayer
370
-1
48
1
60
0
100
AcDbSpline
70
4
71
3
72
12
73
8
40
0
40
0
40
0
40
0
40
0.257593104286412
40
0.257593104286412
40
0.599655648264282
40
0.599655648264282
40
1
40
1
40
1
40
1
41
1
10
187.012116674561
20
8.65531298157592
30
-1E-16
41
1
10
186.899621871354
20
9.08813752030483
30
-8E-16
41
1
10
186.782137241029
20
9.52001704024264
30
-8E-16
41
1
10
186.500931168766
20
10.5238543771262
30
-8E-16
41
1
10
186.333715744891
20
11.0951370744361
30
-8E-16
41
1
10
185.963270056447
20
12.3334805249513
30
-9E-16
41
1
10
185.759293455804
20
13.0004040811396
30
-9E-16
41
1
10
185.552809384238
20
13.6668029193079
30
9E-16
0
SPLINE
5
188
100
AcDbEntity
8
1
62
256
6
ByLayer
370
-1
48
1
60
0
100
AcDbSpline
70
4
71
3
72
8
73
4
40
0
40
0
40
0
40
0
40
1
40
1
40
1
40
1
41
1
10
180.467417539874
20
-6.93882536683341
30
6E-16
41
1
10
182.359250574408
20
-7.17554139707778
30
7E-16
41
1
10
184.251321874169
20
-7.41154568391022
30
8E-16
41
1
10
186.143595213154
20
-7.64693937859343
30
9E-16
0
SPLINE
5
189
100
AcDbEntity
8
1
62
256
6
ByLayer
370
-1
48
1
60
0
100
AcDbSpline
70
4
71
3
72
8
73
4
40
0
40
0
40
0
40
0
40
1
40
1
40
1
40
1
41
1
10
188.011542138908
20
9.1527330926842
30
-7E-16
41
1
10
188.101115435616
20
9.71195187973137
30
-7E-16
41
1
10
188.191399933505
20
10.2470924102162
30
-7E-16
41
1
10
188.264791773527
20
10.7784348361661
30
2E-16
0
SPLINE
5
18A
100
AcDbEntity
8
1
62
256
6
ByLayer
370
-1
48
1
60
0
100
AcDbSpline
70
4
71
3
72
8
73
4
40
0
40
0
40
0
40
0
40
1
40
1
40
1
40
1
41
1
10
187.478131759292
20
6.13030943053607
30
-8E-16
41
1
10
187.658552753135
20
5.00746410698005
30
-8E-16
41
1
10
187.831977467477
20
3.7806541416135
30
-8E-16
41
1
10
188.011542138908
20
2.45651809445312
30
-7E-16
0
SPLINE
5
18B
100
AcDbEntity
8
1
62
256
6
ByLayer
370
-1
48
1
60
0
100
AcDbSpline
70
4
71
3
72
8
73
4
40
0
40
0
40
0
40
0
40
1
40
1
40
1
40
1
41
1
10
185.513888590257
20
13.6713647772862
30
9E-16
41
1
10
185.52746620359
20
13.6699518133026
30
9E-16
41
1
10
185.540378008379
20
13.6684201331816
30
9E-16
41
1
10
185.552809384239
20
13.6668029193077
30
9E-16
0
SPLINE
5
18C
100
AcDbEntity
8
1
62
256
6
ByLayer
370
-1
48
1
60
0
100
AcDbSpline
70
4
71
3
72
8
73
4
40
0
40
0
40
0
40
0
40
1
40
1
40
1
40
1
41
1
10
188.209122806782
20
-10.0736645752669
30
-7E-16
41
1
10
188.229581412275
20
-10.0984522664539
30
-7E-16
41
1
10
188.24824533026
20
-10.1229378883496
30
-7E-16
41
1
10
188.264791773527
20
-10.1466890188223
30
-7E-16
0
SPLINE
5
18D
100
AcDbEntity
8
1
62
256
6
ByLayer
370
-1
48
1
60
0
100
AcDbSpline
70
4
71
3
72
8
73
4
40
0
40
0
40
0
40
0
40
1
40
1
40
1
40
1
41
1
10
181.38959816391
20
-1.8981860859578
30
6E-16
41
1
10
182.858538545761
20
-2.10364557875298
30
7E-16
41
1
10
184.328041645013
20
-2.30765370685612
30
8E-16
41
1
10
185.798017698212
20
-2.51040857505208
30
9E-16
0
SPLINE
5
18E
100
AcDbEntity
8
1
62
256
6
ByLayer
370
-1
48
1
60
0
100
AcDbSpline
70
4
71
3
72
16
73
12
40
0
40
0
40
0
40
0
40
0.21202709331722
40
0.21202709331722
40
0.424202646428706
40
0.424202646428706
40
0.636249859738555
40
0.636249859738555
40
0.850277709428468
40
0.850277709428468
40
1
40
1
40
1
40
1
41
1
10
186.143595213154
20
-7.64693937859343
30
9E-16
41
1
10
186.251940266031
20
-7.66041721066546
30
9E-16
41
1
10
186.365074465989
20
-7.66416499194114
30
9E-16
41
1
10
186.582305800672
20
-7.65145902558333
30
9E-16
41
1
10
186.68937409584
20
-7.63481589004749
30
1E-15
41
1
10
186.882618639689
20
-7.58380864568821
30
1E-15
41
1
10
186.971440418233
20
-7.54876889394208
30
1E-15
41
1
10
187.120090724283
20
-7.46512557019082
30
1E-15
41
1
10
187.18167066046
20
-7.4152755385376
30
1E-15
41
1
10
187.256365144908
20
-7.32393503575221
30
1E-15
41
1
10
187.279041289661
20
-7.28375559440352
30
1E-15
41
1
10
187.292731328768
20
-7.24273401212596
30
1E-15
0
SPLINE
5
18F
100
AcDbEntity
8
1
62
256
6
ByLayer
370
-1
48
1
60
0
100
AcDbSpline
70
4
71
3
72
8
73
4
40
0
40
0
40
0
40
0
40
1
40
1
40
1
40
1
41
1
10
180.467417539874
20
-6.93882536683336
30
6E-16
41
1
10
179.986478752365
20
-6.87864779381738
30
5E-16
41
1
10
179.49781514284
20
-6.83740975036494
30
5E-16
41
1
10
179.009498739556
20
-6.8159347954934
30
5E-16
0
SPLINE
5
190
100
AcDbEntity
8
1
62
256
6
ByLayer
370
-1
48
1
60
0
100
AcDbSpline
70
4
71
3
72
12
73
8
40
0
40
0
40
0
40
0
40
0.46288978032455
40
0.46288978032455
40
0.926751741351544
40
0.926751741351544
40
1
40
1
40
1
40
1
41
1
10
188.264791773527
20
-3.01844001220644
30
-7E-16
41
1
10
188.231509106854
20
-3.24980829478417
30
-7E-16
41
1
10
188.203031766608
20
-3.508743567702
30
-7E-16
41
1
10
188.159300739665
20
-4.03967410106409
30
-7E-16
41
1
10
188.143457368499
20
-4.31902394247908
30
-7E-16
41
1
10
188.133251824298
20
-4.63178980643283
30
-7E-16
41
1
10
188.132019118216
20
-4.67468806935398
30
-7E-16
41
1
10
188.130959711272
20
-4.71736331498892
30
-7E-16
0
SPLINE
5
191
100
AcDbEntity
8
1
62
256
6
ByLayer
370
-1
48
1
60
0
100
AcDbSpline
70
4
71
3
72
16
73
12
40
0
40
0
40
0
40
0
40
0.199309357977098
40
0.199309357977098
40
0.434430176838139
40
0.434430176838139
40
0.670846975982583
40
0.670846975982583
40
0.907958016812091
40
0.907958016812091
40
1
40
1
40
1
40
1
41
1
10
187.127750401422
20
11.6185964383887
30
1E-16
41
1
10
187.106511953284
20
11.482761625829
30
1E-16
41
1
10
187.088495206248
20
11.3604672030472
30
1E-16
41
1
10
187.059267139569
20
11.1393782905386
30
1E-16
41
1
10
187.049443101629
20
11.0454180734625
30
1E-16
41
1
10
187.043831211198
20
10.9234214633575
30
1E-16
41
1
10
187.048047412224
20
10.8940535088612
30
1E-16
41
1
10
187.069672483386
20
10.9040373123945
30
1E-16
41
1
10
187.08740822432
20
10.9437633662693
30
1E-16
41
1
10
187.119135896403
20
11.0435102455809
30
1E-16
41
1
10
187.128912532597
20
11.0766752645688
30
1E-16
41
1
10
187.139355235891
20
11.1144501568172
30
1E-16
0
SPLINE
5
192
100
AcDbEntity
8
1
62
256
6
ByLayer
370
-1
48
1
60
0
100
AcDbSpline
70
4
71
3
72
8
73
4
40
0
40
0
40
0
40
0
40
1
40
1
40
1
40
1
41
1
10
186.143595213154
20
7.8995103044326
30
9E-16
41
1
10
185.935459688995
20
10.0345030274491
30
9E-16
41
1
10
185.719990321549
20
11.9702895170529
30
9E-16
41
1
10
185.513888590257
20
13.6713647772859
30
9E-16
0
SPLINE
5
193
100
AcDbEntity
8
1
62
256
6
ByLayer
370
-1
48
1
60
0
100
AcDbSpline
70
4
71
3
72
8
73
4
40
0
40
0
40
0
40
0
40
1
40
1
40
1
40
1
41
1
10
188.264791773527
20
-1.18662723834979
30
-7E-16
41
1
10
187.94018484536
20
-1.52375434741683
30
-7E-16
41
1
10
187.616052602557
20
-1.93240509826865
30
1E-15
41
1
10
187.292731328768
20
-2.39771322048688
30
1E-15
0
SPLINE
5
194
100
AcDbEntity
8
1
62
256
6
ByLayer
370
-1
48
1
60
0
100
AcDbSpline
70
4
71
3
72
10
73
6
40
0
40
0
40
0
40
0
40
0.170356039595774
40
0.170356039595774
40
1
40
1
40
1
40
1
41
1
10
186.763332155741
20
-18.3914495303172
30
-8E-16
41
1
10
186.725389629716
20
-18.5657755587481
30
-7E-16
41
1
10
186.68838179371
20
-18.7280014536919
30
-6E-16
41
1
10
186.474119727386
20
-19.6108064294839
30
1E-16
41
1
10
186.30254240149
20
-20.0767700125656
30
0
41
1
10
186.143595213154
20
-20.2773769371302
30
0
0
SPLINE
5
195
100
AcDbEntity
8
1
62
256
6
ByLayer
370
-1
48
1
60
0
100
AcDbSpline
70
4
71
3
72
8
73
4
40
0
40
0
40
0
40
0
40
1
40
1
40
1
40
1
41
1
10
187.468568431261
20
-12.3794931937261
30
0
41
1
10
187.345590859967
20
-12.2760799597532
30
0
41
1
10
187.206798708351
20
-12.0604936036842
30
1E-16
41
1
10
187.139355235894
20
-11.4835015313954
30
1E-16
0
SPLINE
5
196
100
AcDbEntity
8
1
62
256
6
ByLayer
370
-1
48
1
60
0
100
AcDbSpline
70
4
71
3
72
10
73
6
40
0
40
0
40
0
40
0
40
0.571697043733721
40
0.571697043733721
40
1
40
1
40
1
40
1
41
1
10
187.478131759292
20
11.4641818697995
30
1E-16
41
1
10
187.372749966262
20
11.4186129388622
30
1E-16
41
1
10
187.288771278377
20
11.3560009993735
30
1E-16
41
1
10
187.18640315318
20
11.2327226333114
30
1E-16
41
1
10
187.155963223382
20
11.174527027749
30
1E-16
41
1
10
187.139355235891
20
11.1144501568172
30
1E-16
0
SPLINE
5
197
100
AcDbEntity
8
1
62
256
6
ByLayer
370
-1
48
1
60
0
100
AcDbSpline
70
4
71
3
72
10
73
6
40
0
40
0
40
0
40
0
40
0.796603703232654
40
0.796603703232654
40
1
40
1
40
1
40
1
41
1
10
183.56973617475
20
-19.8035305929408
30
-1E-16
41
1
10
183.303174387061
20
-19.762791208392
30
-1E-16
41
1
10
183.028663590236
20
-19.7136519856534
30
-2E-16
41
1
10
182.703528091263
20
-19.6468145378188
30
-2E-16
41
1
10
182.637546274696
20
-19.6327730901561
30
-2E-16
41
1
10
182.572586766879
20
-19.6184575613313
30
-2E-16
0
SPLINE
5
198
100
AcDbEntity
8
1
62
256
6
ByLayer
370
-1
48
1
60
0
100
AcDbSpline
70
4
71
3
72
8
73
4
40
0
40
0
40
0
40
0
40
1
40
1
40
1
40
1
41
1
10
187.51829197063
20
5.87931736179758
30
-8E-16
41
1
10
187.683819433334
20
7.06692780120633
30
-8E-16
41
1
10
187.852455280037
20
8.15953128453097
30
-7E-16
41
1
10
188.011542138908
20
9.15273309268406
30
-7E-16
0
SPLINE
5
199
100
AcDbEntity
8
1
62
256
6
ByLayer
370
-1
48
1
60
0
100
AcDbSpline
70
4
71
3
72
8
73
4
40
0
40
0
40
0
40
0
40
1
40
1
40
1
40
1
41
1
10
187.108286052927
20
11.6186699875925
30
0
41
1
10
187.056038673625
20
11.3232208166958
30
0
41
1
10
187.003791715993
20
11.0277715714111
30
0
41
1
10
186.951545293588
20
10.7323222317083
30
0
0
SPLINE
5
19A
100
AcDbEntity
8
1
62
256
6
ByLayer
370
-1
48
1
60
0
100
AcDbSpline
70
4
71
3
72
8
73
4
40
0
40
0
40
0
40
0
40
1
40
1
40
1
40
1
41
1
10
188.264791773527
20
-11.5735719263297
30
2E-16
41
1
10
188.264791773527
20
-11.6672920943571
30
2E-16
41
1
10
188.264791773527
20
-11.6997900040645
30
2E-16
41
1
10
188.264791773527
20
-11.7017662754661
30
-7E-16
0
SPLINE
5
19B
100
AcDbEntity
8
1
62
256
6
ByLayer
370
-1
48
1
60
0
100
AcDbSpline
70
4
71
3
72
8
73
4
40
0
40
0
40
0
40
0
40
1
40
1
40
1
40
1
41
1
10
181.238310242853
20
13.0588135574258
30
6E-16
41
1
10
180.981678517378
20
13.0094139524632
30
6E-16
41
1
10
180.724671633966
20
12.9624908604503
30
6E-16
41
1
10
180.467417539874
20
12.9180896031592
30
6E-16
0
SPLINE
5
19C
100
AcDbEntity
8
1
62
256
6
ByLayer
370
-1
48
1
60
0
100
AcDbSpline
70
4
71
3
72
8
73
4
40
0
40
0
40
0
40
0
40
1
40
1
40
1
40
1
41
1
10
186.143595213154
20
-20.2773769371301
30
0
41
1
10
185.973839822106
20
-20.4916248724529
30
0
41
1
10
185.80239843408
20
-20.4378950493377
30
0
41
1
10
185.626152657342
20
-20.1168955229431
30
0
0
SPLINE
5
19D
100
AcDbEntity
8
1
62
256
6
ByLayer
370
-1
48
1
60
0
100
AcDbSpline
70
4
71
3
72
8
73
4
40
0
40
0
40
0
40
0
40
1
40
1
40
1
40
1
41
1
10
160.628680597023
20
19.1677228555984
30
0
41
1
10
160.232099951694
20
19.0999484519607
30
0
41
1
10
159.835523232491
20
19.0321509694279
30
0
41
1
10
159.438950570502
20
18.9643296629909
30
0
0
SPLINE
5
19E
100
AcDbEntity
8
1
62
256
6
ByLayer
370
-1
48
1
60
0
100
AcDbSpline
70
4
71
3
72
21
73
17
40
0
40
0
40
0
40
0
40
0.141041924757744
40
0.141041924757744
40
0.283014549171674
40
0.283014549171674
40
0.415347693116621
40
0.415347693116621
40
0.550532757067372
40
0.550532757067372
40
0.704872201253707
40
0.704872201253707
40
0.88789738974052
40
0.88789738974052
40
0.88789738974052
40
1
40
1
40
1
40
1
41
1
10
155.260166052434
20
-13.012843000061
30
8E-16
41
1
10
155.09353401897
20
-12.7537640997772
30
8E-16
41
1
10
154.975432856778
20
-12.4724418102836
30
8E-16
41
1
10
154.873223086564
20
-11.8998326082702
30
8E-16
41
1
10
154.889568478223
20
-11.600653657038
30
8E-16
41
1
10
155.055103727808
20
-11.0544039567213
30
8E-16
41
1
10
155.196957124057
20
-10.7983854623336
30
8E-16
41
1
10
155.576589218781
20
-10.3373949023124
30
8E-16
41
1
10
155.820202129728
20
-10.1279721824811
30
8E-16
41
1
10
156.40503520916
20
-9.75377869047477
30
9E-16
41
1
10
156.761614541177
20
-9.59473444306801
30
-9E-16
41
1
10
157.580080140474
20
-9.34664730457914
30
-8E-16
41
1
10
158.059181448751
20
-9.27263305845599
30
-8E-16
41
1
10
158.541158559863
20
-9.2591521484994
30
-8E-16
41
1
10
158.838345192705
20
-9.25083983211491
30
-7E-16
41
1
10
159.139734371398
20
-9.26519442752556
30
-7E-16
41
1
10
159.438950570502
20
-9.30140754708717
30
-7E-16
0
SPLINE
5
19F
100
AcDbEntity
8
1
62
256
6
ByLayer
370
-1
48
1
60
0
100
AcDbSpline
70
4
71
3
72
8
73
4
40
0
40
0
40
0
40
0
40
1
40
1
40
1
40
1
41
1
10
181.238310242853
20
13.0588135574258
30
6E-16
41
1
10
181.683042322832
20
13.1444210131078
30
6E-16
41
1
10
182.12780150959
20
13.2299267198769
30
7E-16
41
1
10
182.572586766879
20
13.3153338010272
30
7E-16
0
SPLINE
5
1A0
100
AcDbEntity
8
1
62
256
6
ByLayer
370
-1
48
1
60
0
100
AcDbSpline
70
4
71
3
72
8
73
4
40
0
40
0
40
0
40
0
40
1
40
1
40
1
40
1
41
1
10
160.628680597023
20
-9.44535741461175
30
-6E-16
41
1
10
161.175749304302
20
-9.51153149974155
30
-6E-16
41
1
10
161.732519488294
20
-9.55349157199714
30
-6E-16
41
1
10
162.287455420838
20
-9.57035649298172
30
-5E-16
0
SPLINE
5
1A1
100
AcDbEntity
8
1
62
256
6
ByLayer
370
-1
48
1
60
0
100
AcDbSpline
70
4
71
3
72
10
73
6
40
0
40
0
40
0
40
0
40
0.798079781615391
40
0.798079781615391
40
1
40
1
40
1
40
1
41
1
10
183.56973617475
20
13.3255722050415
30
8E-16
41
1
10
183.302677038646
20
13.2780691335189
30
7E-16
41
1
10
183.027634102258
20
13.2673546081416
30
7E-16
41
1
10
182.70256005892
20
13.2969071544508
30
7E-16
41
1
10
182.63706996683
20
13.3051021680317
30
7E-16
41
1
10
182.572586766879
20
13.3153338010272
30
7E-16
0
SPLINE
5
1A2
100
AcDbEntity
8
1
62
256
6
ByLayer
370
-1
48
1
60
0
100
AcDbSpline
70
4
71
3
72
21
73
17
40
0
40
0
40
0
40
0
40
0.141041924757745
40
0.141041924757745
40
0.283014549171673
40
0.283014549171673
40
0.41534769311662
40
0.41534769311662
40
0.550532757067372
40
0.550532757067372
40
0.704872201253706
40
0.704872201253706
40
0.88789738974052
40
0.88789738974052
40
0.88789738974052
40
1
40
1
40
1
40
1
41
1
10
155.260166052434
20
17.9270244315643
30
-1E-16
41
1
10
155.09353401897
20
17.9689938646249
30
-1E-16
41
1
10
154.975432856778
20
18.015339328391
30
-1E-16
41
1
10
154.873223086564
20
18.1081194455651
30
-1E-16
41
1
10
154.889568478223
20
18.1557342672751
30
-1E-16
41
1
10
155.055103727808
20
18.2434631438224
30
-1E-16
41
1
10
155.196957124057
20
18.2851250904838
30
0
41
1
10
155.576589218781
20
18.3671238030557
30
0
41
1
10
155.820202129728
20
18.4085650930759
30
0
41
1
10
156.40503520916
20
18.499325608735
30
0
41
1
10
156.761614541177
20
18.5501470157341
30
0
41
1
10
157.580080140474
20
18.6689077402392
30
1E-16
41
1
10
158.059181448751
20
18.7398673015261
30
1E-16
41
1
10
158.541158559863
20
18.8163538318719
30
-1E-16
41
1
10
158.838345192705
20
18.8635153544572
30
-1E-16
41
1
10
159.139734371398
20
18.9131581237615
30
-1E-16
41
1
10
159.438950570502
20
18.9643296629909
30
0
0
SPLINE
5
1A3
100
AcDbEntity
8
1
62
256
6
ByLayer
370
-1
48
1
60
0
100
AcDbSpline
70
4
71
3
72
8
73
4
40
0
40
0
40
0
40
0
40
1
40
1
40
1
40
1
41
1
10
187.058793258196
20
8.47152315860461
30
0
41
1
10
187.085588245356
20
8.35891311852782
30
-2E-16
41
1
10
187.112477531301
20
8.23074214807437
30
-8E-16
41
1
10
187.139355235894
20
8.08610401874401
30
-8E-16
0
SPLINE
5
1A4
100
AcDbEntity
8
1
62
256
6
ByLayer
370
-1
48
1
60
0
100
AcDbSpline
70
4
71
3
72
8
73
4
40
0
40
0
40
0
40
0
40
1
40
1
40
1
40
1
41
1
10
162.287455420838
20
-18.1606018924844
30
3E-16
41
1
10
161.70391927616
20
-18.0333739994726
30
3E-16
41
1
10
161.15202580182
20
-17.8370477191579
30
3E-16
41
1
10
160.628680597023
20
-17.5786657652027
30
2E-16
0
SPLINE
5
1A5
100
AcDbEntity
8
1
62
256
6
ByLayer
370
-1
48
1
60
0
100
AcDbSpline
70
4
71
3
72
10
73
6
40
0
40
0
40
0
40
0
40
0.5
40
0.5
40
1
40
1
40
1
40
1
41
1
10
187.478131759292
20
6.13030943053582
30
-8E-16
41
1
10
187.414013677454
20
6.52934663132621
30
-8E-16
41
1
10
187.351483364861
20
6.900292335915
30
-8E-16
41
1
10
187.233219723981
20
7.57137613074821
30
-8E-16
41
1
10
187.175363848222
20
7.89232934914696
30
-8E-16
41
1
10
187.139355235894
20
8.08610401874409
30
-8E-16
0
SPLINE
5
1A6
100
AcDbEntity
8
1
62
256
6
ByLayer
370
-1
48
1
60
0
100
AcDbSpline
70
4
71
3
72
8
73
4
40
0
40
0
40
0
40
0
40
1
40
1
40
1
40
1
41
1
10
155.260166052434
20
-13.012843000061
30
8E-16
41
1
10
156.550951966416
20
-15.0197524048424
30
9E-16
41
1
10
158.393423490244
20
-16.4750918840466
30
-8E-16
41
1
10
160.628680597023
20
-17.5786657652023
30
2E-16
0
SPLINE
5
1A7
100
AcDbEntity
8
1
62
256
6
ByLayer
370
-1
48
1
60
0
100
AcDbSpline
70
4
71
3
72
8
73
4
40
0
40
0
40
0
40
0
40
1
40
1
40
1
40
1
41
1
10
155.260166052434
20
17.9270244315643
30
-1E-16
41
1
10
156.542795554951
20
17.6039699028008
30
0
41
1
10
158.390148973335
20
16.8744710866369
30
-8E-16
41
1
10
160.628680597023
20
16.1745532958679
30
-6E-16
0
SPLINE
5
1A8
100
AcDbEntity
8
1
62
256
6
ByLayer
370
-1
48
1
60
0
100
AcDbSpline
70
4
71
3
72
8
73
4
40
0
40
0
40
0
40
0
40
1
40
1
40
1
40
1
41
1
10
181.238310242853
20
-19.418743734282
30
2E-16
41
1
10
180.981678517378
20
-19.380229007393
30
2E-16
41
1
10
180.724671633966
20
-19.3411038393138
30
1E-16
41
1
10
180.467417539874
20
-19.3014257489093
30
1E-16
0
SPLINE
5
1A9
100
AcDbEntity
8
1
62
256
6
ByLayer
370
-1
48
1
60
0
100
AcDbSpline
70
4
71
3
72
8
73
4
40
0
40
0
40
0
40
0
40
1
40
1
40
1
40
1
41
1
10
186.143595213154
20
0.487049625783584
30
9E-16
41
1
10
186.21473577112
20
1.05768599311929
30
9E-16
41
1
10
186.289577331691
20
1.62572649655976
30
9E-16
41
1
10
186.368370545564
20
2.1909953310151
30
9E-16
0
SPLINE
5
1AA
100
AcDbEntity
8
1
62
256
6
ByLayer
370
-1
48
1
60
0
100
AcDbSpline
70
4
71
3
72
18
73
14
40
0
40
0
40
0
40
0
40
0.03125
40
0.03125
40
0.0625
40
0.0625
40
0.125
40
0.125
40
0.25
40
0.25
40
0.5
40
0.5
40
1
40
1
40
1
40
1
41
1
10
187.292731328768
20
-2.3977132204877
30
1E-15
41
1
10
187.272197493604
20
-2.42726450911695
30
1E-15
41
1
10
187.246537122858
20
-2.29172939129356
30
1E-15
41
1
10
187.209377116539
20
-2.0942352297655
30
1E-15
41
1
10
187.193209701741
20
-1.99037547543298
30
1E-15
41
1
10
187.146985499023
20
-1.67392650562536
30
1E-15
41
1
10
187.118189521231
20
-1.45565813648946
30
1E-15
41
1
10
187.033118847376
20
-0.800761353314925
30
1E-15
41
1
10
186.983680610856
20
-0.359257943813958
30
1E-15
41
1
10
186.833388814936
20
0.971066621095531
30
1E-15
41
1
10
186.742831598356
20
1.87391993026807
30
1E-15
41
1
10
186.469496518823
20
4.52428647996229
30
9E-16
41
1
10
186.303849107684
20
6.25567319375415
30
9E-16
41
1
10
186.143595213154
20
7.8995103044326
30
9E-16
0
SPLINE
5
1AB
100
AcDbEntity
8
1
62
256
6
ByLayer
370
-1
48
1
60
0
100
AcDbSpline
70
4
71
3
72
8
73
4
40
0
40
0
40
0
40
0
40
1
40
1
40
1
40
1
41
1
10
188.011542138908
20
2.45651809445314
30
-7E-16
41
1
10
188.105364729298
20
1.76465664430393
30
-7E-16
41
1
10
188.19113314338
20
1.05849818259733
30
-7E-16
41
1
10
188.264791773527
20
0.351680830123314
30
-7E-16
0
SPLINE
5
1AC
100
AcDbEntity
8
1
62
256
6
ByLayer
370
-1
48
1
60
0
100
AcDbSpline
70
4
71
3
72
8
73
4
40
0
40
0
40
0
40
0
40
1
40
1
40
1
40
1
41
1
10
179.009498739556
20
-6.8159347954934
30
5E-16
41
1
10
178.966905111929
20
-7.38280905695592
30
5E-16
41
1
10
178.928930342517
20
-7.94009806488481
30
5E-16
41
1
10
178.895678307211
20
-8.48758625155702
30
5E-16
0
SPLINE
5
1AD
100
AcDbEntity
8
1
62
256
6
ByLayer
370
-1
48
1
60
0
100
AcDbSpline
70
4
71
3
72
8
73
4
40
0
40
0
40
0
40
0
40
1
40
1
40
1
40
1
41
1
10
187.478131759292
20
11.4641818697995
30
1E-16
41
1
10
187.638764273063
20
11.533642178984
30
1E-16
41
1
10
187.821843256543
20
11.6308817621723
30
1E-16
41
1
10
188.011542138908
20
11.7503578368792
30
1E-16
0
SPLINE
5
1AE
100
AcDbEntity
8
1
62
256
6
ByLayer
370
-1
48
1
60
0
100
AcDbSpline
70
4
71
3
72
8
73
4
40
0
40
0
40
0
40
0
40
1
40
1
40
1
40
1
41
1
10
188.011542138908
20
11.7503578368793
30
1E-16
41
1
10
188.027224799846
20
11.7602350841589
30
1E-16
41
1
10
188.042655771547
20
11.770917804208
30
2E-16
41
1
10
188.057748531141
20
11.7823548022069
30
2E-16
0
SPLINE
5
1AF
100
AcDbEntity
8
1
62
256
6
ByLayer
370
-1
48
1
60
0
100
AcDbSpline
70
4
71
3
72
8
73
4
40
0
40
0
40
0
40
0
40
1
40
1
40
1
40
1
41
1
10
178.816884401257
20
12.7505386306148
30
5E-16
41
1
10
179.36952796588
20
12.7679844088053
30
5E-16
41
1
10
179.923665731623
20
12.8242397306199
30
5E-16
41
1
10
180.467417539874
20
12.9180896031591
30
6E-16
0
SPLINE
5
1B0
100
AcDbEntity
8
1
62
256
6
ByLayer
370
-1
48
1
60
0
100
AcDbSpline
70
4
71
3
72
8
73
4
40
0
40
0
40
0
40
0
40
1
40
1
40
1
40
1
41
1
10
160.628680597023
20
-9.44535741461172
30
-6E-16
41
1
10
160.232099951694
20
-9.39738654543984
30
-7E-16
41
1
10
159.835523232491
20
-9.34940338844373
30
-7E-16
41
1
10
159.438950570502
20
-9.30140754708717
30
-7E-16
0
SPLINE
5
1B1
100
AcDbEntity
8
1
62
256
6
ByLayer
370
-1
48
1
60
0
100
AcDbSpline
70
4
71
3
72
8
73
4
40
0
40
0
40
0
40
0
40
1
40
1
40
1
40
1
41
1
10
185.626152657341
20
-20.1168955229439
30
0
41
1
10
185.639432851986
20
-19.9805878101518
30
0
41
1
10
185.652176794246
20
-19.8441918875124
30
0
41
1
10
185.665055528
20
-19.7078183059033
30
0
0
SPLINE
5
1B2
100
AcDbEntity
8
1
62
256
6
ByLayer
370
-1
48
1
60
0
100
AcDbSpline
70
4
71
3
72
8
73
4
40
0
40
0
40
0
40
0
40
1
40
1
40
1
40
1
41
1
10
188.998874259099
20
-5.7047232470442
30
-7E-16
41
1
10
188.99903773588
20
-5.70469042978189
30
-7E-16
41
1
10
188.999200723743
20
-5.70466130116336
30
-7E-16
41
1
10
188.999363220763
20
-5.7046358724194
30
-7E-16
0
SPLINE
5
1B3
100
AcDbEntity
8
1
62
256
6
ByLayer
370
-1
48
1
60
0
100
AcDbSpline
70
4
71
3
72
12
73
8
40
0
40
0
40
0
40
0
40
0.46785345507628
40
0.46785345507628
40
0.935843116811465
40
0.935843116811465
40
1
40
1
40
1
40
1
41
1
10
188.994908401275
20
-5.6168795854677
30
-7E-16
41
1
10
188.994442746647
20
-5.5655116178151
30
-7E-16
41
1
10
188.974780585491
20
-5.51404214867469
30
-7E-16
41
1
10
188.900276710789
20
-5.41949976543396
30
-7E-16
41
1
10
188.844403649059
20
-5.37508289140038
30
-7E-16
41
1
10
188.76496750742
20
-5.33205295297134
30
-7E-16
41
1
10
188.755091443898
20
-5.32696851761844
30
-7E-16
41
1
10
188.744934626205
20
-5.32199441148703
30
-7E-16
0
SPLINE
5
1B4
100
AcDbEntity
8
1
62
256
6
ByLayer
370
-1
48
1
60
0
100
AcDbSpline
70
4
71
3
72
8
73
4
40
0
40
0
40
0
40
0
40
1
40
1
40
1
40
1
41
1
10
188.994909315676
20
-5.61694926763553
30
-7E-16
41
1
10
188.996362832747
20
-5.64622389806161
30
-7E-16
41
1
10
188.997684473978
20
-5.67548195621356
30
-7E-16
41
1
10
188.998874259103
20
-5.7047232471275
30
-7E-16
0
SPLINE
5
1B5
100
AcDbEntity
8
1
62
256
6
ByLayer
370
-1
48
1
60
0
100
AcDbSpline
70
4
71
1
72
4
73
2
40
0
40
0
40
1
40
1
41
1
10
188.99936221034
20
-5.70465425309246
30
-7E-16
41
1
10
188.998681412524
20
-5.71703869139995
30
-7E-16
0
SPLINE
5
1B6
100
AcDbEntity
8
1
62
256
6
ByLayer
370
-1
48
1
60
0
100
AcDbSpline
70
4
71
2
72
6
73
3
40
0
40
0
40
0
40
1
40
1
40
1
41
1
10
188.999380527634
20
-5.71701686537176
30
-7E-16
41
1
10
188.999507347419
20
-5.82778200703655
30
-7E-16
41
1
10
188.998297548153
20
-5.9385882333963
30
-7E-16
0
SPLINE
5
1B7
100
AcDbEntity
8
1
62
256
6
ByLayer
370
-1
48
1
60
0
100
AcDbSpline
70
4
71
5
72
12
73
6
40
0
40
0
40
0
40
0
40
0
40
0
40
1
40
1
40
1
40
1
40
1
40
1
41
1
10
188.910488846514
20
-6.74939460925964
30
-7E-16
41
1
10
188.91016674726
20
-6.78366170387875
30
-7E-16
41
1
10
188.907144529403
20
-6.8177220112625
30
-7E-16
41
1
10
188.901445097304
20
-6.85157619728218
30
-7E-16
41
1
10
188.893069914142
20
-6.88522511889329
30
-7E-16
41
1
10
188.881991559336
20
-6.91866532453682
30
-7E-16
0
SPLINE
5
1B8
100
AcDbEntity
8
1
62
256
6
ByLayer
370
-1
48
1
60
0
100
AcDbSpline
70
4
71
5
72
12
73
6
40
0
40
0
40
0
40
0
40
0
40
0
40
1
40
1
40
1
40
1
40
1
40
1
41
1
10
188.910890029103
20
-6.33102964471087
30
-7E-16
41
1
10
188.911515843128
20
-6.41472354785964
30
-7E-16
41
1
10
188.9117886252
20
-6.49840699866601
30
-7E-16
41
1
10
188.911708382119
20
-6.58207999723848
30
-7E-16
41
1
10
188.911275115127
20
-6.66574254363314
30
-7E-16
41
1
10
188.910488813356
20
-6.74939463743237
30
-7E-16
0
SPLINE
5
1B9
100
AcDbEntity
8
1
62
256
6
ByLayer
370
-1
48
1
60
0
100
AcDbSpline
70
4
71
3
72
12
73
8
40
0
40
0
40
0
40
0
40
0.319903545078336
40
0.319903545078336
40
0.793516743526662
40
0.793516743526662
40
1
40
1
40
1
40
1
41
1
10
186.055597065636
20
-8.77933189520851
30
9E-16
41
1
10
186.067177394372
20
-8.80927880609156
30
9E-16
41
1
10
186.079854210009
20
-8.83887866917294
30
9E-16
41
1
10
186.115403841608
20
-8.91000453742095
30
9E-16
41
1
10
186.140113937398
20
-8.95195262634749
30
9E-16
41
1
10
186.18861843581
20
-9.00087956722712
30
9E-16
41
1
10
186.205678011189
20
-9.01446339324406
30
9E-16
41
1
10
186.225065828617
20
-9.02339576074891
30
9E-16
0
SPLINE
5
1BA
100
AcDbEntity
8
1
62
256
6
ByLayer
370
-1
48
1
60
0
100
AcDbSpline
70
4
71
1
72
4
73
2
40
0
40
0
40
1
40
1
41
1
10
178.722535657671
20
-9.98462340422728
30
5E-16
41
1
10
178.723216455488
20
-9.97025722144227
30
5E-16
0
SPLINE
5
1BB
100
AcDbEntity
8
1
62
256
6
ByLayer
370
-1
48
1
60
0
100
AcDbSpline
70
4
71
3
72
8
73
4
40
0
40
0
40
0
40
0
40
1
40
1
40
1
40
1
41
1
10
186.627343940075
20
-11.493402783636
30
1E-15
41
1
10
186.623836580589
20
-11.4949608380535
30
1E-15
41
1
10
186.620327584333
20
-11.4965157965283
30
1E-15
41
1
10
186.616816955962
20
-11.4980676454464
30
1E-15
0
SPLINE
5
1BC
100
AcDbEntity
8
1
62
256
6
ByLayer
370
-1
48
1
60
0
100
AcDbSpline
70
4
71
5
72
12
73
6
40
0
40
0
40
0
40
0
40
0
40
0
40
1
40
1
40
1
40
1
40
1
40
1
41
1
10
179.605195082275
20
-9.77551915907281
30
5E-16
41
1
10
179.365004571489
20
-9.74566751612289
30
5E-16
41
1
10
179.138877352073
20
-9.67127505634767
30
5E-16
41
1
10
178.967624026613
20
-9.55688386307725
30
5E-16
41
1
10
178.881787903576
20
-9.42312686569301
30
5E-16
41
1
10
178.880806797733
20
-9.29191763666503
30
5E-16
0
SPLINE
5
1BD
100
AcDbEntity
8
1
62
256
6
ByLayer
370
-1
48
1
60
0
100
AcDbSpline
70
4
71
3
72
28
73
24
40
0
40
0
40
0
40
0
40
5.9038590193E-05
40
5.9038590193E-05
40
0.154146260790489
40
0.154146260790489
40
0.489794994348929
40
0.489794994348929
40
0.589296251630204
40
0.589296251630204
40
0.829545578823006
40
0.829545578823006
40
0.90542387299515
40
0.90542387299515
40
0.9384279825132
40
0.9384279825132
40
0.96129518846326
40
0.96129518846326
40
0.980714928422766
40
0.980714928422766
40
0.999940961411292
40
0.999940961411292
40
1
40
1
40
1
40
1
41
1
10
179.725298811162
20
-8.06081868340863
30
5E-16
41
1
10
179.72528050149
20
-8.06082443528723
30
5E-16
41
1
10
179.725262192183
20
-8.06083018782664
30
5E-16
41
1
10
179.677458167492
20
-8.07584858954002
30
5E-16
41
1
10
179.631138774399
20
-8.09048488524326
30
5E-16
41
1
10
179.495043408107
20
-8.13643975740442
30
5E-16
41
1
10
179.414522659378
20
-8.1697147531988
30
5E-16
41
1
10
179.328559468288
20
-8.20856568583457
30
5E-16
41
1
10
179.309797834618
20
-8.21719189973317
30
5E-16
41
1
10
179.250008547289
20
-8.24367569385925
30
5E-16
41
1
10
179.2126452133
20
-8.25956052479799
30
5E-16
41
1
10
179.177998317251
20
-8.25415006379839
30
5E-16
41
1
10
179.17073633844
20
-8.25052508997774
30
5E-16
41
1
10
179.163099323548
20
-8.240518452792
30
5E-16
41
1
10
179.161136081452
20
-8.23681858795291
30
5E-16
41
1
10
179.158540041512
20
-8.22939408338942
30
5E-16
41
1
10
179.157680317534
20
-8.22601602955356
30
5E-16
41
1
10
179.156495746685
20
-8.21916571928574
30
5E-16
41
1
10
179.15610854056
20
-8.21577739982192
30
5E-16
41
1
10
179.155658518962
20
-8.20859023505403
30
5E-16
41
1
10
179.155592034592
20
-8.20478841711832
30
5E-16
41
1
10
179.155681720197
20
-8.20077526421781
30
5E-16
41
1
10
179.15568199301
20
-8.20076315127386
30
5E-16
41
1
10
179.155682265692
20
-8.20075104051003
30
5E-16
0
SPLINE
5
1BE
100
AcDbEntity
8
1
62
256
6
ByLayer
370
-1
48
1
60
0
100
AcDbSpline
70
4
71
3
72
12
73
8
40
0
40
0
40
0
40
0
40
0.375360243573888
40
0.375360243573888
40
0.750318846982853
40
0.750318846982853
40
1
40
1
40
1
40
1
41
1
10
179.232394289764
20
-7.50047295445847
30
5E-16
41
1
10
179.222925472298
20
-7.58707668055607
30
5E-16
41
1
10
179.213912350906
20
-7.67286261961971
30
5E-16
41
1
10
179.196858905468
20
-7.84250491572027
30
5E-16
41
1
10
179.188815313027
20
-7.92638571682031
30
5E-16
41
1
10
179.17625537691
20
-8.06445839967245
30
5E-16
41
1
10
179.171457540525
20
-8.11921602500578
30
5E-16
41
1
10
179.166890023498
20
-8.17350576365951
30
5E-16
0
SPLINE
5
1BF
100
AcDbEntity
8
1
62
256
6
ByLayer
370
-1
48
1
60
0
100
AcDbSpline
70
4
71
5
72
12
73
6
40
0
40
0
40
0
40
0
40
0
40
0
40
1
40
1
40
1
40
1
40
1
40
1
41
1
10
186.924241766889
20
-10.596887850625
30
1E-15
41
1
10
186.76860327839
20
-10.592640459397
30
1E-15
41
1
10
186.612964891986
20
-10.5882032716254
30
1E-15
41
1
10
186.457326607846
20
-10.5835762909705
30
9E-16
41
1
10
186.301688425933
20
-10.5787595180988
30
9E-16
41
1
10
186.146050346431
20
-10.5737529471733
30
9E-16
0
SPLINE
5
1C0
100
AcDbEntity
8
1
62
256
6
ByLayer
370
-1
48
1
60
0
100
AcDbSpline
70
4
71
3
72
9
73
5
40
0
40
0
40
0
40
0
40
0.500000037734299
40
1
40
1
40
1
40
1
41
1
10
188.726892925926
20
-5.22734013848779
30
-7E-16
41
1
10
188.725783882595
20
-5.2198875341243
30
-7E-16
41
1
10
188.723565796099
20
-5.20498232652218
30
-7E-16
41
1
10
188.720292594199
20
-5.19026689049738
30
-7E-16
41
1
10
188.718655993373
20
-5.18290917304026
30
-7E-16
0
SPLINE
5
1C1
100
AcDbEntity
8
1
62
256
6
ByLayer
370
-1
48
1
60
0
100
AcDbSpline
70
4
71
1
72
4
73
2
40
0
40
0
40
1
40
1
41
1
10
188.99936221034
20
-7.32407919736508
30
-7E-16
41
1
10
188.998681412524
20
-7.33844538015003
30
-7E-16
0
SPLINE
5
1C2
100
AcDbEntity
8
1
62
256
6
ByLayer
370
-1
48
1
60
0
100
AcDbSpline
70
4
71
3
72
12
73
8
40
0
40
0
40
0
40
0
40
0.375360243573875
40
0.375360243573875
40
0.750318846982835
40
0.750318846982835
40
1
40
1
40
1
40
1
41
1
10
186.225065915116
20
-9.02339559342607
30
9E-16
41
1
10
186.318342560298
20
-9.06637006333202
30
9E-16
41
1
10
186.412357168786
20
-9.10794673164202
30
9E-16
41
1
10
186.601674962416
20
-9.18807932857459
30
1E-15
41
1
10
186.69700184196
20
-9.22664900042372
30
1E-15
41
1
10
186.856921906842
20
-9.28829451949639
30
1E-15
41
1
10
186.92115375707
20
-9.31224593973033
30
1E-15
41
1
10
186.985673466744
20
-9.33547996104431
30
1E-15
0
SPLINE
5
1C3
100
AcDbEntity
8
1
62
256
6
ByLayer
370
-1
48
1
60
0
100
AcDbSpline
70
4
71
3
72
16
73
12
40
0
40
0
40
0
40
0
40
0.0001612263823355
40
0.0001612263823355
40
0.22929057497797
40
0.22929057497797
40
0.700369669956784
40
0.700369669956784
40
0.99983877361382
40
0.99983877361382
40
1
40
1
40
1
40
1
41
1
10
188.682912991426
20
-5.38289554079327
30
-7E-16
41
1
10
188.6829112292
20
-5.38290538531263
30
-7E-16
41
1
10
188.682909467339
20
-5.38291522989695
30
-7E-16
41
1
10
188.681580620126
20
-5.39032924721735
30
-7E-16
41
1
10
188.678875740826
20
-5.392860783206
30
-7E-16
41
1
10
188.668347948687
20
-5.3904697702111
30
-7E-16
41
1
10
188.658116938347
20
-5.3758937780504
30
-7E-16
41
1
10
188.640015688375
20
-5.34453185469533
30
-7E-16
41
1
10
188.632487226745
20
-5.33011251397156
30
-7E-16
41
1
10
188.624696599072
20
-5.31436057723482
30
-7E-16
41
1
10
188.624692165609
20
-5.31435161261507
30
-7E-16
41
1
10
188.624687731987
20
-5.31434264807379
30
-7E-16
0
SPLINE
5
1C4
100
AcDbEntity
8
1
62
256
6
ByLayer
370
-1
48
1
60
0
100
AcDbSpline
70
4
71
1
72
4
73
2
40
0
40
0
40
1
40
1
41
1
10
186.616777241284
20
-11.4980659325438
30
1E-15
41
1
10
186.590018483915
20
-11.4969118215121
30
9E-16
0
SPLINE
5
1C5
100
AcDbEntity
8
1
62
256
6
ByLayer
370
-1
48
1
60
0
100
AcDbSpline
70
4
71
3
72
12
73
8
40
0
40
0
40
0
40
0
40
0.319903545078969
40
0.319903545078969
40
0.793516743527037
40
0.793516743527037
40
1
40
1
40
1
40
1
41
1
10
188.623924633743
20
-5.22313171206019
30
-7E-16
41
1
10
188.630505818642
20
-5.24203333230744
30
-7E-16
41
1
10
188.636963415491
20
-5.26004252538564
30
-7E-16
41
1
10
188.652284804501
20
-5.30053289873598
30
-7E-16
41
1
10
188.661176986498
20
-5.32236451020714
30
-7E-16
41
1
10
188.670791718647
20
-5.33705828971887
30
-7E-16
41
1
10
188.6733229509
20
-5.33917183959909
30
-7E-16
41
1
10
188.674673288957
20
-5.33609143780774
30
-7E-16
0
SPLINE
5
1C6
100
AcDbEntity
8
1
62
256
6
ByLayer
370
-1
48
1
60
0
100
AcDbSpline
70
4
71
3
72
8
73
4
40
0
40
0
40
0
40
0
40
1
40
1
40
1
40
1
41
1
10
178.723404861303
20
-9.98561792549026
30
5E-16
41
1
10
178.723114074723
20
-9.98529717290498
30
5E-16
41
1
10
178.722824002387
20
-9.98497277650287
30
5E-16
41
1
10
178.722534647248
20
-9.98464472615584
30
5E-16
0
SPLINE
5
1C7
100
AcDbEntity
8
1
62
256
6
ByLayer
370
-1
48
1
60
0
100
AcDbSpline
70
4
71
3
72
8
73
4
40
0
40
0
40
0
40
0
40
1
40
1
40
1
40
1
41
1
10
186.891320763916
20
-11.4665232819288
30
1E-15
41
1
10
186.803328725354
20
-11.4755341335692
30
1E-15
41
1
10
186.715336251645
20
-11.4844939840414
30
1E-15
41
1
10
186.627343940075
20
-11.493402783636
30
1E-15
0
SPLINE
5
1C8
100
AcDbEntity
8
1
62
256
6
ByLayer
370
-1
48
1
60
0
100
AcDbSpline
70
4
71
3
72
16
73
12
40
0
40
0
40
0
40
0
40
0.0001612263823327
40
0.0001612263823327
40
0.229290574977906
40
0.229290574977906
40
0.700369669957382
40
0.700369669957382
40
0.999838773613835
40
0.999838773613835
40
1
40
1
40
1
40
1
41
1
10
179.22118885732
20
-7.52531773946359
30
5E-16
41
1
10
179.221190204816
20
-7.5253025334502
30
5E-16
41
1
10
179.221191551679
20
-7.52528732901359
30
5E-16
41
1
10
179.223109233548
20
-7.50365972363628
30
5E-16
41
1
10
179.226739372158
20
-7.47878172167916
30
5E-16
41
1
10
179.24059726529
20
-7.4007455638953
30
5E-16
41
1
10
179.253792138772
20
-7.34373960478368
30
5E-16
41
1
10
179.276994760107
20
-7.25189539515088
30
5E-16
41
1
10
179.286610525006
20
-7.21590308267557
30
5E-16
41
1
10
179.296537787025
20
-7.18005513992108
30
5E-16
41
1
10
179.296543124816
20
-7.18003586543998
30
5E-16
41
1
10
179.296548462585
20
-7.18001659095157
30
5E-16
0
SPLINE
5
1C9
100
AcDbEntity
8
1
62
256
6
ByLayer
370
-1
48
1
60
0
100
AcDbSpline
70
4
71
2
72
6
73
3
40
0
40
0
40
0
40
1
40
1
40
1
41
1
10
188.999380527634
20
-7.33846577157888
30
-7E-16
41
1
10
188.999507347419
20
-7.46736253671827
30
-7E-16
41
1
10
188.998297548153
20
-7.59621956679865
30
-7E-16
0
SPLINE
5
1CA
100
AcDbEntity
8
1
62
256
6
ByLayer
370
-1
48
1
60
0
100
AcDbSpline
70
4
71
2
72
16
73
13
40
0
40
0
40
0
40
0.0714285714285714
40
0.0714285714285714
40
0.125
40
0.125
40
0.25
40
0.25
40
0.5
40
0.5
40
0.75
40
0.75
40
1
40
1
40
1
41
1
10
188.718655993376
20
-5.18290917305387
30
-7E-16
41
1
10
188.719342249261
20
-5.17908550176389
30
-7E-16
41
1
10
188.712415878548
20
-5.1479864832236
30
-7E-16
41
1
10
188.709581709532
20
-5.13526122226872
30
-7E-16
41
1
10
188.705579042801
20
-5.11849188576383
30
-7E-16
41
1
10
188.698835777498
20
-5.09024069909074
30
-7E-16
41
1
10
188.68930869153
20
-5.05270769834104
30
-7E-16
41
1
10
188.674914870683
20
-4.99600166142253
30
-7E-16
41
1
10
188.656745346124
20
-4.92815885962875
30
-7E-16
41
1
10
188.64074042022
20
-4.86839840677462
30
-7E-16
41
1
10
188.624475861179
20
-4.80999225100973
30
-7E-16
41
1
10
188.607310138352
20
-4.74835000920405
30
-7E-16
41
1
10
188.592742164653
20
-4.69857523666639
30
-7E-16
0
SPLINE
5
1CB
100
AcDbEntity
8
1
62
256
6
ByLayer
370
-1
48
1
60
0
100
AcDbSpline
70
4
71
3
72
14
73
10
40
0
40
0
40
0
40
0
40
0.273952798507062
40
0.273952798507062
40
0.674403243572882
40
0.674403243572882
40
0.998924164843231
40
0.998924164843231
40
1
40
1
40
1
40
1
41
1
10
188.723964059016
20
-5.19550620291994
30
-7E-16
41
1
10
188.724534074814
20
-5.19887889843511
30
-7E-16
41
1
10
188.725024530152
20
-5.20213854591043
30
-7E-16
41
1
10
188.726026185566
20
-5.20984405664018
30
-7E-16
41
1
10
188.726443815697
20
-5.21415446579897
30
-7E-16
41
1
10
188.726869486616
20
-5.22140894242827
30
-7E-16
41
1
10
188.726940666504
20
-5.2244640348307
30
-7E-16
41
1
10
188.72689330271
20
-5.22732139990512
30
-7E-16
41
1
10
188.726893134953
20
-5.22733139949804
30
-7E-16
41
1
10
188.726892967102
20
-5.2273413990894
30
-7E-16
0
SPLINE
5
1CC
100
AcDbEntity
8
1
62
256
6
ByLayer
370
-1
48
1
60
0
100
AcDbSpline
70
4
71
3
72
12
73
8
40
0
40
0
40
0
40
0
40
0.319903545078175
40
0.319903545078175
40
0.793516743526644
40
0.793516743526644
40
1
40
1
40
1
40
1
41
1
10
179.300278845623
20
-7.19957254126172
30
5E-16
41
1
10
179.291588514397
20
-7.23161011842001
30
5E-16
41
1
10
179.283047087904
20
-7.26392868507952
30
5E-16
41
1
10
179.262722054237
20
-7.34428419121821
30
5E-16
41
1
10
179.25088151932
20
-7.39365993479615
30
5E-16
41
1
10
179.23784190341
20
-7.46168247880036
30
5E-16
41
1
10
179.234362356395
20
-7.48247222030318
30
5E-16
41
1
10
179.232394235287
20
-7.50047305332512
30
5E-16
0
SPLINE
5
1CD
100
AcDbEntity
8
1
62
256
6
ByLayer
370
-1
48
1
60
0
100
AcDbSpline
70
4
71
2
72
16
73
13
40
0
40
0
40
0
40
0.0714285714285714
40
0.0714285714285714
40
0.125
40
0.125
40
0.25
40
0.25
40
0.5
40
0.5
40
0.75
40
0.75
40
1
40
1
40
1
41
1
10
179.166889953812
20
-8.17350590435564
30
5E-16
41
1
10
179.165794996525
20
-8.18652062069441
30
5E-16
41
1
10
179.174730721437
20
-8.17101480540387
30
5E-16
41
1
10
179.178366128647
20
-8.16470642491151
30
5E-16
41
1
10
179.183526665834
20
-8.15383708793721
30
5E-16
41
1
10
179.1921902773
20
-8.13558943095549
30
5E-16
41
1
10
179.204470916385
20
-8.1059773168825
30
5E-16
41
1
10
179.223062930891
20
-8.06114668139287
30
5E-16
41
1
10
179.246619450019
20
-7.99845985105281
30
5E-16
41
1
10
179.267348615339
20
-7.94329696122099
30
5E-16
41
1
10
179.288475703652
20
-7.88343728056012
30
5E-16
41
1
10
179.310841305565
20
-7.82006850164896
30
5E-16
41
1
10
179.329888477213
20
-7.76211551334589
30
5E-16
0
SPLINE
5
1CE
100
AcDbEntity
8
1
62
256
6
ByLayer
370
-1
48
1
60
0
100
AcDbSpline
70
4
71
3
72
8
73
4
40
0
40
0
40
0
40
0
40
1
40
1
40
1
40
1
41
1
10
178.730001214923
20
-10.0952108451648
30
5E-16
41
1
10
178.727672170085
20
-10.0586562767325
30
5E-16
41
1
10
178.725473390021
20
-10.0221252225697
30
5E-16
41
1
10
178.723404861303
20
-9.98561792549032
30
5E-16
0
SPLINE
5
1CF
100
AcDbEntity
8
1
62
256
6
ByLayer
370
-1
48
1
60
0
100
AcDbSpline
70
4
71
3
72
16
73
12
40
0
40
0
40
0
40
0
40
7.1642172814E-05
40
7.1642172814E-05
40
0.0598354361742029
40
0.0598354361742029
40
0.529963658695879
40
0.529963658695879
40
0.999928357827184
40
0.999928357827184
40
1
40
1
40
1
40
1
41
1
10
188.726894397665
20
-5.22733224488744
30
-7E-16
41
1
10
188.726892564597
20
-5.22734207646221
30
-7E-16
41
1
10
188.726890731539
20
-5.227351908039
30
-7E-16
41
1
10
188.726179697106
20
-5.23116538925697
30
-7E-16
41
1
10
188.725458724728
20
-5.234933228312
30
-7E-16
41
1
10
188.718976890363
20
-5.26794802271033
30
-7E-16
41
1
10
188.712592137837
20
-5.29455109378713
30
-7E-16
41
1
10
188.69863190517
20
-5.34255362322961
30
-7E-16
41
1
10
188.691053958164
20
-5.36396531329225
30
-7E-16
41
1
10
188.682915535856
20
-5.3828933917961
30
-7E-16
41
1
10
188.682911585352
20
-5.38290257947895
30
-7E-16
41
1
10
188.682907634844
20
-5.38291176716044
30
-7E-16
0
SPLINE
5
1D0
100
AcDbEntity
8
1
62
256
6
ByLayer
370
-1
48
1
60
0
100
AcDbSpline
70
4
71
5
72
12
73
6
40
0
40
0
40
0
40
0
40
0
40
0
40
1
40
1
40
1
40
1
40
1
40
1
41
1
10
187.784069968844
20
-10.2327606402832
30
1E-15
41
1
10
187.741703093038
20
-10.3606457878813
30
1E-15
41
1
10
187.615718769725
20
-10.4785074378111
30
1E-15
41
1
10
187.412329733222
20
-10.5645876801816
30
1E-15
41
1
10
187.168240552509
20
-10.6035466226436
30
1E-15
41
1
10
186.924241822439
20
-10.5968878708524
30
1E-15
0
SPLINE
5
1D1
100
AcDbEntity
8
1
62
256
6
ByLayer
370
-1
48
1
60
0
100
AcDbSpline
70
4
71
5
72
12
73
6
40
0
40
0
40
0
40
0
40
0
40
0
40
1
40
1
40
1
40
1
40
1
40
1
41
1
10
178.880806832314
20
-9.29191760781796
30
5E-16
41
1
10
178.880181018289
20
-9.20822370466917
30
5E-16
41
1
10
178.879908236216
20
-9.12454025386279
30
5E-16
41
1
10
178.879988479297
20
-9.04086725529032
30
5E-16
41
1
10
178.88042174629
20
-8.95720470889566
30
5E-16
41
1
10
178.881208048061
20
-8.87355261509643
30
5E-16
0
SPLINE
5
1D2
100
AcDbEntity
8
1
62
256
6
ByLayer
370
-1
48
1
60
0
100
AcDbSpline
70
4
71
2
72
6
73
3
40
0
40
0
40
0
40
1
40
1
40
1
41
1
10
186.590018853733
20
-11.4972876956449
30
9E-16
41
1
10
186.350274565991
20
-11.4902949578215
30
9E-16
41
1
10
186.110530964816
20
-11.4825836375729
30
9E-16
0
SPLINE
5
1D3
100
AcDbEntity
8
1
62
256
6
ByLayer
370
-1
48
1
60
0
100
AcDbSpline
70
4
71
2
72
6
73
3
40
0
40
0
40
0
40
1
40
1
40
1
41
1
10
178.722517340377
20
-9.97023683001345
30
5E-16
41
1
10
178.722390520592
20
-9.84134006487406
30
5E-16
41
1
10
178.723600319858
20
-9.71248303479368
30
5E-16
0
SPLINE
5
1D4
100
AcDbEntity
8
1
62
256
6
ByLayer
370
-1
48
1
60
0
100
AcDbSpline
70
4
71
3
72
16
73
12
40
0
40
0
40
0
40
0
40
0.0001612263823157
40
0.0001612263823157
40
0.229290574977996
40
0.229290574977996
40
0.700369669957269
40
0.700369669957269
40
0.999838773613815
40
0.999838773613815
40
1
40
1
40
1
40
1
41
1
10
186.203685958549
20
-9.06386440636871
30
9E-16
41
1
10
186.203667109015
20
-9.06385823744154
30
9E-16
41
1
10
186.203648258624
20
-9.06385207079609
30
9E-16
41
1
10
186.176842307998
20
-9.05507545940588
30
9E-16
41
1
10
186.151640201549
20
-9.04144341303288
30
9E-16
41
1
10
186.082286374171
20
-8.99258298547247
30
9E-16
41
1
10
186.043666251804
20
-8.94931373384284
30
9E-16
41
1
10
185.988836309722
20
-8.87491765947416
30
9E-16
41
1
10
185.969347234531
20
-8.84449850496907
30
9E-16
41
1
10
185.951240873905
20
-8.81337087146852
30
9E-16
41
1
10
185.951231139378
20
-8.81335413449867
30
9E-16
41
1
10
185.951221404451
20
-8.81333739772836
30
9E-16
0
SPLINE
5
1D5
100
AcDbEntity
8
1
62
256
6
ByLayer
370
-1
48
1
60
0
100
AcDbSpline
70
4
71
3
72
8
73
4
40
0
40
0
40
0
40
0
40
1
40
1
40
1
40
1
41
1
10
188.994909315676
20
-7.14073122188628
30
-7E-16
41
1
10
188.996362832747
20
-7.19843116148346
30
-7E-16
41
1
10
188.997684473978
20
-7.25614649655958
30
-7E-16
41
1
10
188.998874259103
20
-7.31387683205728
30
-7E-16
0
SPLINE
5
1D6
100
AcDbEntity
8
1
62
256
6
ByLayer
370
-1
48
1
60
0
100
AcDbSpline
70
4
71
2
72
6
73
3
40
0
40
0
40
0
40
1
40
1
40
1
41
1
10
186.110530968816
20
-11.4825836378408
30
9E-16
41
1
10
185.940692895317
20
-11.4770955111559
30
9E-16
41
1
10
185.77342643541
20
-11.4563322535883
30
9E-16
0
SPLINE
5
1D7
100
AcDbEntity
8
1
62
256
6
ByLayer
370
-1
48
1
60
0
100
AcDbSpline
70
4
71
3
72
16
73
12
40
0
40
0
40
0
40
0
40
0.242357006778987
40
0.242357006778987
40
0.484784571203333
40
0.484784571203333
40
0.72721719426237
40
0.72721719426237
40
0.969649409280321
40
0.969649409280321
40
1
40
1
40
1
40
1
41
1
10
178.730002346329
20
-10.0952925821515
30
5E-16
41
1
10
178.730468689174
20
-10.1550977224406
30
5E-16
41
1
10
178.75012963046
20
-10.2162730297985
30
5E-16
41
1
10
178.824634572544
20
-10.3311669323576
30
5E-16
41
1
10
178.880506639374
20
-10.3865079558407
30
5E-16
41
1
10
179.020227162567
20
-10.4837296270675
30
5E-16
41
1
10
179.105999516065
20
-10.5269805122021
30
5E-16
41
1
10
179.29517525262
20
-10.5955492435411
30
5E-16
41
1
10
179.401186768552
20
-10.6218136540239
30
5E-16
41
1
10
179.523631702068
20
-10.6399591797487
30
5E-16
41
1
10
179.537494548443
20
-10.6418477918722
30
5E-16
41
1
10
179.55140655976
20
-10.643578021866
30
5E-16
0
SPLINE
5
1D8
100
AcDbEntity
8
1
62
256
6
ByLayer
370
-1
48
1
60
0
100
AcDbSpline
70
4
71
2
72
6
73
3
40
0
40
0
40
0
40
1
40
1
40
1
41
1
10
188.998297548433
20
-7.59621956465645
30
-7E-16
41
1
10
188.997393434031
20
-7.68750249047559
30
-7E-16
41
1
10
188.96793631464
20
-7.77656190746822
30
-7E-16
0
SPLINE
5
1D9
100
AcDbEntity
8
1
62
256
6
ByLayer
370
-1
48
1
60
0
100
AcDbSpline
70
4
71
3
72
12
73
8
40
0
40
0
40
0
40
0
40
0.470028301589371
40
0.470028301589371
40
0.940073053311462
40
0.940073053311462
40
1
40
1
40
1
40
1
41
1
10
188.674673246372
20
-5.33609124946682
30
-7E-16
41
1
10
188.682809048169
20
-5.31753178574388
30
-7E-16
41
1
10
188.690386284133
20
-5.29649034783867
30
-7E-16
41
1
10
188.704346428293
20
-5.2492356742172
30
-7E-16
41
1
10
188.710732201156
20
-5.22301190010234
30
-7E-16
41
1
10
188.717219442127
20
-5.19041417087058
30
-7E-16
41
1
10
188.717942845389
20
-5.18668349382548
30
-7E-16
41
1
10
188.718655993373
20
-5.1829091730406
30
-7E-16
0
SPLINE
5
1DA
100
AcDbEntity
8
1
62
256
6
ByLayer
370
-1
48
1
60
0
100
AcDbSpline
70
4
71
3
72
16
73
12
40
0
40
0
40
0
40
0
40
7.16507861597E-05
40
7.16507861597E-05
40
0.249712945778058
40
0.249712945778058
40
0.624679821504716
40
0.624679821504716
40
0.999928349213847
40
0.999928349213847
40
1
40
1
40
1
40
1
41
1
10
186.968758438959
20
-9.37608134638256
30
1E-15
41
1
10
186.96873981852
20
-9.3760746770389
30
1E-15
41
1
10
186.968721198056
20
-9.37606800775424
30
1E-15
41
1
10
186.90382646208
20
-9.35282421261698
30
1E-15
41
1
10
186.8392368841
20
-9.32886904018508
30
1E-15
41
1
10
186.678401050885
20
-9.2672051589619
30
1E-15
41
1
10
186.582514801037
20
-9.22861925857046
30
9E-16
41
1
10
186.392103208035
20
-9.14846056153868
30
9E-16
41
1
10
186.297553774323
20
-9.10687504691191
30
9E-16
41
1
10
186.20372176213
20
-9.06388060878786
30
9E-16
41
1
10
186.203703847895
20
-9.06387240024233
30
9E-16
41
1
10
186.203685933634
20
-9.06386419174808
30
9E-16
0
SPLINE
5
1DB
100
AcDbEntity
8
1
62
256
6
ByLayer
370
-1
48
1
60
0
100
AcDbSpline
70
4
71
5
72
12
73
6
40
0
40
0
40
0
40
0
40
0
40
0
40
1
40
1
40
1
40
1
40
1
40
1
41
1
10
178.881208014903
20
-8.87355264326916
30
5E-16
41
1
10
178.881379174681
20
-8.85534350981101
30
5E-16
41
1
10
178.882312776493
20
-8.83719276759544
30
5E-16
41
1
10
178.88400538354
20
-8.81910031670847
30
5E-16
41
1
10
178.886455268631
20
-8.80106604200012
30
5E-16
41
1
10
178.889662729528
20
-8.78309000373284
30
5E-16
0
SPLINE
5
1DC
100
AcDbEntity
8
1
62
256
6
ByLayer
370
-1
48
1
60
0
100
AcDbSpline
70
4
71
2
72
16
73
13
40
0
40
0
40
0
40
0.0714285714285714
40
0.0714285714285714
40
0.125
40
0.125
40
0.25
40
0.25
40
0.5
40
0.5
40
0.75
40
0.75
40
1
40
1
40
1
41
1
10
186.985673378296
20
-9.33548017792677
30
1E-15
41
1
10
187.0011404944
20
-9.34105000054635
30
1E-15
41
1
10
187.016438329241
20
-9.31374665377868
30
1E-15
41
1
10
187.022662095039
20
-9.30263856969043
30
1E-15
41
1
10
187.028509830906
20
-9.28648730919753
30
1E-15
41
1
10
187.038327125049
20
-9.25937225498819
30
1E-15
41
1
10
187.046398219417
20
-9.22018712566046
30
1E-15
41
1
10
187.058617282492
20
-9.1608636256484
30
1E-15
41
1
10
187.064916492328
20
-9.08452164158567
30
1E-15
41
1
10
187.070459644156
20
-9.0173425477723
30
1E-15
41
1
10
187.07043322377
20
-8.94814589339549
30
1E-15
41
1
10
187.070405254566
20
-8.87489278806754
30
1E-15
41
1
10
187.064161712994
20
-8.8117106873928
30
1E-15
0
SPLINE
5
1DD
100
AcDbEntity
8
1
62
256
6
ByLayer
370
-1
48
1
60
0
100
AcDbSpline
70
4
71
3
72
16
73
12
40
0
40
0
40
0
40
0
40
7.1650786164E-05
40
7.1650786164E-05
40
0.24971294577808
40
0.24971294577808
40
0.624679821504712
40
0.624679821504712
40
0.999928349213838
40
0.999928349213838
40
1
40
1
40
1
40
1
41
1
10
179.15568234264
20
-8.20075080605079
30
5E-16
41
1
10
179.155683652739
20
-8.20073517085473
30
5E-16
41
1
10
179.155684962819
20
-8.200719535697
30
5E-16
41
1
10
179.16025090649
20
-8.14622857127443
30
5E-16
41
1
10
179.165046330154
20
-8.09128428666597
30
5E-16
41
1
10
179.177602940404
20
-7.95272629504206
30
5E-16
41
1
10
179.185646458933
20
-7.86854497472766
30
5E-16
41
1
10
179.202700147095
20
-7.69832115841817
30
5E-16
41
1
10
179.211713262171
20
-7.61225489840501
30
5E-16
41
1
10
179.221185305368
20
-7.52535072419062
30
5E-16
41
1
10
179.221187113792
20
-7.5253341324964
30
5E-16
41
1
10
179.221188922199
20
-7.52531754083259
30
5E-16
0
SPLINE
5
1DE
100
AcDbEntity
8
1
62
256
6
ByLayer
370
-1
48
1
60
0
100
AcDbSpline
70
4
71
3
72
16
73
12
40
0
40
0
40
0
40
0
40
0.242357006779002
40
0.242357006779002
40
0.484784571203363
40
0.484784571203363
40
0.727217194262392
40
0.727217194262392
40
0.96964940928034
40
0.96964940928034
40
1
40
1
40
1
40
1
41
1
10
186.89147772348
20
-11.4665247310231
30
1E-15
41
1
10
187.002707067574
20
-11.469541789678
30
1E-15
41
1
10
187.115389588809
20
-11.462304667339
30
1E-15
41
1
10
187.325038211025
20
-11.4284107176184
30
1E-15
41
1
10
187.424890298545
20
-11.4013249723964
30
1E-15
41
1
10
187.598088243841
20
-11.3312995660956
30
1E-15
41
1
10
187.673824100772
20
-11.2874233562447
30
1E-15
41
1
10
187.791010880849
20
-11.189163326595
30
1E-15
41
1
10
187.834075265541
20
-11.1334270320517
30
1E-15
41
1
10
187.861099670178
20
-11.0684030293104
30
1E-15
41
1
10
187.863850866471
20
-11.061032170092
30
1E-15
41
1
10
187.866304913043
20
-11.0536260557039
30
1E-15
0
SPLINE
5
1DF
100
AcDbEntity
8
1
62
256
6
ByLayer
370
-1
48
1
60
0
100
AcDbSpline
70
4
71
5
72
12
73
6
40
0
40
0
40
0
40
0
40
0
40
0
40
1
40
1
40
1
40
1
40
1
40
1
41
1
10
186.146050400649
20
-10.5737529665968
30
9E-16
41
1
10
186.08229509514
20
-10.5717020838068
30
9E-16
41
1
10
186.01877650327
20
-10.5682065157
30
9E-16
41
1
10
185.95549464123
20
-10.563278576759
30
9E-16
41
1
10
185.892447995216
20
-10.5569190090434
30
9E-16
41
1
10
185.829641483083
20
-10.5491132153465
30
9E-16
0
SPLINE
5
1E0
100
AcDbEntity
8
1
62
256
6
ByLayer
370
-1
48
1
60
0
100
AcDbSpline
70
4
71
3
72
28
73
24
40
0
40
0
40
0
40
0
40
5.90385901874E-05
40
5.90385901874E-05
40
0.154146260789385
40
0.154146260789385
40
0.489794994350242
40
0.489794994350242
40
0.589296251629343
40
0.589296251629343
40
0.829545578822811
40
0.829545578822811
40
0.905423872995048
40
0.905423872995048
40
0.938427982513156
40
0.938427982513156
40
0.961295188463221
40
0.961295188463221
40
0.980714928422744
40
0.980714928422744
40
0.999940961411295
40
0.999940961411295
40
1
40
1
40
1
40
1
41
1
10
187.52989062077
20
-8.64791796875861
30
1E-15
41
1
10
187.529888668885
20
-8.6479347762569
30
1E-15
41
1
10
187.529886716894
20
-8.64795158423189
30
1E-15
41
1
10
187.524787229593
20
-8.69183627733042
30
1E-15
41
1
10
187.514219147789
20
-8.73716659689737
30
1E-15
41
1
10
187.46850729844
20
-8.88028549432747
30
1E-15
41
1
10
187.419281324646
20
-8.98153569498845
30
1E-15
41
1
10
187.342993404521
20
-9.10431792638377
30
1E-15
41
1
10
187.324303347575
20
-9.13224492111678
30
1E-15
41
1
10
187.256941288948
20
-9.22406168662317
30
1E-15
41
1
10
187.202033763031
20
-9.28701416910093
30
1E-15
41
1
10
187.112678271517
20
-9.34476072545041
30
1E-15
41
1
10
187.089294416711
20
-9.35673847543501
30
1E-15
41
1
10
187.054047952675
20
-9.36857521505812
30
1E-15
41
1
10
187.043048735652
20
-9.3714793865847
30
1E-15
41
1
10
187.024201721497
20
-9.37498349748651
30
1E-15
41
1
10
187.016398058268
20
-9.37602194506766
30
1E-15
41
1
10
187.0019246948
20
-9.37715637076084
30
1E-15
41
1
10
186.995246386701
20
-9.37737209033111
30
1E-15
41
1
10
186.981980839915
20
-9.37718317244224
30
1E-15
41
1
10
186.975379668794
20
-9.37678452179992
30
1E-15
41
1
10
186.968798182874
20
-9.37608582540577
30
1E-15
41
1
10
186.968778324862
20
-9.37608371195256
30
1E-15
41
1
10
186.968758466525
20
-9.37608160081638
30
1E-15
0
SPLINE
5
1E1
100
AcDbEntity
8
1
62
256
6
ByLayer
370
-1
48
1
60
0
100
AcDbSpline
70
4
71
3
72
8
73
4
40
0
40
0
40
0
40
0
40
1
40
1
40
1
40
1
41
1
10
188.998874259099
20
-7.31387683189286
30
-7E-16
41
1
10
188.99903773588
20
-7.31727231614926
30
-7E-16
41
1
10
188.999200723743
20
-7.32066600223774
30
-7E-16
41
1
10
188.999363220763
20
-7.32405787543655
30
-7E-16
0
SPLINE
5
1E2
100
AcDbEntity
8
1
62
256
6
ByLayer
370
-1
48
1
60
0
100
AcDbSpline
70
4
71
2
72
6
73
3
40
0
40
0
40
0
40
1
40
1
40
1
41
1
10
178.723600319579
20
-9.71248303693591
30
5E-16
41
1
10
178.724504433981
20
-9.62120011111676
30
5E-16
41
1
10
178.753961553372
20
-9.53214069412414
30
5E-16
0
SPLINE
5
1E3
100
AcDbEntity
8
1
62
256
6
ByLayer
370
-1
48
1
60
0
100
AcDbSpline
70
4
71
3
72
18
73
14
40
0
40
0
40
0
40
0
40
0.209690342812385
40
0.209690342812385
40
0.384309233582001
40
0.384309233582001
40
0.560642491774537
40
0.560642491774537
40
0.713704078842838
40
0.713704078842838
40
0.916067950438755
40
0.916067950438755
40
1
40
1
40
1
40
1
41
1
10
182.58008709691
20
16.5862214333627
30
0
41
1
10
182.6510828843
20
16.5795323089181
30
0
41
1
10
182.72525991771
20
16.5835211558928
30
0
41
1
10
182.858904309225
20
16.6133218528149
30
0
41
1
10
182.920229988571
20
16.635873014521
30
0
41
1
10
183.034704461134
20
16.6985797398897
30
0
41
1
10
183.089367475013
20
16.7400151418846
30
0
41
1
10
183.175284425179
20
16.8284465874502
30
0
41
1
10
183.209767685562
20
16.8749792394994
30
0
41
1
10
183.2729497275
20
16.9867687707241
30
0
41
1
10
183.297525626819
20
17.0550350383136
30
0
41
1
10
183.316743804919
20
17.1512602685416
30
0
41
1
10
183.320564597876
20
17.1798378496256
30
0
41
1
10
183.322597104592
20
17.2083099821347
30
0
0
SPLINE
5
1E4
100
AcDbEntity
8
1
62
256
6
ByLayer
370
-1
48
1
60
0
100
AcDbSpline
70
4
71
3
72
18
73
14
40
0
40
0
40
0
40
0
40
0.0058000558530805
40
0.0058000558530805
40
0.230116966209837
40
0.230116966209837
40
0.453900777556669
40
0.453900777556669
40
0.689434898340119
40
0.689434898340119
40
0.946525602695101
40
0.946525602695101
40
1
40
1
40
1
40
1
41
1
10
185.130202936944
20
16.9029515095098
30
0
41
1
10
185.129699487835
20
16.9035480013152
30
0
41
1
10
185.12919369242
20
16.9041424505483
30
0
41
1
10
185.109300496125
20
16.9273345207663
30
0
41
1
10
185.086165580548
20
16.9471214656739
30
0
41
1
10
185.036444786472
20
16.9779929953594
30
0
41
1
10
185.009240418644
20
16.9895116208698
30
0
41
1
10
184.952976569409
20
17.0040397473937
30
0
41
1
10
184.923195968468
20
17.0067825363894
30
0
41
1
10
184.86340094773
20
17.0032873161513
30
0
41
1
10
184.832862799857
20
16.9961959800225
30
0
41
1
10
184.799082191717
20
16.9824661357738
30
0
41
1
10
184.79331097088
20
16.9798902063034
30
0
41
1
10
184.787649947561
20
16.9771338366486
30
0
0
SPLINE
5
1E5
100
AcDbEntity
8
1
62
256
6
ByLayer
370
-1
48
1
60
0
100
AcDbSpline
70
4
71
3
72
12
73
8
40
0
40
0
40
0
40
0
40
0.292962086869427
40
0.292962086869427
40
0.753880432032317
40
0.753880432032317
40
1
40
1
40
1
40
1
41
1
10
182.6602034829
20
15.6884800230753
30
0
41
1
10
182.646205228176
20
15.7338582030178
30
0
41
1
10
182.627313910236
20
15.7777088402763
30
0
41
1
10
182.569572018311
20
15.8816407131232
30
0
41
1
10
182.524641163047
20
15.9383709097595
30
0
41
1
10
182.447555517131
20
16.0113005004212
30
0
41
1
10
182.41878558444
20
16.0344651924393
30
0
41
1
10
182.388771261864
20
16.0550844655958
30
0
0
SPLINE
5
1E6
100
AcDbEntity
8
1
62
256
6
ByLayer
370
-1
48
1
60
0
100
AcDbSpline
70
4
71
3
72
18
73
14
40
0
40
0
40
0
40
0
40
0.210891017482363
40
0.210891017482363
40
0.385261967629756
40
0.385261967629756
40
0.561332491745955
40
0.561332491745955
40
0.714323010919527
40
0.714323010919527
40
0.916870781483722
40
0.916870781483722
40
1
40
1
40
1
40
1
41
1
10
183.877364432901
20
17.3065474703737
30
0
41
1
10
183.908577407002
20
17.2421740563231
30
0
41
1
10
183.95068375119
20
17.1803999449862
30
0
41
1
10
184.045633013534
20
17.0807554773709
30
0
41
1
10
184.096540087536
20
17.0395851081779
30
0
41
1
10
184.208888176509
20
16.9728337466294
30
0
41
1
10
184.272184192474
20
16.9465870567521
30
0
41
1
10
184.391295922021
20
16.9166933430983
30
0
41
1
10
184.448409460304
20
16.9100914186582
30
0
41
1
10
184.575534271908
20
16.9110051994536
30
0
41
1
10
184.645945864715
20
16.9235505211832
30
0
41
1
10
184.736945835717
20
16.954374039161
30
0
41
1
10
184.762786948912
20
16.9650279661816
30
0
41
1
10
184.787649947562
20
16.9771338366483
30
0
0
SPLINE
5
1E7
100
AcDbEntity
8
1
62
256
6
ByLayer
370
-1
48
1
60
0
100
AcDbSpline
70
4
71
3
72
16
73
12
40
0
40
0
40
0
40
0
40
0.0450329653888653
40
0.0450329653888653
40
0.268160035460992
40
0.268160035460992
40
0.493056012948033
40
0.493056012948033
40
0.731570212688054
40
0.731570212688054
40
1
40
1
40
1
40
1
41
1
10
184.140829218178
20
14.1704622276371
30
0
41
1
10
184.146771996416
20
14.1715145671989
30
0
41
1
10
184.152688834128
20
14.1727506229532
30
0
41
1
10
184.187394593837
20
14.1811175871271
30
0
41
1
10
184.215526682269
20
14.1926347232337
30
0
41
1
10
184.266182558778
20
14.2227225479268
30
0
41
1
10
184.289317782568
20
14.2417127892466
30
0
41
1
10
184.329248917494
20
14.2853836173313
30
0
41
1
10
184.346099678603
20
14.310865468076
30
0
41
1
10
184.37245484243
20
14.3670553987617
30
0
41
1
10
184.381163979554
20
14.3987445515506
30
0
41
1
10
184.384580530932
20
14.4299820349934
30
0
0
SPLINE
5
1E8
100
AcDbEntity
8
1
62
256
6
ByLayer
370
-1
48
1
60
0
100
AcDbSpline
70
4
71
3
72
16
73
12
40
0
40
0
40
0
40
0
40
0.0526800912996144
40
0.0526800912996144
40
0.275698614727264
40
0.275698614727264
40
0.500926140781932
40
0.500926140781932
40
0.740131899731791
40
0.740131899731791
40
1
40
1
40
1
40
1
41
1
10
182.569370529162
20
14.7391408550137
30
0
41
1
10
182.573918793205
20
14.7337520238872
30
0
41
1
10
182.578670690258
20
14.7285221072123
30
0
41
1
10
182.604322471814
20
14.7022784121037
30
0
41
1
10
182.62865942325
20
14.6840742612355
30
0
41
1
10
182.680681935317
20
14.6561361223614
30
0
41
1
10
182.709050040677
20
14.6461114618883
30
0
41
1
10
182.767588607981
20
14.6344949373261
30
0
41
1
10
182.798488624725
20
14.63328853795
30
0
41
1
10
182.860034006332
20
14.6398547499299
30
0
41
1
10
182.891191239081
20
14.6484564882454
30
0
41
1
10
182.919527687963
20
14.6611581804815
30
0
0
SPLINE
5
1E9
100
AcDbEntity
8
1
62
256
6
ByLayer
370
-1
48
1
60
0
100
AcDbSpline
70
4
71
3
72
18
73
14
40
0
40
0
40
0
40
0
40
0.176970615803571
40
0.176970615803571
40
0.357621063606845
40
0.357621063606845
40
0.540361697874392
40
0.540361697874392
40
0.695004620473827
40
0.695004620473827
40
0.891921324234833
40
0.891921324234833
40
1
40
1
40
1
40
1
41
1
10
185.127090538615
20
15.0520705837673
30
0
41
1
10
185.069295423548
20
15.0566480484077
30
0
41
1
10
185.009279748975
20
15.0536944586907
30
0
41
1
10
184.888250534186
20
15.0307242646197
30
0
41
1
10
184.825811430156
20
15.0099035695573
30
0
41
1
10
184.707121841358
20
14.9496952380638
30
0
41
1
10
184.649167961708
20
14.9089324771341
30
0
41
1
10
184.557351802863
20
14.8215587505582
30
0
41
1
10
184.520008418287
20
14.775803080719
30
0
41
1
10
184.451319950953
20
14.6677745175015
30
0
41
1
10
184.423056326184
20
14.6027039767431
30
0
41
1
10
184.395359199056
20
14.5020895359384
30
0
41
1
10
184.388511566886
20
14.4659234440119
30
0
41
1
10
184.384580530932
20
14.4299820349934
30
0
0
SPLINE
5
1EA
100
AcDbEntity
8
1
62
256
6
ByLayer
370
-1
48
1
60
0
100
AcDbSpline
70
4
71
3
72
18
73
14
40
0
40
0
40
0
40
0
40
0.193508507705548
40
0.193508507705548
40
0.3710553068063
40
0.3710553068063
40
0.550504457754768
40
0.550504457754768
40
0.704261574846495
40
0.704261574846495
40
0.90385768238856
40
0.90385768238856
40
1
40
1
40
1
40
1
41
1
10
183.829813202624
20
14.3317445467566
30
0
41
1
10
183.80351710483
20
14.3896330231649
30
0
41
1
10
183.767998256009
20
14.4453185251564
30
0
41
1
10
183.683118067021
20
14.5414121353289
30
0
41
1
10
183.634010518143
20
14.5837132870819
30
0
41
1
10
183.523227676946
20
14.6532805953361
30
0
41
1
10
183.459594808463
20
14.6812696493018
30
0
41
1
10
183.338731348307
20
14.7141328094588
30
0
41
1
10
183.280464990101
20
14.7222078791024
30
0
41
1
10
183.151149466252
20
14.7246854911811
30
0
41
1
10
183.079273798028
20
14.714572830767
30
0
41
1
10
182.980758734063
20
14.6861012574987
30
0
41
1
10
182.949499217841
20
14.6745927907931
30
0
41
1
10
182.919527687963
20
14.6611581804815
30
0
0
SPLINE
5
1EB
100
AcDbEntity
8
1
62
256
6
ByLayer
370
-1
48
1
60
0
100
AcDbSpline
70
4
71
3
72
12
73
8
40
0
40
0
40
0
40
0
40
0.319480738744521
40
0.319480738744521
40
0.787898433354199
40
0.787898433354199
40
1
40
1
40
1
40
1
41
1
10
185.058310262992
20
15.9441465288194
30
0
41
1
10
185.073186713701
20
15.8948395651948
30
0
41
1
10
185.093540923681
20
15.8475221089731
30
0
41
1
10
185.153217435589
20
15.7415782890339
30
0
41
1
10
185.197832714348
20
15.6860840664224
30
0
41
1
10
185.26997314573
20
15.6194357457307
30
0
41
1
10
185.29379988427
20
15.6003439752086
30
0
41
1
10
185.318527765882
20
15.5831468831576
30
0
0
SPLINE
5
1EC
100
AcDbEntity
8
1
62
256
6
ByLayer
370
-1
48
1
60
0
100
AcDbSpline
70
4
71
3
72
16
73
12
40
0
40
0
40
0
40
0
40
0.168600372490341
40
0.168600372490341
40
0.469157707272526
40
0.469157707272526
40
0.740689655512526
40
0.740689655512526
40
0.981796429833299
40
0.981796429833299
40
1
40
1
40
1
40
1
41
1
10
182.58008709691
20
16.5862214333667
30
0
41
1
10
182.55986516622
20
16.5881267155796
30
0
41
1
10
182.539184634705
20
16.5879988587543
30
0
41
1
10
182.482147852251
20
16.5816346329174
30
0
41
1
10
182.445068660327
20
16.5704498349569
30
0
41
1
10
182.381049026752
20
16.5360416449079
30
0
41
1
10
182.352520539259
20
16.5134885228004
30
0
41
1
10
182.308534010972
20
16.4625791148491
30
0
41
1
10
182.291363983387
20
16.4343989783293
30
0
41
1
10
182.278644300886
20
16.4022986097516
30
0
41
1
10
182.277768534086
20
16.4000027830668
30
0
41
1
10
182.276922462935
20
16.3976962561819
30
0
0
SPLINE
5
1ED
100
AcDbEntity
8
1
62
256
6
ByLayer
370
-1
48
1
60
0
100
AcDbSpline
70
4
71
3
72
14
73
10
40
0
40
0
40
0
40
0
40
0.276278928109045
40
0.276278928109045
40
0.561748923409813
40
0.561748923409813
40
0.819971175535706
40
0.819971175535706
40
1
40
1
40
1
40
1
41
1
10
182.558175166871
20
15.0943471789603
30
0
41
1
10
182.538565959869
20
15.0678045548775
30
0
41
1
10
182.523048839281
20
15.0371487171154
30
0
41
1
10
182.50345971802
20
14.9707776603911
30
0
41
1
10
182.499545570666
20
14.9338707456338
30
0
41
1
10
182.505977277822
20
14.8643720314716
30
0
41
1
10
182.515157513223
20
14.8306578837537
30
0
41
1
10
182.540418656834
20
14.7782495441296
30
0
41
1
10
182.553764511951
20
14.7576310285172
30
0
41
1
10
182.569370529162
20
14.7391408550137
30
0
0
SPLINE
5
1EE
100
AcDbEntity
8
1
62
256
6
ByLayer
370
-1
48
1
60
0
100
AcDbSpline
70
4
71
3
72
16
73
12
40
0
40
0
40
0
40
0
40
0.0555345294772754
40
0.0555345294772754
40
0.276343489079331
40
0.276343489079331
40
0.499532881966128
40
0.499532881966128
40
0.736722372963766
40
0.736722372963766
40
1
40
1
40
1
40
1
41
1
10
185.42265100317
20
15.2443961083416
30
0
41
1
10
185.425236627382
20
15.2514449383978
30
0
41
1
10
185.427557159158
20
15.2585975833152
30
0
41
1
10
185.437665165124
20
15.2943001370775
30
0
41
1
10
185.441417799432
20
15.3242936959792
30
0
41
1
10
185.440073512248
20
15.3827526867954
30
0
41
1
10
185.434886751724
20
15.4119436365842
30
0
41
1
10
185.416438071969
20
15.4674884114083
30
0
41
1
10
185.402488776783
20
15.4942555539928
30
0
41
1
10
185.36667837428
20
15.5434055849283
30
0
41
1
10
185.343691693038
20
15.5656465417028
30
0
41
1
10
185.318527765882
20
15.5831468831579
30
0
0
SPLINE
5
1EF
100
AcDbEntity
8
1
62
256
6
ByLayer
370
-1
48
1
60
0
100
AcDbSpline
70
4
71
3
72
16
73
12
40
0
40
0
40
0
40
0
40
0.109813547250548
40
0.109813547250548
40
0.332075192645691
40
0.332075192645691
40
0.55975428805446
40
0.55975428805446
40
0.803999141238085
40
0.803999141238085
40
1
40
1
40
1
40
1
41
1
10
183.558744247928
20
17.4716301368864
30
0
41
1
10
183.544332727913
20
17.469078163373
30
0
41
1
10
183.53008323047
20
17.4654149630254
30
0
41
1
10
183.488439031078
20
17.4512553181359
30
0
41
1
10
183.461935874383
20
17.4373226437071
30
0
41
1
10
183.414969262443
20
17.4027300222741
30
0
41
1
10
183.394058572597
20
17.3814973618228
30
0
41
1
10
183.359138372772
20
17.3335399350933
30
0
41
1
10
183.345278022909
20
17.3059478628575
30
0
41
1
10
183.328748665948
20
17.2550335660141
30
0
41
1
10
183.324259080233
20
17.2315915734345
30
0
41
1
10
183.322597104592
20
17.2083099821347
30
0
0
SPLINE
5
1F0
100
AcDbEntity
8
1
62
256
6
ByLayer
370
-1
48
1
60
0
100
AcDbSpline
70
4
71
3
72
12
73
8
40
0
40
0
40
0
40
0
40
0.491363967326628
40
0.491363967326628
40
0.897005641995576
40
0.897005641995576
40
1
40
1
40
1
40
1
41
1
10
185.149123860875
20
16.5438841697926
30
0
41
1
10
185.109525732934
20
16.4855155312068
30
0
41
1
10
185.077565590647
20
16.418862571391
30
0
41
1
10
185.039323869738
20
16.287695859017
30
0
41
1
10
185.029250492364
20
16.223307894727
30
0
41
1
10
185.028112134975
20
16.1415268240345
30
0
41
1
10
185.028465155953
20
16.1247710386443
30
0
41
1
10
185.029415469061
20
16.1080170483199
30
0
0
SPLINE
5
1F1
100
AcDbEntity
8
1
62
256
6
ByLayer
370
-1
48
1
60
0
100
AcDbSpline
70
4
71
3
72
14
73
10
40
0
40
0
40
0
40
0
40
0.274262584732607
40
0.274262584732607
40
0.561804091636787
40
0.561804091636787
40
0.821953442746808
40
0.821953442746808
40
1
40
1
40
1
40
1
41
1
10
185.127090538615
20
15.0520705837673
30
0
41
1
10
185.158746354778
20
15.0495633929956
30
0
41
1
10
185.191871988928
20
15.0524505083034
30
0
41
1
10
185.257458442467
20
15.0702242480387
30
0
41
1
10
185.290822591906
20
15.0860336660329
30
0
41
1
10
185.346978768777
20
15.1274211627703
30
0
41
1
10
185.371289379668
20
15.1526011549507
30
0
41
1
10
185.403517877836
20
15.2006458829844
30
0
41
1
10
185.414480718485
20
15.2221225900175
30
0
41
1
10
185.42265100317
20
15.2443961083416
30
0
0
SPLINE
5
1F2
100
AcDbEntity
8
1
62
256
6
ByLayer
370
-1
48
1
60
0
100
AcDbSpline
70
4
71
3
72
16
73
12
40
0
40
0
40
0
40
0
40
0.20493163756828
40
0.20493163756828
40
0.42600178588564
40
0.42600178588564
40
0.657541229266878
40
0.657541229266878
40
0.909531731740459
40
0.909531731740459
40
1
40
1
40
1
40
1
41
1
10
182.276922462935
20
16.3976962561819
30
0
41
1
10
182.267457111059
20
16.3718921751009
30
0
41
1
10
182.261692757151
20
16.3443847064242
30
0
41
1
10
182.258046978156
20
16.2877326020224
30
0
41
1
10
182.260779907864
20
16.257906179128
30
0
41
1
10
182.274751760219
20
16.2005135210686
30
0
41
1
10
182.28653390532
20
16.1723933089796
30
0
41
1
10
182.318177246325
20
16.1199939653627
30
0
41
1
10
182.33902624046
20
16.0955992627405
30
0
41
1
10
182.37084904573
20
16.0681311211395
30
0
41
1
10
182.379665744007
20
16.061339784517
30
0
41
1
10
182.388771261864
20
16.0550844655955
30
0
0
SPLINE
5
1F3
100
AcDbEntity
8
1
62
256
6
ByLayer
370
-1
48
1
60
0
100
AcDbSpline
70
4
71
3
72
14
73
10
40
0
40
0
40
0
40
0
40
0.2105536729631
40
0.2105536729631
40
0.504187047622205
40
0.504187047622205
40
0.769393630874454
40
0.769393630874454
40
1
40
1
40
1
40
1
41
1
10
185.149123860876
20
16.5438841697918
30
0
41
1
10
185.163169548165
20
16.5645878668512
30
0
41
1
10
185.174851274653
20
16.587586107352
30
0
41
1
10
185.195294248397
20
16.6459116930468
30
0
41
1
10
185.201339564274
20
16.6835854024999
30
0
41
1
10
185.198808963423
20
16.7554690376527
30
0
41
1
10
185.191483883327
20
16.7907637920844
30
0
41
1
10
185.166616542547
20
16.8519486025868
30
0
41
1
10
185.150173744061
20
16.8792898869698
30
0
41
1
10
185.130202936944
20
16.9029515095098
30
0
0
SPLINE
5
1F4
100
AcDbEntity
8
1
62
256
6
ByLayer
370
-1
48
1
60
0
100
AcDbSpline
70
4
71
3
72
14
73
10
40
0
40
0
40
0
40
0
40
0.258804766074857
40
0.258804766074857
40
0.548285925569074
40
0.548285925569074
40
0.810027550056818
40
0.810027550056818
40
1
40
1
40
1
40
1
41
1
10
183.829813202624
20
14.3317445467564
30
0
41
1
10
183.842248776672
20
14.3043687573689
30
0
41
1
10
183.859493329992
20
14.2783109352499
30
0
41
1
10
183.90462777566
20
14.2302624031868
30
0
41
1
10
183.934325762134
20
14.2084047911188
30
0
41
1
10
183.997398236433
20
14.1789628655926
30
0
41
1
10
184.031132886095
20
14.1698217207107
30
0
41
1
10
184.090239270906
20
14.1648867953004
30
0
41
1
10
184.115921631444
20
14.1660516240669
30
0
41
1
10
184.140829218178
20
14.1704622276371
30
0
0
SPLINE
5
1F5
100
AcDbEntity
8
1
62
256
6
ByLayer
370
-1
48
1
60
0
100
AcDbSpline
70
4
71
3
72
12
73
8
40
0
40
0
40
0
40
0
40
0.445120319338116
40
0.445120319338116
40
0.859036144067812
40
0.859036144067812
40
1
40
1
40
1
40
1
41
1
10
182.558175166871
20
15.0943471789597
30
0
41
1
10
182.596396272414
20
15.146082490661
30
0
41
1
10
182.628191834071
20
15.2045756586687
30
0
41
1
10
182.671920120249
20
15.3265013820376
30
0
41
1
10
182.68543159519
20
15.390792578361
30
0
41
1
10
182.690157994191
20
15.4790335476782
30
0
41
1
10
182.690221695023
20
15.5018108927519
30
0
41
1
10
182.689098276831
20
15.524609503574
30
0
0
SPLINE
5
1F6
100
AcDbEntity
8
1
62
256
6
ByLayer
370
-1
48
1
60
0
100
AcDbSpline
70
4
71
3
72
16
73
12
40
0
40
0
40
0
40
0
40
0.0189133146404306
40
0.0189133146404306
40
0.339063787124933
40
0.339063787124933
40
0.626750609961644
40
0.626750609961644
40
0.87977286960593
40
0.87977286960593
40
1
40
1
40
1
40
1
41
1
10
183.8773644329
20
17.3065474703737
30
0
41
1
10
183.876363623491
20
17.308611532527
30
0
41
1
10
183.875338157003
20
17.3106667150079
30
0
41
1
10
183.856781195041
20
17.3468201792979
30
0
41
1
10
183.831885656442
20
17.378848151132
30
0
41
1
10
183.773934794499
20
17.4282299681372
30
0
41
1
10
183.740991149167
20
17.4474592962393
30
0
41
1
10
183.674438228358
20
17.4705841511516
30
0
41
1
10
183.640379116373
20
17.4763398261363
30
0
41
1
10
183.590712434707
20
17.4759144228653
30
0
41
1
10
183.574568328685
20
17.4744322448476
30
0
41
1
10
183.558744247928
20
17.4716301368864
30
0
0
SPLINE
5
1F7
100
AcDbEntity
8
1
62
256
6
ByLayer
370
-1
48
1
60
0
100
AcDbSpline
70
4
71
2
72
6
73
3
40
0
40
0
40
0
40
1
40
1
40
1
41
1
10
188.999380527634
20
13.0882817518363
30
0
41
1
10
188.999507347419
20
13.3281357151593
30
0
41
1
10
188.998297548153
20
13.5679881769963
30
0
0
SPLINE
5
1F8
100
AcDbEntity
8
1
62
256
6
ByLayer
370
-1
48
1
60
0
100
AcDbSpline
70
4
71
3
72
8
73
4
40
0
40
0
40
0
40
0
40
1
40
1
40
1
40
1
41
1
10
178.723404861303
20
18.5797101033828
30
0
41
1
10
178.723114074723
20
18.5762964989991
30
0
41
1
10
178.722824002387
20
18.5728810884444
30
0
41
1
10
178.722534647248
20
18.5694638756035
30
0
0
SPLINE
5
1F9
100
AcDbEntity
8
1
62
256
6
ByLayer
370
-1
48
1
60
0
100
AcDbSpline
70
4
71
3
72
12
73
8
40
0
40
0
40
0
40
0
40
0.256234765497239
40
0.256234765497239
40
0.512469530995085
40
0.512469530995085
40
1
40
1
40
1
40
1
41
1
10
178.97309738926
20
18.8492568231171
30
0
41
1
10
178.95233412892
20
18.8486367022744
30
0
41
1
10
178.931570881209
20
18.8480165765634
30
0
41
1
10
178.890044416474
20
18.8467762921196
30
0
41
1
10
178.869281199146
20
18.8461561384027
30
0
41
1
10
178.80901245604
20
18.8443560005269
30
0
41
1
10
178.769506972628
20
18.8431759839882
30
0
41
1
10
178.730001548404
20
18.841995922217
30
0
0
SPLINE
5
1FA
100
AcDbEntity
8
1
62
256
6
ByLayer
370
-1
48
1
60
0
100
AcDbSpline
70
4
71
3
72
8
73
4
40
0
40
0
40
0
40
0
40
1
40
1
40
1
40
1
41
1
10
178.730001214923
20
18.8418369631152
30
0
41
1
10
178.727672170085
20
18.7544602925801
30
0
41
1
10
178.725473390021
20
18.6670844750617
30
0
41
1
10
178.723404861303
20
18.5797101033829
30
0
0
SPLINE
5
1FB
100
AcDbEntity
8
1
62
256
6
ByLayer
370
-1
48
1
60
0
100
AcDbSpline
70
4
71
1
72
4
73
2
40
0
40
0
40
1
40
1
41
1
10
178.722535657671
20
18.5694241433866
30
0
41
1
10
178.723216455488
20
18.5426535682545
30
0
0
SPLINE
5
1FC
100
AcDbEntity
8
1
62
256
6
ByLayer
370
-1
48
1
60
0
100
AcDbSpline
70
4
71
3
72
14
73
10
40
0
40
0
40
0
40
0
40
0.245608019549645
40
0.245608019549645
40
0.497072013033097
40
0.497072013033097
40
0.748536006516548
40
0.748536006516548
40
1
40
1
40
1
40
1
41
1
10
188.748800478776
20
12.7816784456499
30
0
41
1
10
188.747807970735
20
12.691509125459
30
0
41
1
10
188.734624400414
20
12.6198866974661
30
0
41
1
10
188.670347364119
20
12.4450922874404
30
0
41
1
10
188.633208764841
20
12.3809295115022
30
0
41
1
10
188.51180001742
20
12.2368374711656
30
0
41
1
10
188.455022485082
20
12.1891808317619
30
0
41
1
10
188.291913280034
20
12.0951923877801
30
0
41
1
10
188.222165879877
20
12.0697878751827
30
0
41
1
10
188.129386123878
20
12.0533073128659
30
0
0
SPLINE
5
1FD
100
AcDbEntity
8
1
62
256
6
ByLayer
370
-1
48
1
60
0
100
AcDbSpline
70
4
71
3
72
14
73
10
40
0
40
0
40
0
40
0
40
0.245608019549644
40
0.245608019549644
40
0.497072013033096
40
0.497072013033096
40
0.748536006516548
40
0.748536006516548
40
1
40
1
40
1
40
1
41
1
10
178.973097389236
20
18.8492568183515
30
0
41
1
10
178.974089897277
20
18.9394261385423
30
0
41
1
10
178.987273467598
20
19.0110485665353
30
0
41
1
10
179.051550503892
20
19.185842976561
30
0
41
1
10
179.08868910317
20
19.2500057524992
30
0
41
1
10
179.210097850591
20
19.3940977928357
30
0
41
1
10
179.26687538293
20
19.4417544322395
30
0
41
1
10
179.429984587977
20
19.5357428762212
30
0
41
1
10
179.499731988134
20
19.5611473888186
30
0
41
1
10
179.592511744133
20
19.5776279511355
30
0
0
SPLINE
5
1FE
100
AcDbEntity
8
1
62
256
6
ByLayer
370
-1
48
1
60
0
100
AcDbSpline
70
4
71
3
72
16
73
12
40
0
40
0
40
0
40
0
40
0.242357006778982
40
0.242357006778982
40
0.484784571203332
40
0.484784571203332
40
0.727217194262386
40
0.727217194262386
40
0.96964940928036
40
0.96964940928036
40
1
40
1
40
1
40
1
41
1
10
178.730002346329
20
18.8419938322769
30
0
41
1
10
178.730468689174
20
18.9532737922521
30
0
41
1
10
178.75012963046
20
19.0660207237236
30
0
41
1
10
178.824634572544
20
19.2758097922601
30
0
41
1
10
178.880506639374
20
19.3757423247302
30
0
41
1
10
179.020227162567
20
19.5491040367626
30
0
41
1
10
179.105999516065
20
19.6249272199165
30
0
41
1
10
179.29517525262
20
19.7422825225161
30
0
41
1
10
179.401186768552
20
19.7854305708341
30
0
41
1
10
179.523631702068
20
19.8125425755529
30
0
41
1
10
179.537494548443
20
19.8153035515955
30
0
41
1
10
179.55140655976
20
19.8177672675234
30
0
0
SPLINE
5
1FF
100
AcDbEntity
8
1
62
256
6
ByLayer
370
-1
48
1
60
0
100
AcDbSpline
70
4
71
3
72
16
73
12
40
0
40
0
40
0
40
0
40
0.242357006778997
40
0.242357006778997
40
0.484784571203344
40
0.484784571203344
40
0.727217194262378
40
0.727217194262378
40
0.969649409280332
40
0.969649409280332
40
1
40
1
40
1
40
1
41
1
10
186.89147772348
20
20.9513601093973
30
0
41
1
10
187.002707067574
20
20.9509615143319
30
0
41
1
10
187.115389588809
20
20.9313599546265
30
0
41
1
10
187.325038211025
20
20.8569489904056
30
0
41
1
10
187.424890298545
20
20.8011119880874
30
0
41
1
10
187.598088243841
20
20.6614333354591
30
0
41
1
10
187.673824100772
20
20.5756677855583
30
0
41
1
10
187.791010880849
20
20.3864771017121
30
0
41
1
10
187.834075265541
20
20.2804435792027
30
0
41
1
10
187.861099670178
20
20.1579589333052
30
0
41
1
10
187.863850866471
20
20.1440914018685
30
0
41
1
10
187.866304913043
20
20.1301745034202
30
0
0
SPLINE
5
200
100
AcDbEntity
8
1
62
256
6
ByLayer
370
-1
48
1
60
0
100
AcDbSpline
70
4
71
3
72
16
73
12
40
0
40
0
40
0
40
0
40
0.242357006778997
40
0.242357006778997
40
0.484784571203346
40
0.484784571203346
40
0.727217194262378
40
0.727217194262378
40
0.969649409280335
40
0.969649409280335
40
1
40
1
40
1
40
1
41
1
10
188.994908401275
20
12.787435680277
30
0
41
1
10
188.994442746647
20
12.6761553763508
30
0
41
1
10
188.974780585491
20
12.5634090545353
30
0
41
1
10
188.900276710789
20
12.3536194525519
30
0
41
1
10
188.844403649059
20
12.2536874173051
30
0
41
1
10
188.704683876107
20
12.0803253303231
30
0
41
1
10
188.618910949935
20
12.0045024333752
30
0
41
1
10
188.429735669721
20
11.8871469027095
30
0
41
1
10
188.323724995966
20
11.8439984334956
30
0
41
1
10
188.201279233948
20
11.816886842838
30
0
41
1
10
188.187416289872
20
11.8141259156241
30
0
41
1
10
188.173504186871
20
11.8116622455171
30
0
0
SPLINE
5
201
100
AcDbEntity
8
1
62
256
6
ByLayer
370
-1
48
1
60
0
100
AcDbSpline
70
4
71
2
72
6
73
3
40
0
40
0
40
0
40
1
40
1
40
1
41
1
10
186.590018853733
20
20.9579114779109
30
0
41
1
10
186.350274565991
20
20.9578922431644
30
0
41
1
10
186.110530964816
20
20.9565357787542
30
0
0
SPLINE
5
202
100
AcDbEntity
8
1
62
256
6
ByLayer
370
-1
48
1
60
0
100
AcDbSpline
70
4
71
2
72
6
73
3
40
0
40
0
40
0
40
1
40
1
40
1
41
1
10
188.998297548433
20
13.5679881729948
30
0
41
1
10
188.997393434031
20
13.737903336381
30
0
41
1
10
188.96793631464
20
13.9052283089007
30
0
0
SPLINE
5
203
100
AcDbEntity
8
1
62
256
6
ByLayer
370
-1
48
1
60
0
100
AcDbSpline
70
4
71
3
72
14
73
10
40
0
40
0
40
0
40
0
40
0.245608019549651
40
0.245608019549651
40
0.4970720130331
40
0.4970720130331
40
0.74853600651655
40
0.74853600651655
40
1
40
1
40
1
40
1
41
1
10
186.896329414705
20
20.7074035586496
30
0
41
1
10
186.986456928522
20
20.7064655252318
30
0
41
1
10
187.05803859845
20
20.6933195536399
30
0
41
1
10
187.232713982481
20
20.6291195894838
30
0
41
1
10
187.296824816195
20
20.5920030848621
30
0
41
1
10
187.440777056513
20
20.4706265677458
30
0
41
1
10
187.488377332461
20
20.4138520898083
30
0
41
1
10
187.582223467856
20
20.2507255146035
30
0
41
1
10
187.607573883941
20
20.1809616795067
30
0
41
1
10
187.623990396747
20
20.0881495146235
30
0
0
SPLINE
5
204
100
AcDbEntity
8
1
62
256
6
ByLayer
370
-1
48
1
60
0
100
AcDbSpline
70
4
71
1
72
4
73
2
40
0
40
0
40
1
40
1
41
1
10
186.616777241284
20
20.9579094601815
30
0
41
1
10
186.590018483915
20
20.9572120429766
30
0
0
SPLINE
5
205
100
AcDbEntity
8
1
62
256
6
ByLayer
370
-1
48
1
60
0
100
AcDbSpline
70
4
71
1
72
4
73
2
40
0
40
0
40
1
40
1
41
1
10
188.99936221034
20
13.0615111206149
30
0
41
1
10
188.998681412524
20
13.0882816957468
30
0
0
SPLINE
5
206
100
AcDbEntity
8
1
62
256
6
ByLayer
370
-1
48
1
60
0
100
AcDbSpline
70
4
71
3
72
12
73
8
40
0
40
0
40
0
40
0
40
0.25623476549718
40
0.25623476549718
40
0.512469530994979
40
0.512469530994979
40
1
40
1
40
1
40
1
41
1
10
188.748800478801
20
12.7816784408597
30
0
41
1
10
188.769821055853
20
12.7821699621349
30
0
41
1
10
188.790841624418
20
12.7826614862085
30
0
41
1
10
188.832882740745
20
12.7836445624389
30
0
41
1
10
188.853903288751
20
12.7841361096086
30
0
41
1
10
188.914918993307
20
12.7855629374167
30
0
41
1
10
188.954914121246
20
12.7864982435604
30
0
41
1
10
188.994909209213
20
12.7874335853327
30
0
0
SPLINE
5
207
100
AcDbEntity
8
1
62
256
6
ByLayer
370
-1
48
1
60
0
100
AcDbSpline
70
4
71
3
72
8
73
4
40
0
40
0
40
0
40
0
40
1
40
1
40
1
40
1
41
1
10
186.627343940075
20
20.957141626703
30
0
41
1
10
186.623836580589
20
20.9573985763516
30
0
41
1
10
186.620327584333
20
20.9576548667722
30
0
41
1
10
186.616816955962
20
20.9579104952706
30
0
0
SPLINE
5
208
100
AcDbEntity
8
1
62
256
6
ByLayer
370
-1
48
1
60
0
100
AcDbSpline
70
4
71
3
72
12
73
8
40
0
40
0
40
0
40
0
40
0.256234765497269
40
0.256234765497269
40
0.512469530995052
40
0.512469530995052
40
1
40
1
40
1
40
1
41
1
10
186.896329419505
20
20.7074035586405
30
0
41
1
10
186.89591523757
20
20.7282403973879
30
0
41
1
10
186.895501053869
20
20.7490772245354
30
0
41
1
10
186.894672660852
20
20.7907508505852
30
0
41
1
10
186.894258456507
20
20.8115876497797
30
0
41
1
10
186.893056133256
20
20.8720699805882
30
0
41
1
10
186.892267992276
20
20.9117154732431
30
0
41
1
10
186.891479820462
20
20.9513609114686
30
0
0
SPLINE
5
209
100
AcDbEntity
8
1
62
256
6
ByLayer
370
-1
48
1
60
0
100
AcDbSpline
70
4
71
3
72
8
73
4
40
0
40
0
40
0
40
0
40
1
40
1
40
1
40
1
41
1
10
188.998874259099
20
13.0510346215273
30
0
41
1
10
188.99903773588
20
13.0545118517245
30
0
41
1
10
188.999200723743
20
13.0579907754811
30
0
41
1
10
188.999363220763
20
13.061471388398
30
0
0
SPLINE
5
20A
100
AcDbEntity
8
1
62
256
6
ByLayer
370
-1
48
1
60
0
100
AcDbSpline
70
4
71
3
72
8
73
4
40
0
40
0
40
0
40
0
40
1
40
1
40
1
40
1
41
1
10
186.891320763916
20
20.951361091402
30
0
41
1
10
186.803328725354
20
20.9534186587946
30
0
41
1
10
186.715336251645
20
20.95534549877
30
0
41
1
10
186.627343940075
20
20.957141626703
30
0
0
SPLINE
5
20B
100
AcDbEntity
8
1
62
256
6
ByLayer
370
-1
48
1
60
0
100
AcDbSpline
70
4
71
2
72
6
73
3
40
0
40
0
40
0
40
1
40
1
40
1
41
1
10
178.722517340377
20
18.5426535121651
30
0
41
1
10
178.722390520592
20
18.3027995488421
30
0
41
1
10
178.723600319858
20
18.0629470870051
30
0
0
SPLINE
5
20C
100
AcDbEntity
8
1
62
256
6
ByLayer
370
-1
48
1
60
0
100
AcDbSpline
70
4
71
2
72
6
73
3
40
0
40
0
40
0
40
1
40
1
40
1
41
1
10
178.723600319579
20
18.0629470910066
30
0
41
1
10
178.724504433981
20
17.8930319276203
30
0
41
1
10
178.753961553372
20
17.7257069551006
30
0
0
SPLINE
5
20D
100
AcDbEntity
8
1
62
256
6
ByLayer
370
-1
48
1
60
0
100
AcDbSpline
70
4
71
2
72
6
73
3
40
0
40
0
40
0
40
1
40
1
40
1
41
1
10
186.110530968816
20
20.9565357790361
30
0
41
1
10
185.940692895317
20
20.9555277432592
30
0
41
1
10
185.77342643541
20
20.9259552168569
30
0
0
LINE
5
57
100
AcDbEntity
8
SK1
62
256
6
ByLayer
370
-1
48
1
60
0
100
AcDbLine
10
-60
20
-15.996
30
0
11
0
21
-15.996
31
0
39
0
210
0
220
0
230
1
0
LINE
5
59
100
AcDbEntity
8
SK1
62
256
6
ByLayer
370
-1
48
1
60
0
100
AcDbLine
10
0
20
15.996
30
0
11
-60
21
15.996
31
0
39
0
210
0
220
0
230
1
0
LINE
5
5A
100
AcDbEntity
8
SK1
62
256
6
ByLayer
370
-1
48
1
60
0
100
AcDbLine
10
-60
20
15.996
30
0
11
-61
21
14.996
31
0
39
0
210
0
220
0
230
1
0
LINE
5
5B
100
AcDbEntity
8
SK1
62
256
6
ByLayer
370
-1
48
1
60
0
100
AcDbLine
10
-61
20
-14.996
30
0
11
-60
21
-15.996
31
0
39
0
210
0
220
0
230
1
0
LINE
5
5C
100
AcDbEntity
8
1
62
256
6
ByLayer
370
-1
48
1
60
0
100
AcDbLine
10
179.38843
20
-6.84023
30
0
11
179.295579
21
-7.182532
31
0
39
0
210
0
220
0
230
1
0
LINE
5
5E
100
AcDbEntity
8
1
62
256
6
ByLayer
370
-1
48
1
60
0
100
AcDbLine
10
188.585722
20
-4.662291
30
0
11
188.330628
21
-3.790705
31
0
39
0
210
0
220
0
230
1
0
LINE
5
5F
100
AcDbEntity
8
1
62
256
6
ByLayer
370
-1
48
1
60
0
100
AcDbLine
10
185.701945
20
-1.477433
30
0
11
185.40201
21
-1.264121
31
0
39
0
210
0
220
0
230
1
0
LINE
5
60
100
AcDbEntity
8
1
62
256
6
ByLayer
370
-1
48
1
60
0
100
AcDbLine
10
182.936103
20
-1.162019
30
0
11
182.619561
21
-1.349806
31
0
39
0
210
0
220
0
230
1
0
LINE
5
61
100
AcDbEntity
8
1
62
256
6
ByLayer
370
-1
48
1
60
0
100
AcDbLine
10
188.381894
20
-9.826665
30
0
11
188.524256
21
-9.115824
31
0
39
0
210
0
220
0
230
1
0
LINE
5
62
100
AcDbEntity
8
1
62
256
6
ByLayer
370
-1
48
1
60
0
100
AcDbLine
10
183.561903
20
14.630395
30
0
11
183.521292
21
14.650691
31
0
39
0
210
0
220
0
230
1
0
LINE
5
63
100
AcDbEntity
8
1
62
256
6
ByLayer
370
-1
48
1
60
0
100
AcDbLine
10
184.196558
20
16.982267
30
0
11
184.237134
21
16.961988
31
0
39
0
210
0
220
0
230
1
0
LINE
5
64
100
AcDbEntity
8
1
62
256
6
ByLayer
370
-1
48
1
60
0
100
AcDbLine
10
185.113368
20
18.235909
30
0
11
185.079054
21
18.253058
31
0
39
0
210
0
220
0
230
1
0
LINE
5
65
100
AcDbEntity
8
1
62
256
6
ByLayer
370
-1
48
1
60
0
100
AcDbLine
10
182.642631
20
13.377984
30
0
11
182.676945
21
13.360835
31
0
39
0
210
0
220
0
230
1
0
LINE
5
66
100
AcDbEntity
8
1
62
256
6
ByLayer
370
-1
48
1
60
0
100
AcDbLine
10
155.817496
20
18.406626
30
0
11
140.04118
21
15.752927
31
0
39
0
210
0
220
0
230
1
0
LINE
5
67
100
AcDbEntity
8
1
62
256
6
ByLayer
370
-1
48
1
60
0
100
AcDbLine
10
140.04118
20
-15.752927
30
0
11
160.628681
21
-19.215904
31
0
39
0
210
0
220
0
230
1
0
LINE
5
68
100
AcDbEntity
8
1
62
256
6
ByLayer
370
-1
48
1
60
0
100
AcDbLine
10
0
20
-15.996
30
0
11
139
21
-15.996
31
0
39
0
210
0
220
0
230
1
0
LINE
5
69
100
AcDbEntity
8
1
62
256
6
ByLayer
370
-1
48
1
60
0
100
AcDbLine
10
139
20
15.996
30
0
11
0
21
15.996
31
0
39
0
210
0
220
0
230
1
0
LINE
5
6A
100
AcDbEntity
8
1
62
256
6
ByLayer
370
-1
48
1
60
0
100
AcDbLine
10
139.433013
20
-15.746
30
0
11
139.958241
21
-15.746
31
0
39
0
210
0
220
0
230
1
0
LINE
5
6B
100
AcDbEntity
8
1
62
256
6
ByLayer
370
-1
48
1
60
0
100
AcDbLine
10
139.958241
20
15.746
30
0
11
139.433013
21
15.746
31
0
39
0
210
0
220
0
230
1
0
LINE
5
6C
100
AcDbEntity
8
1
62
256
6
ByLayer
370
-1
48
1
60
0
100
AcDbLine
10
162.287455
20
-19.354441
30
0
11
178.816884
21
-19.354441
31
0
39
0
210
0
220
0
230
1
0
LINE
5
6D
100
AcDbEntity
8
1
62
256
6
ByLayer
370
-1
48
1
60
0
100
AcDbLine
10
180.467418
20
-19.491594
30
0
11
185.908107
21
-20.402086
31
0
39
0
210
0
220
0
230
1
0
LINE
5
6E
100
AcDbEntity
8
80
62
256
6
ByLayer
370
-1
48
1
60
0
100
AcDbLine
10
0
20
0
30
0
11
-10
21
0
31
0
39
0
210
0
220
0
230
1
0
LINE
5
6F
100
AcDbEntity
8
81
62
256
6
ByLayer
370
-1
48
1
60
0
100
AcDbLine
10
184
20
20.96
30
0
11
194
21
20.96
31
0
39
0
210
0
220
0
230
1
0
LINE
5
70
100
AcDbEntity
8
4
62
256
6
ByLayer
370
-1
48
0.05
60
0
100
AcDbLine
10
179.550519
20
19.822969
30
0
11
179.59238
21
19.577603
31
0
39
0
210
0
220
0
230
1
0
LINE
5
71
100
AcDbEntity
8
4
62
256
6
ByLayer
370
-1
48
0.05
60
0
100
AcDbLine
10
179.59238
20
19.577603
30
0
11
179.54898
21
19.823738
31
0
39
0
210
0
220
0
230
1
0
LINE
5
72
100
AcDbEntity
8
4
62
256
6
ByLayer
370
-1
48
0.05
60
0
100
AcDbLine
10
179.54898
20
19.823738
30
0
11
179.550519
21
19.822969
31
0
39
0
210
0
220
0
230
1
0
LINE
5
73
100
AcDbEntity
8
4
62
256
6
ByLayer
370
-1
48
0.05
60
0
100
AcDbLine
10
178.973047
20
18.842775
30
0
11
178.724738
21
18.841839
31
0
39
0
210
0
220
0
230
1
0
LINE
5
74
100
AcDbEntity
8
4
62
256
6
ByLayer
370
-1
48
0.05
60
0
100
AcDbLine
10
178.724738
20
18.841839
30
0
11
178.723199
21
18.842608
31
0
39
0
210
0
220
0
230
1
0
LINE
5
75
100
AcDbEntity
8
4
62
256
6
ByLayer
370
-1
48
0.05
60
0
100
AcDbLine
10
178.723199
20
18.842608
30
0
11
178.973047
21
18.842775
31
0
39
0
210
0
220
0
230
1
0
LINE
5
76
100
AcDbEntity
8
4
62
256
6
ByLayer
370
-1
48
0.05
60
0
100
AcDbLine
10
179.844239
20
19.876022
30
0
11
179.550519
21
19.822969
31
0
39
0
210
0
220
0
230
1
0
LINE
5
77
100
AcDbEntity
8
4
62
256
6
ByLayer
370
-1
48
0.05
60
0
100
AcDbLine
10
178.724738
20
18.841839
30
0
11
178.723216
21
18.542654
31
0
39
0
210
0
220
0
230
1
0
LINE
5
78
100
AcDbEntity
8
1
62
256
6
ByLayer
370
-1
48
1
60
0
100
AcDbLine
10
139
20
-15.996
30
0
11
139
21
15.996
31
0
39
0
210
0
220
0
230
1
0
LINE
5
79
100
AcDbEntity
8
1
62
256
6
ByLayer
370
-1
48
1
60
0
100
AcDbLine
10
178.816884
20
-8.803611
30
0
11
178.816884
21
12.750539
31
0
39
0
210
0
220
0
230
1
0
LINE
5
7A
100
AcDbEntity
8
1
62
256
6
ByLayer
370
-1
48
1
60
0
100
AcDbLine
10
180.467418
20
12.91809
30
0
11
180.467418
21
-6.938825
31
0
39
0
210
0
220
0
230
1
0
LINE
5
7B
100
AcDbEntity
8
1
62
256
6
ByLayer
370
-1
48
1
60
0
100
AcDbLine
10
181.23831
20
-19.418744
30
0
11
182.323478
21
-11.027681
31
0
39
0
210
0
220
0
230
1
0
LINE
5
7C
100
AcDbEntity
8
1
62
256
6
ByLayer
370
-1
48
1
60
0
100
AcDbLine
10
139.958241
20
-15.746
30
0
11
139.958241
21
15.746
31
0
39
0
210
0
220
0
230
1
0
LINE
5
7D
100
AcDbEntity
8
1
62
256
6
ByLayer
370
-1
48
1
60
0
100
AcDbLine
10
186.951545
20
10.732322
30
0
11
186.459635
21
10.645215
31
0
39
0
210
0
220
0
230
1
0
LINE
5
7E
100
AcDbEntity
8
1
62
256
6
ByLayer
370
-1
48
1
60
0
100
AcDbLine
10
187.478132
20
11.464182
30
0
11
187.478132
21
6.138969
31
0
39
0
210
0
220
0
230
1
0
LINE
5
7F
100
AcDbEntity
8
1
62
256
6
ByLayer
370
-1
48
1
60
0
100
AcDbLine
10
186.143595
20
4.459098
30
0
11
186.143595
21
7.89951
31
0
39
0
210
0
220
0
230
1
0
LINE
5
80
100
AcDbEntity
8
1
62
256
6
ByLayer
370
-1
48
1
60
0
100
AcDbLine
10
188.011542
20
-12.141964
30
0
11
188.011542
21
-10.663464
31
0
39
0
210
0
220
0
230
1
0
LINE
5
81
100
AcDbEntity
8
1
62
256
6
ByLayer
370
-1
48
1
60
0
100
AcDbLine
10
181.389598
20
-1.898186
30
0
11
181.798481
21
-0.663967
31
0
39
0
210
0
220
0
230
1
0
LINE
5
82
100
AcDbEntity
8
1
62
256
6
ByLayer
370
-1
48
1
60
0
100
AcDbLine
10
188.264792
20
-11.573572
30
0
11
188.264792
21
-10.146689
31
0
39
0
210
0
220
0
230
1
0
LINE
5
83
100
AcDbEntity
8
1
62
256
6
ByLayer
370
-1
48
1
60
0
100
AcDbLine
10
178.816884
20
-19.354441
30
0
11
178.816884
21
-19.179574
31
0
39
0
210
0
220
0
230
1
0
LINE
5
84
100
AcDbEntity
8
1
62
256
6
ByLayer
370
-1
48
1
60
0
100
AcDbLine
10
185.665056
20
-19.707818
30
0
11
183.584406
21
-19.449229
31
0
39
0
210
0
220
0
230
1
0
LINE
5
85
100
AcDbEntity
8
1
62
256
6
ByLayer
370
-1
48
1
60
0
100
AcDbLine
10
162.287455
20
-19.354441
30
0
11
162.287455
21
-18.160602
31
0
39
0
210
0
220
0
230
1
0
LINE
5
86
100
AcDbEntity
8
1
62
256
6
ByLayer
370
-1
48
1
60
0
100
AcDbLine
10
178.745236
20
17.969463
30
0
11
178.506637
21
19.340345
31
0
39
0
210
0
220
0
230
1
0
LINE
5
87
100
AcDbEntity
8
1
62
256
6
ByLayer
370
-1
48
1
60
0
100
AcDbLine
10
0
20
-15.996
30
0
11
0
21
15.996
31
0
39
0
210
0
220
0
230
1
0
LINE
5
88
100
AcDbEntity
8
1
62
256
6
ByLayer
370
-1
48
1
60
0
100
AcDbLine
10
188.264792
20
10.778435
30
0
11
188.264792
21
11.848601
31
0
39
0
210
0
220
0
230
1
0
LINE
5
89
100
AcDbEntity
8
1
62
256
6
ByLayer
370
-1
48
1
60
0
100
AcDbLine
10
187.292731
20
-2.397713
30
0
11
187.292731
21
-7.242734
31
0
39
0
210
0
220
0
230
1
0
LINE
5
8A
100
AcDbEntity
8
1
62
256
6
ByLayer
370
-1
48
1
60
0
100
AcDbLine
10
186.143595
20
-7.646939
30
0
11
186.143595
21
0.48705
31
0
39
0
210
0
220
0
230
1
0
LINE
5
8B
100
AcDbEntity
8
1
62
256
6
ByLayer
370
-1
48
1
60
0
100
AcDbLine
10
139.433013
20
-15.746
30
0
11
139.433013
21
15.746
31
0
39
0
210
0
220
0
230
1
0
LINE
5
8C
100
AcDbEntity
8
1
62
256
6
ByLayer
370
-1
48
1
60
0
100
AcDbLine
10
162.287455
20
15.604124
30
0
11
162.287455
21
-9.570356
31
0
39
0
210
0
220
0
230
1
0
LINE
5
8D
100
AcDbEntity
8
1
62
256
6
ByLayer
370
-1
48
1
60
0
100
AcDbLine
10
160.628681
20
-9.445357
30
0
11
160.628681
21
16.174553
31
0
39
0
210
0
220
0
230
1
0
LINE
5
8E
100
AcDbEntity
8
1
62
256
6
ByLayer
370
-1
48
1
60
0
100
AcDbLine
10
179.203832
20
-7.54016
30
0
11
178.895678
21
-8.487586
31
0
39
0
210
0
220
0
230
1
0
LINE
5
8F
100
AcDbEntity
8
1
62
256
6
ByLayer
370
-1
48
1
60
0
100
AcDbLine
10
188.011542
20
9.152733
30
0
11
188.011542
21
11.750358
31
0
39
0
210
0
220
0
230
1
0
LINE
5
90
100
AcDbEntity
8
1
62
256
6
ByLayer
370
-1
48
1
60
0
100
AcDbLine
10
181.927928
20
2.462381
30
0
11
181.798481
21
-0.663967
31
0
39
0
210
0
220
0
230
1
0
LINE
5
91
100
AcDbEntity
8
1
62
256
6
ByLayer
370
-1
48
1
60
0
100
AcDbLine
10
187.478132
20
-11.395476
30
0
11
187.478132
21
-12.38734
31
0
39
0
210
0
220
0
230
1
0
LINE
5
92
100
AcDbEntity
8
1
62
256
6
ByLayer
370
-1
48
1
60
0
100
AcDbLine
10
160.628681
20
-17.578666
30
0
11
160.628681
21
-19.215904
31
0
39
0
210
0
220
0
230
1
0
LINE
5
93
100
AcDbEntity
8
1
62
256
6
ByLayer
370
-1
48
1
60
0
100
AcDbLine
10
188.264792
20
-3.01844
30
0
11
188.264792
21
-1.186627
31
0
39
0
210
0
220
0
230
1
0
LINE
5
94
100
AcDbEntity
8
1
62
256
6
ByLayer
370
-1
48
1
60
0
100
AcDbLine
10
178.843239
20
-9.029334
30
0
11
178.506637
21
-10.058806
31
0
39
0
210
0
220
0
230
1
0
LINE
5
95
100
AcDbEntity
8
1
62
256
6
ByLayer
370
-1
48
1
60
0
100
AcDbLine
10
140.04118
20
15.752927
30
0
11
140.04118
21
-15.752927
31
0
39
0
210
0
220
0
230
1
0
LINE
5
96
100
AcDbEntity
8
1
62
256
6
ByLayer
370
-1
48
1
60
0
100
AcDbLine
10
183.569736
20
-19.803531
30
0
11
183.584406
21
-19.449229
31
0
39
0
210
0
220
0
230
1
0
LINE
5
97
100
AcDbEntity
8
1
62
256
6
ByLayer
370
-1
48
1
60
0
100
AcDbLine
10
187.139355
20
8.086761
30
0
11
187.139355
21
11.11445
31
0
39
0
210
0
220
0
230
1
0
LINE
5
98
100
AcDbEntity
8
1
62
256
6
ByLayer
370
-1
48
1
60
0
100
AcDbLine
10
180.467418
20
-19.491594
30
0
11
180.467418
21
-19.301426
31
0
39
0
210
0
220
0
230
1
0
LINE
5
99
100
AcDbEntity
8
SK1
62
256
6
ByLayer
370
-1
48
1
60
0
100
AcDbLine
10
0
20
-15.996
30
0
11
0
21
15.996
31
0
39
0
210
0
220
0
230
1
0
LINE
5
9A
100
AcDbEntity
8
SK1
62
256
6
ByLayer
370
-1
48
1
60
0
100
AcDbLine
10
-61
20
-14.996
30
0
11
-61
21
14.996
31
0
39
0
210
0
220
0
230
1
0
LINE
5
9B
100
AcDbEntity
8
SK1
62
256
6
ByLayer
370
-1
48
1
60
0
100
AcDbLine
10
-60
20
-15.996
30
0
11
-60
21
15.996
31
0
39
0
210
0
220
0
230
1
0
LINE
5
9C
100
AcDbEntity
8
1
62
256
6
ByLayer
370
-1
48
1
60
0
100
AcDbLine
10
188.994909
20
-5.616949
30
0
11
188.925781
21
-6.317998
31
0
39
0
210
0
220
0
230
1
0
LINE
5
9D
100
AcDbEntity
8
1
62
256
6
ByLayer
370
-1
48
1
60
0
100
AcDbLine
10
188.384003
20
-9.792756
30
0
11
188.512417
21
-9.15156
31
0
39
0
210
0
220
0
230
1
0
LINE
5
9E
100
AcDbEntity
8
1
62
256
6
ByLayer
370
-1
48
1
60
0
100
AcDbLine
10
188.998298
20
-5.938588
30
0
11
188.936447
21
-6.565471
31
0
39
0
210
0
220
0
230
1
0
LINE
5
9F
100
AcDbEntity
8
1
62
256
6
ByLayer
370
-1
48
1
60
0
100
AcDbLine
10
188.375509
20
-9.848771
30
0
11
188.26365
21
-10.145237
31
0
39
0
210
0
220
0
230
1
0
LINE
5
A0
100
AcDbEntity
8
1
62
256
6
ByLayer
370
-1
48
1
60
0
100
AcDbLine
10
188.384003
20
-9.792756
30
0
11
188.367942
21
-9.587651
31
0
39
0
210
0
220
0
230
1
0
LINE
5
A1
100
AcDbEntity
8
1
62
256
6
ByLayer
370
-1
48
1
60
0
100
AcDbLine
10
188.994907
20
-5.616897
30
0
11
188.994906
21
-5.616942
31
0
39
0
210
0
220
0
230
1
0
LINE
5
A2
100
AcDbEntity
8
1
62
256
6
ByLayer
370
-1
48
1
60
0
100
AcDbLine
10
181.812789
20
-7.566994
30
0
11
181.842766
21
-7.204952
31
0
39
0
210
0
220
0
230
1
0
LINE
5
A3
100
AcDbEntity
8
1
62
256
6
ByLayer
370
-1
48
1
60
0
100
AcDbLine
10
187.866305
20
-11.053626
30
0
11
187.922095
21
-10.933452
31
0
39
0
210
0
220
0
230
1
0
LINE
5
A4
100
AcDbEntity
8
1
62
256
6
ByLayer
370
-1
48
1
60
0
100
AcDbLine
10
187.724407
20
-6.564045
30
0
11
187.707187
21
-6.561905
31
0
39
0
210
0
220
0
230
1
0
LINE
5
A5
100
AcDbEntity
8
1
62
256
6
ByLayer
370
-1
48
1
60
0
100
AcDbLine
10
178.7236
20
-9.712483
30
0
11
178.881208
21
-8.873553
31
0
39
0
210
0
220
0
230
1
0
LINE
5
A6
100
AcDbEntity
8
1
62
256
6
ByLayer
370
-1
48
1
60
0
100
AcDbLine
10
187.415968
20
-7.495072
30
0
11
187.529891
21
-8.647918
31
0
39
0
210
0
220
0
230
1
0
LINE
5
A7
100
AcDbEntity
8
1
62
256
6
ByLayer
370
-1
48
1
60
0
100
AcDbLine
10
186.110531
20
-11.482584
30
0
11
186.14605
21
-10.573753
31
0
39
0
210
0
220
0
230
1
0
LINE
5
A8
100
AcDbEntity
8
1
62
256
6
ByLayer
370
-1
48
1
60
0
100
AcDbLine
10
184.00479
20
-10.331438
30
0
11
182.196565
21
-10.106706
31
0
39
0
210
0
220
0
230
1
0
LINE
5
A9
100
AcDbEntity
8
1
62
256
6
ByLayer
370
-1
48
1
60
0
100
AcDbLine
10
181.821472
20
-7.220711
30
0
11
180.072841
21
-7.003386
31
0
39
0
210
0
220
0
230
1
0
LINE
5
AA
100
AcDbEntity
8
1
62
256
6
ByLayer
370
-1
48
1
60
0
100
AcDbLine
10
184.00479
20
-10.331438
30
0
11
184.246656
21
-7.41033
31
0
39
0
210
0
220
0
230
1
0
LINE
5
AB
100
AcDbEntity
8
1
62
256
6
ByLayer
370
-1
48
1
60
0
100
AcDbLine
10
178.881208
20
-8.873553
30
0
11
179.221189
21
-7.525318
31
0
39
0
210
0
220
0
230
1
0
LINE
5
AC
100
AcDbEntity
8
1
62
256
6
ByLayer
370
-1
48
1
60
0
100
AcDbLine
10
182.150578
20
-10.091868
30
0
11
179.605195
21
-9.775519
31
0
39
0
210
0
220
0
230
1
0
LINE
5
AD
100
AcDbEntity
8
1
62
256
6
ByLayer
370
-1
48
1
60
0
100
AcDbLine
10
188.384003
20
-4.53406
30
0
11
188.623925
21
-5.223132
31
0
39
0
210
0
220
0
230
1
0
LINE
5
AE
100
AcDbEntity
8
1
62
256
6
ByLayer
370
-1
48
1
60
0
100
AcDbLine
10
186.14605
20
-10.573753
30
0
11
186.203686
21
-9.063864
31
0
39
0
210
0
220
0
230
1
0
LINE
5
AF
100
AcDbEntity
8
1
62
256
6
ByLayer
370
-1
48
1
60
0
100
AcDbLine
10
185.633428
20
-7.687597
30
0
11
186.95439
21
-7.700869
31
0
39
0
210
0
220
0
230
1
0
LINE
5
B0
100
AcDbEntity
8
1
62
256
6
ByLayer
370
-1
48
1
60
0
100
AcDbLine
10
188.561065
20
-7.898537
30
0
11
187.906503
21
-5.393595
31
0
39
0
210
0
220
0
230
1
0
LINE
5
B1
100
AcDbEntity
8
1
62
256
6
ByLayer
370
-1
48
1
60
0
100
AcDbLine
10
185.773426
20
-11.456332
30
0
11
179.844239
21
-10.719434
31
0
39
0
210
0
220
0
230
1
0
LINE
5
B2
100
AcDbEntity
8
1
62
256
6
ByLayer
370
-1
48
1
60
0
100
AcDbLine
10
185.829641
20
-10.549113
30
0
11
184.051898
21
-10.32817
31
0
39
0
210
0
220
0
230
1
0
LINE
5
B3
100
AcDbEntity
8
1
62
256
6
ByLayer
370
-1
48
1
60
0
100
AcDbLine
10
186.924242
20
-10.596888
30
0
11
186.968758
21
-9.376081
31
0
39
0
210
0
220
0
230
1
0
LINE
5
B4
100
AcDbEntity
8
1
62
256
6
ByLayer
370
-1
48
1
60
0
100
AcDbLine
10
187.750882
20
-6.729119
30
0
11
187.724407
21
-6.564045
31
0
39
0
210
0
220
0
230
1
0
LINE
5
B5
100
AcDbEntity
8
1
62
256
6
ByLayer
370
-1
48
1
60
0
100
AcDbLine
10
188.209286
20
-4.996083
30
0
11
188.227991
21
-4.98985
31
0
39
0
210
0
220
0
230
1
0
LINE
5
B6
100
AcDbEntity
8
1
62
256
6
ByLayer
370
-1
48
1
60
0
100
AcDbLine
10
187.707187
20
-6.561905
30
0
11
187.693928
21
-6.551699
31
0
39
0
210
0
220
0
230
1
0
LINE
5
B7
100
AcDbEntity
8
1
62
256
6
ByLayer
370
-1
48
1
60
0
100
AcDbLine
10
188.271686
20
-5.157064
30
0
11
188.293535
21
-5.318495
31
0
39
0
210
0
220
0
230
1
0
LINE
5
B8
100
AcDbEntity
8
1
62
256
6
ByLayer
370
-1
48
1
60
0
100
AcDbLine
10
178.880807
20
-9.291918
30
0
11
179.155682
21
-8.200751
31
0
39
0
210
0
220
0
230
1
0
LINE
5
B9
100
AcDbEntity
8
1
62
256
6
ByLayer
370
-1
48
1
60
0
100
AcDbLine
10
188.209286
20
-4.996083
30
0
11
188.293535
21
-5.318495
31
0
39
0
210
0
220
0
230
1
0
LINE
5
BA
100
AcDbEntity
8
1
62
256
6
ByLayer
370
-1
48
1
60
0
100
AcDbLine
10
185.512763
20
-7.679476
30
0
11
184.774065
21
-7.587669
31
0
39
0
210
0
220
0
230
1
0
LINE
5
BB
100
AcDbEntity
8
1
62
256
6
ByLayer
370
-1
48
1
60
0
100
AcDbLine
10
178.730001
20
-10.095211
30
0
11
178.880807
21
-9.291918
31
0
39
0
210
0
220
0
230
1
0
LINE
5
BC
100
AcDbEntity
8
1
62
256
6
ByLayer
370
-1
48
1
60
0
100
AcDbLine
10
187.064162
20
-8.811711
30
0
11
186.95439
21
-7.700869
31
0
39
0
210
0
220
0
230
1
0
LINE
5
BD
100
AcDbEntity
8
1
62
256
6
ByLayer
370
-1
48
1
60
0
100
AcDbLine
10
188.624688
20
-5.314343
30
0
11
188.375509
21
-4.598683
31
0
39
0
210
0
220
0
230
1
0
LINE
5
BE
100
AcDbEntity
8
1
62
256
6
ByLayer
370
-1
48
1
60
0
100
AcDbLine
10
188.561065
20
-7.898537
30
0
11
188.242115
21
-8.861294
31
0
39
0
210
0
220
0
230
1
0
LINE
5
BF
100
AcDbEntity
8
1
62
256
6
ByLayer
370
-1
48
1
60
0
100
AcDbLine
10
181.812789
20
-7.566994
30
0
11
181.808962
21
-7.399311
31
0
39
0
210
0
220
0
230
1
0
LINE
5
C0
100
AcDbEntity
8
1
62
256
6
ByLayer
370
-1
48
1
60
0
100
AcDbLine
10
178.730005
20
-10.095276
30
0
11
178.730005
21
-10.09522
31
0
39
0
210
0
220
0
230
1
0
LINE
5
C1
100
AcDbEntity
8
1
62
256
6
ByLayer
370
-1
48
1
60
0
100
AcDbLine
10
188.881992
20
-6.918665
30
0
11
188.568418
21
-7.865193
31
0
39
0
210
0
220
0
230
1
0
LINE
5
C2
100
AcDbEntity
8
1
62
256
6
ByLayer
370
-1
48
1
60
0
100
AcDbLine
10
188.227991
20
-4.98985
30
0
11
188.271686
21
-5.157064
31
0
39
0
210
0
220
0
230
1
0
LINE
5
C3
100
AcDbEntity
8
1
62
256
6
ByLayer
370
-1
48
1
60
0
100
AcDbLine
10
184.774065
20
-7.587669
30
0
11
184.761555
21
-7.766269
31
0
39
0
210
0
220
0
230
1
0
LINE
5
C4
100
AcDbEntity
8
1
62
256
6
ByLayer
370
-1
48
1
60
0
100
AcDbLine
10
178.8864
20
-8.828163
30
0
11
178.909705
21
-8.704282
31
0
39
0
210
0
220
0
230
1
0
LINE
5
C5
100
AcDbEntity
8
1
62
256
6
ByLayer
370
-1
48
1
60
0
100
AcDbLine
10
187.778177
20
-6.874111
30
0
11
187.750882
21
-6.729119
31
0
39
0
210
0
220
0
230
1
0
LINE
5
C6
100
AcDbEntity
8
1
62
256
6
ByLayer
370
-1
48
1
60
0
100
AcDbLine
10
188.881992
20
-6.918665
30
0
11
188.624688
21
-5.314343
31
0
39
0
210
0
220
0
230
1
0
LINE
5
C7
100
AcDbEntity
8
1
62
256
6
ByLayer
370
-1
48
1
60
0
100
AcDbLine
10
188.967936
20
-7.776562
30
0
11
187.922095
21
-10.933452
31
0
39
0
210
0
220
0
230
1
0
LINE
5
C8
100
AcDbEntity
8
1
62
256
6
ByLayer
370
-1
48
1
60
0
100
AcDbLine
10
188.233047
20
-8.877517
30
0
11
187.78407
21
-10.232761
31
0
39
0
210
0
220
0
230
1
0
LINE
5
C9
100
AcDbEntity
8
1
62
256
6
ByLayer
370
-1
48
1
60
0
100
AcDbLine
10
188.994909
20
-7.140731
30
0
11
188.91089
21
-6.33103
31
0
39
0
210
0
220
0
230
1
0
LINE
5
CA
100
AcDbEntity
8
1
62
256
6
ByLayer
370
-1
48
1
60
0
100
AcDbLine
10
188.384003
20
-4.53406
30
0
11
188.336326
21
-3.822471
31
0
39
0
210
0
220
0
230
1
0
LINE
5
CB
100
AcDbEntity
8
1
62
256
6
ByLayer
370
-1
48
1
60
0
100
AcDbLine
10
179.39759
20
-6.840829
30
0
11
179.300279
21
-7.199573
31
0
39
0
210
0
220
0
230
1
0
LINE
5
CC
100
AcDbEntity
8
1
62
256
6
ByLayer
370
-1
48
1
60
0
100
AcDbLine
10
179.605195
20
-9.775519
30
0
11
179.725299
21
-8.060819
31
0
39
0
210
0
220
0
230
1
0
LINE
5
CD
100
AcDbEntity
8
1
62
256
6
ByLayer
370
-1
48
1
60
0
100
AcDbLine
10
185.633428
20
-7.687597
30
0
11
186.055597
21
-8.779332
31
0
39
0
210
0
220
0
230
1
0
LINE
5
CE
100
AcDbEntity
8
1
62
256
6
ByLayer
370
-1
48
1
60
0
100
AcDbLine
10
184.777102
20
-7.5785
30
0
11
184.774065
21
-7.587669
31
0
39
0
210
0
220
0
230
1
0
LINE
5
CF
100
AcDbEntity
8
1
62
256
6
ByLayer
370
-1
48
1
60
0
100
AcDbLine
10
188.245211
20
-4.99199
30
0
11
188.271686
21
-5.157064
31
0
39
0
210
0
220
0
230
1
0
LINE
5
D0
100
AcDbEntity
8
1
62
256
6
ByLayer
370
-1
48
1
60
0
100
AcDbLine
10
184.764483
20
-7.568072
30
0
11
184.777102
21
-7.5785
31
0
39
0
210
0
220
0
230
1
0
LINE
5
D1
100
AcDbEntity
8
1
62
256
6
ByLayer
370
-1
48
1
60
0
100
AcDbLine
10
185.773426
20
-11.456332
30
0
11
185.829641
21
-10.549113
31
0
39
0
210
0
220
0
230
1
0
LINE
5
D2
100
AcDbEntity
8
1
62
256
6
ByLayer
370
-1
48
1
60
0
100
AcDbLine
10
179.551407
20
-10.643578
30
0
11
179.844239
21
-10.719434
31
0
39
0
210
0
220
0
230
1
0
LINE
5
D3
100
AcDbEntity
8
1
62
256
6
ByLayer
370
-1
48
1
60
0
100
AcDbLine
10
179.551407
20
-10.643578
30
0
11
179.605195
21
-9.775519
31
0
39
0
210
0
220
0
230
1
0
LINE
5
D4
100
AcDbEntity
8
1
62
256
6
ByLayer
370
-1
48
1
60
0
100
AcDbLine
10
188.91089
20
-6.33103
30
0
11
188.726893
21
-5.22734
31
0
39
0
210
0
220
0
230
1
0
LINE
5
D5
100
AcDbEntity
8
1
62
256
6
ByLayer
370
-1
48
1
60
0
100
AcDbLine
10
187.78407
20
-10.232761
30
0
11
187.529891
21
-8.647918
31
0
39
0
210
0
220
0
230
1
0
LINE
5
D6
100
AcDbEntity
8
1
62
256
6
ByLayer
370
-1
48
1
60
0
100
AcDbLine
10
181.821472
20
-7.220711
30
0
11
181.82451
21
-7.211543
31
0
39
0
210
0
220
0
230
1
0
LINE
5
D7
100
AcDbEntity
8
1
62
256
6
ByLayer
370
-1
48
1
60
0
100
AcDbLine
10
188.227991
20
-4.98985
30
0
11
188.245211
21
-4.99199
31
0
39
0
210
0
220
0
230
1
0
LINE
5
D8
100
AcDbEntity
8
1
62
256
6
ByLayer
370
-1
48
1
60
0
100
AcDbLine
10
186.891321
20
-11.466523
30
0
11
186.924242
21
-10.596888
31
0
39
0
210
0
220
0
230
1
0
LINE
5
D9
100
AcDbEntity
8
1
62
256
6
ByLayer
370
-1
48
1
60
0
100
AcDbLine
10
187.866305
20
-11.053626
30
0
11
187.78407
21
-10.232761
31
0
39
0
210
0
220
0
230
1
0
LINE
5
DA
100
AcDbEntity
8
1
62
256
6
ByLayer
370
-1
48
1
60
0
100
AcDbLine
10
181.82451
20
-7.211543
30
0
11
181.842766
21
-7.204952
31
0
39
0
210
0
220
0
230
1
0
LINE
5
DB
100
AcDbEntity
8
1
62
256
6
ByLayer
370
-1
48
1
60
0
100
AcDbLine
10
185.951221
20
-8.813337
30
0
11
185.512763
21
-7.679476
31
0
39
0
210
0
220
0
230
1
0
LINE
5
DC
100
AcDbEntity
8
1
62
256
6
ByLayer
370
-1
48
1
60
0
100
AcDbLine
10
188.967936
20
-7.776562
30
0
11
188.881992
21
-6.918665
31
0
39
0
210
0
220
0
230
1
0
LINE
5
DD
100
AcDbEntity
8
1
62
256
6
ByLayer
370
-1
48
1
60
0
100
AcDbLine
10
178.909705
20
-8.704282
30
0
11
179.2592
21
-7.32718
31
0
39
0
210
0
220
0
230
1
0
LINE
5
DE
100
AcDbEntity
8
1
62
256
6
ByLayer
370
-1
48
1
60
0
100
AcDbLine
10
187.587284
20
-6.355323
30
0
11
187.620956
21
-6.484184
31
0
39
0
210
0
220
0
230
1
0
LINE
5
DF
100
AcDbEntity
8
1
62
256
6
ByLayer
370
-1
48
1
60
0
100
AcDbLine
10
187.937599
20
-7.695946
30
0
11
188.242115
21
-8.861294
31
0
39
0
210
0
220
0
230
1
0
LINE
5
E0
100
AcDbEntity
8
1
62
256
6
ByLayer
370
-1
48
1
60
0
100
AcDbLine
10
181.808962
20
-7.399311
30
0
11
181.821472
21
-7.220711
31
0
39
0
210
0
220
0
230
1
0
LINE
5
E1
100
AcDbEntity
8
1
62
256
6
ByLayer
370
-1
48
1
60
0
100
AcDbLine
10
182.4385
20
-7.184765
30
0
11
182.196565
21
-10.106706
31
0
39
0
210
0
220
0
230
1
0
LINE
5
E2
100
AcDbEntity
8
1
62
256
6
ByLayer
370
-1
48
1
60
0
100
AcDbLine
10
179.329888
20
-7.762116
30
0
11
179.627821
21
-6.855624
31
0
39
0
210
0
220
0
230
1
0
LINE
5
E3
100
AcDbEntity
8
1
62
256
6
ByLayer
370
-1
48
1
60
0
100
AcDbLine
10
184.761555
20
-7.766269
30
0
11
184.734506
21
-7.930115
31
0
39
0
210
0
220
0
230
1
0
LINE
5
E4
100
AcDbEntity
8
1
62
256
6
ByLayer
370
-1
48
1
60
0
100
AcDbLine
10
186.891478
20
-11.466507
30
0
11
186.891343
21
-11.46652
31
0
39
0
210
0
220
0
230
1
0
LINE
5
E5
100
AcDbEntity
8
1
62
256
6
ByLayer
370
-1
48
1
60
0
100
AcDbLine
10
188.998298
20
-7.59622
30
0
11
188.910489
21
-6.749395
31
0
39
0
210
0
220
0
230
1
0
LINE
5
E6
100
AcDbEntity
8
1
62
256
6
ByLayer
370
-1
48
1
60
0
100
AcDbLine
10
188.910489
20
-6.749395
30
0
11
188.682912
21
-5.382902
31
0
39
0
210
0
220
0
230
1
0
LINE
5
E7
100
AcDbEntity
8
1
62
256
6
ByLayer
370
-1
48
1
60
0
100
AcDbLine
10
180.072841
20
-7.003386
30
0
11
179.725299
21
-8.060819
31
0
39
0
210
0
220
0
230
1
0
LINE
5
E8
100
AcDbEntity
8
1
62
256
6
ByLayer
370
-1
48
1
60
0
100
AcDbLine
10
185.829641
20
-10.549113
30
0
11
185.951221
21
-8.813337
31
0
39
0
210
0
220
0
230
1
0
LINE
5
E9
100
AcDbEntity
8
1
62
256
6
ByLayer
370
-1
48
1
60
0
100
AcDbLine
10
188.592742
20
-4.698575
30
0
11
188.336326
21
-3.822471
31
0
39
0
210
0
220
0
230
1
0
LINE
5
EA
100
AcDbEntity
8
1
62
256
6
ByLayer
370
-1
48
1
60
0
100
AcDbLine
10
188.994907
20
-7.140628
30
0
11
188.994906
21
-7.140717
31
0
39
0
210
0
220
0
230
1
0
LINE
5
EB
100
AcDbEntity
8
1
62
256
6
ByLayer
370
-1
48
1
60
0
100
AcDbLine
10
181.808962
20
-7.399311
30
0
11
181.82451
21
-7.211543
31
0
39
0
210
0
220
0
230
1
0
LINE
5
EC
100
AcDbEntity
8
1
62
256
6
ByLayer
370
-1
48
1
60
0
100
AcDbLine
10
188.375509
20
-4.598683
30
0
11
188.245211
21
-4.99199
31
0
39
0
210
0
220
0
230
1
0
LINE
5
ED
100
AcDbEntity
8
1
62
256
6
ByLayer
370
-1
48
1
60
0
100
AcDbLine
10
184.764483
20
-7.568072
30
0
11
184.734506
21
-7.930115
31
0
39
0
210
0
220
0
230
1
0
LINE
5
EE
100
AcDbEntity
8
1
62
256
6
ByLayer
370
-1
48
1
60
0
100
AcDbLine
10
187.724407
20
-6.564045
30
0
11
187.415968
21
-7.495072
31
0
39
0
210
0
220
0
230
1
0
LINE
5
EF
100
AcDbEntity
8
1
62
256
6
ByLayer
370
-1
48
1
60
0
100
AcDbLine
10
182.689098
20
15.52461
30
0
11
182.72936
21
15.504488
31
0
39
0
210
0
220
0
230
1
0
LINE
5
F0
100
AcDbEntity
8
1
62
256
6
ByLayer
370
-1
48
1
60
0
100
AcDbLine
10
182.700465
20
15.668358
30
0
11
182.660203
21
15.68848
31
0
39
0
210
0
220
0
230
1
0
LINE
5
F1
100
AcDbEntity
8
1
62
256
6
ByLayer
370
-1
48
1
60
0
100
AcDbLine
10
184.83358
20
16.954179
30
0
11
184.78765
21
16.977134
31
0
39
0
210
0
220
0
230
1
0
LINE
5
F2
100
AcDbEntity
8
1
62
256
6
ByLayer
370
-1
48
1
60
0
100
AcDbLine
10
183.368527
20
17.185356
30
0
11
183.322597
21
17.20831
31
0
39
0
210
0
220
0
230
1
0
LINE
5
F3
100
AcDbEntity
8
1
62
256
6
ByLayer
370
-1
48
1
60
0
100
AcDbLine
10
182.626017
20
16.563267
30
0
11
182.580087
21
16.586221
31
0
39
0
210
0
220
0
230
1
0
LINE
5
F4
100
AcDbEntity
8
1
62
256
6
ByLayer
370
-1
48
1
60
0
100
AcDbLine
10
182.43464
20
16.03216
30
0
11
182.388771
21
16.055084
31
0
39
0
210
0
220
0
230
1
0
LINE
5
F5
100
AcDbEntity
8
1
62
256
6
ByLayer
370
-1
48
1
60
0
100
AcDbLine
10
182.604044
20
15.071423
30
0
11
182.558175
21
15.094347
31
0
39
0
210
0
220
0
230
1
0
LINE
5
F6
100
AcDbEntity
8
1
62
256
6
ByLayer
370
-1
48
1
60
0
100
AcDbLine
10
183.875743
20
14.30879
30
0
11
183.829813
21
14.331745
31
0
39
0
210
0
220
0
230
1
0
LINE
5
F7
100
AcDbEntity
8
1
62
256
6
ByLayer
370
-1
48
1
60
0
100
AcDbLine
10
178.723405
20
18.57971
30
0
11
178.723216
21
18.542654
31
0
39
0
210
0
220
0
230
1
0
LINE
5
F8
100
AcDbEntity
8
1
62
256
6
ByLayer
370
-1
48
1
60
0
100
AcDbLine
10
178.723216
20
18.542654
30
0
11
178.978446
21
18.84926
31
0
39
0
210
0
220
0
230
1
0
LINE
5
F9
100
AcDbEntity
8
1
62
256
6
ByLayer
370
-1
48
1
60
0
100
AcDbLine
10
178.978446
20
18.84926
30
0
11
178.973097
21
18.849257
31
0
39
0
210
0
220
0
230
1
0
LINE
5
FA
100
AcDbEntity
8
1
62
256
6
ByLayer
370
-1
48
1
60
0
100
AcDbLine
10
178.730005
20
18.841993
30
0
11
178.730005
21
18.841859
31
0
39
0
210
0
220
0
230
1
0
LINE
5
FB
100
AcDbEntity
8
1
62
256
6
ByLayer
370
-1
48
1
60
0
100
AcDbLine
10
185.773426
20
20.925955
30
0
11
179.844239
21
19.876022
31
0
39
0
210
0
220
0
230
1
0
LINE
5
FC
100
AcDbEntity
8
1
62
256
6
ByLayer
370
-1
48
1
60
0
100
AcDbLine
10
187.62399
20
20.08815
30
0
11
187.624098
21
20.088169
31
0
39
0
210
0
220
0
230
1
0
LINE
5
FD
100
AcDbEntity
8
1
62
256
6
ByLayer
370
-1
48
1
60
0
100
AcDbLine
10
178.978446
20
18.84926
30
0
11
178.730006
21
18.841993
31
0
39
0
210
0
220
0
230
1
0
LINE
5
FE
100
AcDbEntity
8
1
62
256
6
ByLayer
370
-1
48
1
60
0
100
AcDbLine
10
179.592512
20
19.577628
30
0
11
179.592493
21
19.577736
31
0
39
0
210
0
220
0
230
1
0
LINE
5
FF
100
AcDbEntity
8
1
62
256
6
ByLayer
370
-1
48
1
60
0
100
AcDbLine
10
188.967936
20
13.905228
30
0
11
187.922095
21
19.836489
31
0
39
0
210
0
220
0
230
1
0
LINE
5
100
100
AcDbEntity
8
1
62
256
6
ByLayer
370
-1
48
1
60
0
100
AcDbLine
10
188.129405
20
12.053199
30
0
11
187.877659
21
11.754913
31
0
39
0
210
0
220
0
230
1
0
LINE
5
101
100
AcDbEntity
8
1
62
256
6
ByLayer
370
-1
48
1
60
0
100
AcDbLine
10
188.173501
20
11.811662
30
0
11
188.129405
21
12.053199
31
0
39
0
210
0
220
0
230
1
0
LINE
5
102
100
AcDbEntity
8
1
62
256
6
ByLayer
370
-1
48
1
60
0
100
AcDbLine
10
187.866305
20
20.130175
30
0
11
187.922095
21
19.836489
31
0
39
0
210
0
220
0
230
1
0
LINE
5
103
100
AcDbEntity
8
1
62
256
6
ByLayer
370
-1
48
1
60
0
100
AcDbLine
10
187.624098
20
20.088169
30
0
11
187.922095
21
19.836489
31
0
39
0
210
0
220
0
230
1
0
LINE
5
104
100
AcDbEntity
8
1
62
256
6
ByLayer
370
-1
48
1
60
0
100
AcDbLine
10
188.173504
20
11.811662
30
0
11
187.877659
21
11.754913
31
0
39
0
210
0
220
0
230
1
0
LINE
5
105
100
AcDbEntity
8
1
62
256
6
ByLayer
370
-1
48
1
60
0
100
AcDbLine
10
187.866305
20
20.130172
30
0
11
187.624098
21
20.088169
31
0
39
0
210
0
220
0
230
1
0
LINE
5
106
100
AcDbEntity
8
1
62
256
6
ByLayer
370
-1
48
1
60
0
100
AcDbLine
10
186.590018
20
20.957212
30
0
11
186.89633
21
20.702053
31
0
39
0
210
0
220
0
230
1
0
LINE
5
107
100
AcDbEntity
8
1
62
256
6
ByLayer
370
-1
48
1
60
0
100
AcDbLine
10
186.89633
20
20.702053
30
0
11
186.896329
21
20.707404
31
0
39
0
210
0
220
0
230
1
0
LINE
5
108
100
AcDbEntity
8
1
62
256
6
ByLayer
370
-1
48
1
60
0
100
AcDbLine
10
188.994907
20
12.787436
30
0
11
188.994906
21
12.787571
31
0
39
0
210
0
220
0
230
1
0
LINE
5
109
100
AcDbEntity
8
1
62
256
6
ByLayer
370
-1
48
1
60
0
100
AcDbLine
10
188.998874
20
13.051035
30
0
11
188.998681
21
13.088282
31
0
39
0
210
0
220
0
230
1
0
LINE
5
10A
100
AcDbEntity
8
1
62
256
6
ByLayer
370
-1
48
1
60
0
100
AcDbLine
10
186.627344
20
20.957142
30
0
11
186.590018
21
20.957212
31
0
39
0
210
0
220
0
230
1
0
LINE
5
10B
100
AcDbEntity
8
1
62
256
6
ByLayer
370
-1
48
1
60
0
100
AcDbLine
10
186.891478
20
20.951357
30
0
11
186.891343
21
20.951358
31
0
39
0
210
0
220
0
230
1
0
LINE
5
10C
100
AcDbEntity
8
1
62
256
6
ByLayer
370
-1
48
1
60
0
100
AcDbLine
10
188.998681
20
13.088282
30
0
11
188.743452
21
12.781675
31
0
39
0
210
0
220
0
230
1
0
LINE
5
10D
100
AcDbEntity
8
1
62
256
6
ByLayer
370
-1
48
1
60
0
100
AcDbLine
10
188.743452
20
12.781675
30
0
11
188.994906
21
12.787436
31
0
39
0
210
0
220
0
230
1
0
LINE
5
10E
100
AcDbEntity
8
1
62
256
6
ByLayer
370
-1
48
1
60
0
100
AcDbLine
10
186.89633
20
20.702053
30
0
11
186.891478
21
20.951357
31
0
39
0
210
0
220
0
230
1
0
LINE
5
10F
100
AcDbEntity
8
1
62
256
6
ByLayer
370
-1
48
1
60
0
100
AcDbLine
10
188.743452
20
12.781675
30
0
11
188.7488
21
12.781678
31
0
39
0
210
0
220
0
230
1
0
LINE
5
110
100
AcDbEntity
8
1
62
256
6
ByLayer
370
-1
48
1
60
0
100
AcDbLine
10
179.551409
20
19.817768
30
0
11
179.592493
21
19.577736
31
0
39
0
210
0
220
0
230
1
0
LINE
5
111
100
AcDbEntity
8
1
62
256
6
ByLayer
370
-1
48
1
60
0
100
AcDbLine
10
179.551407
20
19.817767
30
0
11
179.844239
21
19.876022
31
0
39
0
210
0
220
0
230
1
0
LINE
5
112
100
AcDbEntity
8
1
62
256
6
ByLayer
370
-1
48
1
60
0
100
AcDbLine
10
179.592493
20
19.577736
30
0
11
179.844239
21
19.876022
31
0
39
0
210
0
220
0
230
1
0
LINE
5
113
100
AcDbEntity
8
1
62
256
6
ByLayer
370
-1
48
1
60
0
100
AcDbLine
10
178.753962
20
17.725707
30
0
11
179.621797
21
12.803966
31
0
39
0
210
0
220
0
230
1
0
LINE
5
114
100
AcDbEntity
8
1
62
256
6
ByLayer
370
-1
48
1
60
0
100
AcDbLine
10
186.222211
20
11.461768
30
0
11
187.877659
21
11.754913
31
0
39
0
210
0
220
0
230
1
0
LINE
5
115
100
AcDbEntity
8
1
62
256
6
ByLayer
370
-1
48
1
60
0
100
AcDbLine
10
188.129386
20
12.053307
30
0
11
188.173501
21
11.811662
31
0
39
0
210
0
220
0
230
1
0
LINE
5
116
100
AcDbEntity
8
1
62
256
6
ByLayer
370
-1
48
1
60
0
100
AcDbLine
10
188.129386
20
12.053307
30
0
11
188.129405
21
12.053199
31
0
39
0
210
0
220
0
230
1
0
MTEXT
5
20E
100
AcDbEntity
8
SK6
62
256
6
ByLayer
370
-1
48
1
60
0
100
AcDbMText
10
67.375
20
-36.910171
30
0
210
0
220
0
230
1
1
\W00.750;\fsimplex.shx,bigfont.shx;R210-042A32-09M\P
40
3.5
41
0
44
1.084337
50
0
71
7
72
5
7
DEFAULT
0
DIMENSION
5
220
100
AcDbEntity
8
SK2
62
256
6
ByLayer
370
-3
48
1
60
0
100
AcDbDimension
2
DimnDraft3D1
10
-61
20
43.746
30
0
11
55.692763
21
43.746
31
0
70
32
71
5
72
1
41
1
210
0
220
0
230
1
3
Standard
100
AcDbAlignedDimension
13
189
23
23
33
0
14
-61
24
17.996
34
0
50
0
100
AcDbRotatedDimension
1001
ACAD
1000
DSTYLE
1002
{
1070
   279
1070
     0
1070
   172
1070
     1
1070
   173
1070
     1
1070
   340
1005
20F
1070
   271
1070
     2
1070
   272
1070
     2
1070
    77
1070
     1
1070
    73
1070
     0
1070
   171
1070
     4
1070
   274
1070
     4
1070
   177
1070
     2
1070
   176
1070
     2
1070
   178
1070
     7
1070
    78
1070
     8
1070
    41
1041
3.175
1070
   147
1041
2.25
1070
    42
1041
2.0
1070
    44
1041
2.0
1070
   140
1041
4.5
1070
   343
1005
221
1070
   344
1005
221
1002
}
0
DIMENSION
5
235
100
AcDbEntity
8
SK2
62
256
6
ByLayer
370
-3
48
1
60
0
100
AcDbDimension
2
DimnDraft3D2
10
187.8
20
28.75
30
0
11
197.675
21
28.75
31
0
70
32
71
5
72
1
41
1
210
0
220
0
230
1
3
Standard
100
AcDbAlignedDimension
13
189
23
23
33
0
14
187.8
24
23
34
0
50
0
100
AcDbRotatedDimension
1001
ACAD
1000
DSTYLE
1002
{
1070
   279
1070
     0
1070
   172
1070
     1
1070
   173
1070
     1
1070
   340
1005
20F
1070
   271
1070
     2
1070
   272
1070
     2
1070
    77
1070
     1
1070
    73
1070
     0
1070
   171
1070
     4
1070
   274
1070
     4
1070
   177
1070
     2
1070
   176
1070
     2
1070
   178
1070
     7
1070
    78
1070
     8
1070
    41
1041
3.175
1070
   147
1041
2.25
1070
    42
1041
2.0
1070
    44
1041
2.0
1070
   140
1041
4.5
1070
   343
1005
221
1070
   344
1005
221
1002
}
0
DIMENSION
5
243
100
AcDbEntity
8
SK2
62
256
6
ByLayer
370
-3
48
1
60
0
100
AcDbDimension
2
DimnDraft3D3
10
-70.75
20
-15.996
30
0
11
-70.75
21
-6.01727
31
0
70
32
71
5
72
1
41
1
210
0
220
0
230
1
3
Standard
100
AcDbAlignedDimension
13
-63
23
15.996
33
0
14
-63
24
-15.996
34
0
50
90
100
AcDbRotatedDimension
1001
ACAD
1000
DSTYLE
1002
{
1070
    74
1070
     0
1070
   279
1070
     0
1070
   172
1070
     1
1070
   173
1070
     1
1070
   340
1005
20F
1070
   271
1070
     2
1070
   272
1070
     2
1070
    77
1070
     1
1070
    73
1070
     0
1070
   171
1070
     4
1070
   274
1070
     4
1070
   177
1070
     2
1070
   176
1070
     2
1070
   178
1070
     7
1070
    78
1070
     8
1070
    41
1041
3.175
1070
   147
1041
2.25
1070
    42
1041
2.0
1070
    44
1041
2.0
1070
   140
1041
4.5
1070
   343
1005
221
1070
   344
1005
221
1002
}
0
DIMENSION
5
251
100
AcDbEntity
8
2
62
256
6
ByLayer
370
-3
48
1
60
0
100
AcDbDimension
2
DimnDraft3D4
10
201.25
20
-21
30
0
11
201.25
21
-9.306414
31
0
70
32
71
5
72
1
41
1
210
0
220
0
230
1
3
Standard
100
AcDbAlignedDimension
13
191
23
21
33
0
14
191
24
-21
34
0
50
90
100
AcDbRotatedDimension
1001
ACAD
1000
DSTYLE
1002
{
1070
    74
1070
     0
1070
   279
1070
     0
1070
   172
1070
     1
1070
   173
1070
     1
1070
   340
1005
20F
1070
   271
1070
     2
1070
   272
1070
     2
1070
    77
1070
     1
1070
    73
1070
     0
1070
   171
1070
     4
1070
   274
1070
     4
1070
   177
1070
     2
1070
   176
1070
     2
1070
   178
1070
     7
1070
    78
1070
     8
1070
    41
1041
3.175
1070
   147
1041
2.25
1070
    42
1041
2.0
1070
    44
1041
2.0
1070
   140
1041
4.5
1070
   343
1005
221
1070
   344
1005
221
1002
}
0
ENDSEC
0
SECTION
2
OBJECTS
0
DICTIONARY
5
29f
330
0
100
AcDbDictionary
280
0
281
1
3
ACAD_GROUP
350
2a0
3
ACAD_MLINESTYLE
350
2a1
0
DICTIONARY
5
2a0
330
0
100
AcDbDictionary
280
0
281
1
0
DICTIONARY
5
2a1
330
0
100
AcDbDictionary
280
0
281
1
3
Standard
350
18
0
MLINESTYLE
5
18
330
2a1
100
AcDbMlineStyle
2
Standard
70
0
3

62
256
51
90
52
90
71
2
49
-0.5
62
256
6
ByLayer
49
0.5
62
256
6
ByLayer
0
RASTERVARIABLES
5
28e
330

100
AcDbRasterVariables
90
0
70
1
71
1
72
1
0
ENDSEC
0
EOF
