0
SECTION
2
HEADER
9
$ACADVER
1
AC1015
9
$DWGCODEPAGE
3
ANSI_1252
9
$HANDSEED
5
164
9
$ANGBASE
50
0
9
$ANGDIR
70
0
9
$ATTMODE
70
1
9
$AUNITS
70
0
9
$AUPREC
70
0
9
$CECOLOR
62
256
9
$CELTSCALE
40
1
9
$CELTYPE
6
ByLayer
9
$CELWEIGHT
370
-1
9
$CLAYER
8
0
9
$CMLJUST
70
0
9
$CMLSCALE
40
1
9
$CMLSTYLE
2
Standard
9
$DIMSTYLE
2
Standard
9
$TEXTSIZE
40
0.2
9
$TEXTSTYLE
7
Standard
9
$LUNITS
70
2
9
$LUPREC
70
4
9
$EXTNAMES
290
1
9
$INSUNITS
70
4
9
$LTSCALE
40
1
9
$LWDISPLAY
290
0
9
$PDMODE
70
0
9
$PDSIZE
40
0
9
$PLINEGEN
70
0
0
ENDSEC
0
SECTION
2
CLASSES
0
CLASS
1
RASTERVARIABLES
2
AcDbRasterVariables
3
ISM
90
0
280
0
281
0
0
ENDSEC
0
SECTION
2
TABLES
0
TABLE
2
VPORT
5
15a
100
AcDbSymbolTable
0
VPORT
5
1
100
AcDbSymbolTableRecord
100
AcDbViewportTableRecord
2
*Active
70
0
10
0
20
0
11
1
21
1
12
-1
22
1
13
0
23
0
14
0.5
24
0.5
15
10
25
10
16
0
26
0
36
1
17
0
27
0
37
0
0
ENDTAB
0
TABLE
2
LTYPE
5
15b
100
AcDbSymbolTable
0
LTYPE
5
14
100
AcDbSymbolTableRecord
100
AcDbLinetypeTableRecord
70
0
2
ByBlock
3

72
65
73
0
40
0
0
LTYPE
5
15
100
AcDbSymbolTableRecord
100
AcDbLinetypeTableRecord
70
0
2
ByLayer
3

72
65
73
0
40
0
0
LTYPE
5
16
100
AcDbSymbolTableRecord
100
AcDbLinetypeTableRecord
70
0
2
CONTINUOUS
3
Solid line
72
65
73
0
40
0
0
LTYPE
5
3C
100
AcDbSymbolTableRecord
100
AcDbLinetypeTableRecord
70
0
2
DASHED
3
__ __ __ __ __ __ __ __ __
72
65
73
2
40
25.72
49
12.86
74
0
49
-12.86
74
0
0
LTYPE
5
3D
100
AcDbSymbolTableRecord
100
AcDbLinetypeTableRecord
70
0
2
HIDDEN
3
_ _ _ _ _ _ _ _ _ _ _ _ _ _ _
72
65
73
2
40
0.5
49
0.25
74
0
49
-0.25
74
0
0
LTYPE
5
3E
100
AcDbSymbolTableRecord
100
AcDbLinetypeTableRecord
70
0
2
PHANTOM
3
____ _ _ ____ _ _ _____ _ _ ____
72
65
73
6
40
50.5
49
18
74
0
49
-6.5
74
0
49
6.5
74
0
49
-6.5
74
0
49
6.5
74
0
49
-6.5
74
0
0
LTYPE
5
3F
100
AcDbSymbolTableRecord
100
AcDbLinetypeTableRecord
70
0
2
CENTER
3
____ _ ____ _ ____ _ ____
72
65
73
4
40
47.5
49
22
74
0
49
-8.5
74
0
49
8.5
74
0
49
-8.5
74
0
0
LTYPE
5
40
100
AcDbSymbolTableRecord
100
AcDbLinetypeTableRecord
70
0
2
DOT
3
.........................
72
65
73
2
40
10
49
0
74
0
49
-10
74
0
0
LTYPE
5
41
100
AcDbSymbolTableRecord
100
AcDbLinetypeTableRecord
70
0
2
DASHDOT
3
_._._._._._._._._._._._._._._._.
72
65
73
4
40
70
49
31
74
0
49
-13
74
0
49
13
74
0
49
-13
74
0
0
ENDTAB
0
TABLE
2
LAYER
5
15c
100
AcDbSymbolTable
0
LAYER
5
10
100
AcDbSymbolTableRecord
100
AcDbLayerTableRecord
2
0
70
0
62
7
6
CONTINUOUS
290
1
370
-3
390
0
0
LAYER
5
43
100
AcDbSymbolTableRecord
100
AcDbLayerTableRecord
2
81
70
0
62
-3
6
CONTINUOUS
290
1
370
-3
390
0
0
LAYER
5
45
100
AcDbSymbolTableRecord
100
AcDbLayerTableRecord
2
80
70
0
62
-6
6
CONTINUOUS
290
1
370
-3
390
0
0
LAYER
5
47
100
AcDbSymbolTableRecord
100
AcDbLayerTableRecord
2
1
70
0
62
4
6
CONTINUOUS
290
1
370
-3
390
0
0
LAYER
5
7E
100
AcDbSymbolTableRecord
100
AcDbLayerTableRecord
2
4
70
0
62
-2
6
CENTER
290
1
370
-3
390
0
0
LAYER
5
AB
100
AcDbSymbolTableRecord
100
AcDbLayerTableRecord
2
2
70
0
62
7
6
CONTINUOUS
290
1
370
-3
390
0
0
LAYER
5
146
100
AcDbSymbolTableRecord
100
AcDbLayerTableRecord
2
SK3
70
0
62
1
6
DASHED
290
1
370
-3
390
0
0
LAYER
5
147
100
AcDbSymbolTableRecord
100
AcDbLayerTableRecord
2
SK4
70
0
62
2
6
CENTER
290
1
370
-3
390
0
0
LAYER
5
148
100
AcDbSymbolTableRecord
100
AcDbLayerTableRecord
2
SK2
70
0
62
7
6
CONTINUOUS
290
1
370
-3
390
0
0
LAYER
5
149
100
AcDbSymbolTableRecord
100
AcDbLayerTableRecord
2
SK6
70
0
62
5
6
CONTINUOUS
290
1
370
-3
390
0
0
ENDTAB
0
TABLE
2
STYLE
5
15d
100
AcDbSymbolTable
0
STYLE
5
11
100
AcDbSymbolTableRecord
100
AcDbTextStyleTableRecord
2
Standard
3
txt
70
0
71
0
40
0
41
1
42
0
50
0
0
STYLE
5
B9
100
AcDbSymbolTableRecord
100
AcDbTextStyleTableRecord
2
DEFAULT
3
simplex.shx
70
0
71
0
40
0
41
1
42
0
50
0
0
STYLE
5
BA
100
AcDbSymbolTableRecord
100
AcDbTextStyleTableRecord
2
DWGDirectTextStyle
3
SIMPLEX
70
0
71
0
40
0
41
1
42
0
50
0
0
ENDTAB
0
TABLE
2
DIMSTYLE
5
15e
100
AcDbSymbolTable
100
AcDbDimStyleTable
0
DIMSTYLE
105
27
100
AcDbSymbolTableRecord
100
AcDbDimStyleTableRecord
2
Standard
70
0
3
<>
41
0.18
42
0.0625
44
0.18
140
0.18
147
0.09
73
0
74
0
77
1
271
2
275
0
278
52
280
0
340
11
0
ENDTAB
0
TABLE
2
VIEW
5
15f
100
AcDbSymbolTable
0
ENDTAB
0
TABLE
2
UCS
5
160
100
AcDbSymbolTable
0
ENDTAB
0
TABLE
2
APPID
5
161
100
AcDbSymbolTable
0
APPID
5
12
100
AcDbSymbolTableRecord
100
AcDbRegAppTableRecord
2
ACAD
70
0
0
ENDTAB
0
TABLE
2
BLOCK_RECORD
5
162
100
AcDbSymbolTable
0
BLOCK_RECORD
5
1F
100
AcDbSymbolTableRecord
100
AcDbBlockTableRecord
2
*Model_Space
340
0
70
0
0
BLOCK_RECORD
5
1B
100
AcDbSymbolTableRecord
100
AcDbBlockTableRecord
2
*Paper_Space
340
0
70
0
0
BLOCK_RECORD
5
23
100
AcDbSymbolTableRecord
100
AcDbBlockTableRecord
2
*Paper_Space0
340
0
70
0
0
BLOCK_RECORD
5
BC
100
AcDbSymbolTableRecord
100
AcDbBlockTableRecord
2
DimnDraft3D1
340
0
70
0
0
BLOCK_RECORD
5
CA
100
AcDbSymbolTableRecord
100
AcDbBlockTableRecord
2
_CLOSED
340
0
70
0
0
BLOCK_RECORD
5
D1
100
AcDbSymbolTableRecord
100
AcDbBlockTableRecord
2
DimnDraft3D2
340
0
70
0
0
BLOCK_RECORD
5
DF
100
AcDbSymbolTableRecord
100
AcDbBlockTableRecord
2
DimnDraft3D3
340
0
70
0
0
BLOCK_RECORD
5
ED
100
AcDbSymbolTableRecord
100
AcDbBlockTableRecord
2
DimnDraft3D4
340
0
70
0
0
BLOCK_RECORD
5
FB
100
AcDbSymbolTableRecord
100
AcDbBlockTableRecord
2
DimnDraft3D5
340
0
70
0
0
ENDTAB
0
ENDSEC
0
SECTION
2
BLOCKS
0
BLOCK
5
20
100
AcDbEntity
8
0
100
AcDbBlockBegin
2
*Model_Space
70
0
10
0
20
0
30
0
3
*Model_Space
0
ENDBLK
5
21
100
AcDbEntity
8
0
100
AcDbBlockEnd
0
BLOCK
5
1C
100
AcDbEntity
8
0
100
AcDbBlockBegin
2
*Paper_Space
70
0
10
0
20
0
30
0
3
*Paper_Space
0
ENDBLK
5
1D
100
AcDbEntity
8
0
100
AcDbBlockEnd
0
BLOCK
5
24
100
AcDbEntity
8
0
100
AcDbBlockBegin
2
*Paper_Space0
70
0
10
0
20
0
30
0
3
*Paper_Space0
0
ENDBLK
5
25
100
AcDbEntity
8
0
100
AcDbBlockEnd
0
BLOCK
5
C7
100
AcDbEntity
8
0
100
AcDbBlockBegin
2
DimnDraft3D1
70
0
10
0
20
0
30
0
3
DimnDraft3D1
0
MTEXT
5
BD
100
AcDbEntity
8
2
62
256
6
ByLayer
370
-1
48
1
60
0
100
AcDbMText
10
76.125
20
-7.395395
30
0
210
0
220
0
230
1
1
\W01.000;\fsimplex.shx,bigfont.shx;(%%c80.1)\P
40
4.5
41
0
44
1.084337
50
90
71
7
72
5
7
DEFAULT
0
LINE
5
BE
100
AcDbEntity
8
2
62
256
6
ByLayer
370
-1
48
1
60
0
100
AcDbLine
10
64.499997
20
40.03805
30
0
11
79.25
21
40.03805
31
0
39
0
210
0
220
0
230
1
0
LINE
5
BF
100
AcDbEntity
8
2
62
256
6
ByLayer
370
-1
48
1
60
0
100
AcDbLine
10
64.499997
20
-40.03805
30
0
11
79.25
21
-40.03805
31
0
39
0
210
0
220
0
230
1
0
LINE
5
C0
100
AcDbEntity
8
2
62
256
6
ByLayer
370
-1
48
1
60
0
100
AcDbLine
10
77.25
20
40.03805
30
0
11
77.25
21
-40.03805
31
0
39
0
210
0
220
0
230
1
0
LINE
5
C1
100
AcDbEntity
8
2
62
256
6
ByLayer
370
-1
48
1
60
0
100
AcDbLine
10
77.25
20
40.03805
30
0
11
77.916667
21
36.038052
31
0
39
0
210
0
220
0
230
1
0
LINE
5
C2
100
AcDbEntity
8
2
62
256
6
ByLayer
370
-1
48
1
60
0
100
AcDbLine
10
77.25
20
40.03805
30
0
11
76.583333
21
36.038048
31
0
39
0
210
0
220
0
230
1
0
LINE
5
C3
100
AcDbEntity
8
2
62
256
6
ByLayer
370
-1
48
1
60
0
100
AcDbLine
10
77.916667
20
36.038052
30
0
11
76.583333
21
36.038048
31
0
39
0
210
0
220
0
230
1
0
LINE
5
C4
100
AcDbEntity
8
2
62
256
6
ByLayer
370
-1
48
1
60
0
100
AcDbLine
10
77.25
20
-40.03805
30
0
11
76.583333
21
-36.038052
31
0
39
0
210
0
220
0
230
1
0
LINE
5
C5
100
AcDbEntity
8
2
62
256
6
ByLayer
370
-1
48
1
60
0
100
AcDbLine
10
77.25
20
-40.03805
30
0
11
77.916667
21
-36.038048
31
0
39
0
210
0
220
0
230
1
0
LINE
5
C6
100
AcDbEntity
8
2
62
256
6
ByLayer
370
-1
48
1
60
0
100
AcDbLine
10
76.583333
20
-36.038052
30
0
11
77.916667
21
-36.038048
31
0
39
0
210
0
220
0
230
1
0
ENDBLK
5
C8
100
AcDbEntity
8
0
100
AcDbBlockEnd
0
BLOCK
5
CB
100
AcDbEntity
8
0
100
AcDbBlockBegin
2
_CLOSED
70
0
10
0
20
0
30
0
3
_CLOSED
0
LINE
5
CD
100
AcDbEntity
8
0
62
256
6
ByLayer
370
-2
48
1
60
0
100
AcDbLine
10
-1
20
0.166667
30
0
11
0
21
0
31
0
39
0
210
0
220
0
230
1
0
LINE
5
CE
100
AcDbEntity
8
0
62
256
6
ByLayer
370
-2
48
1
60
0
100
AcDbLine
10
0
20
0
30
0
11
-1
21
-0.166667
31
0
39
0
210
0
220
0
230
1
0
LINE
5
CF
100
AcDbEntity
8
0
62
256
6
ByLayer
370
-2
48
1
60
0
100
AcDbLine
10
-1
20
0.166667
30
0
11
-1
21
-0.166667
31
0
39
0
210
0
220
0
230
1
0
LINE
5
D0
100
AcDbEntity
8
0
62
256
6
ByLayer
370
-2
48
1
60
0
100
AcDbLine
10
0
20
0
30
0
11
-1
21
0
31
0
39
0
210
0
220
0
230
1
0
ENDBLK
5
CC
100
AcDbEntity
8
0
100
AcDbBlockEnd
0
BLOCK
5
DC
100
AcDbEntity
8
0
100
AcDbBlockBegin
2
DimnDraft3D2
70
0
10
0
20
0
30
0
3
DimnDraft3D2
0
MTEXT
5
D2
100
AcDbEntity
8
2
62
256
6
ByLayer
370
-1
48
1
60
0
100
AcDbMText
10
88.125
20
-4.748684
30
0
210
0
220
0
230
1
1
\W01.000;\fsimplex.shx,bigfont.shx;%%c100\P
40
4.5
41
0
44
1.084337
50
90
71
7
72
5
7
DEFAULT
0
LINE
5
D3
100
AcDbEntity
8
2
62
256
6
ByLayer
370
-1
48
1
60
0
100
AcDbLine
10
64.499997
20
50
30
0
11
91.25
21
50
31
0
39
0
210
0
220
0
230
1
0
LINE
5
D4
100
AcDbEntity
8
2
62
256
6
ByLayer
370
-1
48
1
60
0
100
AcDbLine
10
64.499997
20
-50
30
0
11
91.25
21
-50
31
0
39
0
210
0
220
0
230
1
0
LINE
5
D5
100
AcDbEntity
8
2
62
256
6
ByLayer
370
-1
48
1
60
0
100
AcDbLine
10
89.25
20
50
30
0
11
89.25
21
-50
31
0
39
0
210
0
220
0
230
1
0
LINE
5
D6
100
AcDbEntity
8
2
62
256
6
ByLayer
370
-1
48
1
60
0
100
AcDbLine
10
89.25
20
50
30
0
11
89.916667
21
46.000002
31
0
39
0
210
0
220
0
230
1
0
LINE
5
D7
100
AcDbEntity
8
2
62
256
6
ByLayer
370
-1
48
1
60
0
100
AcDbLine
10
89.25
20
50
30
0
11
88.583333
21
45.999998
31
0
39
0
210
0
220
0
230
1
0
LINE
5
D8
100
AcDbEntity
8
2
62
256
6
ByLayer
370
-1
48
1
60
0
100
AcDbLine
10
89.916667
20
46.000002
30
0
11
88.583333
21
45.999998
31
0
39
0
210
0
220
0
230
1
0
LINE
5
D9
100
AcDbEntity
8
2
62
256
6
ByLayer
370
-1
48
1
60
0
100
AcDbLine
10
89.25
20
-50
30
0
11
88.583333
21
-46.000002
31
0
39
0
210
0
220
0
230
1
0
LINE
5
DA
100
AcDbEntity
8
2
62
256
6
ByLayer
370
-1
48
1
60
0
100
AcDbLine
10
89.25
20
-50
30
0
11
89.916667
21
-45.999998
31
0
39
0
210
0
220
0
230
1
0
LINE
5
DB
100
AcDbEntity
8
2
62
256
6
ByLayer
370
-1
48
1
60
0
100
AcDbLine
10
88.583333
20
-46.000002
30
0
11
89.916667
21
-45.999998
31
0
39
0
210
0
220
0
230
1
0
ENDBLK
5
DD
100
AcDbEntity
8
0
100
AcDbBlockEnd
0
BLOCK
5
EA
100
AcDbEntity
8
0
100
AcDbBlockBegin
2
DimnDraft3D3
70
0
10
0
20
0
30
0
3
DimnDraft3D3
0
MTEXT
5
E0
100
AcDbEntity
8
2
62
256
6
ByLayer
370
-1
48
1
60
0
100
AcDbMText
10
29.996053
20
60.875
30
0
210
0
220
0
230
1
1
\W01.000;\fsimplex.shx,bigfont.shx;63\P
40
4.5
41
0
44
1.084337
50
0
71
7
72
5
7
DEFAULT
0
LINE
5
E1
100
AcDbEntity
8
2
62
256
6
ByLayer
370
-1
48
1
60
0
100
AcDbLine
10
63
20
51.499997
30
0
11
63
21
61.75
31
0
39
0
210
0
220
0
230
1
0
LINE
5
E2
100
AcDbEntity
8
2
62
256
6
ByLayer
370
-1
48
1
60
0
100
AcDbLine
10
0
20
32.349997
30
0
11
0
21
61.75
31
0
39
0
210
0
220
0
230
1
0
LINE
5
E3
100
AcDbEntity
8
2
62
256
6
ByLayer
370
-1
48
1
60
0
100
AcDbLine
10
63
20
59.75
30
0
11
0
21
59.75
31
0
39
0
210
0
220
0
230
1
0
LINE
5
E4
100
AcDbEntity
8
2
62
256
6
ByLayer
370
-1
48
1
60
0
100
AcDbLine
10
63
20
59.75
30
0
11
59.000002
21
59.083333
31
0
39
0
210
0
220
0
230
1
0
LINE
5
E5
100
AcDbEntity
8
2
62
256
6
ByLayer
370
-1
48
1
60
0
100
AcDbLine
10
63
20
59.75
30
0
11
58.999998
21
60.416667
31
0
39
0
210
0
220
0
230
1
0
LINE
5
E6
100
AcDbEntity
8
2
62
256
6
ByLayer
370
-1
48
1
60
0
100
AcDbLine
10
59.000002
20
59.083333
30
0
11
58.999998
21
60.416667
31
0
39
0
210
0
220
0
230
1
0
LINE
5
E7
100
AcDbEntity
8
2
62
256
6
ByLayer
370
-1
48
1
60
0
100
AcDbLine
10
0
20
59.75
30
0
11
3.999998
21
60.416667
31
0
39
0
210
0
220
0
230
1
0
LINE
5
E8
100
AcDbEntity
8
2
62
256
6
ByLayer
370
-1
48
1
60
0
100
AcDbLine
10
0
20
59.75
30
0
11
4.000002
21
59.083333
31
0
39
0
210
0
220
0
230
1
0
LINE
5
E9
100
AcDbEntity
8
2
62
256
6
ByLayer
370
-1
48
1
60
0
100
AcDbLine
10
3.999998
20
60.416667
30
0
11
4.000002
21
59.083333
31
0
39
0
210
0
220
0
230
1
0
ENDBLK
5
EB
100
AcDbEntity
8
0
100
AcDbBlockEnd
0
BLOCK
5
F8
100
AcDbEntity
8
0
100
AcDbBlockBegin
2
DimnDraft3D4
70
0
10
0
20
0
30
0
3
DimnDraft3D4
0
MTEXT
5
EE
100
AcDbEntity
8
SK2
62
256
6
ByLayer
370
-1
48
1
60
0
100
AcDbMText
10
-10.875
20
-3.659211
30
0
210
0
220
0
230
1
1
\W01.000;\fsimplex.shx,bigfont.shx;%%c32\P
40
4.5
41
0
44
1.084337
50
90
71
7
72
5
7
DEFAULT
0
LINE
5
EF
100
AcDbEntity
8
SK2
62
256
6
ByLayer
370
-1
48
1
60
0
100
AcDbLine
10
-1.499997
20
16
30
0
11
-11.75
21
16
31
0
39
0
210
0
220
0
230
1
0
LINE
5
F0
100
AcDbEntity
8
SK2
62
256
6
ByLayer
370
-1
48
1
60
0
100
AcDbLine
10
-1.499997
20
-16
30
0
11
-11.75
21
-16
31
0
39
0
210
0
220
0
230
1
0
LINE
5
F1
100
AcDbEntity
8
SK2
62
256
6
ByLayer
370
-1
48
1
60
0
100
AcDbLine
10
-9.75
20
16
30
0
11
-9.75
21
-16
31
0
39
0
210
0
220
0
230
1
0
LINE
5
F2
100
AcDbEntity
8
SK2
62
256
6
ByLayer
370
-1
48
1
60
0
100
AcDbLine
10
-9.75
20
16
30
0
11
-9.083333
21
12.000002
31
0
39
0
210
0
220
0
230
1
0
LINE
5
F3
100
AcDbEntity
8
SK2
62
256
6
ByLayer
370
-1
48
1
60
0
100
AcDbLine
10
-9.75
20
16
30
0
11
-10.416667
21
11.999998
31
0
39
0
210
0
220
0
230
1
0
LINE
5
F4
100
AcDbEntity
8
SK2
62
256
6
ByLayer
370
-1
48
1
60
0
100
AcDbLine
10
-9.083333
20
12.000002
30
0
11
-10.416667
21
11.999998
31
0
39
0
210
0
220
0
230
1
0
LINE
5
F5
100
AcDbEntity
8
SK2
62
256
6
ByLayer
370
-1
48
1
60
0
100
AcDbLine
10
-9.75
20
-16
30
0
11
-10.416667
21
-12.000002
31
0
39
0
210
0
220
0
230
1
0
LINE
5
F6
100
AcDbEntity
8
SK2
62
256
6
ByLayer
370
-1
48
1
60
0
100
AcDbLine
10
-9.75
20
-16
30
0
11
-9.083333
21
-11.999998
31
0
39
0
210
0
220
0
230
1
0
LINE
5
F7
100
AcDbEntity
8
SK2
62
256
6
ByLayer
370
-1
48
1
60
0
100
AcDbLine
10
-10.416667
20
-12.000002
30
0
11
-9.083333
21
-11.999998
31
0
39
0
210
0
220
0
230
1
0
ENDBLK
5
F9
100
AcDbEntity
8
0
100
AcDbBlockEnd
0
BLOCK
5
106
100
AcDbEntity
8
0
100
AcDbBlockBegin
2
DimnDraft3D5
70
0
10
0
20
0
30
0
3
DimnDraft3D5
0
MTEXT
5
FC
100
AcDbEntity
8
2
62
256
6
ByLayer
370
-1
48
1
60
0
100
AcDbMText
10
44.992105
20
-63.125
30
0
210
0
220
0
230
1
1
\W01.000;\fsimplex.shx,bigfont.shx;10\P
40
4.5
41
0
44
1.084337
50
0
71
7
72
5
7
DEFAULT
0
LINE
5
FD
100
AcDbEntity
8
2
62
256
6
ByLayer
370
-1
48
1
60
0
100
AcDbLine
10
63
20
-51.499997
30
0
11
63
21
-66.25
31
0
39
0
210
0
220
0
230
1
0
LINE
5
FE
100
AcDbEntity
8
2
62
256
6
ByLayer
370
-1
48
1
60
0
100
AcDbLine
10
53
20
-51.499997
30
0
11
53
21
-66.25
31
0
39
0
210
0
220
0
230
1
0
LINE
5
FF
100
AcDbEntity
8
2
62
256
6
ByLayer
370
-1
48
1
60
0
100
AcDbLine
10
63
20
-64.25
30
0
11
43.867105
21
-64.25
31
0
39
0
210
0
220
0
230
1
0
LINE
5
100
100
AcDbEntity
8
2
62
256
6
ByLayer
370
-1
48
1
60
0
100
AcDbLine
10
63
20
-64.25
30
0
11
59.000002
21
-64.916667
31
0
39
0
210
0
220
0
230
1
0
LINE
5
101
100
AcDbEntity
8
2
62
256
6
ByLayer
370
-1
48
1
60
0
100
AcDbLine
10
63
20
-64.25
30
0
11
58.999998
21
-63.583333
31
0
39
0
210
0
220
0
230
1
0
LINE
5
102
100
AcDbEntity
8
2
62
256
6
ByLayer
370
-1
48
1
60
0
100
AcDbLine
10
59.000002
20
-64.916667
30
0
11
58.999998
21
-63.583333
31
0
39
0
210
0
220
0
230
1
0
LINE
5
103
100
AcDbEntity
8
2
62
256
6
ByLayer
370
-1
48
1
60
0
100
AcDbLine
10
53
20
-64.25
30
0
11
56.999998
21
-63.583333
31
0
39
0
210
0
220
0
230
1
0
LINE
5
104
100
AcDbEntity
8
2
62
256
6
ByLayer
370
-1
48
1
60
0
100
AcDbLine
10
53
20
-64.25
30
0
11
57.000002
21
-64.916667
31
0
39
0
210
0
220
0
230
1
0
LINE
5
105
100
AcDbEntity
8
2
62
256
6
ByLayer
370
-1
48
1
60
0
100
AcDbLine
10
56.999998
20
-63.583333
30
0
11
57.000002
21
-64.916667
31
0
39
0
210
0
220
0
230
1
0
ENDBLK
5
107
100
AcDbEntity
8
0
100
AcDbBlockEnd
0
ENDSEC
0
SECTION
2
ENTITIES
0
ARC
5
7F
100
AcDbEntity
8
1
62
256
6
ByLayer
370
-1
48
1
60
0
100
AcDbCircle
39
0
10
52.329919
20
-39.848909
30
0
40
8.80723515278014
210
0
220
0
230
1
100
AcDbArc
50
220.23916
51
314.626962
0
ARC
5
80
100
AcDbEntity
8
1
62
256
6
ByLayer
370
-1
48
1
60
0
100
AcDbCircle
39
0
10
52.219446
20
-39.801981
30
0
40
8.91835636714849
210
0
220
0
230
1
100
AcDbArc
50
314.920285
51
355.175944
0
ARC
5
81
100
AcDbEntity
8
SK3
62
256
6
ByLayer
370
-1
48
1
60
0
100
AcDbCircle
39
0
10
52.219446
20
-39.801981
30
0
40
8.91835636714849
210
0
220
0
230
1
100
AcDbArc
50
4.824056
51
43.2106
0
ARC
5
82
100
AcDbEntity
8
SK3
62
256
6
ByLayer
370
-1
48
1
60
0
100
AcDbCircle
39
0
10
59.812782
20
-32.66872
30
0
40
1.5
210
0
220
0
230
1
100
AcDbArc
50
207.695192
51
223.2106
0
ARC
5
83
100
AcDbEntity
8
SK3
62
256
6
ByLayer
370
-1
48
1
60
0
100
AcDbCircle
39
0
10
56.1235
20
-23.936102
30
0
40
1.5
210
0
220
0
230
1
100
AcDbArc
50
180
51
199.956137
0
ARC
5
84
100
AcDbEntity
8
1
62
256
6
ByLayer
370
-1
48
1
60
0
100
AcDbCircle
39
0
10
41.408424
20
-49.09109
30
0
40
5.5
210
0
220
0
230
1
100
AcDbArc
50
40.23916
51
80.470925
0
ARC
5
85
100
AcDbEntity
8
1
62
256
6
ByLayer
370
-1
48
1
60
0
100
AcDbCircle
39
0
10
14.90658
20
-62.9221
30
0
40
32.0721
210
0
220
0
230
1
100
AcDbArc
50
44.97676
51
90
0
ARC
5
86
100
AcDbEntity
8
1
62
256
6
ByLayer
370
-1
48
1
60
0
100
AcDbCircle
39
0
10
43.146679
20
-38.735972
30
0
40
5
210
0
220
0
230
1
100
AcDbArc
50
224.97676
51
260.470925
0
ARC
5
87
100
AcDbEntity
8
SK3
62
256
6
ByLayer
370
-1
48
1
60
0
100
AcDbCircle
39
0
10
-56.1235
20
23.936102
30
0
40
1.5
210
0
220
0
230
-1
100
AcDbArc
50
0
51
19.956137
0
ARC
5
88
100
AcDbEntity
8
SK3
62
256
6
ByLayer
370
-1
48
1
60
0
100
AcDbCircle
39
0
10
-59.812782
20
32.66872
30
0
40
1.5
210
0
220
0
230
-1
100
AcDbArc
50
27.695192
51
43.2106
0
ARC
5
89
100
AcDbEntity
8
SK3
62
256
6
ByLayer
370
-1
48
1
60
0
100
AcDbCircle
39
0
10
-52.219446
20
39.801981
30
0
40
8.91835636714849
210
0
220
0
230
-1
100
AcDbArc
50
184.824056
51
223.2106
0
ARC
5
8A
100
AcDbEntity
8
1
62
256
6
ByLayer
370
-1
48
1
60
0
100
AcDbCircle
39
0
10
-52.219446
20
39.801981
30
0
40
8.91835636714849
210
0
220
0
230
-1
100
AcDbArc
50
134.920285
51
175.175944
0
ARC
5
8B
100
AcDbEntity
8
1
62
256
6
ByLayer
370
-1
48
1
60
0
100
AcDbCircle
39
0
10
-52.329919
20
39.848909
30
0
40
8.80723515278014
210
0
220
0
230
-1
100
AcDbArc
50
40.23916
51
134.626962
0
ARC
5
8C
100
AcDbEntity
8
1
62
256
6
ByLayer
370
-1
48
1
60
0
100
AcDbCircle
39
0
10
-41.408424
20
49.09109
30
0
40
5.5
210
0
220
0
230
-1
100
AcDbArc
50
220.23916
51
260.470925
0
ARC
5
8D
100
AcDbEntity
8
1
62
256
6
ByLayer
370
-1
48
1
60
0
100
AcDbCircle
39
0
10
-43.146679
20
38.735972
30
0
40
5
210
0
220
0
230
-1
100
AcDbArc
50
44.97676
51
80.470925
0
ARC
5
8E
100
AcDbEntity
8
1
62
256
6
ByLayer
370
-1
48
1
60
0
100
AcDbCircle
39
0
10
-14.90658
20
62.9221
30
0
40
32.0721
210
0
220
0
230
-1
100
AcDbArc
50
224.97676
51
270
0
ARC
5
90
100
AcDbEntity
8
1
62
256
6
ByLayer
370
-1
48
1
60
0
100
AcDbCircle
39
0
10
51.22425
20
39.9881
30
0
40
0.406
210
0
220
0
230
1
100
AcDbArc
50
104.407406
51
180
0
ARC
5
91
100
AcDbEntity
8
1
62
256
6
ByLayer
370
-1
48
1
60
0
100
AcDbCircle
39
0
10
52.149375
20
41.590464
30
0
40
0.406
210
0
220
0
230
1
100
AcDbArc
50
120
51
195.592594
0
ARC
5
92
100
AcDbEntity
8
1
62
256
6
ByLayer
370
-1
48
1
60
0
100
AcDbCircle
39
0
10
50.902034
20
41.242374
30
0
40
0.889
210
0
220
0
230
1
100
AcDbArc
50
284.407406
51
15.592594
0
ARC
5
93
100
AcDbEntity
8
1
62
256
6
ByLayer
370
-1
48
1
60
0
100
AcDbCircle
39
0
10
52.149375
20
38.385736
30
0
40
0.406
210
0
220
0
230
1
100
AcDbArc
50
164.407406
51
240
0
ARC
5
94
100
AcDbEntity
8
1
62
256
6
ByLayer
370
-1
48
1
60
0
100
AcDbCircle
39
0
10
51.22425
20
39.9881
30
0
40
0.406
210
0
220
0
230
1
100
AcDbArc
50
180
51
255.592594
0
ARC
5
95
100
AcDbEntity
8
1
62
256
6
ByLayer
370
-1
48
1
60
0
100
AcDbCircle
39
0
10
50.902034
20
38.733826
30
0
40
0.889
210
0
220
0
230
1
100
AcDbArc
50
344.407406
51
75.592594
0
ARC
5
96
100
AcDbEntity
8
1
62
256
6
ByLayer
370
-1
48
1
60
0
100
AcDbCircle
39
0
10
53.999625
20
38.385736
30
0
40
0.406
210
0
220
0
230
1
100
AcDbArc
50
224.407406
51
300
0
ARC
5
97
100
AcDbEntity
8
1
62
256
6
ByLayer
370
-1
48
1
60
0
100
AcDbCircle
39
0
10
52.149375
20
38.385736
30
0
40
0.406
210
0
220
0
230
1
100
AcDbArc
50
240
51
315.592594
0
ARC
5
98
100
AcDbEntity
8
1
62
256
6
ByLayer
370
-1
48
1
60
0
100
AcDbCircle
39
0
10
53.0745
20
37.479553
30
0
40
0.889
210
0
220
0
230
1
100
AcDbArc
50
44.407406
51
135.592594
0
ARC
5
99
100
AcDbEntity
8
1
62
256
6
ByLayer
370
-1
48
1
60
0
100
AcDbCircle
39
0
10
54.92475
20
39.9881
30
0
40
0.406
210
0
220
0
230
1
100
AcDbArc
50
284.407406
51
360
0
ARC
5
9A
100
AcDbEntity
8
1
62
256
6
ByLayer
370
-1
48
1
60
0
100
AcDbCircle
39
0
10
53.999625
20
38.385736
30
0
40
0.406
210
0
220
0
230
1
100
AcDbArc
50
300
51
15.592594
0
ARC
5
9B
100
AcDbEntity
8
1
62
256
6
ByLayer
370
-1
48
1
60
0
100
AcDbCircle
39
0
10
55.246966
20
38.733826
30
0
40
0.889
210
0
220
0
230
1
100
AcDbArc
50
104.407406
51
195.592594
0
ARC
5
9C
100
AcDbEntity
8
1
62
256
6
ByLayer
370
-1
48
1
60
0
100
AcDbCircle
39
0
10
53.999625
20
41.590464
30
0
40
0.406
210
0
220
0
230
1
100
AcDbArc
50
344.407406
51
60
0
ARC
5
9D
100
AcDbEntity
8
1
62
256
6
ByLayer
370
-1
48
1
60
0
100
AcDbCircle
39
0
10
54.92475
20
39.9881
30
0
40
0.406
210
0
220
0
230
1
100
AcDbArc
50
360
51
75.592594
0
ARC
5
9E
100
AcDbEntity
8
1
62
256
6
ByLayer
370
-1
48
1
60
0
100
AcDbCircle
39
0
10
55.246966
20
41.242374
30
0
40
0.889
210
0
220
0
230
1
100
AcDbArc
50
164.407406
51
255.592594
0
ARC
5
9F
100
AcDbEntity
8
1
62
256
6
ByLayer
370
-1
48
1
60
0
100
AcDbCircle
39
0
10
52.149375
20
41.590464
30
0
40
0.406
210
0
220
0
230
1
100
AcDbArc
50
44.407406
51
120
0
ARC
5
A0
100
AcDbEntity
8
1
62
256
6
ByLayer
370
-1
48
1
60
0
100
AcDbCircle
39
0
10
53.999625
20
41.590464
30
0
40
0.406
210
0
220
0
230
1
100
AcDbArc
50
60
51
135.592594
0
ARC
5
A1
100
AcDbEntity
8
1
62
256
6
ByLayer
370
-1
48
1
60
0
100
AcDbCircle
39
0
10
53.0745
20
42.496647
30
0
40
0.889
210
0
220
0
230
1
100
AcDbArc
50
224.407406
51
315.592594
0
ARC
5
A5
100
AcDbEntity
8
1
62
256
6
ByLayer
370
-1
48
1
60
0
100
AcDbCircle
39
0
10
53.0745
20
-39.9881
30
0
40
10
210
0
220
0
230
1
100
AcDbArc
50
205.269269
51
36.566007
0
ARC
5
A6
100
AcDbEntity
8
1
62
256
6
ByLayer
370
-1
48
1
60
0
100
AcDbCircle
39
0
10
1
20
-29.85
30
0
40
1
210
0
220
0
230
1
100
AcDbArc
50
180
51
270
0
ARC
5
A7
100
AcDbEntity
8
1
62
256
6
ByLayer
370
-1
48
1
60
0
100
AcDbCircle
39
0
10
-1
20
29.85
30
0
40
1
210
0
220
0
230
-1
100
AcDbArc
50
0
51
90
0
ARC
5
A8
100
AcDbEntity
8
SK3
62
256
6
ByLayer
370
-1
48
1
60
0
100
AcDbCircle
39
0
10
25.7
20
-21.8
30
0
40
1.5
210
0
220
0
230
1
100
AcDbArc
50
150
51
300
0
ARC
5
A9
100
AcDbEntity
8
SK3
62
256
6
ByLayer
370
-1
48
1
60
0
100
AcDbCircle
39
0
10
-25.7
20
21.8
30
0
40
1.5
210
0
220
0
230
-1
100
AcDbArc
50
330
51
120
0
CIRCLE
5
8F
100
AcDbEntity
8
1
62
256
6
ByLayer
370
-1
48
1
60
0
100
AcDbCircle
10
53.0745
20
39.9881
30
0
40
10
39
0
210
0
220
0
230
1
0
CIRCLE
5
A2
100
AcDbEntity
8
1
62
256
6
ByLayer
370
-1
48
1
60
0
100
AcDbCircle
10
53.0745
20
39.9881
30
0
40
4.25
39
0
210
0
220
0
230
1
0
CIRCLE
5
A3
100
AcDbEntity
8
1
62
256
6
ByLayer
370
-1
48
1
60
0
100
AcDbCircle
10
53.0745
20
39.9881
30
0
40
2.4
39
0
210
0
220
0
230
1
0
CIRCLE
5
A4
100
AcDbEntity
8
1
62
256
6
ByLayer
370
-1
48
1
60
0
100
AcDbCircle
10
53.0745
20
39.9881
30
0
40
2.25625
39
0
210
0
220
0
230
1
0
CIRCLE
5
AA
100
AcDbEntity
8
2
62
256
6
ByLayer
370
-1
48
1
60
1
100
AcDbCircle
10
63
20
40.03805
30
0
40
0.5
39
0
210
0
220
0
230
1
0
CIRCLE
5
AC
100
AcDbEntity
8
2
62
256
6
ByLayer
370
-1
48
1
60
1
100
AcDbCircle
10
63
20
-40.03805
30
0
40
0.5
39
0
210
0
220
0
230
1
0
CIRCLE
5
AD
100
AcDbEntity
8
2
62
256
6
ByLayer
370
-1
48
1
60
1
100
AcDbCircle
10
63
20
50
30
0
40
0.5
39
0
210
0
220
0
230
1
0
CIRCLE
5
AE
100
AcDbEntity
8
2
62
256
6
ByLayer
370
-1
48
1
60
1
100
AcDbCircle
10
63
20
-50
30
0
40
0.5
39
0
210
0
220
0
230
1
0
CIRCLE
5
AF
100
AcDbEntity
8
1
62
256
6
ByLayer
370
-1
48
1
60
1
100
AcDbCircle
10
0
20
30.85
30
0
40
0.5
39
0
210
0
220
0
230
1
0
CIRCLE
5
B0
100
AcDbEntity
8
SK2
62
256
6
ByLayer
370
-1
48
1
60
1
100
AcDbCircle
10
0
20
16
30
0
40
0.5
39
0
210
0
220
0
230
1
0
CIRCLE
5
B2
100
AcDbEntity
8
SK2
62
256
6
ByLayer
370
-1
48
1
60
1
100
AcDbCircle
10
0
20
-16
30
0
40
0.5
39
0
210
0
220
0
230
1
0
CIRCLE
5
B3
100
AcDbEntity
8
2
62
256
6
ByLayer
370
-1
48
1
60
1
100
AcDbCircle
10
53
20
-50
30
0
40
0.5
39
0
210
0
220
0
230
1
0
CIRCLE
5
B5
100
AcDbEntity
8
1
62
256
6
ByLayer
370
-1
48
1
60
0
100
AcDbCircle
10
53.0745
20
39.9881
30
0
40
10
39
0
210
0
220
0
230
1
0
CIRCLE
5
B6
100
AcDbEntity
8
1
62
256
6
ByLayer
370
-1
48
1
60
0
100
AcDbCircle
10
53.0745
20
39.9881
30
0
40
4.25
39
0
210
0
220
0
230
1
0
POINT
5
42
100
AcDbEntity
8
81
62
256
6
ByLayer
370
-1
48
1
60
0
100
AcDbPoint
10
63
20
0
30
0
39
0
210
0
220
0
230
1
50
360
0
POINT
5
44
100
AcDbEntity
8
80
62
256
6
ByLayer
370
-1
48
1
60
0
100
AcDbPoint
10
0
20
0
30
0
39
0
210
0
220
0
230
1
50
360
0
SPLINE
5
B4
100
AcDbEntity
8
1
62
256
6
ByLayer
370
-1
48
1
60
1
100
AcDbSpline
70
4
71
3
72
81
73
77
40
0
40
0
40
0
40
0
40
0.0028114773039189
40
0.0056229546078378
40
0.0084344319117567
40
0.0112459092156756
40
0.0140573865195945
40
0.0168688638235134
40
0.0196803411274322
40
0.0224918184313511
40
0.02530329573527
40
0.0281147730391889
40
0.0309262503431078
40
0.0337377276470267
40
0.0365492049509456
40
0.0370485790968903
40
0.0370485790968903
40
0.0410507189327754
40
0.0450528587686605
40
0.0490549986045457
40
0.0530571384404308
40
0.057059278276316
40
0.0610614181122011
40
0.0650635579480862
40
0.0690656977839714
40
0.0730678376198565
40
0.0770699774557417
40
0.0810721172916268
40
0.0850742571275119
40
0.0890763969633971
40
0.0930785367992822
40
0.0970806766351674
40
0.101082816471052
40
0.105084956306938
40
0.109087096142823
40
0.113089235978708
40
0.117091375814593
40
0.121093515650478
40
0.125095655486363
40
0.129097795322248
40
0.133099935158134
40
0.137102074994019
40
0.141104214829904
40
0.145106354665789
40
0.149108494501674
40
0.153110634337559
40
0.157112774173444
40
0.16111491400933
40
0.165117053845215
40
0.1691191936811
40
0.173121333516985
40
0.176234472051576
40
0.176234472051576
40
0.176234491237887
40
0.176234491237887
40
0.180274443018182
40
0.184314394798477
40
0.188354346578772
40
0.192394298359066
40
0.196434250139361
40
0.200474201919656
40
0.204514153699951
40
0.208554105480246
40
0.212594057260541
40
0.216634009040835
40
0.22067396082113
40
0.224713912601425
40
0.22875386438172
40
0.232793816162015
40
0.236345150355137
40
0.236345150355137
40
0.236345169530154
40
0.236345169530154
40
0.250734933813991
40
0.250734933813991
40
1
40
1
40
1
40
1
41
1
10
42.3189387299237
20
-43.666980965844
30
0
41
1
10
42.4152809526582
20
-43.683153387941
30
0
41
1
10
42.6071034228092
20
-43.7206330929742
30
0
41
1
10
42.8914344755013
20
-43.7920976533457
30
0
41
1
10
43.1715557360298
20
-43.8786043490836
30
0
41
1
10
43.4466720343274
20
-43.9799076161904
30
0
41
1
10
43.7160024026247
20
-44.0957198870967
30
0
41
1
10
43.9787822989498
20
-44.2257124080593
30
0
41
1
10
44.2342657755803
20
-44.3695161721492
30
0
41
1
10
44.4817275973117
20
-44.5267229666099
30
0
41
1
10
44.7204652989521
20
-44.6968865324141
30
0
41
1
10
44.9498011834927
20
-44.8795238280954
30
0
41
1
10
45.169084230694
20
-45.0741164119931
30
0
41
1
10
45.3776920017358
20
-45.280111872713
30
0
41
1
10
45.5209359749159
20
-45.4374911285263
30
0
41
1
10
45.5956662294342
20
-45.5249572524702
30
0
41
1
10
45.6967063169607
20
-45.6443564226972
30
0
41
1
10
45.8813980647213
20
-45.8524077557762
30
0
41
1
10
46.1729020585754
20
-46.1510167444178
30
0
41
1
10
46.4782184669011
20
-46.4354878236564
30
0
41
1
10
46.7966623569634
20
-46.7051828247999
30
0
41
1
10
47.1275193433247
20
-46.9594967236816
30
0
41
1
10
47.4700471942915
20
-47.1978590024635
30
0
41
1
10
47.823477495984
20
-47.4197349283039
30
0
41
1
10
48.1870173764408
20
-47.6246267532814
30
0
41
1
10
48.5598512842441
20
-47.812074830936
30
0
41
1
10
48.9411428181161
20
-47.9816586474459
30
0
41
1
10
49.330036603264
20
-48.1329977649858
30
0
41
1
10
49.7256602102969
20
-48.2657526751881
30
0
41
1
10
50.1271261123992
20
-48.3796255607827
30
0
41
1
10
50.5335336763752
20
-48.4743609637086
30
0
41
1
10
50.9439711830946
20
-48.549746358199
30
0
41
1
10
51.357517872808
20
-48.6056126275534
30
0
41
1
10
51.7732460107443
20
-48.6418344435273
30
0
41
1
10
52.1902229683554
20
-48.658330547489
30
0
41
1
10
52.6075133155387
20
-48.6550639327121
30
0
41
1
10
53.0241809191457
20
-48.6320419273946
30
0
41
1
10
53.439291043067
20
-48.5893161782199
30
0
41
1
10
53.8519124451832
20
-48.5269825344936
30
0
41
1
10
54.2611194664778
20
-48.4451808331197
30
0
41
1
10
54.6659941076252
20
-48.344094584895
30
0
41
1
10
55.0656280883962
20
-48.2239505628301
30
0
41
1
10
55.4591248852532
20
-48.0850182934086
30
0
41
1
10
55.8456017425997
20
-47.9276094519668
30
0
41
1
10
56.2241916530326
20
-47.7520771634
30
0
41
1
10
56.5940453026839
20
-47.5588152103232
30
0
41
1
10
56.9543329753021
20
-47.3482571483779
30
0
41
1
10
57.3042464182226
20
-47.1208753384482
30
0
41
1
10
57.6430006383402
20
-46.8771798689273
30
0
41
1
10
57.9698357274387
20
-46.6177174787962
30
0
41
1
10
58.2607550435294
20
-46.363406025293
30
0
41
1
10
58.4399104499541
20
-46.1929690888601
30
0
41
1
10
58.5168963218426
20
-46.1169792175503
30
0
41
1
10
58.5168970318079
20
-46.1169785131741
30
0
41
1
10
58.6162961306405
20
-46.0178556173177
30
0
41
1
10
58.8104111059533
20
-45.8149170621012
30
0
41
1
10
59.086892016799
20
-45.497102350124
30
0
41
1
10
59.3480624954864
20
-45.1665917793387
30
0
41
1
10
59.5933409752986
20
-44.8241215012802
30
0
41
1
10
59.8221804658887
20
-44.4704551797932
30
0
41
1
10
60.0340708534669
20
-44.1063812108016
30
0
41
1
10
60.2285397484523
20
-43.7327112534902
30
0
41
1
10
60.4051536161048
20
-43.3502783434472
30
0
41
1
10
60.5635187225391
20
-42.9599350563118
30
0
41
1
10
60.7032820169188
20
-42.5625516013953
30
0
41
1
10
60.8241319213086
20
-42.1590138836894
30
0
41
1
10
60.925799009742
20
-41.7502215265564
30
0
41
1
10
61.0080566682737
20
-41.3370858734423
30
0
41
1
10
61.0681950212591
20
-40.9373216560106
30
0
41
1
10
61.0958332946745
20
-40.6749426816315
30
0
41
1
10
61.1062106360415
20
-40.5519813759597
30
0
41
1
10
61.106210678313
20
-40.5519803767355
30
0
41
1
10
61.106210677251
20
-40.0519798771787
30
0
41
1
10
61.106210677251
20
-39.5519808771787
30
0
41
1
10
61.106210677251
20
-13.0173269590596
30
0
41
1
10
61.106210677251
20
13.0173269590596
30
0
41
1
10
61.106210677251
20
39.0519808771787
30
0
0
LINE
5
46
100
AcDbEntity
8
1
62
256
6
ByLayer
370
-1
48
1
60
0
100
AcDbLine
10
61.106211
20
-40.551981
30
0
11
61.106211
21
-39.051981
31
0
39
0
210
0
220
0
230
1
0
LINE
5
48
100
AcDbEntity
8
SK3
62
256
6
ByLayer
370
-1
48
0.05
60
0
100
AcDbLine
10
56.755599
20
-30.071876
30
0
11
58.484633
21
-33.365872
31
0
39
0
210
0
220
0
230
1
0
LINE
5
4A
100
AcDbEntity
8
SK3
62
256
6
ByLayer
370
-1
48
0.05
60
0
100
AcDbLine
10
56.755599
20
-30.071876
30
0
11
54.713569
21
-24.448052
31
0
39
0
210
0
220
0
230
1
0
LINE
5
4B
100
AcDbEntity
8
SK3
62
256
6
ByLayer
370
-1
48
0.05
60
0
100
AcDbLine
10
54.6235
20
-23.936102
30
0
11
54.6235
21
0
31
0
39
0
210
0
220
0
230
1
0
LINE
5
4C
100
AcDbEntity
8
SK4
62
256
6
ByLayer
370
-1
48
0.05
60
0
100
AcDbLine
10
65
20
0
30
0
11
-2
21
0
31
0
39
0
210
0
220
0
230
1
0
LINE
5
4E
100
AcDbEntity
8
1
62
256
6
ByLayer
370
-1
48
1
60
0
100
AcDbLine
10
37.594176
20
-40.252901
30
0
11
39.609711
21
-42.270072
31
0
39
0
210
0
220
0
230
1
0
LINE
5
4F
100
AcDbEntity
8
SK3
62
256
6
ByLayer
370
-1
48
0.05
60
0
100
AcDbLine
10
54.6235
20
23.936102
30
0
11
54.6235
21
0
31
0
39
0
210
0
220
0
230
1
0
LINE
5
50
100
AcDbEntity
8
SK3
62
256
6
ByLayer
370
-1
48
0.05
60
0
100
AcDbLine
10
56.755599
20
30.071876
30
0
11
54.713569
21
24.448052
31
0
39
0
210
0
220
0
230
1
0
LINE
5
51
100
AcDbEntity
8
SK3
62
256
6
ByLayer
370
-1
48
0.05
60
0
100
AcDbLine
10
56.755599
20
30.071876
30
0
11
58.484633
21
33.365872
31
0
39
0
210
0
220
0
230
1
0
LINE
5
52
100
AcDbEntity
8
1
62
256
6
ByLayer
370
-1
48
1
60
0
100
AcDbLine
10
61.106211
20
40.551981
30
0
11
61.106211
21
39.051981
31
0
39
0
210
0
220
0
230
1
0
LINE
5
53
100
AcDbEntity
8
1
62
256
6
ByLayer
370
-1
48
1
60
0
100
AcDbLine
10
37.594176
20
40.252901
30
0
11
39.609711
21
42.270072
31
0
39
0
210
0
220
0
230
1
0
LINE
5
54
100
AcDbEntity
8
1
62
256
6
ByLayer
370
-1
48
1
60
0
100
AcDbLine
10
61.106211
20
-39.051981
30
0
11
61.106211
21
39.051981
31
0
39
0
210
0
220
0
230
1
0
LINE
5
55
100
AcDbEntity
8
1
62
256
6
ByLayer
370
-1
48
1
60
0
100
AcDbLine
10
14.90658
20
-30.85
30
0
11
1
21
-30.85
31
0
39
0
210
0
220
0
230
1
0
LINE
5
56
100
AcDbEntity
8
1
62
256
6
ByLayer
370
-1
48
1
60
0
100
AcDbLine
10
0
20
-8.3275
30
0
11
1.1
21
-7.2275
31
0
39
0
210
0
220
0
230
1
0
LINE
5
57
100
AcDbEntity
8
1
62
256
6
ByLayer
370
-1
48
1
60
0
100
AcDbLine
10
1.1
20
-7.2275
30
0
11
7.5
21
-7.2275
31
0
39
0
210
0
220
0
230
1
0
LINE
5
58
100
AcDbEntity
8
1
62
256
6
ByLayer
370
-1
48
1
60
0
100
AcDbLine
10
7.5
20
-7.2275
30
0
11
8.3
21
-6.4275
31
0
39
0
210
0
220
0
230
1
0
LINE
5
59
100
AcDbEntity
8
1
62
256
6
ByLayer
370
-1
48
1
60
0
100
AcDbLine
10
8.3
20
-6.4275
30
0
11
8.3
21
0
31
0
39
0
210
0
220
0
230
1
0
LINE
5
5A
100
AcDbEntity
8
1
62
256
6
ByLayer
370
-1
48
1
60
0
100
AcDbLine
10
0
20
8.3275
30
0
11
1.1
21
7.2275
31
0
39
0
210
0
220
0
230
1
0
LINE
5
5B
100
AcDbEntity
8
1
62
256
6
ByLayer
370
-1
48
1
60
0
100
AcDbLine
10
1.1
20
7.2275
30
0
11
7.5
21
7.2275
31
0
39
0
210
0
220
0
230
1
0
LINE
5
5C
100
AcDbEntity
8
1
62
256
6
ByLayer
370
-1
48
1
60
0
100
AcDbLine
10
7.5
20
7.2275
30
0
11
8.3
21
6.4275
31
0
39
0
210
0
220
0
230
1
0
LINE
5
5D
100
AcDbEntity
8
1
62
256
6
ByLayer
370
-1
48
1
60
0
100
AcDbLine
10
8.3
20
6.4275
30
0
11
8.3
21
0
31
0
39
0
210
0
220
0
230
1
0
LINE
5
5E
100
AcDbEntity
8
1
62
256
6
ByLayer
370
-1
48
1
60
0
100
AcDbLine
10
0
20
-29.85
30
0
11
0
21
-8.3275
31
0
39
0
210
0
220
0
230
1
0
LINE
5
5F
100
AcDbEntity
8
1
62
256
6
ByLayer
370
-1
48
1
60
0
100
AcDbLine
10
14.90658
20
30.85
30
0
11
1
21
30.85
31
0
39
0
210
0
220
0
230
1
0
LINE
5
60
100
AcDbEntity
8
1
62
256
6
ByLayer
370
-1
48
1
60
0
100
AcDbLine
10
0
20
29.85
30
0
11
0
21
8.3275
31
0
39
0
210
0
220
0
230
1
0
LINE
5
61
100
AcDbEntity
8
SK3
62
256
6
ByLayer
370
-1
48
0.05
60
0
100
AcDbLine
10
0
20
-18.00625
30
0
11
2
21
-16.00625
31
0
39
0
210
0
220
0
230
1
0
LINE
5
62
100
AcDbEntity
8
SK3
62
256
6
ByLayer
370
-1
48
0.05
60
0
100
AcDbLine
10
2
20
-16.00625
30
0
11
24
21
-16.00625
31
0
39
0
210
0
220
0
230
1
0
LINE
5
63
100
AcDbEntity
8
SK3
62
256
6
ByLayer
370
-1
48
0.05
60
0
100
AcDbLine
10
24
20
-16.00625
30
0
11
25
21
-17.00625
31
0
39
0
210
0
220
0
230
1
0
LINE
5
64
100
AcDbEntity
8
SK3
62
256
6
ByLayer
370
-1
48
0.05
60
0
100
AcDbLine
10
25
20
-17.00625
30
0
11
25
21
-20.012436
31
0
39
0
210
0
220
0
230
1
0
LINE
5
65
100
AcDbEntity
8
SK3
62
256
6
ByLayer
370
-1
48
0.05
60
0
100
AcDbLine
10
25
20
-20.012436
30
0
11
24.400962
21
-21.05
31
0
39
0
210
0
220
0
230
1
0
LINE
5
66
100
AcDbEntity
8
SK3
62
256
6
ByLayer
370
-1
48
0.05
60
0
100
AcDbLine
10
26.45
20
-23.099038
30
0
11
27.487564
21
-22.5
31
0
39
0
210
0
220
0
230
1
0
LINE
5
67
100
AcDbEntity
8
SK3
62
256
6
ByLayer
370
-1
48
0.05
60
0
100
AcDbLine
10
27.487564
20
-22.5
30
0
11
53.6235
21
-22.5
31
0
39
0
210
0
220
0
230
1
0
LINE
5
68
100
AcDbEntity
8
SK3
62
256
6
ByLayer
370
-1
48
0.05
60
0
100
AcDbLine
10
53.6235
20
-22.5
30
0
11
54.6235
21
-23.5
31
0
39
0
210
0
220
0
230
1
0
LINE
5
69
100
AcDbEntity
8
SK3
62
256
6
ByLayer
370
-1
48
0.05
60
0
100
AcDbLine
10
53.6235
20
-22.5
30
0
11
53.6235
21
0
31
0
39
0
210
0
220
0
230
1
0
LINE
5
6A
100
AcDbEntity
8
SK3
62
256
6
ByLayer
370
-1
48
0.05
60
0
100
AcDbLine
10
27.487564
20
-22.5
30
0
11
27.487564
21
0
31
0
39
0
210
0
220
0
230
1
0
LINE
5
6B
100
AcDbEntity
8
SK3
62
256
6
ByLayer
370
-1
48
0.05
60
0
100
AcDbLine
10
25
20
-17.00625
30
0
11
25
21
0
31
0
39
0
210
0
220
0
230
1
0
LINE
5
6C
100
AcDbEntity
8
SK3
62
256
6
ByLayer
370
-1
48
0.05
60
0
100
AcDbLine
10
24
20
-16.00625
30
0
11
24
21
0
31
0
39
0
210
0
220
0
230
1
0
LINE
5
6D
100
AcDbEntity
8
SK3
62
256
6
ByLayer
370
-1
48
0.05
60
0
100
AcDbLine
10
2
20
-16.00625
30
0
11
2
21
-7.2275
31
0
39
0
210
0
220
0
230
1
0
LINE
5
6E
100
AcDbEntity
8
SK3
62
256
6
ByLayer
370
-1
48
0.05
60
0
100
AcDbLine
10
0
20
18.00625
30
0
11
2
21
16.00625
31
0
39
0
210
0
220
0
230
1
0
LINE
5
6F
100
AcDbEntity
8
SK3
62
256
6
ByLayer
370
-1
48
0.05
60
0
100
AcDbLine
10
2
20
16.00625
30
0
11
24
21
16.00625
31
0
39
0
210
0
220
0
230
1
0
LINE
5
70
100
AcDbEntity
8
SK3
62
256
6
ByLayer
370
-1
48
0.05
60
0
100
AcDbLine
10
24
20
16.00625
30
0
11
25
21
17.00625
31
0
39
0
210
0
220
0
230
1
0
LINE
5
71
100
AcDbEntity
8
SK3
62
256
6
ByLayer
370
-1
48
0.05
60
0
100
AcDbLine
10
25
20
17.00625
30
0
11
25
21
20.012436
31
0
39
0
210
0
220
0
230
1
0
LINE
5
72
100
AcDbEntity
8
SK3
62
256
6
ByLayer
370
-1
48
0.05
60
0
100
AcDbLine
10
25
20
20.012436
30
0
11
24.400962
21
21.05
31
0
39
0
210
0
220
0
230
1
0
LINE
5
73
100
AcDbEntity
8
SK3
62
256
6
ByLayer
370
-1
48
0.05
60
0
100
AcDbLine
10
26.45
20
23.099038
30
0
11
27.487564
21
22.5
31
0
39
0
210
0
220
0
230
1
0
LINE
5
74
100
AcDbEntity
8
SK3
62
256
6
ByLayer
370
-1
48
0.05
60
0
100
AcDbLine
10
27.487564
20
22.5
30
0
11
53.6235
21
22.5
31
0
39
0
210
0
220
0
230
1
0
LINE
5
75
100
AcDbEntity
8
SK3
62
256
6
ByLayer
370
-1
48
0.05
60
0
100
AcDbLine
10
53.6235
20
22.5
30
0
11
54.6235
21
23.5
31
0
39
0
210
0
220
0
230
1
0
LINE
5
76
100
AcDbEntity
8
SK3
62
256
6
ByLayer
370
-1
48
0.05
60
0
100
AcDbLine
10
53.6235
20
22.5
30
0
11
53.6235
21
0
31
0
39
0
210
0
220
0
230
1
0
LINE
5
77
100
AcDbEntity
8
SK3
62
256
6
ByLayer
370
-1
48
0.05
60
0
100
AcDbLine
10
27.487564
20
22.5
30
0
11
27.487564
21
0
31
0
39
0
210
0
220
0
230
1
0
LINE
5
78
100
AcDbEntity
8
SK3
62
256
6
ByLayer
370
-1
48
0.05
60
0
100
AcDbLine
10
25
20
17.00625
30
0
11
25
21
0
31
0
39
0
210
0
220
0
230
1
0
LINE
5
79
100
AcDbEntity
8
SK3
62
256
6
ByLayer
370
-1
48
0.05
60
0
100
AcDbLine
10
24
20
16.00625
30
0
11
24
21
0
31
0
39
0
210
0
220
0
230
1
0
LINE
5
7A
100
AcDbEntity
8
SK3
62
256
6
ByLayer
370
-1
48
0.05
60
0
100
AcDbLine
10
2
20
16.00625
30
0
11
2
21
7.2275
31
0
39
0
210
0
220
0
230
1
0
LINE
5
7B
100
AcDbEntity
8
81
62
256
6
ByLayer
370
-1
48
1
60
0
100
AcDbLine
10
63
20
0
30
0
11
73
21
0
31
0
39
0
210
0
220
0
230
1
0
LINE
5
7C
100
AcDbEntity
8
80
62
256
6
ByLayer
370
-1
48
1
60
0
100
AcDbLine
10
0
20
0
30
0
11
-10
21
0
31
0
39
0
210
0
220
0
230
1
0
LINE
5
7D
100
AcDbEntity
8
4
62
256
6
ByLayer
370
-1
48
0.05
60
0
100
AcDbLine
10
63
20
0
30
0
11
0
21
0
31
0
39
0
210
0
220
0
230
1
0
MTEXT
5
B8
100
AcDbEntity
8
SK6
62
256
6
ByLayer
370
-1
48
1
60
0
100
AcDbMText
10
-18.817105
20
-41.725
30
0
210
0
220
0
230
1
1
\W00.750;\fsimplex.shx,bigfont.shx;R200-080Q32-20M\P
40
3.5
41
0
44
1.084337
50
0
71
7
72
5
7
DEFAULT
0
HATCH
5
B7
100
AcDbEntity
8
1
62
256
6
ByLayer
370
-1
48
1
60
1
100
AcDbHatch
10
0
20
0
30
0
210
0
220
0
230
1
2
ANSI38
70
0
71
0
91
2
92
5
93
1
72
2
10
53.0745
20
39.9881
40
10
50
0
51
360
73
1
97
0
92
5
93
1
72
2
10
53.0745
20
39.9881
40
4.25
50
0
51
360
73
1
97
0
75
0
76
0
52
45
41
1
77
0
78
1
53
45
43
0
44
0
45
-0.707106781186547
46
0.707106781186548
79
0
47
0
98
1
10
0
20
0
0
DIMENSION
5
C9
100
AcDbEntity
8
2
62
256
6
ByLayer
370
-3
48
1
60
0
100
AcDbDimension
2
DimnDraft3D1
10
-40.03805
20
-77.25
30
0
11
0
21
-77.25
31
0
70
32
71
5
72
1
41
1
210
0
220
0
230
1
3
Standard
100
AcDbAlignedDimension
13
40.03805
23
-64.499997
33
0
14
-40.03805
24
-64.499997
34
0
50
0
100
AcDbRotatedDimension
1001
ACAD
1000
DSTYLE
1002
{
1070
   279
1070
     0
1070
   173
1070
     1
1070
   340
1005
B9
1070
    77
1070
     1
1070
    73
1070
     0
1070
   171
1070
     4
1070
   274
1070
     4
1070
   177
1070
     7
1070
   176
1070
     7
1070
   178
1070
     7
1070
    41
1041
4.0
1070
   147
1041
2.25
1070
    42
1041
1.499997
1070
    44
1041
2.0
1070
   140
1041
4.5
1070
   343
1005
CA
1070
   344
1005
CA
1002
}
0
DIMENSION
5
DE
100
AcDbEntity
8
2
62
256
6
ByLayer
370
-3
48
1
60
0
100
AcDbDimension
2
DimnDraft3D2
10
-50
20
-89.25
30
0
11
0
21
-89.25
31
0
70
32
71
5
72
1
41
1
210
0
220
0
230
1
3
Standard
100
AcDbAlignedDimension
13
50
23
-64.499997
33
0
14
-50
24
-64.499997
34
0
50
0
100
AcDbRotatedDimension
1001
ACAD
1000
DSTYLE
1002
{
1070
   279
1070
     0
1070
   173
1070
     1
1070
   340
1005
B9
1070
    77
1070
     1
1070
    73
1070
     0
1070
   171
1070
     4
1070
   274
1070
     4
1070
   177
1070
     7
1070
   176
1070
     7
1070
   178
1070
     7
1070
    41
1041
4.0
1070
   147
1041
2.25
1070
    42
1041
1.499997
1070
    44
1041
2.0
1070
   140
1041
4.5
1070
   343
1005
CA
1070
   344
1005
CA
1002
}
0
DIMENSION
5
EC
100
AcDbEntity
8
2
62
256
6
ByLayer
370
-3
48
1
60
0
100
AcDbDimension
2
DimnDraft3D3
10
0
20
59.75
30
0
11
31.5
21
59.75
31
0
70
32
71
5
72
1
41
1
210
0
220
0
230
1
3
Standard
100
AcDbAlignedDimension
13
63
23
51.499997
33
0
14
0
24
32.349997
34
0
50
0
100
AcDbRotatedDimension
1001
ACAD
1000
DSTYLE
1002
{
1070
   279
1070
     0
1070
   173
1070
     1
1070
   340
1005
B9
1070
    77
1070
     1
1070
    73
1070
     0
1070
   171
1070
     4
1070
   274
1070
     4
1070
   177
1070
     7
1070
   176
1070
     7
1070
   178
1070
     7
1070
    41
1041
4.0
1070
   147
1041
2.25
1070
    42
1041
1.499997
1070
    44
1041
2.0
1070
   140
1041
4.5
1070
   343
1005
CA
1070
   344
1005
CA
1002
}
0
DIMENSION
5
FA
100
AcDbEntity
8
SK2
62
256
6
ByLayer
370
-3
48
1
60
0
100
AcDbDimension
2
DimnDraft3D4
10
-16
20
9.75
30
0
11
0
21
9.75
31
0
70
32
71
5
72
1
41
1
210
0
220
0
230
1
3
Standard
100
AcDbAlignedDimension
13
16
23
1.499997
33
0
14
-16
24
1.499997
34
0
50
0
100
AcDbRotatedDimension
1001
ACAD
1000
DSTYLE
1002
{
1070
   279
1070
     0
1070
   173
1070
     1
1070
   340
1005
B9
1070
   271
1070
     0
1070
    77
1070
     1
1070
    73
1070
     0
1070
   171
1070
     4
1070
   274
1070
     4
1070
   177
1070
     7
1070
   176
1070
     7
1070
   178
1070
     7
1070
    41
1041
4.0
1070
   147
1041
2.25
1070
    42
1041
1.499997
1070
    44
1041
2.0
1070
   140
1041
4.5
1070
   343
1005
CA
1070
   344
1005
CA
1002
}
0
DIMENSION
5
108
100
AcDbEntity
8
2
62
256
6
ByLayer
370
-3
48
1
60
0
100
AcDbDimension
2
DimnDraft3D5
10
53
20
-64.25
30
0
11
48
21
-64.25
31
0
70
32
71
5
72
1
41
1
210
0
220
0
230
1
3
Standard
100
AcDbAlignedDimension
13
63
23
-51.499997
33
0
14
53
24
-51.499997
34
0
50
0
100
AcDbRotatedDimension
1001
ACAD
1000
DSTYLE
1002
{
1070
   279
1070
     0
1070
   173
1070
     1
1070
   340
1005
B9
1070
   271
1070
     0
1070
    77
1070
     1
1070
    73
1070
     0
1070
   171
1070
     4
1070
   274
1070
     4
1070
   177
1070
     7
1070
   176
1070
     7
1070
   178
1070
     7
1070
    41
1041
4.0
1070
   147
1041
2.25
1070
    42
1041
1.499997
1070
    44
1041
2.0
1070
   140
1041
4.5
1070
   343
1005
CA
1070
   344
1005
CA
1002
}
0
ENDSEC
0
SECTION
2
OBJECTS
0
DICTIONARY
5
157
330
0
100
AcDbDictionary
280
0
281
1
3
ACAD_GROUP
350
158
3
ACAD_MLINESTYLE
350
159
0
DICTIONARY
5
158
330
0
100
AcDbDictionary
280
0
281
1
0
DICTIONARY
5
159
330
0
100
AcDbDictionary
280
0
281
1
3
Standard
350
18
0
MLINESTYLE
5
18
330
159
100
AcDbMlineStyle
2
Standard
70
0
3

62
256
51
90
52
90
71
2
49
-0.5
62
256
6
ByLayer
49
0.5
62
256
6
ByLayer
0
RASTERVARIABLES
5
145
330

100
AcDbRasterVariables
90
0
70
1
71
1
72
1
0
ENDSEC
0
EOF
