0
SECTION
2
HEADER
9
$ACADVER
1
AC1015
9
$DWGCODEPAGE
3
ANSI_1252
9
$HANDSEED
5
168
9
$ANGBASE
50
0
9
$ANGDIR
70
0
9
$ATTMODE
70
1
9
$AUNITS
70
0
9
$AUPREC
70
0
9
$CECOLOR
62
256
9
$CELTSCALE
40
1
9
$CELTYPE
6
ByLayer
9
$CELWEIGHT
370
-1
9
$CLAYER
8
0
9
$CMLJUST
70
0
9
$CMLSCALE
40
1
9
$CMLSTYLE
2
Standard
9
$DIMSTYLE
2
Standard
9
$TEXTSIZE
40
0.2
9
$TEXTSTYLE
7
Standard
9
$LUNITS
70
2
9
$LUPREC
70
4
9
$EXTNAMES
290
1
9
$INSUNITS
70
4
9
$LTSCALE
40
1
9
$LWDISPLAY
290
0
9
$PDMODE
70
0
9
$PDSIZE
40
0
9
$PLINEGEN
70
0
0
ENDSEC
0
SECTION
2
CLASSES
0
CLASS
1
RASTERVARIABLES
2
AcDbRasterVariables
3
ISM
90
0
280
0
281
0
0
ENDSEC
0
SECTION
2
TABLES
0
TABLE
2
VPORT
5
15e
100
AcDbSymbolTable
0
VPORT
5
1
100
AcDbSymbolTableRecord
100
AcDbViewportTableRecord
2
*Active
70
0
10
0
20
0
11
1
21
1
12
-1
22
1
13
0
23
0
14
0.5
24
0.5
15
10
25
10
16
0
26
0
36
1
17
0
27
0
37
0
0
ENDTAB
0
TABLE
2
LTYPE
5
15f
100
AcDbSymbolTable
0
LTYPE
5
14
100
AcDbSymbolTableRecord
100
AcDbLinetypeTableRecord
70
0
2
ByBlock
3

72
65
73
0
40
0
0
LTYPE
5
15
100
AcDbSymbolTableRecord
100
AcDbLinetypeTableRecord
70
0
2
ByLayer
3

72
65
73
0
40
0
0
LTYPE
5
16
100
AcDbSymbolTableRecord
100
AcDbLinetypeTableRecord
70
0
2
CONTINUOUS
3
Solid line
72
65
73
0
40
0
0
LTYPE
5
3C
100
AcDbSymbolTableRecord
100
AcDbLinetypeTableRecord
70
0
2
DASHED
3
__ __ __ __ __ __ __ __ __
72
65
73
2
40
25.72
49
12.86
74
0
49
-12.86
74
0
0
LTYPE
5
3D
100
AcDbSymbolTableRecord
100
AcDbLinetypeTableRecord
70
0
2
HIDDEN
3
_ _ _ _ _ _ _ _ _ _ _ _ _ _ _
72
65
73
2
40
0.5
49
0.25
74
0
49
-0.25
74
0
0
LTYPE
5
3E
100
AcDbSymbolTableRecord
100
AcDbLinetypeTableRecord
70
0
2
PHANTOM
3
____ _ _ ____ _ _ _____ _ _ ____
72
65
73
6
40
50.5
49
18
74
0
49
-6.5
74
0
49
6.5
74
0
49
-6.5
74
0
49
6.5
74
0
49
-6.5
74
0
0
LTYPE
5
3F
100
AcDbSymbolTableRecord
100
AcDbLinetypeTableRecord
70
0
2
CENTER
3
____ _ ____ _ ____ _ ____
72
65
73
4
40
47.5
49
22
74
0
49
-8.5
74
0
49
8.5
74
0
49
-8.5
74
0
0
LTYPE
5
40
100
AcDbSymbolTableRecord
100
AcDbLinetypeTableRecord
70
0
2
DOT
3
.........................
72
65
73
2
40
10
49
0
74
0
49
-10
74
0
0
LTYPE
5
41
100
AcDbSymbolTableRecord
100
AcDbLinetypeTableRecord
70
0
2
DASHDOT
3
_._._._._._._._._._._._._._._._.
72
65
73
4
40
70
49
31
74
0
49
-13
74
0
49
13
74
0
49
-13
74
0
0
ENDTAB
0
TABLE
2
LAYER
5
160
100
AcDbSymbolTable
0
LAYER
5
10
100
AcDbSymbolTableRecord
100
AcDbLayerTableRecord
2
0
70
0
62
7
6
CONTINUOUS
290
1
370
-3
390
0
0
LAYER
5
43
100
AcDbSymbolTableRecord
100
AcDbLayerTableRecord
2
81
70
0
62
-3
6
CONTINUOUS
290
1
370
-3
390
0
0
LAYER
5
45
100
AcDbSymbolTableRecord
100
AcDbLayerTableRecord
2
80
70
0
62
-6
6
CONTINUOUS
290
1
370
-3
390
0
0
LAYER
5
47
100
AcDbSymbolTableRecord
100
AcDbLayerTableRecord
2
1
70
0
62
4
6
CONTINUOUS
290
1
370
-3
390
0
0
LAYER
5
68
100
AcDbSymbolTableRecord
100
AcDbLayerTableRecord
2
4
70
0
62
-2
6
CENTER
290
1
370
-3
390
0
0
LAYER
5
8F
100
AcDbSymbolTableRecord
100
AcDbLayerTableRecord
2
2
70
0
62
7
6
CONTINUOUS
290
1
370
-3
390
0
0
LAYER
5
149
100
AcDbSymbolTableRecord
100
AcDbLayerTableRecord
2
SK3
70
0
62
1
6
DASHED
290
1
370
-3
390
0
0
LAYER
5
14a
100
AcDbSymbolTableRecord
100
AcDbLayerTableRecord
2
SK1
70
0
62
4
6
CONTINUOUS
290
1
370
-3
390
0
0
LAYER
5
14b
100
AcDbSymbolTableRecord
100
AcDbLayerTableRecord
2
SK4
70
0
62
2
6
CENTER
290
1
370
-3
390
0
0
LAYER
5
14c
100
AcDbSymbolTableRecord
100
AcDbLayerTableRecord
2
SK2
70
0
62
7
6
CONTINUOUS
290
1
370
-3
390
0
0
LAYER
5
14d
100
AcDbSymbolTableRecord
100
AcDbLayerTableRecord
2
SK6
70
0
62
5
6
CONTINUOUS
290
1
370
-3
390
0
0
ENDTAB
0
TABLE
2
STYLE
5
161
100
AcDbSymbolTable
0
STYLE
5
11
100
AcDbSymbolTableRecord
100
AcDbTextStyleTableRecord
2
Standard
3
txt
70
0
71
0
40
0
41
1
42
0
50
0
0
STYLE
5
9F
100
AcDbSymbolTableRecord
100
AcDbTextStyleTableRecord
2
DEFAULT
3
simplex.shx
70
0
71
0
40
0
41
1
42
0
50
0
0
STYLE
5
A0
100
AcDbSymbolTableRecord
100
AcDbTextStyleTableRecord
2
DWGDirectTextStyle
3
SIMPLEX
70
0
71
0
40
0
41
1
42
0
50
0
0
ENDTAB
0
TABLE
2
DIMSTYLE
5
162
100
AcDbSymbolTable
100
AcDbDimStyleTable
0
DIMSTYLE
105
27
100
AcDbSymbolTableRecord
100
AcDbDimStyleTableRecord
2
Standard
70
0
3
<>
41
0.18
42
0.0625
44
0.18
140
0.18
147
0.09
73
0
74
0
77
1
271
2
275
0
278
52
280
0
340
11
0
ENDTAB
0
TABLE
2
VIEW
5
163
100
AcDbSymbolTable
0
ENDTAB
0
TABLE
2
UCS
5
164
100
AcDbSymbolTable
0
ENDTAB
0
TABLE
2
APPID
5
165
100
AcDbSymbolTable
0
APPID
5
12
100
AcDbSymbolTableRecord
100
AcDbRegAppTableRecord
2
ACAD
70
0
0
ENDTAB
0
TABLE
2
BLOCK_RECORD
5
166
100
AcDbSymbolTable
0
BLOCK_RECORD
5
1F
100
AcDbSymbolTableRecord
100
AcDbBlockTableRecord
2
*Model_Space
340
0
70
0
0
BLOCK_RECORD
5
1B
100
AcDbSymbolTableRecord
100
AcDbBlockTableRecord
2
*Paper_Space
340
0
70
0
0
BLOCK_RECORD
5
23
100
AcDbSymbolTableRecord
100
AcDbBlockTableRecord
2
*Paper_Space0
340
0
70
0
0
BLOCK_RECORD
5
A2
100
AcDbSymbolTableRecord
100
AcDbBlockTableRecord
2
DimnDraft3D1
340
0
70
0
0
BLOCK_RECORD
5
B0
100
AcDbSymbolTableRecord
100
AcDbBlockTableRecord
2
_CLOSED
340
0
70
0
0
BLOCK_RECORD
5
B7
100
AcDbSymbolTableRecord
100
AcDbBlockTableRecord
2
DimnDraft3D2
340
0
70
0
0
BLOCK_RECORD
5
C5
100
AcDbSymbolTableRecord
100
AcDbBlockTableRecord
2
DimnDraft3D3
340
0
70
0
0
BLOCK_RECORD
5
D3
100
AcDbSymbolTableRecord
100
AcDbBlockTableRecord
2
DimnDraft3D4
340
0
70
0
0
BLOCK_RECORD
5
E1
100
AcDbSymbolTableRecord
100
AcDbBlockTableRecord
2
DimnDraft3D5
340
0
70
0
0
BLOCK_RECORD
5
EF
100
AcDbSymbolTableRecord
100
AcDbBlockTableRecord
2
DimnDraft3D6
340
0
70
0
0
BLOCK_RECORD
5
FD
100
AcDbSymbolTableRecord
100
AcDbBlockTableRecord
2
DimnDraft3D7
340
0
70
0
0
ENDTAB
0
ENDSEC
0
SECTION
2
BLOCKS
0
BLOCK
5
20
100
AcDbEntity
8
0
100
AcDbBlockBegin
2
*Model_Space
70
0
10
0
20
0
30
0
3
*Model_Space
0
ENDBLK
5
21
100
AcDbEntity
8
0
100
AcDbBlockEnd
0
BLOCK
5
1C
100
AcDbEntity
8
0
100
AcDbBlockBegin
2
*Paper_Space
70
0
10
0
20
0
30
0
3
*Paper_Space
0
ENDBLK
5
1D
100
AcDbEntity
8
0
100
AcDbBlockEnd
0
BLOCK
5
24
100
AcDbEntity
8
0
100
AcDbBlockBegin
2
*Paper_Space0
70
0
10
0
20
0
30
0
3
*Paper_Space0
0
ENDBLK
5
25
100
AcDbEntity
8
0
100
AcDbBlockEnd
0
BLOCK
5
AD
100
AcDbEntity
8
0
100
AcDbBlockBegin
2
DimnDraft3D1
70
0
10
0
20
0
30
0
3
DimnDraft3D1
0
MTEXT
5
A3
100
AcDbEntity
8
2
62
256
6
ByLayer
370
-1
48
1
60
0
100
AcDbMText
10
112.125
20
-4.861184
30
0
210
0
220
0
230
1
1
\W01.000;\fsimplex.shx,bigfont.shx;(%%c15)\P
40
4.5
41
0
44
1.084337
50
90
71
7
72
5
7
DEFAULT
0
LINE
5
A4
100
AcDbEntity
8
2
62
256
6
ByLayer
370
-1
48
1
60
0
100
AcDbLine
10
100.499997
20
7.51905
30
0
11
115.25
21
7.51905
31
0
39
0
210
0
220
0
230
1
0
LINE
5
A5
100
AcDbEntity
8
2
62
256
6
ByLayer
370
-1
48
1
60
0
100
AcDbLine
10
100.499997
20
-7.51905
30
0
11
115.25
21
-7.51905
31
0
39
0
210
0
220
0
230
1
0
LINE
5
A6
100
AcDbEntity
8
2
62
256
6
ByLayer
370
-1
48
1
60
0
100
AcDbLine
10
113.25
20
7.51905
30
0
11
113.25
21
-7.51905
31
0
39
0
210
0
220
0
230
1
0
LINE
5
A7
100
AcDbEntity
8
2
62
256
6
ByLayer
370
-1
48
1
60
0
100
AcDbLine
10
113.25
20
7.51905
30
0
11
113.916667
21
3.519052
31
0
39
0
210
0
220
0
230
1
0
LINE
5
A8
100
AcDbEntity
8
2
62
256
6
ByLayer
370
-1
48
1
60
0
100
AcDbLine
10
113.25
20
7.51905
30
0
11
112.583333
21
3.519048
31
0
39
0
210
0
220
0
230
1
0
LINE
5
A9
100
AcDbEntity
8
2
62
256
6
ByLayer
370
-1
48
1
60
0
100
AcDbLine
10
113.916667
20
3.519052
30
0
11
112.583333
21
3.519048
31
0
39
0
210
0
220
0
230
1
0
LINE
5
AA
100
AcDbEntity
8
2
62
256
6
ByLayer
370
-1
48
1
60
0
100
AcDbLine
10
113.25
20
-7.51905
30
0
11
112.583333
21
-3.519052
31
0
39
0
210
0
220
0
230
1
0
LINE
5
AB
100
AcDbEntity
8
2
62
256
6
ByLayer
370
-1
48
1
60
0
100
AcDbLine
10
113.25
20
-7.51905
30
0
11
113.916667
21
-3.519048
31
0
39
0
210
0
220
0
230
1
0
LINE
5
AC
100
AcDbEntity
8
2
62
256
6
ByLayer
370
-1
48
1
60
0
100
AcDbLine
10
112.583333
20
-3.519052
30
0
11
113.916667
21
-3.519048
31
0
39
0
210
0
220
0
230
1
0
ENDBLK
5
AE
100
AcDbEntity
8
0
100
AcDbBlockEnd
0
BLOCK
5
B1
100
AcDbEntity
8
0
100
AcDbBlockBegin
2
_CLOSED
70
0
10
0
20
0
30
0
3
_CLOSED
0
LINE
5
B3
100
AcDbEntity
8
0
62
256
6
ByLayer
370
-2
48
1
60
0
100
AcDbLine
10
-1
20
0.166667
30
0
11
0
21
0
31
0
39
0
210
0
220
0
230
1
0
LINE
5
B4
100
AcDbEntity
8
0
62
256
6
ByLayer
370
-2
48
1
60
0
100
AcDbLine
10
0
20
0
30
0
11
-1
21
-0.166667
31
0
39
0
210
0
220
0
230
1
0
LINE
5
B5
100
AcDbEntity
8
0
62
256
6
ByLayer
370
-2
48
1
60
0
100
AcDbLine
10
-1
20
0.166667
30
0
11
-1
21
-0.166667
31
0
39
0
210
0
220
0
230
1
0
LINE
5
B6
100
AcDbEntity
8
0
62
256
6
ByLayer
370
-2
48
1
60
0
100
AcDbLine
10
0
20
0
30
0
11
-1
21
0
31
0
39
0
210
0
220
0
230
1
0
ENDBLK
5
B2
100
AcDbEntity
8
0
100
AcDbBlockEnd
0
BLOCK
5
C2
100
AcDbEntity
8
0
100
AcDbBlockBegin
2
DimnDraft3D2
70
0
10
0
20
0
30
0
3
DimnDraft3D2
0
MTEXT
5
B8
100
AcDbEntity
8
2
62
256
6
ByLayer
370
-1
48
1
60
0
100
AcDbMText
10
124.125
20
-3.659211
30
0
210
0
220
0
230
1
1
\W01.000;\fsimplex.shx,bigfont.shx;%%c25\P
40
4.5
41
0
44
1.084337
50
90
71
7
72
5
7
DEFAULT
0
LINE
5
B9
100
AcDbEntity
8
2
62
256
6
ByLayer
370
-1
48
1
60
0
100
AcDbLine
10
100.499997
20
12.5
30
0
11
127.25
21
12.5
31
0
39
0
210
0
220
0
230
1
0
LINE
5
BA
100
AcDbEntity
8
2
62
256
6
ByLayer
370
-1
48
1
60
0
100
AcDbLine
10
100.499997
20
-12.5
30
0
11
127.25
21
-12.5
31
0
39
0
210
0
220
0
230
1
0
LINE
5
BB
100
AcDbEntity
8
2
62
256
6
ByLayer
370
-1
48
1
60
0
100
AcDbLine
10
125.25
20
12.5
30
0
11
125.25
21
-12.5
31
0
39
0
210
0
220
0
230
1
0
LINE
5
BC
100
AcDbEntity
8
2
62
256
6
ByLayer
370
-1
48
1
60
0
100
AcDbLine
10
125.25
20
12.5
30
0
11
125.916667
21
8.500002
31
0
39
0
210
0
220
0
230
1
0
LINE
5
BD
100
AcDbEntity
8
2
62
256
6
ByLayer
370
-1
48
1
60
0
100
AcDbLine
10
125.25
20
12.5
30
0
11
124.583333
21
8.499998
31
0
39
0
210
0
220
0
230
1
0
LINE
5
BE
100
AcDbEntity
8
2
62
256
6
ByLayer
370
-1
48
1
60
0
100
AcDbLine
10
125.916667
20
8.500002
30
0
11
124.583333
21
8.499998
31
0
39
0
210
0
220
0
230
1
0
LINE
5
BF
100
AcDbEntity
8
2
62
256
6
ByLayer
370
-1
48
1
60
0
100
AcDbLine
10
125.25
20
-12.5
30
0
11
124.583333
21
-8.500002
31
0
39
0
210
0
220
0
230
1
0
LINE
5
C0
100
AcDbEntity
8
2
62
256
6
ByLayer
370
-1
48
1
60
0
100
AcDbLine
10
125.25
20
-12.5
30
0
11
125.916667
21
-8.499998
31
0
39
0
210
0
220
0
230
1
0
LINE
5
C1
100
AcDbEntity
8
2
62
256
6
ByLayer
370
-1
48
1
60
0
100
AcDbLine
10
124.583333
20
-8.500002
30
0
11
125.916667
21
-8.499998
31
0
39
0
210
0
220
0
230
1
0
ENDBLK
5
C3
100
AcDbEntity
8
0
100
AcDbBlockEnd
0
BLOCK
5
D0
100
AcDbEntity
8
0
100
AcDbBlockBegin
2
DimnDraft3D3
70
0
10
0
20
0
30
0
3
DimnDraft3D3
0
MTEXT
5
C6
100
AcDbEntity
8
2
62
256
6
ByLayer
370
-1
48
1
60
0
100
AcDbMText
10
82.496053
20
23.375
30
0
210
0
220
0
230
1
1
\W01.000;\fsimplex.shx,bigfont.shx;30\P
40
4.5
41
0
44
1.084337
50
0
71
7
72
5
7
DEFAULT
0
LINE
5
C7
100
AcDbEntity
8
2
62
256
6
ByLayer
370
-1
48
1
60
0
100
AcDbLine
10
99
20
13.999997
30
0
11
99
21
24.25
31
0
39
0
210
0
220
0
230
1
0
LINE
5
C8
100
AcDbEntity
8
2
62
256
6
ByLayer
370
-1
48
1
60
0
100
AcDbLine
10
69
20
11.129997
30
0
11
69
21
24.25
31
0
39
0
210
0
220
0
230
1
0
LINE
5
C9
100
AcDbEntity
8
2
62
256
6
ByLayer
370
-1
48
1
60
0
100
AcDbLine
10
99
20
22.25
30
0
11
69
21
22.25
31
0
39
0
210
0
220
0
230
1
0
LINE
5
CA
100
AcDbEntity
8
2
62
256
6
ByLayer
370
-1
48
1
60
0
100
AcDbLine
10
99
20
22.25
30
0
11
95.000002
21
21.583333
31
0
39
0
210
0
220
0
230
1
0
LINE
5
CB
100
AcDbEntity
8
2
62
256
6
ByLayer
370
-1
48
1
60
0
100
AcDbLine
10
99
20
22.25
30
0
11
94.999998
21
22.916667
31
0
39
0
210
0
220
0
230
1
0
LINE
5
CC
100
AcDbEntity
8
2
62
256
6
ByLayer
370
-1
48
1
60
0
100
AcDbLine
10
95.000002
20
21.583333
30
0
11
94.999998
21
22.916667
31
0
39
0
210
0
220
0
230
1
0
LINE
5
CD
100
AcDbEntity
8
2
62
256
6
ByLayer
370
-1
48
1
60
0
100
AcDbLine
10
69
20
22.25
30
0
11
72.999998
21
22.916667
31
0
39
0
210
0
220
0
230
1
0
LINE
5
CE
100
AcDbEntity
8
2
62
256
6
ByLayer
370
-1
48
1
60
0
100
AcDbLine
10
69
20
22.25
30
0
11
73.000002
21
21.583333
31
0
39
0
210
0
220
0
230
1
0
LINE
5
CF
100
AcDbEntity
8
2
62
256
6
ByLayer
370
-1
48
1
60
0
100
AcDbLine
10
72.999998
20
22.916667
30
0
11
73.000002
21
21.583333
31
0
39
0
210
0
220
0
230
1
0
ENDBLK
5
D1
100
AcDbEntity
8
0
100
AcDbBlockEnd
0
BLOCK
5
DE
100
AcDbEntity
8
0
100
AcDbBlockBegin
2
DimnDraft3D4
70
0
10
0
20
0
30
0
3
DimnDraft3D4
0
MTEXT
5
D4
100
AcDbEntity
8
2
62
256
6
ByLayer
370
-1
48
1
60
0
100
AcDbMText
10
47.996053
20
35.375
30
0
210
0
220
0
230
1
1
\W01.000;\fsimplex.shx,bigfont.shx;99\P
40
4.5
41
0
44
1.084337
50
0
71
7
72
5
7
DEFAULT
0
LINE
5
D5
100
AcDbEntity
8
2
62
256
6
ByLayer
370
-1
48
1
60
0
100
AcDbLine
10
99
20
13.999997
30
0
11
99
21
36.25
31
0
39
0
210
0
220
0
230
1
0
LINE
5
D6
100
AcDbEntity
8
2
62
256
6
ByLayer
370
-1
48
1
60
0
100
AcDbLine
10
0
20
11.499997
30
0
11
0
21
36.25
31
0
39
0
210
0
220
0
230
1
0
LINE
5
D7
100
AcDbEntity
8
2
62
256
6
ByLayer
370
-1
48
1
60
0
100
AcDbLine
10
99
20
34.25
30
0
11
0
21
34.25
31
0
39
0
210
0
220
0
230
1
0
LINE
5
D8
100
AcDbEntity
8
2
62
256
6
ByLayer
370
-1
48
1
60
0
100
AcDbLine
10
99
20
34.25
30
0
11
95.000002
21
33.583333
31
0
39
0
210
0
220
0
230
1
0
LINE
5
D9
100
AcDbEntity
8
2
62
256
6
ByLayer
370
-1
48
1
60
0
100
AcDbLine
10
99
20
34.25
30
0
11
94.999998
21
34.916667
31
0
39
0
210
0
220
0
230
1
0
LINE
5
DA
100
AcDbEntity
8
2
62
256
6
ByLayer
370
-1
48
1
60
0
100
AcDbLine
10
95.000002
20
33.583333
30
0
11
94.999998
21
34.916667
31
0
39
0
210
0
220
0
230
1
0
LINE
5
DB
100
AcDbEntity
8
2
62
256
6
ByLayer
370
-1
48
1
60
0
100
AcDbLine
10
0
20
34.25
30
0
11
3.999998
21
34.916667
31
0
39
0
210
0
220
0
230
1
0
LINE
5
DC
100
AcDbEntity
8
2
62
256
6
ByLayer
370
-1
48
1
60
0
100
AcDbLine
10
0
20
34.25
30
0
11
4.000002
21
33.583333
31
0
39
0
210
0
220
0
230
1
0
LINE
5
DD
100
AcDbEntity
8
2
62
256
6
ByLayer
370
-1
48
1
60
0
100
AcDbLine
10
3.999998
20
34.916667
30
0
11
4.000002
21
33.583333
31
0
39
0
210
0
220
0
230
1
0
ENDBLK
5
DF
100
AcDbEntity
8
0
100
AcDbBlockEnd
0
BLOCK
5
EC
100
AcDbEntity
8
0
100
AcDbBlockBegin
2
DimnDraft3D5
70
0
10
0
20
0
30
0
3
DimnDraft3D5
0
MTEXT
5
E2
100
AcDbEntity
8
SK2
62
256
6
ByLayer
370
-1
48
1
60
0
100
AcDbMText
10
21.406579
20
47.375
30
0
210
0
220
0
230
1
1
\W01.000;\fsimplex.shx,bigfont.shx;150\P
40
4.5
41
0
44
1.084337
50
0
71
7
72
5
7
DEFAULT
0
LINE
5
E3
100
AcDbEntity
8
SK2
62
256
6
ByLayer
370
-1
48
1
60
0
100
AcDbLine
10
99
20
13.999997
30
0
11
99
21
48.25
31
0
39
0
210
0
220
0
230
1
0
LINE
5
E4
100
AcDbEntity
8
SK2
62
256
6
ByLayer
370
-1
48
1
60
0
100
AcDbLine
10
-51
20
11.499997
30
0
11
-51
21
48.25
31
0
39
0
210
0
220
0
230
1
0
LINE
5
E5
100
AcDbEntity
8
SK2
62
256
6
ByLayer
370
-1
48
1
60
0
100
AcDbLine
10
99
20
46.25
30
0
11
-51
21
46.25
31
0
39
0
210
0
220
0
230
1
0
LINE
5
E6
100
AcDbEntity
8
SK2
62
256
6
ByLayer
370
-1
48
1
60
0
100
AcDbLine
10
99
20
46.25
30
0
11
95.000002
21
45.583333
31
0
39
0
210
0
220
0
230
1
0
LINE
5
E7
100
AcDbEntity
8
SK2
62
256
6
ByLayer
370
-1
48
1
60
0
100
AcDbLine
10
99
20
46.25
30
0
11
94.999998
21
46.916667
31
0
39
0
210
0
220
0
230
1
0
LINE
5
E8
100
AcDbEntity
8
SK2
62
256
6
ByLayer
370
-1
48
1
60
0
100
AcDbLine
10
95.000002
20
45.583333
30
0
11
94.999998
21
46.916667
31
0
39
0
210
0
220
0
230
1
0
LINE
5
E9
100
AcDbEntity
8
SK2
62
256
6
ByLayer
370
-1
48
1
60
0
100
AcDbLine
10
-51
20
46.25
30
0
11
-47.000002
21
46.916667
31
0
39
0
210
0
220
0
230
1
0
LINE
5
EA
100
AcDbEntity
8
SK2
62
256
6
ByLayer
370
-1
48
1
60
0
100
AcDbLine
10
-51
20
46.25
30
0
11
-46.999998
21
45.583333
31
0
39
0
210
0
220
0
230
1
0
LINE
5
EB
100
AcDbEntity
8
SK2
62
256
6
ByLayer
370
-1
48
1
60
0
100
AcDbLine
10
-47.000002
20
46.916667
30
0
11
-46.999998
21
45.583333
31
0
39
0
210
0
220
0
230
1
0
ENDBLK
5
ED
100
AcDbEntity
8
0
100
AcDbBlockEnd
0
BLOCK
5
FA
100
AcDbEntity
8
0
100
AcDbBlockBegin
2
DimnDraft3D6
70
0
10
0
20
0
30
0
3
DimnDraft3D6
0
MTEXT
5
F0
100
AcDbEntity
8
SK2
62
256
6
ByLayer
370
-1
48
1
60
0
100
AcDbMText
10
-61.875
20
-3.659211
30
0
210
0
220
0
230
1
1
\W01.000;\fsimplex.shx,bigfont.shx;%%c20\P
40
4.5
41
0
44
1.084337
50
90
71
7
72
5
7
DEFAULT
0
LINE
5
F1
100
AcDbEntity
8
SK2
62
256
6
ByLayer
370
-1
48
1
60
0
100
AcDbLine
10
-52.499997
20
10
30
0
11
-62.75
21
10
31
0
39
0
210
0
220
0
230
1
0
LINE
5
F2
100
AcDbEntity
8
SK2
62
256
6
ByLayer
370
-1
48
1
60
0
100
AcDbLine
10
-52.499997
20
-10
30
0
11
-62.75
21
-10
31
0
39
0
210
0
220
0
230
1
0
LINE
5
F3
100
AcDbEntity
8
SK2
62
256
6
ByLayer
370
-1
48
1
60
0
100
AcDbLine
10
-60.75
20
10
30
0
11
-60.75
21
-10
31
0
39
0
210
0
220
0
230
1
0
LINE
5
F4
100
AcDbEntity
8
SK2
62
256
6
ByLayer
370
-1
48
1
60
0
100
AcDbLine
10
-60.75
20
10
30
0
11
-60.083333
21
6.000002
31
0
39
0
210
0
220
0
230
1
0
LINE
5
F5
100
AcDbEntity
8
SK2
62
256
6
ByLayer
370
-1
48
1
60
0
100
AcDbLine
10
-60.75
20
10
30
0
11
-61.416667
21
5.999998
31
0
39
0
210
0
220
0
230
1
0
LINE
5
F6
100
AcDbEntity
8
SK2
62
256
6
ByLayer
370
-1
48
1
60
0
100
AcDbLine
10
-60.083333
20
6.000002
30
0
11
-61.416667
21
5.999998
31
0
39
0
210
0
220
0
230
1
0
LINE
5
F7
100
AcDbEntity
8
SK2
62
256
6
ByLayer
370
-1
48
1
60
0
100
AcDbLine
10
-60.75
20
-10
30
0
11
-61.416667
21
-6.000002
31
0
39
0
210
0
220
0
230
1
0
LINE
5
F8
100
AcDbEntity
8
SK2
62
256
6
ByLayer
370
-1
48
1
60
0
100
AcDbLine
10
-60.75
20
-10
30
0
11
-60.083333
21
-5.999998
31
0
39
0
210
0
220
0
230
1
0
LINE
5
F9
100
AcDbEntity
8
SK2
62
256
6
ByLayer
370
-1
48
1
60
0
100
AcDbLine
10
-61.416667
20
-6.000002
30
0
11
-60.083333
21
-5.999998
31
0
39
0
210
0
220
0
230
1
0
ENDBLK
5
FB
100
AcDbEntity
8
0
100
AcDbBlockEnd
0
BLOCK
5
109
100
AcDbEntity
8
0
100
AcDbBlockBegin
2
DimnDraft3D7
70
0
10
0
20
0
30
0
3
DimnDraft3D7
0
MTEXT
5
FE
100
AcDbEntity
8
2
62
256
6
ByLayer
370
-1
48
1
60
0
100
AcDbMText
10
88.171053
20
-25.625
30
0
210
0
220
0
230
1
1
\W01.000;\fsimplex.shx,bigfont.shx;5\P
40
4.5
41
0
44
1.084337
50
0
71
7
72
5
7
DEFAULT
0
LINE
5
FF
100
AcDbEntity
8
2
62
256
6
ByLayer
370
-1
48
1
60
0
100
AcDbLine
10
99
20
-13.999997
30
0
11
99
21
-28.75
31
0
39
0
210
0
220
0
230
1
0
LINE
5
100
100
AcDbEntity
8
2
62
256
6
ByLayer
370
-1
48
1
60
0
100
AcDbLine
10
94
20
-13.999997
30
0
11
94
21
-28.75
31
0
39
0
210
0
220
0
230
1
0
LINE
5
101
100
AcDbEntity
8
2
62
256
6
ByLayer
370
-1
48
1
60
0
100
AcDbLine
10
99
20
-26.75
30
0
11
110.25
21
-26.75
31
0
39
0
210
0
220
0
230
1
0
LINE
5
102
100
AcDbEntity
8
2
62
256
6
ByLayer
370
-1
48
1
60
0
100
AcDbLine
10
94
20
-26.75
30
0
11
87.046053
21
-26.75
31
0
39
0
210
0
220
0
230
1
0
LINE
5
103
100
AcDbEntity
8
2
62
256
6
ByLayer
370
-1
48
1
60
0
100
AcDbLine
10
99
20
-26.75
30
0
11
102.999998
21
-26.083333
31
0
39
0
210
0
220
0
230
1
0
LINE
5
104
100
AcDbEntity
8
2
62
256
6
ByLayer
370
-1
48
1
60
0
100
AcDbLine
10
99
20
-26.75
30
0
11
103.000002
21
-27.416667
31
0
39
0
210
0
220
0
230
1
0
LINE
5
105
100
AcDbEntity
8
2
62
256
6
ByLayer
370
-1
48
1
60
0
100
AcDbLine
10
102.999998
20
-26.083333
30
0
11
103.000002
21
-27.416667
31
0
39
0
210
0
220
0
230
1
0
LINE
5
106
100
AcDbEntity
8
2
62
256
6
ByLayer
370
-1
48
1
60
0
100
AcDbLine
10
94
20
-26.75
30
0
11
90.000002
21
-27.416667
31
0
39
0
210
0
220
0
230
1
0
LINE
5
107
100
AcDbEntity
8
2
62
256
6
ByLayer
370
-1
48
1
60
0
100
AcDbLine
10
94
20
-26.75
30
0
11
89.999998
21
-26.083333
31
0
39
0
210
0
220
0
230
1
0
LINE
5
108
100
AcDbEntity
8
2
62
256
6
ByLayer
370
-1
48
1
60
0
100
AcDbLine
10
90.000002
20
-27.416667
30
0
11
89.999998
21
-26.083333
31
0
39
0
210
0
220
0
230
1
0
ENDBLK
5
10A
100
AcDbEntity
8
0
100
AcDbBlockEnd
0
ENDSEC
0
SECTION
2
ENTITIES
0
ARC
5
69
100
AcDbEntity
8
1
62
256
6
ByLayer
370
-1
48
1
60
0
100
AcDbCircle
39
0
10
93.650124
20
-7.63952
30
0
40
4.30408133103983
210
0
220
0
230
1
100
AcDbArc
50
223.09777
51
311.861009
0
ARC
5
6A
100
AcDbEntity
8
1
62
256
6
ByLayer
370
-1
48
1
60
0
100
AcDbCircle
39
0
10
94.103349
20
-8.084481
30
0
40
3.67046597020119
210
0
220
0
230
1
100
AcDbArc
50
311.227033
51
348.209501
0
ARC
5
6B
100
AcDbEntity
8
SK3
62
256
6
ByLayer
370
-1
48
1
60
0
100
AcDbCircle
39
0
10
94.103349
20
-8.084481
30
0
40
3.67046597020119
210
0
220
0
230
1
100
AcDbArc
50
11.790499
51
41.60593
0
ARC
5
6C
100
AcDbEntity
8
SK3
62
256
6
ByLayer
370
-1
48
1
60
0
100
AcDbCircle
39
0
10
97.969458
20
-4.651273
30
0
40
1.5
210
0
220
0
230
1
100
AcDbArc
50
188.10155
51
221.60593
0
ARC
5
6D
100
AcDbEntity
8
SK3
62
256
6
ByLayer
370
-1
48
1
60
0
100
AcDbCircle
39
0
10
97.646704
20
-2.383923
30
0
40
1.5
210
0
220
0
230
1
100
AcDbArc
50
180
51
188.10155
0
ARC
5
6E
100
AcDbEntity
8
1
62
256
6
ByLayer
370
-1
48
1
60
0
100
AcDbCircle
39
0
10
88.316765
20
-12.63
30
0
40
3
210
0
220
0
230
1
100
AcDbArc
50
43.09777
51
90
0
ARC
5
6F
100
AcDbEntity
8
SK3
62
256
6
ByLayer
370
-1
48
1
60
0
100
AcDbCircle
39
0
10
-97.646704
20
2.383923
30
0
40
1.5
210
0
220
0
230
-1
100
AcDbArc
50
0
51
8.10155
0
ARC
5
70
100
AcDbEntity
8
SK3
62
256
6
ByLayer
370
-1
48
1
60
0
100
AcDbCircle
39
0
10
-97.969458
20
4.651273
30
0
40
1.5
210
0
220
0
230
-1
100
AcDbArc
50
8.10155
51
41.60593
0
ARC
5
71
100
AcDbEntity
8
SK3
62
256
6
ByLayer
370
-1
48
1
60
0
100
AcDbCircle
39
0
10
-94.103349
20
8.084481
30
0
40
3.67046597020119
210
0
220
0
230
-1
100
AcDbArc
50
191.790499
51
221.60593
0
ARC
5
72
100
AcDbEntity
8
1
62
256
6
ByLayer
370
-1
48
1
60
0
100
AcDbCircle
39
0
10
-94.103349
20
8.084481
30
0
40
3.67046597020119
210
0
220
0
230
-1
100
AcDbArc
50
131.227033
51
168.209501
0
ARC
5
73
100
AcDbEntity
8
1
62
256
6
ByLayer
370
-1
48
1
60
0
100
AcDbCircle
39
0
10
-93.650124
20
7.63952
30
0
40
4.30408133103983
210
0
220
0
230
-1
100
AcDbArc
50
43.09777
51
131.861009
0
ARC
5
74
100
AcDbEntity
8
1
62
256
6
ByLayer
370
-1
48
1
60
0
100
AcDbCircle
39
0
10
-88.316765
20
12.63
30
0
40
3
210
0
220
0
230
-1
100
AcDbArc
50
223.09777
51
270
0
ARC
5
76
100
AcDbEntity
8
1
62
256
6
ByLayer
370
-1
48
1
60
0
100
AcDbCircle
39
0
10
92.6528
20
7.469
30
0
40
0.292
210
0
220
0
230
1
100
AcDbArc
50
104.942011
51
180
0
ARC
5
77
100
AcDbEntity
8
1
62
256
6
ByLayer
370
-1
48
1
60
0
100
AcDbCircle
39
0
10
93.34505
20
8.668012
30
0
40
0.292
210
0
220
0
230
1
100
AcDbArc
50
120
51
195.057989
0
ARC
5
78
100
AcDbEntity
8
1
62
256
6
ByLayer
370
-1
48
1
60
0
100
AcDbCircle
39
0
10
92.400631
20
8.413931
30
0
40
0.686
210
0
220
0
230
1
100
AcDbArc
50
284.942011
51
15.057989
0
ARC
5
79
100
AcDbEntity
8
1
62
256
6
ByLayer
370
-1
48
1
60
0
100
AcDbCircle
39
0
10
93.34505
20
6.269988
30
0
40
0.292
210
0
220
0
230
1
100
AcDbArc
50
164.942011
51
240
0
ARC
5
7A
100
AcDbEntity
8
1
62
256
6
ByLayer
370
-1
48
1
60
0
100
AcDbCircle
39
0
10
92.6528
20
7.469
30
0
40
0.292
210
0
220
0
230
1
100
AcDbArc
50
180
51
255.057989
0
ARC
5
7B
100
AcDbEntity
8
1
62
256
6
ByLayer
370
-1
48
1
60
0
100
AcDbCircle
39
0
10
92.400631
20
6.524069
30
0
40
0.686
210
0
220
0
230
1
100
AcDbArc
50
344.942011
51
75.057989
0
ARC
5
7C
100
AcDbEntity
8
1
62
256
6
ByLayer
370
-1
48
1
60
0
100
AcDbCircle
39
0
10
94.72955
20
6.269988
30
0
40
0.292
210
0
220
0
230
1
100
AcDbArc
50
224.942011
51
300
0
ARC
5
7D
100
AcDbEntity
8
1
62
256
6
ByLayer
370
-1
48
1
60
0
100
AcDbCircle
39
0
10
93.34505
20
6.269988
30
0
40
0.292
210
0
220
0
230
1
100
AcDbArc
50
240
51
315.057989
0
ARC
5
7E
100
AcDbEntity
8
1
62
256
6
ByLayer
370
-1
48
1
60
0
100
AcDbCircle
39
0
10
94.0373
20
5.579138
30
0
40
0.686
210
0
220
0
230
1
100
AcDbArc
50
44.942011
51
135.057989
0
ARC
5
7F
100
AcDbEntity
8
1
62
256
6
ByLayer
370
-1
48
1
60
0
100
AcDbCircle
39
0
10
95.4218
20
7.469
30
0
40
0.292
210
0
220
0
230
1
100
AcDbArc
50
284.942011
51
360
0
ARC
5
80
100
AcDbEntity
8
1
62
256
6
ByLayer
370
-1
48
1
60
0
100
AcDbCircle
39
0
10
94.72955
20
6.269988
30
0
40
0.292
210
0
220
0
230
1
100
AcDbArc
50
300
51
15.057989
0
ARC
5
81
100
AcDbEntity
8
1
62
256
6
ByLayer
370
-1
48
1
60
0
100
AcDbCircle
39
0
10
95.673969
20
6.524069
30
0
40
0.686
210
0
220
0
230
1
100
AcDbArc
50
104.942011
51
195.057989
0
ARC
5
82
100
AcDbEntity
8
1
62
256
6
ByLayer
370
-1
48
1
60
0
100
AcDbCircle
39
0
10
94.72955
20
8.668012
30
0
40
0.292
210
0
220
0
230
1
100
AcDbArc
50
344.942011
51
60
0
ARC
5
83
100
AcDbEntity
8
1
62
256
6
ByLayer
370
-1
48
1
60
0
100
AcDbCircle
39
0
10
95.4218
20
7.469
30
0
40
0.292
210
0
220
0
230
1
100
AcDbArc
50
360
51
75.057989
0
ARC
5
84
100
AcDbEntity
8
1
62
256
6
ByLayer
370
-1
48
1
60
0
100
AcDbCircle
39
0
10
95.673969
20
8.413931
30
0
40
0.686
210
0
220
0
230
1
100
AcDbArc
50
164.942011
51
255.057989
0
ARC
5
85
100
AcDbEntity
8
1
62
256
6
ByLayer
370
-1
48
1
60
0
100
AcDbCircle
39
0
10
93.34505
20
8.668012
30
0
40
0.292
210
0
220
0
230
1
100
AcDbArc
50
44.942011
51
120
0
ARC
5
86
100
AcDbEntity
8
1
62
256
6
ByLayer
370
-1
48
1
60
0
100
AcDbCircle
39
0
10
94.72955
20
8.668012
30
0
40
0.292
210
0
220
0
230
1
100
AcDbArc
50
60
51
135.057989
0
ARC
5
87
100
AcDbEntity
8
1
62
256
6
ByLayer
370
-1
48
1
60
0
100
AcDbCircle
39
0
10
94.0373
20
9.358862
30
0
40
0.686
210
0
220
0
230
1
100
AcDbArc
50
224.942011
51
315.057989
0
ARC
5
8B
100
AcDbEntity
8
1
62
256
6
ByLayer
370
-1
48
1
60
0
100
AcDbCircle
39
0
10
94.0373
20
-7.469
30
0
40
5
210
0
220
0
230
1
100
AcDbArc
50
210.050501
51
42.96127
0
ARC
5
8C
100
AcDbEntity
8
1
62
256
6
ByLayer
370
-1
48
1
60
0
100
AcDbCircle
39
0
10
69.59925
20
-10.43
30
0
40
0.8
210
0
220
0
230
1
100
AcDbArc
50
90
51
138.509183
0
ARC
5
8D
100
AcDbEntity
8
1
62
256
6
ByLayer
370
-1
48
1
60
0
100
AcDbCircle
39
0
10
-69.59925
20
10.43
30
0
40
0.8
210
0
220
0
230
-1
100
AcDbArc
50
270
51
318.509183
0
CIRCLE
5
75
100
AcDbEntity
8
1
62
256
6
ByLayer
370
-1
48
1
60
0
100
AcDbCircle
10
94.0373
20
7.469
30
0
40
5
39
0
210
0
220
0
230
1
0
CIRCLE
5
88
100
AcDbEntity
8
1
62
256
6
ByLayer
370
-1
48
1
60
0
100
AcDbCircle
10
94.0373
20
7.469
30
0
40
2.65
39
0
210
0
220
0
230
1
0
CIRCLE
5
89
100
AcDbEntity
8
1
62
256
6
ByLayer
370
-1
48
1
60
0
100
AcDbCircle
10
94.0373
20
7.469
30
0
40
1.8
39
0
210
0
220
0
230
1
0
CIRCLE
5
8A
100
AcDbEntity
8
1
62
256
6
ByLayer
370
-1
48
1
60
0
100
AcDbCircle
10
94.0373
20
7.469
30
0
40
1.6765
39
0
210
0
220
0
230
1
0
CIRCLE
5
8E
100
AcDbEntity
8
2
62
256
6
ByLayer
370
-1
48
1
60
1
100
AcDbCircle
10
99
20
7.51905
30
0
40
0.5
39
0
210
0
220
0
230
1
0
CIRCLE
5
90
100
AcDbEntity
8
2
62
256
6
ByLayer
370
-1
48
1
60
1
100
AcDbCircle
10
99
20
-7.51905
30
0
40
0.5
39
0
210
0
220
0
230
1
0
CIRCLE
5
91
100
AcDbEntity
8
2
62
256
6
ByLayer
370
-1
48
1
60
1
100
AcDbCircle
10
99
20
12.5
30
0
40
0.5
39
0
210
0
220
0
230
1
0
CIRCLE
5
92
100
AcDbEntity
8
2
62
256
6
ByLayer
370
-1
48
1
60
1
100
AcDbCircle
10
99
20
-12.5
30
0
40
0.5
39
0
210
0
220
0
230
1
0
CIRCLE
5
93
100
AcDbEntity
8
1
62
256
6
ByLayer
370
-1
48
1
60
1
100
AcDbCircle
10
69
20
9.63
30
0
40
0.5
39
0
210
0
220
0
230
1
0
CIRCLE
5
94
100
AcDbEntity
8
1
62
256
6
ByLayer
370
-1
48
1
60
1
100
AcDbCircle
10
-51
20
10
30
0
40
0.5
39
0
210
0
220
0
230
1
0
CIRCLE
5
95
100
AcDbEntity
8
1
62
256
6
ByLayer
370
-1
48
1
60
1
100
AcDbCircle
10
0
20
10
30
0
40
0.5
39
0
210
0
220
0
230
1
0
CIRCLE
5
96
100
AcDbEntity
8
SK2
62
256
6
ByLayer
370
-1
48
1
60
1
100
AcDbCircle
10
-51
20
10
30
0
40
0.5
39
0
210
0
220
0
230
1
0
CIRCLE
5
98
100
AcDbEntity
8
SK2
62
256
6
ByLayer
370
-1
48
1
60
1
100
AcDbCircle
10
-51
20
-10
30
0
40
0.5
39
0
210
0
220
0
230
1
0
CIRCLE
5
99
100
AcDbEntity
8
2
62
256
6
ByLayer
370
-1
48
1
60
1
100
AcDbCircle
10
94
20
-12.5
30
0
40
0.5
39
0
210
0
220
0
230
1
0
CIRCLE
5
9B
100
AcDbEntity
8
1
62
256
6
ByLayer
370
-1
48
1
60
0
100
AcDbCircle
10
94.0373
20
7.469
30
0
40
5
39
0
210
0
220
0
230
1
0
CIRCLE
5
9C
100
AcDbEntity
8
1
62
256
6
ByLayer
370
-1
48
1
60
0
100
AcDbCircle
10
94.0373
20
7.469
30
0
40
2.65
39
0
210
0
220
0
230
1
0
POINT
5
42
100
AcDbEntity
8
81
62
256
6
ByLayer
370
-1
48
1
60
0
100
AcDbPoint
10
99
20
0
30
0
39
0
210
0
220
0
230
1
50
360
0
POINT
5
44
100
AcDbEntity
8
80
62
256
6
ByLayer
370
-1
48
1
60
0
100
AcDbPoint
10
0
20
0
30
0
39
0
210
0
220
0
230
1
50
360
0
SPLINE
5
9A
100
AcDbEntity
8
1
62
256
6
ByLayer
370
-1
48
1
60
1
100
AcDbSpline
70
4
71
3
72
70
73
66
40
0
40
0
40
0
40
0
40
0.0067244983221301
40
0.0134489966442602
40
0.0201734949663903
40
0.0268979932885204
40
0.0336224916106505
40
0.0403469899327806
40
0.0470714882549107
40
0.0537959865770408
40
0.060520484899171
40
0.0672449832213011
40
0.0739694815434312
40
0.0806939798655613
40
0.0874184781876914
40
0.0887791374455086
40
0.0887791374455086
40
0.0975942791996769
40
0.106409420953845
40
0.115224562708013
40
0.124039704462182
40
0.13285484621635
40
0.141669987970518
40
0.150485129724687
40
0.159300271478855
40
0.168115413233023
40
0.176930554987191
40
0.18574569674136
40
0.194560838495528
40
0.203375980249696
40
0.212191122003865
40
0.221006263758033
40
0.229821405512201
40
0.238636547266369
40
0.247451689020538
40
0.256266830774706
40
0.265081972528874
40
0.273897114283042
40
0.282712256037211
40
0.291527397791379
40
0.300342539545547
40
0.309157681299715
40
0.317972823053884
40
0.326787964808052
40
0.329830572426539
40
0.329830572426539
40
0.32983064472755
40
0.32983064472755
40
0.337653401909971
40
0.345476159092392
40
0.353298916274814
40
0.361121673457235
40
0.368944430639656
40
0.376767187822078
40
0.384589945004499
40
0.39241270218692
40
0.400235459369342
40
0.408058216551763
40
0.415477827007256
40
0.415477827007256
40
0.41547789905368
40
0.41547789905368
40
0.469704210436769
40
0.469704210436769
40
1
40
1
40
1
40
1
41
1
10
88.3167650312607
20
-9.63
30
0
41
1
10
88.3787690487811
20
-9.63
30
0
41
1
10
88.5027770661771
20
-9.63384573002699
30
0
41
1
10
88.6880742125927
20
-9.65112934489932
30
0
41
1
10
88.8719443150105
20
-9.67986155406284
30
0
41
1
10
89.053680716412
20
-9.71993193197499
30
0
41
1
10
89.2325849540494
20
-9.77118647749108
30
0
41
1
10
89.4079694515896
20
-9.83342820571361
30
0
41
1
10
89.5791601594949
20
-9.90641790512517
30
0
41
1
10
89.7454991464424
20
-9.98987505669068
30
0
41
1
10
89.9063471266197
20
-10.0834789129051
30
0
41
1
10
90.0610859210421
20
-10.1868697270099
30
0
41
1
10
90.2091208172048
20
-10.2996501486647
30
0
41
1
10
90.3498829150472
20
-10.4213867022966
30
0
41
1
10
90.4474821015727
20
-10.5169867184432
30
0
41
1
10
90.4987595733708
20
-10.571102910963
30
0
41
1
10
90.5628665406442
20
-10.639614455266
30
0
41
1
10
90.6772996513493
20
-10.7551683511623
30
0
41
1
10
90.8584885520729
20
-10.9185016847338
30
0
41
1
10
91.0486352756383
20
-11.0713133905443
30
0
41
1
10
91.2471296805039
20
-11.2131131282058
30
0
41
1
10
91.4533348352
20
-11.3434458885604
30
0
41
1
10
91.6665890669536
20
-11.4618934588839
30
0
41
1
10
91.8862080835749
20
-11.568075763466
30
0
41
1
10
92.1114871695675
20
-11.6616520835718
30
0
41
1
10
92.3417034473331
20
-11.742322150644
30
0
41
1
10
92.5761181967722
20
-11.8098271098337
30
0
41
1
10
92.8139792256897
20
-11.8639503506094
30
0
41
1
10
93.0545232834378
20
-11.9045182018205
30
0
41
1
10
93.2969785100409
20
-11.9314004889744
30
0
41
1
10
93.5405669129474
20
-11.9445109519419
30
0
41
1
10
93.7845068634593
20
-11.9438075217494
30
0
41
1
10
94.0280156048293
20
-11.9292924555702
30
0
41
1
10
94.2703117639777
20
-11.9010123294812
30
0
41
1
10
94.5106178587714
20
-11.8590578890115
30
0
41
1
10
94.7481627928074
20
-11.8035637579484
30
0
41
1
10
94.9821843297452
20
-11.7347080063882
30
0
41
1
10
95.2119315390623
20
-11.6527115792216
30
0
41
1
10
95.4366672060754
20
-11.5578375876165
30
0
41
1
10
95.6556701959258
20
-11.4503904630556
30
0
41
1
10
95.8682377735169
20
-11.3307149867768
30
0
41
1
10
96.0736878362395
20
-11.1991951599128
30
0
41
1
10
96.2713611856253
20
-11.0562530590937
30
0
41
1
10
96.419311000431
20
-10.9359418907601
30
0
41
1
10
96.5014538969165
20
-10.8637754498455
30
0
41
1
10
96.5223484640573
20
-10.8450534774343
30
0
41
1
10
96.5223492125702
20
-10.8450528141756
30
0
41
1
10
96.5765993352423
20
-10.7975151905151
30
0
41
1
10
96.6822943469331
20
-10.6992423637361
30
0
41
1
10
96.8318779762894
20
-10.5427458402645
30
0
41
1
10
96.9719802965276
20
-10.377708144512
30
0
41
1
10
97.1021152124895
20
-10.2047021022832
30
0
41
1
10
97.2218303565756
20
-10.0243290207495
30
0
41
1
10
97.3307098087808
20
-9.83721559224199
30
0
41
1
10
97.428375236298
20
-9.64401198718029
30
0
41
1
10
97.514487282223
20
-9.44538951988673
30
0
41
1
10
97.5887467538017
20
-9.24203834573528
30
0
41
1
10
97.6498279362917
20
-9.03822735555315
30
0
41
1
10
97.6823933230376
20
-8.90145176990195
30
0
41
1
10
97.6963725908421
20
-8.83448133853773
30
0
41
1
10
97.6963726945345
20
-8.8344803435774
30
0
41
1
10
97.6963726883702
20
-8.33447984570358
30
0
41
1
10
97.6963726883702
20
-7.83448084570358
30
0
41
1
10
97.6963726883702
20
-2.44482694856786
30
0
41
1
10
97.6963726883702
20
2.44482694856786
30
0
41
1
10
97.6963726883702
20
7.33448084570358
30
0
0
LINE
5
46
100
AcDbEntity
8
1
62
256
6
ByLayer
370
-1
48
1
60
0
100
AcDbLine
10
97.696373
20
-8.834481
30
0
11
97.696373
21
-7.334481
31
0
39
0
210
0
220
0
230
1
0
LINE
5
48
100
AcDbEntity
8
SK3
62
256
6
ByLayer
370
-1
48
0.05
60
0
100
AcDbLine
10
96.161674
20
-2.595315
30
0
11
96.484428
21
-4.862665
31
0
39
0
210
0
220
0
230
1
0
LINE
5
4A
100
AcDbEntity
8
SK3
62
256
6
ByLayer
370
-1
48
0.05
60
0
100
AcDbLine
10
96.146704
20
-2.383923
30
0
11
96.146704
21
-1.245074
31
0
39
0
210
0
220
0
230
1
0
LINE
5
4B
100
AcDbEntity
8
SK3
62
256
6
ByLayer
370
-1
48
0.05
60
0
100
AcDbLine
10
96.146704
20
-1.245074
30
0
11
96.146704
21
0
31
0
39
0
210
0
220
0
230
1
0
LINE
5
4C
100
AcDbEntity
8
SK3
62
256
6
ByLayer
370
-1
48
0.05
60
0
100
AcDbLine
10
96.146704
20
1.245074
30
0
11
96.146704
21
0
31
0
39
0
210
0
220
0
230
1
0
LINE
5
4D
100
AcDbEntity
8
SK3
62
256
6
ByLayer
370
-1
48
0.05
60
0
100
AcDbLine
10
96.146704
20
2.383923
30
0
11
96.146704
21
1.245074
31
0
39
0
210
0
220
0
230
1
0
LINE
5
4E
100
AcDbEntity
8
SK3
62
256
6
ByLayer
370
-1
48
0.05
60
0
100
AcDbLine
10
96.161674
20
2.595315
30
0
11
96.484428
21
4.862665
31
0
39
0
210
0
220
0
230
1
0
LINE
5
4F
100
AcDbEntity
8
1
62
256
6
ByLayer
370
-1
48
1
60
0
100
AcDbLine
10
97.696373
20
8.834481
30
0
11
97.696373
21
7.334481
31
0
39
0
210
0
220
0
230
1
0
LINE
5
50
100
AcDbEntity
8
1
62
256
6
ByLayer
370
-1
48
1
60
0
100
AcDbLine
10
97.696373
20
-7.334481
30
0
11
97.696373
21
7.334481
31
0
39
0
210
0
220
0
230
1
0
LINE
5
51
100
AcDbEntity
8
1
62
256
6
ByLayer
370
-1
48
1
60
0
100
AcDbLine
10
88.316765
20
-9.63
30
0
11
69.59925
21
-9.63
31
0
39
0
210
0
220
0
230
1
0
LINE
5
52
100
AcDbEntity
8
1
62
256
6
ByLayer
370
-1
48
1
60
0
100
AcDbLine
10
69
20
-9.9
30
0
11
68.9
21
-10
31
0
39
0
210
0
220
0
230
1
0
LINE
5
53
100
AcDbEntity
8
1
62
256
6
ByLayer
370
-1
48
1
60
0
100
AcDbLine
10
88.316765
20
9.63
30
0
11
69.59925
21
9.63
31
0
39
0
210
0
220
0
230
1
0
LINE
5
54
100
AcDbEntity
8
1
62
256
6
ByLayer
370
-1
48
1
60
0
100
AcDbLine
10
69
20
9.9
30
0
11
68.9
21
10
31
0
39
0
210
0
220
0
230
1
0
LINE
5
55
100
AcDbEntity
8
1
62
256
6
ByLayer
370
-1
48
1
60
0
100
AcDbLine
10
69
20
-9.9
30
0
11
69
21
9.9
31
0
39
0
210
0
220
0
230
1
0
LINE
5
56
100
AcDbEntity
8
1
62
256
6
ByLayer
370
-1
48
1
60
0
100
AcDbLine
10
68.9
20
-10
30
0
11
68.9
21
10
31
0
39
0
210
0
220
0
230
1
0
LINE
5
57
100
AcDbEntity
8
SK1
62
256
6
ByLayer
370
-1
48
1
60
0
100
AcDbLine
10
-51
20
9
30
0
11
-51
21
-9
31
0
39
0
210
0
220
0
230
1
0
LINE
5
59
100
AcDbEntity
8
SK1
62
256
6
ByLayer
370
-1
48
1
60
0
100
AcDbLine
10
-50
20
10
30
0
11
-50
21
-10
31
0
39
0
210
0
220
0
230
1
0
LINE
5
5A
100
AcDbEntity
8
SK1
62
256
6
ByLayer
370
-1
48
1
60
0
100
AcDbLine
10
-51
20
-9
30
0
11
-50
21
-10
31
0
39
0
210
0
220
0
230
1
0
LINE
5
5B
100
AcDbEntity
8
SK1
62
256
6
ByLayer
370
-1
48
1
60
0
100
AcDbLine
10
-51
20
9
30
0
11
-50
21
10
31
0
39
0
210
0
220
0
230
1
0
LINE
5
5C
100
AcDbEntity
8
SK1
62
256
6
ByLayer
370
-1
48
1
60
0
100
AcDbLine
10
-50
20
-10
30
0
11
-41
21
-10
31
0
39
0
210
0
220
0
230
1
0
LINE
5
5D
100
AcDbEntity
8
SK1
62
256
6
ByLayer
370
-1
48
1
60
0
100
AcDbLine
10
-50
20
10
30
0
11
-41
21
10
31
0
39
0
210
0
220
0
230
1
0
LINE
5
5E
100
AcDbEntity
8
SK1
62
256
6
ByLayer
370
-1
48
1
60
0
100
AcDbLine
10
0
20
-10
30
0
11
-41
21
-10
31
0
39
0
210
0
220
0
230
1
0
LINE
5
5F
100
AcDbEntity
8
SK1
62
256
6
ByLayer
370
-1
48
1
60
0
100
AcDbLine
10
0
20
10
30
0
11
-41
21
10
31
0
39
0
210
0
220
0
230
1
0
LINE
5
60
100
AcDbEntity
8
81
62
256
6
ByLayer
370
-1
48
1
60
0
100
AcDbLine
10
99
20
0
30
0
11
109
21
0
31
0
39
0
210
0
220
0
230
1
0
LINE
5
61
100
AcDbEntity
8
80
62
256
6
ByLayer
370
-1
48
1
60
0
100
AcDbLine
10
0
20
0
30
0
11
-10
21
0
31
0
39
0
210
0
220
0
230
1
0
LINE
5
62
100
AcDbEntity
8
1
62
256
6
ByLayer
370
-1
48
1
60
0
100
AcDbLine
10
0
20
-10
30
0
11
68.9
21
-10
31
0
39
0
210
0
220
0
230
1
0
LINE
5
63
100
AcDbEntity
8
1
62
256
6
ByLayer
370
-1
48
1
60
0
100
AcDbLine
10
0
20
10
30
0
11
68.9
21
10
31
0
39
0
210
0
220
0
230
1
0
LINE
5
64
100
AcDbEntity
8
1
62
256
6
ByLayer
370
-1
48
1
60
0
100
AcDbLine
10
0
20
-10
30
0
11
0
21
10
31
0
39
0
210
0
220
0
230
1
0
LINE
5
65
100
AcDbEntity
8
SK4
62
256
6
ByLayer
370
-1
48
0.05
60
0
100
AcDbLine
10
104
20
0
30
0
11
-56
21
0
31
0
39
0
210
0
220
0
230
1
0
LINE
5
67
100
AcDbEntity
8
4
62
256
6
ByLayer
370
-1
48
0.05
60
0
100
AcDbLine
10
99
20
0
30
0
11
0
21
0
31
0
39
0
210
0
220
0
230
1
0
MTEXT
5
9E
100
AcDbEntity
8
SK6
62
256
6
ByLayer
370
-1
48
1
60
0
100
AcDbMText
10
-45.125
20
-20.875
30
0
210
0
220
0
230
1
1
\W00.723;\fsimplex.shx,bigfont.shx;R200-015A20-10H\P
40
3.5
41
0
44
1.084337
50
0
71
7
72
5
7
DEFAULT
0
HATCH
5
9D
100
AcDbEntity
8
1
62
256
6
ByLayer
370
-1
48
1
60
1
100
AcDbHatch
10
0
20
0
30
0
210
0
220
0
230
1
2
ANSI38
70
0
71
0
91
2
92
5
93
1
72
2
10
94.0373
20
7.469
40
5
50
0
51
360
73
1
97
0
92
5
93
1
72
2
10
94.0373
20
7.469
40
2.65
50
0
51
360
73
1
97
0
75
0
76
0
52
45
41
1
77
0
78
1
53
45
43
0
44
0
45
-0.707106781186547
46
0.707106781186548
79
0
47
0
98
1
10
0
20
0
0
DIMENSION
5
AF
100
AcDbEntity
8
2
62
256
6
ByLayer
370
-3
48
1
60
0
100
AcDbDimension
2
DimnDraft3D1
10
-7.51905
20
-113.25
30
0
11
0
21
-113.25
31
0
70
32
71
5
72
1
41
1
210
0
220
0
230
1
3
Standard
100
AcDbAlignedDimension
13
7.51905
23
-100.499997
33
0
14
-7.51905
24
-100.499997
34
0
50
0
100
AcDbRotatedDimension
1001
ACAD
1000
DSTYLE
1002
{
1070
   279
1070
     0
1070
   173
1070
     1
1070
   340
1005
9F
1070
    77
1070
     1
1070
    73
1070
     0
1070
   171
1070
     4
1070
   274
1070
     4
1070
   177
1070
     7
1070
   176
1070
     7
1070
   178
1070
     7
1070
    41
1041
4.0
1070
   147
1041
2.25
1070
    42
1041
1.499997
1070
    44
1041
2.0
1070
   140
1041
4.5
1070
   343
1005
B0
1070
   344
1005
B0
1002
}
0
DIMENSION
5
C4
100
AcDbEntity
8
2
62
256
6
ByLayer
370
-3
48
1
60
0
100
AcDbDimension
2
DimnDraft3D2
10
-12.5
20
-125.25
30
0
11
0
21
-125.25
31
0
70
32
71
5
72
1
41
1
210
0
220
0
230
1
3
Standard
100
AcDbAlignedDimension
13
12.5
23
-100.499997
33
0
14
-12.5
24
-100.499997
34
0
50
0
100
AcDbRotatedDimension
1001
ACAD
1000
DSTYLE
1002
{
1070
   279
1070
     0
1070
   173
1070
     1
1070
   340
1005
9F
1070
    77
1070
     1
1070
    73
1070
     0
1070
   171
1070
     4
1070
   274
1070
     4
1070
   177
1070
     7
1070
   176
1070
     7
1070
   178
1070
     7
1070
    41
1041
4.0
1070
   147
1041
2.25
1070
    42
1041
1.499997
1070
    44
1041
2.0
1070
   140
1041
4.5
1070
   343
1005
B0
1070
   344
1005
B0
1002
}
0
DIMENSION
5
D2
100
AcDbEntity
8
2
62
256
6
ByLayer
370
-3
48
1
60
0
100
AcDbDimension
2
DimnDraft3D3
10
69
20
22.25
30
0
11
84
21
22.25
31
0
70
32
71
5
72
1
41
1
210
0
220
0
230
1
3
Standard
100
AcDbAlignedDimension
13
99
23
13.999997
33
0
14
69
24
11.129997
34
0
50
0
100
AcDbRotatedDimension
1001
ACAD
1000
DSTYLE
1002
{
1070
   279
1070
     0
1070
   173
1070
     1
1070
   340
1005
9F
1070
    77
1070
     1
1070
    73
1070
     0
1070
   171
1070
     4
1070
   274
1070
     4
1070
   177
1070
     7
1070
   176
1070
     7
1070
   178
1070
     7
1070
    41
1041
4.0
1070
   147
1041
2.25
1070
    42
1041
1.499997
1070
    44
1041
2.0
1070
   140
1041
4.5
1070
   343
1005
B0
1070
   344
1005
B0
1002
}
0
DIMENSION
5
E0
100
AcDbEntity
8
2
62
256
6
ByLayer
370
-3
48
1
60
0
100
AcDbDimension
2
DimnDraft3D4
10
0
20
34.25
30
0
11
49.5
21
34.25
31
0
70
32
71
5
72
1
41
1
210
0
220
0
230
1
3
Standard
100
AcDbAlignedDimension
13
99
23
13.999997
33
0
14
0
24
11.499997
34
0
50
0
100
AcDbRotatedDimension
1001
ACAD
1000
DSTYLE
1002
{
1070
   279
1070
     0
1070
   173
1070
     1
1070
   340
1005
9F
1070
    77
1070
     1
1070
    73
1070
     0
1070
   171
1070
     4
1070
   274
1070
     4
1070
   177
1070
     7
1070
   176
1070
     7
1070
   178
1070
     7
1070
    41
1041
4.0
1070
   147
1041
2.25
1070
    42
1041
1.499997
1070
    44
1041
2.0
1070
   140
1041
4.5
1070
   343
1005
B0
1070
   344
1005
B0
1002
}
0
DIMENSION
5
EE
100
AcDbEntity
8
SK2
62
256
6
ByLayer
370
-3
48
1
60
0
100
AcDbDimension
2
DimnDraft3D5
10
-51
20
46.25
30
0
11
24
21
46.25
31
0
70
32
71
5
72
1
41
1
210
0
220
0
230
1
3
Standard
100
AcDbAlignedDimension
13
99
23
13.999997
33
0
14
-51
24
11.499997
34
0
50
0
100
AcDbRotatedDimension
1001
ACAD
1000
DSTYLE
1002
{
1070
   279
1070
     0
1070
   173
1070
     1
1070
   340
1005
9F
1070
    77
1070
     1
1070
    73
1070
     0
1070
   171
1070
     4
1070
   274
1070
     4
1070
   177
1070
     7
1070
   176
1070
     7
1070
   178
1070
     7
1070
    41
1041
4.0
1070
   147
1041
2.25
1070
    42
1041
1.499997
1070
    44
1041
2.0
1070
   140
1041
4.5
1070
   343
1005
B0
1070
   344
1005
B0
1002
}
0
DIMENSION
5
FC
100
AcDbEntity
8
SK2
62
256
6
ByLayer
370
-3
48
1
60
0
100
AcDbDimension
2
DimnDraft3D6
10
-10
20
60.75
30
0
11
0
21
60.75
31
0
70
32
71
5
72
1
41
1
210
0
220
0
230
1
3
Standard
100
AcDbAlignedDimension
13
10
23
52.499997
33
0
14
-10
24
52.499997
34
0
50
0
100
AcDbRotatedDimension
1001
ACAD
1000
DSTYLE
1002
{
1070
   279
1070
     0
1070
   173
1070
     1
1070
   340
1005
9F
1070
   271
1070
     0
1070
    77
1070
     1
1070
    73
1070
     0
1070
   171
1070
     4
1070
   274
1070
     4
1070
   177
1070
     7
1070
   176
1070
     7
1070
   178
1070
     7
1070
    41
1041
4.0
1070
   147
1041
2.25
1070
    42
1041
1.499997
1070
    44
1041
2.0
1070
   140
1041
4.5
1070
   343
1005
B0
1070
   344
1005
B0
1002
}
0
DIMENSION
5
10B
100
AcDbEntity
8
2
62
256
6
ByLayer
370
-3
48
1
60
0
100
AcDbDimension
2
DimnDraft3D7
10
94
20
-26.75
30
0
11
89
21
-26.75
31
0
70
32
71
5
72
1
41
1
210
0
220
0
230
1
3
Standard
100
AcDbAlignedDimension
13
99
23
-13.999997
33
0
14
94
24
-13.999997
34
0
50
0
100
AcDbRotatedDimension
1001
ACAD
1000
DSTYLE
1002
{
1070
   279
1070
     0
1070
   173
1070
     1
1070
   340
1005
9F
1070
   271
1070
     0
1070
    77
1070
     1
1070
    73
1070
     0
1070
   171
1070
     4
1070
   274
1070
     4
1070
   177
1070
     7
1070
   176
1070
     7
1070
   178
1070
     7
1070
    41
1041
4.0
1070
   147
1041
2.25
1070
    42
1041
1.499997
1070
    44
1041
2.0
1070
   140
1041
4.5
1070
   343
1005
B0
1070
   344
1005
B0
1002
}
0
ENDSEC
0
SECTION
2
OBJECTS
0
DICTIONARY
5
15b
330
0
100
AcDbDictionary
280
0
281
1
3
ACAD_GROUP
350
15c
3
ACAD_MLINESTYLE
350
15d
0
DICTIONARY
5
15c
330
0
100
AcDbDictionary
280
0
281
1
0
DICTIONARY
5
15d
330
0
100
AcDbDictionary
280
0
281
1
3
Standard
350
18
0
MLINESTYLE
5
18
330
15d
100
AcDbMlineStyle
2
Standard
70
0
3

62
256
51
90
52
90
71
2
49
-0.5
62
256
6
ByLayer
49
0.5
62
256
6
ByLayer
0
RASTERVARIABLES
5
148
330

100
AcDbRasterVariables
90
0
70
1
71
1
72
1
0
ENDSEC
0
EOF
