0
SECTION
2
HEADER
9
$ACADVER
1
AC1015
9
$DWGCODEPAGE
3
ANSI_1252
9
$HANDSEED
5
15a
9
$ANGBASE
50
0
9
$ANGDIR
70
0
9
$ATTMODE
70
1
9
$AUNITS
70
0
9
$AUPREC
70
0
9
$CECOLOR
62
256
9
$CELTSCALE
40
1
9
$CELTYPE
6
ByLayer
9
$CELWEIGHT
370
18
9
$CLAYER
8
0
9
$CMLJUST
70
0
9
$CMLSCALE
40
1
9
$CMLSTYLE
2
Standard
9
$DIMSTYLE
2
Standard
9
$TEXTSIZE
40
0.2
9
$TEXTSTYLE
7
Standard
9
$LUNITS
70
2
9
$LUPREC
70
4
9
$EXTNAMES
290
1
9
$INSUNITS
70
4
9
$LTSCALE
40
1
9
$LWDISPLAY
290
1
9
$PDMODE
70
0
9
$PDSIZE
40
0
9
$PLINEGEN
70
0
0
ENDSEC
0
SECTION
2
CLASSES
0
CLASS
1
RASTERVARIABLES
2
AcDbRasterVariables
3
ISM
90
0
280
0
281
0
0
ENDSEC
0
SECTION
2
TABLES
0
TABLE
2
VPORT
5
150
100
AcDbSymbolTable
0
VPORT
5
1
100
AcDbSymbolTableRecord
100
AcDbViewportTableRecord
2
*Active
70
0
10
0
20
0
11
1
21
1
12
-1
22
1
13
0
23
0
14
0.5
24
0.5
15
10
25
10
16
0
26
0
36
1
17
0
27
0
37
0
0
ENDTAB
0
TABLE
2
LTYPE
5
151
100
AcDbSymbolTable
0
LTYPE
5
14
100
AcDbSymbolTableRecord
100
AcDbLinetypeTableRecord
70
0
2
ByBlock
3

72
65
73
0
40
0
0
LTYPE
5
15
100
AcDbSymbolTableRecord
100
AcDbLinetypeTableRecord
70
0
2
ByLayer
3

72
65
73
0
40
0
0
LTYPE
5
16
100
AcDbSymbolTableRecord
100
AcDbLinetypeTableRecord
70
0
2
CONTINUOUS
3
Solid line
72
65
73
0
40
0
0
LTYPE
5
6A
100
AcDbSymbolTableRecord
100
AcDbLinetypeTableRecord
70
0
2
CENTER
3
____ _ ____ _ ____ _ ____
72
65
73
4
40
47.5
49
22
74
0
49
-8.5
74
0
49
8.5
74
0
49
-8.5
74
0
0
LTYPE
5
6B
100
AcDbSymbolTableRecord
100
AcDbLinetypeTableRecord
70
0
2
DASHED
3
__ __ __ __ __ __ __ __ __
72
65
73
2
40
25.72
49
12.86
74
0
49
-12.86
74
0
0
ENDTAB
0
TABLE
2
LAYER
5
152
100
AcDbSymbolTable
0
LAYER
5
10
100
AcDbSymbolTableRecord
100
AcDbLayerTableRecord
2
0
70
0
62
7
6
CONTINUOUS
290
1
370
-3
390
0
0
LAYER
5
6D
100
AcDbSymbolTableRecord
100
AcDbLayerTableRecord
2
81
70
0
62
-3
6
CONTINUOUS
290
1
370
-3
390
0
0
LAYER
5
6F
100
AcDbSymbolTableRecord
100
AcDbLayerTableRecord
2
80
70
0
62
-6
6
CONTINUOUS
290
1
370
-3
390
0
0
LAYER
5
76
100
AcDbSymbolTableRecord
100
AcDbLayerTableRecord
2
1
70
0
62
4
6
CONTINUOUS
290
1
370
-3
390
0
0
LAYER
5
BA
100
AcDbSymbolTableRecord
100
AcDbLayerTableRecord
2
2
70
0
62
7
6
CONTINUOUS
290
1
370
-3
390
0
0
LAYER
5
13c
100
AcDbSymbolTableRecord
100
AcDbLayerTableRecord
2
SK1
70
0
62
4
6
CONTINUOUS
290
1
370
-3
390
0
0
LAYER
5
13d
100
AcDbSymbolTableRecord
100
AcDbLayerTableRecord
2
SK4
70
0
62
2
6
CENTER
290
1
370
-3
390
0
0
LAYER
5
13e
100
AcDbSymbolTableRecord
100
AcDbLayerTableRecord
2
SK6
70
0
62
5
6
CONTINUOUS
290
1
370
-3
390
0
0
LAYER
5
13f
100
AcDbSymbolTableRecord
100
AcDbLayerTableRecord
2
SK2
70
0
62
7
6
CONTINUOUS
290
1
370
-3
390
0
0
ENDTAB
0
TABLE
2
STYLE
5
153
100
AcDbSymbolTable
0
STYLE
5
11
100
AcDbSymbolTableRecord
100
AcDbTextStyleTableRecord
2
Standard
3
txt
70
0
71
0
40
0
41
1
42
0
50
0
0
STYLE
5
9E
100
AcDbSymbolTableRecord
100
AcDbTextStyleTableRecord
2
blockfont
3
simplex.shx
70
0
71
0
40
0
41
1
42
0
50
0
0
STYLE
5
9F
100
AcDbSymbolTableRecord
100
AcDbTextStyleTableRecord
2
DWGDirectTextStyle
3
simplex
70
0
71
0
40
0
41
1
42
0
50
0
0
STYLE
5
A3
100
AcDbSymbolTableRecord
100
AcDbTextStyleTableRecord
2
iso_b_vert
3
simplex.shx
70
0
71
0
40
0
41
1
42
0
50
0
0
ENDTAB
0
TABLE
2
DIMSTYLE
5
154
100
AcDbSymbolTable
100
AcDbDimStyleTable
0
DIMSTYLE
105
27
100
AcDbSymbolTableRecord
100
AcDbDimStyleTableRecord
2
Standard
70
0
3
<>
41
0.18
42
0.0625
44
0.18
140
0.18
147
0.09
73
0
74
0
77
1
271
2
275
0
278
52
280
0
340
11
0
ENDTAB
0
TABLE
2
VIEW
5
155
100
AcDbSymbolTable
0
ENDTAB
0
TABLE
2
UCS
5
156
100
AcDbSymbolTable
0
ENDTAB
0
TABLE
2
APPID
5
157
100
AcDbSymbolTable
0
APPID
5
12
100
AcDbSymbolTableRecord
100
AcDbRegAppTableRecord
2
ACAD
70
0
0
ENDTAB
0
TABLE
2
BLOCK_RECORD
5
158
100
AcDbSymbolTable
0
BLOCK_RECORD
5
1F
100
AcDbSymbolTableRecord
100
AcDbBlockTableRecord
2
*Model_Space
340
0
70
0
0
BLOCK_RECORD
5
1B
100
AcDbSymbolTableRecord
100
AcDbBlockTableRecord
2
*Paper_Space
340
0
70
0
0
BLOCK_RECORD
5
23
100
AcDbSymbolTableRecord
100
AcDbBlockTableRecord
2
*Paper_Space0
340
0
70
0
0
BLOCK_RECORD
5
A1
100
AcDbSymbolTableRecord
100
AcDbBlockTableRecord
2
DimnDraft3D1
340
0
70
0
0
BLOCK_RECORD
5
B1
100
AcDbSymbolTableRecord
100
AcDbBlockTableRecord
2
_CLOSED
340
0
70
0
0
BLOCK_RECORD
5
B8
100
AcDbSymbolTableRecord
100
AcDbBlockTableRecord
2
DimnDraft3D2
340
0
70
0
0
BLOCK_RECORD
5
C7
100
AcDbSymbolTableRecord
100
AcDbBlockTableRecord
2
DimnDraft3D3
340
0
70
0
0
BLOCK_RECORD
5
D5
100
AcDbSymbolTableRecord
100
AcDbBlockTableRecord
2
DimnDraft3D4
340
0
70
0
0
ENDTAB
0
ENDSEC
0
SECTION
2
BLOCKS
0
BLOCK
5
20
100
AcDbEntity
8
0
100
AcDbBlockBegin
2
*Model_Space
70
0
10
0
20
0
30
0
3
*Model_Space
0
ENDBLK
5
21
100
AcDbEntity
8
0
100
AcDbBlockEnd
0
BLOCK
5
1C
100
AcDbEntity
8
0
100
AcDbBlockBegin
2
*Paper_Space
70
0
10
0
20
0
30
0
3
*Paper_Space
0
ENDBLK
5
1D
100
AcDbEntity
8
0
100
AcDbBlockEnd
0
BLOCK
5
24
100
AcDbEntity
8
0
100
AcDbBlockBegin
2
*Paper_Space0
70
0
10
0
20
0
30
0
3
*Paper_Space0
0
ENDBLK
5
25
100
AcDbEntity
8
0
100
AcDbBlockEnd
0
BLOCK
5
AE
100
AcDbEntity
8
0
100
AcDbBlockBegin
2
DimnDraft3D1
70
0
10
0
20
0
30
0
3
DimnDraft3D1
0
MTEXT
5
A2
100
AcDbEntity
8
SK2
62
256
6
ByLayer
370
18
48
1
60
0
100
AcDbMText
10
-100.811591
20
-2.038816
30
0
210
0
220
0
230
1
1
\W1.2012;%%c10
40
1.5
41
0
44
1.084337
50
90
71
7
72
5
7
iso_b_vert
0
LINE
5
A5
100
AcDbEntity
8
SK2
62
256
6
ByLayer
370
13
48
1
60
0
100
AcDbLine
10
-90.25
20
-5
30
0
11
-101.561591
21
-5
31
0
39
0
210
0
220
0
230
1
0
LINE
5
A6
100
AcDbEntity
8
SK2
62
256
6
ByLayer
370
13
48
1
60
0
100
AcDbLine
10
-90.25
20
5
30
0
11
-101.561591
21
5
31
0
39
0
210
0
220
0
230
1
0
LINE
5
A7
100
AcDbEntity
8
SK2
62
256
6
ByLayer
370
13
48
1
60
0
100
AcDbLine
10
-100.061591
20
-5
30
0
11
-100.061591
21
5
31
0
39
0
210
0
220
0
230
1
0
LINE
5
A8
100
AcDbEntity
8
SK2
62
256
6
ByLayer
370
13
48
1
60
0
100
AcDbLine
10
-100.061591
20
-5
30
0
11
-100.311591
21
-3.500001
31
0
39
0
210
0
220
0
230
1
0
LINE
5
A9
100
AcDbEntity
8
SK2
62
256
6
ByLayer
370
13
48
1
60
0
100
AcDbLine
10
-100.061591
20
-5
30
0
11
-99.811591
21
-3.499999
31
0
39
0
210
0
220
0
230
1
0
LINE
5
AA
100
AcDbEntity
8
SK2
62
256
6
ByLayer
370
13
48
1
60
0
100
AcDbLine
10
-100.311591
20
-3.500001
30
0
11
-99.811591
21
-3.499999
31
0
39
0
210
0
220
0
230
1
0
LINE
5
AB
100
AcDbEntity
8
SK2
62
256
6
ByLayer
370
13
48
1
60
0
100
AcDbLine
10
-100.061591
20
5
30
0
11
-99.811591
21
3.500001
31
0
39
0
210
0
220
0
230
1
0
LINE
5
AC
100
AcDbEntity
8
SK2
62
256
6
ByLayer
370
13
48
1
60
0
100
AcDbLine
10
-100.061591
20
5
30
0
11
-100.311591
21
3.499999
31
0
39
0
210
0
220
0
230
1
0
LINE
5
AD
100
AcDbEntity
8
SK2
62
256
6
ByLayer
370
13
48
1
60
0
100
AcDbLine
10
-99.811591
20
3.500001
30
0
11
-100.311591
21
3.499999
31
0
39
0
210
0
220
0
230
1
0
ENDBLK
5
AF
100
AcDbEntity
8
0
100
AcDbBlockEnd
0
BLOCK
5
B2
100
AcDbEntity
8
0
100
AcDbBlockBegin
2
_CLOSED
70
0
10
0
20
0
30
0
3
_CLOSED
0
LINE
5
B4
100
AcDbEntity
8
0
62
256
6
ByLayer
370
-2
48
1
60
0
100
AcDbLine
10
-1
20
0.166667
30
0
11
0
21
0
31
0
39
0
210
0
220
0
230
1
0
LINE
5
B5
100
AcDbEntity
8
0
62
256
6
ByLayer
370
-2
48
1
60
0
100
AcDbLine
10
0
20
0
30
0
11
-1
21
-0.166667
31
0
39
0
210
0
220
0
230
1
0
LINE
5
B6
100
AcDbEntity
8
0
62
256
6
ByLayer
370
-2
48
1
60
0
100
AcDbLine
10
-1
20
0.166667
30
0
11
-1
21
-0.166667
31
0
39
0
210
0
220
0
230
1
0
LINE
5
B7
100
AcDbEntity
8
0
62
256
6
ByLayer
370
-2
48
1
60
0
100
AcDbLine
10
0
20
0
30
0
11
-1
21
0
31
0
39
0
210
0
220
0
230
1
0
ENDBLK
5
B3
100
AcDbEntity
8
0
100
AcDbBlockEnd
0
BLOCK
5
C4
100
AcDbEntity
8
0
100
AcDbBlockBegin
2
DimnDraft3D2
70
0
10
0
20
0
30
0
3
DimnDraft3D2
0
MTEXT
5
B9
100
AcDbEntity
8
2
62
256
6
ByLayer
370
18
48
1
60
0
100
AcDbMText
10
69.575998
20
2.742105
30
0
210
0
220
0
230
1
1
\W0.6912;7.2
40
1.5
41
0
44
1.084337
50
90
71
7
72
5
7
iso_b_vert
0
LINE
5
BB
100
AcDbEntity
8
2
62
256
6
ByLayer
370
13
48
1
60
0
100
AcDbLine
10
65.281733
20
0
30
0
11
71.450998
21
0
31
0
39
0
210
0
220
0
230
1
0
LINE
5
BC
100
AcDbEntity
8
2
62
256
6
ByLayer
370
13
48
1
60
0
100
AcDbLine
10
61.224729
20
7.075
30
0
11
71.450998
21
7.075
31
0
39
0
210
0
220
0
230
1
0
LINE
5
BD
100
AcDbEntity
8
2
62
256
6
ByLayer
370
13
48
1
60
0
100
AcDbLine
10
69.950998
20
0
30
0
11
69.950998
21
7.075
31
0
39
0
210
0
220
0
230
1
0
LINE
5
BE
100
AcDbEntity
8
2
62
256
6
ByLayer
370
13
48
1
60
0
100
AcDbLine
10
69.950998
20
0
30
0
11
69.700998
21
1.499999
31
0
39
0
210
0
220
0
230
1
0
LINE
5
BF
100
AcDbEntity
8
2
62
256
6
ByLayer
370
13
48
1
60
0
100
AcDbLine
10
69.950998
20
0
30
0
11
70.200998
21
1.500001
31
0
39
0
210
0
220
0
230
1
0
LINE
5
C0
100
AcDbEntity
8
2
62
256
6
ByLayer
370
13
48
1
60
0
100
AcDbLine
10
69.700998
20
1.499999
30
0
11
70.200998
21
1.500001
31
0
39
0
210
0
220
0
230
1
0
LINE
5
C1
100
AcDbEntity
8
2
62
256
6
ByLayer
370
13
48
1
60
0
100
AcDbLine
10
69.950998
20
7.075
30
0
11
70.200998
21
5.575001
31
0
39
0
210
0
220
0
230
1
0
LINE
5
C2
100
AcDbEntity
8
2
62
256
6
ByLayer
370
13
48
1
60
0
100
AcDbLine
10
69.950998
20
7.075
30
0
11
69.700998
21
5.574999
31
0
39
0
210
0
220
0
230
1
0
LINE
5
C3
100
AcDbEntity
8
2
62
256
6
ByLayer
370
13
48
1
60
0
100
AcDbLine
10
70.200998
20
5.575001
30
0
11
69.700998
21
5.574999
31
0
39
0
210
0
220
0
230
1
0
ENDBLK
5
C5
100
AcDbEntity
8
0
100
AcDbBlockEnd
0
BLOCK
5
D2
100
AcDbEntity
8
0
100
AcDbBlockBegin
2
DimnDraft3D3
70
0
10
0
20
0
30
0
3
DimnDraft3D3
0
MTEXT
5
C8
100
AcDbEntity
8
2
62
256
6
ByLayer
370
18
48
1
60
0
100
AcDbMText
10
48.576122
20
15.530507
30
0
210
0
220
0
230
1
1
\W0.6367;21.0
40
1.5
41
0
44
1.084337
50
0
71
7
72
5
7
iso_b_vert
0
LINE
5
C9
100
AcDbEntity
8
2
62
256
6
ByLayer
370
13
48
1
60
0
100
AcDbLine
10
38.99462
20
5.8
30
0
11
38.99462
21
16.655507
31
0
39
0
210
0
220
0
230
1
0
LINE
5
CA
100
AcDbEntity
8
2
62
256
6
ByLayer
370
13
48
1
60
0
100
AcDbLine
10
60.474729
20
7.825
30
0
11
60.474729
21
16.655507
31
0
39
0
210
0
220
0
230
1
0
LINE
5
CB
100
AcDbEntity
8
2
62
256
6
ByLayer
370
13
48
1
60
0
100
AcDbLine
10
38.99462
20
15.155507
30
0
11
60.474729
21
15.155507
31
0
39
0
210
0
220
0
230
1
0
LINE
5
CC
100
AcDbEntity
8
2
62
256
6
ByLayer
370
13
48
1
60
0
100
AcDbLine
10
38.99462
20
15.155507
30
0
11
40.494619
21
15.405507
31
0
39
0
210
0
220
0
230
1
0
LINE
5
CD
100
AcDbEntity
8
2
62
256
6
ByLayer
370
13
48
1
60
0
100
AcDbLine
10
38.99462
20
15.155507
30
0
11
40.494621
21
14.905507
31
0
39
0
210
0
220
0
230
1
0
LINE
5
CE
100
AcDbEntity
8
2
62
256
6
ByLayer
370
13
48
1
60
0
100
AcDbLine
10
40.494619
20
15.405507
30
0
11
40.494621
21
14.905507
31
0
39
0
210
0
220
0
230
1
0
LINE
5
CF
100
AcDbEntity
8
2
62
256
6
ByLayer
370
13
48
1
60
0
100
AcDbLine
10
60.474729
20
15.155507
30
0
11
58.97473
21
14.905507
31
0
39
0
210
0
220
0
230
1
0
LINE
5
D0
100
AcDbEntity
8
2
62
256
6
ByLayer
370
13
48
1
60
0
100
AcDbLine
10
60.474729
20
15.155507
30
0
11
58.974728
21
15.405507
31
0
39
0
210
0
220
0
230
1
0
LINE
5
D1
100
AcDbEntity
8
2
62
256
6
ByLayer
370
13
48
1
60
0
100
AcDbLine
10
58.97473
20
14.905507
30
0
11
58.974728
21
15.405507
31
0
39
0
210
0
220
0
230
1
0
ENDBLK
5
D3
100
AcDbEntity
8
0
100
AcDbBlockEnd
0
BLOCK
5
E0
100
AcDbEntity
8
0
100
AcDbBlockBegin
2
DimnDraft3D4
70
0
10
0
20
0
30
0
3
DimnDraft3D4
0
MTEXT
5
D6
100
AcDbEntity
8
SK2
62
256
6
ByLayer
370
18
48
1
60
0
100
AcDbMText
10
-15.627109
20
25.286603
30
0
210
0
220
0
230
1
1
\W0.6044;150
40
1.5
41
0
44
1.084337
50
0
71
7
72
5
7
iso_b_vert
0
LINE
5
D7
100
AcDbEntity
8
SK2
62
256
6
ByLayer
370
13
48
1
60
0
100
AcDbLine
10
60.474729
20
7.825
30
0
11
60.474729
21
26.411603
31
0
39
0
210
0
220
0
230
1
0
LINE
5
D8
100
AcDbEntity
8
SK2
62
256
6
ByLayer
370
13
48
1
60
0
100
AcDbLine
10
-90
20
5.25
30
0
11
-90
21
26.411603
31
0
39
0
210
0
220
0
230
1
0
LINE
5
D9
100
AcDbEntity
8
SK2
62
256
6
ByLayer
370
13
48
1
60
0
100
AcDbLine
10
60.474729
20
24.911603
30
0
11
-90
21
24.911603
31
0
39
0
210
0
220
0
230
1
0
LINE
5
DA
100
AcDbEntity
8
SK2
62
256
6
ByLayer
370
13
48
1
60
0
100
AcDbLine
10
60.474729
20
24.911603
30
0
11
58.97473
21
24.661603
31
0
39
0
210
0
220
0
230
1
0
LINE
5
DB
100
AcDbEntity
8
SK2
62
256
6
ByLayer
370
13
48
1
60
0
100
AcDbLine
10
60.474729
20
24.911603
30
0
11
58.974728
21
25.161603
31
0
39
0
210
0
220
0
230
1
0
LINE
5
DC
100
AcDbEntity
8
SK2
62
256
6
ByLayer
370
13
48
1
60
0
100
AcDbLine
10
58.97473
20
24.661603
30
0
11
58.974728
21
25.161603
31
0
39
0
210
0
220
0
230
1
0
LINE
5
DD
100
AcDbEntity
8
SK2
62
256
6
ByLayer
370
13
48
1
60
0
100
AcDbLine
10
-90
20
24.911603
30
0
11
-88.500001
21
25.161603
31
0
39
0
210
0
220
0
230
1
0
LINE
5
DE
100
AcDbEntity
8
SK2
62
256
6
ByLayer
370
13
48
1
60
0
100
AcDbLine
10
-90
20
24.911603
30
0
11
-88.499999
21
24.661603
31
0
39
0
210
0
220
0
230
1
0
LINE
5
DF
100
AcDbEntity
8
SK2
62
256
6
ByLayer
370
13
48
1
60
0
100
AcDbLine
10
-88.500001
20
25.161603
30
0
11
-88.499999
21
24.661603
31
0
39
0
210
0
220
0
230
1
0
ENDBLK
5
E1
100
AcDbEntity
8
0
100
AcDbBlockEnd
0
ENDSEC
0
SECTION
2
ENTITIES
0
CIRCLE
5
94
100
AcDbEntity
8
1
62
256
6
ByLayer
370
18
48
1
60
0
100
AcDbCircle
10
57.299729
20
1.575739
30
0
40
1.4
39
0
210
0
220
0
230
1
0
ELLIPSE
5
95
100
AcDbEntity
8
1
62
256
6
ByLayer
370
18
48
1
60
0
100
AcDbEllipse
10
42.697802
20
0
30
0
11
-1.29382168029992
21
5.04892846183255
31
0
210
0
220
0
230
1
40
0.080403
41
-0.141412534994288
42
-0.0306966711531881
0
ELLIPSE
5
96
100
AcDbEntity
8
1
62
256
6
ByLayer
370
18
48
1
60
0
100
AcDbEllipse
10
139.874451
20
-1E-06
30
0
11
-299.520188215488
21
1.30738300076911
31
0
210
0
220
0
230
1
40
0.016285
41
1.26780032926358
42
1.30177359174854
0
ELLIPSE
5
97
100
AcDbEntity
8
1
62
256
6
ByLayer
370
18
48
1
60
0
100
AcDbEllipse
10
49.677684
20
0
30
0
11
-2.35329833962223
21
4.95446409384986
31
0
210
0
220
0
230
1
40
0.415435
41
0.122670905293767
42
2.11379806392283
0
ELLIPSE
5
98
100
AcDbEntity
8
1
62
256
6
ByLayer
370
18
48
1
60
0
100
AcDbEllipse
10
48.213858
20
5.235856
30
0
11
-1.23431987620073
21
0.000315328740012787
31
0
210
0
220
0
230
1
40
0.251625
41
0.800298935858536
42
1.55447070155738
0
ELLIPSE
5
99
100
AcDbEntity
8
1
62
256
6
ByLayer
370
18
48
1
60
0
100
AcDbEllipse
10
47.813641
20
2.570413
30
0
11
-0.371472178011055
21
0.936327988705683
31
0
210
0
220
0
230
1
40
0.427708
41
0.0699319036218092
42
2.46290414750813
0
POINT
5
6C
100
AcDbEntity
8
81
62
256
6
ByLayer
370
18
48
1
60
0
100
AcDbPoint
10
60.474729
20
7.075
30
0
39
0
210
0
220
0
230
1
50
360
0
POINT
5
6E
100
AcDbEntity
8
80
62
256
6
ByLayer
370
18
48
1
60
0
100
AcDbPoint
10
0
20
0
30
0
39
0
210
0
220
0
230
1
50
360
0
SPLINE
5
9A
100
AcDbEntity
8
1
62
256
6
ByLayer
370
18
48
1
60
0
100
AcDbSpline
70
4
71
3
72
24
73
20
40
0
40
0
40
0
40
0
40
0.090041383069624
40
0.090041383069624
40
0.216296229489124
40
0.216296229489124
40
0.311298697591417
40
0.311298697591417
40
0.40632283977209
40
0.40632283977209
40
0.532707080807954
40
0.532707080807954
40
0.617120219258852
40
0.617120219258852
40
0.701532803366221
40
0.701532803366221
40
0.853529594930034
40
0.853529594930034
40
1
40
1
40
1
40
1
41
1
10
50.4830196284287
20
-4.26553378864433
30
0
41
1
10
50.4193673760419
20
-4.26493187174621
30
0
41
1
10
50.3586772385152
20
-4.26185154255099
30
0
41
1
10
50.2079894291812
20
-4.24792873955697
30
0
41
1
10
50.124199009637
20
-4.23509286556578
30
0
41
1
10
49.980640758946
20
-4.20390553553095
30
0
41
1
10
49.9210424079715
20
-4.18781037834766
30
0
41
1
10
49.8067030978116
20
-4.15037889394497
30
0
41
1
10
49.751962905901
20
-4.12903365057719
30
0
41
1
10
49.6309850763694
20
-4.07313787730273
30
0
41
1
10
49.5680064543515
20
-4.03724172274767
30
0
41
1
10
49.4705810145978
20
-3.96863132994407
30
0
41
1
10
49.435281016629
20
-3.93999845401223
30
0
41
1
10
49.3691747013712
20
-3.87838834111202
30
0
41
1
10
49.3395914586376
20
-3.84662250539954
30
0
41
1
10
49.261583047655
20
-3.74902525471865
30
0
41
1
10
49.2231647476548
20
-3.68423030507373
30
0
41
1
10
49.1632106775548
20
-3.54348668746406
30
0
41
1
10
49.1434065507251
20
-3.47324651782175
30
0
41
1
10
49.1314511433677
20
-3.39703284441239
30
0
0
SPLINE
5
9B
100
AcDbEntity
8
1
62
256
6
ByLayer
370
18
48
1
60
0
100
AcDbSpline
70
4
71
3
72
18
73
14
40
0
40
0
40
0
40
0
40
0.125861232017335
40
0.125861232017335
40
0.391624090222849
40
0.391624090222849
40
0.542217320523086
40
0.542217320523086
40
0.692815099727685
40
0.692815099727685
40
0.857647888235609
40
0.857647888235609
40
1
40
1
40
1
40
1
41
1
10
47.0902115356635
20
4.7976027612414
30
0
41
1
10
47.0837107018176
20
4.81150268661078
30
0
41
1
10
47.0791972020454
20
4.82448376756106
30
0
41
1
10
47.0709922487216
20
4.8647474682933
30
0
41
1
10
47.0742539032883
20
4.88856191459931
30
0
41
1
10
47.0966408673714
20
4.9233205692695
30
0
41
1
10
47.1077334562395
20
4.93438031018434
30
0
41
1
10
47.1373934810987
20
4.9552137752558
30
0
41
1
10
47.1548007702985
20
4.96427710231085
30
0
41
1
10
47.2025224920379
20
4.98270835288976
30
0
41
1
10
47.2296978624681
20
4.99039455670521
30
0
41
1
10
47.2899750212077
20
5.00347141643251
30
0
41
1
10
47.3201252994247
20
5.00862867925207
30
0
41
1
10
47.3541060454393
20
5.01320567120346
30
0
0
SPLINE
5
9C
100
AcDbEntity
8
1
62
256
6
ByLayer
370
18
48
1
60
0
100
AcDbSpline
70
4
71
3
72
60
73
56
40
0
40
0
40
0
40
0
40
0.0094330833356978
40
0.0094330833356978
40
0.0359020885159626
40
0.0359020885159626
40
0.0623715024320955
40
0.0623715024320955
40
0.0919043097538983
40
0.0919043097538983
40
0.121436907900065
40
0.121436907900065
40
0.154450375427542
40
0.154450375427542
40
0.187462599623603
40
0.187462599623603
40
0.224835269340122
40
0.224835269340122
40
0.262206834037421
40
0.262206834037421
40
0.303996526327383
40
0.303996526327383
40
0.345786378451641
40
0.345786378451641
40
0.40829203229571
40
0.40829203229571
40
0.454811875709737
40
0.454811875709737
40
0.500150534230541
40
0.500150534230541
40
0.529152345791358
40
0.529152345791358
40
0.543664263219744
40
0.543664263219744
40
0.571537850094
40
0.571537850094
40
0.609045035198871
40
0.609045035198871
40
0.659125947805494
40
0.659125947805494
40
0.72533443489078
40
0.72533443489078
40
0.768837426474296
40
0.768837426474296
40
0.812341755874451
40
0.812341755874451
40
0.851532706044397
40
0.851532706044397
40
0.890725401430412
40
0.890725401430412
40
0.925679636205747
40
0.925679636205747
40
0.96063373874155
40
0.96063373874155
40
1
40
1
40
1
40
1
41
1
10
47.4150938342456
20
3.49335016808279
30
0
41
1
10
47.413751235934
20
3.49470324653206
30
0
41
1
10
47.412672177763
20
3.49583563672263
30
0
41
1
10
47.4093294621543
20
3.49960020318888
30
0
41
1
10
47.4089141046153
20
3.50072336775352
30
0
41
1
10
47.4121796677014
20
3.49993601178689
30
0
41
1
10
47.4157205030386
20
3.49807621720461
30
0
41
1
10
47.4286193391024
20
3.49029978691095
30
0
41
1
10
47.4377115192765
20
3.48447657881004
30
0
41
1
10
47.4616371542863
20
3.46878255840476
30
0
41
1
10
47.4756315865434
20
3.45946012653656
30
0
41
1
10
47.5125649000446
20
3.43463704002027
30
0
41
1
10
47.5337816500074
20
3.420273052734
30
0
41
1
10
47.5823673939111
20
3.38721085791857
30
0
41
1
10
47.6082439502283
20
3.369529847306
30
0
41
1
10
47.6704280219857
20
3.32679754960986
30
0
41
1
10
47.7041337405844
20
3.30350474906296
30
0
41
1
10
47.7765240524149
20
3.25305351853191
30
0
41
1
10
47.8132650903886
20
3.22727305842407
30
0
41
1
10
47.8972075734441
20
3.16750708186723
30
0
41
1
10
47.9405823153835
20
3.13614448112131
30
0
41
1
10
48.0306273320588
20
3.06950062076744
30
0
41
1
10
48.0753909115857
20
3.03566196816381
30
0
41
1
10
48.1899023585829
20
2.94520671261321
30
0
41
1
10
48.2561175058282
20
2.88991474137169
30
0
41
1
10
48.3664535960492
20
2.78308752278392
30
0
41
1
10
48.4110152416862
20
2.73488254323762
30
0
41
1
10
48.4859320353592
20
2.63100457986492
30
0
41
1
10
48.5164161296144
20
2.57518387391329
30
0
41
1
10
48.5450838211279
20
2.47606267790704
30
0
41
1
10
48.5504868031099
20
2.43771149132494
30
0
41
1
10
48.5511813478772
20
2.37915450724643
30
0
41
1
10
48.5501428437325
20
2.3600562667026
30
0
41
1
10
48.5441562274081
20
2.30432216328651
30
0
41
1
10
48.5365469516952
20
2.26877247872841
30
0
41
1
10
48.5124342239689
20
2.18688760968186
30
0
41
1
10
48.4946648801308
20
2.14312716979129
30
0
41
1
10
48.4467855069501
20
2.04307383290049
30
0
41
1
10
48.4162389600716
20
1.99112234983647
30
0
41
1
10
48.3395796782108
20
1.87578350975421
30
0
41
1
10
48.2944913792995
20
1.81854893094761
30
0
41
1
10
48.2168587714061
20
1.73357371747395
30
0
41
1
10
48.1870487795464
20
1.70449664126645
30
0
41
1
10
48.1275881405081
20
1.65354018976242
30
0
41
1
10
48.0997636255993
20
1.63305933460528
30
0
41
1
10
48.0452284562125
20
1.60141261276312
30
0
41
1
10
48.0226354514564
20
1.59182148787452
30
0
41
1
10
47.9787364716077
20
1.58108450188797
30
0
41
1
10
47.9594382388579
20
1.58040260666696
30
0
41
1
10
47.9243991540493
20
1.58975602735175
30
0
41
1
10
47.911116293525
20
1.59794029563472
30
0
41
1
10
47.887234345218
20
1.62299256987229
30
0
41
1
10
47.8777556528212
20
1.63871899248721
30
0
41
1
10
47.8606947338502
20
1.68363496569603
30
0
41
1
10
47.8550791449862
20
1.70982502345208
30
0
41
1
10
47.8513864076161
20
1.74183670404285
30
0
0
LINE
5
70
100
AcDbEntity
8
SK1
62
256
6
ByLayer
370
18
48
1
60
0
100
AcDbLine
10
-89.5
20
-5
30
0
11
-90
21
-4.5
31
0
39
0
210
0
220
0
230
1
0
LINE
5
72
100
AcDbEntity
8
SK1
62
256
6
ByLayer
370
18
48
1
60
0
100
AcDbLine
10
-89.5
20
5
30
0
11
-90
21
4.5
31
0
39
0
210
0
220
0
230
1
0
LINE
5
73
100
AcDbEntity
8
SK1
62
256
6
ByLayer
370
18
48
1
60
0
100
AcDbLine
10
-90
20
-4.5
30
0
11
-90
21
4.5
31
0
39
0
210
0
220
0
230
1
0
LINE
5
74
100
AcDbEntity
8
SK1
62
256
6
ByLayer
370
18
48
1
60
0
100
AcDbLine
10
-89.5
20
5
30
0
11
-89.5
21
-5
31
0
39
0
210
0
220
0
230
1
0
LINE
5
75
100
AcDbEntity
8
1
62
256
6
ByLayer
370
18
48
1
60
0
100
AcDbLine
10
46.472842
20
5.05
30
0
11
38.99462
21
5.05
31
0
39
0
210
0
220
0
230
1
0
LINE
5
77
100
AcDbEntity
8
1
62
256
6
ByLayer
370
18
48
1
60
0
100
AcDbLine
10
46.639835
20
5.0132
30
0
11
46.685602
21
5.040664
31
0
39
0
210
0
220
0
230
1
0
LINE
5
78
100
AcDbEntity
8
1
62
256
6
ByLayer
370
18
48
1
60
0
100
AcDbLine
10
46.472842
20
5.0132
30
0
11
47.354088
21
5.0132
31
0
39
0
210
0
220
0
230
1
0
LINE
5
79
100
AcDbEntity
8
1
62
256
6
ByLayer
370
18
48
1
60
0
100
AcDbLine
10
56.687174
20
4.888254
30
0
11
48.193627
21
4.925318
31
0
39
0
210
0
220
0
230
1
0
LINE
5
7A
100
AcDbEntity
8
1
62
256
6
ByLayer
370
18
48
1
60
0
100
AcDbLine
10
50.482978
20
-4.265533
30
0
11
48.193627
21
4.925318
31
0
39
0
210
0
220
0
230
1
0
LINE
5
7B
100
AcDbEntity
8
1
62
256
6
ByLayer
370
18
48
1
60
0
100
AcDbLine
10
47.090212
20
4.797603
30
0
11
47.413137
21
3.501206
31
0
39
0
210
0
220
0
230
1
0
LINE
5
7C
100
AcDbEntity
8
1
62
256
6
ByLayer
370
18
48
1
60
0
100
AcDbLine
10
49.131451
20
-3.397033
30
0
11
47.896554
21
1.560509
31
0
39
0
210
0
220
0
230
1
0
LINE
5
7D
100
AcDbEntity
8
1
62
256
6
ByLayer
370
18
48
1
60
0
100
AcDbLine
10
38.99462
20
-5.05
30
0
11
38.99462
21
5.05
31
0
39
0
210
0
220
0
230
1
0
LINE
5
7E
100
AcDbEntity
8
1
62
256
6
ByLayer
370
13
48
1
60
0
100
AcDbLine
10
60.199946
20
-5.05
30
0
11
38.99462
21
-5.05
31
0
39
0
210
0
220
0
230
1
0
LINE
5
7F
100
AcDbEntity
8
1
62
256
6
ByLayer
370
18
48
1
60
0
100
AcDbLine
10
38.99462
20
-5
30
0
11
0
21
-5
31
0
39
0
210
0
220
0
230
1
0
LINE
5
80
100
AcDbEntity
8
1
62
256
6
ByLayer
370
18
48
1
60
0
100
AcDbLine
10
38.99462
20
5
30
0
11
0
21
5
31
0
39
0
210
0
220
0
230
1
0
LINE
5
81
100
AcDbEntity
8
1
62
256
6
ByLayer
370
18
48
1
60
0
100
AcDbLine
10
60.24462
20
-5.05
30
0
11
60.24462
21
-0.594648
31
0
39
0
210
0
220
0
230
1
0
LINE
5
82
100
AcDbEntity
8
80
62
256
6
ByLayer
370
18
48
1
60
0
100
AcDbLine
10
0
20
0
30
0
11
-5
21
0
31
0
39
0
210
0
220
0
230
1
0
LINE
5
83
100
AcDbEntity
8
1
62
256
6
ByLayer
370
18
48
1
60
0
100
AcDbLine
10
51.882439
20
1.795521
30
0
11
52.581065
21
2.517591
31
0
39
0
210
0
220
0
230
1
0
LINE
5
84
100
AcDbEntity
8
1
62
256
6
ByLayer
370
18
48
1
60
0
100
AcDbLine
10
52.581065
20
2.517591
30
0
11
57.301369
21
5.24286
31
0
39
0
210
0
220
0
230
1
0
LINE
5
85
100
AcDbEntity
8
1
62
256
6
ByLayer
370
18
48
1
60
0
100
AcDbLine
10
57.301369
20
5.24286
30
0
11
59.271061
21
5.089482
31
0
39
0
210
0
220
0
230
1
0
LINE
5
86
100
AcDbEntity
8
1
62
256
6
ByLayer
370
18
48
1
60
0
100
AcDbLine
10
59.271061
20
5.089482
30
0
11
60.198711
21
6.157358
31
0
39
0
210
0
220
0
230
1
0
LINE
5
87
100
AcDbEntity
8
1
62
256
6
ByLayer
370
18
48
1
60
0
100
AcDbLine
10
60.198711
20
6.157358
30
0
11
60.474729
21
5.191295
31
0
39
0
210
0
220
0
230
1
0
LINE
5
88
100
AcDbEntity
8
1
62
256
6
ByLayer
370
18
48
1
60
0
100
AcDbLine
10
60.474729
20
5.191295
30
0
11
60.474729
21
-0.259242
31
0
39
0
210
0
220
0
230
1
0
LINE
5
89
100
AcDbEntity
8
1
62
256
6
ByLayer
370
18
48
1
60
0
100
AcDbLine
10
60.474729
20
-0.259242
30
0
11
59.357054
21
-1.888357
31
0
39
0
210
0
220
0
230
1
0
LINE
5
8A
100
AcDbEntity
8
1
62
256
6
ByLayer
370
18
48
1
60
0
100
AcDbLine
10
59.357054
20
-1.888357
30
0
11
59.818037
21
-3.225663
31
0
39
0
210
0
220
0
230
1
0
LINE
5
8B
100
AcDbEntity
8
1
62
256
6
ByLayer
370
18
48
1
60
0
100
AcDbLine
10
59.818037
20
-3.225663
30
0
11
58.843393
21
-2.98167
31
0
39
0
210
0
220
0
230
1
0
LINE
5
8C
100
AcDbEntity
8
1
62
256
6
ByLayer
370
18
48
1
60
0
100
AcDbLine
10
58.843393
20
-2.98167
30
0
11
54.123089
21
-0.256401
31
0
39
0
210
0
220
0
230
1
0
LINE
5
8D
100
AcDbEntity
8
1
62
256
6
ByLayer
370
18
48
1
60
0
100
AcDbLine
10
54.123089
20
-0.256401
30
0
11
53.271072
21
1.526091
31
0
39
0
210
0
220
0
230
1
0
LINE
5
8E
100
AcDbEntity
8
1
62
256
6
ByLayer
370
18
48
1
60
0
100
AcDbLine
10
53.271072
20
1.526091
30
0
11
51.882439
21
1.795521
31
0
39
0
210
0
220
0
230
1
0
LINE
5
8F
100
AcDbEntity
8
SK4
62
256
6
ByLayer
370
13
48
0.05
60
0
100
AcDbLine
10
64.531733
20
0
30
0
11
-95
21
0
31
0
39
0
210
0
220
0
230
1
0
LINE
5
91
100
AcDbEntity
8
81
62
256
6
ByLayer
370
18
48
1
60
0
100
AcDbLine
10
65.474729
20
7.075
30
0
11
60.474729
21
7.075
31
0
39
0
210
0
220
0
230
1
0
LINE
5
92
100
AcDbEntity
8
SK1
62
256
6
ByLayer
370
18
48
1
60
0
100
AcDbLine
10
0
20
5
30
0
11
-89.5
21
5
31
0
39
0
210
0
220
0
230
1
0
LINE
5
93
100
AcDbEntity
8
SK1
62
256
6
ByLayer
370
18
48
1
60
0
100
AcDbLine
10
0
20
-5
30
0
11
-89.5
21
-5
31
0
39
0
210
0
220
0
230
1
0
MTEXT
5
9D
100
AcDbEntity
8
SK6
62
256
6
ByLayer
370
18
48
1
60
0
100
AcDbMText
10
-31.944854
20
-16.920561
30
0
210
0
220
0
230
1
1
\W1.1675;R166.0KF-10E-11
40
2.5
41
0
44
0.903614
50
0
71
7
72
5
7
blockfont
0
DIMENSION
5
B0
100
AcDbEntity
8
SK2
62
256
6
ByLayer
370
13
48
1
60
0
100
AcDbDimension
2
DimnDraft3D1
10
5
20
100.061591
30
0
11
-2.413816
21
100.061591
31
0
70
32
71
5
72
1
41
1
210
0
220
0
230
1
3
Standard
100
AcDbAlignedDimension
13
-5
23
90.25
33
0
14
5
24
90.25
34
0
50
0
100
AcDbRotatedDimension
1001
ACAD
1000
DSTYLE
1002
{
1070
   279
1070
     0
1070
   173
1070
     1
1070
   340
1005
A3
1070
   271
1070
     2
1070
   272
1070
     2
1070
    77
1070
     1
1070
    73
1070
     0
1070
   171
1070
     4
1070
   274
1070
     4
1070
   177
1070
     7
1070
   176
1070
     7
1070
   178
1070
     7
1070
    48
1040
0.007874
1070
    41
1041
1.5
1070
   147
1041
0.75
1070
    42
1041
0.75
1070
    44
1041
1.5
1070
   140
1041
1.5
1070
   343
1005
B1
1070
   344
1005
B1
1002
}
0
DIMENSION
5
C6
100
AcDbEntity
8
2
62
256
6
ByLayer
370
13
48
1
60
0
100
AcDbDimension
2
DimnDraft3D2
10
7.075
20
-69.950998
30
0
11
2.367105
21
-69.950998
31
0
70
32
71
5
72
1
41
1
210
0
220
0
230
1
3
Standard
100
AcDbAlignedDimension
13
0
23
-65.281733
33
0
14
7.075
24
-61.224729
34
0
50
0
100
AcDbRotatedDimension
1001
ACAD
1000
DSTYLE
1002
{
1070
   279
1070
     0
1070
   173
1070
     1
1070
   340
1005
A3
1070
   271
1070
     2
1070
   272
1070
     2
1070
    77
1070
     1
1070
    73
1070
     0
1070
   171
1070
     4
1070
   274
1070
     4
1070
   177
1070
     7
1070
   176
1070
     7
1070
   178
1070
     7
1070
    48
1040
0.007874
1070
    41
1041
1.5
1070
   147
1041
0.75
1070
    42
1041
0.75
1070
    44
1041
1.5
1070
   140
1041
1.5
1070
   343
1005
B1
1070
   344
1005
B1
1002
}
0
DIMENSION
5
D4
100
AcDbEntity
8
2
62
256
6
ByLayer
370
13
48
1
60
0
100
AcDbDimension
2
DimnDraft3D3
10
-15.155507
20
60.474729
30
0
11
-15.155507
21
48.201122
31
0
70
32
71
5
72
1
41
1
210
0
220
0
230
1
3
Standard
100
AcDbAlignedDimension
13
-5.8
23
38.99462
33
0
14
-7.825
24
60.474729
34
0
50
90
100
AcDbRotatedDimension
1001
ACAD
1000
DSTYLE
1002
{
1070
    74
1070
     0
1070
   279
1070
     0
1070
   173
1070
     1
1070
   340
1005
A3
1070
   271
1070
     2
1070
   272
1070
     2
1070
    77
1070
     1
1070
    73
1070
     0
1070
   171
1070
     4
1070
   274
1070
     4
1070
   177
1070
     7
1070
   176
1070
     7
1070
   178
1070
     7
1070
    48
1040
0.007874
1070
    41
1041
1.5
1070
   147
1041
0.75
1070
    42
1041
0.75
1070
    44
1041
1.5
1070
   140
1041
1.5
1070
   343
1005
B1
1070
   344
1005
B1
1002
}
0
DIMENSION
5
E2
100
AcDbEntity
8
SK2
62
256
6
ByLayer
370
13
48
1
60
0
100
AcDbDimension
2
DimnDraft3D4
10
-24.911603
20
-90
30
0
11
-24.911603
21
-16.002109
31
0
70
32
71
5
72
1
41
1
210
0
220
0
230
1
3
Standard
100
AcDbAlignedDimension
13
-7.825
23
60.474729
33
0
14
-5.25
24
-90
34
0
50
90
100
AcDbRotatedDimension
1001
ACAD
1000
DSTYLE
1002
{
1070
    74
1070
     0
1070
   279
1070
     0
1070
   173
1070
     1
1070
   340
1005
A3
1070
   271
1070
     2
1070
   272
1070
     2
1070
    77
1070
     1
1070
    73
1070
     0
1070
   171
1070
     4
1070
   274
1070
     4
1070
   177
1070
     7
1070
   176
1070
     7
1070
   178
1070
     7
1070
    48
1040
0.007874
1070
    41
1041
1.5
1070
   147
1041
0.75
1070
    42
1041
0.75
1070
    44
1041
1.5
1070
   140
1041
1.5
1070
   343
1005
B1
1070
   344
1005
B1
1002
}
0
ENDSEC
0
SECTION
2
OBJECTS
0
DICTIONARY
5
14d
330
0
100
AcDbDictionary
280
0
281
1
3
ACAD_GROUP
350
14e
3
ACAD_MLINESTYLE
350
14f
0
DICTIONARY
5
14e
330
0
100
AcDbDictionary
280
0
281
1
0
DICTIONARY
5
14f
330
0
100
AcDbDictionary
280
0
281
1
3
Standard
350
18
0
MLINESTYLE
5
18
330
14f
100
AcDbMlineStyle
2
Standard
70
0
3

62
256
51
90
52
90
71
2
49
-0.5
62
256
6
ByLayer
49
0.5
62
256
6
ByLayer
0
RASTERVARIABLES
5
13b
330

100
AcDbRasterVariables
90
0
70
1
71
1
72
1
0
ENDSEC
0
EOF
