0
SECTION
2
HEADER
9
$ACADVER
1
AC1015
9
$DWGCODEPAGE
3
ANSI_1252
9
$HANDSEED
5
1f1
9
$ANGBASE
50
0
9
$ANGDIR
70
0
9
$ATTMODE
70
1
9
$AUNITS
70
0
9
$AUPREC
70
0
9
$CECOLOR
62
256
9
$CELTSCALE
40
1
9
$CELTYPE
6
ByLayer
9
$CELWEIGHT
370
18
9
$CLAYER
8
0
9
$CMLJUST
70
0
9
$CMLSCALE
40
1
9
$CMLSTYLE
2
Standard
9
$DIMSTYLE
2
Standard
9
$TEXTSIZE
40
0.2
9
$TEXTSTYLE
7
Standard
9
$LUNITS
70
2
9
$LUPREC
70
4
9
$EXTNAMES
290
1
9
$INSUNITS
70
4
9
$LTSCALE
40
1
9
$LWDISPLAY
290
1
9
$PDMODE
70
0
9
$PDSIZE
40
0
9
$PLINEGEN
70
0
0
ENDSEC
0
SECTION
2
CLASSES
0
CLASS
1
RASTERVARIABLES
2
AcDbRasterVariables
3
ISM
90
0
280
0
281
0
0
ENDSEC
0
SECTION
2
TABLES
0
TABLE
2
VPORT
5
1e7
100
AcDbSymbolTable
0
VPORT
5
1
100
AcDbSymbolTableRecord
100
AcDbViewportTableRecord
2
*Active
70
0
10
0
20
0
11
1
21
1
12
-1
22
1
13
0
23
0
14
0.5
24
0.5
15
10
25
10
16
0
26
0
36
1
17
0
27
0
37
0
0
ENDTAB
0
TABLE
2
LTYPE
5
1e8
100
AcDbSymbolTable
0
LTYPE
5
14
100
AcDbSymbolTableRecord
100
AcDbLinetypeTableRecord
70
0
2
ByBlock
3

72
65
73
0
40
0
0
LTYPE
5
15
100
AcDbSymbolTableRecord
100
AcDbLinetypeTableRecord
70
0
2
ByLayer
3

72
65
73
0
40
0
0
LTYPE
5
16
100
AcDbSymbolTableRecord
100
AcDbLinetypeTableRecord
70
0
2
CONTINUOUS
3
Solid line
72
65
73
0
40
0
0
LTYPE
5
6A
100
AcDbSymbolTableRecord
100
AcDbLinetypeTableRecord
70
0
2
CENTER
3
____ _ ____ _ ____ _ ____
72
65
73
4
40
47.5
49
22
74
0
49
-8.5
74
0
49
8.5
74
0
49
-8.5
74
0
0
LTYPE
5
6B
100
AcDbSymbolTableRecord
100
AcDbLinetypeTableRecord
70
0
2
DASHED
3
__ __ __ __ __ __ __ __ __
72
65
73
2
40
25.72
49
12.86
74
0
49
-12.86
74
0
0
ENDTAB
0
TABLE
2
LAYER
5
1e9
100
AcDbSymbolTable
0
LAYER
5
10
100
AcDbSymbolTableRecord
100
AcDbLayerTableRecord
2
0
70
0
62
7
6
CONTINUOUS
290
1
370
-3
390
0
0
LAYER
5
6D
100
AcDbSymbolTableRecord
100
AcDbLayerTableRecord
2
81
70
0
62
-3
6
CONTINUOUS
290
1
370
-3
390
0
0
LAYER
5
6F
100
AcDbSymbolTableRecord
100
AcDbLayerTableRecord
2
80
70
0
62
-6
6
CONTINUOUS
290
1
370
-3
390
0
0
LAYER
5
71
100
AcDbSymbolTableRecord
100
AcDbLayerTableRecord
2
2
70
0
62
7
6
CONTINUOUS
290
1
370
-3
390
0
0
LAYER
5
73
100
AcDbSymbolTableRecord
100
AcDbLayerTableRecord
2
4
70
0
62
-2
6
CENTER
290
1
370
-3
390
0
0
LAYER
5
77
100
AcDbSymbolTableRecord
100
AcDbLayerTableRecord
2
1
70
0
62
4
6
CONTINUOUS
290
1
370
-3
390
0
0
LAYER
5
1d4
100
AcDbSymbolTableRecord
100
AcDbLayerTableRecord
2
SK1
70
0
62
4
6
CONTINUOUS
290
1
370
-3
390
0
0
LAYER
5
1d5
100
AcDbSymbolTableRecord
100
AcDbLayerTableRecord
2
SK6
70
0
62
5
6
CONTINUOUS
290
1
370
-3
390
0
0
LAYER
5
1d6
100
AcDbSymbolTableRecord
100
AcDbLayerTableRecord
2
SK2
70
0
62
7
6
CONTINUOUS
290
1
370
-3
390
0
0
ENDTAB
0
TABLE
2
STYLE
5
1ea
100
AcDbSymbolTable
0
STYLE
5
11
100
AcDbSymbolTableRecord
100
AcDbTextStyleTableRecord
2
Standard
3
txt
70
0
71
0
40
0
41
1
42
0
50
0
0
STYLE
5
11C
100
AcDbSymbolTableRecord
100
AcDbTextStyleTableRecord
2
iso_b_vert
3
simplex.shx
70
0
71
0
40
0
41
1
42
0
50
0
0
STYLE
5
11D
100
AcDbSymbolTableRecord
100
AcDbTextStyleTableRecord
2
DWGDirectTextStyle
3
simplex
70
0
71
0
40
0
41
1
42
0
50
0
0
ENDTAB
0
TABLE
2
DIMSTYLE
5
1eb
100
AcDbSymbolTable
100
AcDbDimStyleTable
0
DIMSTYLE
105
27
100
AcDbSymbolTableRecord
100
AcDbDimStyleTableRecord
2
Standard
70
0
3
<>
41
0.18
42
0.0625
44
0.18
140
0.18
147
0.09
73
0
74
0
77
1
271
2
275
0
278
52
280
0
340
11
0
ENDTAB
0
TABLE
2
VIEW
5
1ec
100
AcDbSymbolTable
0
ENDTAB
0
TABLE
2
UCS
5
1ed
100
AcDbSymbolTable
0
ENDTAB
0
TABLE
2
APPID
5
1ee
100
AcDbSymbolTable
0
APPID
5
12
100
AcDbSymbolTableRecord
100
AcDbRegAppTableRecord
2
ACAD
70
0
0
ENDTAB
0
TABLE
2
BLOCK_RECORD
5
1ef
100
AcDbSymbolTable
0
BLOCK_RECORD
5
1F
100
AcDbSymbolTableRecord
100
AcDbBlockTableRecord
2
*Model_Space
340
0
70
0
0
BLOCK_RECORD
5
1B
100
AcDbSymbolTableRecord
100
AcDbBlockTableRecord
2
*Paper_Space
340
0
70
0
0
BLOCK_RECORD
5
23
100
AcDbSymbolTableRecord
100
AcDbBlockTableRecord
2
*Paper_Space0
340
0
70
0
0
BLOCK_RECORD
5
11F
100
AcDbSymbolTableRecord
100
AcDbBlockTableRecord
2
DimnDraft3D1
340
0
70
0
0
BLOCK_RECORD
5
12E
100
AcDbSymbolTableRecord
100
AcDbBlockTableRecord
2
_CLOSED
340
0
70
0
0
BLOCK_RECORD
5
135
100
AcDbSymbolTableRecord
100
AcDbBlockTableRecord
2
DimnDraft3D2
340
0
70
0
0
BLOCK_RECORD
5
143
100
AcDbSymbolTableRecord
100
AcDbBlockTableRecord
2
DimnDraft3D3
340
0
70
0
0
BLOCK_RECORD
5
151
100
AcDbSymbolTableRecord
100
AcDbBlockTableRecord
2
DimnDraft3D4
340
0
70
0
0
BLOCK_RECORD
5
15F
100
AcDbSymbolTableRecord
100
AcDbBlockTableRecord
2
DimnDraft3D5
340
0
70
0
0
BLOCK_RECORD
5
16D
100
AcDbSymbolTableRecord
100
AcDbBlockTableRecord
2
DimnDraft3D6
340
0
70
0
0
ENDTAB
0
ENDSEC
0
SECTION
2
BLOCKS
0
BLOCK
5
20
100
AcDbEntity
8
0
100
AcDbBlockBegin
2
*Model_Space
70
0
10
0
20
0
30
0
3
*Model_Space
0
ENDBLK
5
21
100
AcDbEntity
8
0
100
AcDbBlockEnd
0
BLOCK
5
1C
100
AcDbEntity
8
0
100
AcDbBlockBegin
2
*Paper_Space
70
0
10
0
20
0
30
0
3
*Paper_Space
0
ENDBLK
5
1D
100
AcDbEntity
8
0
100
AcDbBlockEnd
0
BLOCK
5
24
100
AcDbEntity
8
0
100
AcDbBlockBegin
2
*Paper_Space0
70
0
10
0
20
0
30
0
3
*Paper_Space0
0
ENDBLK
5
25
100
AcDbEntity
8
0
100
AcDbBlockEnd
0
BLOCK
5
12B
100
AcDbEntity
8
0
100
AcDbBlockBegin
2
DimnDraft3D1
70
0
10
0
20
0
30
0
3
DimnDraft3D1
0
MTEXT
5
120
100
AcDbEntity
8
SK2
62
256
6
ByLayer
370
18
48
1
60
0
100
AcDbMText
10
-52.275
20
-3.519079
30
0
210
0
220
0
230
1
1
\W0.6563;16.0
40
4.5
41
0
44
1.084337
50
90
71
7
72
5
7
iso_b_vert
0
LINE
5
122
100
AcDbEntity
8
SK2
62
256
6
ByLayer
370
13
48
1
60
0
100
AcDbLine
10
-42.9
20
8.075
30
0
11
-54.15
21
8.075
31
0
39
0
210
0
220
0
230
1
0
LINE
5
123
100
AcDbEntity
8
SK2
62
256
6
ByLayer
370
13
48
1
60
0
100
AcDbLine
10
-42.9
20
-7.925
30
0
11
-54.15
21
-7.925
31
0
39
0
210
0
220
0
230
1
0
LINE
5
124
100
AcDbEntity
8
SK2
62
256
6
ByLayer
370
13
48
1
60
0
100
AcDbLine
10
-51.15
20
19.325
30
0
11
-51.15
21
-19.175
31
0
39
0
210
0
220
0
230
1
0
LINE
5
125
100
AcDbEntity
8
SK2
62
256
6
ByLayer
370
13
48
1
60
0
100
AcDbLine
10
-51.15
20
8.075
30
0
11
-51.544957
21
11.074999
31
0
39
0
210
0
220
0
230
1
0
LINE
5
126
100
AcDbEntity
8
SK2
62
256
6
ByLayer
370
13
48
1
60
0
100
AcDbLine
10
-51.15
20
8.075
30
0
11
-50.755043
21
11.075001
31
0
39
0
210
0
220
0
230
1
0
LINE
5
127
100
AcDbEntity
8
SK2
62
256
6
ByLayer
370
13
48
1
60
0
100
AcDbLine
10
-51.544957
20
11.074999
30
0
11
-50.755043
21
11.075001
31
0
39
0
210
0
220
0
230
1
0
LINE
5
128
100
AcDbEntity
8
SK2
62
256
6
ByLayer
370
13
48
1
60
0
100
AcDbLine
10
-51.15
20
-7.925
30
0
11
-50.755043
21
-10.924999
31
0
39
0
210
0
220
0
230
1
0
LINE
5
129
100
AcDbEntity
8
SK2
62
256
6
ByLayer
370
13
48
1
60
0
100
AcDbLine
10
-51.15
20
-7.925
30
0
11
-51.544957
21
-10.925001
31
0
39
0
210
0
220
0
230
1
0
LINE
5
12A
100
AcDbEntity
8
SK2
62
256
6
ByLayer
370
13
48
1
60
0
100
AcDbLine
10
-50.755043
20
-10.924999
30
0
11
-51.544957
21
-10.925001
31
0
39
0
210
0
220
0
230
1
0
ENDBLK
5
12C
100
AcDbEntity
8
0
100
AcDbBlockEnd
0
BLOCK
5
12F
100
AcDbEntity
8
0
100
AcDbBlockBegin
2
_CLOSED
70
0
10
0
20
0
30
0
3
_CLOSED
0
LINE
5
131
100
AcDbEntity
8
0
62
256
6
ByLayer
370
-2
48
1
60
0
100
AcDbLine
10
-1
20
0.166667
30
0
11
0
21
0
31
0
39
0
210
0
220
0
230
1
0
LINE
5
132
100
AcDbEntity
8
0
62
256
6
ByLayer
370
-2
48
1
60
0
100
AcDbLine
10
0
20
0
30
0
11
-1
21
-0.166667
31
0
39
0
210
0
220
0
230
1
0
LINE
5
133
100
AcDbEntity
8
0
62
256
6
ByLayer
370
-2
48
1
60
0
100
AcDbLine
10
-1
20
0.166667
30
0
11
-1
21
-0.166667
31
0
39
0
210
0
220
0
230
1
0
LINE
5
134
100
AcDbEntity
8
0
62
256
6
ByLayer
370
-2
48
1
60
0
100
AcDbLine
10
0
20
0
30
0
11
-1
21
0
31
0
39
0
210
0
220
0
230
1
0
ENDBLK
5
130
100
AcDbEntity
8
0
100
AcDbBlockEnd
0
BLOCK
5
140
100
AcDbEntity
8
0
100
AcDbBlockBegin
2
DimnDraft3D2
70
0
10
0
20
0
30
0
3
DimnDraft3D2
0
MTEXT
5
136
100
AcDbEntity
8
2
62
256
6
ByLayer
370
18
48
1
60
0
100
AcDbMText
10
41.725
20
19.7
30
0
210
0
220
0
230
1
1
\W0.7121;2.5
40
4.5
41
0
44
1.084337
50
90
71
7
72
5
7
iso_b_vert
0
LINE
5
137
100
AcDbEntity
8
2
62
256
6
ByLayer
370
13
48
1
60
0
100
AcDbLine
10
30.1
20
5.575
30
0
11
45.85
21
5.575
31
0
39
0
210
0
220
0
230
1
0
LINE
5
138
100
AcDbEntity
8
2
62
256
6
ByLayer
370
13
48
1
60
0
100
AcDbLine
10
30.1
20
8.075
30
0
11
45.85
21
8.075
31
0
39
0
210
0
220
0
230
1
0
LINE
5
139
100
AcDbEntity
8
2
62
256
6
ByLayer
370
13
48
1
60
0
100
AcDbLine
10
42.85
20
25.775
30
0
11
42.85
21
-5.675
31
0
39
0
210
0
220
0
230
1
0
LINE
5
13A
100
AcDbEntity
8
2
62
256
6
ByLayer
370
13
48
1
60
0
100
AcDbLine
10
42.85
20
5.575
30
0
11
43.244957
21
2.575001
31
0
39
0
210
0
220
0
230
1
0
LINE
5
13B
100
AcDbEntity
8
2
62
256
6
ByLayer
370
13
48
1
60
0
100
AcDbLine
10
42.85
20
5.575
30
0
11
42.455043
21
2.574999
31
0
39
0
210
0
220
0
230
1
0
LINE
5
13C
100
AcDbEntity
8
2
62
256
6
ByLayer
370
13
48
1
60
0
100
AcDbLine
10
43.244957
20
2.575001
30
0
11
42.455043
21
2.574999
31
0
39
0
210
0
220
0
230
1
0
LINE
5
13D
100
AcDbEntity
8
2
62
256
6
ByLayer
370
13
48
1
60
0
100
AcDbLine
10
42.85
20
8.075
30
0
11
42.455043
21
11.074999
31
0
39
0
210
0
220
0
230
1
0
LINE
5
13E
100
AcDbEntity
8
2
62
256
6
ByLayer
370
13
48
1
60
0
100
AcDbLine
10
42.85
20
8.075
30
0
11
43.244957
21
11.075001
31
0
39
0
210
0
220
0
230
1
0
LINE
5
13F
100
AcDbEntity
8
2
62
256
6
ByLayer
370
13
48
1
60
0
100
AcDbLine
10
42.455043
20
11.074999
30
0
11
43.244957
21
11.075001
31
0
39
0
210
0
220
0
230
1
0
ENDBLK
5
141
100
AcDbEntity
8
0
100
AcDbBlockEnd
0
BLOCK
5
14E
100
AcDbEntity
8
0
100
AcDbBlockBegin
2
DimnDraft3D3
70
0
10
0
20
0
30
0
3
DimnDraft3D3
0
MTEXT
5
144
100
AcDbEntity
8
2
62
256
6
ByLayer
370
18
48
1
60
0
100
AcDbMText
10
51.725
20
-3.519079
30
0
210
0
220
0
230
1
1
\W0.6563;16.0
40
4.5
41
0
44
1.084337
50
90
71
7
72
5
7
iso_b_vert
0
LINE
5
145
100
AcDbEntity
8
2
62
256
6
ByLayer
370
13
48
1
60
0
100
AcDbLine
10
30.1
20
8.075
30
0
11
55.85
21
8.075
31
0
39
0
210
0
220
0
230
1
0
LINE
5
146
100
AcDbEntity
8
2
62
256
6
ByLayer
370
13
48
1
60
0
100
AcDbLine
10
1.5
20
-7.925
30
0
11
55.85
21
-7.925
31
0
39
0
210
0
220
0
230
1
0
LINE
5
147
100
AcDbEntity
8
2
62
256
6
ByLayer
370
13
48
1
60
0
100
AcDbLine
10
52.85
20
19.325
30
0
11
52.85
21
-19.175
31
0
39
0
210
0
220
0
230
1
0
LINE
5
148
100
AcDbEntity
8
2
62
256
6
ByLayer
370
13
48
1
60
0
100
AcDbLine
10
52.85
20
8.075
30
0
11
52.455043
21
11.074999
31
0
39
0
210
0
220
0
230
1
0
LINE
5
149
100
AcDbEntity
8
2
62
256
6
ByLayer
370
13
48
1
60
0
100
AcDbLine
10
52.85
20
8.075
30
0
11
53.244957
21
11.075001
31
0
39
0
210
0
220
0
230
1
0
LINE
5
14A
100
AcDbEntity
8
2
62
256
6
ByLayer
370
13
48
1
60
0
100
AcDbLine
10
52.455043
20
11.074999
30
0
11
53.244957
21
11.075001
31
0
39
0
210
0
220
0
230
1
0
LINE
5
14B
100
AcDbEntity
8
2
62
256
6
ByLayer
370
13
48
1
60
0
100
AcDbLine
10
52.85
20
-7.925
30
0
11
53.244957
21
-10.924999
31
0
39
0
210
0
220
0
230
1
0
LINE
5
14C
100
AcDbEntity
8
2
62
256
6
ByLayer
370
13
48
1
60
0
100
AcDbLine
10
52.85
20
-7.925
30
0
11
52.455043
21
-10.925001
31
0
39
0
210
0
220
0
230
1
0
LINE
5
14D
100
AcDbEntity
8
2
62
256
6
ByLayer
370
13
48
1
60
0
100
AcDbLine
10
53.244957
20
-10.924999
30
0
11
52.455043
21
-10.925001
31
0
39
0
210
0
220
0
230
1
0
ENDBLK
5
14F
100
AcDbEntity
8
0
100
AcDbBlockEnd
0
BLOCK
5
15C
100
AcDbEntity
8
0
100
AcDbBlockBegin
2
DimnDraft3D4
70
0
10
0
20
0
30
0
3
DimnDraft3D4
0
MTEXT
5
152
100
AcDbEntity
8
SK2
62
256
6
ByLayer
370
18
48
1
60
0
100
AcDbMText
10
-10.556579
20
28.95
30
0
210
0
220
0
230
1
1
\W0.7346;70.0
40
4.5
41
0
44
1.084337
50
0
71
7
72
5
7
iso_b_vert
0
LINE
5
153
100
AcDbEntity
8
SK2
62
256
6
ByLayer
370
13
48
1
60
0
100
AcDbLine
10
28.6
20
9.575
30
0
11
28.6
21
30.825
31
0
39
0
210
0
220
0
230
1
0
LINE
5
154
100
AcDbEntity
8
SK2
62
256
6
ByLayer
370
13
48
1
60
0
100
AcDbLine
10
-41.4
20
9.575
30
0
11
-41.4
21
30.825
31
0
39
0
210
0
220
0
230
1
0
LINE
5
155
100
AcDbEntity
8
SK2
62
256
6
ByLayer
370
13
48
1
60
0
100
AcDbLine
10
28.6
20
27.825
30
0
11
-41.4
21
27.825
31
0
39
0
210
0
220
0
230
1
0
LINE
5
156
100
AcDbEntity
8
SK2
62
256
6
ByLayer
370
13
48
1
60
0
100
AcDbLine
10
28.6
20
27.825
30
0
11
25.600001
21
27.430043
31
0
39
0
210
0
220
0
230
1
0
LINE
5
157
100
AcDbEntity
8
SK2
62
256
6
ByLayer
370
13
48
1
60
0
100
AcDbLine
10
28.6
20
27.825
30
0
11
25.599999
21
28.219957
31
0
39
0
210
0
220
0
230
1
0
LINE
5
158
100
AcDbEntity
8
SK2
62
256
6
ByLayer
370
13
48
1
60
0
100
AcDbLine
10
25.600001
20
27.430043
30
0
11
25.599999
21
28.219957
31
0
39
0
210
0
220
0
230
1
0
LINE
5
159
100
AcDbEntity
8
SK2
62
256
6
ByLayer
370
13
48
1
60
0
100
AcDbLine
10
-41.4
20
27.825
30
0
11
-38.400001
21
28.219957
31
0
39
0
210
0
220
0
230
1
0
LINE
5
15A
100
AcDbEntity
8
SK2
62
256
6
ByLayer
370
13
48
1
60
0
100
AcDbLine
10
-41.4
20
27.825
30
0
11
-38.399999
21
27.430043
31
0
39
0
210
0
220
0
230
1
0
LINE
5
15B
100
AcDbEntity
8
SK2
62
256
6
ByLayer
370
13
48
1
60
0
100
AcDbLine
10
-38.400001
20
28.219957
30
0
11
-38.399999
21
27.430043
31
0
39
0
210
0
220
0
230
1
0
ENDBLK
5
15D
100
AcDbEntity
8
0
100
AcDbBlockEnd
0
BLOCK
5
16A
100
AcDbEntity
8
0
100
AcDbBlockBegin
2
DimnDraft3D5
70
0
10
0
20
0
30
0
3
DimnDraft3D5
0
MTEXT
5
160
100
AcDbEntity
8
2
62
256
6
ByLayer
370
18
48
1
60
0
100
AcDbMText
10
16.505921
20
-21.05
30
0
210
0
220
0
230
1
1
\W0.6563;17.0
40
4.5
41
0
44
1.084337
50
0
71
7
72
5
7
iso_b_vert
0
LINE
5
161
100
AcDbEntity
8
2
62
256
6
ByLayer
370
13
48
1
60
0
100
AcDbLine
10
11.6
20
-9.425
30
0
11
11.6
21
-25.175
31
0
39
0
210
0
220
0
230
1
0
LINE
5
162
100
AcDbEntity
8
2
62
256
6
ByLayer
370
13
48
1
60
0
100
AcDbLine
10
28.6
20
4.075
30
0
11
28.6
21
-25.175
31
0
39
0
210
0
220
0
230
1
0
LINE
5
163
100
AcDbEntity
8
2
62
256
6
ByLayer
370
13
48
1
60
0
100
AcDbLine
10
0.35
20
-22.175
30
0
11
39.85
21
-22.175
31
0
39
0
210
0
220
0
230
1
0
LINE
5
164
100
AcDbEntity
8
2
62
256
6
ByLayer
370
13
48
1
60
0
100
AcDbLine
10
11.6
20
-22.175
30
0
11
8.600001
21
-22.569957
31
0
39
0
210
0
220
0
230
1
0
LINE
5
165
100
AcDbEntity
8
2
62
256
6
ByLayer
370
13
48
1
60
0
100
AcDbLine
10
11.6
20
-22.175
30
0
11
8.599999
21
-21.780043
31
0
39
0
210
0
220
0
230
1
0
LINE
5
166
100
AcDbEntity
8
2
62
256
6
ByLayer
370
13
48
1
60
0
100
AcDbLine
10
8.600001
20
-22.569957
30
0
11
8.599999
21
-21.780043
31
0
39
0
210
0
220
0
230
1
0
LINE
5
167
100
AcDbEntity
8
2
62
256
6
ByLayer
370
13
48
1
60
0
100
AcDbLine
10
28.6
20
-22.175
30
0
11
31.599999
21
-21.780043
31
0
39
0
210
0
220
0
230
1
0
LINE
5
168
100
AcDbEntity
8
2
62
256
6
ByLayer
370
13
48
1
60
0
100
AcDbLine
10
28.6
20
-22.175
30
0
11
31.600001
21
-22.569957
31
0
39
0
210
0
220
0
230
1
0
LINE
5
169
100
AcDbEntity
8
2
62
256
6
ByLayer
370
13
48
1
60
0
100
AcDbLine
10
31.599999
20
-21.780043
30
0
11
31.600001
21
-22.569957
31
0
39
0
210
0
220
0
230
1
0
ENDBLK
5
16B
100
AcDbEntity
8
0
100
AcDbBlockEnd
0
BLOCK
5
178
100
AcDbEntity
8
0
100
AcDbBlockBegin
2
DimnDraft3D6
70
0
10
0
20
0
30
0
3
DimnDraft3D6
0
MTEXT
5
16E
100
AcDbEntity
8
2
62
256
6
ByLayer
370
18
48
1
60
0
100
AcDbMText
10
10.143421
20
18.95
30
0
210
0
220
0
230
1
1
\W0.7346;28.6
40
4.5
41
0
44
1.084337
50
0
71
7
72
5
7
iso_b_vert
0
LINE
5
16F
100
AcDbEntity
8
2
62
256
6
ByLayer
370
13
48
1
60
0
100
AcDbLine
10
28.6
20
8.325
30
0
11
28.6
21
20.825
31
0
39
0
210
0
220
0
230
1
0
LINE
5
170
100
AcDbEntity
8
2
62
256
6
ByLayer
370
13
48
1
60
0
100
AcDbLine
10
0
20
9.575
30
0
11
0
21
20.825
31
0
39
0
210
0
220
0
230
1
0
LINE
5
171
100
AcDbEntity
8
2
62
256
6
ByLayer
370
13
48
1
60
0
100
AcDbLine
10
28.6
20
17.825
30
0
11
0
21
17.825
31
0
39
0
210
0
220
0
230
1
0
LINE
5
172
100
AcDbEntity
8
2
62
256
6
ByLayer
370
13
48
1
60
0
100
AcDbLine
10
28.6
20
17.825
30
0
11
25.600001
21
17.430043
31
0
39
0
210
0
220
0
230
1
0
LINE
5
173
100
AcDbEntity
8
2
62
256
6
ByLayer
370
13
48
1
60
0
100
AcDbLine
10
28.6
20
17.825
30
0
11
25.599999
21
18.219957
31
0
39
0
210
0
220
0
230
1
0
LINE
5
174
100
AcDbEntity
8
2
62
256
6
ByLayer
370
13
48
1
60
0
100
AcDbLine
10
25.600001
20
17.430043
30
0
11
25.599999
21
18.219957
31
0
39
0
210
0
220
0
230
1
0
LINE
5
175
100
AcDbEntity
8
2
62
256
6
ByLayer
370
13
48
1
60
0
100
AcDbLine
10
0
20
17.825
30
0
11
2.999999
21
18.219957
31
0
39
0
210
0
220
0
230
1
0
LINE
5
176
100
AcDbEntity
8
2
62
256
6
ByLayer
370
13
48
1
60
0
100
AcDbLine
10
0
20
17.825
30
0
11
3.000001
21
17.430043
31
0
39
0
210
0
220
0
230
1
0
LINE
5
177
100
AcDbEntity
8
2
62
256
6
ByLayer
370
13
48
1
60
0
100
AcDbLine
10
2.999999
20
18.219957
30
0
11
3.000001
21
17.430043
31
0
39
0
210
0
220
0
230
1
0
ENDBLK
5
179
100
AcDbEntity
8
0
100
AcDbBlockEnd
0
ENDSEC
0
SECTION
2
ENTITIES
0
ELLIPSE
5
CB
100
AcDbEntity
8
1
62
256
6
ByLayer
370
18
48
1
60
0
100
AcDbEllipse
10
28.599468
20
15.95173
30
0
11
-1.18931614346272
21
38.1675577074417
31
0
210
0
220
0
230
1
40
0.465308
41
1.84183074509764
42
1.84729574725582
0
ELLIPSE
5
CC
100
AcDbEntity
8
1
62
256
6
ByLayer
370
18
48
1
60
0
100
AcDbEllipse
10
10.46679
20
6.053409
30
0
11
-0.0901883551487772
21
2.89478016560904
31
0
210
0
220
0
230
1
40
0.465315
41
-1.95770252911387
42
-1.6236041232343
0
ELLIPSE
5
CD
100
AcDbEntity
8
1
62
256
6
ByLayer
370
18
48
1
60
0
100
AcDbEllipse
10
11.538723
20
5.2
30
0
11
-0.469856573185938
21
-0.656147254651582
31
0
210
0
220
0
230
1
40
0.974084
41
-2.53252901305409
42
-0.961732686259588
0
ELLIPSE
5
CE
100
AcDbEntity
8
1
62
256
6
ByLayer
370
18
48
1
60
0
100
AcDbEllipse
10
7.996311
20
0.234576
30
0
11
-3.12985856849857E-16
21
-0.292
31
0
210
0
220
0
230
1
40
0.927184
41
1.30900918493173
42
1.69684708887388
0
ELLIPSE
5
CF
100
AcDbEntity
8
1
62
256
6
ByLayer
370
18
48
1
60
0
100
AcDbEllipse
10
8.175503
20
-0.9625
30
0
11
-1.79698900345474E-15
21
-1.6765
31
0
210
0
220
0
230
1
40
0.927184
41
-0.526389323279641
42
0.526389323279636
0
ELLIPSE
5
D0
100
AcDbEntity
8
1
62
256
6
ByLayer
370
18
48
1
60
0
100
AcDbEllipse
10
7.351368
20
-0.9625
30
0
11
1.41335845750459E-15
21
1.2065
31
0
210
0
220
0
230
1
40
0.927184
41
0.0690326334118966
42
0.143432855047764
0
ELLIPSE
5
D1
100
AcDbEntity
8
1
62
256
6
ByLayer
370
18
48
1
60
0
100
AcDbEllipse
10
7.996311
20
-2.159576
30
0
11
-3.12985856849857E-16
21
-0.292
31
0
210
0
220
0
230
1
40
0.927184
41
1.44700144809285
42
1.83258346865806
0
ELLIPSE
5
D2
100
AcDbEntity
8
1
62
256
6
ByLayer
370
18
48
1
60
0
100
AcDbEllipse
10
7.351368
20
-0.9625
30
0
11
1.41335845750459E-15
21
1.2065
31
0
210
0
220
0
230
1
40
0.927184
41
-2.09299982855253
42
-1.04859282503727
0
ELLIPSE
5
D3
100
AcDbEntity
8
1
62
256
6
ByLayer
370
18
48
1
60
0
100
AcDbEllipse
10
7.351368
20
-0.9625
30
0
11
1.41335845750459E-15
21
1.2065
31
0
210
0
220
0
230
1
40
0.927184
41
-3.07256002017789
42
-2.09299982855253
0
ELLIPSE
5
D4
100
AcDbEntity
8
1
62
256
6
ByLayer
370
18
48
1
60
0
100
AcDbEllipse
10
7.351368
20
-0.9625
30
0
11
1.41335845750459E-15
21
1.2065
31
0
210
0
220
0
230
1
40
0.927184
41
-1.04859282503727
42
-0.0690326334119038
0
ELLIPSE
5
D5
100
AcDbEntity
8
1
62
256
6
ByLayer
370
18
48
1
60
0
100
AcDbEllipse
10
7.351368
20
0.92206
30
0
11
-7.35302389722609E-16
21
-0.686
31
0
210
0
220
0
230
1
40
0.927184
41
-0.18332667248349
42
-0.12161404121689
0
ELLIPSE
5
D6
100
AcDbEntity
8
1
62
256
6
ByLayer
370
18
48
1
60
0
100
AcDbEllipse
10
8.175503
20
-0.9625
30
0
11
-1.79698900345474E-15
21
-1.6765
31
0
210
0
220
0
230
1
40
0.927184
41
1.5707963267949
42
2.61520333031016
0
ELLIPSE
5
D7
100
AcDbEntity
8
1
62
256
6
ByLayer
370
18
48
1
60
0
100
AcDbEllipse
10
8.175503
20
-0.9625
30
0
11
-1.79698900345474E-15
21
-1.6765
31
0
210
0
220
0
230
1
40
0.927184
41
-1.5707963267949
42
-0.526389323279641
0
ELLIPSE
5
D8
100
AcDbEntity
8
1
62
256
6
ByLayer
370
18
48
1
60
0
100
AcDbEllipse
10
7.351368
20
-2.84706
30
0
11
-7.35302389722609E-16
21
-0.686
31
0
210
0
220
0
230
1
40
0.927184
41
-3.0199786123729
42
-2.95985749801267
0
ELLIPSE
5
D9
100
AcDbEntity
8
1
62
256
6
ByLayer
370
18
48
1
60
0
100
AcDbEllipse
10
8.175503
20
-0.9625
30
0
11
-3.00123424376575E-15
21
-2.8
31
0
210
0
220
0
230
1
40
0.927184
41
0
42
6.28318530717959
0
ELLIPSE
5
DA
100
AcDbEntity
8
1
62
256
6
ByLayer
370
18
48
1
60
0
100
AcDbEllipse
10
8.100582
20
-0.9625
30
0
11
-3.21560811832045E-15
21
-3
31
0
210
0
220
0
230
1
40
0.927184
41
2.48833767272669
42
-2.79396580483705E-16
0
ELLIPSE
5
DB
100
AcDbEntity
8
1
62
256
6
ByLayer
370
18
48
1
60
0
100
AcDbEllipse
10
7.950739
20
-0.9625
30
0
11
-3.21560811832045E-15
21
-3
31
0
210
0
220
0
230
1
40
0.927184
41
3.14159247561718
42
-2.79396580483705E-16
0
ELLIPSE
5
DC
100
AcDbEntity
8
1
62
256
6
ByLayer
370
18
48
1
60
0
100
AcDbEllipse
10
8.175503
20
-0.9625
30
0
11
-1.79698900345474E-15
21
-1.6765
31
0
210
0
220
0
230
1
40
0.927184
41
0.526389323279637
42
1.5707963267949
0
ELLIPSE
5
DD
100
AcDbEntity
8
1
62
256
6
ByLayer
370
18
48
1
60
0
100
AcDbEllipse
10
8.635054
20
-0.9625
30
0
11
-3.12985856849857E-16
21
-0.292
31
0
210
0
220
0
230
1
40
0.927184
41
0.264602181416471
42
2.87699047217332
0
ELLIPSE
5
DE
100
AcDbEntity
8
1
62
256
6
ByLayer
370
18
48
1
60
0
100
AcDbEllipse
10
8.073852
20
-0.9625
30
0
11
1.41335845750459E-15
21
1.2065
31
0
210
0
220
0
230
1
40
0.927184
41
-0.0690326334119038
42
0.069032633411897
0
ELLIPSE
5
DF
100
AcDbEntity
8
1
62
256
6
ByLayer
370
18
48
1
60
0
100
AcDbEllipse
10
8.175503
20
-0.9625
30
0
11
-1.79698900345474E-15
21
-1.6765
31
0
210
0
220
0
230
1
40
0.927184
41
2.61520333031016
42
-2.61520333031015
0
ELLIPSE
5
E0
100
AcDbEntity
8
1
62
256
6
ByLayer
370
18
48
1
60
0
100
AcDbEllipse
10
7.089144
20
-0.9625
30
0
11
1.41335845750459E-15
21
1.2065
31
0
210
0
220
0
230
1
40
0.927184
41
-2.98264801439368
42
-0.117515823928841
0
ELLIPSE
5
E1
100
AcDbEntity
8
1
62
256
6
ByLayer
370
18
48
1
60
0
100
AcDbEllipse
10
8.175503
20
-0.9625
30
0
11
1.96394152839324E-15
21
1.6765
31
0
210
0
220
0
230
1
40
0.927184
41
0.526389323279641
42
1.5707963267949
0
ELLIPSE
5
E2
100
AcDbEntity
8
1
62
256
6
ByLayer
370
18
48
1
60
0
100
AcDbEllipse
10
8.073852
20
-0.9625
30
0
11
1.41335845750459E-15
21
1.2065
31
0
210
0
220
0
230
1
40
0.927184
41
3.0725600201779
42
-3.07256002017789
0
ELLIPSE
5
E3
100
AcDbEntity
8
1
62
256
6
ByLayer
370
18
48
1
60
0
100
AcDbEllipse
10
8.872202
20
-0.018538
30
0
11
-7.35302389722609E-16
21
-0.686
31
0
210
0
220
0
230
1
40
0.927184
41
-1.04859282503727
42
-0.264602181416478
0
ELLIPSE
5
E4
100
AcDbEntity
8
1
62
256
6
ByLayer
370
18
48
1
60
0
100
AcDbEllipse
10
8.872202
20
-1.906462
30
0
11
-7.35302389722609E-16
21
-0.686
31
0
210
0
220
0
230
1
40
0.927184
41
-2.09299982855253
42
-1.30900918493172
0
ELLIPSE
5
E5
100
AcDbEntity
8
1
62
256
6
ByLayer
370
18
48
1
60
0
100
AcDbEllipse
10
8.872202
20
-0.018538
30
0
11
-7.35302389722609E-16
21
-0.686
31
0
210
0
220
0
230
1
40
0.927184
41
-1.83258346865806
42
-1.04859282503727
0
ELLIPSE
5
E6
100
AcDbEntity
8
1
62
256
6
ByLayer
370
18
48
1
60
0
100
AcDbEllipse
10
8.872202
20
-1.906462
30
0
11
-7.35302389722609E-16
21
-0.686
31
0
210
0
220
0
230
1
40
0.927184
41
-2.87699047217332
42
-2.09299982855253
0
ELLIPSE
5
E7
100
AcDbEntity
8
1
62
256
6
ByLayer
370
18
48
1
60
0
100
AcDbEllipse
10
11.378907
20
5.2
30
0
11
9.37162673853094E-16
21
0.800000000000063
31
0
210
0
220
0
230
1
40
0.965288
41
0
42
1.5707963267949
0
ELLIPSE
5
E8
100
AcDbEntity
8
1
62
256
6
ByLayer
370
18
48
1
60
0
100
AcDbEllipse
10
9.364186
20
-0.9625
30
0
11
4.19437608314676
21
5.13645960174214E-16
31
0
210
0
220
0
230
-1
40
0.901606
41
2.47677347073796
42
3.0678600401576
0
ELLIPSE
5
E9
100
AcDbEntity
8
1
62
256
6
ByLayer
370
18
48
1
60
0
100
AcDbEllipse
10
9.364186
20
-0.9625
30
0
11
4.19437608314676
21
5.13645960174214E-16
31
0
210
0
220
0
230
-1
40
0.901606
41
-3.0678600401576
42
-2.47677347073796
0
ELLIPSE
5
EA
100
AcDbEntity
8
1
62
256
6
ByLayer
370
18
48
1
60
0
100
AcDbEllipse
10
8.385786
20
-0.9625
30
0
11
3.42434780800133
21
4.19347808337616E-16
31
0
210
0
220
0
230
-1
40
0.927184
41
-2.31622622467296
42
-2.1480067612071
0
ELLIPSE
5
EB
100
AcDbEntity
8
1
62
256
6
ByLayer
370
18
48
1
60
0
100
AcDbEllipse
10
8.652733
20
5.2
30
0
11
2.13557373004321
21
2.61523715886707E-16
31
0
210
0
220
0
230
-1
40
0.374607
41
-3.14159265358979
42
-1.5707963267949
0
ELLIPSE
5
EC
100
AcDbEntity
8
1
62
256
6
ByLayer
370
18
48
1
60
0
100
AcDbEllipse
10
8.123562
20
-0.9625
30
0
11
3.71936436185417E-15
21
3.175
31
0
210
0
220
0
230
1
40
0.927184
41
-1.00377380862981
42
0.5772104344122
0
ELLIPSE
5
ED
100
AcDbEntity
8
1
62
256
6
ByLayer
370
18
48
1
60
0
100
AcDbEllipse
10
8.059843
20
-0.9625
30
0
11
3.71936436185417E-15
21
3.175
31
0
210
0
220
0
230
1
40
0.927184
41
-3.13075150790541
42
-2.08945320580074
0
ELLIPSE
5
EE
100
AcDbEntity
8
1
62
256
6
ByLayer
370
18
48
1
60
0
100
AcDbEllipse
10
8.123562
20
-0.9625
30
0
11
3.71936436185417E-15
21
3.175
31
0
210
0
220
0
230
1
40
0.927184
41
2.56438221917759
42
-2.13781884495998
0
ELLIPSE
5
EF
100
AcDbEntity
8
1
62
256
6
ByLayer
370
18
48
1
60
0
100
AcDbEllipse
10
8.385786
20
-0.9625
30
0
11
3.42434780800133
21
4.19347808337616E-16
31
0
210
0
220
0
230
-1
40
0.927184
41
2.1480067612071
42
2.31622622467297
0
ELLIPSE
5
F0
100
AcDbEntity
8
1
62
256
6
ByLayer
370
18
48
1
60
0
100
AcDbEllipse
10
10.275024
20
-0.962501
30
0
11
-6.51167902362551E-08
21
-3.17499925964645
31
0
210
0
220
0
230
1
40
0.123837
41
1.00377388885459
42
1.05213953689721
0
ELLIPSE
5
F1
100
AcDbEntity
8
1
62
256
6
ByLayer
370
18
48
1
60
0
100
AcDbEllipse
10
10.275024
20
-0.962499
30
0
11
-6.43130443949597E-08
21
3.17499926881816
31
0
210
0
220
0
230
1
40
0.123837
41
-1.05213953581826
42
-1.00377388788642
0
ELLIPSE
5
F2
100
AcDbEntity
8
1
62
256
6
ByLayer
370
18
48
1
60
0
100
AcDbEllipse
10
8.059843
20
-0.9625
30
0
11
3.71936436185417E-15
21
3.175
31
0
210
0
220
0
230
1
40
0.927184
41
-1.05213944778905
42
-0.0108411456843931
0
POINT
5
6C
100
AcDbEntity
8
81
62
256
6
ByLayer
370
18
48
1
60
0
100
AcDbPoint
10
28.6
20
8.25
30
0
39
0
210
0
220
0
230
1
50
360
0
POINT
5
6E
100
AcDbEntity
8
80
62
256
6
ByLayer
370
18
48
1
60
0
100
AcDbPoint
10
0
20
0
30
0
39
0
210
0
220
0
230
1
50
360
0
POINT
5
70
100
AcDbEntity
8
2
62
256
6
ByLayer
370
18
48
1
60
0
100
AcDbPoint
10
28.6
20
7
30
0
39
0
210
0
220
0
230
1
50
360
0
POINT
5
72
100
AcDbEntity
8
4
62
256
6
ByLayer
370
13
48
1
60
0
100
AcDbPoint
10
5.999783
20
-0.9625
30
0
39
0
210
0
220
0
230
1
50
360
0
SPLINE
5
F3
100
AcDbEntity
8
1
62
256
6
ByLayer
370
18
48
1
60
0
100
AcDbSpline
70
4
71
3
72
29
73
25
40
0
40
0
40
0
40
0
40
0.0263637531482771
40
0.0745834025466771
40
0.122821701936121
40
0.17107310994379
40
0.219350620040899
40
0.267663770312611
40
0.316018027987249
40
0.364414950026314
40
0.412852896989284
40
0.461328009828827
40
0.509835176229463
40
0.558368796775652
40
0.606923263178584
40
0.655493145813149
40
0.704073142309001
40
0.752656124711744
40
0.801236231401501
40
0.849806938981144
40
0.898360974025203
40
0.946890492578581
40
0.995387582494266
40
1
40
1
40
1
40
1
41
1
10
8.10058154374337
20
-3.96249999999924
30
0
41
1
10
8.16195697950627
20
-3.96249298176872
30
0
41
1
10
8.33501540092843
20
-3.95640099641776
30
0
41
1
10
8.61894861908371
20
-3.9178881838584
30
0
41
1
10
8.94559719987075
20
-3.82986042885309
30
0
41
1
10
9.26009461473609
20
-3.70043205750383
30
0
41
1
10
9.55780385531631
20
-3.53148276325743
30
0
41
1
10
9.83449076952328
20
-3.32542486053828
30
0
41
1
10
10.0861723248326
20
-3.08519761116637
30
0
41
1
10
10.3092159701676
20
-2.8142332845463
30
0
41
1
10
10.5003841500283
20
-2.51641556827596
30
0
41
1
10
10.6568896230123
20
-2.19602702787694
30
0
41
1
10
10.7764401455395
20
-1.85768754487876
30
0
41
1
10
10.8572753161223
20
-1.50628615983064
30
0
41
1
10
10.8981942723119
20
-1.14690777465813
30
0
41
1
10
10.8985719102841
20
-0.784761133380783
30
0
41
1
10
10.8583754649986
20
-0.425097920956034
30
0
41
1
10
10.7781428770981
20
-0.073170412113484
30
0
41
1
10
10.659070504902
20
0.265981957944462
30
0
41
1
10
10.5026497943778
20
0.587094507190187
30
0
41
1
10
10.3119463815071
20
0.886670989859709
30
0
41
1
10
10.0867275346147
20
1.1558770053704
30
0
41
1
10
9.91539671546656
20
1.33158307079376
30
0
41
1
10
9.81418599582145
20
1.40677050523559
30
0
41
1
10
9.80533554061572
20
1.41322218394646
30
0
0
SPLINE
5
F4
100
AcDbEntity
8
1
62
256
6
ByLayer
370
18
48
1
60
0
100
AcDbSpline
70
4
71
3
72
10
73
6
40
0
40
0
40
0
40
0
40
0.5
40
0.5
40
1
40
1
40
1
40
1
41
1
10
20.9034098459081
20
5.20000000000181
30
0
41
1
10
20.9034098459081
20
5.22418327783964
30
0
41
1
10
20.9059815322783
20
5.24844919052694
30
0
41
1
10
20.9159447243158
20
5.29595069128894
30
0
41
1
10
20.9232079969191
20
5.31881745896771
30
0
41
1
10
20.9323928994572
20
5.34093973567263
30
0
0
SPLINE
5
F5
100
AcDbEntity
8
1
62
256
6
ByLayer
370
18
48
1
60
0
100
AcDbSpline
70
4
71
3
72
16
73
12
40
0
40
0
40
0
40
0
40
0.0583747311160106
40
0.0583747311160106
40
0.401720261239239
40
0.401720261239239
40
0.650602575258494
40
0.650602575258494
40
0.854377243966508
40
0.854377243966508
40
1
40
1
40
1
40
1
41
1
10
21.808191252139
20
6.00000000000179
30
0
41
1
10
21.7860895722198
20
6.00000000000179
30
0
41
1
10
21.7639785743776
20
5.9992792394398
30
0
41
1
10
21.6136583863846
20
5.98942367236521
30
0
41
1
10
21.4842676780459
20
5.95588517535506
30
0
41
1
10
21.2816930914255
20
5.85277996016544
30
0
41
1
10
21.2006625480788
20
5.79424354817863
30
0
41
1
10
21.0757906890419
20
5.66294612582826
30
0
41
1
10
21.0266429271494
20
5.59309567626531
30
0
41
1
10
20.964276411653
20
5.46142930116426
30
0
41
1
10
20.9443747596386
20
5.40191813993528
30
0
41
1
10
20.9323928994523
20
5.34093973567434
30
0
0
SPLINE
5
F6
100
AcDbEntity
8
1
62
256
6
ByLayer
370
18
48
1
60
0
100
AcDbSpline
70
4
71
3
72
18
73
14
40
0
40
0
40
0
40
0
40
0.0350044757188304
40
0.0350044757188304
40
0.252986460302652
40
0.252986460302652
40
0.442730723709388
40
0.442730723709388
40
0.624356287303223
40
0.624356287303223
40
0.813949530321951
40
0.813949530321951
40
1
40
1
40
1
40
1
41
1
10
12.5109740186168
20
6.0000000000019
30
0
41
1
10
12.4957876070593
20
6.0000000000019
30
0
41
1
10
12.4806042892498
20
5.99959832163191
30
0
41
1
10
12.3723633677777
20
5.99380166261221
30
0
41
1
10
12.2788805040148
20
5.97253530579388
30
0
41
1
10
12.1227021337863
20
5.90399762690026
30
0
41
1
10
12.055462884431
20
5.85947126094669
30
0
41
1
10
11.9463500825958
20
5.75561356869869
30
0
41
1
10
11.9020721565618
20
5.69571248403955
30
0
41
1
10
11.8355125736045
20
5.56499701422973
30
0
41
1
10
11.8133664923395
20
5.49224211168061
30
0
41
1
10
11.7933967932495
20
5.34665595799112
30
0
41
1
10
11.7948566634206
20
5.27239130682094
30
0
41
1
10
11.8065193174763
20
5.20000000000186
30
0
0
SPLINE
5
F7
100
AcDbEntity
8
1
62
256
6
ByLayer
370
18
48
1
60
0
100
AcDbSpline
70
4
71
3
72
8
73
4
40
0
40
0
40
0
40
0
40
1
40
1
40
1
40
1
41
1
10
21.8652941180569
20
7.61978512627377
30
0
41
1
10
21.8097339167057
20
7.74884940973791
30
0
41
1
10
21.7534686246576
20
7.87750539740989
30
0
41
1
10
21.6957222352807
20
8.0052283737117
30
0
0
SPLINE
5
F8
100
AcDbEntity
8
1
62
256
6
ByLayer
370
18
48
1
60
0
100
AcDbSpline
70
4
71
3
72
12
73
8
40
0
40
0
40
0
40
0
40
0.45450625717978
40
0.45450625717978
40
0.909390171545791
40
0.909390171545791
40
1
40
1
40
1
40
1
41
1
10
21.9709581442041
20
6.69218187100697
30
0
41
1
10
22.000143186215
20
6.78064152823893
30
0
41
1
10
22.0168304187582
20
6.87624306321123
30
0
41
1
10
22.022320906006
20
7.0660461135142
30
0
41
1
10
22.0111756814093
20
7.16285211719031
30
0
41
1
10
21.982245950771
20
7.27181596086331
30
0
41
1
10
21.9768566700716
20
7.28993973854165
30
0
41
1
10
21.9709581442041
20
7.3078181289932
30
0
0
SPLINE
5
F9
100
AcDbEntity
8
1
62
256
6
ByLayer
370
18
48
1
60
0
100
AcDbSpline
70
4
71
3
72
8
73
4
40
0
40
0
40
0
40
0
40
1
40
1
40
1
40
1
41
1
10
21.9709581442041
20
7.30781812899318
30
0
41
1
10
21.9410529925629
20
7.39846043345361
30
0
41
1
10
21.9109816087443
20
7.48902693645655
30
0
41
1
10
21.8806801950533
20
7.57948606706626
30
0
0
SPLINE
5
FA
100
AcDbEntity
8
1
62
256
6
ByLayer
370
18
48
1
60
0
100
AcDbSpline
70
4
71
3
72
8
73
4
40
0
40
0
40
0
40
0
40
1
40
1
40
1
40
1
41
1
10
21.6980849868273
20
6.00000000000179
30
0
41
1
10
21.7550018901031
20
6.1260066536253
30
0
41
1
10
21.8104919146317
20
6.25291139128183
30
0
41
1
10
21.8652941180569
20
6.3802148737264
30
0
0
SPLINE
5
FB
100
AcDbEntity
8
1
62
256
6
ByLayer
370
18
48
1
60
0
100
AcDbSpline
70
4
71
3
72
8
73
4
40
0
40
0
40
0
40
0
40
1
40
1
40
1
40
1
41
1
10
21.8806801950535
20
7.57948606706634
30
0
41
1
10
21.8760905646525
20
7.59318753921983
30
0
41
1
10
21.8709489953083
20
7.60664905651987
30
0
41
1
10
21.8652941180571
20
7.61978512627385
30
0
0
SPLINE
5
FC
100
AcDbEntity
8
1
62
256
6
ByLayer
370
18
48
1
60
0
100
AcDbSpline
70
4
71
11
72
24
73
12
40
0
40
0
40
0
40
0
40
0
40
0
40
0
40
0
40
0
40
0
40
0
40
0
40
1
40
1
40
1
40
1
40
1
40
1
40
1
40
1
40
1
40
1
40
1
40
1
41
1
10
22.6221417906777
20
6.17355095289409
30
0
41
1
10
22.6221417906777
20
6.17831094176307
30
0
41
1
10
22.6223164137966
20
6.18307093063109
30
0
41
1
10
22.6226656600443
20
6.18782447516409
30
0
41
1
10
22.6231892339001
20
6.19256513102508
30
0
41
1
10
22.6238865443222
20
6.19728646790207
30
0
41
1
10
22.6247567056198
20
6.2019820835221
30
0
41
1
10
22.6257985391557
20
6.20664561762609
30
0
41
1
10
22.6270105758914
20
6.21127076581109
30
0
41
1
10
22.6283910598517
20
6.21585129321409
30
0
41
1
10
22.6299379523006
20
6.22038104797107
30
0
41
1
10
22.6316489368154
20
6.22485397438507
30
0
0
SPLINE
5
FD
100
AcDbEntity
8
1
62
256
6
ByLayer
370
18
48
1
60
0
100
AcDbSpline
70
4
71
5
72
12
73
6
40
0
40
0
40
0
40
0
40
0
40
0
40
1
40
1
40
1
40
1
40
1
40
1
41
1
10
28.599999999962
20
8.05000000305009
30
0
41
1
10
28.5999780206758
20
8.11455770093008
30
0
41
1
10
28.574073113542
20
8.17923703550008
30
0
41
1
10
28.5216301674297
20
8.22950912960007
30
0
41
1
10
28.4559709934597
20
8.25260362439008
30
0
41
1
10
28.39156217135
20
8.24980964432007
30
0
0
SPLINE
5
FE
100
AcDbEntity
8
1
62
256
6
ByLayer
370
18
48
1
60
0
100
AcDbSpline
70
4
71
5
72
12
73
6
40
0
40
0
40
0
40
0
40
0
40
0
40
1
40
1
40
1
40
1
40
1
40
1
41
1
10
8.62740930501036
20
8.05000000305009
30
0
41
1
10
8.62743128427778
20
8.11455770093011
30
0
41
1
10
8.65333619139273
20
8.17923703550011
30
0
41
1
10
8.70577913750603
20
8.2295091296001
30
0
41
1
10
8.77143831144679
20
8.2526036243901
30
0
41
1
10
8.83584713355856
20
8.2498096443201
30
0
0
SPLINE
5
FF
100
AcDbEntity
8
1
62
256
6
ByLayer
370
18
48
1
60
0
100
AcDbSpline
70
4
71
11
72
24
73
12
40
0
40
0
40
0
40
0
40
0
40
0
40
0
40
0
40
0
40
0
40
0
40
0
40
1
40
1
40
1
40
1
40
1
40
1
40
1
40
1
40
1
40
1
40
1
40
1
41
1
10
22.8944336032583
20
7.00000972980106
30
0
41
1
10
22.8944332787866
20
7.01587547494304
30
0
41
1
10
22.8938509420836
20
7.0317412090576
30
0
41
1
10
22.8926865936284
20
7.0475854548263
30
0
41
1
10
22.8909412187097
20
7.06338673483015
30
0
41
1
10
22.8886167874547
20
7.07912361833087
30
0
41
1
10
22.8857162519609
20
7.09477476803031
30
0
41
1
10
22.8822435406007
20
7.11031898662526
30
0
41
1
10
22.8782035494403
20
7.12573526297516
30
0
41
1
10
22.8736021309246
20
7.14100281769504
30
0
41
1
10
22.8684460797299
20
7.15610114799776
30
0
41
1
10
22.8627431159782
20
7.17101007160309
30
0
0
SPLINE
5
100
100
AcDbEntity
8
1
62
256
6
ByLayer
370
18
48
1
60
0
100
AcDbSpline
70
4
71
5
72
12
73
6
40
0
40
0
40
0
40
0
40
0
40
0
40
1
40
1
40
1
40
1
40
1
40
1
41
1
10
28.599999999962
20
5.94999999695008
30
0
41
1
10
28.5999780206758
20
5.88544229907006
30
0
41
1
10
28.574073113542
20
5.82076296450006
30
0
41
1
10
28.5216301674297
20
5.77049087040007
30
0
41
1
10
28.4559709934597
20
5.74739637561007
30
0
41
1
10
28.39156217135
20
5.75019035568008
30
0
0
SPLINE
5
101
100
AcDbEntity
8
1
62
256
6
ByLayer
370
18
48
1
60
0
100
AcDbSpline
70
4
71
11
72
24
73
12
40
0
40
0
40
0
40
0
40
0
40
0
40
0
40
0
40
0
40
0
40
0
40
0
40
1
40
1
40
1
40
1
40
1
40
1
40
1
40
1
40
1
40
1
40
1
40
1
41
1
10
22.8944336032583
20
7.00000972980106
30
0
41
1
10
22.8944339277752
20
6.98414221560409
30
0
41
1
10
22.8938521102632
20
6.96827469087938
30
0
41
1
10
22.8926881503225
20
6.95242864013039
30
0
41
1
10
22.8909430328026
20
6.93662554799758
30
0
41
1
10
22.8886187278328
20
6.92088685245128
30
0
41
1
10
22.8857181879534
20
6.90523389800589
30
0
41
1
10
22.8822453424194
20
6.88968788913908
30
0
41
1
10
22.8782050886151
20
6.87426984409808
30
0
41
1
10
22.8736032807329
20
6.85900054928109
30
0
41
1
10
22.8684467156191
20
6.84390051437009
30
0
41
1
10
22.8627431159782
20
6.82898992839708
30
0
0
SPLINE
5
102
100
AcDbEntity
8
1
62
256
6
ByLayer
370
18
48
1
60
0
100
AcDbSpline
70
4
71
11
72
24
73
12
40
0
40
0
40
0
40
0
40
0
40
0
40
0
40
0
40
0
40
0
40
0
40
0
40
1
40
1
40
1
40
1
40
1
40
1
40
1
40
1
40
1
40
1
40
1
40
1
41
1
10
22.6221417906777
20
7.82644904710608
30
0
41
1
10
22.6221417906777
20
7.82168905823707
30
0
41
1
10
22.6223164137966
20
7.81692906936908
30
0
41
1
10
22.6226656600443
20
7.81217552483608
30
0
41
1
10
22.6231892339001
20
7.80743486897509
30
0
41
1
10
22.6238865443222
20
7.8027135320981
30
0
41
1
10
22.6247567056198
20
7.79801791647807
30
0
41
1
10
22.6257985391557
20
7.79335438237408
30
0
41
1
10
22.6270105758914
20
7.78872923418908
30
0
41
1
10
22.6283910598517
20
7.78414870678608
30
0
41
1
10
22.6299379523006
20
7.7796189520291
30
0
41
1
10
22.6316489368154
20
7.77514602561507
30
0
0
SPLINE
5
103
100
AcDbEntity
8
1
62
256
6
ByLayer
370
18
48
1
60
0
100
AcDbSpline
70
4
71
3
72
16
73
12
40
0
40
0
40
0
40
0
40
0.062445008261404
40
0.062445008261404
40
0.283207995985753
40
0.283207995985753
40
0.506745688833496
40
0.506745688833496
40
0.744607284736924
40
0.744607284736924
40
1
40
1
40
1
40
1
41
1
10
8.95646825030937
20
0.48704676283765
30
0
41
1
10
8.94970723783911
20
0.491283968774866
30
0
41
1
10
8.94270239223391
20
0.495209251946392
30
0
41
1
10
8.91021688764656
20
0.511394086536711
30
0
41
1
10
8.88202834310192
20
0.519915588629374
30
0
41
1
10
8.82411979046475
20
0.527880001582218
30
0
41
1
10
8.79365325364046
20
0.52733232117987
30
0
41
1
10
8.73263237750285
20
0.517681426718866
30
0
41
1
10
8.70143113036906
20
0.50794293260455
30
0
41
1
10
8.64139973561555
20
0.480261369635201
30
0
41
1
10
8.61217725434858
20
0.461462540379159
30
0
41
1
10
8.58642346338536
20
0.439836787650847
30
0
0
SPLINE
5
104
100
AcDbEntity
8
1
62
256
6
ByLayer
370
18
48
1
60
0
100
AcDbSpline
70
4
71
3
72
18
73
14
40
0
40
0
40
0
40
0
40
0.212491592101867
40
0.212491592101867
40
0.386618191487477
40
0.386618191487477
40
0.562426295049363
40
0.562426295049363
40
0.715388354467613
40
0.715388354467613
40
0.918249128144792
40
0.918249128144792
40
1
40
1
40
1
40
1
41
1
10
9.48918259208327
20
-1.24433741212968
30
0
41
1
10
9.41188052519644
20
-1.26289870693617
30
0
41
1
10
9.33591267855098
20
-1.29288180890984
30
0
41
1
10
9.21141276957189
20
-1.36809652365091
30
0
41
1
10
9.15915545700273
20
-1.41058064341735
30
0
41
1
10
9.07273194896266
20
-1.50904594441172
30
0
41
1
10
9.0377126189255
20
-1.56673628689265
30
0
41
1
10
8.99538071532149
20
-1.67920391071183
30
0
41
1
10
8.98442150492676
20
-1.7346907140367
30
0
41
1
10
8.97827820148632
20
-1.86136233775815
30
0
41
1
10
8.98894774758193
20
-1.93391916155963
30
0
41
1
10
9.01875225534025
20
-2.03000657274467
30
0
41
1
10
9.02916351674662
20
-2.05734444570041
30
0
41
1
10
9.04114795272093
20
-2.0840040417776
30
0
0
SPLINE
5
105
100
AcDbEntity
8
1
62
256
6
ByLayer
370
18
48
1
60
0
100
AcDbSpline
70
4
71
3
72
16
73
12
40
0
40
0
40
0
40
0
40
0.0624450082614086
40
0.0624450082614086
40
0.28320799598578
40
0.28320799598578
40
0.506745688833545
40
0.506745688833545
40
0.744607284736977
40
0.744607284736977
40
1
40
1
40
1
40
1
41
1
10
7.39453747454371
20
-2.41204676283615
30
0
41
1
10
7.40129848701397
20
-2.41628396877334
30
0
41
1
10
7.40817249213222
20
-2.4202092519449
30
0
41
1
10
7.43948193420226
20
-2.43639408653522
30
0
41
1
10
7.46509645255168
20
-2.44491558862785
30
0
41
1
10
7.51494794169051
20
-2.4528800015807
30
0
41
1
10
7.53979741261736
20
-2.45233232117835
30
0
41
1
10
7.58690626744601
20
-2.44268142671737
30
0
41
1
10
7.60949505149688
20
-2.43294293260303
30
0
41
1
10
7.6499150168728
20
-2.40526136963371
30
0
41
1
10
7.66777631063616
20
-2.38646254037766
30
0
41
1
10
7.68165710202982
20
-2.36483678764935
30
0
0
SPLINE
5
106
100
AcDbEntity
8
1
62
256
6
ByLayer
370
18
48
1
60
0
100
AcDbSpline
70
4
71
3
72
12
73
8
40
0
40
0
40
0
40
0
40
0.422118641229808
40
0.422118641229808
40
0.843213633747327
40
0.843213633747327
40
1
40
1
40
1
40
1
41
1
10
8.1510134806264
20
0.241126350896678
30
0
41
1
10
8.21633448879521
20
0.249369588910667
30
0
41
1
10
8.28377356075615
20
0.267962607942053
30
0
41
1
10
8.41026035039002
20
0.320069080281968
30
0
41
1
10
8.4710577960287
20
0.354109359043434
30
0
41
1
10
8.54703130374179
20
0.408082954214649
30
0
41
1
10
8.56710920016707
20
0.423618379996384
30
0
41
1
10
8.58642346338536
20
0.439836787650847
30
0
0
SPLINE
5
107
100
AcDbEntity
8
1
62
256
6
ByLayer
370
18
48
1
60
0
100
AcDbSpline
70
4
71
3
72
12
73
8
40
0
40
0
40
0
40
0
40
0.495785575728962
40
0.495785575728962
40
0.900238279923931
40
0.900238279923931
40
1
40
1
40
1
40
1
41
1
10
8.58642346338536
20
-2.36483678764932
30
0
41
1
10
8.52601131146224
20
-2.31410801295587
30
0
41
1
10
8.45734413111217
20
-2.26962335145234
30
0
41
1
10
8.32503572421425
20
-2.20766073117437
30
0
41
1
10
8.26131837841507
20
-2.1861636506346
30
0
41
1
10
8.18248722605892
20
-2.17066202596416
30
0
41
1
10
8.16670519719651
20
-2.16810657989288
30
0
41
1
10
8.1510134806264
20
-2.16612635089515
30
0
0
SPLINE
5
108
100
AcDbEntity
8
1
62
256
6
ByLayer
370
18
48
1
60
0
100
AcDbSpline
70
4
71
3
72
18
73
14
40
0
40
0
40
0
40
0
40
0.212491695755301
40
0.212491695755301
40
0.386618276853805
40
0.386618276853805
40
0.562426360907933
40
0.562426360907933
40
0.715388416645934
40
0.715388416645934
40
0.918249208689865
40
0.918249208689865
40
1
40
1
40
1
40
1
41
1
10
7.22823562078756
20
-2.08400404177507
30
0
41
1
10
7.23147940604636
20
-2.01544891329809
30
0
41
1
10
7.22604744775686
20
-1.94168502551082
30
0
41
1
10
7.19974206246062
20
-1.80552215337204
30
0
41
1
10
7.18146203809653
20
-1.7419487600803
30
0
41
1
10
7.13383089135993
20
-1.61940553953039
30
0
41
1
10
7.10361710852428
20
-1.55873246432131
30
0
41
1
10
7.04109647661735
20
-1.45879574640296
30
0
41
1
10
7.00883374448134
20
-1.41653177774444
30
0
41
1
10
6.93174242098127
20
-1.33389670569085
30
0
41
1
10
6.88493019628214
20
-1.2970180980578
30
0
41
1
10
6.81884110463957
20
-1.26045067080011
30
0
41
1
10
6.79953906833012
20
-1.25155549173522
30
0
41
1
10
6.78020098142406
20
-1.24433741212968
30
0
0
SPLINE
5
109
100
AcDbEntity
8
1
62
256
6
ByLayer
370
18
48
1
60
0
100
AcDbSpline
70
4
71
3
72
14
73
10
40
0
40
0
40
0
40
0
40
0.283961457856594
40
0.283961457856594
40
0.570284934646621
40
0.570284934646621
40
0.829450869060466
40
0.829450869060466
40
1
40
1
40
1
40
1
41
1
10
9.48918259208327
20
-1.24433741212968
30
0
41
1
10
9.52569852257813
20
-1.23556943245794
30
0
41
1
10
9.56141355654043
20
-1.2208113082084
30
0
41
1
10
9.62518663492375
20
-1.1803155439529
30
0
41
1
10
9.65412910492455
20
-1.15380949330901
30
0
41
1
10
9.69684116234455
20
-1.09543322621533
30
0
41
1
10
9.71238205167268
20
-1.0633956026096
30
0
41
1
10
9.72693550716608
20
-1.00814201087755
30
0
41
1
10
9.72992659460778
20
-0.985229660794829
30
0
41
1
10
9.72992659460778
20
-0.962499999999238
30
0
0
SPLINE
5
10A
100
AcDbEntity
8
1
62
256
6
ByLayer
370
18
48
1
60
0
100
AcDbSpline
70
4
71
3
72
14
73
10
40
0
40
0
40
0
40
0
40
0.283961749036718
40
0.283961749036718
40
0.570285189259032
40
0.570285189259032
40
0.829451094335689
40
0.829451094335689
40
1
40
1
40
1
40
1
41
1
10
7.22823562078756
20
-2.08400404177507
30
0
41
1
10
7.22670332152296
20
-2.11638811302777
30
0
41
1
10
7.22990721025502
20
-2.15132554195816
30
0
41
1
10
7.24666329515571
20
-2.22100421461326
30
0
41
1
10
7.2606150341864
20
-2.25681482284116
30
0
41
1
10
7.29653238698296
20
-2.31940846986953
30
0
41
1
10
7.31819931186294
20
-2.34764373353252
30
0
41
1
10
7.35872581961911
20
-2.38677613243098
30
0
41
1
10
7.37631585744955
20
-2.40062706135265
30
0
41
1
10
7.39453747454371
20
-2.41204676283615
30
0
0
SPLINE
5
10B
100
AcDbEntity
8
1
62
256
6
ByLayer
370
18
48
1
60
0
100
AcDbSpline
70
4
71
3
72
18
73
14
40
0
40
0
40
0
40
0
40
0.212491695754834
40
0.212491695754834
40
0.386618276852953
40
0.386618276852953
40
0.562426360906691
40
0.562426360906691
40
0.715388416644358
40
0.715388416644358
40
0.918249208687837
40
0.918249208687837
40
1
40
1
40
1
40
1
41
1
10
9.0411479527198
20
0.159004041776598
30
0
41
1
10
9.01032998587758
20
0.0904489132996105
30
0
41
1
10
8.98972008901453
20
0.0166850255123165
30
0
41
1
10
8.97800837676252
20
-0.119477846626438
30
0
41
1
10
8.98234191894795
20
-0.183051239918171
30
0
41
1
10
9.01384556590995
20
-0.305594460468086
30
0
41
1
10
9.04198335112523
20
-0.366267535677167
30
0
41
1
10
9.11298751939495
20
-0.466204253595521
30
0
41
1
10
9.15418679266838
20
-0.508468222254038
30
0
41
1
10
9.25972669965876
20
-0.591103294307658
30
0
41
1
10
9.32878950907013
20
-0.627981901940672
30
0
41
1
10
9.42937681797875
20
-0.66454932919865
30
0
41
1
10
9.45912151723644
20
-0.673444508263742
30
0
41
1
10
9.48918259208571
20
-0.680662587869392
30
0
0
SPLINE
5
10C
100
AcDbEntity
8
1
62
256
6
ByLayer
370
18
48
1
60
0
100
AcDbSpline
70
4
71
3
72
14
73
10
40
0
40
0
40
0
40
0
40
0.282169922576103
40
0.282169922576103
40
0.566902245317968
40
0.566902245317968
40
0.824523972080265
40
0.824523972080265
40
1
40
1
40
1
40
1
41
1
10
8.58642346338536
20
-2.36483678764932
30
0
41
1
10
8.61487611375463
20
-2.38872880347839
30
0
41
1
10
8.64762801802277
20
-2.40919095398417
30
0
41
1
10
8.71749097771749
20
-2.43892759952044
30
0
41
1
10
8.75574394145337
20
-2.44850316007202
30
0
41
1
10
8.82775789745145
20
-2.45313981765955
30
0
41
1
10
8.8626874004309
20
-2.44950486817274
30
0
41
1
10
8.91658253504738
20
-2.43333834362809
30
0
41
1
10
8.93754795598056
20
-2.42390433355001
30
0
41
1
10
8.9564682503094
20
-2.41204676283615
30
0
0
SPLINE
5
10D
100
AcDbEntity
8
1
62
256
6
ByLayer
370
18
48
1
60
0
100
AcDbSpline
70
4
71
3
72
16
73
12
40
0
40
0
40
0
40
0
40
0.0569446172825054
40
0.0569446172825054
40
0.279906644834068
40
0.279906644834068
40
0.505321967306683
40
0.505321967306683
40
0.744915047128808
40
0.744915047128808
40
1
40
1
40
1
40
1
41
1
10
7.39453747454371
20
0.487046762837679
30
0
41
1
10
7.38842616670058
20
0.483216734422427
30
0
41
1
10
7.38239508018211
20
0.479124426221887
30
0
41
1
10
7.35347774299009
20
0.457958650749845
30
0
41
1
10
7.3318685537233
20
0.437131063762337
30
0
41
1
10
7.29446677501943
20
0.390861023804291
30
0
41
1
10
7.27824961269064
20
0.364795361716347
30
0
41
1
10
7.25197173462101
20
0.309561963343555
30
0
41
1
10
7.24200829581565
20
0.279621704693937
30
0
41
1
10
7.22928775341882
20
0.219203916954541
30
0
41
1
10
7.22685886858557
20
0.188100734855425
30
0
41
1
10
7.22823562078756
20
0.159004041776626
30
0
0
SPLINE
5
10E
100
AcDbEntity
8
1
62
256
6
ByLayer
370
18
48
1
60
0
100
AcDbSpline
70
4
71
3
72
14
73
10
40
0
40
0
40
0
40
0
40
0.282169922576103
40
0.282169922576103
40
0.566902245317963
40
0.566902245317963
40
0.824523972080268
40
0.824523972080268
40
1
40
1
40
1
40
1
41
1
10
7.68165710202985
20
0.439836787650847
30
0
41
1
10
7.66632167801646
20
0.46372880347991
30
0
41
1
10
7.6460791442945
20
0.484190953985689
30
0
41
1
10
7.59820094687654
20
0.513927599521963
30
0
41
1
10
7.56972889440556
20
0.523503160073545
30
0
41
1
10
7.51205476870106
20
0.528139817661071
30
0
41
1
10
7.48229847947698
20
0.524504868174262
30
0
41
1
10
7.43338165054939
20
0.508338343629617
30
0
41
1
10
7.41345776887249
20
0.498904333551536
30
0
41
1
10
7.39453747454371
20
0.487046762837679
30
0
0
SPLINE
5
10F
100
AcDbEntity
8
1
62
256
6
ByLayer
370
18
48
1
60
0
100
AcDbSpline
70
4
71
3
72
18
73
14
40
0
40
0
40
0
40
0
40
0.212491592102411
40
0.212491592102411
40
0.386618191488473
40
0.386618191488473
40
0.56242629505081
40
0.56242629505081
40
0.715388354469454
40
0.715388354469454
40
0.918249128147157
40
0.918249128147157
40
1
40
1
40
1
40
1
41
1
10
6.78020098142406
20
-0.680662587868795
30
0
41
1
10
6.8299288802105
20
-0.662101293062335
30
0
41
1
10
6.87985488400784
20
-0.632118191088637
30
0
41
1
10
6.96633769484424
20
-0.5569034763476
30
0
41
1
10
7.00464851856825
20
-0.514419356581129
30
0
41
1
10
7.07494451377016
20
-0.415954055586752
30
0
41
1
10
7.1078878398022
20
-0.358263713105856
30
0
41
1
10
7.15870327135372
20
-0.245796089286642
30
0
41
1
10
7.1785990194409
20
-0.190309285961774
30
0
41
1
10
7.21319089874626
20
-0.0636376622403247
30
0
41
1
10
7.22477193241684
20
0.0089191615611242
30
0
41
1
10
7.22946564659645
20
0.10500657274531
30
0
41
1
10
7.22949705821287
20
0.132344445700198
30
0
41
1
10
7.22823562078756
20
0.159004041776598
30
0
0
SPLINE
5
110
100
AcDbEntity
8
1
62
256
6
ByLayer
370
18
48
1
60
0
100
AcDbSpline
70
4
71
3
72
12
73
8
40
0
40
0
40
0
40
0
40
0.495785575728958
40
0.495785575728958
40
0.900238279923939
40
0.900238279923939
40
1
40
1
40
1
40
1
41
1
10
7.68165710202985
20
0.439836787650847
30
0
41
1
10
7.71421807449735
20
0.389108012957365
30
0
41
1
10
7.75652477541934
20
0.344623351453833
30
0
41
1
10
7.85028738532992
20
0.282660731175895
30
0
41
1
10
7.89981637672622
20
0.261163650636121
30
0
41
1
10
7.96827575553436
20
0.245662025965686
30
0
41
1
10
7.98233602202336
20
0.243106579894402
30
0
41
1
10
7.99668977973073
20
0.241126350896678
30
0
0
SPLINE
5
111
100
AcDbEntity
8
1
62
256
6
ByLayer
370
18
48
1
60
0
100
AcDbSpline
70
4
71
3
72
12
73
8
40
0
40
0
40
0
40
0
40
0.42211864122988
40
0.42211864122988
40
0.843213633747401
40
0.843213633747401
40
1
40
1
40
1
40
1
41
1
10
7.99668977973073
20
-2.16612635089515
30
0
41
1
10
7.93693838667775
20
-2.17436958890914
30
0
41
1
10
7.88200929564616
20
-2.19296260794056
30
0
41
1
10
7.78854132989562
20
-2.24506908028047
30
0
41
1
10
7.74851749042699
20
-2.27910935904194
30
0
41
1
10
7.70342936596461
20
-2.33308295421313
30
0
41
1
10
7.69206711347391
20
-2.34861837999489
30
0
41
1
10
7.68165710202985
20
-2.36483678764932
30
0
0
SPLINE
5
112
100
AcDbEntity
8
1
62
256
6
ByLayer
370
18
48
1
60
0
100
AcDbSpline
70
4
71
3
72
16
73
12
40
0
40
0
40
0
40
0
40
0.0630415689509311
40
0.0630415689509311
40
0.285914332024979
40
0.285914332024979
40
0.511588305408906
40
0.511588305408906
40
0.751723061839371
40
0.751723061839371
40
1
40
1
40
1
40
1
41
1
10
6.62107913024533
20
-0.962499999999238
30
0
41
1
10
6.62107913024533
20
-0.970933653832134
30
0
41
1
10
6.6213534039436
20
-0.979376968349669
30
0
41
1
10
6.62381625991742
20
-1.01725379243075
30
0
41
1
10
6.62921355126798
20
-1.04662160876978
30
0
41
1
10
6.64587031020068
20
-1.10086778984257
30
0
41
1
10
6.65739661844606
20
-1.12638454964306
30
0
41
1
10
6.68534039593263
20
-1.17195291650103
30
0
41
1
10
6.7023536505755
20
-1.1921405682524
30
0
41
1
10
6.73926691630601
20
-1.22445144864687
30
0
41
1
10
6.75964772682079
20
-1.23666576246754
30
0
41
1
10
6.78020098142406
20
-1.24433741212968
30
0
0
SPLINE
5
113
100
AcDbEntity
8
1
62
256
6
ByLayer
370
18
48
1
60
0
100
AcDbSpline
70
4
71
3
72
14
73
10
40
0
40
0
40
0
40
0
40
0.283961749036714
40
0.283961749036714
40
0.570285189259026
40
0.570285189259026
40
0.829451094335679
40
0.829451094335679
40
1
40
1
40
1
40
1
41
1
10
9.0411479527198
20
0.159004041776598
30
0
41
1
10
9.05570574374511
20
0.191388113029291
30
0
41
1
10
9.06490393432335
20
0.226325541959682
30
0
41
1
10
9.06988943072415
20
0.296004214614783
30
0
41
1
10
9.06558056610885
20
0.331814822842688
30
0
41
1
10
9.04374470029344
20
0.394408469871053
30
0
41
1
10
9.02712478664651
20
0.422643733534045
30
0
41
1
10
8.99131515494452
20
0.461776132432504
30
0
41
1
10
8.97468986740353
20
0.475627061354174
30
0
41
1
10
8.95646825030937
20
0.48704676283765
30
0
0
SPLINE
5
114
100
AcDbEntity
8
1
62
256
6
ByLayer
370
18
48
1
60
0
100
AcDbSpline
70
4
71
3
72
16
73
12
40
0
40
0
40
0
40
0
40
0.0569446172824997
40
0.0569446172824997
40
0.279906644834055
40
0.279906644834055
40
0.505321967306647
40
0.505321967306647
40
0.744915047128758
40
0.744915047128758
40
1
40
1
40
1
40
1
41
1
10
8.9564682503094
20
-2.41204676283615
30
0
41
1
10
8.96257955815253
20
-2.4082167344209
30
0
41
1
10
8.96850379021819
20
-2.40412442622036
30
0
41
1
10
8.99638006552362
20
-2.38295865074835
30
0
41
1
10
9.01550030164844
20
-2.36213106376081
30
0
41
1
10
9.04500405312274
20
-2.3158610238028
30
0
41
1
10
9.05568434178173
20
-2.28979536171482
30
0
41
1
10
9.06820786214644
20
-2.23456196334203
30
0
41
1
10
9.06964010290895
20
-2.20462170469241
30
0
41
1
10
9.06298464209664
20
-2.14420391695302
30
0
41
1
10
9.05422795041568
20
-2.1131007348539
30
0
41
1
10
9.0411479527198
20
-2.0840040417751
30
0
0
SPLINE
5
115
100
AcDbEntity
8
1
62
256
6
ByLayer
370
18
48
1
60
0
100
AcDbSpline
70
4
71
3
72
16
73
12
40
0
40
0
40
0
40
0
40
0.0630415689509261
40
0.0630415689509261
40
0.285914332024954
40
0.285914332024954
40
0.511588305408863
40
0.511588305408863
40
0.751723061839309
40
0.751723061839309
40
1
40
1
40
1
40
1
41
1
10
9.72992659460778
20
-0.962499999999238
30
0
41
1
10
9.72992659460778
20
-0.954066346166343
30
0
41
1
10
9.72952148128797
20
-0.945623031648807
30
0
41
1
10
9.72588256751197
20
-0.907746207567726
30
0
41
1
10
9.71791125288465
20
-0.878378391228694
30
0
41
1
10
9.69319743591424
20
-0.824132210155938
30
0
41
1
10
9.67605406452637
20
-0.798615450355413
30
0
41
1
10
9.63419827114947
20
-0.753047083497449
30
0
41
1
10
9.60857255621664
20
-0.732859431746078
30
0
41
1
10
9.55241619777883
20
-0.700548551351602
30
0
41
1
10
9.52113264629548
20
-0.688334237530938
30
0
41
1
10
9.48918259208327
20
-0.680662587868795
30
0
0
SPLINE
5
116
100
AcDbEntity
8
1
62
256
6
ByLayer
370
18
48
1
60
0
100
AcDbSpline
70
4
71
3
72
14
73
10
40
0
40
0
40
0
40
0
40
0.283961457856592
40
0.283961457856592
40
0.570284934646623
40
0.570284934646623
40
0.829450869060466
40
0.829450869060466
40
1
40
1
40
1
40
1
41
1
10
6.78020098142406
20
-0.680662587868795
30
0
41
1
10
6.7567105293719
20
-0.689430567540541
30
0
41
1
10
6.73339756249609
20
-0.70418869179008
30
0
41
1
10
6.69136606156709
20
-0.744684456045576
30
0
41
1
10
6.67206647072564
20
-0.771190506689464
30
0
41
1
10
6.64343590915041
20
-0.829566773783142
30
0
41
1
10
6.63294203538058
20
-0.861604397388874
30
0
41
1
10
6.62310546481507
20
-0.916857989120928
30
0
41
1
10
6.62107913024533
20
-0.939770339203648
30
0
41
1
10
6.62107913024533
20
-0.962499999999238
30
0
0
SPLINE
5
117
100
AcDbEntity
8
1
62
256
6
ByLayer
370
18
48
1
60
0
100
AcDbSpline
70
4
71
3
72
8
73
4
40
0
40
0
40
0
40
0
40
1
40
1
40
1
40
1
41
1
10
21.8806801950533
20
6.42051393293391
30
0
41
1
10
21.9109816087443
20
6.51097306354362
30
0
41
1
10
21.9410529925629
20
6.60153956654656
30
0
41
1
10
21.9709581442041
20
6.69218187100697
30
0
0
SPLINE
5
118
100
AcDbEntity
8
1
62
256
6
ByLayer
370
18
48
1
60
0
100
AcDbSpline
70
4
71
3
72
8
73
4
40
0
40
0
40
0
40
0
40
1
40
1
40
1
40
1
41
1
10
21.8652941180571
20
6.38021487372632
30
0
41
1
10
21.8709489953083
20
6.3933509434803
30
0
41
1
10
21.8760905646525
20
6.40681246078034
30
0
41
1
10
21.8806801950535
20
6.42051393293383
30
0
0
SPLINE
5
119
100
AcDbEntity
8
1
62
256
6
ByLayer
370
18
48
1
60
0
100
AcDbSpline
70
4
71
3
72
8
73
4
40
0
40
0
40
0
40
0
40
1
40
1
40
1
40
1
41
1
10
10.6164986576882
20
-2.53639227974017
30
0
41
1
10
10.6192094516271
20
-2.44336742592444
30
0
41
1
10
10.6217325380993
20
-2.34813562000104
30
0
41
1
10
10.6240397692865
20
-2.25109026722421
30
0
0
SPLINE
5
11A
100
AcDbEntity
8
1
62
256
6
ByLayer
370
18
48
1
60
0
100
AcDbSpline
70
4
71
3
72
8
73
4
40
0
40
0
40
0
40
0
40
1
40
1
40
1
40
1
41
1
10
10.624125572154
20
0.322010132547547
30
0
41
1
10
10.621791663204
20
0.420724137663939
30
0
41
1
10
10.6192387792439
20
0.517361005915063
30
0
41
1
10
10.6164986576882
20
0.61139227974212
30
0
0
LINE
5
74
100
AcDbEntity
8
80
62
256
6
ByLayer
370
18
48
1
60
0
100
AcDbLine
10
0
20
0
30
0
11
-5
21
0
31
0
39
0
210
0
220
0
230
1
0
LINE
5
75
100
AcDbEntity
8
81
62
256
6
ByLayer
370
18
48
1
60
0
100
AcDbLine
10
28.6
20
8.25
30
0
11
33.593148
21
8.25
31
0
39
0
210
0
220
0
230
1
0
LINE
5
76
100
AcDbEntity
8
1
62
256
6
ByLayer
370
18
48
1
60
0
100
AcDbLine
10
7.950739
20
-3.9625
30
0
11
8.100582
21
-3.9625
31
0
39
0
210
0
220
0
230
1
0
LINE
5
78
100
AcDbEntity
8
1
62
256
6
ByLayer
370
18
48
1
60
0
100
AcDbLine
10
8.100582
20
2.0375
30
0
11
7.950739
21
2.0375
31
0
39
0
210
0
220
0
230
1
0
LINE
5
79
100
AcDbEntity
8
SK1
62
256
6
ByLayer
370
18
48
1
60
0
100
AcDbLine
10
0
20
-7.925
30
0
11
-0.25
21
-7.925
31
0
39
0
210
0
220
0
230
1
0
LINE
5
7B
100
AcDbEntity
8
1
62
256
6
ByLayer
370
18
48
1
60
0
100
AcDbLine
10
0
20
-7.925
30
0
11
0
21
8.000397
31
0
39
0
210
0
220
0
230
1
0
LINE
5
7C
100
AcDbEntity
8
SK1
62
256
6
ByLayer
370
18
48
1
60
0
100
AcDbLine
10
-41.4
20
8
30
0
11
-41.4
21
-4.951066
31
0
39
0
210
0
220
0
230
1
0
LINE
5
7D
100
AcDbEntity
8
SK1
62
256
6
ByLayer
370
18
48
1
60
0
100
AcDbLine
10
-38.4
20
-7.925
30
0
11
-0.25
21
-7.925
31
0
39
0
210
0
220
0
230
1
0
LINE
5
7E
100
AcDbEntity
8
SK1
62
256
6
ByLayer
370
18
48
1
60
0
100
AcDbLine
10
-0.25
20
8
30
0
11
0
21
8.000397
31
0
39
0
210
0
220
0
230
1
0
LINE
5
7F
100
AcDbEntity
8
SK1
62
256
6
ByLayer
370
18
48
1
60
0
100
AcDbLine
10
-0.25
20
-7.925
30
0
11
-0.25
21
8
31
0
39
0
210
0
220
0
230
1
0
LINE
5
80
100
AcDbEntity
8
SK1
62
256
6
ByLayer
370
18
48
1
60
0
100
AcDbLine
10
0
20
-7.925
30
0
11
0
21
8.000397
31
0
39
0
210
0
220
0
230
1
0
LINE
5
81
100
AcDbEntity
8
SK1
62
256
6
ByLayer
370
18
48
1
60
0
100
AcDbLine
10
-0.25
20
8
30
0
11
-41.4
21
8
31
0
39
0
210
0
220
0
230
1
0
LINE
5
82
100
AcDbEntity
8
SK1
62
256
6
ByLayer
370
18
48
1
60
0
100
AcDbLine
10
-41.4
20
-4.951066
30
0
11
-38.4
21
-7.925
31
0
39
0
210
0
220
0
230
1
0
LINE
5
83
100
AcDbEntity
8
1
62
256
6
ByLayer
370
18
48
1
60
0
100
AcDbLine
10
5
20
8.021817
30
0
11
0.143063
21
8.000624
31
0
39
0
210
0
220
0
230
1
0
LINE
5
84
100
AcDbEntity
8
1
62
256
6
ByLayer
370
18
48
1
60
0
100
AcDbLine
10
0.143063
20
-7.925
30
0
11
0
21
-7.925
31
0
39
0
210
0
220
0
230
1
0
LINE
5
85
100
AcDbEntity
8
1
62
256
6
ByLayer
370
18
48
1
60
0
100
AcDbLine
10
0.143063
20
8.000624
30
0
11
0.143063
21
-7.925
31
0
39
0
210
0
220
0
230
1
0
LINE
5
86
100
AcDbEntity
8
1
62
256
6
ByLayer
370
18
48
1
60
0
100
AcDbLine
10
11.839017
20
5
30
0
11
11.171386
21
5
31
0
39
0
210
0
220
0
230
1
0
LINE
5
87
100
AcDbEntity
8
1
62
256
6
ByLayer
370
18
48
1
60
0
100
AcDbLine
10
20.90341
20
0.299201
30
0
11
11.171386
21
-6.909226
31
0
39
0
210
0
220
0
230
1
0
LINE
5
88
100
AcDbEntity
8
1
62
256
6
ByLayer
370
18
48
1
60
0
100
AcDbLine
10
11.171386
20
5
30
0
11
11.171386
21
-6.909226
31
0
39
0
210
0
220
0
230
1
0
LINE
5
89
100
AcDbEntity
8
1
62
256
6
ByLayer
370
18
48
1
60
0
100
AcDbLine
10
20.90341
20
0.299201
30
0
11
20.90341
21
5.2
31
0
39
0
210
0
220
0
230
1
0
LINE
5
8A
100
AcDbEntity
8
1
62
256
6
ByLayer
370
18
48
1
60
0
100
AcDbLine
10
11.806519
20
5.2
30
0
11
20.90341
21
5.2
31
0
39
0
210
0
220
0
230
1
0
LINE
5
8B
100
AcDbEntity
8
1
62
256
6
ByLayer
370
18
48
1
60
0
100
AcDbLine
10
11.171386
20
5
30
0
11
10.927625
21
5
31
0
39
0
210
0
220
0
230
1
0
LINE
5
8C
100
AcDbEntity
8
1
62
256
6
ByLayer
370
18
48
1
60
0
100
AcDbLine
10
11.171386
20
-6.909226
30
0
11
10.927622
21
-7.08978
31
0
39
0
210
0
220
0
230
1
0
LINE
5
8D
100
AcDbEntity
8
1
62
256
6
ByLayer
370
18
48
1
60
0
100
AcDbLine
10
10.927637
20
-7.089769
30
0
11
10.824394
21
-7.16624
31
0
39
0
210
0
220
0
230
1
0
LINE
5
8E
100
AcDbEntity
8
1
62
256
6
ByLayer
370
18
48
1
60
0
100
AcDbLine
10
10.606676
20
5.2
30
0
11
10.745703
21
5.2
31
0
39
0
210
0
220
0
230
1
0
LINE
5
8F
100
AcDbEntity
8
1
62
256
6
ByLayer
370
18
48
1
60
0
100
AcDbLine
10
10.824394
20
-7.16624
30
0
11
10.824394
21
-1.618815
31
0
39
0
210
0
220
0
230
1
0
LINE
5
90
100
AcDbEntity
8
1
62
256
6
ByLayer
370
18
48
1
60
0
100
AcDbLine
10
10.824394
20
-0.306762
30
0
11
10.824394
21
5
31
0
39
0
210
0
220
0
230
1
0
LINE
5
91
100
AcDbEntity
8
1
62
256
6
ByLayer
370
18
48
1
60
0
100
AcDbLine
10
10.824394
20
-7.16624
30
0
11
10.606676
21
-7.327502
31
0
39
0
210
0
220
0
230
1
0
LINE
5
92
100
AcDbEntity
8
1
62
256
6
ByLayer
370
18
48
1
60
0
100
AcDbLine
10
5
20
8.021817
30
0
11
5
21
-7.925
31
0
39
0
210
0
220
0
230
1
0
LINE
5
93
100
AcDbEntity
8
1
62
256
6
ByLayer
370
18
48
1
60
0
100
AcDbLine
10
15.611646
20
6
30
0
11
15.611646
21
8.021817
31
0
39
0
210
0
220
0
230
1
0
LINE
5
94
100
AcDbEntity
8
1
62
256
6
ByLayer
370
18
48
1
60
0
100
AcDbLine
10
5
20
-7.925
30
0
11
6.517159
21
-7.925
31
0
39
0
210
0
220
0
230
1
0
LINE
5
95
100
AcDbEntity
8
1
62
256
6
ByLayer
370
18
48
1
60
0
100
AcDbLine
10
15.611646
20
8.021817
30
0
11
5
21
8.021817
31
0
39
0
210
0
220
0
230
1
0
LINE
5
96
100
AcDbEntity
8
1
62
256
6
ByLayer
370
18
48
1
60
0
100
AcDbLine
10
8.652733
20
6
30
0
11
15.611646
21
6
31
0
39
0
210
0
220
0
230
1
0
LINE
5
97
100
AcDbEntity
8
1
62
256
6
ByLayer
370
18
48
1
60
0
100
AcDbLine
10
0
20
8.000397
30
0
11
0.143063
21
8.000624
31
0
39
0
210
0
220
0
230
1
0
LINE
5
98
100
AcDbEntity
8
1
62
256
6
ByLayer
370
18
48
1
60
0
100
AcDbLine
10
0.143063
20
-7.925
30
0
11
5
21
-7.925
31
0
39
0
210
0
220
0
230
1
0
LINE
5
99
100
AcDbEntity
8
1
62
256
6
ByLayer
370
18
48
1
60
0
100
AcDbLine
10
10.824394
20
5
30
0
11
10.740774
21
5
31
0
39
0
210
0
220
0
230
1
0
LINE
5
9A
100
AcDbEntity
8
1
62
256
6
ByLayer
370
18
48
1
60
0
100
AcDbLine
10
10.927637
20
5
30
0
11
10.824394
21
5
31
0
39
0
210
0
220
0
230
1
0
LINE
5
9B
100
AcDbEntity
8
1
62
256
6
ByLayer
370
18
48
1
60
0
100
AcDbLine
10
21.774339
20
7.826449
30
0
11
22.622142
21
7.826449
31
0
39
0
210
0
220
0
230
1
0
LINE
5
9C
100
AcDbEntity
8
1
62
256
6
ByLayer
370
18
48
1
60
0
100
AcDbLine
10
11.623298
20
5.87206
30
0
11
11.090721
21
5.848775
31
0
39
0
210
0
220
0
230
1
0
LINE
5
9D
100
AcDbEntity
8
1
62
256
6
ByLayer
370
18
48
1
60
0
100
AcDbLine
10
23.806578
20
8
30
0
11
25.253081
21
8
31
0
39
0
210
0
220
0
230
1
0
LINE
5
9E
100
AcDbEntity
8
1
62
256
6
ByLayer
370
18
48
1
60
0
100
AcDbLine
10
25.604111
20
8.12794
30
0
11
28.391562
21
8.24981
31
0
39
0
210
0
220
0
230
1
0
LINE
5
9F
100
AcDbEntity
8
1
62
256
6
ByLayer
370
18
48
1
60
0
100
AcDbLine
10
28.6
20
5.95
30
0
11
28.6
21
8.05
31
0
39
0
210
0
220
0
230
1
0
LINE
5
A0
100
AcDbEntity
8
1
62
256
6
ByLayer
370
18
48
1
60
0
100
AcDbLine
10
21.996554
20
7.17101
30
0
11
22.862743
21
7.17101
31
0
39
0
210
0
220
0
230
1
0
LINE
5
A1
100
AcDbEntity
8
1
62
256
6
ByLayer
370
18
48
1
60
0
100
AcDbLine
10
25.253081
20
8
30
0
11
25.604111
21
8.12794
31
0
39
0
210
0
220
0
230
1
0
LINE
5
A2
100
AcDbEntity
8
1
62
256
6
ByLayer
370
18
48
1
60
0
100
AcDbLine
10
21.697948
20
8
30
0
11
22.622142
21
8
31
0
39
0
210
0
220
0
230
1
0
LINE
5
A3
100
AcDbEntity
8
1
62
256
6
ByLayer
370
18
48
1
60
0
100
AcDbLine
10
22.622142
20
6
30
0
11
23.806578
21
6
31
0
39
0
210
0
220
0
230
1
0
LINE
5
A4
100
AcDbEntity
8
1
62
256
6
ByLayer
370
18
48
1
60
0
100
AcDbLine
10
22.622142
20
6
30
0
11
22.622142
21
6.173551
31
0
39
0
210
0
220
0
230
1
0
LINE
5
A5
100
AcDbEntity
8
1
62
256
6
ByLayer
370
18
48
1
60
0
100
AcDbLine
10
22.631649
20
6.224854
30
0
11
22.862743
21
6.82899
31
0
39
0
210
0
220
0
230
1
0
LINE
5
A6
100
AcDbEntity
8
1
62
256
6
ByLayer
370
18
48
1
60
0
100
AcDbLine
10
23.806578
20
6
30
0
11
23.806578
21
8
31
0
39
0
210
0
220
0
230
1
0
LINE
5
A7
100
AcDbEntity
8
1
62
256
6
ByLayer
370
18
48
1
60
0
100
AcDbLine
10
8.627409
20
8.021814
30
0
11
8.627409
21
8.05
31
0
39
0
210
0
220
0
230
1
0
LINE
5
A8
100
AcDbEntity
8
1
62
256
6
ByLayer
370
18
48
1
60
0
100
AcDbLine
10
25.253081
20
6
30
0
11
25.604111
21
5.87206
31
0
39
0
210
0
220
0
230
1
0
LINE
5
A9
100
AcDbEntity
8
1
62
256
6
ByLayer
370
18
48
1
60
0
100
AcDbLine
10
22.631649
20
7.775146
30
0
11
22.862743
21
7.17101
31
0
39
0
210
0
220
0
230
1
0
LINE
5
AA
100
AcDbEntity
8
1
62
256
6
ByLayer
370
18
48
1
60
0
100
AcDbLine
10
22.622142
20
8
30
0
11
22.622142
21
7.826449
31
0
39
0
210
0
220
0
230
1
0
LINE
5
AB
100
AcDbEntity
8
1
62
256
6
ByLayer
370
18
48
1
60
0
100
AcDbLine
10
11.914467
20
8.021818
30
0
11
11.623298
21
8.12794
31
0
39
0
210
0
220
0
230
1
0
LINE
5
AC
100
AcDbEntity
8
1
62
256
6
ByLayer
370
18
48
1
60
0
100
AcDbLine
10
11.974328
20
6
30
0
11
11.623298
21
5.87206
31
0
39
0
210
0
220
0
230
1
0
LINE
5
AD
100
AcDbEntity
8
1
62
256
6
ByLayer
370
18
48
1
60
0
100
AcDbLine
10
21.796868
20
7.775146
30
0
11
22.631649
21
7.775146
31
0
39
0
210
0
220
0
230
1
0
LINE
5
AE
100
AcDbEntity
8
1
62
256
6
ByLayer
370
18
48
1
60
0
100
AcDbLine
10
23.806578
20
6
30
0
11
25.253081
21
6
31
0
39
0
210
0
220
0
230
1
0
LINE
5
AF
100
AcDbEntity
8
1
62
256
6
ByLayer
370
18
48
1
60
0
100
AcDbLine
10
21.994675
20
6.82899
30
0
11
22.862743
21
6.82899
31
0
39
0
210
0
220
0
230
1
0
LINE
5
B0
100
AcDbEntity
8
1
62
256
6
ByLayer
370
18
48
1
60
0
100
AcDbLine
10
11.623298
20
8.12794
30
0
11
8.835847
21
8.24981
31
0
39
0
210
0
220
0
230
1
0
LINE
5
B1
100
AcDbEntity
8
1
62
256
6
ByLayer
370
18
48
1
60
0
100
AcDbLine
10
25.604111
20
5.87206
30
0
11
28.391562
21
5.75019
31
0
39
0
210
0
220
0
230
1
0
LINE
5
B2
100
AcDbEntity
8
1
62
256
6
ByLayer
370
18
48
1
60
0
100
AcDbLine
10
22.622142
20
8
30
0
11
23.806578
21
8
31
0
39
0
210
0
220
0
230
1
0
LINE
5
B3
100
AcDbEntity
8
1
62
256
6
ByLayer
370
18
48
1
60
0
100
AcDbLine
10
21.796868
20
6.224854
30
0
11
22.631649
21
6.224854
31
0
39
0
210
0
220
0
230
1
0
LINE
5
B4
100
AcDbEntity
8
1
62
256
6
ByLayer
370
18
48
1
60
0
100
AcDbLine
10
21.774339
20
6.173551
30
0
11
22.622142
21
6.173551
31
0
39
0
210
0
220
0
230
1
0
LINE
5
B5
100
AcDbEntity
8
1
62
256
6
ByLayer
370
18
48
1
60
0
100
AcDbLine
10
21.698075
20
6
30
0
11
22.622142
21
6
31
0
39
0
210
0
220
0
230
1
0
LINE
5
B6
100
AcDbEntity
8
1
62
256
6
ByLayer
370
18
48
1
60
0
100
AcDbLine
10
7.340057
20
0.439837
30
0
11
7.681657
21
0.439837
31
0
39
0
210
0
220
0
230
1
0
LINE
5
B7
100
AcDbEntity
8
1
62
256
6
ByLayer
370
18
48
1
60
0
100
AcDbLine
10
8.705859
20
-0.680663
30
0
11
9.489183
21
-0.680663
31
0
39
0
210
0
220
0
230
1
0
LINE
5
B8
100
AcDbEntity
8
1
62
256
6
ByLayer
370
18
48
1
60
0
100
AcDbLine
10
8.257825
20
0.159004
30
0
11
9.041148
21
0.159004
31
0
39
0
210
0
220
0
230
1
0
LINE
5
B9
100
AcDbEntity
8
1
62
256
6
ByLayer
370
18
48
1
60
0
100
AcDbLine
10
7.337661
20
-2.364837
30
0
11
7.681657
21
-2.364837
31
0
39
0
210
0
220
0
230
1
0
LINE
5
BA
100
AcDbEntity
8
1
62
256
6
ByLayer
370
18
48
1
60
0
100
AcDbLine
10
8.257825
20
-2.084004
30
0
11
9.041148
21
-2.084004
31
0
39
0
210
0
220
0
230
1
0
LINE
5
BB
100
AcDbEntity
8
1
62
256
6
ByLayer
370
18
48
1
60
0
100
AcDbLine
10
7.274207
20
-2.166126
30
0
11
7.99669
21
-2.166126
31
0
39
0
210
0
220
0
230
1
0
LINE
5
BC
100
AcDbEntity
8
1
62
256
6
ByLayer
370
18
48
1
60
0
100
AcDbLine
10
7.99669
20
0.241126
30
0
11
7.274207
21
0.241126
31
0
39
0
210
0
220
0
230
1
0
LINE
5
BD
100
AcDbEntity
8
1
62
256
6
ByLayer
370
18
48
1
60
0
100
AcDbLine
10
8.705859
20
-1.244337
30
0
11
9.489183
21
-1.244337
31
0
39
0
210
0
220
0
230
1
0
LINE
5
BE
100
AcDbEntity
8
1
62
256
6
ByLayer
370
18
48
1
60
0
100
AcDbLine
10
7.996684
20
0.241126
30
0
11
8.151013
21
0.241126
31
0
39
0
210
0
220
0
230
1
0
LINE
5
BF
100
AcDbEntity
8
1
62
256
6
ByLayer
370
18
48
1
60
0
100
AcDbLine
10
8.151013
20
-2.166126
30
0
11
7.996684
21
-2.166126
31
0
39
0
210
0
220
0
230
1
0
LINE
5
C0
100
AcDbEntity
8
1
62
256
6
ByLayer
370
18
48
1
60
0
100
AcDbLine
10
9.8
20
-7.925
30
0
11
10.606676
21
-7.327502
31
0
39
0
210
0
220
0
230
1
0
LINE
5
C1
100
AcDbEntity
8
1
62
256
6
ByLayer
370
18
48
1
60
0
100
AcDbLine
10
6.517159
20
5.2
30
0
11
6.517159
21
1.698112
31
0
39
0
210
0
220
0
230
1
0
LINE
5
C2
100
AcDbEntity
8
1
62
256
6
ByLayer
370
18
48
1
60
0
100
AcDbLine
10
10.606676
20
-2.667865
30
0
11
10.606676
21
-7.327502
31
0
39
0
210
0
220
0
230
1
0
LINE
5
C3
100
AcDbEntity
8
1
62
256
6
ByLayer
370
18
48
1
60
0
100
AcDbLine
10
10.927637
20
-7.089769
30
0
11
10.927637
21
5
31
0
39
0
210
0
220
0
230
1
0
LINE
5
C4
100
AcDbEntity
8
1
62
256
6
ByLayer
370
18
48
1
60
0
100
AcDbLine
10
15.611646
20
6
30
0
11
21.698085
21
6
31
0
39
0
210
0
220
0
230
1
0
LINE
5
C5
100
AcDbEntity
8
1
62
256
6
ByLayer
370
18
48
1
60
0
100
AcDbLine
10
15.611646
20
8.021817
30
0
11
21.695722
21
8.005228
31
0
39
0
210
0
220
0
230
1
0
LINE
5
C6
100
AcDbEntity
8
1
62
256
6
ByLayer
370
18
48
1
60
0
100
AcDbLine
10
10.740774
20
5
30
0
11
10.745703
21
5.2
31
0
39
0
210
0
220
0
230
1
0
LINE
5
C7
100
AcDbEntity
8
1
62
256
6
ByLayer
370
18
48
1
60
0
100
AcDbLine
10
6.517159
20
5.2
30
0
11
10.606676
21
5.2
31
0
39
0
210
0
220
0
230
1
0
LINE
5
C8
100
AcDbEntity
8
1
62
256
6
ByLayer
370
18
48
1
60
0
100
AcDbLine
10
6.517159
20
-3.623112
30
0
11
6.517159
21
-7.925
31
0
39
0
210
0
220
0
230
1
0
LINE
5
C9
100
AcDbEntity
8
1
62
256
6
ByLayer
370
18
48
1
60
0
100
AcDbLine
10
9.8
20
-7.925
30
0
11
6.517159
21
-7.925
31
0
39
0
210
0
220
0
230
1
0
LINE
5
CA
100
AcDbEntity
8
1
62
256
6
ByLayer
370
18
48
1
60
0
100
AcDbLine
10
10.606676
20
5.2
30
0
11
10.606676
21
0.742865
31
0
39
0
210
0
220
0
230
1
0
MTEXT
5
11B
100
AcDbEntity
8
SK6
62
256
6
ByLayer
370
18
48
1
60
0
100
AcDbMText
10
-33.028426
20
-18.711897
30
0
210
0
220
0
230
1
1
\W0.7174;QS-RF123F17-1616B
40
3.5
41
0
44
1.084337
50
0
71
7
72
5
7
iso_b_vert
0
DIMENSION
5
12D
100
AcDbEntity
8
SK2
62
256
6
ByLayer
370
13
48
1
60
0
100
AcDbDimension
2
DimnDraft3D1
10
-51.15
20
-7.925
30
0
11
-51.15
21
-4.644079
31
0
70
32
71
5
72
1
41
1
210
0
220
0
230
1
3
Standard
100
AcDbAlignedDimension
13
-42.9
23
8.075
33
0
14
-42.9
24
-7.925
34
0
50
90
100
AcDbRotatedDimension
1001
ACAD
1000
DSTYLE
1002
{
1070
    74
1070
     0
1070
   279
1070
     0
1070
   172
1070
     1
1070
   173
1070
     1
1070
   340
1005
11C
1070
   271
1070
     3
1070
   272
1070
     3
1070
    77
1070
     1
1070
    73
1070
     0
1070
   171
1070
     4
1070
   274
1070
     4
1070
   177
1070
     2
1070
   176
1070
     2
1070
   178
1070
     7
1070
    78
1070
     8
1070
    41
1041
3.0
1070
   147
1041
2.25
1070
    42
1041
1.5
1070
    44
1041
3.0
1070
   140
1041
4.5
1070
   343
1005
12E
1070
   344
1005
12E
1002
}
0
DIMENSION
5
142
100
AcDbEntity
8
2
62
256
6
ByLayer
370
13
48
1
60
0
100
AcDbDimension
2
DimnDraft3D2
10
42.85
20
8.075
30
0
11
42.85
21
18.575
31
0
70
32
71
5
72
1
41
1
210
0
220
0
230
1
3
Standard
100
AcDbAlignedDimension
13
30.1
23
5.575
33
0
14
30.1
24
8.075
34
0
50
90
100
AcDbRotatedDimension
1001
ACAD
1000
DSTYLE
1002
{
1070
    74
1070
     0
1070
   279
1070
     0
1070
   172
1070
     1
1070
   173
1070
     1
1070
   340
1005
11C
1070
   271
1070
     3
1070
   272
1070
     3
1070
    77
1070
     1
1070
    73
1070
     0
1070
   171
1070
     4
1070
   274
1070
     4
1070
   177
1070
     2
1070
   176
1070
     2
1070
   178
1070
     7
1070
    78
1070
     8
1070
    41
1041
3.0
1070
   147
1041
2.25
1070
    42
1041
1.5
1070
    44
1041
3.0
1070
   140
1041
4.5
1070
   343
1005
12E
1070
   344
1005
12E
1002
}
0
DIMENSION
5
150
100
AcDbEntity
8
2
62
256
6
ByLayer
370
13
48
1
60
0
100
AcDbDimension
2
DimnDraft3D3
10
52.85
20
-7.925
30
0
11
52.85
21
-4.644079
31
0
70
32
71
5
72
1
41
1
210
0
220
0
230
1
3
Standard
100
AcDbAlignedDimension
13
30.1
23
8.075
33
0
14
1.5
24
-7.925
34
0
50
90
100
AcDbRotatedDimension
1001
ACAD
1000
DSTYLE
1002
{
1070
    74
1070
     0
1070
   279
1070
     0
1070
   172
1070
     1
1070
   173
1070
     1
1070
   340
1005
11C
1070
   271
1070
     3
1070
   272
1070
     3
1070
    77
1070
     1
1070
    73
1070
     0
1070
   171
1070
     4
1070
   274
1070
     4
1070
   177
1070
     2
1070
   176
1070
     2
1070
   178
1070
     7
1070
    78
1070
     8
1070
    41
1041
3.0
1070
   147
1041
2.25
1070
    42
1041
1.5
1070
    44
1041
3.0
1070
   140
1041
4.5
1070
   343
1005
12E
1070
   344
1005
12E
1002
}
0
DIMENSION
5
15E
100
AcDbEntity
8
SK2
62
256
6
ByLayer
370
13
48
1
60
0
100
AcDbDimension
2
DimnDraft3D4
10
-41.4
20
27.825
30
0
11
-11.681579
21
27.825
31
0
70
32
71
5
72
1
41
1
210
0
220
0
230
1
3
Standard
100
AcDbAlignedDimension
13
28.6
23
9.575
33
0
14
-41.4
24
9.575
34
0
50
0
100
AcDbRotatedDimension
1001
ACAD
1000
DSTYLE
1002
{
1070
   279
1070
     0
1070
   172
1070
     1
1070
   173
1070
     1
1070
   340
1005
11C
1070
   271
1070
     3
1070
   272
1070
     3
1070
    77
1070
     1
1070
    73
1070
     0
1070
   171
1070
     4
1070
   274
1070
     4
1070
   177
1070
     2
1070
   176
1070
     2
1070
   178
1070
     7
1070
    78
1070
     8
1070
    41
1041
3.0
1070
   147
1041
2.25
1070
    42
1041
1.5
1070
    44
1041
3.0
1070
   140
1041
4.5
1070
   343
1005
12E
1070
   344
1005
12E
1002
}
0
DIMENSION
5
16C
100
AcDbEntity
8
2
62
256
6
ByLayer
370
13
48
1
60
0
100
AcDbDimension
2
DimnDraft3D5
10
28.6
20
-22.175
30
0
11
15.380921
21
-22.175
31
0
70
32
71
5
72
1
41
1
210
0
220
0
230
1
3
Standard
100
AcDbAlignedDimension
13
11.6
23
-9.425
33
0
14
28.6
24
4.075
34
0
50
0
100
AcDbRotatedDimension
1001
ACAD
1000
DSTYLE
1002
{
1070
   279
1070
     0
1070
   172
1070
     1
1070
   173
1070
     1
1070
   340
1005
11C
1070
   271
1070
     3
1070
   272
1070
     3
1070
    77
1070
     1
1070
    73
1070
     0
1070
   171
1070
     4
1070
   274
1070
     4
1070
   177
1070
     2
1070
   176
1070
     2
1070
   178
1070
     7
1070
    78
1070
     8
1070
    41
1041
3.0
1070
   147
1041
2.25
1070
    42
1041
1.5
1070
    44
1041
3.0
1070
   140
1041
4.5
1070
   343
1005
12E
1070
   344
1005
12E
1002
}
0
DIMENSION
5
17A
100
AcDbEntity
8
2
62
256
6
ByLayer
370
13
48
1
60
0
100
AcDbDimension
2
DimnDraft3D6
10
0
20
17.825
30
0
11
9.018421
21
17.825
31
0
70
32
71
5
72
1
41
1
210
0
220
0
230
1
3
Standard
100
AcDbAlignedDimension
13
28.6
23
8.325
33
0
14
0
24
9.575
34
0
50
0
100
AcDbRotatedDimension
1001
ACAD
1000
DSTYLE
1002
{
1070
   279
1070
     0
1070
   172
1070
     1
1070
   173
1070
     1
1070
   340
1005
11C
1070
   271
1070
     3
1070
   272
1070
     3
1070
    77
1070
     1
1070
    73
1070
     0
1070
   171
1070
     4
1070
   274
1070
     4
1070
   177
1070
     2
1070
   176
1070
     2
1070
   178
1070
     7
1070
    78
1070
     8
1070
    41
1041
3.0
1070
   147
1041
2.25
1070
    42
1041
1.5
1070
    44
1041
3.0
1070
   140
1041
4.5
1070
   343
1005
12E
1070
   344
1005
12E
1002
}
0
ENDSEC
0
SECTION
2
OBJECTS
0
DICTIONARY
5
1e4
330
0
100
AcDbDictionary
280
0
281
1
3
ACAD_GROUP
350
1e5
3
ACAD_MLINESTYLE
350
1e6
0
DICTIONARY
5
1e5
330
0
100
AcDbDictionary
280
0
281
1
0
DICTIONARY
5
1e6
330
0
100
AcDbDictionary
280
0
281
1
3
Standard
350
18
0
MLINESTYLE
5
18
330
1e6
100
AcDbMlineStyle
2
Standard
70
0
3

62
256
51
90
52
90
71
2
49
-0.5
62
256
6
ByLayer
49
0.5
62
256
6
ByLayer
0
RASTERVARIABLES
5
1d3
330

100
AcDbRasterVariables
90
0
70
1
71
1
72
1
0
ENDSEC
0
EOF
