  0
SECTION
  2
HEADER
  9
$ACADVER
  1
AC1015
  9
$ACADMAINTVER
 70
    20
  9
$DWGCODEPAGE
  3
ANSI_1252
  9
$INSBASE
 10
0.0
 20
0.0
 30
0.0
  9
$EXTMIN
 10
-93.54732000000002
 20
-34.81053
 30
0.0
  9
$EXTMAX
 10
37.097818
 20
38.670778
 30
0.0
  9
$LIMMIN
 10
0.0
 20
0.0
  9
$LIMMAX
 10
12.0
 20
9.0
  9
$ORTHOMODE
 70
     0
  9
$REGENMODE
 70
     1
  9
$FILLMODE
 70
     1
  9
$QTEXTMODE
 70
     0
  9
$MIRRTEXT
 70
     1
  9
$LTSCALE
 40
1.0
  9
$ATTMODE
 70
     1
  9
$TEXTSIZE
 40
3.0
  9
$TRACEWID
 40
10.0
  9
$TEXTSTYLE
  7
SANDVIK_STYLE
  9
$CLAYER
  8
1
  9
$CELTYPE
  6
ByLayer
  9
$CECOLOR
 62
   256
  9
$CELTSCALE
 40
1.0
  9
$DISPSILH
 70
     0
  9
$DIMSCALE
 40
1.0
  9
$DIMASZ
 40
0.18
  9
$DIMEXO
 40
0.0625
  9
$DIMDLI
 40
0.38
  9
$DIMRND
 40
0.0
  9
$DIMDLE
 40
0.0
  9
$DIMEXE
 40
0.18
  9
$DIMTP
 40
0.0
  9
$DIMTM
 40
0.0
  9
$DIMTXT
 40
0.18
  9
$DIMCEN
 40
0.09
  9
$DIMTSZ
 40
0.0
  9
$DIMTOL
 70
     0
  9
$DIMLIM
 70
     0
  9
$DIMTIH
 70
     1
  9
$DIMTOH
 70
     1
  9
$DIMSE1
 70
     0
  9
$DIMSE2
 70
     0
  9
$DIMTAD
 70
     0
  9
$DIMZIN
 70
     0
  9
$DIMBLK
  1

  9
$DIMASO
 70
     1
  9
$DIMSHO
 70
     1
  9
$DIMPOST
  1

  9
$DIMAPOST
  1

  9
$DIMALT
 70
     0
  9
$DIMALTD
 70
     2
  9
$DIMALTF
 40
25.4
  9
$DIMLFAC
 40
1.0
  9
$DIMTOFL
 70
     0
  9
$DIMTVP
 40
0.0
  9
$DIMTIX
 70
     0
  9
$DIMSOXD
 70
     0
  9
$DIMSAH
 70
     0
  9
$DIMBLK1
  1

  9
$DIMBLK2
  1

  9
$DIMSTYLE
  2
STANDARD
  9
$DIMCLRD
 70
     0
  9
$DIMCLRE
 70
     0
  9
$DIMCLRT
 70
     0
  9
$DIMTFAC
 40
1.0
  9
$DIMGAP
 40
0.09
  9
$DIMJUST
 70
     0
  9
$DIMSD1
 70
     0
  9
$DIMSD2
 70
     0
  9
$DIMTOLJ
 70
     1
  9
$DIMTZIN
 70
     0
  9
$DIMALTZ
 70
     0
  9
$DIMALTTZ
 70
     0
  9
$DIMUPT
 70
     0
  9
$DIMDEC
 70
     4
  9
$DIMTDEC
 70
     4
  9
$DIMALTU
 70
     2
  9
$DIMALTTD
 70
     2
  9
$DIMTXSTY
  7
STANDARD
  9
$DIMAUNIT
 70
     0
  9
$DIMADEC
 70
     0
  9
$DIMALTRND
 40
0.0
  9
$DIMAZIN
 70
     0
  9
$DIMDSEP
 70
    46
  9
$DIMATFIT
 70
     3
  9
$DIMFRAC
 70
     0
  9
$DIMLDRBLK
  1

  9
$DIMLUNIT
 70
     2
  9
$DIMLWD
 70
    -2
  9
$DIMLWE
 70
    -2
  9
$DIMTMOVE
 70
     0
  9
$LUNITS
 70
     2
  9
$LUPREC
 70
     2
  9
$SKETCHINC
 40
0.0
  9
$FILLETRAD
 40
0.0
  9
$AUNITS
 70
     0
  9
$AUPREC
 70
     2
  9
$MENU
  1
acad
  9
$ELEVATION
 40
0.0
  9
$PELEVATION
 40
0.0
  9
$THICKNESS
 40
0.0
  9
$LIMCHECK
 70
     0
  9
$CHAMFERA
 40
0.0
  9
$CHAMFERB
 40
0.0
  9
$CHAMFERC
 40
0.0
  9
$CHAMFERD
 40
0.0
  9
$SKPOLY
 70
     0
  9
$TDCREATE
 40
2456818.633553599
  9
$TDUCREATE
 40
2456818.550220266
  9
$TDUPDATE
 40
2456818.633559468
  9
$TDUUPDATE
 40
2456818.550226135
  9
$TDINDWG
 40
0.0000070139
  9
$TDUSRTIMER
 40
0.0000070139
  9
$USRTIMER
 70
     1
  9
$ANGBASE
 50
0.0
  9
$ANGDIR
 70
     0
  9
$PDMODE
 70
     0
  9
$PDSIZE
 40
0.0
  9
$PLINEWID
 40
0.0
  9
$SPLFRAME
 70
     0
  9
$SPLINETYPE
 70
     6
  9
$SPLINESEGS
 70
     8
  9
$HANDSEED
  5
653
  9
$SURFTAB1
 70
     6
  9
$SURFTAB2
 70
     6
  9
$SURFTYPE
 70
     6
  9
$SURFU
 70
     6
  9
$SURFV
 70
     6
  9
$UCSBASE
  2

  9
$UCSNAME
  2

  9
$UCSORG
 10
0.0
 20
0.0
 30
0.0
  9
$UCSXDIR
 10
1.0
 20
0.0
 30
0.0
  9
$UCSYDIR
 10
0.0
 20
1.0
 30
0.0
  9
$UCSORTHOREF
  2

  9
$UCSORTHOVIEW
 70
     0
  9
$UCSORGTOP
 10
0.0
 20
0.0
 30
0.0
  9
$UCSORGBOTTOM
 10
0.0
 20
0.0
 30
0.0
  9
$UCSORGLEFT
 10
0.0
 20
0.0
 30
0.0
  9
$UCSORGRIGHT
 10
0.0
 20
0.0
 30
0.0
  9
$UCSORGFRONT
 10
0.0
 20
0.0
 30
0.0
  9
$UCSORGBACK
 10
0.0
 20
0.0
 30
0.0
  9
$PUCSBASE
  2

  9
$PUCSNAME
  2

  9
$PUCSORG
 10
0.0
 20
0.0
 30
0.0
  9
$PUCSXDIR
 10
1.0
 20
0.0
 30
0.0
  9
$PUCSYDIR
 10
0.0
 20
1.0
 30
0.0
  9
$PUCSORTHOREF
  2

  9
$PUCSORTHOVIEW
 70
     0
  9
$PUCSORGTOP
 10
0.0
 20
0.0
 30
0.0
  9
$PUCSORGBOTTOM
 10
0.0
 20
0.0
 30
0.0
  9
$PUCSORGLEFT
 10
0.0
 20
0.0
 30
0.0
  9
$PUCSORGRIGHT
 10
0.0
 20
0.0
 30
0.0
  9
$PUCSORGFRONT
 10
0.0
 20
0.0
 30
0.0
  9
$PUCSORGBACK
 10
0.0
 20
0.0
 30
0.0
  9
$USERI1
 70
     0
  9
$USERI2
 70
     0
  9
$USERI3
 70
     0
  9
$USERI4
 70
     0
  9
$USERI5
 70
     0
  9
$USERR1
 40
0.0
  9
$USERR2
 40
0.0
  9
$USERR3
 40
0.0
  9
$USERR4
 40
0.0
  9
$USERR5
 40
0.0
  9
$WORLDVIEW
 70
     1
  9
$SHADEDGE
 70
     3
  9
$SHADEDIF
 70
    70
  9
$TILEMODE
 70
     1
  9
$MAXACTVP
 70
    16
  9
$PINSBASE
 10
0.0
 20
0.0
 30
0.0
  9
$PLIMCHECK
 70
     0
  9
$PEXTMIN
 10
1.000000000000000E+20
 20
1.000000000000000E+20
 30
1.000000000000000E+20
  9
$PEXTMAX
 10
-1.000000000000000E+20
 20
-1.000000000000000E+20
 30
-1.000000000000000E+20
  9
$PLIMMIN
 10
0.0
 20
0.0
  9
$PLIMMAX
 10
12.0
 20
9.0
  9
$UNITMODE
 70
     0
  9
$VISRETAIN
 70
     0
  9
$PLINEGEN
 70
     0
  9
$PSLTSCALE
 70
     1
  9
$TREEDEPTH
 70
  3020
  9
$CMLSTYLE
  2
Standard
  9
$CMLJUST
 70
     0
  9
$CMLSCALE
 40
1.0
  9
$PROXYGRAPHICS
 70
     1
  9
$MEASUREMENT
 70
     0
  9
$CELWEIGHT
370
    -1
  9
$ENDCAPS
280
     0
  9
$JOINSTYLE
280
     0
  9
$LWDISPLAY
290
     0
  9
$INSUNITS
 70
     0
  9
$HYPERLINKBASE
  1

  9
$STYLESHEET
  1

  9
$XEDIT
290
     1
  9
$CEPSNTYPE
380
     0
  9
$PSTYLEMODE
290
     1
  9
$FINGERPRINTGUID
  2
{608295AE-4B50-4AC6-B86B-EBE4A8EC4F32}
  9
$VERSIONGUID
  2
{FFEC8CE8-F0B2-477C-84BB-76CF23A3D8DD}
  9
$EXTNAMES
290
     1
  9
$PSVPSCALE
 40
0.0
  9
$OLESTARTUP
290
     0
  0
ENDSEC
  0
SECTION
  2
CLASSES
  0
CLASS
  1
ACDBDICTIONARYWDFLT
  2
AcDbDictionaryWithDefault
  3
ObjectDBX Classes
 90
        0
280
     0
281
     0
  0
CLASS
  1
MATERIAL
  2
AcDbMaterial
  3
ObjectDBX Classes
 90
     1153
280
     0
281
     0
  0
CLASS
  1
VISUALSTYLE
  2
AcDbVisualStyle
  3
ObjectDBX Classes
 90
     4095
280
     0
281
     0
  0
CLASS
  1
SCALE
  2
AcDbScale
  3
ObjectDBX Classes
 90
     1153
280
     0
281
     0
  0
CLASS
  1
TABLESTYLE
  2
AcDbTableStyle
  3
ObjectDBX Classes
 90
     4095
280
     0
281
     0
  0
CLASS
  1
MLEADERSTYLE
  2
AcDbMLeaderStyle
  3
ACDB_MLEADERSTYLE_CLASS
 90
     4095
280
     0
281
     0
  0
CLASS
  1
ACDBSECTIONVIEWSTYLE
  2
AcDbSectionViewStyle
  3
ObjectDBX Classes
 90
     1025
280
     0
281
     0
  0
CLASS
  1
ACDBDETAILVIEWSTYLE
  2
AcDbDetailViewStyle
  3
ObjectDBX Classes
 90
     1025
280
     0
281
     0
  0
CLASS
  1
EXACXREFPANELOBJECT
  2
ExAcXREFPanelObject
  3
EXAC_ESW
 90
     1025
280
     0
281
     0
  0
CLASS
  1
NPOCOLLECTION
  2
AcDbImpNonPersistentObjectsCollection
  3
ObjectDBX Classes
 90
     1153
280
     0
281
     0
  0
CLASS
  1
DICTIONARYVAR
  2
AcDbDictionaryVar
  3
ObjectDBX Classes
 90
        0
280
     0
281
     0
  0
CLASS
  1
CELLSTYLEMAP
  2
AcDbCellStyleMap
  3
ObjectDBX Classes
 90
     1152
280
     0
281
     0
  0
CLASS
  1
ACDBPLACEHOLDER
  2
AcDbPlaceHolder
  3
ObjectDBX Classes
 90
        0
280
     0
281
     0
  0
CLASS
  1
LAYOUT
  2
AcDbLayout
  3
ObjectDBX Classes
 90
        0
280
     0
281
     0
  0
ENDSEC
  0
SECTION
  2
TABLES
  0
TABLE
  2
VPORT
  5
51A
330
0
100
AcDbSymbolTable
 70
     1
  0
VPORT
  5
5B1
330
51A
100
AcDbSymbolTableRecord
100
AcDbViewportTableRecord
  2
*Active
 70
     0
 10
0.0
 20
0.0
 11
1.0
 21
1.0
 12
-28.22475100000002
 22
1.930124000000006
 13
0.0
 23
0.0
 14
1.0
 24
1.0
 15
0.0
 25
0.0
 16
0.0
 26
0.0
 36
1.0
 17
0.0
 27
0.0
 37
0.0
 40
82.2318731206805
 41
2.220359281437125
 42
50.0
 43
0.0
 44
0.0
 50
0.0
 51
0.0
 71
     0
 72
   100
 73
     1
 74
     1
 75
     0
 76
     0
 77
     0
 78
     0
281
     0
 65
     1
110
0.0
120
0.0
130
0.0
111
1.0
121
0.0
131
0.0
112
0.0
122
1.0
132
0.0
 79
     0
146
0.0
1001
ACAD_NAV_VCDISPLAY
1070
     3
  0
ENDTAB
  0
TABLE
  2
LTYPE
  5
517
330
0
100
AcDbSymbolTable
 70
     4
  0
LTYPE
  5
56C
330
517
100
AcDbSymbolTableRecord
100
AcDbLinetypeTableRecord
  2
ByBlock
 70
     0
  3

 72
    65
 73
     0
 40
0.0
  0
LTYPE
  5
56D
330
517
100
AcDbSymbolTableRecord
100
AcDbLinetypeTableRecord
  2
ByLayer
 70
     0
  3

 72
    65
 73
     0
 40
0.0
  0
LTYPE
  5
56E
330
517
100
AcDbSymbolTableRecord
100
AcDbLinetypeTableRecord
  2
CONTINUOUS
 70
     0
  3
Solid line
 72
    65
 73
     0
 40
0.0
  0
LTYPE
  5
57A
330
517
100
AcDbSymbolTableRecord
100
AcDbLinetypeTableRecord
  2
PHANTOM2
 70
     0
  3
Phantom (.5x) ___ _ _ ___ _ _ ___ _ _ ___ _ _
 72
    65
 73
     6
 40
1.25
 49
0.625
 74
     0
 49
-0.125
 74
     0
 49
0.125
 74
     0
 49
-0.125
 74
     0
 49
0.125
 74
     0
 49
-0.125
 74
     0
  0
LTYPE
  5
588
330
517
100
AcDbSymbolTableRecord
100
AcDbLinetypeTableRecord
  2
CENTER
 70
     0
  3
____ _ ____ _ ____ _ ____ _ ____ _ ____ _ ____
 72
    65
 73
     4
 40
5.059897
 49
3.162434999999999
 74
     0
 49
-0.6324870000000001
 74
     0
 49
0.6324870000000001
 74
     0
 49
-0.6324870000000001
 74
     0
  0
LTYPE
  5
589
330
517
100
AcDbSymbolTableRecord
100
AcDbLinetypeTableRecord
  2
DASHED
 70
     0
  3
__ __ __ __ __ __ __ __ __ __ __ __ __ __ __ __
 72
    65
 73
     2
 40
7.589844999999999
 49
5.059897
 74
     0
 49
-2.529948
 74
     0
  0
ENDTAB
  0
TABLE
  2
LAYER
  5
514
330
0
100
AcDbSymbolTable
 70
    38
  0
LAYER
  5
566
102
{ACAD_XDICTIONARY
360
5BE
102
}
330
514
100
AcDbSymbolTableRecord
100
AcDbLayerTableRecord
  2
0
 70
     0
 62
     7
  6
CONTINUOUS
370
    -3
390
521
  0
LAYER
  5
586
102
{ACAD_XDICTIONARY
360
5C0
102
}
330
514
100
AcDbSymbolTableRecord
100
AcDbLayerTableRecord
  2
1
 70
     0
 62
     4
  6
CONTINUOUS
370
    -3
390
521
  0
LAYER
  5
58A
102
{ACAD_XDICTIONARY
360
5C2
102
}
330
514
100
AcDbSymbolTableRecord
100
AcDbLayerTableRecord
  2
61
 70
     0
 62
     5
  6
CONTINUOUS
370
    -3
390
521
  0
LAYER
  5
58B
102
{ACAD_XDICTIONARY
360
5C4
102
}
330
514
100
AcDbSymbolTableRecord
100
AcDbLayerTableRecord
  2
62
 70
     0
 62
    -5
  6
CONTINUOUS
370
    -3
390
521
  0
LAYER
  5
58C
102
{ACAD_XDICTIONARY
360
5C6
102
}
330
514
100
AcDbSymbolTableRecord
100
AcDbLayerTableRecord
  2
63
 70
     0
 62
    -5
  6
CONTINUOUS
370
    -3
390
521
  0
LAYER
  5
58D
102
{ACAD_XDICTIONARY
360
5C8
102
}
330
514
100
AcDbSymbolTableRecord
100
AcDbLayerTableRecord
  2
64
 70
     0
 62
    -5
  6
CONTINUOUS
370
    -3
390
521
  0
LAYER
  5
58E
102
{ACAD_XDICTIONARY
360
5CA
102
}
330
514
100
AcDbSymbolTableRecord
100
AcDbLayerTableRecord
  2
65
 70
     0
 62
    -5
  6
CONTINUOUS
370
    -3
390
521
  0
LAYER
  5
58F
102
{ACAD_XDICTIONARY
360
5CC
102
}
330
514
100
AcDbSymbolTableRecord
100
AcDbLayerTableRecord
  2
66
 70
     0
 62
    -5
  6
CONTINUOUS
370
    -3
390
521
  0
LAYER
  5
590
102
{ACAD_XDICTIONARY
360
5CE
102
}
330
514
100
AcDbSymbolTableRecord
100
AcDbLayerTableRecord
  2
67
 70
     0
 62
    -5
  6
CONTINUOUS
370
    -3
390
521
  0
LAYER
  5
591
102
{ACAD_XDICTIONARY
360
5D0
102
}
330
514
100
AcDbSymbolTableRecord
100
AcDbLayerTableRecord
  2
68
 70
     0
 62
    -5
  6
CONTINUOUS
370
    -3
390
521
  0
LAYER
  5
592
102
{ACAD_XDICTIONARY
360
5D2
102
}
330
514
100
AcDbSymbolTableRecord
100
AcDbLayerTableRecord
  2
69
 70
     0
 62
    -5
  6
CONTINUOUS
370
    -3
390
521
  0
LAYER
  5
593
102
{ACAD_XDICTIONARY
360
5D4
102
}
330
514
100
AcDbSymbolTableRecord
100
AcDbLayerTableRecord
  2
70
 70
     0
 62
     5
  6
CONTINUOUS
370
    -3
390
521
  0
LAYER
  5
594
102
{ACAD_XDICTIONARY
360
5D6
102
}
330
514
100
AcDbSymbolTableRecord
100
AcDbLayerTableRecord
  2
2
 70
     0
 62
     7
  6
CONTINUOUS
370
    -3
390
521
  0
LAYER
  5
595
102
{ACAD_XDICTIONARY
360
5D8
102
}
330
514
100
AcDbSymbolTableRecord
100
AcDbLayerTableRecord
  2
3
 70
     0
 62
     1
  6
DASHED
370
    -3
390
521
  0
LAYER
  5
596
102
{ACAD_XDICTIONARY
360
5DA
102
}
330
514
100
AcDbSymbolTableRecord
100
AcDbLayerTableRecord
  2
4
 70
     0
 62
    -2
  6
CENTER
370
    -3
390
521
  0
LAYER
  5
597
102
{ACAD_XDICTIONARY
360
5DC
102
}
330
514
100
AcDbSymbolTableRecord
100
AcDbLayerTableRecord
  2
5
 70
     0
 62
    -7
  6
CONTINUOUS
370
    -3
390
521
  0
LAYER
  5
598
102
{ACAD_XDICTIONARY
360
5DE
102
}
330
514
100
AcDbSymbolTableRecord
100
AcDbLayerTableRecord
  2
SK1
 70
     0
 62
     4
  6
CONTINUOUS
370
    -3
390
521
  0
LAYER
  5
599
102
{ACAD_XDICTIONARY
360
5E0
102
}
330
514
100
AcDbSymbolTableRecord
100
AcDbLayerTableRecord
  2
6
 70
     0
 62
     5
  6
CONTINUOUS
370
    -3
390
521
  0
LAYER
  5
59A
102
{ACAD_XDICTIONARY
360
5E2
102
}
330
514
100
AcDbSymbolTableRecord
100
AcDbLayerTableRecord
  2
SK2
 70
     0
 62
     7
  6
CONTINUOUS
370
    -3
390
521
  0
LAYER
  5
59B
102
{ACAD_XDICTIONARY
360
5E4
102
}
330
514
100
AcDbSymbolTableRecord
100
AcDbLayerTableRecord
  2
SK3
 70
     0
 62
     1
  6
DASHED
370
    -3
390
521
  0
LAYER
  5
59C
102
{ACAD_XDICTIONARY
360
5E6
102
}
330
514
100
AcDbSymbolTableRecord
100
AcDbLayerTableRecord
  2
SK4
 70
     0
 62
     2
  6
CENTER
370
    -3
390
521
  0
LAYER
  5
59D
102
{ACAD_XDICTIONARY
360
5E8
102
}
330
514
100
AcDbSymbolTableRecord
100
AcDbLayerTableRecord
  2
CUT
 70
     0
 62
    -1
  6
CONTINUOUS
370
    -3
390
521
  0
LAYER
  5
59E
102
{ACAD_XDICTIONARY
360
5EA
102
}
330
514
100
AcDbSymbolTableRecord
100
AcDbLayerTableRecord
  2
SK6
 70
     0
 62
     5
  6
CONTINUOUS
370
    -3
390
521
  0
LAYER
  5
59F
102
{ACAD_XDICTIONARY
360
5EC
102
}
330
514
100
AcDbSymbolTableRecord
100
AcDbLayerTableRecord
  2
80
 70
     0
 62
    -2
  6
CENTER
370
    -3
390
521
  0
LAYER
  5
5A0
102
{ACAD_XDICTIONARY
360
5EE
102
}
330
514
100
AcDbSymbolTableRecord
100
AcDbLayerTableRecord
  2
81
 70
     0
 62
    -2
  6
CENTER
370
    -3
390
521
  0
LAYER
  5
5A1
102
{ACAD_XDICTIONARY
360
5F0
102
}
330
514
100
AcDbSymbolTableRecord
100
AcDbLayerTableRecord
  2
82
 70
     0
 62
    -2
  6
CENTER
370
    -3
390
521
  0
LAYER
  5
5A2
102
{ACAD_XDICTIONARY
360
5F2
102
}
330
514
100
AcDbSymbolTableRecord
100
AcDbLayerTableRecord
  2
NOCUT
 70
     0
 62
     7
  6
CONTINUOUS
370
    -3
390
521
  0
LAYER
  5
5A3
102
{ACAD_XDICTIONARY
360
5F4
102
}
330
514
100
AcDbSymbolTableRecord
100
AcDbLayerTableRecord
  2
50
 70
     0
 62
    -7
  6
CONTINUOUS
370
    -3
390
521
  0
LAYER
  5
5A4
102
{ACAD_XDICTIONARY
360
5F6
102
}
330
514
100
AcDbSymbolTableRecord
100
AcDbLayerTableRecord
  2
51
 70
     0
 62
     7
  6
CONTINUOUS
370
    -3
390
521
  0
LAYER
  5
5A5
102
{ACAD_XDICTIONARY
360
5F8
102
}
330
514
100
AcDbSymbolTableRecord
100
AcDbLayerTableRecord
  2
52
 70
     0
 62
    -7
  6
CONTINUOUS
370
    -3
390
521
  0
LAYER
  5
5A6
102
{ACAD_XDICTIONARY
360
5FA
102
}
330
514
100
AcDbSymbolTableRecord
100
AcDbLayerTableRecord
  2
53
 70
     0
 62
    -7
  6
CONTINUOUS
370
    -3
390
521
  0
LAYER
  5
5A7
102
{ACAD_XDICTIONARY
360
5FC
102
}
330
514
100
AcDbSymbolTableRecord
100
AcDbLayerTableRecord
  2
54
 70
     0
 62
    -7
  6
CONTINUOUS
370
    -3
390
521
  0
LAYER
  5
5A8
102
{ACAD_XDICTIONARY
360
5FE
102
}
330
514
100
AcDbSymbolTableRecord
100
AcDbLayerTableRecord
  2
55
 70
     0
 62
    -7
  6
CONTINUOUS
370
    -3
390
521
  0
LAYER
  5
5A9
102
{ACAD_XDICTIONARY
360
600
102
}
330
514
100
AcDbSymbolTableRecord
100
AcDbLayerTableRecord
  2
56
 70
     0
 62
    -7
  6
CONTINUOUS
370
    -3
390
521
  0
LAYER
  5
5AA
102
{ACAD_XDICTIONARY
360
602
102
}
330
514
100
AcDbSymbolTableRecord
100
AcDbLayerTableRecord
  2
57
 70
     0
 62
    -7
  6
CONTINUOUS
370
    -3
390
521
  0
LAYER
  5
5AB
102
{ACAD_XDICTIONARY
360
604
102
}
330
514
100
AcDbSymbolTableRecord
100
AcDbLayerTableRecord
  2
58
 70
     0
 62
    -7
  6
CONTINUOUS
370
    -3
390
521
  0
LAYER
  5
5AC
102
{ACAD_XDICTIONARY
360
606
102
}
330
514
100
AcDbSymbolTableRecord
100
AcDbLayerTableRecord
  2
2L
 70
     0
 62
     7
  6
CONTINUOUS
370
    -3
390
521
  0
LAYER
  5
5AD
102
{ACAD_XDICTIONARY
360
608
102
}
330
514
100
AcDbSymbolTableRecord
100
AcDbLayerTableRecord
  2
59
 70
     0
 62
    -7
  6
CONTINUOUS
370
    -3
390
521
  0
ENDTAB
  0
TABLE
  2
STYLE
  5
515
330
0
100
AcDbSymbolTable
 70
     3
  0
STYLE
  5
567
330
515
100
AcDbSymbolTableRecord
100
AcDbTextStyleTableRecord
  2
STANDARD
 70
     0
 40
0.0
 41
1.0
 50
0.0
 71
     0
 42
4.5
  3
simplex.shx
  4

  0
STYLE
  5
56B
330
515
100
AcDbSymbolTableRecord
100
AcDbTextStyleTableRecord
  2
Annotative
 70
     0
 40
0.0
 41
1.0
 50
0.0
 71
     0
 42
0.2
  3
txt
  4

1001
AcadAnnotative
1000
AnnotativeData
1002
{
1070
     1
1070
     1
1002
}
  0
STYLE
  5
587
330
515
100
AcDbSymbolTableRecord
100
AcDbTextStyleTableRecord
  2
SANDVIK_STYLE
 70
     0
 40
3.0
 41
1.0
 50
0.0
 71
     0
 42
3.0
  3
simplex.shx
  4

  0
ENDTAB
  0
TABLE
  2
VIEW
  5
518
330
0
100
AcDbSymbolTable
 70
     0
  0
ENDTAB
  0
TABLE
  2
UCS
  5
519
330
0
100
AcDbSymbolTable
 70
     0
  0
ENDTAB
  0
TABLE
  2
APPID
  5
51B
330
0
100
AcDbSymbolTable
 70
     4
  0
APPID
  5
568
330
51B
100
AcDbSymbolTableRecord
100
AcDbRegAppTableRecord
  2
ACAD
 70
     0
  0
APPID
  5
56F
330
51B
100
AcDbSymbolTableRecord
100
AcDbRegAppTableRecord
  2
AcadAnnotative
 70
     0
  0
APPID
  5
614
330
51B
100
AcDbSymbolTableRecord
100
AcDbRegAppTableRecord
  2
ACAD_NAV_VCDISPLAY
 70
     0
  0
APPID
  5
64E
330
51B
100
AcDbSymbolTableRecord
100
AcDbRegAppTableRecord
  2
ACAD_MLEADERVER
 70
     0
  0
ENDTAB
  0
TABLE
  2
DIMSTYLE
  5
51C
330
0
100
AcDbSymbolTable
 70
     3
100
AcDbDimStyleTable
 71
     0
  0
DIMSTYLE
105
569
330
51C
100
AcDbSymbolTableRecord
100
AcDbDimStyleTableRecord
  2
STANDARD
 70
     0
  4
 
 41
3.0
 42
2.5
 43
10.0
 44
2.5
 46
1.25
 73
     0
 74
     0
140
3.0
141
-3.0
143
0.039
145
1.5
146
0.75
147
1.5
271
     2
272
     2
279
     2
340
587
  0
DIMSTYLE
105
56A
330
51C
100
AcDbSymbolTableRecord
100
AcDbDimStyleTableRecord
  2
Annotative
 70
     0
340
567
1001
AcadAnnotative
1000
AnnotativeData
1002
{
1070
     1
1070
     1
1002
}
  0
DIMSTYLE
105
5AE
102
{ACAD_REACTORS
330
2DC
330
2DD
330
2DE
330
2DF
330
2E0
330
2E1
330
2E2
330
2E3
102
}
330
51C
100
AcDbSymbolTableRecord
100
AcDbDimStyleTableRecord
  2
SANDVIK_DIM
 70
     0
  4
 
 40
0.0
 41
4.57
 42
0.0
 44
5.0
 73
     0
 74
     0
 77
     1
 78
     8
140
4.5
147
2.299999999999999
176
   256
177
   256
178
   256
271
     2
272
     2
279
     2
340
587
  0
ENDTAB
  0
TABLE
  2
BLOCK_RECORD
  5
513
330
0
100
AcDbSymbolTable
 70
     8
  0
BLOCK_RECORD
  5
582
330
513
100
AcDbSymbolTableRecord
100
AcDbBlockTableRecord
  2
*Model_Space
340
585
  0
BLOCK_RECORD
  5
57E
330
513
100
AcDbSymbolTableRecord
100
AcDbBlockTableRecord
  2
*Paper_Space
340
581
  0
BLOCK_RECORD
  5
5B2
330
513
100
AcDbSymbolTableRecord
100
AcDbBlockTableRecord
  2
*D0
340
0
  0
BLOCK_RECORD
  5
5B3
330
513
100
AcDbSymbolTableRecord
100
AcDbBlockTableRecord
  2
*D1
340
0
  0
BLOCK_RECORD
  5
5B4
330
513
100
AcDbSymbolTableRecord
100
AcDbBlockTableRecord
  2
*D2
340
0
  0
BLOCK_RECORD
  5
5B5
330
513
100
AcDbSymbolTableRecord
100
AcDbBlockTableRecord
  2
*D3
340
0
  0
BLOCK_RECORD
  5
5B6
330
513
100
AcDbSymbolTableRecord
100
AcDbBlockTableRecord
  2
*D4
340
0
  0
BLOCK_RECORD
  5
5B7
330
513
100
AcDbSymbolTableRecord
100
AcDbBlockTableRecord
  2
*D5
340
0
  0
BLOCK_RECORD
  5
5B8
330
513
100
AcDbSymbolTableRecord
100
AcDbBlockTableRecord
  2
*D6
340
0
  0
BLOCK_RECORD
  5
5B9
330
513
100
AcDbSymbolTableRecord
100
AcDbBlockTableRecord
  2
*D7
340
0
  0
ENDTAB
  0
ENDSEC
  0
SECTION
  2
BLOCKS
  0
BLOCK
  5
583
330
582
100
AcDbEntity
  8
0
100
AcDbBlockBegin
  2
*Model_Space
 70
     0
 10
0.0
 20
0.0
 30
0.0
  3
*Model_Space
  1

  0
ENDBLK
  5
584
330
582
100
AcDbEntity
  8
0
100
AcDbBlockEnd
  0
BLOCK
  5
57F
330
57E
100
AcDbEntity
 67
     1
  8
0
100
AcDbBlockBegin
  2
*Paper_Space
 70
     0
 10
0.0
 20
0.0
 30
0.0
  3
*Paper_Space
  1

  0
ENDBLK
  5
580
330
57E
100
AcDbEntity
 67
     1
  8
0
100
AcDbBlockEnd
  0
BLOCK
  5
2
330
5B2
100
AcDbEntity
  8
0
100
AcDbBlockBegin
  2
*D0
 70
     1
 10
0.0
 20
0.0
 30
0.0
  3
*D0
  1

  0
LINE
  5
3
330
5B2
100
AcDbEntity
  8
0
100
AcDbLine
 10
-38.4
 20
0.0
 30
0.0
 11
-81.813687
 21
0.0
 31
0.0
  0
LINE
  5
4
330
5B2
100
AcDbEntity
  8
0
100
AcDbLine
 10
-75.31374699999999
 20
-12.0
 30
0.0
 11
-81.813687
 21
-12.0
 31
0.0
  0
LINE
  5
5
330
5B2
100
AcDbEntity
  8
0
100
AcDbLine
 10
-79.813687
 20
0.0
 30
0.0
 11
-79.813687
 21
-12.0
 31
0.0
  0
SOLID
  5
6
330
5B2
100
AcDbEntity
  8
0
100
AcDbTrace
 10
-79.813687
 20
0.0
 30
0.0
 11
-79.39569099999999
 21
-3.174999999999999
 31
0.0
 12
-80.23168400000001
 22
-3.174999999999999
 32
0.0
 13
-80.23168400000001
 23
-3.174999999999999
 33
0.0
  0
SOLID
  5
7
330
5B2
100
AcDbEntity
  8
0
100
AcDbTrace
 10
-79.813687
 20
-12.0
 30
0.0
 11
-80.23168400000001
 21
-8.824999999999999
 31
0.0
 12
-79.39569099999999
 22
-8.824999999999999
 32
0.0
 13
-79.39569099999999
 23
-8.824999999999999
 33
0.0
  0
TEXT
  5
8
330
5B2
100
AcDbEntity
  8
0
100
AcDbText
 10
-81.56368699999999
 20
-7.607236999999999
 30
0.0
 40
3.5
  1
12
 50
90.0
100
AcDbText
  0
ENDBLK
  5
9
330
5B2
100
AcDbEntity
  8
0
100
AcDbBlockEnd
  0
BLOCK
  5
A
330
5B3
100
AcDbEntity
  8
0
100
AcDbBlockBegin
  2
*D1
 70
     1
 10
0.0
 20
0.0
 30
0.0
  3
*D1
  1

  0
LINE
  5
B
330
5B3
100
AcDbEntity
  8
0
100
AcDbLine
 10
-68.0
 20
-12.0
 30
0.0
 11
-68.0
 21
11.300954
 31
0.0
  0
LINE
  5
C
330
5B3
100
AcDbEntity
  8
0
100
AcDbLine
 10
-40.0
 20
0.0
 30
0.0
 11
-40.0
 21
11.300954
 31
0.0
  0
LINE
  5
D
330
5B3
100
AcDbEntity
  8
0
100
AcDbLine
 10
-68.0
 20
9.300953999999999
 30
0.0
 11
-40.0
 21
9.300953999999999
 31
0.0
  0
SOLID
  5
E
330
5B3
100
AcDbEntity
  8
0
100
AcDbTrace
 10
-68.0
 20
9.300953999999999
 30
0.0
 11
-64.825
 21
9.718950999999998
 31
0.0
 12
-64.825
 22
8.882957000000001
 32
0.0
 13
-64.825
 23
8.882957000000001
 33
0.0
  0
SOLID
  5
F
330
5B3
100
AcDbEntity
  8
0
100
AcDbTrace
 10
-40.0
 20
9.300953999999999
 30
0.0
 11
-43.17499999999999
 21
8.882957000000001
 31
0.0
 12
-43.17499999999999
 22
9.718950999999998
 32
0.0
 13
-43.17499999999999
 23
9.718950999999998
 33
0.0
  0
TEXT
  5
10
330
5B3
100
AcDbEntity
  8
0
100
AcDbText
 10
-56.04473699999999
 20
11.050954
 30
0.0
 40
3.5
  1
28
100
AcDbText
  0
ENDBLK
  5
11
330
5B3
100
AcDbEntity
  8
0
100
AcDbBlockEnd
  0
BLOCK
  5
12
330
5B4
100
AcDbEntity
  8
0
100
AcDbBlockBegin
  2
*D2
 70
     1
 10
0.0
 20
0.0
 30
0.0
  3
*D2
  1

  0
LINE
  5
13
330
5B4
100
AcDbEntity
  8
0
100
AcDbLine
 10
-68.0
 20
-12.0
 30
0.0
 11
-68.0
 21
-34.81053
 31
0.0
  0
LINE
  5
14
330
5B4
100
AcDbEntity
  8
0
100
AcDbLine
 10
2.0
 20
-11.475
 30
0.0
 11
2.0
 21
-34.81053
 31
0.0
  0
LINE
  5
15
330
5B4
100
AcDbEntity
  8
0
100
AcDbLine
 10
-68.0
 20
-32.81053
 30
0.0
 11
2.0
 21
-32.81053
 31
0.0
  0
SOLID
  5
16
330
5B4
100
AcDbEntity
  8
0
100
AcDbTrace
 10
-68.0
 20
-32.81053
 30
0.0
 11
-64.825
 21
-32.392533
 31
0.0
 12
-64.825
 22
-33.228527
 32
0.0
 13
-64.825
 23
-33.228527
 33
0.0
  0
SOLID
  5
17
330
5B4
100
AcDbEntity
  8
0
100
AcDbTrace
 10
2.0
 20
-32.81053
 30
0.0
 11
-1.175
 21
-33.228527
 31
0.0
 12
-1.175
 22
-32.392533
 32
0.0
 13
-1.175
 23
-32.392533
 33
0.0
  0
TEXT
  5
18
330
5B4
100
AcDbEntity
  8
0
100
AcDbText
 10
-35.044737
 20
-31.06053
 30
0.0
 40
3.5
  1
70
100
AcDbText
  0
ENDBLK
  5
19
330
5B4
100
AcDbEntity
  8
0
100
AcDbBlockEnd
  0
BLOCK
  5
1A
330
5B5
100
AcDbEntity
  8
0
100
AcDbBlockBegin
  2
*D3
 70
     1
 10
0.0
 20
0.0
 30
0.0
  3
*D3
  1

  0
LINE
  5
1B
330
5B5
100
AcDbEntity
  8
0
100
AcDbLine
 10
1.5
 20
-11.975
 30
0.0
 11
37.097818
 21
-11.975
 31
0.0
  0
LINE
  5
1C
330
5B5
100
AcDbEntity
  8
0
100
AcDbLine
 10
-1.0
 20
0.0
 30
0.0
 11
37.097818
 21
0.0
 31
0.0
  0
LINE
  5
1D
330
5B5
100
AcDbEntity
  8
0
100
AcDbLine
 10
35.097818
 20
-11.975
 30
0.0
 11
35.097818
 21
0.0
 31
0.0
  0
SOLID
  5
1E
330
5B5
100
AcDbEntity
  8
0
100
AcDbTrace
 10
35.097818
 20
-11.975
 30
0.0
 11
34.679822
 21
-8.8
 31
0.0
 12
35.51581500000001
 22
-8.8
 32
0.0
 13
35.51581500000001
 23
-8.8
 33
0.0
  0
SOLID
  5
1F
330
5B5
100
AcDbEntity
  8
0
100
AcDbTrace
 10
35.097818
 20
0.0
 30
0.0
 11
35.51581500000001
 21
-3.174999999999999
 31
0.0
 12
34.679822
 22
-3.174999999999999
 32
0.0
 13
34.679822
 23
-3.174999999999999
 33
0.0
  0
TEXT
  5
20
330
5B5
100
AcDbEntity
  8
0
100
AcDbText
 10
33.347818
 20
-7.594736999999999
 30
0.0
 40
3.5
  1
12
 50
90.0
100
AcDbText
  0
ENDBLK
  5
21
330
5B5
100
AcDbEntity
  8
0
100
AcDbBlockEnd
  0
BLOCK
  5
22
330
5B6
100
AcDbEntity
  8
0
100
AcDbBlockBegin
  2
*D4
 70
     1
 10
0.0
 20
0.0
 30
0.0
  3
*D4
  1

  0
LINE
  5
23
330
5B6
100
AcDbEntity
  8
0
100
AcDbLine
 10
-68.0
 20
-12.0
 30
0.0
 11
-68.0
 21
22.81557
 31
0.0
  0
LINE
  5
24
330
5B6
100
AcDbEntity
  8
0
100
AcDbLine
 10
0.0
 20
0.0
 30
0.0
 11
0.0
 21
22.81557
 31
0.0
  0
LINE
  5
25
330
5B6
100
AcDbEntity
  8
0
100
AcDbLine
 10
-68.0
 20
20.81557
 30
0.0
 11
0.0
 21
20.81557
 31
0.0
  0
SOLID
  5
26
330
5B6
100
AcDbEntity
  8
0
100
AcDbTrace
 10
-68.0
 20
20.81557
 30
0.0
 11
-64.825
 21
21.233567
 31
0.0
 12
-64.825
 22
20.397573
 32
0.0
 13
-64.825
 23
20.397573
 33
0.0
  0
SOLID
  5
27
330
5B6
100
AcDbEntity
  8
0
100
AcDbTrace
 10
0.0
 20
20.81557
 30
0.0
 11
-3.174999999999999
 21
20.397573
 31
0.0
 12
-3.174999999999999
 22
21.233567
 32
0.0
 13
-3.174999999999999
 23
21.233567
 33
0.0
  0
TEXT
  5
28
330
5B6
100
AcDbEntity
  8
0
100
AcDbText
 10
-36.044737
 20
22.56557
 30
0.0
 40
3.5
  1
68
100
AcDbText
  0
ENDBLK
  5
29
330
5B6
100
AcDbEntity
  8
0
100
AcDbBlockEnd
  0
BLOCK
  5
2A
330
5B7
100
AcDbEntity
  8
0
100
AcDbBlockBegin
  2
*D5
 70
     1
 10
0.0
 20
0.0
 30
0.0
  3
*D5
  1

  0
LINE
  5
2B
330
5B7
100
AcDbEntity
  8
0
100
AcDbLine
 10
-68.0
 20
-12.0
 30
0.0
 11
-90.29732
 21
-12.0
 31
0.0
  0
LINE
  5
2C
330
5B7
100
AcDbEntity
  8
0
100
AcDbLine
 10
-38.4
 20
0.0
 30
0.0
 11
-90.29732
 21
0.0
 31
0.0
  0
LINE
  5
2D
330
5B7
100
AcDbEntity
  8
0
100
AcDbLine
 10
-88.29731999999999
 20
-12.0
 30
0.0
 11
-88.29731999999999
 21
0.0
 31
0.0
  0
SOLID
  5
2E
330
5B7
100
AcDbEntity
  8
0
100
AcDbTrace
 10
-88.29731999999999
 20
-12.0
 30
0.0
 11
-88.715317
 21
-8.824999999999999
 31
0.0
 12
-87.879324
 22
-8.824999999999999
 32
0.0
 13
-87.879324
 23
-8.824999999999999
 33
0.0
  0
SOLID
  5
2F
330
5B7
100
AcDbEntity
  8
0
100
AcDbTrace
 10
-88.29731999999999
 20
0.0
 30
0.0
 11
-87.879324
 21
-3.174999999999999
 31
0.0
 12
-88.715317
 22
-3.174999999999999
 32
0.0
 13
-88.715317
 23
-3.174999999999999
 33
0.0
  0
TEXT
  5
30
330
5B7
100
AcDbEntity
  8
0
100
AcDbText
 10
-90.04732
 20
-7.607236999999999
 30
0.0
 40
3.5
  1
12
 50
90.0
100
AcDbText
  0
ENDBLK
  5
31
330
5B7
100
AcDbEntity
  8
0
100
AcDbBlockEnd
  0
BLOCK
  5
32
330
5B8
100
AcDbEntity
  8
0
100
AcDbBlockBegin
  2
*D6
 70
     1
 10
0.0
 20
0.0
 30
0.0
  3
*D6
  1

  0
LINE
  5
33
330
5B8
100
AcDbEntity
  8
0
100
AcDbLine
 10
2.0
 20
-2.973933999999999
 30
0.0
 11
2.0
 21
9.719788000000001
 31
0.0
  0
LINE
  5
34
330
5B8
100
AcDbEntity
  8
0
100
AcDbLine
 10
0.0
 20
0.0
 30
0.0
 11
0.0
 21
9.719788000000001
 31
0.0
  0
LINE
  5
35
330
5B8
100
AcDbEntity
  8
0
100
AcDbLine
 10
-8.75
 20
7.719788
 30
0.0
 11
20.639215
 21
7.719788
 31
0.0
  0
SOLID
  5
36
330
5B8
100
AcDbEntity
  8
0
100
AcDbTrace
 10
2.0
 20
7.719788
 30
0.0
 11
5.174999999999999
 21
8.137785
 31
0.0
 12
5.174999999999999
 22
7.301791
 32
0.0
 13
5.174999999999999
 23
7.301791
 33
0.0
  0
SOLID
  5
37
330
5B8
100
AcDbEntity
  8
0
100
AcDbTrace
 10
0.0
 20
7.719788
 30
0.0
 11
-3.174999999999999
 21
7.301791
 31
0.0
 12
-3.174999999999999
 22
8.137785
 32
0.0
 13
-3.174999999999999
 23
8.137785
 33
0.0
  0
TEXT
  5
38
330
5B8
100
AcDbEntity
  8
0
100
AcDbText
 10
11.387241
 20
9.469788000000001
 30
0.0
 40
3.5
  1
x45%%d
100
AcDbText
  0
TEXT
  5
39
330
5B8
100
AcDbEntity
  8
0
100
AcDbText
 10
6.367504
 20
9.469788000000001
 30
0.0
 40
3.5
  1
2
100
AcDbText
  0
ENDBLK
  5
3A
330
5B8
100
AcDbEntity
  8
0
100
AcDbBlockEnd
  0
BLOCK
  5
3B
330
5B9
100
AcDbEntity
  8
0
100
AcDbBlockBegin
  2
*D7
 70
     1
 10
0.0
 20
0.0
 30
0.0
  3
*D7
  1

  0
LINE
  5
3C
330
5B9
100
AcDbEntity
  8
0
100
AcDbLine
 10
2.0
 20
-9.001065999999999
 30
0.0
 11
2.0
 21
-24.087027
 31
0.0
  0
LINE
  5
3D
330
5B9
100
AcDbEntity
  8
0
100
AcDbLine
 10
0.0
 20
-11.975
 30
0.0
 11
0.0
 21
-24.087027
 31
0.0
  0
LINE
  5
3E
330
5B9
100
AcDbEntity
  8
0
100
AcDbLine
 10
-17.816274
 20
-22.087027
 30
0.0
 11
10.75
 21
-22.087027
 31
0.0
  0
SOLID
  5
3F
330
5B9
100
AcDbEntity
  8
0
100
AcDbTrace
 10
2.0
 20
-22.087027
 30
0.0
 11
5.174999999999999
 21
-21.66903
 31
0.0
 12
5.174999999999999
 22
-22.505024
 32
0.0
 13
5.174999999999999
 23
-22.505024
 33
0.0
  0
SOLID
  5
40
330
5B9
100
AcDbEntity
  8
0
100
AcDbTrace
 10
0.0
 20
-22.087027
 30
0.0
 11
-3.174999999999999
 21
-22.505024
 31
0.0
 12
-3.174999999999999
 22
-21.66903
 32
0.0
 13
-3.174999999999999
 23
-21.66903
 33
0.0
  0
TEXT
  5
41
330
5B9
100
AcDbEntity
  8
0
100
AcDbText
 10
-12.796537
 20
-20.337027
 30
0.0
 40
3.5
  1
x45%%d
100
AcDbText
  0
TEXT
  5
42
330
5B9
100
AcDbEntity
  8
0
100
AcDbText
 10
-17.816274
 20
-20.337027
 30
0.0
 40
3.5
  1
2
100
AcDbText
  0
ENDBLK
  5
43
330
5B9
100
AcDbEntity
  8
0
100
AcDbBlockEnd
  0
ENDSEC
  0
SECTION
  2
ENTITIES
  0
LINE
  5
44
330
582
100
AcDbEntity
  8
81
100
AcDbLine
 10
-68.0
 20
-12.0
 30
0.0
 11
-75.31374699999999
 21
-12.0
 31
0.0
  0
LINE
  5
45
330
582
100
AcDbEntity
  8
1
100
AcDbLine
 10
-64.923215
 20
-9.625
 30
0.0
 11
-61.90000600000001
 21
-9.625
 31
0.0
  0
LINE
  5
46
330
582
100
AcDbEntity
  8
1
100
AcDbLine
 10
-68.0
 20
-11.224997
 30
0.0
 11
-68.0
 21
-11.775
 31
0.0
  0
LINE
  5
47
330
582
100
AcDbEntity
  8
1
100
AcDbLine
 10
-61.90000999999999
 20
-9.725004999999999
 30
0.0
 11
-61.90001099999999
 21
-9.625
 31
0.0
  0
LINE
  5
48
330
582
100
AcDbEntity
  8
1
100
AcDbLine
 10
-68.0
 20
-11.225
 30
0.0
 11
-61.869829
 21
-11.225
 31
0.0
  0
LINE
  5
49
330
582
100
AcDbEntity
  8
1
100
AcDbLine
 10
-61.869654
 20
-11.500146
 30
0.0
 11
-62.082048
 21
-11.500146
 31
0.0
  0
LINE
  5
4A
330
582
100
AcDbEntity
  8
1
100
AcDbLine
 10
-62.082048
 20
-11.500146
 30
0.0
 11
-62.18219300000001
 21
-11.225
 31
0.0
  0
LINE
  5
4B
330
582
100
AcDbEntity
  8
1
100
AcDbLine
 10
-62.073002
 20
-11.725
 30
0.0
 11
-63.2
 21
-11.725
 31
0.0
  0
LINE
  5
4C
330
582
100
AcDbEntity
  8
SK1
100
AcDbLine
 10
8.15
 20
-3.987499999999999
 30
0.0
 11
8.15
 21
-7.987499999999999
 31
0.0
  0
LINE
  5
4D
330
582
100
AcDbEntity
  8
1
100
AcDbLine
 10
-62.073002
 20
-9.724999999999999
 30
0.0
 11
-63.2
 21
-9.724999999999999
 31
0.0
  0
LINE
  5
4E
330
582
100
AcDbEntity
  8
1
100
AcDbLine
 10
-62.073002
 20
-9.724999999999999
 30
0.0
 11
-62.073002
 21
-9.898550999999999
 31
0.0
  0
LINE
  5
4F
330
582
100
AcDbEntity
  8
1
100
AcDbLine
 10
-63.2
 20
-9.724999999999999
 30
0.0
 11
-63.2
 21
-10.225
 31
0.0
  0
LINE
  5
50
330
582
100
AcDbEntity
  8
1
100
AcDbLine
 10
7.75
 20
-8.9875
 30
0.0
 11
7.75
 21
-2.987499999999999
 31
0.0
  0
LINE
  5
51
330
582
100
AcDbEntity
  8
1
100
AcDbLine
 10
-61.869733
 20
-9.898550999999999
 30
0.0
 11
-62.073002
 21
-9.898550999999999
 31
0.0
  0
LINE
  5
52
330
582
100
AcDbEntity
  8
1
100
AcDbLine
 10
-62.082048
 20
-9.949854
 30
0.0
 11
-62.18219300000001
 21
-10.225
 31
0.0
  0
LINE
  5
53
330
582
100
AcDbEntity
  8
SK1
100
AcDbLine
 10
23.75
 20
-4.255448999999999
 30
0.0
 11
23.75
 21
-7.719550999999999
 31
0.0
  0
LINE
  5
54
330
582
100
AcDbEntity
  8
1
100
AcDbLine
 10
-63.2
 20
-11.725
 30
0.0
 11
-64.648488
 21
-11.725
 31
0.0
  0
LINE
  5
55
330
582
100
AcDbEntity
  8
1
100
AcDbLine
 10
-61.90001099999999
 20
-11.825
 30
0.0
 11
-61.869763
 21
-11.825
 31
0.0
  0
LINE
  5
56
330
582
100
AcDbEntity
  8
1
100
AcDbLine
 10
-61.90000600000001
 20
-9.625
 30
0.0
 11
-61.86975799999999
 21
-9.625
 31
0.0
  0
LINE
  5
57
330
582
100
AcDbEntity
  8
1
100
AcDbLine
 10
-63.2
 20
-11.225
 30
0.0
 11
-63.2
 21
-11.725
 31
0.0
  0
LINE
  5
58
330
582
100
AcDbEntity
  8
1
100
AcDbLine
 10
-63.2
 20
-9.724999999999999
 30
0.0
 11
-64.648488
 21
-9.724999999999999
 31
0.0
  0
LINE
  5
59
330
582
100
AcDbEntity
  8
1
100
AcDbLine
 10
-58.189292
 20
-9.224999999999999
 30
0.0
 11
-58.189292
 21
-1.940058999999999
 31
0.0
  0
LINE
  5
5A
330
582
100
AcDbEntity
  8
1
100
AcDbLine
 10
-64.648488
 20
-11.725
 30
0.0
 11
-65.0
 21
-11.85294
 31
0.0
  0
LINE
  5
5B
330
582
100
AcDbEntity
  8
1
100
AcDbLine
 10
-61.869767
 20
-11.825
 30
0.0
 11
-55.848064
 21
-11.825
 31
0.0
  0
LINE
  5
5C
330
582
100
AcDbEntity
  8
1
100
AcDbLine
 10
-65.0
 20
-9.59706
 30
0.0
 11
-67.79127599999999
 21
-9.475189999999999
 31
0.0
  0
LINE
  5
5D
330
582
100
AcDbEntity
  8
1
100
AcDbLine
 10
-61.869829
 20
-10.225
 30
0.0
 11
-68.0
 21
-10.225
 31
0.0
  0
LINE
  5
5E
330
582
100
AcDbEntity
  8
1
100
AcDbLine
 10
-57.694177
 20
-11.995
 30
0.0
 11
-55.614053
 21
-11.995
 31
0.0
  0
LINE
  5
5F
330
582
100
AcDbEntity
  8
1
100
AcDbLine
 10
-38.4
 20
-11.975
 30
0.0
 11
-39.6
 21
-11.975
 31
0.0
  0
LINE
  5
60
330
582
100
AcDbEntity
  8
1
100
AcDbLine
 10
-61.869733
 20
-11.725
 30
0.0
 11
-62.073002
 21
-11.725
 31
0.0
  0
LINE
  5
61
330
582
100
AcDbEntity
  8
1
100
AcDbLine
 10
-55.562098
 20
-9.224999999999999
 30
0.0
 11
-55.562098
 21
-0.423248
 31
0.0
  0
LINE
  5
62
330
582
100
AcDbEntity
  8
1
100
AcDbLine
 10
-64.923218
 20
-11.825
 30
0.0
 11
-61.90001099999999
 21
-11.825
 31
0.0
  0
LINE
  5
63
330
582
100
AcDbEntity
  8
1
100
AcDbLine
 10
-54.811347
 20
-11.995
 30
0.0
 11
-41.0
 21
-11.995
 31
0.0
  0
LINE
  5
64
330
582
100
AcDbEntity
  8
1
100
AcDbLine
 10
-61.869767
 20
-9.625
 30
0.0
 11
-55.848064
 21
-9.625
 31
0.0
  0
LINE
  5
65
330
582
100
AcDbEntity
  8
1
100
AcDbLine
 10
-55.56209499999999
 20
-0.423246
 30
0.0
 11
-58.189292
 21
-1.940058999999999
 31
0.0
  0
LINE
  5
66
330
582
100
AcDbEntity
  8
1
100
AcDbLine
 10
-65.0
 20
-11.85294
 30
0.0
 11
-67.79127599999999
 21
-11.97481
 31
0.0
  0
LINE
  5
67
330
582
100
AcDbEntity
  8
1
100
AcDbLine
 10
-40.0
 20
-11.995
 30
0.0
 11
-39.7249
 21
-11.995
 31
0.0
  0
LINE
  5
68
330
582
100
AcDbEntity
  8
1
100
AcDbLine
 10
-68.0
 20
-9.675
 30
0.0
 11
-68.0
 21
-10.225003
 31
0.0
  0
LINE
  5
69
330
582
100
AcDbEntity
  8
1
100
AcDbLine
 10
-54.811347
 20
0.010198
 30
0.0
 11
-54.811347
 21
-11.995
 31
0.0
  0
LINE
  5
6A
330
582
100
AcDbEntity
  8
SK1
100
AcDbLine
 10
22.75
 20
-3.987499999999999
 30
0.0
 11
8.15
 21
-3.987499999999999
 31
0.0
  0
LINE
  5
6B
330
582
100
AcDbEntity
  8
1
100
AcDbLine
 10
-62.073002
 20
-11.725
 30
0.0
 11
-62.073002
 21
-11.551449
 31
0.0
  0
LINE
  5
6C
330
582
100
AcDbEntity
  8
SK1
100
AcDbLine
 10
23.75
 20
-4.255448999999999
 30
0.0
 11
22.75
 21
-3.987499999999999
 31
0.0
  0
LINE
  5
6D
330
582
100
AcDbEntity
  8
1
100
AcDbLine
 10
7.75
 20
-2.987499999999999
 30
0.0
 11
3.149999999999999
 21
-2.987499999999999
 31
0.0
  0
LINE
  5
6E
330
582
100
AcDbEntity
  8
1
100
AcDbLine
 10
-61.869767
 20
-9.625
 30
0.0
 11
-61.869767
 21
-11.825
 31
0.0
  0
LINE
  5
6F
330
582
100
AcDbEntity
  8
1
100
AcDbLine
 10
-64.648488
 20
-9.724999999999999
 30
0.0
 11
-65.0
 21
-9.59706
 31
0.0
  0
LINE
  5
70
330
582
100
AcDbEntity
  8
SK1
100
AcDbLine
 10
22.75
 20
-7.987499999999999
 30
0.0
 11
23.75
 21
-7.719550999999999
 31
0.0
  0
LINE
  5
71
330
582
100
AcDbEntity
  8
1
100
AcDbLine
 10
-55.560409
 20
-9.224999999999999
 30
0.0
 11
-58.189292
 21
-9.224999999999999
 31
0.0
  0
LINE
  5
72
330
582
100
AcDbEntity
  8
1
100
AcDbLine
 10
-54.811347
 20
0.010198
 30
0.0
 11
-55.562098
 21
-0.423248
 31
0.0
  0
LINE
  5
73
330
582
100
AcDbEntity
  8
1
100
AcDbLine
 10
3.149999999999999
 20
-8.9875
 30
0.0
 11
7.75
 21
-8.9875
 31
0.0
  0
LINE
  5
74
330
582
100
AcDbEntity
  8
1
100
AcDbLine
 10
-61.869654
 20
-9.949854
 30
0.0
 11
-62.082048
 21
-9.949854
 31
0.0
  0
LINE
  5
75
330
582
100
AcDbEntity
  8
1
100
AcDbLine
 10
-61.90001099999999
 20
-11.825
 30
0.0
 11
-61.90000999999999
 21
-11.724995
 31
0.0
  0
LINE
  5
76
330
582
100
AcDbEntity
  8
1
100
AcDbLine
 10
-39.6
 20
0.0
 30
0.0
 11
-38.4
 21
0.0
 31
0.0
  0
LINE
  5
77
330
582
100
AcDbEntity
  8
1
100
AcDbLine
 10
-54.811347
 20
-11.995
 30
0.0
 11
-55.614088
 21
-11.995
 31
0.0
  0
LINE
  5
78
330
582
100
AcDbEntity
  8
1
100
AcDbLine
 10
-41.0
 20
-11.995
 30
0.0
 11
-40.0
 21
-11.995
 31
0.0
  0
LINE
  5
79
330
582
100
AcDbEntity
  8
1
100
AcDbLine
 10
-38.4
 20
-11.975
 30
0.0
 11
-38.4
 21
0.0
 31
0.0
  0
LINE
  5
7A
330
582
100
AcDbEntity
  8
1
100
AcDbLine
 10
-61.869733
 20
-11.551449
 30
0.0
 11
-62.073002
 21
-11.551449
 31
0.0
  0
LINE
  5
7B
330
582
100
AcDbEntity
  8
SK1
100
AcDbLine
 10
8.15
 20
-7.987499999999999
 30
0.0
 11
22.75
 21
-7.987499999999999
 31
0.0
  0
LINE
  5
7C
330
582
100
AcDbEntity
  8
SK1
100
AcDbLine
 10
22.75
 20
-7.987499999999999
 30
0.0
 11
22.75
 21
-3.987499999999999
 31
0.0
  0
LINE
  5
7D
330
582
100
AcDbEntity
  8
1
100
AcDbLine
 10
-61.869733
 20
-9.724999999999999
 30
0.0
 11
-62.073002
 21
-9.724999999999999
 31
0.0
  0
LINE
  5
7E
330
582
100
AcDbEntity
  8
1
100
AcDbLine
 10
-41.0
 20
0.0
 30
0.0
 11
-41.0
 21
-11.995
 31
0.0
  0
LINE
  5
7F
330
582
100
AcDbEntity
  8
1
100
AcDbLine
 10
-40.0
 20
0.0
 30
0.0
 11
-40.0
 21
-11.995
 31
0.0
  0
LINE
  5
80
330
582
100
AcDbEntity
  8
1
100
AcDbLine
 10
0.0
 20
-11.975
 30
0.0
 11
-38.4
 21
-11.975
 31
0.0
  0
LINE
  5
81
330
582
100
AcDbEntity
  8
1
100
AcDbLine
 10
0.0
 20
0.0
 30
0.0
 11
0.0
 21
-11.975
 31
0.0
  0
LINE
  5
82
330
582
100
AcDbEntity
  8
1
100
AcDbLine
 10
0.0
 20
0.0
 30
0.0
 11
-54.829011
 21
0.0
 31
0.0
  0
LINE
  5
83
330
582
100
AcDbEntity
  8
80
100
AcDbLine
 10
0.0
 20
0.0
 30
0.0
 11
7.805898
 21
0.0
 31
0.0
  0
LINE
  5
84
330
582
100
AcDbEntity
  8
1
100
AcDbLine
 10
2.0
 20
-9.992378
 30
0.0
 11
0.0
 21
-11.975
 31
0.0
  0
LINE
  5
85
330
582
100
AcDbEntity
  8
1
100
AcDbLine
 10
2.0
 20
-1.982622
 30
0.0
 11
0.0
 21
0.0
 31
0.0
  0
LINE
  5
86
330
582
100
AcDbEntity
  8
1
100
AcDbLine
 10
2.0
 20
-1.982622
 30
0.0
 11
2.0
 21
-9.992378
 31
0.0
  0
LINE
  5
87
330
582
100
AcDbEntity
  8
1
100
AcDbLine
 10
2.0
 20
-9.387499999999999
 30
0.0
 11
2.751138999999999
 21
-9.387499999999999
 31
0.0
  0
LINE
  5
88
330
582
100
AcDbEntity
  8
1
100
AcDbLine
 10
2.0
 20
-2.587499999999999
 30
0.0
 11
2.751138999999999
 21
-2.587499999999999
 31
0.0
  0
LINE
  5
89
330
582
100
AcDbEntity
  8
1
100
AcDbLine
 10
1.5
 20
-10.488033
 30
0.0
 11
1.5
 21
-1.486966999999999
 31
0.0
  0
POINT
  5
8A
330
582
100
AcDbEntity
  8
81
100
AcDbPoint
 10
-68.0
 20
-12.0
 30
0.0
  0
POINT
  5
8B
330
582
100
AcDbEntity
  8
80
100
AcDbPoint
 10
0.0
 20
0.0
 30
0.0
  0
ARC
  5
8C
330
582
100
AcDbEntity
  8
SK1
100
AcDbCircle
 10
-8.15
 20
-3.587499999999999
 30
0.0
 40
0.4
210
0.0
220
0.0
230
-1.0
100
AcDbArc
 50
270.0
 51
0.0
  0
ARC
  5
8D
330
582
100
AcDbEntity
  8
1
100
AcDbCircle
 10
-49.5
 20
-5.224999999999999
 30
0.0
 40
1.415999999999999
100
AcDbArc
 50
144.777222
 51
198.775495
  0
ARC
  5
8E
330
582
100
AcDbEntity
  8
1
100
AcDbCircle
 10
-49.5
 20
-5.224999999999999
 30
0.0
 40
1.968499999999999
100
AcDbArc
 50
235.349355
 51
294.967933
  0
ARC
  5
8F
330
582
100
AcDbEntity
  8
1
100
AcDbCircle
 10
-49.5
 20
-5.224999999999999
 30
0.0
 40
1.415999999999999
100
AcDbArc
 50
211.160371
 51
265.158644
  0
ARC
  5
90
330
582
100
AcDbEntity
  8
1
100
AcDbCircle
 10
-49.5
 20
-5.224999999999999
 30
0.0
 40
1.968499999999999
100
AcDbArc
 50
354.586511
 51
55.34935499999996
  0
ARC
  5
91
330
582
100
AcDbEntity
  8
1
100
AcDbCircle
 10
-49.5
 20
-5.224999999999999
 30
0.0
 40
1.415999999999999
100
AcDbArc
 50
265.158644
 51
324.777222
  0
ARC
  5
92
330
582
100
AcDbEntity
  8
1
100
AcDbCircle
 10
-49.5
 20
-5.224999999999999
 30
0.0
 40
1.415999999999999
100
AcDbArc
 50
31.160371
 51
85.15864399999999
  0
ARC
  5
93
330
582
100
AcDbEntity
  8
1
100
AcDbCircle
 10
-49.5
 20
-5.224999999999999
 30
0.0
 40
1.415999999999999
100
AcDbArc
 50
85.15864399999999
 51
144.777222
  0
ARC
  5
94
330
582
100
AcDbEntity
  8
SK1
100
AcDbCircle
 10
-8.15
 20
-8.387499999999999
 30
0.0
 40
0.4
210
0.0
220
0.0
230
-1.0
100
AcDbArc
 50
0.0
 51
90.0
  0
ARC
  5
95
330
582
100
AcDbEntity
  8
1
100
AcDbCircle
 10
-49.5
 20
-5.224999999999999
 30
0.0
 40
1.415999999999999
100
AcDbArc
 50
324.777222
 51
18.775495
  0
ARC
  5
96
330
582
100
AcDbEntity
  8
1
100
AcDbCircle
 10
-49.5
 20
-5.224999999999999
 30
0.0
 40
1.415999999999999
100
AcDbArc
 50
18.775495
 51
31.160371
  0
ARC
  5
97
330
582
100
AcDbEntity
  8
1
100
AcDbCircle
 10
-49.5
 20
-5.224999999999999
 30
0.0
 40
1.968499999999999
100
AcDbArc
 50
114.967933
 51
174.586511
  0
ARC
  5
98
330
582
100
AcDbEntity
  8
1
100
AcDbCircle
 10
-49.5
 20
-5.224999999999999
 30
0.0
 40
1.968499999999999
100
AcDbArc
 50
294.967933
 51
354.586511
  0
ARC
  5
99
330
582
100
AcDbEntity
  8
1
100
AcDbCircle
 10
-49.5
 20
-5.224999999999999
 30
0.0
 40
1.968499999999999
100
AcDbArc
 50
174.586511
 51
235.349355
  0
CIRCLE
  5
9A
330
582
100
AcDbEntity
  8
1
100
AcDbCircle
 10
49.5
 20
-5.224999999999999
 30
0.0
 40
3.75
210
0.0
220
0.0
230
-1.0
  0
CIRCLE
  5
9B
330
582
100
AcDbEntity
  8
1
100
AcDbCircle
 10
49.5
 20
-5.224999999999999
 30
0.0
 40
3.5
210
0.0
220
0.0
230
-1.0
  0
ARC
  5
9C
330
582
100
AcDbEntity
  8
1
100
AcDbCircle
 10
-49.5
 20
-5.224999999999999
 30
0.0
 40
1.968499999999999
100
AcDbArc
 50
55.34935500000001
 51
114.967933
  0
ARC
  5
9D
330
582
100
AcDbEntity
  8
1
100
AcDbCircle
 10
-49.5
 20
-5.224999999999999
 30
0.0
 40
1.415999999999999
100
AcDbArc
 50
198.775495
 51
211.160371
  0
CIRCLE
  5
9E
330
582
100
AcDbEntity
  8
1
100
AcDbCircle
 10
49.5
 20
-5.224999999999999
 30
0.0
 40
3.0
210
0.0
220
0.0
230
-1.0
  0
TEXT
  5
9F
330
582
100
AcDbEntity
  8
SK6
100
AcDbText
 10
-55.35355500000001
 20
35.17077800000001
 30
0.0
 40
3.5
  1
QS-RF123F15-1212BHP
 41
0.7557088225806448
  7
SANDVIK_STYLE
 72
     5
 11
-8.499608
 21
35.17077800000001
 31
0.0
100
AcDbText
  0
POLYLINE
  5
A0
330
582
100
AcDbEntity
  8
1
100
AcDb3dPolyline
 66
     1
 10
0.0
 20
0.0
 30
0.0
 70
     8
  0
VERTEX
  5
A1
330
A0
100
AcDbEntity
  8
1
100
AcDbVertex
100
AcDb3dPolylineVertex
 10
-57.694177
 20
-11.995
 30
0.0
 70
    32
  0
VERTEX
  5
A2
330
A0
100
AcDbEntity
  8
1
100
AcDbVertex
100
AcDb3dPolylineVertex
 10
-57.751707
 20
-11.969561
 30
0.0
 70
    32
  0
VERTEX
  5
A3
330
A0
100
AcDbEntity
  8
1
100
AcDbVertex
100
AcDb3dPolylineVertex
 10
-57.810465
 20
-11.945833
 30
0.0
 70
    32
  0
VERTEX
  5
A4
330
A0
100
AcDbEntity
  8
1
100
AcDbVertex
100
AcDb3dPolylineVertex
 10
-57.87047900000001
 20
-11.923854
 30
0.0
 70
    32
  0
VERTEX
  5
A5
330
A0
100
AcDbEntity
  8
1
100
AcDbVertex
100
AcDb3dPolylineVertex
 10
-57.93177700000001
 20
-11.903663
 30
0.0
 70
    32
  0
VERTEX
  5
A6
330
A0
100
AcDbEntity
  8
1
100
AcDbVertex
100
AcDb3dPolylineVertex
 10
-57.99438699999999
 20
-11.885298
 30
0.0
 70
    32
  0
VERTEX
  5
A7
330
A0
100
AcDbEntity
  8
1
100
AcDbVertex
100
AcDb3dPolylineVertex
 10
-58.058358
 20
-11.868808
 30
0.0
 70
    32
  0
VERTEX
  5
A8
330
A0
100
AcDbEntity
  8
1
100
AcDbVertex
100
AcDb3dPolylineVertex
 10
-58.12372199999999
 20
-11.854404
 30
0.0
 70
    32
  0
VERTEX
  5
A9
330
A0
100
AcDbEntity
  8
1
100
AcDbVertex
100
AcDb3dPolylineVertex
 10
-58.190169
 20
-11.842419
 30
0.0
 70
    32
  0
VERTEX
  5
AA
330
A0
100
AcDbEntity
  8
1
100
AcDbVertex
100
AcDb3dPolylineVertex
 10
-58.25745799999999
 20
-11.833179
 30
0.0
 70
    32
  0
VERTEX
  5
AB
330
A0
100
AcDbEntity
  8
1
100
AcDbVertex
100
AcDb3dPolylineVertex
 10
-58.325381
 20
-11.827154
 30
0.0
 70
    32
  0
VERTEX
  5
AC
330
A0
100
AcDbEntity
  8
1
100
AcDbVertex
100
AcDb3dPolylineVertex
 10
-58.39336199999999
 20
-11.825
 30
0.0
 70
    32
  0
SEQEND
  5
AD
330
A0
100
AcDbEntity
  8
1
  0
POLYLINE
  5
AE
330
582
100
AcDbEntity
  8
1
100
AcDb3dPolyline
 66
     1
 10
0.0
 20
0.0
 30
0.0
 70
     8
  0
VERTEX
  5
AF
330
AE
100
AcDbEntity
  8
1
100
AcDbVertex
100
AcDb3dPolylineVertex
 10
-49.940176
 20
-3.525919
 30
0.0
 70
    32
  0
VERTEX
  5
B0
330
AE
100
AcDbEntity
  8
1
100
AcDbVertex
100
AcDb3dPolylineVertex
 10
-49.90111399999999
 20
-3.568751999999999
 30
0.0
 70
    32
  0
VERTEX
  5
B1
330
AE
100
AcDbEntity
  8
1
100
AcDbVertex
100
AcDb3dPolylineVertex
 10
-49.85893499999999
 20
-3.608908999999999
 30
0.0
 70
    32
  0
VERTEX
  5
B2
330
AE
100
AcDbEntity
  8
1
100
AcDbVertex
100
AcDb3dPolylineVertex
 10
-49.81351
 20
-3.646387999999999
 30
0.0
 70
    32
  0
VERTEX
  5
B3
330
AE
100
AcDbEntity
  8
1
100
AcDbVertex
100
AcDb3dPolylineVertex
 10
-49.764586
 20
-3.681155999999999
 30
0.0
 70
    32
  0
VERTEX
  5
B4
330
AE
100
AcDbEntity
  8
1
100
AcDbVertex
100
AcDb3dPolylineVertex
 10
-49.71244
 20
-3.712763999999999
 30
0.0
 70
    32
  0
VERTEX
  5
B5
330
AE
100
AcDbEntity
  8
1
100
AcDbVertex
100
AcDb3dPolylineVertex
 10
-49.657483
 20
-3.740725999999999
 30
0.0
 70
    32
  0
VERTEX
  5
B6
330
AE
100
AcDbEntity
  8
1
100
AcDbVertex
100
AcDb3dPolylineVertex
 10
-49.599865
 20
-3.764773
 30
0.0
 70
    32
  0
VERTEX
  5
B7
330
AE
100
AcDbEntity
  8
1
100
AcDbVertex
100
AcDb3dPolylineVertex
 10
-49.53942
 20
-3.784724999999999
 30
0.0
 70
    32
  0
VERTEX
  5
B8
330
AE
100
AcDbEntity
  8
1
100
AcDbVertex
100
AcDb3dPolylineVertex
 10
-49.476954
 20
-3.800105
 30
0.0
 70
    32
  0
VERTEX
  5
B9
330
AE
100
AcDbEntity
  8
1
100
AcDbVertex
100
AcDb3dPolylineVertex
 10
-49.41338
 20
-3.810599999999999
 30
0.0
 70
    32
  0
VERTEX
  5
BA
330
AE
100
AcDbEntity
  8
1
100
AcDbVertex
100
AcDb3dPolylineVertex
 10
-49.349053
 20
-3.816095999999999
 30
0.0
 70
    32
  0
VERTEX
  5
BB
330
AE
100
AcDbEntity
  8
1
100
AcDbVertex
100
AcDb3dPolylineVertex
 10
-49.284139
 20
-3.81653
 30
0.0
 70
    32
  0
VERTEX
  5
BC
330
AE
100
AcDbEntity
  8
1
100
AcDbVertex
100
AcDb3dPolylineVertex
 10
-49.219837
 20
-3.811975999999999
 30
0.0
 70
    32
  0
VERTEX
  5
BD
330
AE
100
AcDbEntity
  8
1
100
AcDbVertex
100
AcDb3dPolylineVertex
 10
-49.156966
 20
-3.802537
 30
0.0
 70
    32
  0
VERTEX
  5
BE
330
AE
100
AcDbEntity
  8
1
100
AcDbVertex
100
AcDb3dPolylineVertex
 10
-49.095648
 20
-3.788479
 30
0.0
 70
    32
  0
VERTEX
  5
BF
330
AE
100
AcDbEntity
  8
1
100
AcDbVertex
100
AcDb3dPolylineVertex
 10
-49.036559
 20
-3.770153
 30
0.0
 70
    32
  0
VERTEX
  5
C0
330
AE
100
AcDbEntity
  8
1
100
AcDbVertex
100
AcDb3dPolylineVertex
 10
-48.98017
 20
-3.747962
 30
0.0
 70
    32
  0
VERTEX
  5
C1
330
AE
100
AcDbEntity
  8
1
100
AcDbVertex
100
AcDb3dPolylineVertex
 10
-48.926387
 20
-3.722108999999999
 30
0.0
 70
    32
  0
VERTEX
  5
C2
330
AE
100
AcDbEntity
  8
1
100
AcDbVertex
100
AcDb3dPolylineVertex
 10
-48.875056
 20
-3.692720999999999
 30
0.0
 70
    32
  0
VERTEX
  5
C3
330
AE
100
AcDbEntity
  8
1
100
AcDbVertex
100
AcDb3dPolylineVertex
 10
-48.826281
 20
-3.659973
 30
0.0
 70
    32
  0
VERTEX
  5
C4
330
AE
100
AcDbEntity
  8
1
100
AcDbVertex
100
AcDb3dPolylineVertex
 10
-48.780323
 20
-3.624156999999999
 30
0.0
 70
    32
  0
SEQEND
  5
C5
330
AE
100
AcDbEntity
  8
1
  0
POLYLINE
  5
C6
330
582
100
AcDbEntity
  8
1
100
AcDb3dPolyline
 66
     1
 10
0.0
 20
0.0
 30
0.0
 70
     8
  0
VERTEX
  5
C7
330
C6
100
AcDbEntity
  8
1
100
AcDbVertex
100
AcDb3dPolylineVertex
 10
-51.18838
 20
-4.745413
 30
0.0
 70
    32
  0
VERTEX
  5
C8
330
C6
100
AcDbEntity
  8
1
100
AcDbVertex
100
AcDb3dPolylineVertex
 10
-51.131673
 20
-4.733378
 30
0.0
 70
    32
  0
VERTEX
  5
C9
330
C6
100
AcDbEntity
  8
1
100
AcDbVertex
100
AcDb3dPolylineVertex
 10
-51.075698
 20
-4.717299999999999
 30
0.0
 70
    32
  0
VERTEX
  5
CA
330
C6
100
AcDbEntity
  8
1
100
AcDbVertex
100
AcDb3dPolylineVertex
 10
-51.020393
 20
-4.697068999999999
 30
0.0
 70
    32
  0
VERTEX
  5
CB
330
C6
100
AcDbEntity
  8
1
100
AcDbVertex
100
AcDb3dPolylineVertex
 10
-50.965656
 20
-4.672447
 30
0.0
 70
    32
  0
VERTEX
  5
CC
330
C6
100
AcDbEntity
  8
1
100
AcDbVertex
100
AcDb3dPolylineVertex
 10
-50.912015
 20
-4.643447
 30
0.0
 70
    32
  0
VERTEX
  5
CD
330
C6
100
AcDbEntity
  8
1
100
AcDbVertex
100
AcDb3dPolylineVertex
 10
-50.860098
 20
-4.610179
 30
0.0
 70
    32
  0
VERTEX
  5
CE
330
C6
100
AcDbEntity
  8
1
100
AcDbVertex
100
AcDb3dPolylineVertex
 10
-50.81021299999999
 20
-4.572636
 30
0.0
 70
    32
  0
VERTEX
  5
CF
330
C6
100
AcDbEntity
  8
1
100
AcDbVertex
100
AcDb3dPolylineVertex
 10
-50.76243
 20
-4.530580999999999
 30
0.0
 70
    32
  0
VERTEX
  5
D0
330
C6
100
AcDbEntity
  8
1
100
AcDbVertex
100
AcDb3dPolylineVertex
 10
-50.71757
 20
-4.484472
 30
0.0
 70
    32
  0
VERTEX
  5
D1
330
C6
100
AcDbEntity
  8
1
100
AcDbVertex
100
AcDb3dPolylineVertex
 10
-50.676363
 20
-4.434936
 30
0.0
 70
    32
  0
VERTEX
  5
D2
330
C6
100
AcDbEntity
  8
1
100
AcDbVertex
100
AcDb3dPolylineVertex
 10
-50.639088
 20
-4.382223
 30
0.0
 70
    32
  0
VERTEX
  5
D3
330
C6
100
AcDbEntity
  8
1
100
AcDbVertex
100
AcDb3dPolylineVertex
 10
-50.605883
 20
-4.326442
 30
0.0
 70
    32
  0
VERTEX
  5
D4
330
C6
100
AcDbEntity
  8
1
100
AcDbVertex
100
AcDb3dPolylineVertex
 10
-50.57729099999999
 20
-4.268666999999999
 30
0.0
 70
    32
  0
VERTEX
  5
D5
330
C6
100
AcDbEntity
  8
1
100
AcDbVertex
100
AcDb3dPolylineVertex
 10
-50.55363599999999
 20
-4.209655999999999
 30
0.0
 70
    32
  0
VERTEX
  5
D6
330
C6
100
AcDbEntity
  8
1
100
AcDbVertex
100
AcDb3dPolylineVertex
 10
-50.53475200000001
 20
-4.149648
 30
0.0
 70
    32
  0
VERTEX
  5
D7
330
C6
100
AcDbEntity
  8
1
100
AcDbVertex
100
AcDb3dPolylineVertex
 10
-50.520677
 20
-4.089405
 30
0.0
 70
    32
  0
VERTEX
  5
D8
330
C6
100
AcDbEntity
  8
1
100
AcDbVertex
100
AcDb3dPolylineVertex
 10
-50.511301
 20
-4.029536
 30
0.0
 70
    32
  0
VERTEX
  5
D9
330
C6
100
AcDbEntity
  8
1
100
AcDbVertex
100
AcDb3dPolylineVertex
 10
-50.50640399999999
 20
-3.970063999999999
 30
0.0
 70
    32
  0
VERTEX
  5
DA
330
C6
100
AcDbEntity
  8
1
100
AcDbVertex
100
AcDb3dPolylineVertex
 10
-50.505795
 20
-3.910919
 30
0.0
 70
    32
  0
VERTEX
  5
DB
330
C6
100
AcDbEntity
  8
1
100
AcDbVertex
100
AcDb3dPolylineVertex
 10
-50.509378
 20
-3.852279
 30
0.0
 70
    32
  0
VERTEX
  5
DC
330
C6
100
AcDbEntity
  8
1
100
AcDbVertex
100
AcDb3dPolylineVertex
 10
-50.517032
 20
-3.794518
 30
0.0
 70
    32
  0
SEQEND
  5
DD
330
C6
100
AcDbEntity
  8
1
  0
POLYLINE
  5
DE
330
582
100
AcDbEntity
  8
1
100
AcDb3dPolyline
 66
     1
 10
0.0
 20
0.0
 30
0.0
 70
     8
  0
VERTEX
  5
DF
330
DE
100
AcDbEntity
  8
1
100
AcDbVertex
100
AcDb3dPolylineVertex
 10
-62.073002
 20
-9.898550999999999
 30
0.0
 70
    32
  0
VERTEX
  5
E0
330
DE
100
AcDbEntity
  8
1
100
AcDbVertex
100
AcDb3dPolylineVertex
 10
-62.073019
 20
-9.900826999999999
 30
0.0
 70
    32
  0
VERTEX
  5
E1
330
DE
100
AcDbEntity
  8
1
100
AcDbVertex
100
AcDb3dPolylineVertex
 10
-62.073071
 20
-9.903102999999999
 30
0.0
 70
    32
  0
VERTEX
  5
E2
330
DE
100
AcDbEntity
  8
1
100
AcDbVertex
100
AcDb3dPolylineVertex
 10
-62.07315699999999
 20
-9.905378
 30
0.0
 70
    32
  0
VERTEX
  5
E3
330
DE
100
AcDbEntity
  8
1
100
AcDbVertex
100
AcDb3dPolylineVertex
 10
-62.073278
 20
-9.907650999999999
 30
0.0
 70
    32
  0
VERTEX
  5
E4
330
DE
100
AcDbEntity
  8
1
100
AcDbVertex
100
AcDb3dPolylineVertex
 10
-62.07343299999999
 20
-9.909922999999999
 30
0.0
 70
    32
  0
VERTEX
  5
E5
330
DE
100
AcDbEntity
  8
1
100
AcDbVertex
100
AcDb3dPolylineVertex
 10
-62.07362299999999
 20
-9.912190999999999
 30
0.0
 70
    32
  0
VERTEX
  5
E6
330
DE
100
AcDbEntity
  8
1
100
AcDbVertex
100
AcDb3dPolylineVertex
 10
-62.073847
 20
-9.914457
 30
0.0
 70
    32
  0
VERTEX
  5
E7
330
DE
100
AcDbEntity
  8
1
100
AcDbVertex
100
AcDb3dPolylineVertex
 10
-62.07410600000001
 20
-9.916717999999999
 30
0.0
 70
    32
  0
VERTEX
  5
E8
330
DE
100
AcDbEntity
  8
1
100
AcDbVertex
100
AcDb3dPolylineVertex
 10
-62.074399
 20
-9.918975999999998
 30
0.0
 70
    32
  0
VERTEX
  5
E9
330
DE
100
AcDbEntity
  8
1
100
AcDbVertex
100
AcDb3dPolylineVertex
 10
-62.074726
 20
-9.921228999999998
 30
0.0
 70
    32
  0
VERTEX
  5
EA
330
DE
100
AcDbEntity
  8
1
100
AcDbVertex
100
AcDb3dPolylineVertex
 10
-62.07508699999999
 20
-9.923475999999999
 30
0.0
 70
    32
  0
VERTEX
  5
EB
330
DE
100
AcDbEntity
  8
1
100
AcDbVertex
100
AcDb3dPolylineVertex
 10
-62.07548199999999
 20
-9.925717999999999
 30
0.0
 70
    32
  0
VERTEX
  5
EC
330
DE
100
AcDbEntity
  8
1
100
AcDbVertex
100
AcDb3dPolylineVertex
 10
-62.075912
 20
-9.927953999999999
 30
0.0
 70
    32
  0
VERTEX
  5
ED
330
DE
100
AcDbEntity
  8
1
100
AcDbVertex
100
AcDb3dPolylineVertex
 10
-62.076375
 20
-9.930182999999999
 30
0.0
 70
    32
  0
VERTEX
  5
EE
330
DE
100
AcDbEntity
  8
1
100
AcDbVertex
100
AcDb3dPolylineVertex
 10
-62.07687199999999
 20
-9.932405000000001
 30
0.0
 70
    32
  0
VERTEX
  5
EF
330
DE
100
AcDbEntity
  8
1
100
AcDbVertex
100
AcDb3dPolylineVertex
 10
-62.07740199999999
 20
-9.934617999999998
 30
0.0
 70
    32
  0
VERTEX
  5
F0
330
DE
100
AcDbEntity
  8
1
100
AcDbVertex
100
AcDb3dPolylineVertex
 10
-62.077966
 20
-9.936823999999999
 30
0.0
 70
    32
  0
VERTEX
  5
F1
330
DE
100
AcDbEntity
  8
1
100
AcDbVertex
100
AcDb3dPolylineVertex
 10
-62.078564
 20
-9.939019999999999
 30
0.0
 70
    32
  0
VERTEX
  5
F2
330
DE
100
AcDbEntity
  8
1
100
AcDbVertex
100
AcDb3dPolylineVertex
 10
-62.079195
 20
-9.941207999999999
 30
0.0
 70
    32
  0
VERTEX
  5
F3
330
DE
100
AcDbEntity
  8
1
100
AcDbVertex
100
AcDb3dPolylineVertex
 10
-62.079859
 20
-9.943385000000001
 30
0.0
 70
    32
  0
VERTEX
  5
F4
330
DE
100
AcDbEntity
  8
1
100
AcDbVertex
100
AcDb3dPolylineVertex
 10
-62.08055600000001
 20
-9.945553
 30
0.0
 70
    32
  0
VERTEX
  5
F5
330
DE
100
AcDbEntity
  8
1
100
AcDbVertex
100
AcDb3dPolylineVertex
 10
-62.081285
 20
-9.947708999999999
 30
0.0
 70
    32
  0
VERTEX
  5
F6
330
DE
100
AcDbEntity
  8
1
100
AcDbVertex
100
AcDb3dPolylineVertex
 10
-62.082048
 20
-9.949854
 30
0.0
 70
    32
  0
SEQEND
  5
F7
330
DE
100
AcDbEntity
  8
1
  0
POLYLINE
  5
F8
330
582
100
AcDbEntity
  8
1
100
AcDb3dPolyline
 66
     1
 10
0.0
 20
0.0
 30
0.0
 70
     8
  0
VERTEX
  5
F9
330
F8
100
AcDbEntity
  8
1
100
AcDbVertex
100
AcDb3dPolylineVertex
 10
-49.059824
 20
-6.924081
 30
0.0
 70
    32
  0
VERTEX
  5
FA
330
F8
100
AcDbEntity
  8
1
100
AcDbVertex
100
AcDb3dPolylineVertex
 10
-49.03863499999999
 20
-6.946782
 30
0.0
 70
    32
  0
VERTEX
  5
FB
330
F8
100
AcDbEntity
  8
1
100
AcDbVertex
100
AcDb3dPolylineVertex
 10
-49.015315
 20
-6.967447999999999
 30
0.0
 70
    32
  0
VERTEX
  5
FC
330
F8
100
AcDbEntity
  8
1
100
AcDbVertex
100
AcDb3dPolylineVertex
 10
-48.989817
 20
-6.986014999999999
 30
0.0
 70
    32
  0
VERTEX
  5
FD
330
F8
100
AcDbEntity
  8
1
100
AcDbVertex
100
AcDb3dPolylineVertex
 10
-48.962221
 20
-7.002314
 30
0.0
 70
    32
  0
VERTEX
  5
FE
330
F8
100
AcDbEntity
  8
1
100
AcDbVertex
100
AcDb3dPolylineVertex
 10
-48.932907
 20
-7.015971
 30
0.0
 70
    32
  0
VERTEX
  5
FF
330
F8
100
AcDbEntity
  8
1
100
AcDbVertex
100
AcDb3dPolylineVertex
 10
-48.902078
 20
-7.026788
 30
0.0
 70
    32
  0
VERTEX
  5
100
330
F8
100
AcDbEntity
  8
1
100
AcDbVertex
100
AcDb3dPolylineVertex
 10
-48.86991
 20
-7.034575999999999
 30
0.0
 70
    32
  0
VERTEX
  5
101
330
F8
100
AcDbEntity
  8
1
100
AcDbVertex
100
AcDb3dPolylineVertex
 10
-48.836632
 20
-7.039130999999999
 30
0.0
 70
    32
  0
VERTEX
  5
102
330
F8
100
AcDbEntity
  8
1
100
AcDbVertex
100
AcDb3dPolylineVertex
 10
-48.802721
 20
-7.04031
 30
0.0
 70
    32
  0
VERTEX
  5
103
330
F8
100
AcDbEntity
  8
1
100
AcDbVertex
100
AcDb3dPolylineVertex
 10
-48.768667
 20
-7.037971999999999
 30
0.0
 70
    32
  0
VERTEX
  5
104
330
F8
100
AcDbEntity
  8
1
100
AcDbVertex
100
AcDb3dPolylineVertex
 10
-48.734713
 20
-7.032013
 30
0.0
 70
    32
  0
VERTEX
  5
105
330
F8
100
AcDbEntity
  8
1
100
AcDbVertex
100
AcDb3dPolylineVertex
 10
-48.701321
 20
-7.022497999999999
 30
0.0
 70
    32
  0
VERTEX
  5
106
330
F8
100
AcDbEntity
  8
1
100
AcDbVertex
100
AcDb3dPolylineVertex
 10
-48.66907499999999
 20
-7.009532
 30
0.0
 70
    32
  0
SEQEND
  5
107
330
F8
100
AcDbEntity
  8
1
  0
POLYLINE
  5
108
330
582
100
AcDbEntity
  8
1
100
AcDb3dPolyline
 66
     1
 10
0.0
 20
0.0
 30
0.0
 70
     8
  0
VERTEX
  5
109
330
108
100
AcDbEntity
  8
1
100
AcDbVertex
100
AcDb3dPolylineVertex
 10
-50.74004099999999
 20
-6.455555
 30
0.0
 70
    32
  0
VERTEX
  5
10A
330
108
100
AcDbEntity
  8
1
100
AcDbVertex
100
AcDb3dPolylineVertex
 10
-50.749884
 20
-6.485654
 30
0.0
 70
    32
  0
VERTEX
  5
10B
330
108
100
AcDbEntity
  8
1
100
AcDbVertex
100
AcDb3dPolylineVertex
 10
-50.756802
 20
-6.516666
 30
0.0
 70
    32
  0
VERTEX
  5
10C
330
108
100
AcDbEntity
  8
1
100
AcDbVertex
100
AcDb3dPolylineVertex
 10
-50.760711
 20
-6.548601999999999
 30
0.0
 70
    32
  0
VERTEX
  5
10D
330
108
100
AcDbEntity
  8
1
100
AcDbVertex
100
AcDb3dPolylineVertex
 10
-50.76149799999999
 20
-6.581291
 30
0.0
 70
    32
  0
VERTEX
  5
10E
330
108
100
AcDbEntity
  8
1
100
AcDbVertex
100
AcDb3dPolylineVertex
 10
-50.759014
 20
-6.614171999999999
 30
0.0
 70
    32
  0
VERTEX
  5
10F
330
108
100
AcDbEntity
  8
1
100
AcDbVertex
100
AcDb3dPolylineVertex
 10
-50.753177
 20
-6.646988
 30
0.0
 70
    32
  0
VERTEX
  5
110
330
108
100
AcDbEntity
  8
1
100
AcDbVertex
100
AcDb3dPolylineVertex
 10
-50.74390199999999
 20
-6.679494
 30
0.0
 70
    32
  0
VERTEX
  5
111
330
108
100
AcDbEntity
  8
1
100
AcDbVertex
100
AcDb3dPolylineVertex
 10
-50.731137
 20
-6.711316
 30
0.0
 70
    32
  0
VERTEX
  5
112
330
108
100
AcDbEntity
  8
1
100
AcDbVertex
100
AcDb3dPolylineVertex
 10
-50.714983
 20
-6.741966
 30
0.0
 70
    32
  0
VERTEX
  5
113
330
108
100
AcDbEntity
  8
1
100
AcDbVertex
100
AcDb3dPolylineVertex
 10
-50.69554799999999
 20
-6.770955999999999
 30
0.0
 70
    32
  0
VERTEX
  5
114
330
108
100
AcDbEntity
  8
1
100
AcDbVertex
100
AcDb3dPolylineVertex
 10
-50.672904
 20
-6.797952
 30
0.0
 70
    32
  0
VERTEX
  5
115
330
108
100
AcDbEntity
  8
1
100
AcDbVertex
100
AcDb3dPolylineVertex
 10
-50.647345
 20
-6.822566
 30
0.0
 70
    32
  0
VERTEX
  5
116
330
108
100
AcDbEntity
  8
1
100
AcDbVertex
100
AcDb3dPolylineVertex
 10
-50.619232
 20
-6.844355
 30
0.0
 70
    32
  0
SEQEND
  5
117
330
108
100
AcDbEntity
  8
1
  0
POLYLINE
  5
118
330
582
100
AcDbEntity
  8
1
100
AcDb3dPolyline
 66
     1
 10
0.0
 20
0.0
 30
0.0
 70
     8
  0
VERTEX
  5
119
330
118
100
AcDbEntity
  8
1
100
AcDbVertex
100
AcDb3dPolylineVertex
 10
-48.259959
 20
-3.994444999999999
 30
0.0
 70
    32
  0
VERTEX
  5
11A
330
118
100
AcDbEntity
  8
1
100
AcDbVertex
100
AcDb3dPolylineVertex
 10
-48.25011599999999
 20
-3.964345999999999
 30
0.0
 70
    32
  0
VERTEX
  5
11B
330
118
100
AcDbEntity
  8
1
100
AcDbVertex
100
AcDb3dPolylineVertex
 10
-48.243198
 20
-3.933333999999999
 30
0.0
 70
    32
  0
VERTEX
  5
11C
330
118
100
AcDbEntity
  8
1
100
AcDbVertex
100
AcDb3dPolylineVertex
 10
-48.239289
 20
-3.901398
 30
0.0
 70
    32
  0
VERTEX
  5
11D
330
118
100
AcDbEntity
  8
1
100
AcDbVertex
100
AcDb3dPolylineVertex
 10
-48.238502
 20
-3.868708999999999
 30
0.0
 70
    32
  0
VERTEX
  5
11E
330
118
100
AcDbEntity
  8
1
100
AcDbVertex
100
AcDb3dPolylineVertex
 10
-48.240986
 20
-3.835827999999999
 30
0.0
 70
    32
  0
VERTEX
  5
11F
330
118
100
AcDbEntity
  8
1
100
AcDbVertex
100
AcDb3dPolylineVertex
 10
-48.246823
 20
-3.803012
 30
0.0
 70
    32
  0
VERTEX
  5
120
330
118
100
AcDbEntity
  8
1
100
AcDbVertex
100
AcDb3dPolylineVertex
 10
-48.256098
 20
-3.770505999999999
 30
0.0
 70
    32
  0
VERTEX
  5
121
330
118
100
AcDbEntity
  8
1
100
AcDbVertex
100
AcDb3dPolylineVertex
 10
-48.268863
 20
-3.738683999999999
 30
0.0
 70
    32
  0
VERTEX
  5
122
330
118
100
AcDbEntity
  8
1
100
AcDbVertex
100
AcDb3dPolylineVertex
 10
-48.285017
 20
-3.708033999999999
 30
0.0
 70
    32
  0
VERTEX
  5
123
330
118
100
AcDbEntity
  8
1
100
AcDbVertex
100
AcDb3dPolylineVertex
 10
-48.304452
 20
-3.679044
 30
0.0
 70
    32
  0
VERTEX
  5
124
330
118
100
AcDbEntity
  8
1
100
AcDbVertex
100
AcDb3dPolylineVertex
 10
-48.32709600000001
 20
-3.652048
 30
0.0
 70
    32
  0
VERTEX
  5
125
330
118
100
AcDbEntity
  8
1
100
AcDbVertex
100
AcDb3dPolylineVertex
 10
-48.352655
 20
-3.627433999999999
 30
0.0
 70
    32
  0
VERTEX
  5
126
330
118
100
AcDbEntity
  8
1
100
AcDbVertex
100
AcDb3dPolylineVertex
 10
-48.38076799999999
 20
-3.605644999999999
 30
0.0
 70
    32
  0
SEQEND
  5
127
330
118
100
AcDbEntity
  8
1
  0
POLYLINE
  5
128
330
582
100
AcDbEntity
  8
1
100
AcDb3dPolyline
 66
     1
 10
0.0
 20
0.0
 30
0.0
 70
     8
  0
VERTEX
  5
129
330
128
100
AcDbEntity
  8
1
100
AcDbVertex
100
AcDb3dPolylineVertex
 10
-50.619232
 20
-6.844355
 30
0.0
 70
    32
  0
VERTEX
  5
12A
330
128
100
AcDbEntity
  8
1
100
AcDbVertex
100
AcDb3dPolylineVertex
 10
-50.589733
 20
-6.862518999999999
 30
0.0
 70
    32
  0
VERTEX
  5
12B
330
128
100
AcDbEntity
  8
1
100
AcDbVertex
100
AcDb3dPolylineVertex
 10
-50.55854599999999
 20
-6.877477
 30
0.0
 70
    32
  0
VERTEX
  5
12C
330
128
100
AcDbEntity
  8
1
100
AcDbVertex
100
AcDb3dPolylineVertex
 10
-50.526063
 20
-6.889077
 30
0.0
 70
    32
  0
VERTEX
  5
12D
330
128
100
AcDbEntity
  8
1
100
AcDbVertex
100
AcDb3dPolylineVertex
 10
-50.49278
 20
-6.89717
 30
0.0
 70
    32
  0
VERTEX
  5
12E
330
128
100
AcDbEntity
  8
1
100
AcDbVertex
100
AcDb3dPolylineVertex
 10
-50.459249
 20
-6.901733999999999
 30
0.0
 70
    32
  0
VERTEX
  5
12F
330
128
100
AcDbEntity
  8
1
100
AcDbVertex
100
AcDb3dPolylineVertex
 10
-50.425695
 20
-6.902835
 30
0.0
 70
    32
  0
VERTEX
  5
130
330
128
100
AcDbEntity
  8
1
100
AcDbVertex
100
AcDb3dPolylineVertex
 10
-50.392422
 20
-6.900557
 30
0.0
 70
    32
  0
VERTEX
  5
131
330
128
100
AcDbEntity
  8
1
100
AcDbVertex
100
AcDb3dPolylineVertex
 10
-50.360143
 20
-6.895075999999999
 30
0.0
 70
    32
  0
VERTEX
  5
132
330
128
100
AcDbEntity
  8
1
100
AcDbVertex
100
AcDb3dPolylineVertex
 10
-50.328998
 20
-6.886538999999999
 30
0.0
 70
    32
  0
VERTEX
  5
133
330
128
100
AcDbEntity
  8
1
100
AcDbVertex
100
AcDb3dPolylineVertex
 10
-50.299044
 20
-6.875092999999999
 30
0.0
 70
    32
  0
VERTEX
  5
134
330
128
100
AcDbEntity
  8
1
100
AcDbVertex
100
AcDb3dPolylineVertex
 10
-50.270769
 20
-6.861063
 30
0.0
 70
    32
  0
VERTEX
  5
135
330
128
100
AcDbEntity
  8
1
100
AcDbVertex
100
AcDb3dPolylineVertex
 10
-50.244328
 20
-6.844619
 30
0.0
 70
    32
  0
VERTEX
  5
136
330
128
100
AcDbEntity
  8
1
100
AcDbVertex
100
AcDb3dPolylineVertex
 10
-50.21967700000001
 20
-6.825842999999998
 30
0.0
 70
    32
  0
SEQEND
  5
137
330
128
100
AcDbEntity
  8
1
  0
POLYLINE
  5
138
330
582
100
AcDbEntity
  8
1
100
AcDb3dPolyline
 66
     1
 10
0.0
 20
0.0
 30
0.0
 70
     8
  0
VERTEX
  5
139
330
138
100
AcDbEntity
  8
1
100
AcDbVertex
100
AcDb3dPolylineVertex
 10
-48.259959
 20
-3.994444999999999
 30
0.0
 70
    32
  0
VERTEX
  5
13A
330
138
100
AcDbEntity
  8
1
100
AcDbVertex
100
AcDb3dPolylineVertex
 10
-48.274543
 20
-4.036018
 30
0.0
 70
    32
  0
VERTEX
  5
13B
330
138
100
AcDbEntity
  8
1
100
AcDbVertex
100
AcDb3dPolylineVertex
 10
-48.28692199999999
 20
-4.078389999999999
 30
0.0
 70
    32
  0
VERTEX
  5
13C
330
138
100
AcDbEntity
  8
1
100
AcDbVertex
100
AcDb3dPolylineVertex
 10
-48.297044
 20
-4.121609999999999
 30
0.0
 70
    32
  0
VERTEX
  5
13D
330
138
100
AcDbEntity
  8
1
100
AcDbVertex
100
AcDb3dPolylineVertex
 10
-48.304858
 20
-4.165726
 30
0.0
 70
    32
  0
VERTEX
  5
13E
330
138
100
AcDbEntity
  8
1
100
AcDbVertex
100
AcDb3dPolylineVertex
 10
-48.310311
 20
-4.210785999999999
 30
0.0
 70
    32
  0
VERTEX
  5
13F
330
138
100
AcDbEntity
  8
1
100
AcDbVertex
100
AcDb3dPolylineVertex
 10
-48.31333499999999
 20
-4.25679
 30
0.0
 70
    32
  0
VERTEX
  5
140
330
138
100
AcDbEntity
  8
1
100
AcDbVertex
100
AcDb3dPolylineVertex
 10
-48.313786
 20
-4.303392999999999
 30
0.0
 70
    32
  0
VERTEX
  5
141
330
138
100
AcDbEntity
  8
1
100
AcDbVertex
100
AcDb3dPolylineVertex
 10
-48.311587
 20
-4.350311
 30
0.0
 70
    32
  0
VERTEX
  5
142
330
138
100
AcDbEntity
  8
1
100
AcDbVertex
100
AcDb3dPolylineVertex
 10
-48.30667899999999
 20
-4.397377999999999
 30
0.0
 70
    32
  0
VERTEX
  5
143
330
138
100
AcDbEntity
  8
1
100
AcDbVertex
100
AcDb3dPolylineVertex
 10
-48.298963
 20
-4.444696999999999
 30
0.0
 70
    32
  0
VERTEX
  5
144
330
138
100
AcDbEntity
  8
1
100
AcDbVertex
100
AcDb3dPolylineVertex
 10
-48.288297
 20
-4.492312
 30
0.0
 70
    32
  0
SEQEND
  5
145
330
138
100
AcDbEntity
  8
1
  0
POLYLINE
  5
146
330
582
100
AcDbEntity
  8
1
100
AcDb3dPolyline
 66
     1
 10
0.0
 20
0.0
 30
0.0
 70
     8
  0
VERTEX
  5
147
330
146
100
AcDbEntity
  8
1
100
AcDbVertex
100
AcDb3dPolylineVertex
 10
-47.54027999999999
 20
-5.410713999999999
 30
0.0
 70
    32
  0
VERTEX
  5
148
330
146
100
AcDbEntity
  8
1
100
AcDbVertex
100
AcDb3dPolylineVertex
 10
-47.53886099999999
 20
-5.375173
 30
0.0
 70
    32
  0
VERTEX
  5
149
330
146
100
AcDbEntity
  8
1
100
AcDbVertex
100
AcDb3dPolylineVertex
 10
-47.54124799999999
 20
-5.339769999999999
 30
0.0
 70
    32
  0
VERTEX
  5
14A
330
146
100
AcDbEntity
  8
1
100
AcDbVertex
100
AcDb3dPolylineVertex
 10
-47.547334
 20
-5.305064999999999
 30
0.0
 70
    32
  0
VERTEX
  5
14B
330
146
100
AcDbEntity
  8
1
100
AcDbVertex
100
AcDb3dPolylineVertex
 10
-47.55701199999999
 20
-5.271530999999999
 30
0.0
 70
    32
  0
VERTEX
  5
14C
330
146
100
AcDbEntity
  8
1
100
AcDbVertex
100
AcDb3dPolylineVertex
 10
-47.570071
 20
-5.23944
 30
0.0
 70
    32
  0
VERTEX
  5
14D
330
146
100
AcDbEntity
  8
1
100
AcDbVertex
100
AcDb3dPolylineVertex
 10
-47.586209
 20
-5.209189
 30
0.0
 70
    32
  0
VERTEX
  5
14E
330
146
100
AcDbEntity
  8
1
100
AcDbVertex
100
AcDb3dPolylineVertex
 10
-47.605117
 20
-5.181168
 30
0.0
 70
    32
  0
VERTEX
  5
14F
330
146
100
AcDbEntity
  8
1
100
AcDbVertex
100
AcDb3dPolylineVertex
 10
-47.62647499999999
 20
-5.155579
 30
0.0
 70
    32
  0
VERTEX
  5
150
330
146
100
AcDbEntity
  8
1
100
AcDbVertex
100
AcDb3dPolylineVertex
 10
-47.65004099999999
 20
-5.132513999999999
 30
0.0
 70
    32
  0
VERTEX
  5
151
330
146
100
AcDbEntity
  8
1
100
AcDbVertex
100
AcDb3dPolylineVertex
 10
-47.675565
 20
-5.112076
 30
0.0
 70
    32
  0
VERTEX
  5
152
330
146
100
AcDbEntity
  8
1
100
AcDbVertex
100
AcDb3dPolylineVertex
 10
-47.702523
 20
-5.094511999999999
 30
0.0
 70
    32
  0
VERTEX
  5
153
330
146
100
AcDbEntity
  8
1
100
AcDbVertex
100
AcDb3dPolylineVertex
 10
-47.73070999999999
 20
-5.079845999999999
 30
0.0
 70
    32
  0
VERTEX
  5
154
330
146
100
AcDbEntity
  8
1
100
AcDbVertex
100
AcDb3dPolylineVertex
 10
-47.76008
 20
-5.068006999999999
 30
0.0
 70
    32
  0
SEQEND
  5
155
330
146
100
AcDbEntity
  8
1
  0
POLYLINE
  5
156
330
582
100
AcDbEntity
  8
1
100
AcDb3dPolyline
 66
     1
 10
0.0
 20
0.0
 30
0.0
 70
     8
  0
VERTEX
  5
157
330
156
100
AcDbEntity
  8
1
100
AcDbVertex
100
AcDb3dPolylineVertex
 10
-58.189292
 20
-9.224999999999999
 30
0.0
 70
    32
  0
VERTEX
  5
158
330
156
100
AcDbEntity
  8
1
100
AcDbVertex
100
AcDb3dPolylineVertex
 10
-58.195491
 20
-9.280478
 30
0.0
 70
    32
  0
VERTEX
  5
159
330
156
100
AcDbEntity
  8
1
100
AcDbVertex
100
AcDb3dPolylineVertex
 10
-58.212993
 20
-9.333477999999999
 30
0.0
 70
    32
  0
VERTEX
  5
15A
330
156
100
AcDbEntity
  8
1
100
AcDbVertex
100
AcDb3dPolylineVertex
 10
-58.24012800000001
 20
-9.382037999999999
 30
0.0
 70
    32
  0
VERTEX
  5
15B
330
156
100
AcDbEntity
  8
1
100
AcDbVertex
100
AcDb3dPolylineVertex
 10
-58.27480699999999
 20
-9.425691
 30
0.0
 70
    32
  0
VERTEX
  5
15C
330
156
100
AcDbEntity
  8
1
100
AcDbVertex
100
AcDb3dPolylineVertex
 10
-58.315013
 20
-9.464093
 30
0.0
 70
    32
  0
VERTEX
  5
15D
330
156
100
AcDbEntity
  8
1
100
AcDbVertex
100
AcDb3dPolylineVertex
 10
-58.359479
 20
-9.497538
 30
0.0
 70
    32
  0
VERTEX
  5
15E
330
156
100
AcDbEntity
  8
1
100
AcDbVertex
100
AcDb3dPolylineVertex
 10
-58.407073
 20
-9.526322999999999
 30
0.0
 70
    32
  0
VERTEX
  5
15F
330
156
100
AcDbEntity
  8
1
100
AcDbVertex
100
AcDb3dPolylineVertex
 10
-58.456773
 20
-9.550781
 30
0.0
 70
    32
  0
VERTEX
  5
160
330
156
100
AcDbEntity
  8
1
100
AcDbVertex
100
AcDb3dPolylineVertex
 10
-58.508325
 20
-9.571385000000001
 30
0.0
 70
    32
  0
VERTEX
  5
161
330
156
100
AcDbEntity
  8
1
100
AcDbVertex
100
AcDb3dPolylineVertex
 10
-58.561279
 20
-9.588354999999999
 30
0.0
 70
    32
  0
VERTEX
  5
162
330
156
100
AcDbEntity
  8
1
100
AcDbVertex
100
AcDb3dPolylineVertex
 10
-58.61509999999999
 20
-9.601869
 30
0.0
 70
    32
  0
VERTEX
  5
163
330
156
100
AcDbEntity
  8
1
100
AcDbVertex
100
AcDb3dPolylineVertex
 10
-58.66934399999999
 20
-9.612133
 30
0.0
 70
    32
  0
VERTEX
  5
164
330
156
100
AcDbEntity
  8
1
100
AcDbVertex
100
AcDb3dPolylineVertex
 10
-58.723965
 20
-9.619343999999999
 30
0.0
 70
    32
  0
VERTEX
  5
165
330
156
100
AcDbEntity
  8
1
100
AcDbVertex
100
AcDb3dPolylineVertex
 10
-58.77895500000001
 20
-9.623601999999999
 30
0.0
 70
    32
  0
VERTEX
  5
166
330
156
100
AcDbEntity
  8
1
100
AcDbVertex
100
AcDb3dPolylineVertex
 10
-58.834303
 20
-9.625
 30
0.0
 70
    32
  0
SEQEND
  5
167
330
156
100
AcDbEntity
  8
1
  0
POLYLINE
  5
168
330
582
100
AcDbEntity
  8
1
100
AcDb3dPolyline
 66
     1
 10
0.0
 20
0.0
 30
0.0
 70
     8
  0
VERTEX
  5
169
330
168
100
AcDbEntity
  8
1
100
AcDbVertex
100
AcDb3dPolylineVertex
 10
3.149999999999999
 20
-8.9875
 30
0.0
 70
    32
  0
VERTEX
  5
16A
330
168
100
AcDbEntity
  8
1
100
AcDbVertex
100
AcDb3dPolylineVertex
 10
3.071947999999999
 20
-8.995219999999999
 30
0.0
 70
    32
  0
VERTEX
  5
16B
330
168
100
AcDbEntity
  8
1
100
AcDbVertex
100
AcDb3dPolylineVertex
 10
3.004488
 20
-9.014888
 30
0.0
 70
    32
  0
VERTEX
  5
16C
330
168
100
AcDbEntity
  8
1
100
AcDbVertex
100
AcDb3dPolylineVertex
 10
2.950019999999999
 20
-9.041076999999999
 30
0.0
 70
    32
  0
VERTEX
  5
16D
330
168
100
AcDbEntity
  8
1
100
AcDbVertex
100
AcDb3dPolylineVertex
 10
2.906727999999999
 20
-9.069972999999999
 30
0.0
 70
    32
  0
VERTEX
  5
16E
330
168
100
AcDbEntity
  8
1
100
AcDbVertex
100
AcDb3dPolylineVertex
 10
2.872353999999999
 20
-9.099544999999999
 30
0.0
 70
    32
  0
VERTEX
  5
16F
330
168
100
AcDbEntity
  8
1
100
AcDbVertex
100
AcDb3dPolylineVertex
 10
2.844772999999999
 20
-9.128961999999999
 30
0.0
 70
    32
  0
VERTEX
  5
170
330
168
100
AcDbEntity
  8
1
100
AcDbVertex
100
AcDb3dPolylineVertex
 10
2.822763999999999
 20
-9.157367999999999
 30
0.0
 70
    32
  0
VERTEX
  5
171
330
168
100
AcDbEntity
  8
1
100
AcDbVertex
100
AcDb3dPolylineVertex
 10
2.80533
 20
-9.184466999999999
 30
0.0
 70
    32
  0
VERTEX
  5
172
330
168
100
AcDbEntity
  8
1
100
AcDbVertex
100
AcDb3dPolylineVertex
 10
2.791466999999999
 20
-9.210141
 30
0.0
 70
    32
  0
VERTEX
  5
173
330
168
100
AcDbEntity
  8
1
100
AcDbVertex
100
AcDb3dPolylineVertex
 10
2.780480999999999
 20
-9.234310999999999
 30
0.0
 70
    32
  0
VERTEX
  5
174
330
168
100
AcDbEntity
  8
1
100
AcDbVertex
100
AcDb3dPolylineVertex
 10
2.771924
 20
-9.256878
 30
0.0
 70
    32
  0
VERTEX
  5
175
330
168
100
AcDbEntity
  8
1
100
AcDbVertex
100
AcDb3dPolylineVertex
 10
2.765344999999999
 20
-9.277724
 30
0.0
 70
    32
  0
VERTEX
  5
176
330
168
100
AcDbEntity
  8
1
100
AcDbVertex
100
AcDb3dPolylineVertex
 10
2.760356
 20
-9.296753
 30
0.0
 70
    32
  0
VERTEX
  5
177
330
168
100
AcDbEntity
  8
1
100
AcDbVertex
100
AcDb3dPolylineVertex
 10
2.756704
 20
-9.313961
 30
0.0
 70
    32
  0
VERTEX
  5
178
330
168
100
AcDbEntity
  8
1
100
AcDbVertex
100
AcDb3dPolylineVertex
 10
2.754145
 20
-9.329354999999999
 30
0.0
 70
    32
  0
VERTEX
  5
179
330
168
100
AcDbEntity
  8
1
100
AcDbVertex
100
AcDb3dPolylineVertex
 10
2.752438999999999
 20
-9.342941999999998
 30
0.0
 70
    32
  0
VERTEX
  5
17A
330
168
100
AcDbEntity
  8
1
100
AcDbVertex
100
AcDb3dPolylineVertex
 10
2.751341999999999
 20
-9.354725999999999
 30
0.0
 70
    32
  0
VERTEX
  5
17B
330
168
100
AcDbEntity
  8
1
100
AcDbVertex
100
AcDb3dPolylineVertex
 10
2.750634999999999
 20
-9.364714999999998
 30
0.0
 70
    32
  0
VERTEX
  5
17C
330
168
100
AcDbEntity
  8
1
100
AcDbVertex
100
AcDb3dPolylineVertex
 10
2.750215999999999
 20
-9.372904
 30
0.0
 70
    32
  0
VERTEX
  5
17D
330
168
100
AcDbEntity
  8
1
100
AcDbVertex
100
AcDb3dPolylineVertex
 10
2.750015
 20
-9.379286
 30
0.0
 70
    32
  0
VERTEX
  5
17E
330
168
100
AcDbEntity
  8
1
100
AcDbVertex
100
AcDb3dPolylineVertex
 10
2.749959
 20
-9.383850999999999
 30
0.0
 70
    32
  0
VERTEX
  5
17F
330
168
100
AcDbEntity
  8
1
100
AcDbVertex
100
AcDb3dPolylineVertex
 10
2.749978
 20
-9.386592
 30
0.0
 70
    32
  0
VERTEX
  5
180
330
168
100
AcDbEntity
  8
1
100
AcDbVertex
100
AcDb3dPolylineVertex
 10
2.75
 20
-9.387499999999999
 30
0.0
 70
    32
  0
SEQEND
  5
181
330
168
100
AcDbEntity
  8
1
  0
POLYLINE
  5
182
330
582
100
AcDbEntity
  8
1
100
AcDb3dPolyline
 66
     1
 10
0.0
 20
0.0
 30
0.0
 70
     8
  0
VERTEX
  5
183
330
182
100
AcDbEntity
  8
1
100
AcDbVertex
100
AcDb3dPolylineVertex
 10
2.75
 20
-2.587499999999999
 30
0.0
 70
    32
  0
VERTEX
  5
184
330
182
100
AcDbEntity
  8
1
100
AcDbVertex
100
AcDb3dPolylineVertex
 10
2.749979
 20
-2.588391
 30
0.0
 70
    32
  0
VERTEX
  5
185
330
182
100
AcDbEntity
  8
1
100
AcDbVertex
100
AcDb3dPolylineVertex
 10
2.749959999999999
 20
-2.591124999999999
 30
0.0
 70
    32
  0
VERTEX
  5
186
330
182
100
AcDbEntity
  8
1
100
AcDbVertex
100
AcDb3dPolylineVertex
 10
2.750015
 20
-2.595690999999999
 30
0.0
 70
    32
  0
VERTEX
  5
187
330
182
100
AcDbEntity
  8
1
100
AcDbVertex
100
AcDb3dPolylineVertex
 10
2.750215999999999
 20
-2.602073999999999
 30
0.0
 70
    32
  0
VERTEX
  5
188
330
182
100
AcDbEntity
  8
1
100
AcDbVertex
100
AcDb3dPolylineVertex
 10
2.750633
 20
-2.610259999999999
 30
0.0
 70
    32
  0
VERTEX
  5
189
330
182
100
AcDbEntity
  8
1
100
AcDbVertex
100
AcDb3dPolylineVertex
 10
2.751338999999999
 20
-2.620236
 30
0.0
 70
    32
  0
VERTEX
  5
18A
330
182
100
AcDbEntity
  8
1
100
AcDbVertex
100
AcDb3dPolylineVertex
 10
2.752434999999999
 20
-2.631993
 30
0.0
 70
    32
  0
VERTEX
  5
18B
330
182
100
AcDbEntity
  8
1
100
AcDbVertex
100
AcDb3dPolylineVertex
 10
2.754134999999999
 20
-2.645526999999999
 30
0.0
 70
    32
  0
VERTEX
  5
18C
330
182
100
AcDbEntity
  8
1
100
AcDbVertex
100
AcDb3dPolylineVertex
 10
2.756674
 20
-2.660838999999999
 30
0.0
 70
    32
  0
VERTEX
  5
18D
330
182
100
AcDbEntity
  8
1
100
AcDbVertex
100
AcDb3dPolylineVertex
 10
2.760286
 20
-2.677925
 30
0.0
 70
    32
  0
VERTEX
  5
18E
330
182
100
AcDbEntity
  8
1
100
AcDbVertex
100
AcDb3dPolylineVertex
 10
2.765206
 20
-2.696784999999999
 30
0.0
 70
    32
  0
VERTEX
  5
18F
330
182
100
AcDbEntity
  8
1
100
AcDbVertex
100
AcDb3dPolylineVertex
 10
2.771679
 20
-2.717416999999999
 30
0.0
 70
    32
  0
VERTEX
  5
190
330
182
100
AcDbEntity
  8
1
100
AcDbVertex
100
AcDb3dPolylineVertex
 10
2.780115
 20
-2.739824
 30
0.0
 70
    32
  0
VERTEX
  5
191
330
182
100
AcDbEntity
  8
1
100
AcDbVertex
100
AcDb3dPolylineVertex
 10
2.791044999999999
 20
-2.764008
 30
0.0
 70
    32
  0
VERTEX
  5
192
330
182
100
AcDbEntity
  8
1
100
AcDbVertex
100
AcDb3dPolylineVertex
 10
2.804983
 20
-2.78993
 30
0.0
 70
    32
  0
VERTEX
  5
193
330
182
100
AcDbEntity
  8
1
100
AcDbVertex
100
AcDb3dPolylineVertex
 10
2.822550999999999
 20
-2.817304999999999
 30
0.0
 70
    32
  0
VERTEX
  5
194
330
182
100
AcDbEntity
  8
1
100
AcDbVertex
100
AcDb3dPolylineVertex
 10
2.844603999999999
 20
-2.845836
 30
0.0
 70
    32
  0
VERTEX
  5
195
330
182
100
AcDbEntity
  8
1
100
AcDbVertex
100
AcDb3dPolylineVertex
 10
2.872016999999999
 20
-2.875131
 30
0.0
 70
    32
  0
VERTEX
  5
196
330
182
100
AcDbEntity
  8
1
100
AcDbVertex
100
AcDb3dPolylineVertex
 10
2.906070999999999
 20
-2.904527999999999
 30
0.0
 70
    32
  0
VERTEX
  5
197
330
182
100
AcDbEntity
  8
1
100
AcDbVertex
100
AcDb3dPolylineVertex
 10
2.948999
 20
-2.933333
 30
0.0
 70
    32
  0
VERTEX
  5
198
330
182
100
AcDbEntity
  8
1
100
AcDbVertex
100
AcDb3dPolylineVertex
 10
3.003829999999999
 20
-2.959843
 30
0.0
 70
    32
  0
VERTEX
  5
199
330
182
100
AcDbEntity
  8
1
100
AcDbVertex
100
AcDb3dPolylineVertex
 10
3.071502
 20
-2.979687999999999
 30
0.0
 70
    32
  0
VERTEX
  5
19A
330
182
100
AcDbEntity
  8
1
100
AcDbVertex
100
AcDb3dPolylineVertex
 10
3.149999999999999
 20
-2.987499999999999
 30
0.0
 70
    32
  0
SEQEND
  5
19B
330
182
100
AcDbEntity
  8
1
  0
POLYLINE
  5
19C
330
582
100
AcDbEntity
  8
1
100
AcDb3dPolyline
 66
     1
 10
0.0
 20
0.0
 30
0.0
 70
     8
  0
VERTEX
  5
19D
330
19C
100
AcDbEntity
  8
1
100
AcDbVertex
100
AcDb3dPolylineVertex
 10
-48.15935
 20
-4.769244999999999
 30
0.0
 70
    32
  0
VERTEX
  5
19E
330
19C
100
AcDbEntity
  8
1
100
AcDbVertex
100
AcDb3dPolylineVertex
 10
-48.122968
 20
-4.81639
 30
0.0
 70
    32
  0
VERTEX
  5
19F
330
19C
100
AcDbEntity
  8
1
100
AcDbVertex
100
AcDb3dPolylineVertex
 10
-48.084118
 20
-4.859923999999999
 30
0.0
 70
    32
  0
VERTEX
  5
1A0
330
19C
100
AcDbEntity
  8
1
100
AcDbVertex
100
AcDb3dPolylineVertex
 10
-48.04291599999999
 20
-4.899975
 30
0.0
 70
    32
  0
VERTEX
  5
1A1
330
19C
100
AcDbEntity
  8
1
100
AcDbVertex
100
AcDb3dPolylineVertex
 10
-47.999483
 20
-4.936670999999999
 30
0.0
 70
    32
  0
VERTEX
  5
1A2
330
19C
100
AcDbEntity
  8
1
100
AcDbVertex
100
AcDb3dPolylineVertex
 10
-47.954045
 20
-4.970062
 30
0.0
 70
    32
  0
VERTEX
  5
1A3
330
19C
100
AcDbEntity
  8
1
100
AcDbVertex
100
AcDb3dPolylineVertex
 10
-47.90732199999999
 20
-4.999802999999999
 30
0.0
 70
    32
  0
VERTEX
  5
1A4
330
19C
100
AcDbEntity
  8
1
100
AcDbVertex
100
AcDb3dPolylineVertex
 10
-47.85942399999999
 20
-5.025951999999999
 30
0.0
 70
    32
  0
VERTEX
  5
1A5
330
19C
100
AcDbEntity
  8
1
100
AcDbVertex
100
AcDb3dPolylineVertex
 10
-47.81034499999999
 20
-5.048640999999999
 30
0.0
 70
    32
  0
VERTEX
  5
1A6
330
19C
100
AcDbEntity
  8
1
100
AcDbVertex
100
AcDb3dPolylineVertex
 10
-47.76008
 20
-5.068006999999999
 30
0.0
 70
    32
  0
SEQEND
  5
1A7
330
19C
100
AcDbEntity
  8
1
  0
POLYLINE
  5
1A8
330
582
100
AcDbEntity
  8
1
100
AcDb3dPolyline
 66
     1
 10
0.0
 20
0.0
 30
0.0
 70
     8
  0
VERTEX
  5
1A9
330
1A8
100
AcDbEntity
  8
1
100
AcDbVertex
100
AcDb3dPolylineVertex
 10
-62.073002
 20
-11.551449
 30
0.0
 70
    32
  0
VERTEX
  5
1AA
330
1A8
100
AcDbEntity
  8
1
100
AcDbVertex
100
AcDb3dPolylineVertex
 10
-62.073019
 20
-11.549173
 30
0.0
 70
    32
  0
VERTEX
  5
1AB
330
1A8
100
AcDbEntity
  8
1
100
AcDbVertex
100
AcDb3dPolylineVertex
 10
-62.073071
 20
-11.546897
 30
0.0
 70
    32
  0
VERTEX
  5
1AC
330
1A8
100
AcDbEntity
  8
1
100
AcDbVertex
100
AcDb3dPolylineVertex
 10
-62.07315699999999
 20
-11.544622
 30
0.0
 70
    32
  0
VERTEX
  5
1AD
330
1A8
100
AcDbEntity
  8
1
100
AcDbVertex
100
AcDb3dPolylineVertex
 10
-62.073278
 20
-11.542349
 30
0.0
 70
    32
  0
VERTEX
  5
1AE
330
1A8
100
AcDbEntity
  8
1
100
AcDbVertex
100
AcDb3dPolylineVertex
 10
-62.07343299999999
 20
-11.540077
 30
0.0
 70
    32
  0
VERTEX
  5
1AF
330
1A8
100
AcDbEntity
  8
1
100
AcDbVertex
100
AcDb3dPolylineVertex
 10
-62.07362299999999
 20
-11.537809
 30
0.0
 70
    32
  0
VERTEX
  5
1B0
330
1A8
100
AcDbEntity
  8
1
100
AcDbVertex
100
AcDb3dPolylineVertex
 10
-62.073847
 20
-11.535543
 30
0.0
 70
    32
  0
VERTEX
  5
1B1
330
1A8
100
AcDbEntity
  8
1
100
AcDbVertex
100
AcDb3dPolylineVertex
 10
-62.07410600000001
 20
-11.533282
 30
0.0
 70
    32
  0
VERTEX
  5
1B2
330
1A8
100
AcDbEntity
  8
1
100
AcDbVertex
100
AcDb3dPolylineVertex
 10
-62.074399
 20
-11.531024
 30
0.0
 70
    32
  0
VERTEX
  5
1B3
330
1A8
100
AcDbEntity
  8
1
100
AcDbVertex
100
AcDb3dPolylineVertex
 10
-62.074726
 20
-11.528771
 30
0.0
 70
    32
  0
VERTEX
  5
1B4
330
1A8
100
AcDbEntity
  8
1
100
AcDbVertex
100
AcDb3dPolylineVertex
 10
-62.07508699999999
 20
-11.526524
 30
0.0
 70
    32
  0
VERTEX
  5
1B5
330
1A8
100
AcDbEntity
  8
1
100
AcDbVertex
100
AcDb3dPolylineVertex
 10
-62.07548199999999
 20
-11.524282
 30
0.0
 70
    32
  0
VERTEX
  5
1B6
330
1A8
100
AcDbEntity
  8
1
100
AcDbVertex
100
AcDb3dPolylineVertex
 10
-62.075912
 20
-11.522046
 30
0.0
 70
    32
  0
VERTEX
  5
1B7
330
1A8
100
AcDbEntity
  8
1
100
AcDbVertex
100
AcDb3dPolylineVertex
 10
-62.076375
 20
-11.519817
 30
0.0
 70
    32
  0
VERTEX
  5
1B8
330
1A8
100
AcDbEntity
  8
1
100
AcDbVertex
100
AcDb3dPolylineVertex
 10
-62.07687199999999
 20
-11.517595
 30
0.0
 70
    32
  0
VERTEX
  5
1B9
330
1A8
100
AcDbEntity
  8
1
100
AcDbVertex
100
AcDb3dPolylineVertex
 10
-62.07740199999999
 20
-11.515382
 30
0.0
 70
    32
  0
VERTEX
  5
1BA
330
1A8
100
AcDbEntity
  8
1
100
AcDbVertex
100
AcDb3dPolylineVertex
 10
-62.077966
 20
-11.513176
 30
0.0
 70
    32
  0
VERTEX
  5
1BB
330
1A8
100
AcDbEntity
  8
1
100
AcDbVertex
100
AcDb3dPolylineVertex
 10
-62.078564
 20
-11.51098
 30
0.0
 70
    32
  0
VERTEX
  5
1BC
330
1A8
100
AcDbEntity
  8
1
100
AcDbVertex
100
AcDb3dPolylineVertex
 10
-62.079195
 20
-11.508792
 30
0.0
 70
    32
  0
VERTEX
  5
1BD
330
1A8
100
AcDbEntity
  8
1
100
AcDbVertex
100
AcDb3dPolylineVertex
 10
-62.079859
 20
-11.506615
 30
0.0
 70
    32
  0
VERTEX
  5
1BE
330
1A8
100
AcDbEntity
  8
1
100
AcDbVertex
100
AcDb3dPolylineVertex
 10
-62.08055600000001
 20
-11.504447
 30
0.0
 70
    32
  0
VERTEX
  5
1BF
330
1A8
100
AcDbEntity
  8
1
100
AcDbVertex
100
AcDb3dPolylineVertex
 10
-62.081285
 20
-11.502291
 30
0.0
 70
    32
  0
VERTEX
  5
1C0
330
1A8
100
AcDbEntity
  8
1
100
AcDbVertex
100
AcDb3dPolylineVertex
 10
-62.082048
 20
-11.500146
 30
0.0
 70
    32
  0
SEQEND
  5
1C1
330
1A8
100
AcDbEntity
  8
1
  0
POLYLINE
  5
1C2
330
582
100
AcDbEntity
  8
1
100
AcDb3dPolyline
 66
     1
 10
0.0
 20
0.0
 30
0.0
 70
     8
  0
VERTEX
  5
1C3
330
1C2
100
AcDbEntity
  8
1
100
AcDbVertex
100
AcDb3dPolylineVertex
 10
-39.6
 20
-11.975
 30
0.0
 70
    32
  0
VERTEX
  5
1C4
330
1C2
100
AcDbEntity
  8
1
100
AcDbVertex
100
AcDb3dPolylineVertex
 10
-39.619355
 20
-11.975458
 30
0.0
 70
    32
  0
VERTEX
  5
1C5
330
1C2
100
AcDbEntity
  8
1
100
AcDbVertex
100
AcDb3dPolylineVertex
 10
-39.63819
 20
-11.976799
 30
0.0
 70
    32
  0
VERTEX
  5
1C6
330
1C2
100
AcDbEntity
  8
1
100
AcDbVertex
100
AcDb3dPolylineVertex
 10
-39.656515
 20
-11.978973
 30
0.0
 70
    32
  0
VERTEX
  5
1C7
330
1C2
100
AcDbEntity
  8
1
100
AcDbVertex
100
AcDb3dPolylineVertex
 10
-39.674338
 20
-11.98193
 30
0.0
 70
    32
  0
VERTEX
  5
1C8
330
1C2
100
AcDbEntity
  8
1
100
AcDbVertex
100
AcDb3dPolylineVertex
 10
-39.69167
 20
-11.98562
 30
0.0
 70
    32
  0
VERTEX
  5
1C9
330
1C2
100
AcDbEntity
  8
1
100
AcDbVertex
100
AcDb3dPolylineVertex
 10
-39.708521
 20
-11.989993
 30
0.0
 70
    32
  0
VERTEX
  5
1CA
330
1C2
100
AcDbEntity
  8
1
100
AcDbVertex
100
AcDb3dPolylineVertex
 10
-39.7249
 20
-11.995
 30
0.0
 70
    32
  0
SEQEND
  5
1CB
330
1C2
100
AcDbEntity
  8
1
  0
POLYLINE
  5
1CC
330
582
100
AcDbEntity
  8
1
100
AcDb3dPolyline
 66
     1
 10
0.0
 20
0.0
 30
0.0
 70
     8
  0
VERTEX
  5
1CD
330
1CC
100
AcDbEntity
  8
1
100
AcDbVertex
100
AcDb3dPolylineVertex
 10
-47.81162
 20
-5.704587
 30
0.0
 70
    32
  0
VERTEX
  5
1CE
330
1CC
100
AcDbEntity
  8
1
100
AcDbVertex
100
AcDb3dPolylineVertex
 10
-47.781383
 20
-5.697807
 30
0.0
 70
    32
  0
VERTEX
  5
1CF
330
1CC
100
AcDbEntity
  8
1
100
AcDbVertex
100
AcDb3dPolylineVertex
 10
-47.75177999999999
 20
-5.688155
 30
0.0
 70
    32
  0
VERTEX
  5
1D0
330
1CC
100
AcDbEntity
  8
1
100
AcDbVertex
100
AcDb3dPolylineVertex
 10
-47.72284299999999
 20
-5.675545999999999
 30
0.0
 70
    32
  0
VERTEX
  5
1D1
330
1CC
100
AcDbEntity
  8
1
100
AcDbVertex
100
AcDb3dPolylineVertex
 10
-47.694803
 20
-5.659989
 30
0.0
 70
    32
  0
VERTEX
  5
1D2
330
1CC
100
AcDbEntity
  8
1
100
AcDbVertex
100
AcDb3dPolylineVertex
 10
-47.668223
 20
-5.641646999999999
 30
0.0
 70
    32
  0
VERTEX
  5
1D3
330
1CC
100
AcDbEntity
  8
1
100
AcDbVertex
100
AcDb3dPolylineVertex
 10
-47.643253
 20
-5.620471
 30
0.0
 70
    32
  0
VERTEX
  5
1D4
330
1CC
100
AcDbEntity
  8
1
100
AcDbVertex
100
AcDb3dPolylineVertex
 10
-47.62009299999999
 20
-5.596473
 30
0.0
 70
    32
  0
VERTEX
  5
1D5
330
1CC
100
AcDbEntity
  8
1
100
AcDbVertex
100
AcDb3dPolylineVertex
 10
-47.599339
 20
-5.570083999999999
 30
0.0
 70
    32
  0
VERTEX
  5
1D6
330
1CC
100
AcDbEntity
  8
1
100
AcDbVertex
100
AcDb3dPolylineVertex
 10
-47.58124999999999
 20
-5.541484999999999
 30
0.0
 70
    32
  0
VERTEX
  5
1D7
330
1CC
100
AcDbEntity
  8
1
100
AcDbVertex
100
AcDb3dPolylineVertex
 10
-47.566021
 20
-5.510803
 30
0.0
 70
    32
  0
VERTEX
  5
1D8
330
1CC
100
AcDbEntity
  8
1
100
AcDbVertex
100
AcDb3dPolylineVertex
 10
-47.55399099999999
 20
-5.478476999999999
 30
0.0
 70
    32
  0
VERTEX
  5
1D9
330
1CC
100
AcDbEntity
  8
1
100
AcDbVertex
100
AcDb3dPolylineVertex
 10
-47.54536599999999
 20
-5.444980999999999
 30
0.0
 70
    32
  0
VERTEX
  5
1DA
330
1CC
100
AcDbEntity
  8
1
100
AcDbVertex
100
AcDb3dPolylineVertex
 10
-47.54027999999999
 20
-5.410713999999999
 30
0.0
 70
    32
  0
SEQEND
  5
1DB
330
1CC
100
AcDbEntity
  8
1
  0
POLYLINE
  5
1DC
330
582
100
AcDbEntity
  8
1
100
AcDb3dPolyline
 66
     1
 10
0.0
 20
0.0
 30
0.0
 70
     8
  0
VERTEX
  5
1DD
330
1DC
100
AcDbEntity
  8
1
100
AcDbVertex
100
AcDb3dPolylineVertex
 10
-48.38076799999999
 20
-3.605644999999999
 30
0.0
 70
    32
  0
VERTEX
  5
1DE
330
1DC
100
AcDbEntity
  8
1
100
AcDbVertex
100
AcDb3dPolylineVertex
 10
-48.410267
 20
-3.587480999999999
 30
0.0
 70
    32
  0
VERTEX
  5
1DF
330
1DC
100
AcDbEntity
  8
1
100
AcDbVertex
100
AcDb3dPolylineVertex
 10
-48.441454
 20
-3.572523
 30
0.0
 70
    32
  0
VERTEX
  5
1E0
330
1DC
100
AcDbEntity
  8
1
100
AcDbVertex
100
AcDb3dPolylineVertex
 10
-48.473937
 20
-3.560923
 30
0.0
 70
    32
  0
VERTEX
  5
1E1
330
1DC
100
AcDbEntity
  8
1
100
AcDbVertex
100
AcDb3dPolylineVertex
 10
-48.50722000000001
 20
-3.55283
 30
0.0
 70
    32
  0
VERTEX
  5
1E2
330
1DC
100
AcDbEntity
  8
1
100
AcDbVertex
100
AcDb3dPolylineVertex
 10
-48.540751
 20
-3.548266
 30
0.0
 70
    32
  0
VERTEX
  5
1E3
330
1DC
100
AcDbEntity
  8
1
100
AcDbVertex
100
AcDb3dPolylineVertex
 10
-48.57430499999999
 20
-3.547165
 30
0.0
 70
    32
  0
VERTEX
  5
1E4
330
1DC
100
AcDbEntity
  8
1
100
AcDbVertex
100
AcDb3dPolylineVertex
 10
-48.607578
 20
-3.549443
 30
0.0
 70
    32
  0
VERTEX
  5
1E5
330
1DC
100
AcDbEntity
  8
1
100
AcDbVertex
100
AcDb3dPolylineVertex
 10
-48.639857
 20
-3.554923999999999
 30
0.0
 70
    32
  0
VERTEX
  5
1E6
330
1DC
100
AcDbEntity
  8
1
100
AcDbVertex
100
AcDb3dPolylineVertex
 10
-48.671002
 20
-3.563461
 30
0.0
 70
    32
  0
VERTEX
  5
1E7
330
1DC
100
AcDbEntity
  8
1
100
AcDbVertex
100
AcDb3dPolylineVertex
 10
-48.70095599999999
 20
-3.574907
 30
0.0
 70
    32
  0
VERTEX
  5
1E8
330
1DC
100
AcDbEntity
  8
1
100
AcDbVertex
100
AcDb3dPolylineVertex
 10
-48.729231
 20
-3.588937
 30
0.0
 70
    32
  0
VERTEX
  5
1E9
330
1DC
100
AcDbEntity
  8
1
100
AcDbVertex
100
AcDb3dPolylineVertex
 10
-48.75567199999999
 20
-3.605380999999999
 30
0.0
 70
    32
  0
VERTEX
  5
1EA
330
1DC
100
AcDbEntity
  8
1
100
AcDbVertex
100
AcDb3dPolylineVertex
 10
-48.780323
 20
-3.624156999999999
 30
0.0
 70
    32
  0
SEQEND
  5
1EB
330
1DC
100
AcDbEntity
  8
1
  0
POLYLINE
  5
1EC
330
582
100
AcDbEntity
  8
1
100
AcDb3dPolyline
 66
     1
 10
0.0
 20
0.0
 30
0.0
 70
     8
  0
VERTEX
  5
1ED
330
1EC
100
AcDbEntity
  8
1
100
AcDbVertex
100
AcDb3dPolylineVertex
 10
-50.84064999999999
 20
-5.680755
 30
0.0
 70
    32
  0
VERTEX
  5
1EE
330
1EC
100
AcDbEntity
  8
1
100
AcDbVertex
100
AcDb3dPolylineVertex
 10
-50.87703199999999
 20
-5.63361
 30
0.0
 70
    32
  0
VERTEX
  5
1EF
330
1EC
100
AcDbEntity
  8
1
100
AcDbVertex
100
AcDb3dPolylineVertex
 10
-50.915882
 20
-5.590075999999999
 30
0.0
 70
    32
  0
VERTEX
  5
1F0
330
1EC
100
AcDbEntity
  8
1
100
AcDbVertex
100
AcDb3dPolylineVertex
 10
-50.957084
 20
-5.550024999999999
 30
0.0
 70
    32
  0
VERTEX
  5
1F1
330
1EC
100
AcDbEntity
  8
1
100
AcDbVertex
100
AcDb3dPolylineVertex
 10
-51.00051699999999
 20
-5.513328999999999
 30
0.0
 70
    32
  0
VERTEX
  5
1F2
330
1EC
100
AcDbEntity
  8
1
100
AcDbVertex
100
AcDb3dPolylineVertex
 10
-51.045955
 20
-5.479937999999999
 30
0.0
 70
    32
  0
VERTEX
  5
1F3
330
1EC
100
AcDbEntity
  8
1
100
AcDbVertex
100
AcDb3dPolylineVertex
 10
-51.092678
 20
-5.450197
 30
0.0
 70
    32
  0
VERTEX
  5
1F4
330
1EC
100
AcDbEntity
  8
1
100
AcDbVertex
100
AcDb3dPolylineVertex
 10
-51.140576
 20
-5.424047999999999
 30
0.0
 70
    32
  0
VERTEX
  5
1F5
330
1EC
100
AcDbEntity
  8
1
100
AcDbVertex
100
AcDb3dPolylineVertex
 10
-51.189655
 20
-5.401358999999999
 30
0.0
 70
    32
  0
VERTEX
  5
1F6
330
1EC
100
AcDbEntity
  8
1
100
AcDbVertex
100
AcDb3dPolylineVertex
 10
-51.23992
 20
-5.381993
 30
0.0
 70
    32
  0
SEQEND
  5
1F7
330
1EC
100
AcDbEntity
  8
1
  0
POLYLINE
  5
1F8
330
582
100
AcDbEntity
  8
1
100
AcDb3dPolyline
 66
     1
 10
0.0
 20
0.0
 30
0.0
 70
     8
  0
VERTEX
  5
1F9
330
1F8
100
AcDbEntity
  8
1
100
AcDbVertex
100
AcDb3dPolylineVertex
 10
-68.0
 20
-11.775
 30
0.0
 70
    32
  0
VERTEX
  5
1FA
330
1F8
100
AcDbEntity
  8
1
100
AcDbVertex
100
AcDb3dPolylineVertex
 10
-67.99784800000001
 20
-11.804246
 30
0.0
 70
    32
  0
VERTEX
  5
1FB
330
1F8
100
AcDbEntity
  8
1
100
AcDbVertex
100
AcDb3dPolylineVertex
 10
-67.99144599999999
 20
-11.832868
 30
0.0
 70
    32
  0
VERTEX
  5
1FC
330
1F8
100
AcDbEntity
  8
1
100
AcDbVertex
100
AcDb3dPolylineVertex
 10
-67.98092700000001
 20
-11.860244
 30
0.0
 70
    32
  0
VERTEX
  5
1FD
330
1F8
100
AcDbEntity
  8
1
100
AcDbVertex
100
AcDb3dPolylineVertex
 10
-67.966514
 20
-11.885784
 30
0.0
 70
    32
  0
VERTEX
  5
1FE
330
1F8
100
AcDbEntity
  8
1
100
AcDbVertex
100
AcDb3dPolylineVertex
 10
-67.94852099999999
 20
-11.908943
 30
0.0
 70
    32
  0
VERTEX
  5
1FF
330
1F8
100
AcDbEntity
  8
1
100
AcDbVertex
100
AcDb3dPolylineVertex
 10
-67.92733699999999
 20
-11.929223
 30
0.0
 70
    32
  0
VERTEX
  5
200
330
1F8
100
AcDbEntity
  8
1
100
AcDbVertex
100
AcDb3dPolylineVertex
 10
-67.90341600000001
 20
-11.946188
 30
0.0
 70
    32
  0
VERTEX
  5
201
330
1F8
100
AcDbEntity
  8
1
100
AcDbVertex
100
AcDb3dPolylineVertex
 10
-67.87727099999999
 20
-11.959473
 30
0.0
 70
    32
  0
VERTEX
  5
202
330
1F8
100
AcDbEntity
  8
1
100
AcDbVertex
100
AcDb3dPolylineVertex
 10
-67.849462
 20
-11.968788
 30
0.0
 70
    32
  0
VERTEX
  5
203
330
1F8
100
AcDbEntity
  8
1
100
AcDbVertex
100
AcDb3dPolylineVertex
 10
-67.820588
 20
-11.973935
 30
0.0
 70
    32
  0
VERTEX
  5
204
330
1F8
100
AcDbEntity
  8
1
100
AcDbVertex
100
AcDb3dPolylineVertex
 10
-67.79127599999999
 20
-11.97481
 30
0.0
 70
    32
  0
SEQEND
  5
205
330
1F8
100
AcDbEntity
  8
1
  0
POLYLINE
  5
206
330
582
100
AcDbEntity
  8
1
100
AcDb3dPolyline
 66
     1
 10
0.0
 20
0.0
 30
0.0
 70
     8
  0
VERTEX
  5
207
330
206
100
AcDbEntity
  8
1
100
AcDbVertex
100
AcDb3dPolylineVertex
 10
-68.0
 20
-9.675
 30
0.0
 70
    32
  0
VERTEX
  5
208
330
206
100
AcDbEntity
  8
1
100
AcDbVertex
100
AcDb3dPolylineVertex
 10
-67.99784800000001
 20
-9.645754
 30
0.0
 70
    32
  0
VERTEX
  5
209
330
206
100
AcDbEntity
  8
1
100
AcDbVertex
100
AcDb3dPolylineVertex
 10
-67.99144599999999
 20
-9.617132000000001
 30
0.0
 70
    32
  0
VERTEX
  5
20A
330
206
100
AcDbEntity
  8
1
100
AcDbVertex
100
AcDb3dPolylineVertex
 10
-67.98092700000001
 20
-9.589755999999999
 30
0.0
 70
    32
  0
VERTEX
  5
20B
330
206
100
AcDbEntity
  8
1
100
AcDbVertex
100
AcDb3dPolylineVertex
 10
-67.966514
 20
-9.564216
 30
0.0
 70
    32
  0
VERTEX
  5
20C
330
206
100
AcDbEntity
  8
1
100
AcDbVertex
100
AcDb3dPolylineVertex
 10
-67.94852099999999
 20
-9.541057
 30
0.0
 70
    32
  0
VERTEX
  5
20D
330
206
100
AcDbEntity
  8
1
100
AcDbVertex
100
AcDb3dPolylineVertex
 10
-67.92733699999999
 20
-9.520777
 30
0.0
 70
    32
  0
VERTEX
  5
20E
330
206
100
AcDbEntity
  8
1
100
AcDbVertex
100
AcDb3dPolylineVertex
 10
-67.90341600000001
 20
-9.503811999999999
 30
0.0
 70
    32
  0
VERTEX
  5
20F
330
206
100
AcDbEntity
  8
1
100
AcDbVertex
100
AcDb3dPolylineVertex
 10
-67.87727099999999
 20
-9.490527
 30
0.0
 70
    32
  0
VERTEX
  5
210
330
206
100
AcDbEntity
  8
1
100
AcDbVertex
100
AcDb3dPolylineVertex
 10
-67.849462
 20
-9.481211999999999
 30
0.0
 70
    32
  0
VERTEX
  5
211
330
206
100
AcDbEntity
  8
1
100
AcDbVertex
100
AcDb3dPolylineVertex
 10
-67.820588
 20
-9.476065
 30
0.0
 70
    32
  0
VERTEX
  5
212
330
206
100
AcDbEntity
  8
1
100
AcDbVertex
100
AcDb3dPolylineVertex
 10
-67.79127599999999
 20
-9.475189999999999
 30
0.0
 70
    32
  0
SEQEND
  5
213
330
206
100
AcDbEntity
  8
1
  0
POLYLINE
  5
214
330
582
100
AcDbEntity
  8
1
100
AcDb3dPolyline
 66
     1
 10
0.0
 20
0.0
 30
0.0
 70
     8
  0
VERTEX
  5
215
330
214
100
AcDbEntity
  8
1
100
AcDbVertex
100
AcDb3dPolylineVertex
 10
-55.848064
 20
-11.825
 30
0.0
 70
    32
  0
VERTEX
  5
216
330
214
100
AcDbEntity
  8
1
100
AcDbVertex
100
AcDb3dPolylineVertex
 10
-55.827066
 20
-11.826072
 30
0.0
 70
    32
  0
VERTEX
  5
217
330
214
100
AcDbEntity
  8
1
100
AcDbVertex
100
AcDb3dPolylineVertex
 10
-55.80625600000001
 20
-11.829286
 30
0.0
 70
    32
  0
VERTEX
  5
218
330
214
100
AcDbEntity
  8
1
100
AcDbVertex
100
AcDb3dPolylineVertex
 10
-55.785634
 20
-11.834643
 30
0.0
 70
    32
  0
VERTEX
  5
219
330
214
100
AcDbEntity
  8
1
100
AcDbVertex
100
AcDb3dPolylineVertex
 10
-55.76524499999999
 20
-11.84214
 30
0.0
 70
    32
  0
VERTEX
  5
21A
330
214
100
AcDbEntity
  8
1
100
AcDbVertex
100
AcDb3dPolylineVertex
 10
-55.745284
 20
-11.851729
 30
0.0
 70
    32
  0
VERTEX
  5
21B
330
214
100
AcDbEntity
  8
1
100
AcDbVertex
100
AcDb3dPolylineVertex
 10
-55.725914
 20
-11.863317
 30
0.0
 70
    32
  0
VERTEX
  5
21C
330
214
100
AcDbEntity
  8
1
100
AcDbVertex
100
AcDb3dPolylineVertex
 10
-55.70725799999999
 20
-11.876838
 30
0.0
 70
    32
  0
VERTEX
  5
21D
330
214
100
AcDbEntity
  8
1
100
AcDbVertex
100
AcDb3dPolylineVertex
 10
-55.68926999999999
 20
-11.892336
 30
0.0
 70
    32
  0
VERTEX
  5
21E
330
214
100
AcDbEntity
  8
1
100
AcDbVertex
100
AcDb3dPolylineVertex
 10
-55.672101
 20
-11.909681
 30
0.0
 70
    32
  0
VERTEX
  5
21F
330
214
100
AcDbEntity
  8
1
100
AcDbVertex
100
AcDb3dPolylineVertex
 10
-55.65593199999999
 20
-11.928709
 30
0.0
 70
    32
  0
VERTEX
  5
220
330
214
100
AcDbEntity
  8
1
100
AcDbVertex
100
AcDb3dPolylineVertex
 10
-55.640866
 20
-11.949276
 30
0.0
 70
    32
  0
VERTEX
  5
221
330
214
100
AcDbEntity
  8
1
100
AcDbVertex
100
AcDb3dPolylineVertex
 10
-55.626914
 20
-11.971368
 30
0.0
 70
    32
  0
VERTEX
  5
222
330
214
100
AcDbEntity
  8
1
100
AcDbVertex
100
AcDb3dPolylineVertex
 10
-55.614088
 20
-11.995
 30
0.0
 70
    32
  0
SEQEND
  5
223
330
214
100
AcDbEntity
  8
1
  0
POLYLINE
  5
224
330
582
100
AcDbEntity
  8
1
100
AcDb3dPolyline
 66
     1
 10
0.0
 20
0.0
 30
0.0
 70
     8
  0
VERTEX
  5
225
330
224
100
AcDbEntity
  8
1
100
AcDbVertex
100
AcDb3dPolylineVertex
 10
-55.562098
 20
-9.224999999999999
 30
0.0
 70
    32
  0
VERTEX
  5
226
330
224
100
AcDbEntity
  8
1
100
AcDbVertex
100
AcDb3dPolylineVertex
 10
-55.563336
 20
-9.262228
 30
0.0
 70
    32
  0
VERTEX
  5
227
330
224
100
AcDbEntity
  8
1
100
AcDbVertex
100
AcDb3dPolylineVertex
 10
-55.567015
 20
-9.298868999999999
 30
0.0
 70
    32
  0
VERTEX
  5
228
330
224
100
AcDbEntity
  8
1
100
AcDbVertex
100
AcDb3dPolylineVertex
 10
-55.573126
 20
-9.334994999999999
 30
0.0
 70
    32
  0
VERTEX
  5
229
330
224
100
AcDbEntity
  8
1
100
AcDbVertex
100
AcDb3dPolylineVertex
 10
-55.58163100000001
 20
-9.370309999999999
 30
0.0
 70
    32
  0
VERTEX
  5
22A
330
224
100
AcDbEntity
  8
1
100
AcDbVertex
100
AcDb3dPolylineVertex
 10
-55.59238199999999
 20
-9.404177999999999
 30
0.0
 70
    32
  0
VERTEX
  5
22B
330
224
100
AcDbEntity
  8
1
100
AcDbVertex
100
AcDb3dPolylineVertex
 10
-55.605275
 20
-9.436374999999999
 30
0.0
 70
    32
  0
VERTEX
  5
22C
330
224
100
AcDbEntity
  8
1
100
AcDbVertex
100
AcDb3dPolylineVertex
 10
-55.62030299999999
 20
-9.466888
 30
0.0
 70
    32
  0
VERTEX
  5
22D
330
224
100
AcDbEntity
  8
1
100
AcDbVertex
100
AcDb3dPolylineVertex
 10
-55.637326
 20
-9.495402
 30
0.0
 70
    32
  0
VERTEX
  5
22E
330
224
100
AcDbEntity
  8
1
100
AcDbVertex
100
AcDb3dPolylineVertex
 10
-55.656036
 20
-9.521411999999999
 30
0.0
 70
    32
  0
VERTEX
  5
22F
330
224
100
AcDbEntity
  8
1
100
AcDbVertex
100
AcDb3dPolylineVertex
 10
-55.67639899999999
 20
-9.544878999999999
 30
0.0
 70
    32
  0
VERTEX
  5
230
330
224
100
AcDbEntity
  8
1
100
AcDbVertex
100
AcDb3dPolylineVertex
 10
-55.698218
 20
-9.565649999999999
 30
0.0
 70
    32
  0
VERTEX
  5
231
330
224
100
AcDbEntity
  8
1
100
AcDbVertex
100
AcDb3dPolylineVertex
 10
-55.721253
 20
-9.583515
 30
0.0
 70
    32
  0
VERTEX
  5
232
330
224
100
AcDbEntity
  8
1
100
AcDbVertex
100
AcDb3dPolylineVertex
 10
-55.745274
 20
-9.598273999999999
 30
0.0
 70
    32
  0
VERTEX
  5
233
330
224
100
AcDbEntity
  8
1
100
AcDbVertex
100
AcDb3dPolylineVertex
 10
-55.77019100000001
 20
-9.609856999999999
 30
0.0
 70
    32
  0
VERTEX
  5
234
330
224
100
AcDbEntity
  8
1
100
AcDbVertex
100
AcDb3dPolylineVertex
 10
-55.795805
 20
-9.618221
 30
0.0
 70
    32
  0
VERTEX
  5
235
330
224
100
AcDbEntity
  8
1
100
AcDbVertex
100
AcDb3dPolylineVertex
 10
-55.821851
 20
-9.623292999999998
 30
0.0
 70
    32
  0
VERTEX
  5
236
330
224
100
AcDbEntity
  8
1
100
AcDbVertex
100
AcDb3dPolylineVertex
 10
-55.848064
 20
-9.625
 30
0.0
 70
    32
  0
SEQEND
  5
237
330
224
100
AcDbEntity
  8
1
  0
POLYLINE
  5
238
330
582
100
AcDbEntity
  8
1
100
AcDb3dPolyline
 66
     1
 10
0.0
 20
0.0
 30
0.0
 70
     8
  0
VERTEX
  5
239
330
238
100
AcDbEntity
  8
1
100
AcDbVertex
100
AcDb3dPolylineVertex
 10
-51.18838
 20
-4.745413
 30
0.0
 70
    32
  0
VERTEX
  5
23A
330
238
100
AcDbEntity
  8
1
100
AcDbVertex
100
AcDb3dPolylineVertex
 10
-51.218617
 20
-4.752193
 30
0.0
 70
    32
  0
VERTEX
  5
23B
330
238
100
AcDbEntity
  8
1
100
AcDbVertex
100
AcDb3dPolylineVertex
 10
-51.24822
 20
-4.761845
 30
0.0
 70
    32
  0
VERTEX
  5
23C
330
238
100
AcDbEntity
  8
1
100
AcDbVertex
100
AcDb3dPolylineVertex
 10
-51.277157
 20
-4.774454
 30
0.0
 70
    32
  0
VERTEX
  5
23D
330
238
100
AcDbEntity
  8
1
100
AcDbVertex
100
AcDb3dPolylineVertex
 10
-51.305197
 20
-4.790010999999999
 30
0.0
 70
    32
  0
VERTEX
  5
23E
330
238
100
AcDbEntity
  8
1
100
AcDbVertex
100
AcDb3dPolylineVertex
 10
-51.331777
 20
-4.808353
 30
0.0
 70
    32
  0
VERTEX
  5
23F
330
238
100
AcDbEntity
  8
1
100
AcDbVertex
100
AcDb3dPolylineVertex
 10
-51.356747
 20
-4.829528999999999
 30
0.0
 70
    32
  0
VERTEX
  5
240
330
238
100
AcDbEntity
  8
1
100
AcDbVertex
100
AcDb3dPolylineVertex
 10
-51.379907
 20
-4.853526999999999
 30
0.0
 70
    32
  0
VERTEX
  5
241
330
238
100
AcDbEntity
  8
1
100
AcDbVertex
100
AcDb3dPolylineVertex
 10
-51.400661
 20
-4.879916
 30
0.0
 70
    32
  0
VERTEX
  5
242
330
238
100
AcDbEntity
  8
1
100
AcDbVertex
100
AcDb3dPolylineVertex
 10
-51.41875
 20
-4.908515
 30
0.0
 70
    32
  0
VERTEX
  5
243
330
238
100
AcDbEntity
  8
1
100
AcDbVertex
100
AcDb3dPolylineVertex
 10
-51.433979
 20
-4.939197
 30
0.0
 70
    32
  0
VERTEX
  5
244
330
238
100
AcDbEntity
  8
1
100
AcDbVertex
100
AcDb3dPolylineVertex
 10
-51.446009
 20
-4.971523
 30
0.0
 70
    32
  0
VERTEX
  5
245
330
238
100
AcDbEntity
  8
1
100
AcDbVertex
100
AcDb3dPolylineVertex
 10
-51.454634
 20
-5.005018999999999
 30
0.0
 70
    32
  0
VERTEX
  5
246
330
238
100
AcDbEntity
  8
1
100
AcDbVertex
100
AcDb3dPolylineVertex
 10
-51.45972
 20
-5.039285999999999
 30
0.0
 70
    32
  0
SEQEND
  5
247
330
238
100
AcDbEntity
  8
1
  0
POLYLINE
  5
248
330
582
100
AcDbEntity
  8
1
100
AcDb3dPolyline
 66
     1
 10
0.0
 20
0.0
 30
0.0
 70
     8
  0
VERTEX
  5
249
330
248
100
AcDbEntity
  8
1
100
AcDbVertex
100
AcDb3dPolylineVertex
 10
-49.940176
 20
-3.525919
 30
0.0
 70
    32
  0
VERTEX
  5
24A
330
248
100
AcDbEntity
  8
1
100
AcDbVertex
100
AcDb3dPolylineVertex
 10
-49.961365
 20
-3.503217999999999
 30
0.0
 70
    32
  0
VERTEX
  5
24B
330
248
100
AcDbEntity
  8
1
100
AcDbVertex
100
AcDb3dPolylineVertex
 10
-49.984685
 20
-3.482551999999999
 30
0.0
 70
    32
  0
VERTEX
  5
24C
330
248
100
AcDbEntity
  8
1
100
AcDbVertex
100
AcDb3dPolylineVertex
 10
-50.01018300000001
 20
-3.463984999999999
 30
0.0
 70
    32
  0
VERTEX
  5
24D
330
248
100
AcDbEntity
  8
1
100
AcDbVertex
100
AcDb3dPolylineVertex
 10
-50.037779
 20
-3.447686
 30
0.0
 70
    32
  0
VERTEX
  5
24E
330
248
100
AcDbEntity
  8
1
100
AcDbVertex
100
AcDb3dPolylineVertex
 10
-50.067093
 20
-3.434029
 30
0.0
 70
    32
  0
VERTEX
  5
24F
330
248
100
AcDbEntity
  8
1
100
AcDbVertex
100
AcDb3dPolylineVertex
 10
-50.09792199999999
 20
-3.423212
 30
0.0
 70
    32
  0
VERTEX
  5
250
330
248
100
AcDbEntity
  8
1
100
AcDbVertex
100
AcDb3dPolylineVertex
 10
-50.13009
 20
-3.415423999999999
 30
0.0
 70
    32
  0
VERTEX
  5
251
330
248
100
AcDbEntity
  8
1
100
AcDbVertex
100
AcDb3dPolylineVertex
 10
-50.163368
 20
-3.410869
 30
0.0
 70
    32
  0
VERTEX
  5
252
330
248
100
AcDbEntity
  8
1
100
AcDbVertex
100
AcDb3dPolylineVertex
 10
-50.19727899999999
 20
-3.40969
 30
0.0
 70
    32
  0
VERTEX
  5
253
330
248
100
AcDbEntity
  8
1
100
AcDbVertex
100
AcDb3dPolylineVertex
 10
-50.231333
 20
-3.412027999999999
 30
0.0
 70
    32
  0
VERTEX
  5
254
330
248
100
AcDbEntity
  8
1
100
AcDbVertex
100
AcDb3dPolylineVertex
 10
-50.265287
 20
-3.417987
 30
0.0
 70
    32
  0
VERTEX
  5
255
330
248
100
AcDbEntity
  8
1
100
AcDbVertex
100
AcDb3dPolylineVertex
 10
-50.298679
 20
-3.427501999999999
 30
0.0
 70
    32
  0
VERTEX
  5
256
330
248
100
AcDbEntity
  8
1
100
AcDbVertex
100
AcDb3dPolylineVertex
 10
-50.330925
 20
-3.440468
 30
0.0
 70
    32
  0
SEQEND
  5
257
330
248
100
AcDbEntity
  8
1
  0
POLYLINE
  5
258
330
582
100
AcDbEntity
  8
1
100
AcDb3dPolyline
 66
     1
 10
0.0
 20
0.0
 30
0.0
 70
     8
  0
VERTEX
  5
259
330
258
100
AcDbEntity
  8
1
100
AcDbVertex
100
AcDb3dPolylineVertex
 10
-48.66907499999999
 20
-7.009532
 30
0.0
 70
    32
  0
VERTEX
  5
25A
330
258
100
AcDbEntity
  8
1
100
AcDbVertex
100
AcDb3dPolylineVertex
 10
-48.638514
 20
-6.993278999999999
 30
0.0
 70
    32
  0
VERTEX
  5
25B
330
258
100
AcDbEntity
  8
1
100
AcDbVertex
100
AcDb3dPolylineVertex
 10
-48.60982599999999
 20
-6.973933999999999
 30
0.0
 70
    32
  0
VERTEX
  5
25C
330
258
100
AcDbEntity
  8
1
100
AcDbVertex
100
AcDb3dPolylineVertex
 10
-48.583401
 20
-6.9518
 30
0.0
 70
    32
  0
VERTEX
  5
25D
330
258
100
AcDbEntity
  8
1
100
AcDbVertex
100
AcDb3dPolylineVertex
 10
-48.559624
 20
-6.927222
 30
0.0
 70
    32
  0
VERTEX
  5
25E
330
258
100
AcDbEntity
  8
1
100
AcDbVertex
100
AcDb3dPolylineVertex
 10
-48.538717
 20
-6.900593999999999
 30
0.0
 70
    32
  0
VERTEX
  5
25F
330
258
100
AcDbEntity
  8
1
100
AcDbVertex
100
AcDb3dPolylineVertex
 10
-48.520783
 20
-6.872213999999999
 30
0.0
 70
    32
  0
VERTEX
  5
260
330
258
100
AcDbEntity
  8
1
100
AcDbVertex
100
AcDb3dPolylineVertex
 10
-48.505943
 20
-6.842433999999999
 30
0.0
 70
    32
  0
VERTEX
  5
261
330
258
100
AcDbEntity
  8
1
100
AcDbVertex
100
AcDb3dPolylineVertex
 10
-48.494343
 20
-6.811841999999999
 30
0.0
 70
    32
  0
VERTEX
  5
262
330
258
100
AcDbEntity
  8
1
100
AcDbVertex
100
AcDb3dPolylineVertex
 10
-48.48593199999999
 20
-6.780644
 30
0.0
 70
    32
  0
VERTEX
  5
263
330
258
100
AcDbEntity
  8
1
100
AcDbVertex
100
AcDb3dPolylineVertex
 10
-48.480638
 20
-6.748997999999999
 30
0.0
 70
    32
  0
VERTEX
  5
264
330
258
100
AcDbEntity
  8
1
100
AcDbVertex
100
AcDb3dPolylineVertex
 10
-48.47843
 20
-6.717463999999999
 30
0.0
 70
    32
  0
VERTEX
  5
265
330
258
100
AcDbEntity
  8
1
100
AcDbVertex
100
AcDb3dPolylineVertex
 10
-48.479238
 20
-6.686277999999999
 30
0.0
 70
    32
  0
VERTEX
  5
266
330
258
100
AcDbEntity
  8
1
100
AcDbVertex
100
AcDb3dPolylineVertex
 10
-48.48296799999999
 20
-6.655482000000001
 30
0.0
 70
    32
  0
SEQEND
  5
267
330
258
100
AcDbEntity
  8
1
  0
POLYLINE
  5
268
330
582
100
AcDbEntity
  8
1
100
AcDb3dPolyline
 66
     1
 10
0.0
 20
0.0
 30
0.0
 70
     8
  0
VERTEX
  5
269
330
268
100
AcDbEntity
  8
1
100
AcDbVertex
100
AcDb3dPolylineVertex
 10
-51.45972
 20
-5.039285999999999
 30
0.0
 70
    32
  0
VERTEX
  5
26A
330
268
100
AcDbEntity
  8
1
100
AcDbVertex
100
AcDb3dPolylineVertex
 10
-51.461139
 20
-5.074826999999999
 30
0.0
 70
    32
  0
VERTEX
  5
26B
330
268
100
AcDbEntity
  8
1
100
AcDbVertex
100
AcDb3dPolylineVertex
 10
-51.458752
 20
-5.11023
 30
0.0
 70
    32
  0
VERTEX
  5
26C
330
268
100
AcDbEntity
  8
1
100
AcDbVertex
100
AcDb3dPolylineVertex
 10
-51.452666
 20
-5.144935
 30
0.0
 70
    32
  0
VERTEX
  5
26D
330
268
100
AcDbEntity
  8
1
100
AcDbVertex
100
AcDb3dPolylineVertex
 10
-51.442988
 20
-5.178469
 30
0.0
 70
    32
  0
VERTEX
  5
26E
330
268
100
AcDbEntity
  8
1
100
AcDbVertex
100
AcDb3dPolylineVertex
 10
-51.429929
 20
-5.21056
 30
0.0
 70
    32
  0
VERTEX
  5
26F
330
268
100
AcDbEntity
  8
1
100
AcDbVertex
100
AcDb3dPolylineVertex
 10
-51.41379099999999
 20
-5.240810999999999
 30
0.0
 70
    32
  0
VERTEX
  5
270
330
268
100
AcDbEntity
  8
1
100
AcDbVertex
100
AcDb3dPolylineVertex
 10
-51.394883
 20
-5.268831999999999
 30
0.0
 70
    32
  0
VERTEX
  5
271
330
268
100
AcDbEntity
  8
1
100
AcDbVertex
100
AcDb3dPolylineVertex
 10
-51.373525
 20
-5.294420999999999
 30
0.0
 70
    32
  0
VERTEX
  5
272
330
268
100
AcDbEntity
  8
1
100
AcDbVertex
100
AcDb3dPolylineVertex
 10
-51.349959
 20
-5.317485999999999
 30
0.0
 70
    32
  0
VERTEX
  5
273
330
268
100
AcDbEntity
  8
1
100
AcDbVertex
100
AcDb3dPolylineVertex
 10
-51.324435
 20
-5.337924
 30
0.0
 70
    32
  0
VERTEX
  5
274
330
268
100
AcDbEntity
  8
1
100
AcDbVertex
100
AcDb3dPolylineVertex
 10
-51.297477
 20
-5.355487999999999
 30
0.0
 70
    32
  0
VERTEX
  5
275
330
268
100
AcDbEntity
  8
1
100
AcDbVertex
100
AcDb3dPolylineVertex
 10
-51.26929
 20
-5.370154
 30
0.0
 70
    32
  0
VERTEX
  5
276
330
268
100
AcDbEntity
  8
1
100
AcDbVertex
100
AcDb3dPolylineVertex
 10
-51.23992
 20
-5.381993
 30
0.0
 70
    32
  0
SEQEND
  5
277
330
268
100
AcDbEntity
  8
1
  0
POLYLINE
  5
278
330
582
100
AcDbEntity
  8
1
100
AcDb3dPolyline
 66
     1
 10
0.0
 20
0.0
 30
0.0
 70
     8
  0
VERTEX
  5
279
330
278
100
AcDbEntity
  8
1
100
AcDbVertex
100
AcDb3dPolylineVertex
 10
-49.059824
 20
-6.924081
 30
0.0
 70
    32
  0
VERTEX
  5
27A
330
278
100
AcDbEntity
  8
1
100
AcDbVertex
100
AcDb3dPolylineVertex
 10
-49.098886
 20
-6.881247999999999
 30
0.0
 70
    32
  0
VERTEX
  5
27B
330
278
100
AcDbEntity
  8
1
100
AcDbVertex
100
AcDb3dPolylineVertex
 10
-49.141065
 20
-6.841091
 30
0.0
 70
    32
  0
VERTEX
  5
27C
330
278
100
AcDbEntity
  8
1
100
AcDbVertex
100
AcDb3dPolylineVertex
 10
-49.18649
 20
-6.803611999999999
 30
0.0
 70
    32
  0
VERTEX
  5
27D
330
278
100
AcDbEntity
  8
1
100
AcDbVertex
100
AcDb3dPolylineVertex
 10
-49.235414
 20
-6.768844
 30
0.0
 70
    32
  0
VERTEX
  5
27E
330
278
100
AcDbEntity
  8
1
100
AcDbVertex
100
AcDb3dPolylineVertex
 10
-49.28755999999999
 20
-6.737236
 30
0.0
 70
    32
  0
VERTEX
  5
27F
330
278
100
AcDbEntity
  8
1
100
AcDbVertex
100
AcDb3dPolylineVertex
 10
-49.342517
 20
-6.709274
 30
0.0
 70
    32
  0
VERTEX
  5
280
330
278
100
AcDbEntity
  8
1
100
AcDbVertex
100
AcDb3dPolylineVertex
 10
-49.400135
 20
-6.685227
 30
0.0
 70
    32
  0
VERTEX
  5
281
330
278
100
AcDbEntity
  8
1
100
AcDbVertex
100
AcDb3dPolylineVertex
 10
-49.46058
 20
-6.665275
 30
0.0
 70
    32
  0
VERTEX
  5
282
330
278
100
AcDbEntity
  8
1
100
AcDbVertex
100
AcDb3dPolylineVertex
 10
-49.523046
 20
-6.649894999999999
 30
0.0
 70
    32
  0
VERTEX
  5
283
330
278
100
AcDbEntity
  8
1
100
AcDbVertex
100
AcDb3dPolylineVertex
 10
-49.58662
 20
-6.6394
 30
0.0
 70
    32
  0
VERTEX
  5
284
330
278
100
AcDbEntity
  8
1
100
AcDbVertex
100
AcDb3dPolylineVertex
 10
-49.65094699999999
 20
-6.633903999999999
 30
0.0
 70
    32
  0
VERTEX
  5
285
330
278
100
AcDbEntity
  8
1
100
AcDbVertex
100
AcDb3dPolylineVertex
 10
-49.71586099999999
 20
-6.633469999999999
 30
0.0
 70
    32
  0
VERTEX
  5
286
330
278
100
AcDbEntity
  8
1
100
AcDbVertex
100
AcDb3dPolylineVertex
 10
-49.780163
 20
-6.638024
 30
0.0
 70
    32
  0
VERTEX
  5
287
330
278
100
AcDbEntity
  8
1
100
AcDbVertex
100
AcDb3dPolylineVertex
 10
-49.843034
 20
-6.647463
 30
0.0
 70
    32
  0
VERTEX
  5
288
330
278
100
AcDbEntity
  8
1
100
AcDbVertex
100
AcDb3dPolylineVertex
 10
-49.904352
 20
-6.661521
 30
0.0
 70
    32
  0
VERTEX
  5
289
330
278
100
AcDbEntity
  8
1
100
AcDbVertex
100
AcDb3dPolylineVertex
 10
-49.96344099999999
 20
-6.679847
 30
0.0
 70
    32
  0
VERTEX
  5
28A
330
278
100
AcDbEntity
  8
1
100
AcDbVertex
100
AcDb3dPolylineVertex
 10
-50.01983
 20
-6.702038
 30
0.0
 70
    32
  0
VERTEX
  5
28B
330
278
100
AcDbEntity
  8
1
100
AcDbVertex
100
AcDb3dPolylineVertex
 10
-50.073613
 20
-6.727891
 30
0.0
 70
    32
  0
VERTEX
  5
28C
330
278
100
AcDbEntity
  8
1
100
AcDbVertex
100
AcDb3dPolylineVertex
 10
-50.124944
 20
-6.757278999999999
 30
0.0
 70
    32
  0
VERTEX
  5
28D
330
278
100
AcDbEntity
  8
1
100
AcDbVertex
100
AcDb3dPolylineVertex
 10
-50.173719
 20
-6.790027
 30
0.0
 70
    32
  0
VERTEX
  5
28E
330
278
100
AcDbEntity
  8
1
100
AcDbVertex
100
AcDb3dPolylineVertex
 10
-50.21967700000001
 20
-6.825842999999998
 30
0.0
 70
    32
  0
SEQEND
  5
28F
330
278
100
AcDbEntity
  8
1
  0
POLYLINE
  5
290
330
582
100
AcDbEntity
  8
1
100
AcDb3dPolyline
 66
     1
 10
0.0
 20
0.0
 30
0.0
 70
     8
  0
VERTEX
  5
291
330
290
100
AcDbEntity
  8
1
100
AcDbVertex
100
AcDb3dPolylineVertex
 10
-50.330925
 20
-3.440468
 30
0.0
 70
    32
  0
VERTEX
  5
292
330
290
100
AcDbEntity
  8
1
100
AcDbVertex
100
AcDb3dPolylineVertex
 10
-50.361486
 20
-3.456720999999999
 30
0.0
 70
    32
  0
VERTEX
  5
293
330
290
100
AcDbEntity
  8
1
100
AcDbVertex
100
AcDb3dPolylineVertex
 10
-50.390174
 20
-3.476066
 30
0.0
 70
    32
  0
VERTEX
  5
294
330
290
100
AcDbEntity
  8
1
100
AcDbVertex
100
AcDb3dPolylineVertex
 10
-50.41659899999999
 20
-3.4982
 30
0.0
 70
    32
  0
VERTEX
  5
295
330
290
100
AcDbEntity
  8
1
100
AcDbVertex
100
AcDb3dPolylineVertex
 10
-50.440376
 20
-3.522777999999999
 30
0.0
 70
    32
  0
VERTEX
  5
296
330
290
100
AcDbEntity
  8
1
100
AcDbVertex
100
AcDb3dPolylineVertex
 10
-50.461283
 20
-3.549405999999999
 30
0.0
 70
    32
  0
VERTEX
  5
297
330
290
100
AcDbEntity
  8
1
100
AcDbVertex
100
AcDb3dPolylineVertex
 10
-50.47921699999999
 20
-3.577786
 30
0.0
 70
    32
  0
VERTEX
  5
298
330
290
100
AcDbEntity
  8
1
100
AcDbVertex
100
AcDb3dPolylineVertex
 10
-50.494057
 20
-3.607566
 30
0.0
 70
    32
  0
VERTEX
  5
299
330
290
100
AcDbEntity
  8
1
100
AcDbVertex
100
AcDb3dPolylineVertex
 10
-50.50565699999999
 20
-3.638158
 30
0.0
 70
    32
  0
VERTEX
  5
29A
330
290
100
AcDbEntity
  8
1
100
AcDbVertex
100
AcDb3dPolylineVertex
 10
-50.514068
 20
-3.669355999999999
 30
0.0
 70
    32
  0
VERTEX
  5
29B
330
290
100
AcDbEntity
  8
1
100
AcDbVertex
100
AcDb3dPolylineVertex
 10
-50.519362
 20
-3.701001999999999
 30
0.0
 70
    32
  0
VERTEX
  5
29C
330
290
100
AcDbEntity
  8
1
100
AcDbVertex
100
AcDb3dPolylineVertex
 10
-50.52157000000001
 20
-3.732536
 30
0.0
 70
    32
  0
VERTEX
  5
29D
330
290
100
AcDbEntity
  8
1
100
AcDbVertex
100
AcDb3dPolylineVertex
 10
-50.520762
 20
-3.763722
 30
0.0
 70
    32
  0
VERTEX
  5
29E
330
290
100
AcDbEntity
  8
1
100
AcDbVertex
100
AcDb3dPolylineVertex
 10
-50.517032
 20
-3.794518
 30
0.0
 70
    32
  0
SEQEND
  5
29F
330
290
100
AcDbEntity
  8
1
  0
POLYLINE
  5
2A0
330
582
100
AcDbEntity
  8
1
100
AcDb3dPolyline
 66
     1
 10
0.0
 20
0.0
 30
0.0
 70
     8
  0
VERTEX
  5
2A1
330
2A0
100
AcDbEntity
  8
1
100
AcDbVertex
100
AcDb3dPolylineVertex
 10
-47.81162
 20
-5.704587
 30
0.0
 70
    32
  0
VERTEX
  5
2A2
330
2A0
100
AcDbEntity
  8
1
100
AcDbVertex
100
AcDb3dPolylineVertex
 10
-47.868327
 20
-5.716622
 30
0.0
 70
    32
  0
VERTEX
  5
2A3
330
2A0
100
AcDbEntity
  8
1
100
AcDbVertex
100
AcDb3dPolylineVertex
 10
-47.924302
 20
-5.7327
 30
0.0
 70
    32
  0
VERTEX
  5
2A4
330
2A0
100
AcDbEntity
  8
1
100
AcDbVertex
100
AcDb3dPolylineVertex
 10
-47.97960699999999
 20
-5.752930999999999
 30
0.0
 70
    32
  0
VERTEX
  5
2A5
330
2A0
100
AcDbEntity
  8
1
100
AcDbVertex
100
AcDb3dPolylineVertex
 10
-48.034344
 20
-5.777553
 30
0.0
 70
    32
  0
VERTEX
  5
2A6
330
2A0
100
AcDbEntity
  8
1
100
AcDbVertex
100
AcDb3dPolylineVertex
 10
-48.08798499999999
 20
-5.806553
 30
0.0
 70
    32
  0
VERTEX
  5
2A7
330
2A0
100
AcDbEntity
  8
1
100
AcDbVertex
100
AcDb3dPolylineVertex
 10
-48.139902
 20
-5.839820999999999
 30
0.0
 70
    32
  0
VERTEX
  5
2A8
330
2A0
100
AcDbEntity
  8
1
100
AcDbVertex
100
AcDb3dPolylineVertex
 10
-48.189787
 20
-5.877364
 30
0.0
 70
    32
  0
VERTEX
  5
2A9
330
2A0
100
AcDbEntity
  8
1
100
AcDbVertex
100
AcDb3dPolylineVertex
 10
-48.23757
 20
-5.919419
 30
0.0
 70
    32
  0
VERTEX
  5
2AA
330
2A0
100
AcDbEntity
  8
1
100
AcDbVertex
100
AcDb3dPolylineVertex
 10
-48.28243
 20
-5.965527999999999
 30
0.0
 70
    32
  0
VERTEX
  5
2AB
330
2A0
100
AcDbEntity
  8
1
100
AcDbVertex
100
AcDb3dPolylineVertex
 10
-48.323637
 20
-6.015063999999999
 30
0.0
 70
    32
  0
VERTEX
  5
2AC
330
2A0
100
AcDbEntity
  8
1
100
AcDbVertex
100
AcDb3dPolylineVertex
 10
-48.360912
 20
-6.067776999999999
 30
0.0
 70
    32
  0
VERTEX
  5
2AD
330
2A0
100
AcDbEntity
  8
1
100
AcDbVertex
100
AcDb3dPolylineVertex
 10
-48.394117
 20
-6.123558
 30
0.0
 70
    32
  0
VERTEX
  5
2AE
330
2A0
100
AcDbEntity
  8
1
100
AcDbVertex
100
AcDb3dPolylineVertex
 10
-48.422709
 20
-6.181333
 30
0.0
 70
    32
  0
VERTEX
  5
2AF
330
2A0
100
AcDbEntity
  8
1
100
AcDbVertex
100
AcDb3dPolylineVertex
 10
-48.446364
 20
-6.240344
 30
0.0
 70
    32
  0
VERTEX
  5
2B0
330
2A0
100
AcDbEntity
  8
1
100
AcDbVertex
100
AcDb3dPolylineVertex
 10
-48.465248
 20
-6.300351999999999
 30
0.0
 70
    32
  0
VERTEX
  5
2B1
330
2A0
100
AcDbEntity
  8
1
100
AcDbVertex
100
AcDb3dPolylineVertex
 10
-48.479323
 20
-6.360594999999999
 30
0.0
 70
    32
  0
VERTEX
  5
2B2
330
2A0
100
AcDbEntity
  8
1
100
AcDbVertex
100
AcDb3dPolylineVertex
 10
-48.488699
 20
-6.420463999999999
 30
0.0
 70
    32
  0
VERTEX
  5
2B3
330
2A0
100
AcDbEntity
  8
1
100
AcDbVertex
100
AcDb3dPolylineVertex
 10
-48.493596
 20
-6.479936
 30
0.0
 70
    32
  0
VERTEX
  5
2B4
330
2A0
100
AcDbEntity
  8
1
100
AcDbVertex
100
AcDb3dPolylineVertex
 10
-48.494205
 20
-6.539080999999999
 30
0.0
 70
    32
  0
VERTEX
  5
2B5
330
2A0
100
AcDbEntity
  8
1
100
AcDbVertex
100
AcDb3dPolylineVertex
 10
-48.49062199999999
 20
-6.597721
 30
0.0
 70
    32
  0
VERTEX
  5
2B6
330
2A0
100
AcDbEntity
  8
1
100
AcDbVertex
100
AcDb3dPolylineVertex
 10
-48.48296799999999
 20
-6.655482000000001
 30
0.0
 70
    32
  0
SEQEND
  5
2B7
330
2A0
100
AcDbEntity
  8
1
  0
POLYLINE
  5
2B8
330
582
100
AcDbEntity
  8
1
100
AcDb3dPolyline
 66
     1
 10
0.0
 20
0.0
 30
0.0
 70
     8
  0
VERTEX
  5
2B9
330
2B8
100
AcDbEntity
  8
1
100
AcDbVertex
100
AcDb3dPolylineVertex
 10
-50.74004099999999
 20
-6.455555
 30
0.0
 70
    32
  0
VERTEX
  5
2BA
330
2B8
100
AcDbEntity
  8
1
100
AcDbVertex
100
AcDb3dPolylineVertex
 10
-50.725457
 20
-6.413981999999999
 30
0.0
 70
    32
  0
VERTEX
  5
2BB
330
2B8
100
AcDbEntity
  8
1
100
AcDbVertex
100
AcDb3dPolylineVertex
 10
-50.713078
 20
-6.371609999999999
 30
0.0
 70
    32
  0
VERTEX
  5
2BC
330
2B8
100
AcDbEntity
  8
1
100
AcDbVertex
100
AcDb3dPolylineVertex
 10
-50.702956
 20
-6.328389999999999
 30
0.0
 70
    32
  0
VERTEX
  5
2BD
330
2B8
100
AcDbEntity
  8
1
100
AcDbVertex
100
AcDb3dPolylineVertex
 10
-50.695142
 20
-6.284273999999999
 30
0.0
 70
    32
  0
VERTEX
  5
2BE
330
2B8
100
AcDbEntity
  8
1
100
AcDbVertex
100
AcDb3dPolylineVertex
 10
-50.689689
 20
-6.239213999999999
 30
0.0
 70
    32
  0
VERTEX
  5
2BF
330
2B8
100
AcDbEntity
  8
1
100
AcDbVertex
100
AcDb3dPolylineVertex
 10
-50.686665
 20
-6.193209999999999
 30
0.0
 70
    32
  0
VERTEX
  5
2C0
330
2B8
100
AcDbEntity
  8
1
100
AcDbVertex
100
AcDb3dPolylineVertex
 10
-50.686214
 20
-6.146607
 30
0.0
 70
    32
  0
VERTEX
  5
2C1
330
2B8
100
AcDbEntity
  8
1
100
AcDbVertex
100
AcDb3dPolylineVertex
 10
-50.68841299999999
 20
-6.099688999999999
 30
0.0
 70
    32
  0
VERTEX
  5
2C2
330
2B8
100
AcDbEntity
  8
1
100
AcDbVertex
100
AcDb3dPolylineVertex
 10
-50.693321
 20
-6.052622
 30
0.0
 70
    32
  0
VERTEX
  5
2C3
330
2B8
100
AcDbEntity
  8
1
100
AcDbVertex
100
AcDb3dPolylineVertex
 10
-50.701037
 20
-6.005302999999999
 30
0.0
 70
    32
  0
VERTEX
  5
2C4
330
2B8
100
AcDbEntity
  8
1
100
AcDbVertex
100
AcDb3dPolylineVertex
 10
-50.711703
 20
-5.957688
 30
0.0
 70
    32
  0
SEQEND
  5
2C5
330
2B8
100
AcDbEntity
  8
1
  0
POLYLINE
  5
2C6
330
582
100
AcDbEntity
  8
1
100
AcDb3dPolyline
 66
     1
 10
0.0
 20
0.0
 30
0.0
 70
     8
  0
VERTEX
  5
2C7
330
2C6
100
AcDbEntity
  8
1
100
AcDbVertex
100
AcDb3dPolylineVertex
 10
-68.0
 20
-10.225
 30
0.0
 70
    32
  0
VERTEX
  5
2C8
330
2C6
100
AcDbEntity
  8
1
100
AcDbVertex
100
AcDb3dPolylineVertex
 10
-68.018513
 20
-10.231819
 30
0.0
 70
    32
  0
VERTEX
  5
2C9
330
2C6
100
AcDbEntity
  8
1
100
AcDbVertex
100
AcDb3dPolylineVertex
 10
-68.03652099999999
 20
-10.252091
 30
0.0
 70
    32
  0
VERTEX
  5
2CA
330
2C6
100
AcDbEntity
  8
1
100
AcDbVertex
100
AcDb3dPolylineVertex
 10
-68.05353199999998
 20
-10.285263
 30
0.0
 70
    32
  0
VERTEX
  5
2CB
330
2C6
100
AcDbEntity
  8
1
100
AcDbVertex
100
AcDb3dPolylineVertex
 10
-68.06908400000001
 20
-10.33043
 30
0.0
 70
    32
  0
VERTEX
  5
2CC
330
2C6
100
AcDbEntity
  8
1
100
AcDbVertex
100
AcDb3dPolylineVertex
 10
-68.082751
 20
-10.386359
 30
0.0
 70
    32
  0
VERTEX
  5
2CD
330
2C6
100
AcDbEntity
  8
1
100
AcDbVertex
100
AcDb3dPolylineVertex
 10
-68.09416099999999
 20
-10.451526
 30
0.0
 70
    32
  0
VERTEX
  5
2CE
330
2C6
100
AcDbEntity
  8
1
100
AcDbVertex
100
AcDb3dPolylineVertex
 10
-68.103002
 20
-10.524152
 30
0.0
 70
    32
  0
VERTEX
  5
2CF
330
2C6
100
AcDbEntity
  8
1
100
AcDbVertex
100
AcDb3dPolylineVertex
 10
-68.10903399999999
 20
-10.602257
 30
0.0
 70
    32
  0
VERTEX
  5
2D0
330
2C6
100
AcDbEntity
  8
1
100
AcDbVertex
100
AcDb3dPolylineVertex
 10
-68.11209100000001
 20
-10.68371
 30
0.0
 70
    32
  0
VERTEX
  5
2D1
330
2C6
100
AcDbEntity
  8
1
100
AcDbVertex
100
AcDb3dPolylineVertex
 10
-68.11209100000001
 20
-10.766289
 30
0.0
 70
    32
  0
VERTEX
  5
2D2
330
2C6
100
AcDbEntity
  8
1
100
AcDbVertex
100
AcDb3dPolylineVertex
 10
-68.10903399999999
 20
-10.847742
 30
0.0
 70
    32
  0
VERTEX
  5
2D3
330
2C6
100
AcDbEntity
  8
1
100
AcDbVertex
100
AcDb3dPolylineVertex
 10
-68.103002
 20
-10.925847
 30
0.0
 70
    32
  0
VERTEX
  5
2D4
330
2C6
100
AcDbEntity
  8
1
100
AcDbVertex
100
AcDb3dPolylineVertex
 10
-68.09416099999999
 20
-10.998473
 30
0.0
 70
    32
  0
VERTEX
  5
2D5
330
2C6
100
AcDbEntity
  8
1
100
AcDbVertex
100
AcDb3dPolylineVertex
 10
-68.082751
 20
-11.06364
 30
0.0
 70
    32
  0
VERTEX
  5
2D6
330
2C6
100
AcDbEntity
  8
1
100
AcDbVertex
100
AcDb3dPolylineVertex
 10
-68.06908400000001
 20
-11.11957
 30
0.0
 70
    32
  0
VERTEX
  5
2D7
330
2C6
100
AcDbEntity
  8
1
100
AcDbVertex
100
AcDb3dPolylineVertex
 10
-68.053533
 20
-11.164736
 30
0.0
 70
    32
  0
VERTEX
  5
2D8
330
2C6
100
AcDbEntity
  8
1
100
AcDbVertex
100
AcDb3dPolylineVertex
 10
-68.03652099999999
 20
-11.197908
 30
0.0
 70
    32
  0
VERTEX
  5
2D9
330
2C6
100
AcDbEntity
  8
1
100
AcDbVertex
100
AcDb3dPolylineVertex
 10
-68.018513
 20
-11.21818
 30
0.0
 70
    32
  0
VERTEX
  5
2DA
330
2C6
100
AcDbEntity
  8
1
100
AcDbVertex
100
AcDb3dPolylineVertex
 10
-68.0
 20
-11.225
 30
0.0
 70
    32
  0
SEQEND
  5
2DB
330
2C6
100
AcDbEntity
  8
1
  0
DIMENSION
  5
2DC
330
582
100
AcDbEntity
  8
2
100
AcDbDimension
  2
*D0
 10
-79.813687
 20
-12.0
 30
0.0
 11
-81.56368699999999
 21
-7.607236999999999
 31
0.0
  1
12
 71
     5
 42
-1.0
  3
SANDVIK_DIM
100
AcDbAlignedDimension
 13
-38.4
 23
0.0
 33
0.0
 14
-75.31374699999999
 24
-12.0
 34
0.0
 50
90.0
100
AcDbRotatedDimension
  0
DIMENSION
  5
2DD
330
582
100
AcDbEntity
  8
2
100
AcDbDimension
  2
*D1
 10
-40.0
 20
9.300953999999999
 30
0.0
 11
-56.04473699999999
 21
11.050954
 31
0.0
  1
28
 71
     5
 42
-1.0
  3
SANDVIK_DIM
100
AcDbAlignedDimension
 13
-68.0
 23
-12.0
 33
0.0
 14
-40.0
 24
0.0
 34
0.0
100
AcDbRotatedDimension
  0
DIMENSION
  5
2DE
330
582
100
AcDbEntity
  8
SK2
100
AcDbDimension
  2
*D2
 10
2.0
 20
-32.81053
 30
0.0
 11
-35.044737
 21
-31.06053
 31
0.0
  1
70
 71
     5
 42
-1.0
  3
SANDVIK_DIM
100
AcDbAlignedDimension
 13
-68.0
 23
-12.0
 33
0.0
 14
2.0
 24
-11.475
 34
0.0
100
AcDbRotatedDimension
  0
DIMENSION
  5
2DF
330
582
100
AcDbEntity
  8
2
100
AcDbDimension
  2
*D3
 10
35.097818
 20
0.0
 30
0.0
 11
33.347818
 21
-7.594736999999999
 31
0.0
  1
12
 71
     5
 42
-1.0
  3
SANDVIK_DIM
100
AcDbAlignedDimension
 13
1.5
 23
-11.975
 33
0.0
 14
-1.0
 24
0.0
 34
0.0
 50
90.0
100
AcDbRotatedDimension
  0
DIMENSION
  5
2E0
330
582
100
AcDbEntity
  8
2
100
AcDbDimension
  2
*D4
 10
0.0
 20
20.81557
 30
0.0
 11
-36.044737
 21
22.56557
 31
0.0
  1
68
 71
     5
 42
-1.0
  3
SANDVIK_DIM
100
AcDbAlignedDimension
 13
-68.0
 23
-12.0
 33
0.0
 14
0.0
 24
0.0
 34
0.0
100
AcDbRotatedDimension
  0
DIMENSION
  5
2E1
330
582
100
AcDbEntity
  8
SK2
100
AcDbDimension
  2
*D5
 10
-88.29731999999999
 20
0.0
 30
0.0
 11
-90.04732
 21
-7.607236999999999
 31
0.0
  1
12
 71
     5
 42
-1.0
  3
SANDVIK_DIM
100
AcDbAlignedDimension
 13
-68.0
 23
-12.0
 33
0.0
 14
-38.4
 24
0.0
 34
0.0
 50
90.0
100
AcDbRotatedDimension
  0
DIMENSION
  5
2E2
330
582
100
AcDbEntity
  8
2
100
AcDbDimension
  2
*D6
 10
0.0
 20
7.719788
 30
0.0
 11
11.387241
 21
9.469788000000001
 31
0.0
  1
x45%%d
 71
     5
 42
-1.0
  3
SANDVIK_DIM
100
AcDbAlignedDimension
 13
2.0
 23
-2.973933999999999
 33
0.0
 14
0.0
 24
0.0
 34
0.0
100
AcDbRotatedDimension
  0
DIMENSION
  5
2E3
330
582
100
AcDbEntity
  8
2
100
AcDbDimension
  2
*D7
 10
0.0
 20
-22.087027
 30
0.0
 11
-12.796537
 21
-20.337027
 31
0.0
  1
x45%%d
 71
     5
 42
-1.0
  3
SANDVIK_DIM
100
AcDbAlignedDimension
 13
2.0
 23
-9.001065999999999
 33
0.0
 14
0.0
 24
-11.975
 34
0.0
100
AcDbRotatedDimension
  0
ENDSEC
  0
SECTION
  2
OBJECTS
  0
DICTIONARY
  5
51E
330
0
100
AcDbDictionary
281
     1
  3
ACAD_CIP_PREVIOUS_PRODUCT_INFO
350
5BB
  3
ACAD_COLOR
350
574
  3
ACAD_DETAILVIEWSTYLE
350
57C
  3
ACAD_GROUP
350
51F
  3
ACAD_LAYOUT
350
573
  3
ACAD_MATERIAL
350
522
  3
ACAD_MLEADERSTYLE
350
577
  3
ACAD_MLINESTYLE
350
570
  3
ACAD_PLOTSETTINGS
350
572
  3
ACAD_PLOTSTYLENAME
350
520
  3
ACAD_SCALELIST
350
554
  3
ACAD_SECTIONVIEWSTYLE
350
579
  3
ACAD_TABLESTYLE
350
575
  3
ACAD_VISUALSTYLE
350
53B
  3
ACDB_RECOMPOSE_DATA
350
617
  3
AcDbVariableDictionary
350
60A
  3
DWGPROPS
350
618
  0
DICTIONARY
  5
5BE
330
566
100
AcDbDictionary
280
     1
281
     1
  3
ADSK_XREC_LAYER_RECONCILED
360
5BF
  0
DICTIONARY
  5
5C0
330
586
100
AcDbDictionary
280
     1
281
     1
  3
ADSK_XREC_LAYER_RECONCILED
360
5C1
  0
DICTIONARY
  5
5C2
330
58A
100
AcDbDictionary
280
     1
281
     1
  3
ADSK_XREC_LAYER_RECONCILED
360
5C3
  0
DICTIONARY
  5
5C4
330
58B
100
AcDbDictionary
280
     1
281
     1
  3
ADSK_XREC_LAYER_RECONCILED
360
5C5
  0
DICTIONARY
  5
5C6
330
58C
100
AcDbDictionary
280
     1
281
     1
  3
ADSK_XREC_LAYER_RECONCILED
360
5C7
  0
DICTIONARY
  5
5C8
330
58D
100
AcDbDictionary
280
     1
281
     1
  3
ADSK_XREC_LAYER_RECONCILED
360
5C9
  0
DICTIONARY
  5
5CA
330
58E
100
AcDbDictionary
280
     1
281
     1
  3
ADSK_XREC_LAYER_RECONCILED
360
5CB
  0
DICTIONARY
  5
5CC
330
58F
100
AcDbDictionary
280
     1
281
     1
  3
ADSK_XREC_LAYER_RECONCILED
360
5CD
  0
DICTIONARY
  5
5CE
330
590
100
AcDbDictionary
280
     1
281
     1
  3
ADSK_XREC_LAYER_RECONCILED
360
5CF
  0
DICTIONARY
  5
5D0
330
591
100
AcDbDictionary
280
     1
281
     1
  3
ADSK_XREC_LAYER_RECONCILED
360
5D1
  0
DICTIONARY
  5
5D2
330
592
100
AcDbDictionary
280
     1
281
     1
  3
ADSK_XREC_LAYER_RECONCILED
360
5D3
  0
DICTIONARY
  5
5D4
330
593
100
AcDbDictionary
280
     1
281
     1
  3
ADSK_XREC_LAYER_RECONCILED
360
5D5
  0
DICTIONARY
  5
5D6
330
594
100
AcDbDictionary
280
     1
281
     1
  3
ADSK_XREC_LAYER_RECONCILED
360
5D7
  0
DICTIONARY
  5
5D8
330
595
100
AcDbDictionary
280
     1
281
     1
  3
ADSK_XREC_LAYER_RECONCILED
360
5D9
  0
DICTIONARY
  5
5DA
330
596
100
AcDbDictionary
280
     1
281
     1
  3
ADSK_XREC_LAYER_RECONCILED
360
5DB
  0
DICTIONARY
  5
5DC
330
597
100
AcDbDictionary
280
     1
281
     1
  3
ADSK_XREC_LAYER_RECONCILED
360
5DD
  0
DICTIONARY
  5
5DE
330
598
100
AcDbDictionary
280
     1
281
     1
  3
ADSK_XREC_LAYER_RECONCILED
360
5DF
  0
DICTIONARY
  5
5E0
330
599
100
AcDbDictionary
280
     1
281
     1
  3
ADSK_XREC_LAYER_RECONCILED
360
5E1
  0
DICTIONARY
  5
5E2
330
59A
100
AcDbDictionary
280
     1
281
     1
  3
ADSK_XREC_LAYER_RECONCILED
360
5E3
  0
DICTIONARY
  5
5E4
330
59B
100
AcDbDictionary
280
     1
281
     1
  3
ADSK_XREC_LAYER_RECONCILED
360
5E5
  0
DICTIONARY
  5
5E6
330
59C
100
AcDbDictionary
280
     1
281
     1
  3
ADSK_XREC_LAYER_RECONCILED
360
5E7
  0
DICTIONARY
  5
5E8
330
59D
100
AcDbDictionary
280
     1
281
     1
  3
ADSK_XREC_LAYER_RECONCILED
360
5E9
  0
DICTIONARY
  5
5EA
330
59E
100
AcDbDictionary
280
     1
281
     1
  3
ADSK_XREC_LAYER_RECONCILED
360
5EB
  0
DICTIONARY
  5
5EC
330
59F
100
AcDbDictionary
280
     1
281
     1
  3
ADSK_XREC_LAYER_RECONCILED
360
5ED
  0
DICTIONARY
  5
5EE
330
5A0
100
AcDbDictionary
280
     1
281
     1
  3
ADSK_XREC_LAYER_RECONCILED
360
5EF
  0
DICTIONARY
  5
5F0
330
5A1
100
AcDbDictionary
280
     1
281
     1
  3
ADSK_XREC_LAYER_RECONCILED
360
5F1
  0
DICTIONARY
  5
5F2
330
5A2
100
AcDbDictionary
280
     1
281
     1
  3
ADSK_XREC_LAYER_RECONCILED
360
5F3
  0
DICTIONARY
  5
5F4
330
5A3
100
AcDbDictionary
280
     1
281
     1
  3
ADSK_XREC_LAYER_RECONCILED
360
5F5
  0
DICTIONARY
  5
5F6
330
5A4
100
AcDbDictionary
280
     1
281
     1
  3
ADSK_XREC_LAYER_RECONCILED
360
5F7
  0
DICTIONARY
  5
5F8
330
5A5
100
AcDbDictionary
280
     1
281
     1
  3
ADSK_XREC_LAYER_RECONCILED
360
5F9
  0
DICTIONARY
  5
5FA
330
5A6
100
AcDbDictionary
280
     1
281
     1
  3
ADSK_XREC_LAYER_RECONCILED
360
5FB
  0
DICTIONARY
  5
5FC
330
5A7
100
AcDbDictionary
280
     1
281
     1
  3
ADSK_XREC_LAYER_RECONCILED
360
5FD
  0
DICTIONARY
  5
5FE
330
5A8
100
AcDbDictionary
280
     1
281
     1
  3
ADSK_XREC_LAYER_RECONCILED
360
5FF
  0
DICTIONARY
  5
600
330
5A9
100
AcDbDictionary
280
     1
281
     1
  3
ADSK_XREC_LAYER_RECONCILED
360
601
  0
DICTIONARY
  5
602
330
5AA
100
AcDbDictionary
280
     1
281
     1
  3
ADSK_XREC_LAYER_RECONCILED
360
603
  0
DICTIONARY
  5
604
330
5AB
100
AcDbDictionary
280
     1
281
     1
  3
ADSK_XREC_LAYER_RECONCILED
360
605
  0
DICTIONARY
  5
606
330
5AC
100
AcDbDictionary
280
     1
281
     1
  3
ADSK_XREC_LAYER_RECONCILED
360
607
  0
DICTIONARY
  5
608
330
5AD
100
AcDbDictionary
280
     1
281
     1
  3
ADSK_XREC_LAYER_RECONCILED
360
609
  0
XRECORD
  5
5BB
102
{ACAD_REACTORS
330
51E
102
}
330
51E
100
AcDbXrecord
280
     1
300
AMECH_PP
300
2013
300
PDSU_F_S
  0
DICTIONARY
  5
574
102
{ACAD_REACTORS
330
51E
102
}
330
51E
100
AcDbDictionary
281
     1
  0
DICTIONARY
  5
57C
102
{ACAD_REACTORS
330
51E
102
}
330
51E
100
AcDbDictionary
281
     1
  3
Imperial24
350
57D
  0
DICTIONARY
  5
51F
102
{ACAD_REACTORS
330
51E
102
}
330
51E
100
AcDbDictionary
281
     1
  0
DICTIONARY
  5
573
102
{ACAD_REACTORS
330
51E
102
}
330
51E
100
AcDbDictionary
281
     1
  3
Layout1
350
581
  3
Model
350
585
  0
DICTIONARY
  5
522
102
{ACAD_REACTORS
330
51E
102
}
330
51E
100
AcDbDictionary
281
     1
  3
ByBlock
350
52B
  3
ByLayer
350
523
  3
Global
350
533
  0
DICTIONARY
  5
577
102
{ACAD_REACTORS
330
51E
102
}
330
51E
100
AcDbDictionary
281
     1
  3
Standard
350
578
  0
DICTIONARY
  5
570
102
{ACAD_REACTORS
330
51E
102
}
330
51E
100
AcDbDictionary
281
     1
  3
Standard
350
571
  0
DICTIONARY
  5
572
102
{ACAD_REACTORS
330
51E
102
}
330
51E
100
AcDbDictionary
281
     1
  0
ACDBDICTIONARYWDFLT
  5
520
102
{ACAD_REACTORS
330
51E
102
}
330
51E
100
AcDbDictionary
281
     1
  3
Normal
350
521
100
AcDbDictionaryWithDefault
340
521
  0
DICTIONARY
  5
554
102
{ACAD_REACTORS
330
51E
102
}
330
51E
100
AcDbDictionary
281
     1
  3
A0
350
555
  3
A1
350
556
  3
A2
350
557
  3
A3
350
558
  3
A4
350
559
  3
A5
350
55A
  3
A6
350
55B
  3
A7
350
55C
  3
A8
350
55D
  3
A9
350
55E
  3
B0
350
55F
  3
B1
350
560
  3
B2
350
561
  3
B3
350
562
  3
B4
350
563
  3
B5
350
564
  3
B6
350
565
  0
DICTIONARY
  5
579
102
{ACAD_REACTORS
330
51E
102
}
330
51E
100
AcDbDictionary
281
     1
  3
Imperial24
350
57B
  0
DICTIONARY
  5
575
102
{ACAD_REACTORS
330
51E
102
}
330
51E
100
AcDbDictionary
281
     1
  3
Standard
350
576
  0
DICTIONARY
  5
53B
102
{ACAD_REACTORS
330
51E
102
}
330
51E
100
AcDbDictionary
281
     1
  3
2dWireframe
350
541
  3
Basic
350
540
  3
Brighten
350
547
  3
ColorChange
350
54B
  3
Conceptual
350
544
  3
Dim
350
546
  3
EdgeColorOff
350
553
  3
Facepattern
350
54A
  3
Flat
350
53C
  3
FlatWithEdges
350
53D
  3
Gouraud
350
53E
  3
GouraudWithEdges
350
53F
  3
Hidden
350
543
  3
JitterOff
350
551
  3
Linepattern
350
549
  3
OverhangOff
350
552
  3
Realistic
350
545
  3
Shaded
350
550
  3
Shaded with edges
350
54F
  3
Shades of Gray
350
54C
  3
Sketchy
350
54D
  3
Thicken
350
548
  3
Wireframe
350
542
  3
X-Ray
350
54E
  0
XRECORD
  5
617
102
{ACAD_REACTORS
330
51E
102
}
330
51E
100
AcDbXrecord
280
     1
 90
        1
330
576
  0
DICTIONARY
  5
60A
102
{ACAD_REACTORS
330
51E
102
}
330
51E
100
AcDbDictionary
281
     1
  3
CANNOSCALE
350
60F
  3
CMLEADERSTYLE
350
60C
  3
CTABLESTYLE
350
60B
  3
CVIEWDETAILSTYLE
350
60D
  3
CVIEWSECTIONSTYLE
350
60E
  3
DIMASSOC
350
612
  3
INDEXCTL
350
611
  3
SORTENTS
350
610
  3
XCLIPFRAME
350
613
  0
XRECORD
  5
618
102
{ACAD_REACTORS
330
51E
102
}
330
51E
100
AcDbXrecord
280
     1
  1
DWGPROPS COOKIE
  2

  3

  4

  6

  7

  8
Micke
  9

300
=
301
=
302
=
303
=
304
=
305
=
306
=
307
=
308
=
309
=
 40
0.0000059722222222
 41
2456818.633553599
 42
2456818.633559468
  1

 90
        0
  0
XRECORD
  5
5BF
102
{ACAD_REACTORS
330
5BE
102
}
330
5BE
100
AcDbXrecord
280
     1
290
     1
  0
XRECORD
  5
5C1
102
{ACAD_REACTORS
330
5C0
102
}
330
5C0
100
AcDbXrecord
280
     1
290
     1
  0
XRECORD
  5
5C3
102
{ACAD_REACTORS
330
5C2
102
}
330
5C2
100
AcDbXrecord
280
     1
290
     1
  0
XRECORD
  5
5C5
102
{ACAD_REACTORS
330
5C4
102
}
330
5C4
100
AcDbXrecord
280
     1
290
     1
  0
XRECORD
  5
5C7
102
{ACAD_REACTORS
330
5C6
102
}
330
5C6
100
AcDbXrecord
280
     1
290
     1
  0
XRECORD
  5
5C9
102
{ACAD_REACTORS
330
5C8
102
}
330
5C8
100
AcDbXrecord
280
     1
290
     1
  0
XRECORD
  5
5CB
102
{ACAD_REACTORS
330
5CA
102
}
330
5CA
100
AcDbXrecord
280
     1
290
     1
  0
XRECORD
  5
5CD
102
{ACAD_REACTORS
330
5CC
102
}
330
5CC
100
AcDbXrecord
280
     1
290
     1
  0
XRECORD
  5
5CF
102
{ACAD_REACTORS
330
5CE
102
}
330
5CE
100
AcDbXrecord
280
     1
290
     1
  0
XRECORD
  5
5D1
102
{ACAD_REACTORS
330
5D0
102
}
330
5D0
100
AcDbXrecord
280
     1
290
     1
  0
XRECORD
  5
5D3
102
{ACAD_REACTORS
330
5D2
102
}
330
5D2
100
AcDbXrecord
280
     1
290
     1
  0
XRECORD
  5
5D5
102
{ACAD_REACTORS
330
5D4
102
}
330
5D4
100
AcDbXrecord
280
     1
290
     1
  0
XRECORD
  5
5D7
102
{ACAD_REACTORS
330
5D6
102
}
330
5D6
100
AcDbXrecord
280
     1
290
     1
  0
XRECORD
  5
5D9
102
{ACAD_REACTORS
330
5D8
102
}
330
5D8
100
AcDbXrecord
280
     1
290
     1
  0
XRECORD
  5
5DB
102
{ACAD_REACTORS
330
5DA
102
}
330
5DA
100
AcDbXrecord
280
     1
290
     1
  0
XRECORD
  5
5DD
102
{ACAD_REACTORS
330
5DC
102
}
330
5DC
100
AcDbXrecord
280
     1
290
     1
  0
XRECORD
  5
5DF
102
{ACAD_REACTORS
330
5DE
102
}
330
5DE
100
AcDbXrecord
280
     1
290
     1
  0
XRECORD
  5
5E1
102
{ACAD_REACTORS
330
5E0
102
}
330
5E0
100
AcDbXrecord
280
     1
290
     1
  0
XRECORD
  5
5E3
102
{ACAD_REACTORS
330
5E2
102
}
330
5E2
100
AcDbXrecord
280
     1
290
     1
  0
XRECORD
  5
5E5
102
{ACAD_REACTORS
330
5E4
102
}
330
5E4
100
AcDbXrecord
280
     1
290
     1
  0
XRECORD
  5
5E7
102
{ACAD_REACTORS
330
5E6
102
}
330
5E6
100
AcDbXrecord
280
     1
290
     1
  0
XRECORD
  5
5E9
102
{ACAD_REACTORS
330
5E8
102
}
330
5E8
100
AcDbXrecord
280
     1
290
     1
  0
XRECORD
  5
5EB
102
{ACAD_REACTORS
330
5EA
102
}
330
5EA
100
AcDbXrecord
280
     1
290
     1
  0
XRECORD
  5
5ED
102
{ACAD_REACTORS
330
5EC
102
}
330
5EC
100
AcDbXrecord
280
     1
290
     1
  0
XRECORD
  5
5EF
102
{ACAD_REACTORS
330
5EE
102
}
330
5EE
100
AcDbXrecord
280
     1
290
     1
  0
XRECORD
  5
5F1
102
{ACAD_REACTORS
330
5F0
102
}
330
5F0
100
AcDbXrecord
280
     1
290
     1
  0
XRECORD
  5
5F3
102
{ACAD_REACTORS
330
5F2
102
}
330
5F2
100
AcDbXrecord
280
     1
290
     1
  0
XRECORD
  5
5F5
102
{ACAD_REACTORS
330
5F4
102
}
330
5F4
100
AcDbXrecord
280
     1
290
     1
  0
XRECORD
  5
5F7
102
{ACAD_REACTORS
330
5F6
102
}
330
5F6
100
AcDbXrecord
280
     1
290
     1
  0
XRECORD
  5
5F9
102
{ACAD_REACTORS
330
5F8
102
}
330
5F8
100
AcDbXrecord
280
     1
290
     1
  0
XRECORD
  5
5FB
102
{ACAD_REACTORS
330
5FA
102
}
330
5FA
100
AcDbXrecord
280
     1
290
     1
  0
XRECORD
  5
5FD
102
{ACAD_REACTORS
330
5FC
102
}
330
5FC
100
AcDbXrecord
280
     1
290
     1
  0
XRECORD
  5
5FF
102
{ACAD_REACTORS
330
5FE
102
}
330
5FE
100
AcDbXrecord
280
     1
290
     1
  0
XRECORD
  5
601
102
{ACAD_REACTORS
330
600
102
}
330
600
100
AcDbXrecord
280
     1
290
     1
  0
XRECORD
  5
603
102
{ACAD_REACTORS
330
602
102
}
330
602
100
AcDbXrecord
280
     1
290
     1
  0
XRECORD
  5
605
102
{ACAD_REACTORS
330
604
102
}
330
604
100
AcDbXrecord
280
     1
290
     1
  0
XRECORD
  5
607
102
{ACAD_REACTORS
330
606
102
}
330
606
100
AcDbXrecord
280
     1
290
     1
  0
XRECORD
  5
609
102
{ACAD_REACTORS
330
608
102
}
330
608
100
AcDbXrecord
280
     1
290
     1
  0
ACDBDETAILVIEWSTYLE
  5
57D
102
{ACAD_REACTORS
330
57C
102
}
330
57C
100
AcDbModelDocViewStyle
 70
     0
  3
Imperial24
290
     0
100
AcDbDetailViewStyle
 70
     0
 71
     0
 90
        3
 71
     1
340
567
 40
0.24
340
0
 40
0.24
300

 40
0.36
280
     3
 71
     2
340
56E
 90
       25
 71
     3
340
567
 40
0.24
 90
        1
 40
0.75
 90
        1
300
%<\AcVar ViewType \f "%tc1">% %<\AcVar ViewDetailId>%\PSCALE %<\AcVar ViewScale \f "%sn">%
 71
     4
340
56E
 90
       25
340
56E
 90
       25
280
     0
  0
LAYOUT
  5
581
102
{ACAD_XDICTIONARY
360
64F
102
}
102
{ACAD_REACTORS
330
573
102
}
330
573
100
AcDbPlotSettings
  1

  2
Brother DCP-9020CDW Printer
  4

  6

 40
0.0
 41
0.0
 42
0.0
 43
0.0
 44
0.0
 45
0.0
 46
0.0
 47
0.0
 48
0.0
 49
0.0
140
0.0
141
0.0
142
1.0
143
1.0
 70
   688
 72
     0
 73
     0
 74
     5
  7

 75
    16
147
1.0
148
0.0
149
0.0
100
AcDbLayout
  1
Layout1
 70
     1
 71
     1
 10
0.0
 20
0.0
 11
12.0
 21
9.0
 12
0.0
 22
0.0
 32
0.0
 14
1.000000000000000E+20
 24
1.000000000000000E+20
 34
1.000000000000000E+20
 15
-1.000000000000000E+20
 25
-1.000000000000000E+20
 35
-1.000000000000000E+20
146
0.0
 13
0.0
 23
0.0
 33
0.0
 16
1.0
 26
0.0
 36
0.0
 17
0.0
 27
1.0
 37
0.0
 76
     0
330
57E
  0
LAYOUT
  5
585
102
{ACAD_XDICTIONARY
360
651
102
}
102
{ACAD_REACTORS
330
573
102
}
330
573
100
AcDbPlotSettings
  1

  2
Brother DCP-9020CDW Printer
  4

  6

 40
0.0
 41
0.0
 42
0.0
 43
0.0
 44
0.0
 45
0.0
 46
0.0
 47
0.0
 48
0.0
 49
0.0
140
0.0
141
0.0
142
1.0
143
1.0
 70
  1712
 72
     0
 73
     0
 74
     0
  7

 75
     0
147
1.0
148
0.0
149
0.0
100
AcDbLayout
  1
Model
 70
     1
 71
     0
 10
0.0
 20
0.0
 11
12.0
 21
9.0
 12
0.0
 22
0.0
 32
0.0
 14
0.0
 24
0.0
 34
0.0
 15
0.0
 25
0.0
 35
0.0
146
0.0
 13
0.0
 23
0.0
 33
0.0
 16
1.0
 26
0.0
 36
0.0
 17
0.0
 27
1.0
 37
0.0
 76
     0
330
582
331
5B1
  0
MATERIAL
  5
52B
102
{ACAD_XDICTIONARY
360
52C
102
}
102
{ACAD_REACTORS
330
522
102
}
330
522
100
AcDbMaterial
  1
ByBlock
 72
     0
 43
0.0208333333333333
 43
0.0
 43
0.0
 43
0.0
 43
0.0
 43
0.0208333333333333
 43
0.0
 43
0.0
 43
0.0
 43
0.0
 43
1.0
 43
0.0
 43
0.0
 43
0.0
 43
0.0
 43
1.0
 77
     0
 47
0.0208333333333333
 47
0.0
 47
0.0
 47
0.0
 47
0.0
 47
0.0208333333333333
 47
0.0
 47
0.0
 47
0.0
 47
0.0
 47
1.0
 47
0.0
 47
0.0
 47
0.0
 47
0.0
 47
1.0
171
     0
 49
0.0208333333333333
 49
0.0
 49
0.0
 49
0.0
 49
0.0
 49
0.0208333333333333
 49
0.0
 49
0.0
 49
0.0
 49
0.0
 49
1.0
 49
0.0
 49
0.0
 49
0.0
 49
0.0
 49
1.0
175
     0
142
0.0208333333333333
142
0.0
142
0.0
142
0.0
142
0.0
142
0.0208333333333333
142
0.0
142
0.0
142
0.0
142
0.0
142
1.0
142
0.0
142
0.0
142
0.0
142
0.0
142
1.0
179
     0
144
0.0208333333333333
144
0.0
144
0.0
144
0.0
144
0.0
144
0.0208333333333333
144
0.0
144
0.0
144
0.0
144
0.0
144
1.0
144
0.0
144
0.0
144
0.0
144
0.0
144
1.0
147
0.0208333333333333
147
0.0
147
0.0
147
0.0
147
0.0
147
0.0208333333333333
147
0.0
147
0.0
147
0.0
147
0.0
147
1.0
147
0.0
147
0.0
147
0.0
147
0.0
147
1.0
  0
MATERIAL
  5
523
102
{ACAD_XDICTIONARY
360
524
102
}
102
{ACAD_REACTORS
330
522
102
}
330
522
100
AcDbMaterial
  1
ByLayer
 72
     0
 43
0.0208333333333333
 43
0.0
 43
0.0
 43
0.0
 43
0.0
 43
0.0208333333333333
 43
0.0
 43
0.0
 43
0.0
 43
0.0
 43
1.0
 43
0.0
 43
0.0
 43
0.0
 43
0.0
 43
1.0
 77
     0
 47
0.0208333333333333
 47
0.0
 47
0.0
 47
0.0
 47
0.0
 47
0.0208333333333333
 47
0.0
 47
0.0
 47
0.0
 47
0.0
 47
1.0
 47
0.0
 47
0.0
 47
0.0
 47
0.0
 47
1.0
171
     0
 49
0.0208333333333333
 49
0.0
 49
0.0
 49
0.0
 49
0.0
 49
0.0208333333333333
 49
0.0
 49
0.0
 49
0.0
 49
0.0
 49
1.0
 49
0.0
 49
0.0
 49
0.0
 49
0.0
 49
1.0
175
     0
142
0.0208333333333333
142
0.0
142
0.0
142
0.0
142
0.0
142
0.0208333333333333
142
0.0
142
0.0
142
0.0
142
0.0
142
1.0
142
0.0
142
0.0
142
0.0
142
0.0
142
1.0
179
     0
144
0.0208333333333333
144
0.0
144
0.0
144
0.0
144
0.0
144
0.0208333333333333
144
0.0
144
0.0
144
0.0
144
0.0
144
1.0
144
0.0
144
0.0
144
0.0
144
0.0
144
1.0
147
0.0208333333333333
147
0.0
147
0.0
147
0.0
147
0.0
147
0.0208333333333333
147
0.0
147
0.0
147
0.0
147
0.0
147
1.0
147
0.0
147
0.0
147
0.0
147
0.0
147
1.0
  0
MATERIAL
  5
533
102
{ACAD_XDICTIONARY
360
534
102
}
102
{ACAD_REACTORS
330
522
102
}
330
522
100
AcDbMaterial
  1
Global
 72
     0
 43
0.0208333333333333
 43
0.0
 43
0.0
 43
0.0
 43
0.0
 43
0.0208333333333333
 43
0.0
 43
0.0
 43
0.0
 43
0.0
 43
1.0
 43
0.0
 43
0.0
 43
0.0
 43
0.0
 43
1.0
 77
     0
 47
0.0208333333333333
 47
0.0
 47
0.0
 47
0.0
 47
0.0
 47
0.0208333333333333
 47
0.0
 47
0.0
 47
0.0
 47
0.0
 47
1.0
 47
0.0
 47
0.0
 47
0.0
 47
0.0
 47
1.0
171
     0
 49
0.0208333333333333
 49
0.0
 49
0.0
 49
0.0
 49
0.0
 49
0.0208333333333333
 49
0.0
 49
0.0
 49
0.0
 49
0.0
 49
1.0
 49
0.0
 49
0.0
 49
0.0
 49
0.0
 49
1.0
175
     0
142
0.0208333333333333
142
0.0
142
0.0
142
0.0
142
0.0
142
0.0208333333333333
142
0.0
142
0.0
142
0.0
142
0.0
142
1.0
142
0.0
142
0.0
142
0.0
142
0.0
142
1.0
179
     0
144
0.0208333333333333
144
0.0
144
0.0
144
0.0
144
0.0
144
0.0208333333333333
144
0.0
144
0.0
144
0.0
144
0.0
144
1.0
144
0.0
144
0.0
144
0.0
144
0.0
144
1.0
147
0.0208333333333333
147
0.0
147
0.0
147
0.0
147
0.0
147
0.0208333333333333
147
0.0
147
0.0
147
0.0
147
0.0
147
1.0
147
0.0
147
0.0
147
0.0
147
0.0
147
1.0
  0
MLEADERSTYLE
  5
578
102
{ACAD_REACTORS
330
577
102
}
330
577
100
AcDbMLeaderStyle
170
     2
171
     1
172
     0
 90
        2
 40
0.0
 41
0.0
173
     1
 91
-1056964608
340
56C
 92
       -2
290
     1
 42
0.09
291
     1
 43
0.36
  3
Standard
 44
0.18
300

342
567
174
     1
178
     6
175
     1
176
     0
 93
-1056964608
 45
0.18
292
     0
297
     0
 46
0.18
 94
-1056964608
 47
1.0
 49
1.0
140
1.0
293
     1
141
0.0
294
     1
177
     0
142
1.0
295
     0
296
     0
143
0.125
1001
ACAD_MLEADERVER
1070
     2
  0
MLINESTYLE
  5
571
102
{ACAD_REACTORS
330
570
102
}
330
570
100
AcDbMlineStyle
  2
STANDARD
 70
     0
  3

 62
   256
 51
90.0
 52
90.0
 71
     2
 49
0.5
 62
   256
  6
BYLAYER
 49
-0.5
 62
   256
  6
BYLAYER
  0
ACDBPLACEHOLDER
  5
521
102
{ACAD_REACTORS
330
520
102
}
330
520
  0
SCALE
  5
555
102
{ACAD_REACTORS
330
554
102
}
330
554
100
AcDbScale
 70
     0
300
1:1
140
1.0
141
1.0
290
     1
  0
SCALE
  5
556
102
{ACAD_REACTORS
330
554
102
}
330
554
100
AcDbScale
 70
     0
300
1/128" = 1'-0"
140
0.0078125
141
12.0
290
     0
  0
SCALE
  5
557
102
{ACAD_REACTORS
330
554
102
}
330
554
100
AcDbScale
 70
     0
300
1/64" = 1'-0"
140
0.015625
141
12.0
290
     0
  0
SCALE
  5
558
102
{ACAD_REACTORS
330
554
102
}
330
554
100
AcDbScale
 70
     0
300
1/32" = 1'-0"
140
0.03125
141
12.0
290
     0
  0
SCALE
  5
559
102
{ACAD_REACTORS
330
554
102
}
330
554
100
AcDbScale
 70
     0
300
1/16" = 1'-0"
140
0.0625
141
12.0
290
     0
  0
SCALE
  5
55A
102
{ACAD_REACTORS
330
554
102
}
330
554
100
AcDbScale
 70
     0
300
3/32" = 1'-0"
140
0.09375
141
12.0
290
     0
  0
SCALE
  5
55B
102
{ACAD_REACTORS
330
554
102
}
330
554
100
AcDbScale
 70
     0
300
1/8" = 1'-0"
140
0.125
141
12.0
290
     0
  0
SCALE
  5
55C
102
{ACAD_REACTORS
330
554
102
}
330
554
100
AcDbScale
 70
     0
300
3/16" = 1'-0"
140
0.1875
141
12.0
290
     0
  0
SCALE
  5
55D
102
{ACAD_REACTORS
330
554
102
}
330
554
100
AcDbScale
 70
     0
300
1/4" = 1'-0"
140
0.25
141
12.0
290
     0
  0
SCALE
  5
55E
102
{ACAD_REACTORS
330
554
102
}
330
554
100
AcDbScale
 70
     0
300
3/8" = 1'-0"
140
0.375
141
12.0
290
     0
  0
SCALE
  5
55F
102
{ACAD_REACTORS
330
554
102
}
330
554
100
AcDbScale
 70
     0
300
1/2" = 1'-0"
140
0.5
141
12.0
290
     0
  0
SCALE
  5
560
102
{ACAD_REACTORS
330
554
102
}
330
554
100
AcDbScale
 70
     0
300
3/4" = 1'-0"
140
0.75
141
12.0
290
     0
  0
SCALE
  5
561
102
{ACAD_REACTORS
330
554
102
}
330
554
100
AcDbScale
 70
     0
300
1" = 1'-0"
140
1.0
141
12.0
290
     0
  0
SCALE
  5
562
102
{ACAD_REACTORS
330
554
102
}
330
554
100
AcDbScale
 70
     0
300
1-1/2" = 1'-0"
140
1.5
141
12.0
290
     0
  0
SCALE
  5
563
102
{ACAD_REACTORS
330
554
102
}
330
554
100
AcDbScale
 70
     0
300
3" = 1'-0"
140
3.0
141
12.0
290
     0
  0
SCALE
  5
564
102
{ACAD_REACTORS
330
554
102
}
330
554
100
AcDbScale
 70
     0
300
6" = 1'-0"
140
6.0
141
12.0
290
     0
  0
SCALE
  5
565
102
{ACAD_REACTORS
330
554
102
}
330
554
100
AcDbScale
 70
     0
300
1'-0" = 1'-0"
140
12.0
141
12.0
290
     0
  0
ACDBSECTIONVIEWSTYLE
  5
57B
102
{ACAD_REACTORS
330
579
102
}
330
579
100
AcDbModelDocViewStyle
 70
     0
  3
Imperial24
290
     0
100
AcDbSectionViewStyle
 70
     0
 71
     0
 90
       78
 71
     1
340
567
 40
0.24
340
0
340
0
 40
0.24
300
I, O, Q, S, X, Z
 40
0.48
 90
        3
 40
0.18
 90
        1
 71
     2
340
57A
 90
       25
340
56E
 90
       50
 40
0.24
 40
0.0
 40
0.24
 71
     3
340
567
 40
0.24
 90
        1
 40
0.75
 90
        1
300
%<\AcVar ViewType \f "%tc1">% %<\AcVar ViewSectionStartId>%-%<\AcVar ViewSectionEndId>%\PSCALE %<\AcVar ViewScale \f "%sn">%
 71
     4
300
ANSI31
 40
1.0
 90
        0
290
     0
290
     0
 90
        6
 40
0.0
 40
1.570796326794896
 40
0.2617993877991494
 40
1.308996938995747
 40
-0.2617993877991494
 40
1.832595714594046
  0
TABLESTYLE
  5
576
102
{ACAD_XDICTIONARY
360
615
102
}
102
{ACAD_REACTORS
330
575
102
}
330
575
100
AcDbTableStyle
  3
Standard
 70
     0
 71
     0
 40
0.06
 41
0.06
280
     0
281
     0
  7
STANDARD
140
0.18
170
     2
 62
     0
 63
     7
283
     0
274
    -2
284
     1
 64
     0
275
    -2
285
     1
 65
     0
276
    -2
286
     1
 66
     0
277
    -2
287
     1
 67
     0
278
    -2
288
     1
 68
     0
279
    -2
289
     1
 69
     0
  7
STANDARD
140
0.25
170
     5
 62
     0
 63
     7
283
     0
274
    -2
284
     1
 64
     0
275
    -2
285
     1
 65
     0
276
    -2
286
     1
 66
     0
277
    -2
287
     1
 67
     0
278
    -2
288
     1
 68
     0
279
    -2
289
     1
 69
     0
  7
STANDARD
140
0.18
170
     5
 62
     0
 63
     7
283
     0
274
    -2
284
     1
 64
     0
275
    -2
285
     1
 65
     0
276
    -2
286
     1
 66
     0
277
    -2
287
     1
 67
     0
278
    -2
288
     1
 68
     0
279
    -2
289
     1
 69
     0
  0
VISUALSTYLE
  5
541
102
{ACAD_XDICTIONARY
360
627
102
}
102
{ACAD_REACTORS
330
53B
102
}
330
53B
100
AcDbVisualStyle
  2
2dWireframe
 70
     4
 71
     0
 72
     2
 73
     0
 90
        0
 40
-0.6
 41
-30.0
 62
     5
 63
     7
 74
     1
 91
        4
 64
     7
 65
   257
 75
     1
175
     1
 42
1.0
 92
        0
 66
   257
 43
1.0
 76
     1
 77
     6
 78
     2
 67
     7
 79
     5
170
     0
171
     0
290
     0
174
     0
 93
        1
 44
0.0
173
     0
291
     0
 45
0.0
1001
ACAD
1000
AcDbSavedByObjectVersion
1070
     0
  0
VISUALSTYLE
  5
540
102
{ACAD_XDICTIONARY
360
625
102
}
102
{ACAD_REACTORS
330
53B
102
}
330
53B
100
AcDbVisualStyle
  2
Basic
 70
     7
 71
     1
 72
     0
 73
     1
 90
        0
 40
-0.6
 41
-30.0
 62
     5
 63
     7
 74
     0
 91
        4
 64
     7
 65
   257
 75
     1
175
     1
 42
1.0
 92
        8
 66
     7
 43
1.0
 76
     1
 77
     6
 78
     2
 67
     7
 79
     5
170
     0
171
     0
290
     0
174
     0
 93
        1
 44
0.0
173
     0
291
     1
 45
0.0
1001
ACAD
1000
AcDbSavedByObjectVersion
1070
     0
  0
VISUALSTYLE
  5
547
102
{ACAD_XDICTIONARY
360
633
102
}
102
{ACAD_REACTORS
330
53B
102
}
330
53B
100
AcDbVisualStyle
  2
Brighten
 70
    12
 71
     2
 72
     2
 73
     0
 90
        0
 40
-0.6
 41
-30.0
 62
     5
 63
     7
 74
     1
 91
        4
 64
     7
 65
   257
 75
     1
175
     1
 42
1.0
 92
        8
 66
     7
 43
1.0
 76
     1
 77
     6
 78
     2
 67
     7
 79
     5
170
     0
171
     0
290
     0
174
     0
 93
        1
 44
50.0
173
     0
291
     1
 45
0.0
1001
ACAD
1000
AcDbSavedByObjectVersion
1070
     0
  0
VISUALSTYLE
  5
54B
102
{ACAD_XDICTIONARY
360
63B
102
}
102
{ACAD_REACTORS
330
53B
102
}
330
53B
100
AcDbVisualStyle
  2
ColorChange
 70
    16
 71
     2
 72
     2
 73
     3
 90
        0
 40
-0.6
 41
-30.0
 62
     5
 63
     8
 74
     1
 91
        4
 64
     7
 65
   257
 75
     1
175
     1
 42
1.0
 92
        8
 66
     8
 43
1.0
 76
     1
 77
     6
 78
     2
 67
     7
 79
     5
170
     0
171
     0
290
     0
174
     0
 93
        1
 44
0.0
173
     0
291
     1
 45
0.0
1001
ACAD
1000
AcDbSavedByObjectVersion
1070
     0
  0
VISUALSTYLE
  5
544
102
{ACAD_XDICTIONARY
360
62D
102
}
102
{ACAD_REACTORS
330
53B
102
}
330
53B
100
AcDbVisualStyle
  2
Conceptual
 70
     9
 71
     3
 72
     2
 73
     0
 90
        0
 40
-0.6
 41
-30.0
 62
     5
 63
     7
 74
     2
 91
        2
 64
     7
 65
   257
 75
     1
175
     1
 42
179.0
 92
        8
 66
     7
 43
1.0
 76
     1
 77
     6
 78
     2
 67
     7
 79
     3
170
     0
171
     0
290
     0
174
     0
 93
        1
 44
0.0
173
     0
291
     0
 45
0.0
1001
ACAD
1000
AcDbSavedByObjectVersion
1070
     0
  0
VISUALSTYLE
  5
546
102
{ACAD_XDICTIONARY
360
631
102
}
102
{ACAD_REACTORS
330
53B
102
}
330
53B
100
AcDbVisualStyle
  2
Dim
 70
    11
 71
     2
 72
     2
 73
     0
 90
        0
 40
-0.6
 41
-30.0
 62
     5
 63
     7
 74
     1
 91
        4
 64
     7
 65
   257
 75
     1
175
     1
 42
1.0
 92
        8
 66
     7
 43
1.0
 76
     1
 77
     6
 78
     2
 67
     7
 79
     5
170
     0
171
     0
290
     0
174
     0
 93
        1
 44
-50.0
173
     0
291
     1
 45
0.0
1001
ACAD
1000
AcDbSavedByObjectVersion
1070
     0
  0
VISUALSTYLE
  5
553
102
{ACAD_XDICTIONARY
360
64B
102
}
102
{ACAD_REACTORS
330
53B
102
}
330
53B
100
AcDbVisualStyle
  2
EdgeColorOff
 70
    22
 71
     2
 72
     2
 73
     0
 90
        0
 40
-0.6
 41
-30.0
 62
     5
 63
     7
 74
     1
 91
        4
 64
     7
 65
   257
 75
     1
175
     1
 42
1.0
 92
        8
 66
     7
 43
1.0
 76
     1
 77
     6
 78
     2
 67
     7
 79
     5
170
     0
171
     0
290
     0
174
     0
 93
        1
 44
0.0
173
     0
291
     1
 45
0.0
1001
ACAD
1000
AcDbSavedByObjectVersion
1070
     0
  0
VISUALSTYLE
  5
54A
102
{ACAD_XDICTIONARY
360
639
102
}
102
{ACAD_REACTORS
330
53B
102
}
330
53B
100
AcDbVisualStyle
  2
Facepattern
 70
    15
 71
     2
 72
     2
 73
     0
 90
        0
 40
-0.6
 41
-30.0
 62
     5
 63
     7
 74
     1
 91
        4
 64
     7
 65
   257
 75
     1
175
     1
 42
1.0
 92
        8
 66
     7
 43
1.0
 76
     1
 77
     6
 78
     2
 67
     7
 79
     5
170
     0
171
     0
290
     0
174
     0
 93
        1
 44
0.0
173
     0
291
     1
 45
0.0
1001
ACAD
1000
AcDbSavedByObjectVersion
1070
     0
  0
VISUALSTYLE
  5
53C
102
{ACAD_XDICTIONARY
360
61D
102
}
102
{ACAD_REACTORS
330
53B
102
}
330
53B
100
AcDbVisualStyle
  2
Flat
 70
     0
 71
     2
 72
     1
 73
     1
 90
        2
 40
-0.6
 41
30.0
 62
     5
 63
     7
 74
     0
 91
        0
 64
     7
 65
   257
 75
     1
175
     1
 42
1.0
 92
        8
 66
     7
 43
1.0
 76
     1
 77
     6
 78
     2
 67
     7
 79
     5
170
     0
171
     0
290
     0
174
     0
 93
       13
 44
0.0
173
     0
291
     1
 45
0.0
1001
ACAD
1000
AcDbSavedByObjectVersion
1070
     0
  0
VISUALSTYLE
  5
53D
102
{ACAD_XDICTIONARY
360
61F
102
}
102
{ACAD_REACTORS
330
53B
102
}
330
53B
100
AcDbVisualStyle
  2
FlatWithEdges
 70
     1
 71
     2
 72
     1
 73
     1
 90
        2
 40
-0.6
 41
30.0
 62
     5
 63
     7
 74
     1
 91
        0
 64
     7
 65
   257
 75
     1
175
     1
 42
1.0
 92
        0
 66
   257
 43
1.0
 76
     1
 77
     6
 78
     2
 67
     7
 79
     5
170
     0
171
     0
290
     0
174
     0
 93
       13
 44
0.0
173
     0
291
     1
 45
0.0
1001
ACAD
1000
AcDbSavedByObjectVersion
1070
     0
  0
VISUALSTYLE
  5
53E
102
{ACAD_XDICTIONARY
360
621
102
}
102
{ACAD_REACTORS
330
53B
102
}
330
53B
100
AcDbVisualStyle
  2
Gouraud
 70
     2
 71
     2
 72
     2
 73
     1
 90
        2
 40
-0.6
 41
30.0
 62
     5
 63
     7
 74
     0
 91
        0
 64
     7
 65
   257
 75
     1
175
     1
 42
1.0
 92
        0
 66
     7
 43
1.0
 76
     1
 77
     6
 78
     2
 67
     7
 79
     5
170
     0
171
     0
290
     0
174
     0
 93
       13
 44
0.0
173
     0
291
     1
 45
0.0
1001
ACAD
1000
AcDbSavedByObjectVersion
1070
     0
  0
VISUALSTYLE
  5
53F
102
{ACAD_XDICTIONARY
360
623
102
}
102
{ACAD_REACTORS
330
53B
102
}
330
53B
100
AcDbVisualStyle
  2
GouraudWithEdges
 70
     3
 71
     2
 72
     2
 73
     1
 90
        2
 40
-0.6
 41
30.0
 62
     5
 63
     7
 74
     1
 91
        0
 64
     7
 65
   257
 75
     1
175
     1
 42
1.0
 92
        0
 66
   257
 43
1.0
 76
     1
 77
     6
 78
     2
 67
     7
 79
     5
170
     0
171
     0
290
     0
174
     0
 93
       13
 44
0.0
173
     0
291
     1
 45
0.0
1001
ACAD
1000
AcDbSavedByObjectVersion
1070
     0
  0
VISUALSTYLE
  5
543
102
{ACAD_XDICTIONARY
360
62B
102
}
102
{ACAD_REACTORS
330
53B
102
}
330
53B
100
AcDbVisualStyle
  2
Hidden
 70
     6
 71
     1
 72
     2
 73
     2
 90
        0
 40
-0.6
 41
-30.0
 62
     5
 63
     7
 74
     2
 91
        2
 64
     7
 65
   257
 75
     2
175
     1
 42
40.0
 92
        0
 66
   257
 43
1.0
 76
     1
 77
     6
 78
     2
 67
     7
 79
     3
170
     0
171
     0
290
     0
174
     0
 93
        1
 44
0.0
173
     0
291
     0
 45
0.0
1001
ACAD
1000
AcDbSavedByObjectVersion
1070
     0
  0
VISUALSTYLE
  5
551
102
{ACAD_XDICTIONARY
360
647
102
}
102
{ACAD_REACTORS
330
53B
102
}
330
53B
100
AcDbVisualStyle
  2
JitterOff
 70
    20
 71
     2
 72
     2
 73
     0
 90
        0
 40
-0.6
 41
-30.0
 62
     5
 63
     7
 74
     1
 91
        4
 64
     7
 65
   257
 75
     1
175
     1
 42
1.0
 92
       10
 66
     7
 43
1.0
 76
     1
 77
     6
 78
     2
 67
     7
 79
     5
170
     0
171
     0
290
     0
174
     0
 93
        1
 44
0.0
173
     0
291
     1
 45
0.0
1001
ACAD
1000
AcDbSavedByObjectVersion
1070
     0
  0
VISUALSTYLE
  5
549
102
{ACAD_XDICTIONARY
360
637
102
}
102
{ACAD_REACTORS
330
53B
102
}
330
53B
100
AcDbVisualStyle
  2
Linepattern
 70
    14
 71
     2
 72
     2
 73
     0
 90
        0
 40
-0.6
 41
-30.0
 62
     5
 63
     7
 74
     1
 91
        4
 64
     7
 65
   257
 75
     7
175
     7
 42
1.0
 92
        8
 66
     7
 43
1.0
 76
     1
 77
     6
 78
     2
 67
     7
 79
     5
170
     0
171
     0
290
     0
174
     0
 93
        1
 44
0.0
173
     0
291
     1
 45
0.0
1001
ACAD
1000
AcDbSavedByObjectVersion
1070
     0
  0
VISUALSTYLE
  5
552
102
{ACAD_XDICTIONARY
360
649
102
}
102
{ACAD_REACTORS
330
53B
102
}
330
53B
100
AcDbVisualStyle
  2
OverhangOff
 70
    21
 71
     2
 72
     2
 73
     0
 90
        0
 40
-0.6
 41
-30.0
 62
     5
 63
     7
 74
     1
 91
        4
 64
     7
 65
   257
 75
     1
175
     1
 42
1.0
 92
        9
 66
     7
 43
1.0
 76
     1
 77
     6
 78
     2
 67
     7
 79
     5
170
     0
171
     0
290
     0
174
     0
 93
        1
 44
0.0
173
     0
291
     1
 45
0.0
1001
ACAD
1000
AcDbSavedByObjectVersion
1070
     0
  0
VISUALSTYLE
  5
545
102
{ACAD_XDICTIONARY
360
62F
102
}
102
{ACAD_REACTORS
330
53B
102
}
330
53B
100
AcDbVisualStyle
  2
Realistic
 70
     8
 71
     2
 72
     3
 73
     0
 90
        2
 40
-0.6
 41
30.0
 62
     5
 63
     7
 74
     0
 91
        0
 64
     7
 65
   257
 75
     1
175
     1
 42
1.0
 92
        8
 66
   257
 43
1.0
 76
     1
 77
     6
 78
     2
 67
     7
 79
     3
170
     0
171
     0
290
     0
174
     0
 93
       13
 44
0.0
173
     0
291
     0
 45
0.0
1001
ACAD
1000
AcDbSavedByObjectVersion
1070
     0
  0
VISUALSTYLE
  5
550
102
{ACAD_XDICTIONARY
360
645
102
}
102
{ACAD_REACTORS
330
53B
102
}
330
53B
100
AcDbVisualStyle
  2
Shaded
 70
    27
 71
     2
 72
     2
 73
     1
 90
        2
 40
-0.6
 41
30.0
 62
     5
 63
     7
 74
     0
 91
        4
 64
     7
 65
   257
 75
     1
175
     1
 42
1.0
 92
        8
 66
   257
 43
1.0
 76
     1
 77
     6
 78
     2
 67
     8
 79
     3
170
     0
171
     0
290
     0
174
     0
 93
        5
 44
0.0
173
     0
291
     0
 45
0.0
1001
ACAD
1000
AcDbSavedByObjectVersion
1070
     0
  0
VISUALSTYLE
  5
54F
102
{ACAD_XDICTIONARY
360
643
102
}
102
{ACAD_REACTORS
330
53B
102
}
330
53B
100
AcDbVisualStyle
  2
Shaded with edges
 70
    26
 71
     2
 72
     2
 73
     1
 90
        2
 40
-0.6
 41
30.0
 62
     5
 63
     7
 74
     1
 91
       10
 64
     7
 65
   257
 75
     2
175
     1
 42
1.0
 92
        8
 66
   257
 43
1.0
 76
     1
 77
     6
 78
     2
 67
     7
 79
     3
170
     0
171
     0
290
     0
174
     0
 93
        5
 44
0.0
173
     0
291
     0
 45
0.0
1001
ACAD
1000
AcDbSavedByObjectVersion
1070
     0
  0
VISUALSTYLE
  5
54C
102
{ACAD_XDICTIONARY
360
63D
102
}
102
{ACAD_REACTORS
330
53B
102
}
330
53B
100
AcDbVisualStyle
  2
Shades of Gray
 70
    23
 71
     2
 72
     2
 73
     3
 90
        0
 40
-0.6
 41
-30.0
 62
     5
 63
     7
 74
     2
 91
        2
 64
     7
 65
     7
 75
     1
175
     1
 42
40.0
 92
        8
 66
     7
 43
1.0
 76
     1
 77
     6
 78
     2
 67
     7
 79
     3
170
     0
171
     0
290
     0
174
     0
 93
        1
 44
0.0
173
     0
291
     0
 45
0.0
1001
ACAD
1000
AcDbSavedByObjectVersion
1070
     0
  0
VISUALSTYLE
  5
54D
102
{ACAD_XDICTIONARY
360
63F
102
}
102
{ACAD_REACTORS
330
53B
102
}
330
53B
100
AcDbVisualStyle
  2
Sketchy
 70
    24
 71
     1
 72
     2
 73
     2
 90
        0
 40
-0.6
 41
-30.0
 62
     5
 63
     7
 74
     2
 91
        2
 64
     7
 65
     7
 75
     1
175
     1
 42
40.0
 92
       11
 66
     7
 43
1.0
 76
     1
 77
     6
 78
     2
 67
     7
 79
     6
170
     0
171
     0
290
     0
174
     0
 93
        1
 44
0.0
173
     0
291
     0
 45
0.0
1001
ACAD
1000
AcDbSavedByObjectVersion
1070
     0
  0
VISUALSTYLE
  5
548
102
{ACAD_XDICTIONARY
360
635
102
}
102
{ACAD_REACTORS
330
53B
102
}
330
53B
100
AcDbVisualStyle
  2
Thicken
 70
    13
 71
     2
 72
     2
 73
     0
 90
        0
 40
-0.6
 41
-30.0
 62
     5
 63
     7
 74
     1
 91
        4
 64
     7
 65
   257
 75
     1
175
     1
 42
1.0
 92
       12
 66
     7
 43
1.0
 76
     1
 77
     6
 78
     2
 67
     7
 79
     5
170
     0
171
     0
290
     0
174
     0
 93
        1
 44
0.0
173
     0
291
     1
 45
0.0
1001
ACAD
1000
AcDbSavedByObjectVersion
1070
     0
  0
VISUALSTYLE
  5
542
102
{ACAD_XDICTIONARY
360
629
102
}
102
{ACAD_REACTORS
330
53B
102
}
330
53B
100
AcDbVisualStyle
  2
Wireframe
 70
     5
 71
     0
 72
     2
 73
     0
 90
        0
 40
-0.6
 41
-30.0
 62
     5
 63
     7
 74
     1
 91
        4
 64
     7
 65
   257
 75
     1
175
     1
 42
1.0
 92
        0
 66
   257
 43
1.0
 76
     1
 77
     6
 78
     2
 67
     7
 79
     3
170
     0
171
     0
290
     0
174
     0
 93
        1
 44
0.0
173
     0
291
     0
 45
0.0
1001
ACAD
1000
AcDbSavedByObjectVersion
1070
     0
  0
VISUALSTYLE
  5
54E
102
{ACAD_XDICTIONARY
360
641
102
}
102
{ACAD_REACTORS
330
53B
102
}
330
53B
100
AcDbVisualStyle
  2
X-Ray
 70
    25
 71
     2
 72
     2
 73
     1
 90
        1
 40
0.5
 41
-30.0
 62
     5
 63
     7
 74
     1
 91
        0
 64
     7
 65
   257
 75
     1
175
     1
 42
1.0
 92
        8
 66
     7
 43
1.0
 76
     1
 77
     6
 78
     2
 67
     7
 79
     3
170
     0
171
     0
290
     0
174
     0
 93
       13
 44
0.0
173
     0
291
     0
 45
0.0
1001
ACAD
1000
AcDbSavedByObjectVersion
1070
     0
  0
DICTIONARYVAR
  5
60F
102
{ACAD_REACTORS
330
60A
102
}
330
60A
100
DictionaryVariables
280
     0
  1
1:1
  0
DICTIONARYVAR
  5
60C
102
{ACAD_REACTORS
330
60A
102
}
330
60A
100
DictionaryVariables
280
     0
  1
STANDARD
  0
DICTIONARYVAR
  5
60B
102
{ACAD_REACTORS
330
60A
102
}
330
60A
100
DictionaryVariables
280
     0
  1
STANDARD
  0
DICTIONARYVAR
  5
60D
102
{ACAD_REACTORS
330
60A
102
}
330
60A
100
DictionaryVariables
280
     0
  1
Imperial24
  0
DICTIONARYVAR
  5
60E
102
{ACAD_REACTORS
330
60A
102
}
330
60A
100
DictionaryVariables
280
     0
  1
Imperial24
  0
DICTIONARYVAR
  5
612
102
{ACAD_REACTORS
330
60A
102
}
330
60A
100
DictionaryVariables
280
     0
  1
1
  0
DICTIONARYVAR
  5
611
102
{ACAD_REACTORS
330
60A
102
}
330
60A
100
DictionaryVariables
280
     0
  1
0
  0
DICTIONARYVAR
  5
610
102
{ACAD_REACTORS
330
60A
102
}
330
60A
100
DictionaryVariables
280
     0
  1
127
  0
DICTIONARYVAR
  5
613
102
{ACAD_REACTORS
330
60A
102
}
330
60A
100
DictionaryVariables
280
     0
  1
2
  0
DICTIONARY
  5
64F
330
581
100
AcDbDictionary
280
     1
281
     1
  3
ACAD_XREC_ROUNDTRIP
360
650
  0
DICTIONARY
  5
651
330
585
100
AcDbDictionary
280
     1
281
     1
  3
ACAD_XREC_ROUNDTRIP
360
652
  0
DICTIONARY
  5
52C
330
52B
100
AcDbDictionary
280
     1
281
     1
  3
ACAD_XREC_ROUNDTRIP
360
61B
  3
BUMPTILE
360
52E
  3
DIFFUSETILE
360
52D
  3
OPACITYTILE
360
531
  3
REFLECTIONTILE
360
530
  3
REFRACTIONTILE
360
532
  3
SPECULARTILE
360
52F
  0
DICTIONARY
  5
524
330
523
100
AcDbDictionary
280
     1
281
     1
  3
ACAD_XREC_ROUNDTRIP
360
61A
  3
BUMPTILE
360
526
  3
DIFFUSETILE
360
525
  3
OPACITYTILE
360
529
  3
REFLECTIONTILE
360
528
  3
REFRACTIONTILE
360
52A
  3
SPECULARTILE
360
527
  0
DICTIONARY
  5
534
330
533
100
AcDbDictionary
280
     1
281
     1
  3
ACAD_XREC_ROUNDTRIP
360
61C
  3
BUMPTILE
360
536
  3
DIFFUSETILE
360
535
  3
OPACITYTILE
360
539
  3
REFLECTIONTILE
360
538
  3
REFRACTIONTILE
360
53A
  3
SPECULARTILE
360
537
  0
DICTIONARY
  5
615
330
576
100
AcDbDictionary
280
     1
281
     1
  3
ACAD_ROUNDTRIP_2008_TABLESTYLE_CELLSTYLEMAP
360
616
  3
ACAD_XREC_ROUNDTRIP
360
64D
  0
DICTIONARY
  5
627
330
541
100
AcDbDictionary
280
     1
281
     1
  3
ACAD_XREC_ROUNDTRIP
360
628
  0
DICTIONARY
  5
625
330
540
100
AcDbDictionary
280
     1
281
     1
  3
ACAD_XREC_ROUNDTRIP
360
626
  0
DICTIONARY
  5
633
330
547
100
AcDbDictionary
280
     1
281
     1
  3
ACAD_XREC_ROUNDTRIP
360
634
  0
DICTIONARY
  5
63B
330
54B
100
AcDbDictionary
280
     1
281
     1
  3
ACAD_XREC_ROUNDTRIP
360
63C
  0
DICTIONARY
  5
62D
330
544
100
AcDbDictionary
280
     1
281
     1
  3
ACAD_XREC_ROUNDTRIP
360
62E
  0
DICTIONARY
  5
631
330
546
100
AcDbDictionary
280
     1
281
     1
  3
ACAD_XREC_ROUNDTRIP
360
632
  0
DICTIONARY
  5
64B
330
553
100
AcDbDictionary
280
     1
281
     1
  3
ACAD_XREC_ROUNDTRIP
360
64C
  0
DICTIONARY
  5
639
330
54A
100
AcDbDictionary
280
     1
281
     1
  3
ACAD_XREC_ROUNDTRIP
360
63A
  0
DICTIONARY
  5
61D
330
53C
100
AcDbDictionary
280
     1
281
     1
  3
ACAD_XREC_ROUNDTRIP
360
61E
  0
DICTIONARY
  5
61F
330
53D
100
AcDbDictionary
280
     1
281
     1
  3
ACAD_XREC_ROUNDTRIP
360
620
  0
DICTIONARY
  5
621
330
53E
100
AcDbDictionary
280
     1
281
     1
  3
ACAD_XREC_ROUNDTRIP
360
622
  0
DICTIONARY
  5
623
330
53F
100
AcDbDictionary
280
     1
281
     1
  3
ACAD_XREC_ROUNDTRIP
360
624
  0
DICTIONARY
  5
62B
330
543
100
AcDbDictionary
280
     1
281
     1
  3
ACAD_XREC_ROUNDTRIP
360
62C
  0
DICTIONARY
  5
647
330
551
100
AcDbDictionary
280
     1
281
     1
  3
ACAD_XREC_ROUNDTRIP
360
648
  0
DICTIONARY
  5
637
330
549
100
AcDbDictionary
280
     1
281
     1
  3
ACAD_XREC_ROUNDTRIP
360
638
  0
DICTIONARY
  5
649
330
552
100
AcDbDictionary
280
     1
281
     1
  3
ACAD_XREC_ROUNDTRIP
360
64A
  0
DICTIONARY
  5
62F
330
545
100
AcDbDictionary
280
     1
281
     1
  3
ACAD_XREC_ROUNDTRIP
360
630
  0
DICTIONARY
  5
645
330
550
100
AcDbDictionary
280
     1
281
     1
  3
ACAD_XREC_ROUNDTRIP
360
646
  0
DICTIONARY
  5
643
330
54F
100
AcDbDictionary
280
     1
281
     1
  3
ACAD_XREC_ROUNDTRIP
360
644
  0
DICTIONARY
  5
63D
330
54C
100
AcDbDictionary
280
     1
281
     1
  3
ACAD_XREC_ROUNDTRIP
360
63E
  0
DICTIONARY
  5
63F
330
54D
100
AcDbDictionary
280
     1
281
     1
  3
ACAD_XREC_ROUNDTRIP
360
640
  0
DICTIONARY
  5
635
330
548
100
AcDbDictionary
280
     1
281
     1
  3
ACAD_XREC_ROUNDTRIP
360
636
  0
DICTIONARY
  5
629
330
542
100
AcDbDictionary
280
     1
281
     1
  3
ACAD_XREC_ROUNDTRIP
360
62A
  0
DICTIONARY
  5
641
330
54E
100
AcDbDictionary
280
     1
281
     1
  3
ACAD_XREC_ROUNDTRIP
360
642
  0
XRECORD
  5
650
102
{ACAD_REACTORS
330
64F
102
}
330
64F
100
AcDbXrecord
280
     1
102
SHADEPLOT
 70
     0
102
SHADEPLOTRESLEVEL
 70
     2
102
SHADEPLOTCUSTOMDPI
 70
   300
  0
XRECORD
  5
652
102
{ACAD_REACTORS
330
651
102
}
330
651
100
AcDbXrecord
280
     1
102
SHADEPLOT
 70
     0
102
SHADEPLOTRESLEVEL
 70
     2
102
SHADEPLOTCUSTOMDPI
 70
   300
  0
XRECORD
  5
61B
102
{ACAD_REACTORS
330
52C
102
}
330
52C
100
AcDbXrecord
280
     1
102
MATERIAL
148
0.0
149
0.0
149
0.0
 93
        0
 94
      127
282
     0
 72
     0
 77
     0
171
     0
175
     0
179
     0
273
     0
  0
XRECORD
  5
52E
102
{ACAD_REACTORS
330
52C
102
}
330
52C
100
AcDbXrecord
280
     1
270
     1
271
     1
  0
XRECORD
  5
52D
102
{ACAD_REACTORS
330
52C
102
}
330
52C
100
AcDbXrecord
280
     1
270
     1
271
     1
  0
XRECORD
  5
531
102
{ACAD_REACTORS
330
52C
102
}
330
52C
100
AcDbXrecord
280
     1
270
     1
271
     1
  0
XRECORD
  5
530
102
{ACAD_REACTORS
330
52C
102
}
330
52C
100
AcDbXrecord
280
     1
270
     1
271
     1
  0
XRECORD
  5
532
102
{ACAD_REACTORS
330
52C
102
}
330
52C
100
AcDbXrecord
280
     1
270
     1
271
     1
  0
XRECORD
  5
52F
102
{ACAD_REACTORS
330
52C
102
}
330
52C
100
AcDbXrecord
280
     1
270
     1
271
     1
  0
XRECORD
  5
61A
102
{ACAD_REACTORS
330
524
102
}
330
524
100
AcDbXrecord
280
     1
102
MATERIAL
148
0.0
149
0.0
149
0.0
 93
        0
 94
      127
282
     0
 72
     0
 77
     0
171
     0
175
     0
179
     0
273
     0
  0
XRECORD
  5
526
102
{ACAD_REACTORS
330
524
102
}
330
524
100
AcDbXrecord
280
     1
270
     1
271
     1
  0
XRECORD
  5
525
102
{ACAD_REACTORS
330
524
102
}
330
524
100
AcDbXrecord
280
     1
270
     1
271
     1
  0
XRECORD
  5
529
102
{ACAD_REACTORS
330
524
102
}
330
524
100
AcDbXrecord
280
     1
270
     1
271
     1
  0
XRECORD
  5
528
102
{ACAD_REACTORS
330
524
102
}
330
524
100
AcDbXrecord
280
     1
270
     1
271
     1
  0
XRECORD
  5
52A
102
{ACAD_REACTORS
330
524
102
}
330
524
100
AcDbXrecord
280
     1
270
     1
271
     1
  0
XRECORD
  5
527
102
{ACAD_REACTORS
330
524
102
}
330
524
100
AcDbXrecord
280
     1
270
     1
271
     1
  0
XRECORD
  5
61C
102
{ACAD_REACTORS
330
534
102
}
330
534
100
AcDbXrecord
280
     1
102
MATERIAL
148
0.0
149
0.0
149
0.0
 93
        0
 94
      127
282
     0
 72
     0
 77
     0
171
     0
175
     0
179
     0
273
     0
  0
XRECORD
  5
536
102
{ACAD_REACTORS
330
534
102
}
330
534
100
AcDbXrecord
280
     1
270
     1
271
     1
  0
XRECORD
  5
535
102
{ACAD_REACTORS
330
534
102
}
330
534
100
AcDbXrecord
280
     1
270
     1
271
     1
  0
XRECORD
  5
539
102
{ACAD_REACTORS
330
534
102
}
330
534
100
AcDbXrecord
280
     1
270
     1
271
     1
  0
XRECORD
  5
538
102
{ACAD_REACTORS
330
534
102
}
330
534
100
AcDbXrecord
280
     1
270
     1
271
     1
  0
XRECORD
  5
53A
102
{ACAD_REACTORS
330
534
102
}
330
534
100
AcDbXrecord
280
     1
270
     1
271
     1
  0
XRECORD
  5
537
102
{ACAD_REACTORS
330
534
102
}
330
534
100
AcDbXrecord
280
     1
270
     1
271
     1
  0
CELLSTYLEMAP
  5
616
102
{ACAD_REACTORS
330
615
102
}
330
615
100
AcDbCellStyleMap
 90
        3
300
CELLSTYLE
  1
TABLEFORMAT_BEGIN
 90
        5
170
     1
 91
        0
 92
    32768
 62
   257
 93
        1
300
CONTENTFORMAT
  1
CONTENTFORMAT_BEGIN
 90
        0
 91
        0
 92
      512
 93
        0
300

 40
0.0
140
1.0
 94
        5
 62
     0
340
567
144
0.25
309
CONTENTFORMAT_END
171
     0
 94
        0
309
TABLEFORMAT_END
  1
CELLSTYLE_BEGIN
 90
        1
 91
        1
300
_TITLE
309
CELLSTYLE_END
300
CELLSTYLE
  1
TABLEFORMAT_BEGIN
 90
        5
170
     1
 91
        0
 92
        0
 62
   257
 93
        1
300
CONTENTFORMAT
  1
CONTENTFORMAT_BEGIN
 90
        0
 91
        0
 92
      512
 93
        0
300

 40
0.0
140
1.0
 94
        5
 62
     0
340
567
144
0.18
309
CONTENTFORMAT_END
171
     0
 94
        0
309
TABLEFORMAT_END
  1
CELLSTYLE_BEGIN
 90
        2
 91
        1
300
_HEADER
309
CELLSTYLE_END
300
CELLSTYLE
  1
TABLEFORMAT_BEGIN
 90
        5
170
     1
 91
        0
 92
        0
 62
   257
 93
        1
300
CONTENTFORMAT
  1
CONTENTFORMAT_BEGIN
 90
        0
 91
        0
 92
      512
 93
        0
300

 40
0.0
140
1.0
 94
        2
 62
     0
340
567
144
0.18
309
CONTENTFORMAT_END
171
     0
 94
        0
309
TABLEFORMAT_END
  1
CELLSTYLE_BEGIN
 90
        3
 91
        2
300
_DATA
309
CELLSTYLE_END
  0
XRECORD
  5
64D
102
{ACAD_REACTORS
330
615
102
}
330
615
100
AcDbXrecord
280
     1
102
ACAD_ROUNDTRIP_PRE2007_TABLESTYLE
 90
      512
 91
        0
  1

 92
      512
 93
        0
  2

 94
      512
 95
        0
  3

  0
XRECORD
  5
628
102
{ACAD_REACTORS
330
627
102
}
330
627
100
AcDbXrecord
280
     1
102
RTVSPost2010Prop28
280
     1
102
RTVSPost2010PropOp28
 70
     1
102
RTVSPost2010Prop29
280
     1
102
RTVSPost2010PropOp29
 70
     1
102
RTVSPost2010Prop30
280
     0
102
RTVSPost2010PropOp30
 70
     1
102
RTVSPost2010Prop31
280
     0
102
RTVSPost2010PropOp31
 70
     1
102
RTVSPost2010Prop32
280
     0
102
RTVSPost2010PropOp32
 70
     1
102
RTVSPost2010Prop33
280
     0
102
RTVSPost2010PropOp33
 70
     1
102
RTVSPost2010Prop34
280
     0
102
RTVSPost2010PropOp34
 70
     1
102
RTVSPost2010Prop35
280
     0
102
RTVSPost2010PropOp35
 70
     1
102
RTVSPost2010Prop36
280
     0
102
RTVSPost2010PropOp36
 70
     1
102
RTVSPost2010Prop37
 90
       50
102
RTVSPost2010PropOp37
 70
     1
102
RTVSPost2010Prop38
140
0.0
102
RTVSPost2010PropOp38
 70
     1
102
RTVSPost2010Prop39
140
1.0
102
RTVSPost2010PropOp39
 70
     1
102
RTVSPost2010Prop40
 90
        0
102
RTVSPost2010PropOp40
 70
     1
102
RTVSPost2010Prop41ColorIndex
 90
       18
102
RTVSPost2010Prop41ColorRGB
 90
        0
102
RTVSPost2010PropOp41
 70
     1
102
RTVSPost2010Prop42
 90
       50
102
RTVSPost2010PropOp42
 70
     1
102
RTVSPost2010Prop43
 90
        3
102
RTVSPost2010PropOp43
 70
     1
102
RTVSPost2010Prop44ColorIndex
 90
        5
102
RTVSPost2010Prop44ColorRGB
 90
      255
102
RTVSPost2010PropOp44
 70
     1
102
RTVSPost2010Prop45
280
     0
102
RTVSPost2010PropOp45
 70
     1
102
RTVSPost2010Prop46
 90
       50
102
RTVSPost2010PropOp46
 70
     1
102
RTVSPost2010Prop47
 90
       50
102
RTVSPost2010PropOp47
 70
     1
102
RTVSPost2010Prop48
 90
       50
102
RTVSPost2010PropOp48
 70
     1
102
RTVSPost2010Prop49
280
     0
102
RTVSPost2010PropOp49
 70
     1
102
RTVSPost2010Prop50
 90
       50
102
RTVSPost2010PropOp50
 70
     1
102
RTVSPost2010Prop51ColorIndex
 90
      256
102
RTVSPost2010Prop51ColorRGB
 90
-16777216
102
RTVSPost2010PropOp51
 70
     0
102
RTVSPost2010Prop52
140
1.0
102
RTVSPost2010PropOp52
 70
     0
102
RTVSPost2010Prop53
 90
        2
102
RTVSPost2010PropOp53
 70
     1
102
RTVSPost2010Prop54
  1
strokes_ogs.tif
102
RTVSPost2010PropOp54
 70
     1
102
RTVSPost2010Prop55
280
     0
102
RTVSPost2010PropOp55
 70
     1
102
RTVSPost2010Prop56
140
1.0
102
RTVSPost2010PropOp56
 70
     1
102
RTVSPost2010Prop57
140
1.0
102
RTVSPost2010PropOp57
 70
     1
102
RTVSPropertyOp0
 70
     1
102
RTVSPropertyOp1
 70
     1
102
RTVSPropertyOp2
 70
     1
102
RTVSPropertyOp3
 70
     1
102
RTVSPropertyOp4
 70
     1
102
RTVSPropertyOp5
 70
     1
102
RTVSPropertyOp6
 70
     1
102
RTVSPropertyOp7
 70
     1
102
RTVSPropertyOp8
 70
     1
102
RTVSPropertyOp9
 70
     1
102
RTVSPropertyOp10
 70
     1
102
RTVSPropertyOp11
 70
     1
102
RTVSPropertyOp12
 70
     1
102
RTVSPropertyOp13
 70
     1
102
RTVSPropertyOp14
 70
     1
102
RTVSPropertyOp15
 70
     1
102
RTVSPropertyOp16
 70
     1
102
RTVSPropertyOp17
 70
     1
102
RTVSPropertyOp18
 70
     1
102
RTVSPropertyOp19
 70
     1
102
RTVSPropertyOp20
 70
     1
102
RTVSPropertyOp21
 70
     1
102
RTVSPropertyOp22
 70
     1
102
RTVSPropertyOp23
 70
     1
102
RTVSPropertyOp24
 70
     1
102
RTVSPropertyOp25
 70
     1
102
RTVSPropertyOp26
 70
     1
102
RTVSPropertyOp27
 70
     1
102
RTVSPropertyOp28
 70
     1
102
RTVSPropertyOp29
 70
     1
102
RTVSPropertyOp30
 70
     1
102
RTVSPropertyOp31
 70
     1
102
RTVSPropertyOp32
 70
     1
102
RTVSPropertyOp33
 70
     1
102
RTVSPropertyOp34
 70
     1
102
RTVSPropertyOp35
 70
     1
102
RTVSPropertyOp36
 70
     1
102
RTVSPropertyOp37
 70
     1
102
RTVSPropertyOp38
 70
     1
102
RTVSPropertyOp39
 70
     1
102
RTVSPropertyOp40
 70
     1
102
RTVSPropertyOp41
 70
     1
102
RTVSPropertyOp42
 70
     1
102
RTVSPropertyOp43
 70
     1
102
RTVSPropertyOp44
 70
     1
102
RTVSPropertyOp45
 70
     1
102
RTVSPropertyOp46
 70
     1
102
RTVSPropertyOp47
 70
     1
102
RTVSPropertyOp48
 70
     1
102
RTVSPropertyOp49
 70
     1
102
RTVSPropertyOp50
 70
     1
102
RTVSPropertyOp51
 70
     0
102
RTVSPropertyOp52
 70
     0
102
RTVSPropertyOp53
 70
     1
102
RTVSPropertyOp54
 70
     1
102
RTVSPropertyOp55
 70
     1
102
RTVSPropertyOp56
 70
     1
102
RTVSPropertyOp57
 70
     1
102
RTVSPropertyOp58
 70
     1
102
RTVSPropertyOp59
 70
     1
102
RTVSPropertyOp60
 70
     1
102
RTVSPropertyOp61
 70
     1
102
RTVSPropertyOp62
 70
     1
  0
XRECORD
  5
626
102
{ACAD_REACTORS
330
625
102
}
330
625
100
AcDbXrecord
280
     1
102
RTVSPost2010Prop28
280
     0
102
RTVSPost2010PropOp28
 70
     1
102
RTVSPost2010Prop29
280
     1
102
RTVSPost2010PropOp29
 70
     1
102
RTVSPost2010Prop30
280
     1
102
RTVSPost2010PropOp30
 70
     1
102
RTVSPost2010Prop31
280
     0
102
RTVSPost2010PropOp31
 70
     1
102
RTVSPost2010Prop32
280
     0
102
RTVSPost2010PropOp32
 70
     1
102
RTVSPost2010Prop33
280
     0
102
RTVSPost2010PropOp33
 70
     1
102
RTVSPost2010Prop34
280
     0
102
RTVSPost2010PropOp34
 70
     1
102
RTVSPost2010Prop35
280
     0
102
RTVSPost2010PropOp35
 70
     1
102
RTVSPost2010Prop36
280
     0
102
RTVSPost2010PropOp36
 70
     1
102
RTVSPost2010Prop37
 90
       50
102
RTVSPost2010PropOp37
 70
     1
102
RTVSPost2010Prop38
140
0.0
102
RTVSPost2010PropOp38
 70
     1
102
RTVSPost2010Prop39
140
1.0
102
RTVSPost2010PropOp39
 70
     1
102
RTVSPost2010Prop40
 90
        0
102
RTVSPost2010PropOp40
 70
     1
102
RTVSPost2010Prop41ColorIndex
 90
       18
102
RTVSPost2010Prop41ColorRGB
 90
        0
102
RTVSPost2010PropOp41
 70
     1
102
RTVSPost2010Prop42
 90
       50
102
RTVSPost2010PropOp42
 70
     1
102
RTVSPost2010Prop43
 90
        3
102
RTVSPost2010PropOp43
 70
     1
102
RTVSPost2010Prop44ColorIndex
 90
        5
102
RTVSPost2010Prop44ColorRGB
 90
      255
102
RTVSPost2010PropOp44
 70
     1
102
RTVSPost2010Prop45
280
     0
102
RTVSPost2010PropOp45
 70
     1
102
RTVSPost2010Prop46
 90
       50
102
RTVSPost2010PropOp46
 70
     1
102
RTVSPost2010Prop47
 90
       50
102
RTVSPost2010PropOp47
 70
     1
102
RTVSPost2010Prop48
 90
       50
102
RTVSPost2010PropOp48
 70
     1
102
RTVSPost2010Prop49
280
     0
102
RTVSPost2010PropOp49
 70
     1
102
RTVSPost2010Prop50
 90
       50
102
RTVSPost2010PropOp50
 70
     1
102
RTVSPost2010Prop51ColorIndex
 90
      256
102
RTVSPost2010Prop51ColorRGB
 90
-16777216
102
RTVSPost2010PropOp51
 70
     0
102
RTVSPost2010Prop52
140
1.0
102
RTVSPost2010PropOp52
 70
     0
102
RTVSPost2010Prop53
 90
        2
102
RTVSPost2010PropOp53
 70
     1
102
RTVSPost2010Prop54
  1
strokes_ogs.tif
102
RTVSPost2010PropOp54
 70
     1
102
RTVSPost2010Prop55
280
     0
102
RTVSPost2010PropOp55
 70
     1
102
RTVSPost2010Prop56
140
1.0
102
RTVSPost2010PropOp56
 70
     1
102
RTVSPost2010Prop57
140
1.0
102
RTVSPost2010PropOp57
 70
     1
102
RTVSPropertyOp0
 70
     1
102
RTVSPropertyOp1
 70
     1
102
RTVSPropertyOp2
 70
     1
102
RTVSPropertyOp3
 70
     1
102
RTVSPropertyOp4
 70
     1
102
RTVSPropertyOp5
 70
     1
102
RTVSPropertyOp6
 70
     1
102
RTVSPropertyOp7
 70
     1
102
RTVSPropertyOp8
 70
     1
102
RTVSPropertyOp9
 70
     1
102
RTVSPropertyOp10
 70
     1
102
RTVSPropertyOp11
 70
     1
102
RTVSPropertyOp12
 70
     1
102
RTVSPropertyOp13
 70
     1
102
RTVSPropertyOp14
 70
     1
102
RTVSPropertyOp15
 70
     1
102
RTVSPropertyOp16
 70
     1
102
RTVSPropertyOp17
 70
     1
102
RTVSPropertyOp18
 70
     1
102
RTVSPropertyOp19
 70
     1
102
RTVSPropertyOp20
 70
     1
102
RTVSPropertyOp21
 70
     1
102
RTVSPropertyOp22
 70
     1
102
RTVSPropertyOp23
 70
     1
102
RTVSPropertyOp24
 70
     1
102
RTVSPropertyOp25
 70
     1
102
RTVSPropertyOp26
 70
     1
102
RTVSPropertyOp27
 70
     1
102
RTVSPropertyOp28
 70
     1
102
RTVSPropertyOp29
 70
     1
102
RTVSPropertyOp30
 70
     1
102
RTVSPropertyOp31
 70
     1
102
RTVSPropertyOp32
 70
     1
102
RTVSPropertyOp33
 70
     1
102
RTVSPropertyOp34
 70
     1
102
RTVSPropertyOp35
 70
     1
102
RTVSPropertyOp36
 70
     1
102
RTVSPropertyOp37
 70
     1
102
RTVSPropertyOp38
 70
     1
102
RTVSPropertyOp39
 70
     1
102
RTVSPropertyOp40
 70
     1
102
RTVSPropertyOp41
 70
     1
102
RTVSPropertyOp42
 70
     1
102
RTVSPropertyOp43
 70
     1
102
RTVSPropertyOp44
 70
     1
102
RTVSPropertyOp45
 70
     1
102
RTVSPropertyOp46
 70
     1
102
RTVSPropertyOp47
 70
     1
102
RTVSPropertyOp48
 70
     1
102
RTVSPropertyOp49
 70
     1
102
RTVSPropertyOp50
 70
     1
102
RTVSPropertyOp51
 70
     0
102
RTVSPropertyOp52
 70
     0
102
RTVSPropertyOp53
 70
     1
102
RTVSPropertyOp54
 70
     1
102
RTVSPropertyOp55
 70
     1
102
RTVSPropertyOp56
 70
     1
102
RTVSPropertyOp57
 70
     1
102
RTVSPropertyOp58
 70
     1
102
RTVSPropertyOp59
 70
     1
102
RTVSPropertyOp60
 70
     1
102
RTVSPropertyOp61
 70
     1
102
RTVSPropertyOp62
 70
     1
  0
XRECORD
  5
634
102
{ACAD_REACTORS
330
633
102
}
330
633
100
AcDbXrecord
280
     1
102
RTVSPost2010Prop28
280
     0
102
RTVSPost2010PropOp28
 70
     1
102
RTVSPost2010Prop29
280
     1
102
RTVSPost2010PropOp29
 70
     1
102
RTVSPost2010Prop30
280
     1
102
RTVSPost2010PropOp30
 70
     1
102
RTVSPost2010Prop31
280
     0
102
RTVSPost2010PropOp31
 70
     1
102
RTVSPost2010Prop32
280
     0
102
RTVSPost2010PropOp32
 70
     1
102
RTVSPost2010Prop33
280
     0
102
RTVSPost2010PropOp33
 70
     1
102
RTVSPost2010Prop34
280
     0
102
RTVSPost2010PropOp34
 70
     1
102
RTVSPost2010Prop35
280
     0
102
RTVSPost2010PropOp35
 70
     1
102
RTVSPost2010Prop36
280
     0
102
RTVSPost2010PropOp36
 70
     1
102
RTVSPost2010Prop37
 90
       50
102
RTVSPost2010PropOp37
 70
     1
102
RTVSPost2010Prop38
140
0.0
102
RTVSPost2010PropOp38
 70
     1
102
RTVSPost2010Prop39
140
1.0
102
RTVSPost2010PropOp39
 70
     1
102
RTVSPost2010Prop40
 90
        0
102
RTVSPost2010PropOp40
 70
     1
102
RTVSPost2010Prop41ColorIndex
 90
       18
102
RTVSPost2010Prop41ColorRGB
 90
        0
102
RTVSPost2010PropOp41
 70
     1
102
RTVSPost2010Prop42
 90
       50
102
RTVSPost2010PropOp42
 70
     1
102
RTVSPost2010Prop43
 90
        3
102
RTVSPost2010PropOp43
 70
     1
102
RTVSPost2010Prop44ColorIndex
 90
        5
102
RTVSPost2010Prop44ColorRGB
 90
      255
102
RTVSPost2010PropOp44
 70
     1
102
RTVSPost2010Prop45
280
     0
102
RTVSPost2010PropOp45
 70
     1
102
RTVSPost2010Prop46
 90
       50
102
RTVSPost2010PropOp46
 70
     1
102
RTVSPost2010Prop47
 90
       50
102
RTVSPost2010PropOp47
 70
     1
102
RTVSPost2010Prop48
 90
       50
102
RTVSPost2010PropOp48
 70
     1
102
RTVSPost2010Prop49
280
     0
102
RTVSPost2010PropOp49
 70
     1
102
RTVSPost2010Prop50
 90
       50
102
RTVSPost2010PropOp50
 70
     1
102
RTVSPost2010Prop51ColorIndex
 90
      256
102
RTVSPost2010Prop51ColorRGB
 90
-16777216
102
RTVSPost2010PropOp51
 70
     0
102
RTVSPost2010Prop52
140
1.0
102
RTVSPost2010PropOp52
 70
     0
102
RTVSPost2010Prop53
 90
        2
102
RTVSPost2010PropOp53
 70
     1
102
RTVSPost2010Prop54
  1
strokes_ogs.tif
102
RTVSPost2010PropOp54
 70
     1
102
RTVSPost2010Prop55
280
     0
102
RTVSPost2010PropOp55
 70
     1
102
RTVSPost2010Prop56
140
1.0
102
RTVSPost2010PropOp56
 70
     1
102
RTVSPost2010Prop57
140
1.0
102
RTVSPost2010PropOp57
 70
     1
102
RTVSPropertyOp0
 70
     1
102
RTVSPropertyOp1
 70
     1
102
RTVSPropertyOp2
 70
     1
102
RTVSPropertyOp3
 70
     1
102
RTVSPropertyOp4
 70
     1
102
RTVSPropertyOp5
 70
     1
102
RTVSPropertyOp6
 70
     1
102
RTVSPropertyOp7
 70
     1
102
RTVSPropertyOp8
 70
     1
102
RTVSPropertyOp9
 70
     1
102
RTVSPropertyOp10
 70
     1
102
RTVSPropertyOp11
 70
     1
102
RTVSPropertyOp12
 70
     1
102
RTVSPropertyOp13
 70
     1
102
RTVSPropertyOp14
 70
     1
102
RTVSPropertyOp15
 70
     1
102
RTVSPropertyOp16
 70
     1
102
RTVSPropertyOp17
 70
     1
102
RTVSPropertyOp18
 70
     1
102
RTVSPropertyOp19
 70
     1
102
RTVSPropertyOp20
 70
     1
102
RTVSPropertyOp21
 70
     1
102
RTVSPropertyOp22
 70
     1
102
RTVSPropertyOp23
 70
     1
102
RTVSPropertyOp24
 70
     1
102
RTVSPropertyOp25
 70
     1
102
RTVSPropertyOp26
 70
     1
102
RTVSPropertyOp27
 70
     1
102
RTVSPropertyOp28
 70
     1
102
RTVSPropertyOp29
 70
     1
102
RTVSPropertyOp30
 70
     1
102
RTVSPropertyOp31
 70
     1
102
RTVSPropertyOp32
 70
     1
102
RTVSPropertyOp33
 70
     1
102
RTVSPropertyOp34
 70
     1
102
RTVSPropertyOp35
 70
     1
102
RTVSPropertyOp36
 70
     1
102
RTVSPropertyOp37
 70
     1
102
RTVSPropertyOp38
 70
     1
102
RTVSPropertyOp39
 70
     1
102
RTVSPropertyOp40
 70
     1
102
RTVSPropertyOp41
 70
     1
102
RTVSPropertyOp42
 70
     1
102
RTVSPropertyOp43
 70
     1
102
RTVSPropertyOp44
 70
     1
102
RTVSPropertyOp45
 70
     1
102
RTVSPropertyOp46
 70
     1
102
RTVSPropertyOp47
 70
     1
102
RTVSPropertyOp48
 70
     1
102
RTVSPropertyOp49
 70
     1
102
RTVSPropertyOp50
 70
     1
102
RTVSPropertyOp51
 70
     0
102
RTVSPropertyOp52
 70
     0
102
RTVSPropertyOp53
 70
     1
102
RTVSPropertyOp54
 70
     1
102
RTVSPropertyOp55
 70
     1
102
RTVSPropertyOp56
 70
     1
102
RTVSPropertyOp57
 70
     1
102
RTVSPropertyOp58
 70
     1
102
RTVSPropertyOp59
 70
     1
102
RTVSPropertyOp60
 70
     1
102
RTVSPropertyOp61
 70
     1
102
RTVSPropertyOp62
 70
     1
  0
XRECORD
  5
63C
102
{ACAD_REACTORS
330
63B
102
}
330
63B
100
AcDbXrecord
280
     1
102
RTVSPost2010Prop28
280
     0
102
RTVSPost2010PropOp28
 70
     1
102
RTVSPost2010Prop29
280
     1
102
RTVSPost2010PropOp29
 70
     1
102
RTVSPost2010Prop30
280
     1
102
RTVSPost2010PropOp30
 70
     1
102
RTVSPost2010Prop31
280
     0
102
RTVSPost2010PropOp31
 70
     1
102
RTVSPost2010Prop32
280
     0
102
RTVSPost2010PropOp32
 70
     1
102
RTVSPost2010Prop33
280
     0
102
RTVSPost2010PropOp33
 70
     1
102
RTVSPost2010Prop34
280
     0
102
RTVSPost2010PropOp34
 70
     1
102
RTVSPost2010Prop35
280
     0
102
RTVSPost2010PropOp35
 70
     1
102
RTVSPost2010Prop36
280
     0
102
RTVSPost2010PropOp36
 70
     1
102
RTVSPost2010Prop37
 90
       50
102
RTVSPost2010PropOp37
 70
     1
102
RTVSPost2010Prop38
140
0.0
102
RTVSPost2010PropOp38
 70
     1
102
RTVSPost2010Prop39
140
1.0
102
RTVSPost2010PropOp39
 70
     1
102
RTVSPost2010Prop40
 90
        0
102
RTVSPost2010PropOp40
 70
     1
102
RTVSPost2010Prop41ColorIndex
 90
       18
102
RTVSPost2010Prop41ColorRGB
 90
        0
102
RTVSPost2010PropOp41
 70
     1
102
RTVSPost2010Prop42
 90
       50
102
RTVSPost2010PropOp42
 70
     1
102
RTVSPost2010Prop43
 90
        3
102
RTVSPost2010PropOp43
 70
     1
102
RTVSPost2010Prop44ColorIndex
 90
        5
102
RTVSPost2010Prop44ColorRGB
 90
      255
102
RTVSPost2010PropOp44
 70
     1
102
RTVSPost2010Prop45
280
     0
102
RTVSPost2010PropOp45
 70
     1
102
RTVSPost2010Prop46
 90
       50
102
RTVSPost2010PropOp46
 70
     1
102
RTVSPost2010Prop47
 90
       50
102
RTVSPost2010PropOp47
 70
     1
102
RTVSPost2010Prop48
 90
       50
102
RTVSPost2010PropOp48
 70
     1
102
RTVSPost2010Prop49
280
     0
102
RTVSPost2010PropOp49
 70
     1
102
RTVSPost2010Prop50
 90
       50
102
RTVSPost2010PropOp50
 70
     1
102
RTVSPost2010Prop51ColorIndex
 90
      256
102
RTVSPost2010Prop51ColorRGB
 90
-16777216
102
RTVSPost2010PropOp51
 70
     0
102
RTVSPost2010Prop52
140
1.0
102
RTVSPost2010PropOp52
 70
     0
102
RTVSPost2010Prop53
 90
        2
102
RTVSPost2010PropOp53
 70
     1
102
RTVSPost2010Prop54
  1
strokes_ogs.tif
102
RTVSPost2010PropOp54
 70
     1
102
RTVSPost2010Prop55
280
     0
102
RTVSPost2010PropOp55
 70
     1
102
RTVSPost2010Prop56
140
1.0
102
RTVSPost2010PropOp56
 70
     1
102
RTVSPost2010Prop57
140
1.0
102
RTVSPost2010PropOp57
 70
     1
102
RTVSPropertyOp0
 70
     1
102
RTVSPropertyOp1
 70
     1
102
RTVSPropertyOp2
 70
     1
102
RTVSPropertyOp3
 70
     1
102
RTVSPropertyOp4
 70
     1
102
RTVSPropertyOp5
 70
     1
102
RTVSPropertyOp6
 70
     1
102
RTVSPropertyOp7
 70
     1
102
RTVSPropertyOp8
 70
     1
102
RTVSPropertyOp9
 70
     1
102
RTVSPropertyOp10
 70
     1
102
RTVSPropertyOp11
 70
     1
102
RTVSPropertyOp12
 70
     1
102
RTVSPropertyOp13
 70
     1
102
RTVSPropertyOp14
 70
     1
102
RTVSPropertyOp15
 70
     1
102
RTVSPropertyOp16
 70
     1
102
RTVSPropertyOp17
 70
     1
102
RTVSPropertyOp18
 70
     1
102
RTVSPropertyOp19
 70
     1
102
RTVSPropertyOp20
 70
     1
102
RTVSPropertyOp21
 70
     1
102
RTVSPropertyOp22
 70
     1
102
RTVSPropertyOp23
 70
     1
102
RTVSPropertyOp24
 70
     1
102
RTVSPropertyOp25
 70
     1
102
RTVSPropertyOp26
 70
     1
102
RTVSPropertyOp27
 70
     1
102
RTVSPropertyOp28
 70
     1
102
RTVSPropertyOp29
 70
     1
102
RTVSPropertyOp30
 70
     1
102
RTVSPropertyOp31
 70
     1
102
RTVSPropertyOp32
 70
     1
102
RTVSPropertyOp33
 70
     1
102
RTVSPropertyOp34
 70
     1
102
RTVSPropertyOp35
 70
     1
102
RTVSPropertyOp36
 70
     1
102
RTVSPropertyOp37
 70
     1
102
RTVSPropertyOp38
 70
     1
102
RTVSPropertyOp39
 70
     1
102
RTVSPropertyOp40
 70
     1
102
RTVSPropertyOp41
 70
     1
102
RTVSPropertyOp42
 70
     1
102
RTVSPropertyOp43
 70
     1
102
RTVSPropertyOp44
 70
     1
102
RTVSPropertyOp45
 70
     1
102
RTVSPropertyOp46
 70
     1
102
RTVSPropertyOp47
 70
     1
102
RTVSPropertyOp48
 70
     1
102
RTVSPropertyOp49
 70
     1
102
RTVSPropertyOp50
 70
     1
102
RTVSPropertyOp51
 70
     0
102
RTVSPropertyOp52
 70
     0
102
RTVSPropertyOp53
 70
     1
102
RTVSPropertyOp54
 70
     1
102
RTVSPropertyOp55
 70
     1
102
RTVSPropertyOp56
 70
     1
102
RTVSPropertyOp57
 70
     1
102
RTVSPropertyOp58
 70
     1
102
RTVSPropertyOp59
 70
     1
102
RTVSPropertyOp60
 70
     1
102
RTVSPropertyOp61
 70
     1
102
RTVSPropertyOp62
 70
     1
  0
XRECORD
  5
62E
102
{ACAD_REACTORS
330
62D
102
}
330
62D
100
AcDbXrecord
280
     1
102
RTVSPost2010Prop28
280
     0
102
RTVSPost2010PropOp28
 70
     1
102
RTVSPost2010Prop29
280
     1
102
RTVSPost2010PropOp29
 70
     1
102
RTVSPost2010Prop30
280
     1
102
RTVSPost2010PropOp30
 70
     1
102
RTVSPost2010Prop31
280
     0
102
RTVSPost2010PropOp31
 70
     1
102
RTVSPost2010Prop32
280
     0
102
RTVSPost2010PropOp32
 70
     1
102
RTVSPost2010Prop33
280
     0
102
RTVSPost2010PropOp33
 70
     1
102
RTVSPost2010Prop34
280
     0
102
RTVSPost2010PropOp34
 70
     1
102
RTVSPost2010Prop35
280
     0
102
RTVSPost2010PropOp35
 70
     1
102
RTVSPost2010Prop36
280
     0
102
RTVSPost2010PropOp36
 70
     1
102
RTVSPost2010Prop37
 90
       50
102
RTVSPost2010PropOp37
 70
     1
102
RTVSPost2010Prop38
140
0.0
102
RTVSPost2010PropOp38
 70
     1
102
RTVSPost2010Prop39
140
1.0
102
RTVSPost2010PropOp39
 70
     1
102
RTVSPost2010Prop40
 90
        0
102
RTVSPost2010PropOp40
 70
     1
102
RTVSPost2010Prop41ColorIndex
 90
       18
102
RTVSPost2010Prop41ColorRGB
 90
        0
102
RTVSPost2010PropOp41
 70
     1
102
RTVSPost2010Prop42
 90
       50
102
RTVSPost2010PropOp42
 70
     1
102
RTVSPost2010Prop43
 90
        3
102
RTVSPost2010PropOp43
 70
     1
102
RTVSPost2010Prop44ColorIndex
 90
        5
102
RTVSPost2010Prop44ColorRGB
 90
      255
102
RTVSPost2010PropOp44
 70
     1
102
RTVSPost2010Prop45
280
     0
102
RTVSPost2010PropOp45
 70
     1
102
RTVSPost2010Prop46
 90
       50
102
RTVSPost2010PropOp46
 70
     1
102
RTVSPost2010Prop47
 90
       50
102
RTVSPost2010PropOp47
 70
     1
102
RTVSPost2010Prop48
 90
       50
102
RTVSPost2010PropOp48
 70
     1
102
RTVSPost2010Prop49
280
     0
102
RTVSPost2010PropOp49
 70
     1
102
RTVSPost2010Prop50
 90
       50
102
RTVSPost2010PropOp50
 70
     1
102
RTVSPost2010Prop51ColorIndex
 90
      256
102
RTVSPost2010Prop51ColorRGB
 90
-16777216
102
RTVSPost2010PropOp51
 70
     0
102
RTVSPost2010Prop52
140
1.0
102
RTVSPost2010PropOp52
 70
     0
102
RTVSPost2010Prop53
 90
        2
102
RTVSPost2010PropOp53
 70
     1
102
RTVSPost2010Prop54
  1
strokes_ogs.tif
102
RTVSPost2010PropOp54
 70
     1
102
RTVSPost2010Prop55
280
     0
102
RTVSPost2010PropOp55
 70
     1
102
RTVSPost2010Prop56
140
1.0
102
RTVSPost2010PropOp56
 70
     1
102
RTVSPost2010Prop57
140
1.0
102
RTVSPost2010PropOp57
 70
     1
102
RTVSPropertyOp0
 70
     1
102
RTVSPropertyOp1
 70
     1
102
RTVSPropertyOp2
 70
     1
102
RTVSPropertyOp3
 70
     1
102
RTVSPropertyOp4
 70
     1
102
RTVSPropertyOp5
 70
     1
102
RTVSPropertyOp6
 70
     1
102
RTVSPropertyOp7
 70
     1
102
RTVSPropertyOp8
 70
     1
102
RTVSPropertyOp9
 70
     1
102
RTVSPropertyOp10
 70
     1
102
RTVSPropertyOp11
 70
     1
102
RTVSPropertyOp12
 70
     1
102
RTVSPropertyOp13
 70
     1
102
RTVSPropertyOp14
 70
     1
102
RTVSPropertyOp15
 70
     1
102
RTVSPropertyOp16
 70
     1
102
RTVSPropertyOp17
 70
     1
102
RTVSPropertyOp18
 70
     1
102
RTVSPropertyOp19
 70
     1
102
RTVSPropertyOp20
 70
     1
102
RTVSPropertyOp21
 70
     1
102
RTVSPropertyOp22
 70
     1
102
RTVSPropertyOp23
 70
     1
102
RTVSPropertyOp24
 70
     1
102
RTVSPropertyOp25
 70
     1
102
RTVSPropertyOp26
 70
     1
102
RTVSPropertyOp27
 70
     1
102
RTVSPropertyOp28
 70
     1
102
RTVSPropertyOp29
 70
     1
102
RTVSPropertyOp30
 70
     1
102
RTVSPropertyOp31
 70
     1
102
RTVSPropertyOp32
 70
     1
102
RTVSPropertyOp33
 70
     1
102
RTVSPropertyOp34
 70
     1
102
RTVSPropertyOp35
 70
     1
102
RTVSPropertyOp36
 70
     1
102
RTVSPropertyOp37
 70
     1
102
RTVSPropertyOp38
 70
     1
102
RTVSPropertyOp39
 70
     1
102
RTVSPropertyOp40
 70
     1
102
RTVSPropertyOp41
 70
     1
102
RTVSPropertyOp42
 70
     1
102
RTVSPropertyOp43
 70
     1
102
RTVSPropertyOp44
 70
     1
102
RTVSPropertyOp45
 70
     1
102
RTVSPropertyOp46
 70
     1
102
RTVSPropertyOp47
 70
     1
102
RTVSPropertyOp48
 70
     1
102
RTVSPropertyOp49
 70
     1
102
RTVSPropertyOp50
 70
     1
102
RTVSPropertyOp51
 70
     0
102
RTVSPropertyOp52
 70
     0
102
RTVSPropertyOp53
 70
     1
102
RTVSPropertyOp54
 70
     1
102
RTVSPropertyOp55
 70
     1
102
RTVSPropertyOp56
 70
     1
102
RTVSPropertyOp57
 70
     1
102
RTVSPropertyOp58
 70
     1
102
RTVSPropertyOp59
 70
     1
102
RTVSPropertyOp60
 70
     1
102
RTVSPropertyOp61
 70
     1
102
RTVSPropertyOp62
 70
     1
  0
XRECORD
  5
632
102
{ACAD_REACTORS
330
631
102
}
330
631
100
AcDbXrecord
280
     1
102
RTVSPost2010Prop28
280
     0
102
RTVSPost2010PropOp28
 70
     1
102
RTVSPost2010Prop29
280
     1
102
RTVSPost2010PropOp29
 70
     1
102
RTVSPost2010Prop30
280
     1
102
RTVSPost2010PropOp30
 70
     1
102
RTVSPost2010Prop31
280
     0
102
RTVSPost2010PropOp31
 70
     1
102
RTVSPost2010Prop32
280
     0
102
RTVSPost2010PropOp32
 70
     1
102
RTVSPost2010Prop33
280
     0
102
RTVSPost2010PropOp33
 70
     1
102
RTVSPost2010Prop34
280
     0
102
RTVSPost2010PropOp34
 70
     1
102
RTVSPost2010Prop35
280
     0
102
RTVSPost2010PropOp35
 70
     1
102
RTVSPost2010Prop36
280
     0
102
RTVSPost2010PropOp36
 70
     1
102
RTVSPost2010Prop37
 90
       50
102
RTVSPost2010PropOp37
 70
     1
102
RTVSPost2010Prop38
140
0.0
102
RTVSPost2010PropOp38
 70
     1
102
RTVSPost2010Prop39
140
1.0
102
RTVSPost2010PropOp39
 70
     1
102
RTVSPost2010Prop40
 90
        0
102
RTVSPost2010PropOp40
 70
     1
102
RTVSPost2010Prop41ColorIndex
 90
       18
102
RTVSPost2010Prop41ColorRGB
 90
        0
102
RTVSPost2010PropOp41
 70
     1
102
RTVSPost2010Prop42
 90
       50
102
RTVSPost2010PropOp42
 70
     1
102
RTVSPost2010Prop43
 90
        3
102
RTVSPost2010PropOp43
 70
     1
102
RTVSPost2010Prop44ColorIndex
 90
        5
102
RTVSPost2010Prop44ColorRGB
 90
      255
102
RTVSPost2010PropOp44
 70
     1
102
RTVSPost2010Prop45
280
     0
102
RTVSPost2010PropOp45
 70
     1
102
RTVSPost2010Prop46
 90
       50
102
RTVSPost2010PropOp46
 70
     1
102
RTVSPost2010Prop47
 90
       50
102
RTVSPost2010PropOp47
 70
     1
102
RTVSPost2010Prop48
 90
       50
102
RTVSPost2010PropOp48
 70
     1
102
RTVSPost2010Prop49
280
     0
102
RTVSPost2010PropOp49
 70
     1
102
RTVSPost2010Prop50
 90
       50
102
RTVSPost2010PropOp50
 70
     1
102
RTVSPost2010Prop51ColorIndex
 90
      256
102
RTVSPost2010Prop51ColorRGB
 90
-16777216
102
RTVSPost2010PropOp51
 70
     0
102
RTVSPost2010Prop52
140
1.0
102
RTVSPost2010PropOp52
 70
     0
102
RTVSPost2010Prop53
 90
        2
102
RTVSPost2010PropOp53
 70
     1
102
RTVSPost2010Prop54
  1
strokes_ogs.tif
102
RTVSPost2010PropOp54
 70
     1
102
RTVSPost2010Prop55
280
     0
102
RTVSPost2010PropOp55
 70
     1
102
RTVSPost2010Prop56
140
1.0
102
RTVSPost2010PropOp56
 70
     1
102
RTVSPost2010Prop57
140
1.0
102
RTVSPost2010PropOp57
 70
     1
102
RTVSPropertyOp0
 70
     1
102
RTVSPropertyOp1
 70
     1
102
RTVSPropertyOp2
 70
     1
102
RTVSPropertyOp3
 70
     1
102
RTVSPropertyOp4
 70
     1
102
RTVSPropertyOp5
 70
     1
102
RTVSPropertyOp6
 70
     1
102
RTVSPropertyOp7
 70
     1
102
RTVSPropertyOp8
 70
     1
102
RTVSPropertyOp9
 70
     1
102
RTVSPropertyOp10
 70
     1
102
RTVSPropertyOp11
 70
     1
102
RTVSPropertyOp12
 70
     1
102
RTVSPropertyOp13
 70
     1
102
RTVSPropertyOp14
 70
     1
102
RTVSPropertyOp15
 70
     1
102
RTVSPropertyOp16
 70
     1
102
RTVSPropertyOp17
 70
     1
102
RTVSPropertyOp18
 70
     1
102
RTVSPropertyOp19
 70
     1
102
RTVSPropertyOp20
 70
     1
102
RTVSPropertyOp21
 70
     1
102
RTVSPropertyOp22
 70
     1
102
RTVSPropertyOp23
 70
     1
102
RTVSPropertyOp24
 70
     1
102
RTVSPropertyOp25
 70
     1
102
RTVSPropertyOp26
 70
     1
102
RTVSPropertyOp27
 70
     1
102
RTVSPropertyOp28
 70
     1
102
RTVSPropertyOp29
 70
     1
102
RTVSPropertyOp30
 70
     1
102
RTVSPropertyOp31
 70
     1
102
RTVSPropertyOp32
 70
     1
102
RTVSPropertyOp33
 70
     1
102
RTVSPropertyOp34
 70
     1
102
RTVSPropertyOp35
 70
     1
102
RTVSPropertyOp36
 70
     1
102
RTVSPropertyOp37
 70
     1
102
RTVSPropertyOp38
 70
     1
102
RTVSPropertyOp39
 70
     1
102
RTVSPropertyOp40
 70
     1
102
RTVSPropertyOp41
 70
     1
102
RTVSPropertyOp42
 70
     1
102
RTVSPropertyOp43
 70
     1
102
RTVSPropertyOp44
 70
     1
102
RTVSPropertyOp45
 70
     1
102
RTVSPropertyOp46
 70
     1
102
RTVSPropertyOp47
 70
     1
102
RTVSPropertyOp48
 70
     1
102
RTVSPropertyOp49
 70
     1
102
RTVSPropertyOp50
 70
     1
102
RTVSPropertyOp51
 70
     0
102
RTVSPropertyOp52
 70
     0
102
RTVSPropertyOp53
 70
     1
102
RTVSPropertyOp54
 70
     1
102
RTVSPropertyOp55
 70
     1
102
RTVSPropertyOp56
 70
     1
102
RTVSPropertyOp57
 70
     1
102
RTVSPropertyOp58
 70
     1
102
RTVSPropertyOp59
 70
     1
102
RTVSPropertyOp60
 70
     1
102
RTVSPropertyOp61
 70
     1
102
RTVSPropertyOp62
 70
     1
  0
XRECORD
  5
64C
102
{ACAD_REACTORS
330
64B
102
}
330
64B
100
AcDbXrecord
280
     1
102
RTVSPost2010Prop28
280
     0
102
RTVSPost2010PropOp28
 70
     1
102
RTVSPost2010Prop29
280
     1
102
RTVSPost2010PropOp29
 70
     1
102
RTVSPost2010Prop30
280
     1
102
RTVSPost2010PropOp30
 70
     1
102
RTVSPost2010Prop31
280
     0
102
RTVSPost2010PropOp31
 70
     1
102
RTVSPost2010Prop32
280
     0
102
RTVSPost2010PropOp32
 70
     1
102
RTVSPost2010Prop33
280
     0
102
RTVSPost2010PropOp33
 70
     1
102
RTVSPost2010Prop34
280
     0
102
RTVSPost2010PropOp34
 70
     1
102
RTVSPost2010Prop35
280
     0
102
RTVSPost2010PropOp35
 70
     1
102
RTVSPost2010Prop36
280
     0
102
RTVSPost2010PropOp36
 70
     1
102
RTVSPost2010Prop37
 90
       50
102
RTVSPost2010PropOp37
 70
     0
102
RTVSPost2010Prop38
140
0.0
102
RTVSPost2010PropOp38
 70
     0
102
RTVSPost2010Prop39
140
1.0
102
RTVSPost2010PropOp39
 70
     0
102
RTVSPost2010Prop40
 90
        0
102
RTVSPost2010PropOp40
 70
     0
102
RTVSPost2010Prop41ColorIndex
 90
       18
102
RTVSPost2010Prop41ColorRGB
 90
        0
102
RTVSPost2010PropOp41
 70
     0
102
RTVSPost2010Prop42
 90
       50
102
RTVSPost2010PropOp42
 70
     0
102
RTVSPost2010Prop43
 90
        3
102
RTVSPost2010PropOp43
 70
     0
102
RTVSPost2010Prop44ColorIndex
 90
        5
102
RTVSPost2010Prop44ColorRGB
 90
      255
102
RTVSPost2010PropOp44
 70
     0
102
RTVSPost2010Prop45
280
     0
102
RTVSPost2010PropOp45
 70
     1
102
RTVSPost2010Prop46
 90
       50
102
RTVSPost2010PropOp46
 70
     0
102
RTVSPost2010Prop47
 90
       50
102
RTVSPost2010PropOp47
 70
     0
102
RTVSPost2010Prop48
 90
       50
102
RTVSPost2010PropOp48
 70
     0
102
RTVSPost2010Prop49
280
     0
102
RTVSPost2010PropOp49
 70
     1
102
RTVSPost2010Prop50
 90
       50
102
RTVSPost2010PropOp50
 70
     0
102
RTVSPost2010Prop51ColorIndex
 90
      256
102
RTVSPost2010Prop51ColorRGB
 90
-16777216
102
RTVSPost2010PropOp51
 70
     0
102
RTVSPost2010Prop52
140
1.0
102
RTVSPost2010PropOp52
 70
     0
102
RTVSPost2010Prop53
 90
        2
102
RTVSPost2010PropOp53
 70
     0
102
RTVSPost2010Prop54
  1
strokes_ogs.tif
102
RTVSPost2010PropOp54
 70
     0
102
RTVSPost2010Prop55
280
     0
102
RTVSPost2010PropOp55
 70
     1
102
RTVSPost2010Prop56
140
1.0
102
RTVSPost2010PropOp56
 70
     0
102
RTVSPost2010Prop57
140
1.0
102
RTVSPost2010PropOp57
 70
     0
102
RTVSPropertyOp0
 70
     0
102
RTVSPropertyOp1
 70
     0
102
RTVSPropertyOp2
 70
     0
102
RTVSPropertyOp3
 70
     0
102
RTVSPropertyOp4
 70
     0
102
RTVSPropertyOp5
 70
     0
102
RTVSPropertyOp6
 70
     0
102
RTVSPropertyOp7
 70
     0
102
RTVSPropertyOp8
 70
     0
102
RTVSPropertyOp9
 70
     0
102
RTVSPropertyOp10
 70
     0
102
RTVSPropertyOp11
 70
     0
102
RTVSPropertyOp12
 70
     0
102
RTVSPropertyOp13
 70
     0
102
RTVSPropertyOp14
 70
     2
102
RTVSPropertyOp15
 70
     0
102
RTVSPropertyOp16
 70
     0
102
RTVSPropertyOp17
 70
     0
102
RTVSPropertyOp18
 70
     0
102
RTVSPropertyOp19
 70
     0
102
RTVSPropertyOp20
 70
     0
102
RTVSPropertyOp21
 70
     0
102
RTVSPropertyOp22
 70
     0
102
RTVSPropertyOp23
 70
     0
102
RTVSPropertyOp24
 70
     0
102
RTVSPropertyOp25
 70
     0
102
RTVSPropertyOp26
 70
     0
102
RTVSPropertyOp27
 70
     0
102
RTVSPropertyOp28
 70
     1
102
RTVSPropertyOp29
 70
     1
102
RTVSPropertyOp30
 70
     1
102
RTVSPropertyOp31
 70
     1
102
RTVSPropertyOp32
 70
     1
102
RTVSPropertyOp33
 70
     1
102
RTVSPropertyOp34
 70
     1
102
RTVSPropertyOp35
 70
     1
102
RTVSPropertyOp36
 70
     1
102
RTVSPropertyOp37
 70
     0
102
RTVSPropertyOp38
 70
     0
102
RTVSPropertyOp39
 70
     0
102
RTVSPropertyOp40
 70
     0
102
RTVSPropertyOp41
 70
     0
102
RTVSPropertyOp42
 70
     0
102
RTVSPropertyOp43
 70
     0
102
RTVSPropertyOp44
 70
     0
102
RTVSPropertyOp45
 70
     1
102
RTVSPropertyOp46
 70
     0
102
RTVSPropertyOp47
 70
     0
102
RTVSPropertyOp48
 70
     0
102
RTVSPropertyOp49
 70
     1
102
RTVSPropertyOp50
 70
     0
102
RTVSPropertyOp51
 70
     0
102
RTVSPropertyOp52
 70
     0
102
RTVSPropertyOp53
 70
     0
102
RTVSPropertyOp54
 70
     0
102
RTVSPropertyOp55
 70
     1
102
RTVSPropertyOp56
 70
     0
102
RTVSPropertyOp57
 70
     0
102
RTVSPropertyOp58
 70
     0
102
RTVSPropertyOp59
 70
     0
102
RTVSPropertyOp60
 70
     0
102
RTVSPropertyOp61
 70
     0
102
RTVSPropertyOp62
 70
     0
  0
XRECORD
  5
63A
102
{ACAD_REACTORS
330
639
102
}
330
639
100
AcDbXrecord
280
     1
102
RTVSPost2010Prop28
280
     0
102
RTVSPost2010PropOp28
 70
     1
102
RTVSPost2010Prop29
280
     1
102
RTVSPost2010PropOp29
 70
     1
102
RTVSPost2010Prop30
280
     1
102
RTVSPost2010PropOp30
 70
     1
102
RTVSPost2010Prop31
280
     0
102
RTVSPost2010PropOp31
 70
     1
102
RTVSPost2010Prop32
280
     0
102
RTVSPost2010PropOp32
 70
     1
102
RTVSPost2010Prop33
280
     0
102
RTVSPost2010PropOp33
 70
     1
102
RTVSPost2010Prop34
280
     0
102
RTVSPost2010PropOp34
 70
     1
102
RTVSPost2010Prop35
280
     0
102
RTVSPost2010PropOp35
 70
     1
102
RTVSPost2010Prop36
280
     0
102
RTVSPost2010PropOp36
 70
     1
102
RTVSPost2010Prop37
 90
       50
102
RTVSPost2010PropOp37
 70
     1
102
RTVSPost2010Prop38
140
0.0
102
RTVSPost2010PropOp38
 70
     1
102
RTVSPost2010Prop39
140
1.0
102
RTVSPost2010PropOp39
 70
     1
102
RTVSPost2010Prop40
 90
        0
102
RTVSPost2010PropOp40
 70
     1
102
RTVSPost2010Prop41ColorIndex
 90
       18
102
RTVSPost2010Prop41ColorRGB
 90
        0
102
RTVSPost2010PropOp41
 70
     1
102
RTVSPost2010Prop42
 90
       50
102
RTVSPost2010PropOp42
 70
     1
102
RTVSPost2010Prop43
 90
        3
102
RTVSPost2010PropOp43
 70
     1
102
RTVSPost2010Prop44ColorIndex
 90
        5
102
RTVSPost2010Prop44ColorRGB
 90
      255
102
RTVSPost2010PropOp44
 70
     1
102
RTVSPost2010Prop45
280
     0
102
RTVSPost2010PropOp45
 70
     1
102
RTVSPost2010Prop46
 90
       50
102
RTVSPost2010PropOp46
 70
     1
102
RTVSPost2010Prop47
 90
       50
102
RTVSPost2010PropOp47
 70
     1
102
RTVSPost2010Prop48
 90
       50
102
RTVSPost2010PropOp48
 70
     1
102
RTVSPost2010Prop49
280
     0
102
RTVSPost2010PropOp49
 70
     1
102
RTVSPost2010Prop50
 90
       50
102
RTVSPost2010PropOp50
 70
     1
102
RTVSPost2010Prop51ColorIndex
 90
      256
102
RTVSPost2010Prop51ColorRGB
 90
-16777216
102
RTVSPost2010PropOp51
 70
     0
102
RTVSPost2010Prop52
140
1.0
102
RTVSPost2010PropOp52
 70
     0
102
RTVSPost2010Prop53
 90
        2
102
RTVSPost2010PropOp53
 70
     1
102
RTVSPost2010Prop54
  1
strokes_ogs.tif
102
RTVSPost2010PropOp54
 70
     1
102
RTVSPost2010Prop55
280
     0
102
RTVSPost2010PropOp55
 70
     1
102
RTVSPost2010Prop56
140
1.0
102
RTVSPost2010PropOp56
 70
     1
102
RTVSPost2010Prop57
140
1.0
102
RTVSPost2010PropOp57
 70
     1
102
RTVSPropertyOp0
 70
     1
102
RTVSPropertyOp1
 70
     1
102
RTVSPropertyOp2
 70
     1
102
RTVSPropertyOp3
 70
     1
102
RTVSPropertyOp4
 70
     1
102
RTVSPropertyOp5
 70
     1
102
RTVSPropertyOp6
 70
     1
102
RTVSPropertyOp7
 70
     1
102
RTVSPropertyOp8
 70
     1
102
RTVSPropertyOp9
 70
     1
102
RTVSPropertyOp10
 70
     1
102
RTVSPropertyOp11
 70
     1
102
RTVSPropertyOp12
 70
     1
102
RTVSPropertyOp13
 70
     1
102
RTVSPropertyOp14
 70
     1
102
RTVSPropertyOp15
 70
     1
102
RTVSPropertyOp16
 70
     1
102
RTVSPropertyOp17
 70
     1
102
RTVSPropertyOp18
 70
     1
102
RTVSPropertyOp19
 70
     1
102
RTVSPropertyOp20
 70
     1
102
RTVSPropertyOp21
 70
     1
102
RTVSPropertyOp22
 70
     1
102
RTVSPropertyOp23
 70
     1
102
RTVSPropertyOp24
 70
     1
102
RTVSPropertyOp25
 70
     1
102
RTVSPropertyOp26
 70
     1
102
RTVSPropertyOp27
 70
     1
102
RTVSPropertyOp28
 70
     1
102
RTVSPropertyOp29
 70
     1
102
RTVSPropertyOp30
 70
     1
102
RTVSPropertyOp31
 70
     1
102
RTVSPropertyOp32
 70
     1
102
RTVSPropertyOp33
 70
     1
102
RTVSPropertyOp34
 70
     1
102
RTVSPropertyOp35
 70
     1
102
RTVSPropertyOp36
 70
     1
102
RTVSPropertyOp37
 70
     1
102
RTVSPropertyOp38
 70
     1
102
RTVSPropertyOp39
 70
     1
102
RTVSPropertyOp40
 70
     1
102
RTVSPropertyOp41
 70
     1
102
RTVSPropertyOp42
 70
     1
102
RTVSPropertyOp43
 70
     1
102
RTVSPropertyOp44
 70
     1
102
RTVSPropertyOp45
 70
     1
102
RTVSPropertyOp46
 70
     1
102
RTVSPropertyOp47
 70
     1
102
RTVSPropertyOp48
 70
     1
102
RTVSPropertyOp49
 70
     1
102
RTVSPropertyOp50
 70
     1
102
RTVSPropertyOp51
 70
     0
102
RTVSPropertyOp52
 70
     0
102
RTVSPropertyOp53
 70
     1
102
RTVSPropertyOp54
 70
     1
102
RTVSPropertyOp55
 70
     1
102
RTVSPropertyOp56
 70
     1
102
RTVSPropertyOp57
 70
     1
102
RTVSPropertyOp58
 70
     1
102
RTVSPropertyOp59
 70
     1
102
RTVSPropertyOp60
 70
     1
102
RTVSPropertyOp61
 70
     1
102
RTVSPropertyOp62
 70
     1
  0
XRECORD
  5
61E
102
{ACAD_REACTORS
330
61D
102
}
330
61D
100
AcDbXrecord
280
     1
102
RTVSPost2010Prop28
280
     0
102
RTVSPost2010PropOp28
 70
     1
102
RTVSPost2010Prop29
280
     1
102
RTVSPost2010PropOp29
 70
     1
102
RTVSPost2010Prop30
280
     1
102
RTVSPost2010PropOp30
 70
     1
102
RTVSPost2010Prop31
280
     0
102
RTVSPost2010PropOp31
 70
     1
102
RTVSPost2010Prop32
280
     0
102
RTVSPost2010PropOp32
 70
     1
102
RTVSPost2010Prop33
280
     0
102
RTVSPost2010PropOp33
 70
     1
102
RTVSPost2010Prop34
280
     0
102
RTVSPost2010PropOp34
 70
     1
102
RTVSPost2010Prop35
280
     0
102
RTVSPost2010PropOp35
 70
     1
102
RTVSPost2010Prop36
280
     0
102
RTVSPost2010PropOp36
 70
     1
102
RTVSPost2010Prop37
 90
       50
102
RTVSPost2010PropOp37
 70
     1
102
RTVSPost2010Prop38
140
0.0
102
RTVSPost2010PropOp38
 70
     1
102
RTVSPost2010Prop39
140
1.0
102
RTVSPost2010PropOp39
 70
     1
102
RTVSPost2010Prop40
 90
        0
102
RTVSPost2010PropOp40
 70
     1
102
RTVSPost2010Prop41ColorIndex
 90
       18
102
RTVSPost2010Prop41ColorRGB
 90
        0
102
RTVSPost2010PropOp41
 70
     1
102
RTVSPost2010Prop42
 90
       50
102
RTVSPost2010PropOp42
 70
     1
102
RTVSPost2010Prop43
 90
        3
102
RTVSPost2010PropOp43
 70
     1
102
RTVSPost2010Prop44ColorIndex
 90
        5
102
RTVSPost2010Prop44ColorRGB
 90
      255
102
RTVSPost2010PropOp44
 70
     1
102
RTVSPost2010Prop45
280
     0
102
RTVSPost2010PropOp45
 70
     1
102
RTVSPost2010Prop46
 90
       50
102
RTVSPost2010PropOp46
 70
     1
102
RTVSPost2010Prop47
 90
       50
102
RTVSPost2010PropOp47
 70
     1
102
RTVSPost2010Prop48
 90
       50
102
RTVSPost2010PropOp48
 70
     1
102
RTVSPost2010Prop49
280
     0
102
RTVSPost2010PropOp49
 70
     1
102
RTVSPost2010Prop50
 90
       50
102
RTVSPost2010PropOp50
 70
     1
102
RTVSPost2010Prop51ColorIndex
 90
      256
102
RTVSPost2010Prop51ColorRGB
 90
-16777216
102
RTVSPost2010PropOp51
 70
     0
102
RTVSPost2010Prop52
140
1.0
102
RTVSPost2010PropOp52
 70
     0
102
RTVSPost2010Prop53
 90
        2
102
RTVSPost2010PropOp53
 70
     1
102
RTVSPost2010Prop54
  1
strokes_ogs.tif
102
RTVSPost2010PropOp54
 70
     1
102
RTVSPost2010Prop55
280
     0
102
RTVSPost2010PropOp55
 70
     1
102
RTVSPost2010Prop56
140
1.0
102
RTVSPost2010PropOp56
 70
     1
102
RTVSPost2010Prop57
140
1.0
102
RTVSPost2010PropOp57
 70
     1
102
RTVSPropertyOp0
 70
     1
102
RTVSPropertyOp1
 70
     1
102
RTVSPropertyOp2
 70
     1
102
RTVSPropertyOp3
 70
     1
102
RTVSPropertyOp4
 70
     1
102
RTVSPropertyOp5
 70
     1
102
RTVSPropertyOp6
 70
     1
102
RTVSPropertyOp7
 70
     1
102
RTVSPropertyOp8
 70
     1
102
RTVSPropertyOp9
 70
     1
102
RTVSPropertyOp10
 70
     1
102
RTVSPropertyOp11
 70
     1
102
RTVSPropertyOp12
 70
     1
102
RTVSPropertyOp13
 70
     1
102
RTVSPropertyOp14
 70
     1
102
RTVSPropertyOp15
 70
     1
102
RTVSPropertyOp16
 70
     1
102
RTVSPropertyOp17
 70
     1
102
RTVSPropertyOp18
 70
     1
102
RTVSPropertyOp19
 70
     1
102
RTVSPropertyOp20
 70
     1
102
RTVSPropertyOp21
 70
     1
102
RTVSPropertyOp22
 70
     1
102
RTVSPropertyOp23
 70
     1
102
RTVSPropertyOp24
 70
     1
102
RTVSPropertyOp25
 70
     1
102
RTVSPropertyOp26
 70
     1
102
RTVSPropertyOp27
 70
     1
102
RTVSPropertyOp28
 70
     1
102
RTVSPropertyOp29
 70
     1
102
RTVSPropertyOp30
 70
     1
102
RTVSPropertyOp31
 70
     1
102
RTVSPropertyOp32
 70
     1
102
RTVSPropertyOp33
 70
     1
102
RTVSPropertyOp34
 70
     1
102
RTVSPropertyOp35
 70
     1
102
RTVSPropertyOp36
 70
     1
102
RTVSPropertyOp37
 70
     1
102
RTVSPropertyOp38
 70
     1
102
RTVSPropertyOp39
 70
     1
102
RTVSPropertyOp40
 70
     1
102
RTVSPropertyOp41
 70
     1
102
RTVSPropertyOp42
 70
     1
102
RTVSPropertyOp43
 70
     1
102
RTVSPropertyOp44
 70
     1
102
RTVSPropertyOp45
 70
     1
102
RTVSPropertyOp46
 70
     1
102
RTVSPropertyOp47
 70
     1
102
RTVSPropertyOp48
 70
     1
102
RTVSPropertyOp49
 70
     1
102
RTVSPropertyOp50
 70
     1
102
RTVSPropertyOp51
 70
     0
102
RTVSPropertyOp52
 70
     0
102
RTVSPropertyOp53
 70
     1
102
RTVSPropertyOp54
 70
     1
102
RTVSPropertyOp55
 70
     1
102
RTVSPropertyOp56
 70
     1
102
RTVSPropertyOp57
 70
     1
102
RTVSPropertyOp58
 70
     1
102
RTVSPropertyOp59
 70
     1
102
RTVSPropertyOp60
 70
     1
102
RTVSPropertyOp61
 70
     1
102
RTVSPropertyOp62
 70
     1
  0
XRECORD
  5
620
102
{ACAD_REACTORS
330
61F
102
}
330
61F
100
AcDbXrecord
280
     1
102
RTVSPost2010Prop28
280
     0
102
RTVSPost2010PropOp28
 70
     1
102
RTVSPost2010Prop29
280
     1
102
RTVSPost2010PropOp29
 70
     1
102
RTVSPost2010Prop30
280
     1
102
RTVSPost2010PropOp30
 70
     1
102
RTVSPost2010Prop31
280
     0
102
RTVSPost2010PropOp31
 70
     1
102
RTVSPost2010Prop32
280
     0
102
RTVSPost2010PropOp32
 70
     1
102
RTVSPost2010Prop33
280
     0
102
RTVSPost2010PropOp33
 70
     1
102
RTVSPost2010Prop34
280
     0
102
RTVSPost2010PropOp34
 70
     1
102
RTVSPost2010Prop35
280
     0
102
RTVSPost2010PropOp35
 70
     1
102
RTVSPost2010Prop36
280
     0
102
RTVSPost2010PropOp36
 70
     1
102
RTVSPost2010Prop37
 90
       50
102
RTVSPost2010PropOp37
 70
     1
102
RTVSPost2010Prop38
140
0.0
102
RTVSPost2010PropOp38
 70
     1
102
RTVSPost2010Prop39
140
1.0
102
RTVSPost2010PropOp39
 70
     1
102
RTVSPost2010Prop40
 90
        0
102
RTVSPost2010PropOp40
 70
     1
102
RTVSPost2010Prop41ColorIndex
 90
       18
102
RTVSPost2010Prop41ColorRGB
 90
        0
102
RTVSPost2010PropOp41
 70
     1
102
RTVSPost2010Prop42
 90
       50
102
RTVSPost2010PropOp42
 70
     1
102
RTVSPost2010Prop43
 90
        3
102
RTVSPost2010PropOp43
 70
     1
102
RTVSPost2010Prop44ColorIndex
 90
        5
102
RTVSPost2010Prop44ColorRGB
 90
      255
102
RTVSPost2010PropOp44
 70
     1
102
RTVSPost2010Prop45
280
     0
102
RTVSPost2010PropOp45
 70
     1
102
RTVSPost2010Prop46
 90
       50
102
RTVSPost2010PropOp46
 70
     1
102
RTVSPost2010Prop47
 90
       50
102
RTVSPost2010PropOp47
 70
     1
102
RTVSPost2010Prop48
 90
       50
102
RTVSPost2010PropOp48
 70
     1
102
RTVSPost2010Prop49
280
     0
102
RTVSPost2010PropOp49
 70
     1
102
RTVSPost2010Prop50
 90
       50
102
RTVSPost2010PropOp50
 70
     1
102
RTVSPost2010Prop51ColorIndex
 90
      256
102
RTVSPost2010Prop51ColorRGB
 90
-16777216
102
RTVSPost2010PropOp51
 70
     0
102
RTVSPost2010Prop52
140
1.0
102
RTVSPost2010PropOp52
 70
     0
102
RTVSPost2010Prop53
 90
        2
102
RTVSPost2010PropOp53
 70
     1
102
RTVSPost2010Prop54
  1
strokes_ogs.tif
102
RTVSPost2010PropOp54
 70
     1
102
RTVSPost2010Prop55
280
     0
102
RTVSPost2010PropOp55
 70
     1
102
RTVSPost2010Prop56
140
1.0
102
RTVSPost2010PropOp56
 70
     1
102
RTVSPost2010Prop57
140
1.0
102
RTVSPost2010PropOp57
 70
     1
102
RTVSPropertyOp0
 70
     1
102
RTVSPropertyOp1
 70
     1
102
RTVSPropertyOp2
 70
     1
102
RTVSPropertyOp3
 70
     1
102
RTVSPropertyOp4
 70
     1
102
RTVSPropertyOp5
 70
     1
102
RTVSPropertyOp6
 70
     1
102
RTVSPropertyOp7
 70
     1
102
RTVSPropertyOp8
 70
     1
102
RTVSPropertyOp9
 70
     1
102
RTVSPropertyOp10
 70
     1
102
RTVSPropertyOp11
 70
     1
102
RTVSPropertyOp12
 70
     1
102
RTVSPropertyOp13
 70
     1
102
RTVSPropertyOp14
 70
     1
102
RTVSPropertyOp15
 70
     1
102
RTVSPropertyOp16
 70
     1
102
RTVSPropertyOp17
 70
     1
102
RTVSPropertyOp18
 70
     1
102
RTVSPropertyOp19
 70
     1
102
RTVSPropertyOp20
 70
     1
102
RTVSPropertyOp21
 70
     1
102
RTVSPropertyOp22
 70
     1
102
RTVSPropertyOp23
 70
     1
102
RTVSPropertyOp24
 70
     1
102
RTVSPropertyOp25
 70
     1
102
RTVSPropertyOp26
 70
     1
102
RTVSPropertyOp27
 70
     1
102
RTVSPropertyOp28
 70
     1
102
RTVSPropertyOp29
 70
     1
102
RTVSPropertyOp30
 70
     1
102
RTVSPropertyOp31
 70
     1
102
RTVSPropertyOp32
 70
     1
102
RTVSPropertyOp33
 70
     1
102
RTVSPropertyOp34
 70
     1
102
RTVSPropertyOp35
 70
     1
102
RTVSPropertyOp36
 70
     1
102
RTVSPropertyOp37
 70
     1
102
RTVSPropertyOp38
 70
     1
102
RTVSPropertyOp39
 70
     1
102
RTVSPropertyOp40
 70
     1
102
RTVSPropertyOp41
 70
     1
102
RTVSPropertyOp42
 70
     1
102
RTVSPropertyOp43
 70
     1
102
RTVSPropertyOp44
 70
     1
102
RTVSPropertyOp45
 70
     1
102
RTVSPropertyOp46
 70
     1
102
RTVSPropertyOp47
 70
     1
102
RTVSPropertyOp48
 70
     1
102
RTVSPropertyOp49
 70
     1
102
RTVSPropertyOp50
 70
     1
102
RTVSPropertyOp51
 70
     0
102
RTVSPropertyOp52
 70
     0
102
RTVSPropertyOp53
 70
     1
102
RTVSPropertyOp54
 70
     1
102
RTVSPropertyOp55
 70
     1
102
RTVSPropertyOp56
 70
     1
102
RTVSPropertyOp57
 70
     1
102
RTVSPropertyOp58
 70
     1
102
RTVSPropertyOp59
 70
     1
102
RTVSPropertyOp60
 70
     1
102
RTVSPropertyOp61
 70
     1
102
RTVSPropertyOp62
 70
     1
  0
XRECORD
  5
622
102
{ACAD_REACTORS
330
621
102
}
330
621
100
AcDbXrecord
280
     1
102
RTVSPost2010Prop28
280
     0
102
RTVSPost2010PropOp28
 70
     1
102
RTVSPost2010Prop29
280
     1
102
RTVSPost2010PropOp29
 70
     1
102
RTVSPost2010Prop30
280
     1
102
RTVSPost2010PropOp30
 70
     1
102
RTVSPost2010Prop31
280
     0
102
RTVSPost2010PropOp31
 70
     1
102
RTVSPost2010Prop32
280
     0
102
RTVSPost2010PropOp32
 70
     1
102
RTVSPost2010Prop33
280
     0
102
RTVSPost2010PropOp33
 70
     1
102
RTVSPost2010Prop34
280
     0
102
RTVSPost2010PropOp34
 70
     1
102
RTVSPost2010Prop35
280
     0
102
RTVSPost2010PropOp35
 70
     1
102
RTVSPost2010Prop36
280
     0
102
RTVSPost2010PropOp36
 70
     1
102
RTVSPost2010Prop37
 90
       50
102
RTVSPost2010PropOp37
 70
     1
102
RTVSPost2010Prop38
140
0.0
102
RTVSPost2010PropOp38
 70
     1
102
RTVSPost2010Prop39
140
1.0
102
RTVSPost2010PropOp39
 70
     1
102
RTVSPost2010Prop40
 90
        0
102
RTVSPost2010PropOp40
 70
     1
102
RTVSPost2010Prop41ColorIndex
 90
       18
102
RTVSPost2010Prop41ColorRGB
 90
        0
102
RTVSPost2010PropOp41
 70
     1
102
RTVSPost2010Prop42
 90
       50
102
RTVSPost2010PropOp42
 70
     1
102
RTVSPost2010Prop43
 90
        3
102
RTVSPost2010PropOp43
 70
     1
102
RTVSPost2010Prop44ColorIndex
 90
        5
102
RTVSPost2010Prop44ColorRGB
 90
      255
102
RTVSPost2010PropOp44
 70
     1
102
RTVSPost2010Prop45
280
     0
102
RTVSPost2010PropOp45
 70
     1
102
RTVSPost2010Prop46
 90
       50
102
RTVSPost2010PropOp46
 70
     1
102
RTVSPost2010Prop47
 90
       50
102
RTVSPost2010PropOp47
 70
     1
102
RTVSPost2010Prop48
 90
       50
102
RTVSPost2010PropOp48
 70
     1
102
RTVSPost2010Prop49
280
     0
102
RTVSPost2010PropOp49
 70
     1
102
RTVSPost2010Prop50
 90
       50
102
RTVSPost2010PropOp50
 70
     1
102
RTVSPost2010Prop51ColorIndex
 90
      256
102
RTVSPost2010Prop51ColorRGB
 90
-16777216
102
RTVSPost2010PropOp51
 70
     0
102
RTVSPost2010Prop52
140
1.0
102
RTVSPost2010PropOp52
 70
     0
102
RTVSPost2010Prop53
 90
        2
102
RTVSPost2010PropOp53
 70
     1
102
RTVSPost2010Prop54
  1
strokes_ogs.tif
102
RTVSPost2010PropOp54
 70
     1
102
RTVSPost2010Prop55
280
     0
102
RTVSPost2010PropOp55
 70
     1
102
RTVSPost2010Prop56
140
1.0
102
RTVSPost2010PropOp56
 70
     1
102
RTVSPost2010Prop57
140
1.0
102
RTVSPost2010PropOp57
 70
     1
102
RTVSPropertyOp0
 70
     1
102
RTVSPropertyOp1
 70
     1
102
RTVSPropertyOp2
 70
     1
102
RTVSPropertyOp3
 70
     1
102
RTVSPropertyOp4
 70
     1
102
RTVSPropertyOp5
 70
     1
102
RTVSPropertyOp6
 70
     1
102
RTVSPropertyOp7
 70
     1
102
RTVSPropertyOp8
 70
     1
102
RTVSPropertyOp9
 70
     1
102
RTVSPropertyOp10
 70
     1
102
RTVSPropertyOp11
 70
     1
102
RTVSPropertyOp12
 70
     1
102
RTVSPropertyOp13
 70
     1
102
RTVSPropertyOp14
 70
     1
102
RTVSPropertyOp15
 70
     1
102
RTVSPropertyOp16
 70
     1
102
RTVSPropertyOp17
 70
     1
102
RTVSPropertyOp18
 70
     1
102
RTVSPropertyOp19
 70
     1
102
RTVSPropertyOp20
 70
     1
102
RTVSPropertyOp21
 70
     1
102
RTVSPropertyOp22
 70
     1
102
RTVSPropertyOp23
 70
     1
102
RTVSPropertyOp24
 70
     1
102
RTVSPropertyOp25
 70
     1
102
RTVSPropertyOp26
 70
     1
102
RTVSPropertyOp27
 70
     1
102
RTVSPropertyOp28
 70
     1
102
RTVSPropertyOp29
 70
     1
102
RTVSPropertyOp30
 70
     1
102
RTVSPropertyOp31
 70
     1
102
RTVSPropertyOp32
 70
     1
102
RTVSPropertyOp33
 70
     1
102
RTVSPropertyOp34
 70
     1
102
RTVSPropertyOp35
 70
     1
102
RTVSPropertyOp36
 70
     1
102
RTVSPropertyOp37
 70
     1
102
RTVSPropertyOp38
 70
     1
102
RTVSPropertyOp39
 70
     1
102
RTVSPropertyOp40
 70
     1
102
RTVSPropertyOp41
 70
     1
102
RTVSPropertyOp42
 70
     1
102
RTVSPropertyOp43
 70
     1
102
RTVSPropertyOp44
 70
     1
102
RTVSPropertyOp45
 70
     1
102
RTVSPropertyOp46
 70
     1
102
RTVSPropertyOp47
 70
     1
102
RTVSPropertyOp48
 70
     1
102
RTVSPropertyOp49
 70
     1
102
RTVSPropertyOp50
 70
     1
102
RTVSPropertyOp51
 70
     0
102
RTVSPropertyOp52
 70
     0
102
RTVSPropertyOp53
 70
     1
102
RTVSPropertyOp54
 70
     1
102
RTVSPropertyOp55
 70
     1
102
RTVSPropertyOp56
 70
     1
102
RTVSPropertyOp57
 70
     1
102
RTVSPropertyOp58
 70
     1
102
RTVSPropertyOp59
 70
     1
102
RTVSPropertyOp60
 70
     1
102
RTVSPropertyOp61
 70
     1
102
RTVSPropertyOp62
 70
     1
  0
XRECORD
  5
624
102
{ACAD_REACTORS
330
623
102
}
330
623
100
AcDbXrecord
280
     1
102
RTVSPost2010Prop28
280
     0
102
RTVSPost2010PropOp28
 70
     1
102
RTVSPost2010Prop29
280
     1
102
RTVSPost2010PropOp29
 70
     1
102
RTVSPost2010Prop30
280
     1
102
RTVSPost2010PropOp30
 70
     1
102
RTVSPost2010Prop31
280
     0
102
RTVSPost2010PropOp31
 70
     1
102
RTVSPost2010Prop32
280
     0
102
RTVSPost2010PropOp32
 70
     1
102
RTVSPost2010Prop33
280
     0
102
RTVSPost2010PropOp33
 70
     1
102
RTVSPost2010Prop34
280
     0
102
RTVSPost2010PropOp34
 70
     1
102
RTVSPost2010Prop35
280
     0
102
RTVSPost2010PropOp35
 70
     1
102
RTVSPost2010Prop36
280
     0
102
RTVSPost2010PropOp36
 70
     1
102
RTVSPost2010Prop37
 90
       50
102
RTVSPost2010PropOp37
 70
     1
102
RTVSPost2010Prop38
140
0.0
102
RTVSPost2010PropOp38
 70
     1
102
RTVSPost2010Prop39
140
1.0
102
RTVSPost2010PropOp39
 70
     1
102
RTVSPost2010Prop40
 90
        0
102
RTVSPost2010PropOp40
 70
     1
102
RTVSPost2010Prop41ColorIndex
 90
       18
102
RTVSPost2010Prop41ColorRGB
 90
        0
102
RTVSPost2010PropOp41
 70
     1
102
RTVSPost2010Prop42
 90
       50
102
RTVSPost2010PropOp42
 70
     1
102
RTVSPost2010Prop43
 90
        3
102
RTVSPost2010PropOp43
 70
     1
102
RTVSPost2010Prop44ColorIndex
 90
        5
102
RTVSPost2010Prop44ColorRGB
 90
      255
102
RTVSPost2010PropOp44
 70
     1
102
RTVSPost2010Prop45
280
     0
102
RTVSPost2010PropOp45
 70
     1
102
RTVSPost2010Prop46
 90
       50
102
RTVSPost2010PropOp46
 70
     1
102
RTVSPost2010Prop47
 90
       50
102
RTVSPost2010PropOp47
 70
     1
102
RTVSPost2010Prop48
 90
       50
102
RTVSPost2010PropOp48
 70
     1
102
RTVSPost2010Prop49
280
     0
102
RTVSPost2010PropOp49
 70
     1
102
RTVSPost2010Prop50
 90
       50
102
RTVSPost2010PropOp50
 70
     1
102
RTVSPost2010Prop51ColorIndex
 90
      256
102
RTVSPost2010Prop51ColorRGB
 90
-16777216
102
RTVSPost2010PropOp51
 70
     0
102
RTVSPost2010Prop52
140
1.0
102
RTVSPost2010PropOp52
 70
     0
102
RTVSPost2010Prop53
 90
        2
102
RTVSPost2010PropOp53
 70
     1
102
RTVSPost2010Prop54
  1
strokes_ogs.tif
102
RTVSPost2010PropOp54
 70
     1
102
RTVSPost2010Prop55
280
     0
102
RTVSPost2010PropOp55
 70
     1
102
RTVSPost2010Prop56
140
1.0
102
RTVSPost2010PropOp56
 70
     1
102
RTVSPost2010Prop57
140
1.0
102
RTVSPost2010PropOp57
 70
     1
102
RTVSPropertyOp0
 70
     1
102
RTVSPropertyOp1
 70
     1
102
RTVSPropertyOp2
 70
     1
102
RTVSPropertyOp3
 70
     1
102
RTVSPropertyOp4
 70
     1
102
RTVSPropertyOp5
 70
     1
102
RTVSPropertyOp6
 70
     1
102
RTVSPropertyOp7
 70
     1
102
RTVSPropertyOp8
 70
     1
102
RTVSPropertyOp9
 70
     1
102
RTVSPropertyOp10
 70
     1
102
RTVSPropertyOp11
 70
     1
102
RTVSPropertyOp12
 70
     1
102
RTVSPropertyOp13
 70
     1
102
RTVSPropertyOp14
 70
     1
102
RTVSPropertyOp15
 70
     1
102
RTVSPropertyOp16
 70
     1
102
RTVSPropertyOp17
 70
     1
102
RTVSPropertyOp18
 70
     1
102
RTVSPropertyOp19
 70
     1
102
RTVSPropertyOp20
 70
     1
102
RTVSPropertyOp21
 70
     1
102
RTVSPropertyOp22
 70
     1
102
RTVSPropertyOp23
 70
     1
102
RTVSPropertyOp24
 70
     1
102
RTVSPropertyOp25
 70
     1
102
RTVSPropertyOp26
 70
     1
102
RTVSPropertyOp27
 70
     1
102
RTVSPropertyOp28
 70
     1
102
RTVSPropertyOp29
 70
     1
102
RTVSPropertyOp30
 70
     1
102
RTVSPropertyOp31
 70
     1
102
RTVSPropertyOp32
 70
     1
102
RTVSPropertyOp33
 70
     1
102
RTVSPropertyOp34
 70
     1
102
RTVSPropertyOp35
 70
     1
102
RTVSPropertyOp36
 70
     1
102
RTVSPropertyOp37
 70
     1
102
RTVSPropertyOp38
 70
     1
102
RTVSPropertyOp39
 70
     1
102
RTVSPropertyOp40
 70
     1
102
RTVSPropertyOp41
 70
     1
102
RTVSPropertyOp42
 70
     1
102
RTVSPropertyOp43
 70
     1
102
RTVSPropertyOp44
 70
     1
102
RTVSPropertyOp45
 70
     1
102
RTVSPropertyOp46
 70
     1
102
RTVSPropertyOp47
 70
     1
102
RTVSPropertyOp48
 70
     1
102
RTVSPropertyOp49
 70
     1
102
RTVSPropertyOp50
 70
     1
102
RTVSPropertyOp51
 70
     0
102
RTVSPropertyOp52
 70
     0
102
RTVSPropertyOp53
 70
     1
102
RTVSPropertyOp54
 70
     1
102
RTVSPropertyOp55
 70
     1
102
RTVSPropertyOp56
 70
     1
102
RTVSPropertyOp57
 70
     1
102
RTVSPropertyOp58
 70
     1
102
RTVSPropertyOp59
 70
     1
102
RTVSPropertyOp60
 70
     1
102
RTVSPropertyOp61
 70
     1
102
RTVSPropertyOp62
 70
     1
  0
XRECORD
  5
62C
102
{ACAD_REACTORS
330
62B
102
}
330
62B
100
AcDbXrecord
280
     1
102
RTVSPost2010Prop28
280
     0
102
RTVSPost2010PropOp28
 70
     1
102
RTVSPost2010Prop29
280
     1
102
RTVSPost2010PropOp29
 70
     1
102
RTVSPost2010Prop30
280
     1
102
RTVSPost2010PropOp30
 70
     1
102
RTVSPost2010Prop31
280
     0
102
RTVSPost2010PropOp31
 70
     1
102
RTVSPost2010Prop32
280
     0
102
RTVSPost2010PropOp32
 70
     1
102
RTVSPost2010Prop33
280
     0
102
RTVSPost2010PropOp33
 70
     1
102
RTVSPost2010Prop34
280
     0
102
RTVSPost2010PropOp34
 70
     1
102
RTVSPost2010Prop35
280
     0
102
RTVSPost2010PropOp35
 70
     1
102
RTVSPost2010Prop36
280
     0
102
RTVSPost2010PropOp36
 70
     1
102
RTVSPost2010Prop37
 90
       50
102
RTVSPost2010PropOp37
 70
     1
102
RTVSPost2010Prop38
140
0.0
102
RTVSPost2010PropOp38
 70
     1
102
RTVSPost2010Prop39
140
1.0
102
RTVSPost2010PropOp39
 70
     1
102
RTVSPost2010Prop40
 90
        0
102
RTVSPost2010PropOp40
 70
     1
102
RTVSPost2010Prop41ColorIndex
 90
       18
102
RTVSPost2010Prop41ColorRGB
 90
        0
102
RTVSPost2010PropOp41
 70
     1
102
RTVSPost2010Prop42
 90
       50
102
RTVSPost2010PropOp42
 70
     1
102
RTVSPost2010Prop43
 90
        3
102
RTVSPost2010PropOp43
 70
     1
102
RTVSPost2010Prop44ColorIndex
 90
        5
102
RTVSPost2010Prop44ColorRGB
 90
      255
102
RTVSPost2010PropOp44
 70
     1
102
RTVSPost2010Prop45
280
     0
102
RTVSPost2010PropOp45
 70
     1
102
RTVSPost2010Prop46
 90
       50
102
RTVSPost2010PropOp46
 70
     1
102
RTVSPost2010Prop47
 90
       50
102
RTVSPost2010PropOp47
 70
     1
102
RTVSPost2010Prop48
 90
       50
102
RTVSPost2010PropOp48
 70
     1
102
RTVSPost2010Prop49
280
     0
102
RTVSPost2010PropOp49
 70
     1
102
RTVSPost2010Prop50
 90
       50
102
RTVSPost2010PropOp50
 70
     1
102
RTVSPost2010Prop51ColorIndex
 90
      256
102
RTVSPost2010Prop51ColorRGB
 90
-16777216
102
RTVSPost2010PropOp51
 70
     0
102
RTVSPost2010Prop52
140
1.0
102
RTVSPost2010PropOp52
 70
     0
102
RTVSPost2010Prop53
 90
        2
102
RTVSPost2010PropOp53
 70
     1
102
RTVSPost2010Prop54
  1
strokes_ogs.tif
102
RTVSPost2010PropOp54
 70
     1
102
RTVSPost2010Prop55
280
     0
102
RTVSPost2010PropOp55
 70
     1
102
RTVSPost2010Prop56
140
1.0
102
RTVSPost2010PropOp56
 70
     1
102
RTVSPost2010Prop57
140
1.0
102
RTVSPost2010PropOp57
 70
     1
102
RTVSPropertyOp0
 70
     1
102
RTVSPropertyOp1
 70
     1
102
RTVSPropertyOp2
 70
     1
102
RTVSPropertyOp3
 70
     1
102
RTVSPropertyOp4
 70
     1
102
RTVSPropertyOp5
 70
     1
102
RTVSPropertyOp6
 70
     1
102
RTVSPropertyOp7
 70
     1
102
RTVSPropertyOp8
 70
     1
102
RTVSPropertyOp9
 70
     1
102
RTVSPropertyOp10
 70
     1
102
RTVSPropertyOp11
 70
     1
102
RTVSPropertyOp12
 70
     1
102
RTVSPropertyOp13
 70
     1
102
RTVSPropertyOp14
 70
     1
102
RTVSPropertyOp15
 70
     1
102
RTVSPropertyOp16
 70
     1
102
RTVSPropertyOp17
 70
     1
102
RTVSPropertyOp18
 70
     1
102
RTVSPropertyOp19
 70
     1
102
RTVSPropertyOp20
 70
     1
102
RTVSPropertyOp21
 70
     1
102
RTVSPropertyOp22
 70
     1
102
RTVSPropertyOp23
 70
     1
102
RTVSPropertyOp24
 70
     1
102
RTVSPropertyOp25
 70
     1
102
RTVSPropertyOp26
 70
     1
102
RTVSPropertyOp27
 70
     1
102
RTVSPropertyOp28
 70
     1
102
RTVSPropertyOp29
 70
     1
102
RTVSPropertyOp30
 70
     1
102
RTVSPropertyOp31
 70
     1
102
RTVSPropertyOp32
 70
     1
102
RTVSPropertyOp33
 70
     1
102
RTVSPropertyOp34
 70
     1
102
RTVSPropertyOp35
 70
     1
102
RTVSPropertyOp36
 70
     1
102
RTVSPropertyOp37
 70
     1
102
RTVSPropertyOp38
 70
     1
102
RTVSPropertyOp39
 70
     1
102
RTVSPropertyOp40
 70
     1
102
RTVSPropertyOp41
 70
     1
102
RTVSPropertyOp42
 70
     1
102
RTVSPropertyOp43
 70
     1
102
RTVSPropertyOp44
 70
     1
102
RTVSPropertyOp45
 70
     1
102
RTVSPropertyOp46
 70
     1
102
RTVSPropertyOp47
 70
     1
102
RTVSPropertyOp48
 70
     1
102
RTVSPropertyOp49
 70
     1
102
RTVSPropertyOp50
 70
     1
102
RTVSPropertyOp51
 70
     0
102
RTVSPropertyOp52
 70
     0
102
RTVSPropertyOp53
 70
     1
102
RTVSPropertyOp54
 70
     1
102
RTVSPropertyOp55
 70
     1
102
RTVSPropertyOp56
 70
     1
102
RTVSPropertyOp57
 70
     1
102
RTVSPropertyOp58
 70
     1
102
RTVSPropertyOp59
 70
     1
102
RTVSPropertyOp60
 70
     1
102
RTVSPropertyOp61
 70
     1
102
RTVSPropertyOp62
 70
     1
  0
XRECORD
  5
648
102
{ACAD_REACTORS
330
647
102
}
330
647
100
AcDbXrecord
280
     1
102
RTVSPost2010Prop28
280
     0
102
RTVSPost2010PropOp28
 70
     1
102
RTVSPost2010Prop29
280
     1
102
RTVSPost2010PropOp29
 70
     1
102
RTVSPost2010Prop30
280
     1
102
RTVSPost2010PropOp30
 70
     1
102
RTVSPost2010Prop31
280
     0
102
RTVSPost2010PropOp31
 70
     1
102
RTVSPost2010Prop32
280
     0
102
RTVSPost2010PropOp32
 70
     1
102
RTVSPost2010Prop33
280
     0
102
RTVSPost2010PropOp33
 70
     1
102
RTVSPost2010Prop34
280
     0
102
RTVSPost2010PropOp34
 70
     1
102
RTVSPost2010Prop35
280
     0
102
RTVSPost2010PropOp35
 70
     1
102
RTVSPost2010Prop36
280
     0
102
RTVSPost2010PropOp36
 70
     1
102
RTVSPost2010Prop37
 90
       50
102
RTVSPost2010PropOp37
 70
     0
102
RTVSPost2010Prop38
140
0.0
102
RTVSPost2010PropOp38
 70
     0
102
RTVSPost2010Prop39
140
1.0
102
RTVSPost2010PropOp39
 70
     0
102
RTVSPost2010Prop40
 90
        0
102
RTVSPost2010PropOp40
 70
     0
102
RTVSPost2010Prop41ColorIndex
 90
       18
102
RTVSPost2010Prop41ColorRGB
 90
        0
102
RTVSPost2010PropOp41
 70
     0
102
RTVSPost2010Prop42
 90
       50
102
RTVSPost2010PropOp42
 70
     0
102
RTVSPost2010Prop43
 90
        3
102
RTVSPost2010PropOp43
 70
     0
102
RTVSPost2010Prop44ColorIndex
 90
        5
102
RTVSPost2010Prop44ColorRGB
 90
      255
102
RTVSPost2010PropOp44
 70
     0
102
RTVSPost2010Prop45
280
     0
102
RTVSPost2010PropOp45
 70
     1
102
RTVSPost2010Prop46
 90
       50
102
RTVSPost2010PropOp46
 70
     0
102
RTVSPost2010Prop47
 90
       50
102
RTVSPost2010PropOp47
 70
     0
102
RTVSPost2010Prop48
 90
       50
102
RTVSPost2010PropOp48
 70
     0
102
RTVSPost2010Prop49
280
     0
102
RTVSPost2010PropOp49
 70
     1
102
RTVSPost2010Prop50
 90
       50
102
RTVSPost2010PropOp50
 70
     0
102
RTVSPost2010Prop51ColorIndex
 90
      256
102
RTVSPost2010Prop51ColorRGB
 90
-16777216
102
RTVSPost2010PropOp51
 70
     0
102
RTVSPost2010Prop52
140
1.0
102
RTVSPost2010PropOp52
 70
     0
102
RTVSPost2010Prop53
 90
        2
102
RTVSPost2010PropOp53
 70
     0
102
RTVSPost2010Prop54
  1
strokes_ogs.tif
102
RTVSPost2010PropOp54
 70
     0
102
RTVSPost2010Prop55
280
     0
102
RTVSPost2010PropOp55
 70
     1
102
RTVSPost2010Prop56
140
1.0
102
RTVSPost2010PropOp56
 70
     0
102
RTVSPost2010Prop57
140
1.0
102
RTVSPost2010PropOp57
 70
     0
102
RTVSPropertyOp0
 70
     0
102
RTVSPropertyOp1
 70
     0
102
RTVSPropertyOp2
 70
     0
102
RTVSPropertyOp3
 70
     0
102
RTVSPropertyOp4
 70
     0
102
RTVSPropertyOp5
 70
     0
102
RTVSPropertyOp6
 70
     0
102
RTVSPropertyOp7
 70
     0
102
RTVSPropertyOp8
 70
     0
102
RTVSPropertyOp9
 70
     0
102
RTVSPropertyOp10
 70
     0
102
RTVSPropertyOp11
 70
     0
102
RTVSPropertyOp12
 70
     0
102
RTVSPropertyOp13
 70
     0
102
RTVSPropertyOp14
 70
     2
102
RTVSPropertyOp15
 70
     0
102
RTVSPropertyOp16
 70
     0
102
RTVSPropertyOp17
 70
     0
102
RTVSPropertyOp18
 70
     0
102
RTVSPropertyOp19
 70
     0
102
RTVSPropertyOp20
 70
     0
102
RTVSPropertyOp21
 70
     0
102
RTVSPropertyOp22
 70
     0
102
RTVSPropertyOp23
 70
     0
102
RTVSPropertyOp24
 70
     0
102
RTVSPropertyOp25
 70
     0
102
RTVSPropertyOp26
 70
     0
102
RTVSPropertyOp27
 70
     0
102
RTVSPropertyOp28
 70
     1
102
RTVSPropertyOp29
 70
     1
102
RTVSPropertyOp30
 70
     1
102
RTVSPropertyOp31
 70
     1
102
RTVSPropertyOp32
 70
     1
102
RTVSPropertyOp33
 70
     1
102
RTVSPropertyOp34
 70
     1
102
RTVSPropertyOp35
 70
     1
102
RTVSPropertyOp36
 70
     1
102
RTVSPropertyOp37
 70
     0
102
RTVSPropertyOp38
 70
     0
102
RTVSPropertyOp39
 70
     0
102
RTVSPropertyOp40
 70
     0
102
RTVSPropertyOp41
 70
     0
102
RTVSPropertyOp42
 70
     0
102
RTVSPropertyOp43
 70
     0
102
RTVSPropertyOp44
 70
     0
102
RTVSPropertyOp45
 70
     1
102
RTVSPropertyOp46
 70
     0
102
RTVSPropertyOp47
 70
     0
102
RTVSPropertyOp48
 70
     0
102
RTVSPropertyOp49
 70
     1
102
RTVSPropertyOp50
 70
     0
102
RTVSPropertyOp51
 70
     0
102
RTVSPropertyOp52
 70
     0
102
RTVSPropertyOp53
 70
     0
102
RTVSPropertyOp54
 70
     0
102
RTVSPropertyOp55
 70
     1
102
RTVSPropertyOp56
 70
     0
102
RTVSPropertyOp57
 70
     0
102
RTVSPropertyOp58
 70
     0
102
RTVSPropertyOp59
 70
     0
102
RTVSPropertyOp60
 70
     0
102
RTVSPropertyOp61
 70
     0
102
RTVSPropertyOp62
 70
     0
  0
XRECORD
  5
638
102
{ACAD_REACTORS
330
637
102
}
330
637
100
AcDbXrecord
280
     1
102
RTVSPost2010Prop28
280
     0
102
RTVSPost2010PropOp28
 70
     1
102
RTVSPost2010Prop29
280
     1
102
RTVSPost2010PropOp29
 70
     1
102
RTVSPost2010Prop30
280
     1
102
RTVSPost2010PropOp30
 70
     1
102
RTVSPost2010Prop31
280
     0
102
RTVSPost2010PropOp31
 70
     1
102
RTVSPost2010Prop32
280
     0
102
RTVSPost2010PropOp32
 70
     1
102
RTVSPost2010Prop33
280
     0
102
RTVSPost2010PropOp33
 70
     1
102
RTVSPost2010Prop34
280
     0
102
RTVSPost2010PropOp34
 70
     1
102
RTVSPost2010Prop35
280
     0
102
RTVSPost2010PropOp35
 70
     1
102
RTVSPost2010Prop36
280
     0
102
RTVSPost2010PropOp36
 70
     1
102
RTVSPost2010Prop37
 90
       50
102
RTVSPost2010PropOp37
 70
     1
102
RTVSPost2010Prop38
140
0.0
102
RTVSPost2010PropOp38
 70
     1
102
RTVSPost2010Prop39
140
1.0
102
RTVSPost2010PropOp39
 70
     1
102
RTVSPost2010Prop40
 90
        0
102
RTVSPost2010PropOp40
 70
     1
102
RTVSPost2010Prop41ColorIndex
 90
       18
102
RTVSPost2010Prop41ColorRGB
 90
        0
102
RTVSPost2010PropOp41
 70
     1
102
RTVSPost2010Prop42
 90
       50
102
RTVSPost2010PropOp42
 70
     1
102
RTVSPost2010Prop43
 90
        3
102
RTVSPost2010PropOp43
 70
     1
102
RTVSPost2010Prop44ColorIndex
 90
        5
102
RTVSPost2010Prop44ColorRGB
 90
      255
102
RTVSPost2010PropOp44
 70
     1
102
RTVSPost2010Prop45
280
     0
102
RTVSPost2010PropOp45
 70
     1
102
RTVSPost2010Prop46
 90
       50
102
RTVSPost2010PropOp46
 70
     1
102
RTVSPost2010Prop47
 90
       50
102
RTVSPost2010PropOp47
 70
     1
102
RTVSPost2010Prop48
 90
       50
102
RTVSPost2010PropOp48
 70
     1
102
RTVSPost2010Prop49
280
     0
102
RTVSPost2010PropOp49
 70
     1
102
RTVSPost2010Prop50
 90
       50
102
RTVSPost2010PropOp50
 70
     1
102
RTVSPost2010Prop51ColorIndex
 90
      256
102
RTVSPost2010Prop51ColorRGB
 90
-16777216
102
RTVSPost2010PropOp51
 70
     0
102
RTVSPost2010Prop52
140
1.0
102
RTVSPost2010PropOp52
 70
     0
102
RTVSPost2010Prop53
 90
        2
102
RTVSPost2010PropOp53
 70
     1
102
RTVSPost2010Prop54
  1
strokes_ogs.tif
102
RTVSPost2010PropOp54
 70
     1
102
RTVSPost2010Prop55
280
     0
102
RTVSPost2010PropOp55
 70
     1
102
RTVSPost2010Prop56
140
1.0
102
RTVSPost2010PropOp56
 70
     1
102
RTVSPost2010Prop57
140
1.0
102
RTVSPost2010PropOp57
 70
     1
102
RTVSPropertyOp0
 70
     1
102
RTVSPropertyOp1
 70
     1
102
RTVSPropertyOp2
 70
     1
102
RTVSPropertyOp3
 70
     1
102
RTVSPropertyOp4
 70
     1
102
RTVSPropertyOp5
 70
     1
102
RTVSPropertyOp6
 70
     1
102
RTVSPropertyOp7
 70
     1
102
RTVSPropertyOp8
 70
     1
102
RTVSPropertyOp9
 70
     1
102
RTVSPropertyOp10
 70
     1
102
RTVSPropertyOp11
 70
     1
102
RTVSPropertyOp12
 70
     1
102
RTVSPropertyOp13
 70
     1
102
RTVSPropertyOp14
 70
     1
102
RTVSPropertyOp15
 70
     1
102
RTVSPropertyOp16
 70
     1
102
RTVSPropertyOp17
 70
     1
102
RTVSPropertyOp18
 70
     1
102
RTVSPropertyOp19
 70
     1
102
RTVSPropertyOp20
 70
     1
102
RTVSPropertyOp21
 70
     1
102
RTVSPropertyOp22
 70
     1
102
RTVSPropertyOp23
 70
     1
102
RTVSPropertyOp24
 70
     1
102
RTVSPropertyOp25
 70
     1
102
RTVSPropertyOp26
 70
     1
102
RTVSPropertyOp27
 70
     1
102
RTVSPropertyOp28
 70
     1
102
RTVSPropertyOp29
 70
     1
102
RTVSPropertyOp30
 70
     1
102
RTVSPropertyOp31
 70
     1
102
RTVSPropertyOp32
 70
     1
102
RTVSPropertyOp33
 70
     1
102
RTVSPropertyOp34
 70
     1
102
RTVSPropertyOp35
 70
     1
102
RTVSPropertyOp36
 70
     1
102
RTVSPropertyOp37
 70
     1
102
RTVSPropertyOp38
 70
     1
102
RTVSPropertyOp39
 70
     1
102
RTVSPropertyOp40
 70
     1
102
RTVSPropertyOp41
 70
     1
102
RTVSPropertyOp42
 70
     1
102
RTVSPropertyOp43
 70
     1
102
RTVSPropertyOp44
 70
     1
102
RTVSPropertyOp45
 70
     1
102
RTVSPropertyOp46
 70
     1
102
RTVSPropertyOp47
 70
     1
102
RTVSPropertyOp48
 70
     1
102
RTVSPropertyOp49
 70
     1
102
RTVSPropertyOp50
 70
     1
102
RTVSPropertyOp51
 70
     0
102
RTVSPropertyOp52
 70
     0
102
RTVSPropertyOp53
 70
     1
102
RTVSPropertyOp54
 70
     1
102
RTVSPropertyOp55
 70
     1
102
RTVSPropertyOp56
 70
     1
102
RTVSPropertyOp57
 70
     1
102
RTVSPropertyOp58
 70
     1
102
RTVSPropertyOp59
 70
     1
102
RTVSPropertyOp60
 70
     1
102
RTVSPropertyOp61
 70
     1
102
RTVSPropertyOp62
 70
     1
  0
XRECORD
  5
64A
102
{ACAD_REACTORS
330
649
102
}
330
649
100
AcDbXrecord
280
     1
102
RTVSPost2010Prop28
280
     0
102
RTVSPost2010PropOp28
 70
     1
102
RTVSPost2010Prop29
280
     1
102
RTVSPost2010PropOp29
 70
     1
102
RTVSPost2010Prop30
280
     1
102
RTVSPost2010PropOp30
 70
     1
102
RTVSPost2010Prop31
280
     0
102
RTVSPost2010PropOp31
 70
     1
102
RTVSPost2010Prop32
280
     0
102
RTVSPost2010PropOp32
 70
     1
102
RTVSPost2010Prop33
280
     0
102
RTVSPost2010PropOp33
 70
     1
102
RTVSPost2010Prop34
280
     0
102
RTVSPost2010PropOp34
 70
     1
102
RTVSPost2010Prop35
280
     0
102
RTVSPost2010PropOp35
 70
     1
102
RTVSPost2010Prop36
280
     0
102
RTVSPost2010PropOp36
 70
     1
102
RTVSPost2010Prop37
 90
       50
102
RTVSPost2010PropOp37
 70
     0
102
RTVSPost2010Prop38
140
0.0
102
RTVSPost2010PropOp38
 70
     0
102
RTVSPost2010Prop39
140
1.0
102
RTVSPost2010PropOp39
 70
     0
102
RTVSPost2010Prop40
 90
        0
102
RTVSPost2010PropOp40
 70
     0
102
RTVSPost2010Prop41ColorIndex
 90
       18
102
RTVSPost2010Prop41ColorRGB
 90
        0
102
RTVSPost2010PropOp41
 70
     0
102
RTVSPost2010Prop42
 90
       50
102
RTVSPost2010PropOp42
 70
     0
102
RTVSPost2010Prop43
 90
        3
102
RTVSPost2010PropOp43
 70
     0
102
RTVSPost2010Prop44ColorIndex
 90
        5
102
RTVSPost2010Prop44ColorRGB
 90
      255
102
RTVSPost2010PropOp44
 70
     0
102
RTVSPost2010Prop45
280
     0
102
RTVSPost2010PropOp45
 70
     1
102
RTVSPost2010Prop46
 90
       50
102
RTVSPost2010PropOp46
 70
     0
102
RTVSPost2010Prop47
 90
       50
102
RTVSPost2010PropOp47
 70
     0
102
RTVSPost2010Prop48
 90
       50
102
RTVSPost2010PropOp48
 70
     0
102
RTVSPost2010Prop49
280
     0
102
RTVSPost2010PropOp49
 70
     1
102
RTVSPost2010Prop50
 90
       50
102
RTVSPost2010PropOp50
 70
     0
102
RTVSPost2010Prop51ColorIndex
 90
      256
102
RTVSPost2010Prop51ColorRGB
 90
-16777216
102
RTVSPost2010PropOp51
 70
     0
102
RTVSPost2010Prop52
140
1.0
102
RTVSPost2010PropOp52
 70
     0
102
RTVSPost2010Prop53
 90
        2
102
RTVSPost2010PropOp53
 70
     0
102
RTVSPost2010Prop54
  1
strokes_ogs.tif
102
RTVSPost2010PropOp54
 70
     0
102
RTVSPost2010Prop55
280
     0
102
RTVSPost2010PropOp55
 70
     1
102
RTVSPost2010Prop56
140
1.0
102
RTVSPost2010PropOp56
 70
     0
102
RTVSPost2010Prop57
140
1.0
102
RTVSPost2010PropOp57
 70
     0
102
RTVSPropertyOp0
 70
     0
102
RTVSPropertyOp1
 70
     0
102
RTVSPropertyOp2
 70
     0
102
RTVSPropertyOp3
 70
     0
102
RTVSPropertyOp4
 70
     0
102
RTVSPropertyOp5
 70
     0
102
RTVSPropertyOp6
 70
     0
102
RTVSPropertyOp7
 70
     0
102
RTVSPropertyOp8
 70
     0
102
RTVSPropertyOp9
 70
     0
102
RTVSPropertyOp10
 70
     0
102
RTVSPropertyOp11
 70
     0
102
RTVSPropertyOp12
 70
     0
102
RTVSPropertyOp13
 70
     0
102
RTVSPropertyOp14
 70
     2
102
RTVSPropertyOp15
 70
     0
102
RTVSPropertyOp16
 70
     0
102
RTVSPropertyOp17
 70
     0
102
RTVSPropertyOp18
 70
     0
102
RTVSPropertyOp19
 70
     0
102
RTVSPropertyOp20
 70
     0
102
RTVSPropertyOp21
 70
     0
102
RTVSPropertyOp22
 70
     0
102
RTVSPropertyOp23
 70
     0
102
RTVSPropertyOp24
 70
     0
102
RTVSPropertyOp25
 70
     0
102
RTVSPropertyOp26
 70
     0
102
RTVSPropertyOp27
 70
     0
102
RTVSPropertyOp28
 70
     1
102
RTVSPropertyOp29
 70
     1
102
RTVSPropertyOp30
 70
     1
102
RTVSPropertyOp31
 70
     1
102
RTVSPropertyOp32
 70
     1
102
RTVSPropertyOp33
 70
     1
102
RTVSPropertyOp34
 70
     1
102
RTVSPropertyOp35
 70
     1
102
RTVSPropertyOp36
 70
     1
102
RTVSPropertyOp37
 70
     0
102
RTVSPropertyOp38
 70
     0
102
RTVSPropertyOp39
 70
     0
102
RTVSPropertyOp40
 70
     0
102
RTVSPropertyOp41
 70
     0
102
RTVSPropertyOp42
 70
     0
102
RTVSPropertyOp43
 70
     0
102
RTVSPropertyOp44
 70
     0
102
RTVSPropertyOp45
 70
     1
102
RTVSPropertyOp46
 70
     0
102
RTVSPropertyOp47
 70
     0
102
RTVSPropertyOp48
 70
     0
102
RTVSPropertyOp49
 70
     1
102
RTVSPropertyOp50
 70
     0
102
RTVSPropertyOp51
 70
     0
102
RTVSPropertyOp52
 70
     0
102
RTVSPropertyOp53
 70
     0
102
RTVSPropertyOp54
 70
     0
102
RTVSPropertyOp55
 70
     1
102
RTVSPropertyOp56
 70
     0
102
RTVSPropertyOp57
 70
     0
102
RTVSPropertyOp58
 70
     0
102
RTVSPropertyOp59
 70
     0
102
RTVSPropertyOp60
 70
     0
102
RTVSPropertyOp61
 70
     0
102
RTVSPropertyOp62
 70
     0
  0
XRECORD
  5
630
102
{ACAD_REACTORS
330
62F
102
}
330
62F
100
AcDbXrecord
280
     1
102
RTVSPost2010Prop28
280
     0
102
RTVSPost2010PropOp28
 70
     1
102
RTVSPost2010Prop29
280
     1
102
RTVSPost2010PropOp29
 70
     1
102
RTVSPost2010Prop30
280
     1
102
RTVSPost2010PropOp30
 70
     1
102
RTVSPost2010Prop31
280
     0
102
RTVSPost2010PropOp31
 70
     1
102
RTVSPost2010Prop32
280
     0
102
RTVSPost2010PropOp32
 70
     1
102
RTVSPost2010Prop33
280
     0
102
RTVSPost2010PropOp33
 70
     1
102
RTVSPost2010Prop34
280
     0
102
RTVSPost2010PropOp34
 70
     1
102
RTVSPost2010Prop35
280
     0
102
RTVSPost2010PropOp35
 70
     1
102
RTVSPost2010Prop36
280
     0
102
RTVSPost2010PropOp36
 70
     1
102
RTVSPost2010Prop37
 90
       50
102
RTVSPost2010PropOp37
 70
     1
102
RTVSPost2010Prop38
140
0.0
102
RTVSPost2010PropOp38
 70
     1
102
RTVSPost2010Prop39
140
1.0
102
RTVSPost2010PropOp39
 70
     1
102
RTVSPost2010Prop40
 90
        0
102
RTVSPost2010PropOp40
 70
     1
102
RTVSPost2010Prop41ColorIndex
 90
       18
102
RTVSPost2010Prop41ColorRGB
 90
        0
102
RTVSPost2010PropOp41
 70
     1
102
RTVSPost2010Prop42
 90
       50
102
RTVSPost2010PropOp42
 70
     1
102
RTVSPost2010Prop43
 90
        3
102
RTVSPost2010PropOp43
 70
     1
102
RTVSPost2010Prop44ColorIndex
 90
        5
102
RTVSPost2010Prop44ColorRGB
 90
      255
102
RTVSPost2010PropOp44
 70
     1
102
RTVSPost2010Prop45
280
     0
102
RTVSPost2010PropOp45
 70
     1
102
RTVSPost2010Prop46
 90
       50
102
RTVSPost2010PropOp46
 70
     1
102
RTVSPost2010Prop47
 90
       50
102
RTVSPost2010PropOp47
 70
     1
102
RTVSPost2010Prop48
 90
       50
102
RTVSPost2010PropOp48
 70
     1
102
RTVSPost2010Prop49
280
     0
102
RTVSPost2010PropOp49
 70
     1
102
RTVSPost2010Prop50
 90
       50
102
RTVSPost2010PropOp50
 70
     1
102
RTVSPost2010Prop51ColorIndex
 90
      256
102
RTVSPost2010Prop51ColorRGB
 90
-16777216
102
RTVSPost2010PropOp51
 70
     0
102
RTVSPost2010Prop52
140
1.0
102
RTVSPost2010PropOp52
 70
     0
102
RTVSPost2010Prop53
 90
        2
102
RTVSPost2010PropOp53
 70
     1
102
RTVSPost2010Prop54
  1
strokes_ogs.tif
102
RTVSPost2010PropOp54
 70
     1
102
RTVSPost2010Prop55
280
     0
102
RTVSPost2010PropOp55
 70
     1
102
RTVSPost2010Prop56
140
1.0
102
RTVSPost2010PropOp56
 70
     1
102
RTVSPost2010Prop57
140
1.0
102
RTVSPost2010PropOp57
 70
     1
102
RTVSPropertyOp0
 70
     1
102
RTVSPropertyOp1
 70
     1
102
RTVSPropertyOp2
 70
     1
102
RTVSPropertyOp3
 70
     1
102
RTVSPropertyOp4
 70
     1
102
RTVSPropertyOp5
 70
     1
102
RTVSPropertyOp6
 70
     1
102
RTVSPropertyOp7
 70
     1
102
RTVSPropertyOp8
 70
     1
102
RTVSPropertyOp9
 70
     1
102
RTVSPropertyOp10
 70
     1
102
RTVSPropertyOp11
 70
     1
102
RTVSPropertyOp12
 70
     1
102
RTVSPropertyOp13
 70
     1
102
RTVSPropertyOp14
 70
     1
102
RTVSPropertyOp15
 70
     1
102
RTVSPropertyOp16
 70
     1
102
RTVSPropertyOp17
 70
     1
102
RTVSPropertyOp18
 70
     1
102
RTVSPropertyOp19
 70
     1
102
RTVSPropertyOp20
 70
     1
102
RTVSPropertyOp21
 70
     1
102
RTVSPropertyOp22
 70
     1
102
RTVSPropertyOp23
 70
     1
102
RTVSPropertyOp24
 70
     1
102
RTVSPropertyOp25
 70
     1
102
RTVSPropertyOp26
 70
     1
102
RTVSPropertyOp27
 70
     1
102
RTVSPropertyOp28
 70
     1
102
RTVSPropertyOp29
 70
     1
102
RTVSPropertyOp30
 70
     1
102
RTVSPropertyOp31
 70
     1
102
RTVSPropertyOp32
 70
     1
102
RTVSPropertyOp33
 70
     1
102
RTVSPropertyOp34
 70
     1
102
RTVSPropertyOp35
 70
     1
102
RTVSPropertyOp36
 70
     1
102
RTVSPropertyOp37
 70
     1
102
RTVSPropertyOp38
 70
     1
102
RTVSPropertyOp39
 70
     1
102
RTVSPropertyOp40
 70
     1
102
RTVSPropertyOp41
 70
     1
102
RTVSPropertyOp42
 70
     1
102
RTVSPropertyOp43
 70
     1
102
RTVSPropertyOp44
 70
     1
102
RTVSPropertyOp45
 70
     1
102
RTVSPropertyOp46
 70
     1
102
RTVSPropertyOp47
 70
     1
102
RTVSPropertyOp48
 70
     1
102
RTVSPropertyOp49
 70
     1
102
RTVSPropertyOp50
 70
     1
102
RTVSPropertyOp51
 70
     0
102
RTVSPropertyOp52
 70
     0
102
RTVSPropertyOp53
 70
     1
102
RTVSPropertyOp54
 70
     1
102
RTVSPropertyOp55
 70
     1
102
RTVSPropertyOp56
 70
     1
102
RTVSPropertyOp57
 70
     1
102
RTVSPropertyOp58
 70
     1
102
RTVSPropertyOp59
 70
     1
102
RTVSPropertyOp60
 70
     1
102
RTVSPropertyOp61
 70
     1
102
RTVSPropertyOp62
 70
     1
  0
XRECORD
  5
646
102
{ACAD_REACTORS
330
645
102
}
330
645
100
AcDbXrecord
280
     1
102
RTVSPost2010Prop28
280
     0
102
RTVSPost2010PropOp28
 70
     1
102
RTVSPost2010Prop29
280
     1
102
RTVSPost2010PropOp29
 70
     1
102
RTVSPost2010Prop30
280
     1
102
RTVSPost2010PropOp30
 70
     1
102
RTVSPost2010Prop31
280
     0
102
RTVSPost2010PropOp31
 70
     1
102
RTVSPost2010Prop32
280
     0
102
RTVSPost2010PropOp32
 70
     1
102
RTVSPost2010Prop33
280
     0
102
RTVSPost2010PropOp33
 70
     1
102
RTVSPost2010Prop34
280
     0
102
RTVSPost2010PropOp34
 70
     1
102
RTVSPost2010Prop35
280
     0
102
RTVSPost2010PropOp35
 70
     1
102
RTVSPost2010Prop36
280
     0
102
RTVSPost2010PropOp36
 70
     1
102
RTVSPost2010Prop37
 90
       50
102
RTVSPost2010PropOp37
 70
     1
102
RTVSPost2010Prop38
140
0.0
102
RTVSPost2010PropOp38
 70
     1
102
RTVSPost2010Prop39
140
1.0
102
RTVSPost2010PropOp39
 70
     1
102
RTVSPost2010Prop40
 90
        0
102
RTVSPost2010PropOp40
 70
     1
102
RTVSPost2010Prop41ColorIndex
 90
       18
102
RTVSPost2010Prop41ColorRGB
 90
        0
102
RTVSPost2010PropOp41
 70
     1
102
RTVSPost2010Prop42
 90
       50
102
RTVSPost2010PropOp42
 70
     1
102
RTVSPost2010Prop43
 90
        3
102
RTVSPost2010PropOp43
 70
     1
102
RTVSPost2010Prop44ColorIndex
 90
        5
102
RTVSPost2010Prop44ColorRGB
 90
      255
102
RTVSPost2010PropOp44
 70
     1
102
RTVSPost2010Prop45
280
     0
102
RTVSPost2010PropOp45
 70
     1
102
RTVSPost2010Prop46
 90
       50
102
RTVSPost2010PropOp46
 70
     1
102
RTVSPost2010Prop47
 90
       50
102
RTVSPost2010PropOp47
 70
     1
102
RTVSPost2010Prop48
 90
       50
102
RTVSPost2010PropOp48
 70
     1
102
RTVSPost2010Prop49
280
     0
102
RTVSPost2010PropOp49
 70
     1
102
RTVSPost2010Prop50
 90
       50
102
RTVSPost2010PropOp50
 70
     1
102
RTVSPost2010Prop51ColorIndex
 90
      256
102
RTVSPost2010Prop51ColorRGB
 90
-16777216
102
RTVSPost2010PropOp51
 70
     0
102
RTVSPost2010Prop52
140
1.0
102
RTVSPost2010PropOp52
 70
     0
102
RTVSPost2010Prop53
 90
        2
102
RTVSPost2010PropOp53
 70
     1
102
RTVSPost2010Prop54
  1
strokes_ogs.tif
102
RTVSPost2010PropOp54
 70
     1
102
RTVSPost2010Prop55
280
     0
102
RTVSPost2010PropOp55
 70
     1
102
RTVSPost2010Prop56
140
1.0
102
RTVSPost2010PropOp56
 70
     1
102
RTVSPost2010Prop57
140
1.0
102
RTVSPost2010PropOp57
 70
     1
102
RTVSPropertyOp0
 70
     1
102
RTVSPropertyOp1
 70
     1
102
RTVSPropertyOp2
 70
     1
102
RTVSPropertyOp3
 70
     1
102
RTVSPropertyOp4
 70
     1
102
RTVSPropertyOp5
 70
     1
102
RTVSPropertyOp6
 70
     1
102
RTVSPropertyOp7
 70
     1
102
RTVSPropertyOp8
 70
     1
102
RTVSPropertyOp9
 70
     1
102
RTVSPropertyOp10
 70
     1
102
RTVSPropertyOp11
 70
     1
102
RTVSPropertyOp12
 70
     1
102
RTVSPropertyOp13
 70
     1
102
RTVSPropertyOp14
 70
     1
102
RTVSPropertyOp15
 70
     1
102
RTVSPropertyOp16
 70
     1
102
RTVSPropertyOp17
 70
     1
102
RTVSPropertyOp18
 70
     1
102
RTVSPropertyOp19
 70
     1
102
RTVSPropertyOp20
 70
     1
102
RTVSPropertyOp21
 70
     1
102
RTVSPropertyOp22
 70
     1
102
RTVSPropertyOp23
 70
     1
102
RTVSPropertyOp24
 70
     1
102
RTVSPropertyOp25
 70
     1
102
RTVSPropertyOp26
 70
     1
102
RTVSPropertyOp27
 70
     1
102
RTVSPropertyOp28
 70
     1
102
RTVSPropertyOp29
 70
     1
102
RTVSPropertyOp30
 70
     1
102
RTVSPropertyOp31
 70
     1
102
RTVSPropertyOp32
 70
     1
102
RTVSPropertyOp33
 70
     1
102
RTVSPropertyOp34
 70
     1
102
RTVSPropertyOp35
 70
     1
102
RTVSPropertyOp36
 70
     1
102
RTVSPropertyOp37
 70
     1
102
RTVSPropertyOp38
 70
     1
102
RTVSPropertyOp39
 70
     1
102
RTVSPropertyOp40
 70
     1
102
RTVSPropertyOp41
 70
     1
102
RTVSPropertyOp42
 70
     1
102
RTVSPropertyOp43
 70
     1
102
RTVSPropertyOp44
 70
     1
102
RTVSPropertyOp45
 70
     1
102
RTVSPropertyOp46
 70
     1
102
RTVSPropertyOp47
 70
     1
102
RTVSPropertyOp48
 70
     1
102
RTVSPropertyOp49
 70
     1
102
RTVSPropertyOp50
 70
     1
102
RTVSPropertyOp51
 70
     0
102
RTVSPropertyOp52
 70
     0
102
RTVSPropertyOp53
 70
     1
102
RTVSPropertyOp54
 70
     1
102
RTVSPropertyOp55
 70
     1
102
RTVSPropertyOp56
 70
     1
102
RTVSPropertyOp57
 70
     1
102
RTVSPropertyOp58
 70
     1
102
RTVSPropertyOp59
 70
     1
102
RTVSPropertyOp60
 70
     1
102
RTVSPropertyOp61
 70
     1
102
RTVSPropertyOp62
 70
     1
  0
XRECORD
  5
644
102
{ACAD_REACTORS
330
643
102
}
330
643
100
AcDbXrecord
280
     1
102
RTVSPost2010Prop28
280
     0
102
RTVSPost2010PropOp28
 70
     1
102
RTVSPost2010Prop29
280
     1
102
RTVSPost2010PropOp29
 70
     1
102
RTVSPost2010Prop30
280
     1
102
RTVSPost2010PropOp30
 70
     1
102
RTVSPost2010Prop31
280
     0
102
RTVSPost2010PropOp31
 70
     1
102
RTVSPost2010Prop32
280
     0
102
RTVSPost2010PropOp32
 70
     1
102
RTVSPost2010Prop33
280
     0
102
RTVSPost2010PropOp33
 70
     1
102
RTVSPost2010Prop34
280
     0
102
RTVSPost2010PropOp34
 70
     1
102
RTVSPost2010Prop35
280
     0
102
RTVSPost2010PropOp35
 70
     1
102
RTVSPost2010Prop36
280
     0
102
RTVSPost2010PropOp36
 70
     1
102
RTVSPost2010Prop37
 90
       50
102
RTVSPost2010PropOp37
 70
     1
102
RTVSPost2010Prop38
140
0.0
102
RTVSPost2010PropOp38
 70
     1
102
RTVSPost2010Prop39
140
1.0
102
RTVSPost2010PropOp39
 70
     1
102
RTVSPost2010Prop40
 90
        0
102
RTVSPost2010PropOp40
 70
     1
102
RTVSPost2010Prop41ColorIndex
 90
       18
102
RTVSPost2010Prop41ColorRGB
 90
        0
102
RTVSPost2010PropOp41
 70
     1
102
RTVSPost2010Prop42
 90
       50
102
RTVSPost2010PropOp42
 70
     1
102
RTVSPost2010Prop43
 90
        3
102
RTVSPost2010PropOp43
 70
     1
102
RTVSPost2010Prop44ColorIndex
 90
        5
102
RTVSPost2010Prop44ColorRGB
 90
      255
102
RTVSPost2010PropOp44
 70
     1
102
RTVSPost2010Prop45
280
     0
102
RTVSPost2010PropOp45
 70
     1
102
RTVSPost2010Prop46
 90
       50
102
RTVSPost2010PropOp46
 70
     1
102
RTVSPost2010Prop47
 90
       50
102
RTVSPost2010PropOp47
 70
     1
102
RTVSPost2010Prop48
 90
       50
102
RTVSPost2010PropOp48
 70
     1
102
RTVSPost2010Prop49
280
     0
102
RTVSPost2010PropOp49
 70
     1
102
RTVSPost2010Prop50
 90
       50
102
RTVSPost2010PropOp50
 70
     1
102
RTVSPost2010Prop51ColorIndex
 90
      256
102
RTVSPost2010Prop51ColorRGB
 90
-16777216
102
RTVSPost2010PropOp51
 70
     0
102
RTVSPost2010Prop52
140
1.0
102
RTVSPost2010PropOp52
 70
     0
102
RTVSPost2010Prop53
 90
        2
102
RTVSPost2010PropOp53
 70
     1
102
RTVSPost2010Prop54
  1
strokes_ogs.tif
102
RTVSPost2010PropOp54
 70
     1
102
RTVSPost2010Prop55
280
     0
102
RTVSPost2010PropOp55
 70
     1
102
RTVSPost2010Prop56
140
1.0
102
RTVSPost2010PropOp56
 70
     1
102
RTVSPost2010Prop57
140
1.0
102
RTVSPost2010PropOp57
 70
     1
102
RTVSPropertyOp0
 70
     1
102
RTVSPropertyOp1
 70
     1
102
RTVSPropertyOp2
 70
     1
102
RTVSPropertyOp3
 70
     1
102
RTVSPropertyOp4
 70
     1
102
RTVSPropertyOp5
 70
     1
102
RTVSPropertyOp6
 70
     1
102
RTVSPropertyOp7
 70
     1
102
RTVSPropertyOp8
 70
     1
102
RTVSPropertyOp9
 70
     1
102
RTVSPropertyOp10
 70
     1
102
RTVSPropertyOp11
 70
     1
102
RTVSPropertyOp12
 70
     1
102
RTVSPropertyOp13
 70
     1
102
RTVSPropertyOp14
 70
     1
102
RTVSPropertyOp15
 70
     1
102
RTVSPropertyOp16
 70
     1
102
RTVSPropertyOp17
 70
     1
102
RTVSPropertyOp18
 70
     1
102
RTVSPropertyOp19
 70
     1
102
RTVSPropertyOp20
 70
     1
102
RTVSPropertyOp21
 70
     1
102
RTVSPropertyOp22
 70
     1
102
RTVSPropertyOp23
 70
     1
102
RTVSPropertyOp24
 70
     1
102
RTVSPropertyOp25
 70
     1
102
RTVSPropertyOp26
 70
     1
102
RTVSPropertyOp27
 70
     1
102
RTVSPropertyOp28
 70
     1
102
RTVSPropertyOp29
 70
     1
102
RTVSPropertyOp30
 70
     1
102
RTVSPropertyOp31
 70
     1
102
RTVSPropertyOp32
 70
     1
102
RTVSPropertyOp33
 70
     1
102
RTVSPropertyOp34
 70
     1
102
RTVSPropertyOp35
 70
     1
102
RTVSPropertyOp36
 70
     1
102
RTVSPropertyOp37
 70
     1
102
RTVSPropertyOp38
 70
     1
102
RTVSPropertyOp39
 70
     1
102
RTVSPropertyOp40
 70
     1
102
RTVSPropertyOp41
 70
     1
102
RTVSPropertyOp42
 70
     1
102
RTVSPropertyOp43
 70
     1
102
RTVSPropertyOp44
 70
     1
102
RTVSPropertyOp45
 70
     1
102
RTVSPropertyOp46
 70
     1
102
RTVSPropertyOp47
 70
     1
102
RTVSPropertyOp48
 70
     1
102
RTVSPropertyOp49
 70
     1
102
RTVSPropertyOp50
 70
     1
102
RTVSPropertyOp51
 70
     0
102
RTVSPropertyOp52
 70
     0
102
RTVSPropertyOp53
 70
     1
102
RTVSPropertyOp54
 70
     1
102
RTVSPropertyOp55
 70
     1
102
RTVSPropertyOp56
 70
     1
102
RTVSPropertyOp57
 70
     1
102
RTVSPropertyOp58
 70
     1
102
RTVSPropertyOp59
 70
     1
102
RTVSPropertyOp60
 70
     1
102
RTVSPropertyOp61
 70
     1
102
RTVSPropertyOp62
 70
     1
  0
XRECORD
  5
63E
102
{ACAD_REACTORS
330
63D
102
}
330
63D
100
AcDbXrecord
280
     1
102
RTVSPost2010Prop28
280
     0
102
RTVSPost2010PropOp28
 70
     1
102
RTVSPost2010Prop29
280
     1
102
RTVSPost2010PropOp29
 70
     1
102
RTVSPost2010Prop30
280
     1
102
RTVSPost2010PropOp30
 70
     1
102
RTVSPost2010Prop31
280
     0
102
RTVSPost2010PropOp31
 70
     1
102
RTVSPost2010Prop32
280
     0
102
RTVSPost2010PropOp32
 70
     1
102
RTVSPost2010Prop33
280
     0
102
RTVSPost2010PropOp33
 70
     1
102
RTVSPost2010Prop34
280
     0
102
RTVSPost2010PropOp34
 70
     1
102
RTVSPost2010Prop35
280
     0
102
RTVSPost2010PropOp35
 70
     1
102
RTVSPost2010Prop36
280
     0
102
RTVSPost2010PropOp36
 70
     1
102
RTVSPost2010Prop37
 90
       50
102
RTVSPost2010PropOp37
 70
     1
102
RTVSPost2010Prop38
140
0.0
102
RTVSPost2010PropOp38
 70
     1
102
RTVSPost2010Prop39
140
1.0
102
RTVSPost2010PropOp39
 70
     1
102
RTVSPost2010Prop40
 90
        0
102
RTVSPost2010PropOp40
 70
     1
102
RTVSPost2010Prop41ColorIndex
 90
       18
102
RTVSPost2010Prop41ColorRGB
 90
        0
102
RTVSPost2010PropOp41
 70
     1
102
RTVSPost2010Prop42
 90
       50
102
RTVSPost2010PropOp42
 70
     1
102
RTVSPost2010Prop43
 90
        3
102
RTVSPost2010PropOp43
 70
     1
102
RTVSPost2010Prop44ColorIndex
 90
        5
102
RTVSPost2010Prop44ColorRGB
 90
      255
102
RTVSPost2010PropOp44
 70
     1
102
RTVSPost2010Prop45
280
     0
102
RTVSPost2010PropOp45
 70
     1
102
RTVSPost2010Prop46
 90
       50
102
RTVSPost2010PropOp46
 70
     1
102
RTVSPost2010Prop47
 90
       50
102
RTVSPost2010PropOp47
 70
     1
102
RTVSPost2010Prop48
 90
       50
102
RTVSPost2010PropOp48
 70
     1
102
RTVSPost2010Prop49
280
     0
102
RTVSPost2010PropOp49
 70
     1
102
RTVSPost2010Prop50
 90
       50
102
RTVSPost2010PropOp50
 70
     1
102
RTVSPost2010Prop51ColorIndex
 90
      256
102
RTVSPost2010Prop51ColorRGB
 90
-16777216
102
RTVSPost2010PropOp51
 70
     0
102
RTVSPost2010Prop52
140
1.0
102
RTVSPost2010PropOp52
 70
     0
102
RTVSPost2010Prop53
 90
        2
102
RTVSPost2010PropOp53
 70
     1
102
RTVSPost2010Prop54
  1
strokes_ogs.tif
102
RTVSPost2010PropOp54
 70
     1
102
RTVSPost2010Prop55
280
     0
102
RTVSPost2010PropOp55
 70
     1
102
RTVSPost2010Prop56
140
1.0
102
RTVSPost2010PropOp56
 70
     1
102
RTVSPost2010Prop57
140
1.0
102
RTVSPost2010PropOp57
 70
     1
102
RTVSPropertyOp0
 70
     1
102
RTVSPropertyOp1
 70
     1
102
RTVSPropertyOp2
 70
     1
102
RTVSPropertyOp3
 70
     1
102
RTVSPropertyOp4
 70
     1
102
RTVSPropertyOp5
 70
     1
102
RTVSPropertyOp6
 70
     1
102
RTVSPropertyOp7
 70
     1
102
RTVSPropertyOp8
 70
     1
102
RTVSPropertyOp9
 70
     1
102
RTVSPropertyOp10
 70
     1
102
RTVSPropertyOp11
 70
     1
102
RTVSPropertyOp12
 70
     1
102
RTVSPropertyOp13
 70
     1
102
RTVSPropertyOp14
 70
     1
102
RTVSPropertyOp15
 70
     1
102
RTVSPropertyOp16
 70
     1
102
RTVSPropertyOp17
 70
     1
102
RTVSPropertyOp18
 70
     1
102
RTVSPropertyOp19
 70
     1
102
RTVSPropertyOp20
 70
     1
102
RTVSPropertyOp21
 70
     1
102
RTVSPropertyOp22
 70
     1
102
RTVSPropertyOp23
 70
     1
102
RTVSPropertyOp24
 70
     1
102
RTVSPropertyOp25
 70
     1
102
RTVSPropertyOp26
 70
     1
102
RTVSPropertyOp27
 70
     1
102
RTVSPropertyOp28
 70
     1
102
RTVSPropertyOp29
 70
     1
102
RTVSPropertyOp30
 70
     1
102
RTVSPropertyOp31
 70
     1
102
RTVSPropertyOp32
 70
     1
102
RTVSPropertyOp33
 70
     1
102
RTVSPropertyOp34
 70
     1
102
RTVSPropertyOp35
 70
     1
102
RTVSPropertyOp36
 70
     1
102
RTVSPropertyOp37
 70
     1
102
RTVSPropertyOp38
 70
     1
102
RTVSPropertyOp39
 70
     1
102
RTVSPropertyOp40
 70
     1
102
RTVSPropertyOp41
 70
     1
102
RTVSPropertyOp42
 70
     1
102
RTVSPropertyOp43
 70
     1
102
RTVSPropertyOp44
 70
     1
102
RTVSPropertyOp45
 70
     1
102
RTVSPropertyOp46
 70
     1
102
RTVSPropertyOp47
 70
     1
102
RTVSPropertyOp48
 70
     1
102
RTVSPropertyOp49
 70
     1
102
RTVSPropertyOp50
 70
     1
102
RTVSPropertyOp51
 70
     0
102
RTVSPropertyOp52
 70
     0
102
RTVSPropertyOp53
 70
     1
102
RTVSPropertyOp54
 70
     1
102
RTVSPropertyOp55
 70
     1
102
RTVSPropertyOp56
 70
     1
102
RTVSPropertyOp57
 70
     1
102
RTVSPropertyOp58
 70
     1
102
RTVSPropertyOp59
 70
     1
102
RTVSPropertyOp60
 70
     1
102
RTVSPropertyOp61
 70
     1
102
RTVSPropertyOp62
 70
     1
  0
XRECORD
  5
640
102
{ACAD_REACTORS
330
63F
102
}
330
63F
100
AcDbXrecord
280
     1
102
RTVSPost2010Prop28
280
     0
102
RTVSPost2010PropOp28
 70
     1
102
RTVSPost2010Prop29
280
     1
102
RTVSPost2010PropOp29
 70
     1
102
RTVSPost2010Prop30
280
     1
102
RTVSPost2010PropOp30
 70
     1
102
RTVSPost2010Prop31
280
     0
102
RTVSPost2010PropOp31
 70
     1
102
RTVSPost2010Prop32
280
     0
102
RTVSPost2010PropOp32
 70
     1
102
RTVSPost2010Prop33
280
     0
102
RTVSPost2010PropOp33
 70
     1
102
RTVSPost2010Prop34
280
     0
102
RTVSPost2010PropOp34
 70
     1
102
RTVSPost2010Prop35
280
     0
102
RTVSPost2010PropOp35
 70
     1
102
RTVSPost2010Prop36
280
     0
102
RTVSPost2010PropOp36
 70
     1
102
RTVSPost2010Prop37
 90
       50
102
RTVSPost2010PropOp37
 70
     1
102
RTVSPost2010Prop38
140
0.0
102
RTVSPost2010PropOp38
 70
     1
102
RTVSPost2010Prop39
140
1.0
102
RTVSPost2010PropOp39
 70
     1
102
RTVSPost2010Prop40
 90
        0
102
RTVSPost2010PropOp40
 70
     1
102
RTVSPost2010Prop41ColorIndex
 90
       18
102
RTVSPost2010Prop41ColorRGB
 90
        0
102
RTVSPost2010PropOp41
 70
     1
102
RTVSPost2010Prop42
 90
       50
102
RTVSPost2010PropOp42
 70
     1
102
RTVSPost2010Prop43
 90
        3
102
RTVSPost2010PropOp43
 70
     1
102
RTVSPost2010Prop44ColorIndex
 90
        5
102
RTVSPost2010Prop44ColorRGB
 90
      255
102
RTVSPost2010PropOp44
 70
     1
102
RTVSPost2010Prop45
280
     0
102
RTVSPost2010PropOp45
 70
     1
102
RTVSPost2010Prop46
 90
       50
102
RTVSPost2010PropOp46
 70
     1
102
RTVSPost2010Prop47
 90
       50
102
RTVSPost2010PropOp47
 70
     1
102
RTVSPost2010Prop48
 90
       50
102
RTVSPost2010PropOp48
 70
     1
102
RTVSPost2010Prop49
280
     0
102
RTVSPost2010PropOp49
 70
     1
102
RTVSPost2010Prop50
 90
       50
102
RTVSPost2010PropOp50
 70
     1
102
RTVSPost2010Prop51ColorIndex
 90
      256
102
RTVSPost2010Prop51ColorRGB
 90
-16777216
102
RTVSPost2010PropOp51
 70
     0
102
RTVSPost2010Prop52
140
1.0
102
RTVSPost2010PropOp52
 70
     0
102
RTVSPost2010Prop53
 90
        2
102
RTVSPost2010PropOp53
 70
     1
102
RTVSPost2010Prop54
  1
strokes_ogs.tif
102
RTVSPost2010PropOp54
 70
     1
102
RTVSPost2010Prop55
280
     0
102
RTVSPost2010PropOp55
 70
     1
102
RTVSPost2010Prop56
140
1.0
102
RTVSPost2010PropOp56
 70
     1
102
RTVSPost2010Prop57
140
1.0
102
RTVSPost2010PropOp57
 70
     1
102
RTVSPropertyOp0
 70
     1
102
RTVSPropertyOp1
 70
     1
102
RTVSPropertyOp2
 70
     1
102
RTVSPropertyOp3
 70
     1
102
RTVSPropertyOp4
 70
     1
102
RTVSPropertyOp5
 70
     1
102
RTVSPropertyOp6
 70
     1
102
RTVSPropertyOp7
 70
     1
102
RTVSPropertyOp8
 70
     1
102
RTVSPropertyOp9
 70
     1
102
RTVSPropertyOp10
 70
     1
102
RTVSPropertyOp11
 70
     1
102
RTVSPropertyOp12
 70
     1
102
RTVSPropertyOp13
 70
     1
102
RTVSPropertyOp14
 70
     1
102
RTVSPropertyOp15
 70
     1
102
RTVSPropertyOp16
 70
     1
102
RTVSPropertyOp17
 70
     1
102
RTVSPropertyOp18
 70
     1
102
RTVSPropertyOp19
 70
     1
102
RTVSPropertyOp20
 70
     1
102
RTVSPropertyOp21
 70
     1
102
RTVSPropertyOp22
 70
     1
102
RTVSPropertyOp23
 70
     1
102
RTVSPropertyOp24
 70
     1
102
RTVSPropertyOp25
 70
     1
102
RTVSPropertyOp26
 70
     1
102
RTVSPropertyOp27
 70
     1
102
RTVSPropertyOp28
 70
     1
102
RTVSPropertyOp29
 70
     1
102
RTVSPropertyOp30
 70
     1
102
RTVSPropertyOp31
 70
     1
102
RTVSPropertyOp32
 70
     1
102
RTVSPropertyOp33
 70
     1
102
RTVSPropertyOp34
 70
     1
102
RTVSPropertyOp35
 70
     1
102
RTVSPropertyOp36
 70
     1
102
RTVSPropertyOp37
 70
     1
102
RTVSPropertyOp38
 70
     1
102
RTVSPropertyOp39
 70
     1
102
RTVSPropertyOp40
 70
     1
102
RTVSPropertyOp41
 70
     1
102
RTVSPropertyOp42
 70
     1
102
RTVSPropertyOp43
 70
     1
102
RTVSPropertyOp44
 70
     1
102
RTVSPropertyOp45
 70
     1
102
RTVSPropertyOp46
 70
     1
102
RTVSPropertyOp47
 70
     1
102
RTVSPropertyOp48
 70
     1
102
RTVSPropertyOp49
 70
     1
102
RTVSPropertyOp50
 70
     1
102
RTVSPropertyOp51
 70
     0
102
RTVSPropertyOp52
 70
     0
102
RTVSPropertyOp53
 70
     1
102
RTVSPropertyOp54
 70
     1
102
RTVSPropertyOp55
 70
     1
102
RTVSPropertyOp56
 70
     1
102
RTVSPropertyOp57
 70
     1
102
RTVSPropertyOp58
 70
     1
102
RTVSPropertyOp59
 70
     1
102
RTVSPropertyOp60
 70
     1
102
RTVSPropertyOp61
 70
     1
102
RTVSPropertyOp62
 70
     1
  0
XRECORD
  5
636
102
{ACAD_REACTORS
330
635
102
}
330
635
100
AcDbXrecord
280
     1
102
RTVSPost2010Prop28
280
     0
102
RTVSPost2010PropOp28
 70
     1
102
RTVSPost2010Prop29
280
     1
102
RTVSPost2010PropOp29
 70
     1
102
RTVSPost2010Prop30
280
     1
102
RTVSPost2010PropOp30
 70
     1
102
RTVSPost2010Prop31
280
     0
102
RTVSPost2010PropOp31
 70
     1
102
RTVSPost2010Prop32
280
     0
102
RTVSPost2010PropOp32
 70
     1
102
RTVSPost2010Prop33
280
     0
102
RTVSPost2010PropOp33
 70
     1
102
RTVSPost2010Prop34
280
     0
102
RTVSPost2010PropOp34
 70
     1
102
RTVSPost2010Prop35
280
     0
102
RTVSPost2010PropOp35
 70
     1
102
RTVSPost2010Prop36
280
     0
102
RTVSPost2010PropOp36
 70
     1
102
RTVSPost2010Prop37
 90
       50
102
RTVSPost2010PropOp37
 70
     1
102
RTVSPost2010Prop38
140
0.0
102
RTVSPost2010PropOp38
 70
     1
102
RTVSPost2010Prop39
140
1.0
102
RTVSPost2010PropOp39
 70
     1
102
RTVSPost2010Prop40
 90
        0
102
RTVSPost2010PropOp40
 70
     1
102
RTVSPost2010Prop41ColorIndex
 90
       18
102
RTVSPost2010Prop41ColorRGB
 90
        0
102
RTVSPost2010PropOp41
 70
     1
102
RTVSPost2010Prop42
 90
       50
102
RTVSPost2010PropOp42
 70
     1
102
RTVSPost2010Prop43
 90
        3
102
RTVSPost2010PropOp43
 70
     1
102
RTVSPost2010Prop44ColorIndex
 90
        5
102
RTVSPost2010Prop44ColorRGB
 90
      255
102
RTVSPost2010PropOp44
 70
     1
102
RTVSPost2010Prop45
280
     0
102
RTVSPost2010PropOp45
 70
     1
102
RTVSPost2010Prop46
 90
       50
102
RTVSPost2010PropOp46
 70
     1
102
RTVSPost2010Prop47
 90
       50
102
RTVSPost2010PropOp47
 70
     1
102
RTVSPost2010Prop48
 90
       50
102
RTVSPost2010PropOp48
 70
     1
102
RTVSPost2010Prop49
280
     0
102
RTVSPost2010PropOp49
 70
     1
102
RTVSPost2010Prop50
 90
       50
102
RTVSPost2010PropOp50
 70
     1
102
RTVSPost2010Prop51ColorIndex
 90
      256
102
RTVSPost2010Prop51ColorRGB
 90
-16777216
102
RTVSPost2010PropOp51
 70
     0
102
RTVSPost2010Prop52
140
1.0
102
RTVSPost2010PropOp52
 70
     0
102
RTVSPost2010Prop53
 90
        2
102
RTVSPost2010PropOp53
 70
     1
102
RTVSPost2010Prop54
  1
strokes_ogs.tif
102
RTVSPost2010PropOp54
 70
     1
102
RTVSPost2010Prop55
280
     0
102
RTVSPost2010PropOp55
 70
     1
102
RTVSPost2010Prop56
140
1.0
102
RTVSPost2010PropOp56
 70
     1
102
RTVSPost2010Prop57
140
1.0
102
RTVSPost2010PropOp57
 70
     1
102
RTVSPropertyOp0
 70
     1
102
RTVSPropertyOp1
 70
     1
102
RTVSPropertyOp2
 70
     1
102
RTVSPropertyOp3
 70
     1
102
RTVSPropertyOp4
 70
     1
102
RTVSPropertyOp5
 70
     1
102
RTVSPropertyOp6
 70
     1
102
RTVSPropertyOp7
 70
     1
102
RTVSPropertyOp8
 70
     1
102
RTVSPropertyOp9
 70
     1
102
RTVSPropertyOp10
 70
     1
102
RTVSPropertyOp11
 70
     1
102
RTVSPropertyOp12
 70
     1
102
RTVSPropertyOp13
 70
     1
102
RTVSPropertyOp14
 70
     1
102
RTVSPropertyOp15
 70
     1
102
RTVSPropertyOp16
 70
     1
102
RTVSPropertyOp17
 70
     1
102
RTVSPropertyOp18
 70
     1
102
RTVSPropertyOp19
 70
     1
102
RTVSPropertyOp20
 70
     1
102
RTVSPropertyOp21
 70
     1
102
RTVSPropertyOp22
 70
     1
102
RTVSPropertyOp23
 70
     1
102
RTVSPropertyOp24
 70
     1
102
RTVSPropertyOp25
 70
     1
102
RTVSPropertyOp26
 70
     1
102
RTVSPropertyOp27
 70
     1
102
RTVSPropertyOp28
 70
     1
102
RTVSPropertyOp29
 70
     1
102
RTVSPropertyOp30
 70
     1
102
RTVSPropertyOp31
 70
     1
102
RTVSPropertyOp32
 70
     1
102
RTVSPropertyOp33
 70
     1
102
RTVSPropertyOp34
 70
     1
102
RTVSPropertyOp35
 70
     1
102
RTVSPropertyOp36
 70
     1
102
RTVSPropertyOp37
 70
     1
102
RTVSPropertyOp38
 70
     1
102
RTVSPropertyOp39
 70
     1
102
RTVSPropertyOp40
 70
     1
102
RTVSPropertyOp41
 70
     1
102
RTVSPropertyOp42
 70
     1
102
RTVSPropertyOp43
 70
     1
102
RTVSPropertyOp44
 70
     1
102
RTVSPropertyOp45
 70
     1
102
RTVSPropertyOp46
 70
     1
102
RTVSPropertyOp47
 70
     1
102
RTVSPropertyOp48
 70
     1
102
RTVSPropertyOp49
 70
     1
102
RTVSPropertyOp50
 70
     1
102
RTVSPropertyOp51
 70
     0
102
RTVSPropertyOp52
 70
     0
102
RTVSPropertyOp53
 70
     1
102
RTVSPropertyOp54
 70
     1
102
RTVSPropertyOp55
 70
     1
102
RTVSPropertyOp56
 70
     1
102
RTVSPropertyOp57
 70
     1
102
RTVSPropertyOp58
 70
     1
102
RTVSPropertyOp59
 70
     1
102
RTVSPropertyOp60
 70
     1
102
RTVSPropertyOp61
 70
     1
102
RTVSPropertyOp62
 70
     1
  0
XRECORD
  5
62A
102
{ACAD_REACTORS
330
629
102
}
330
629
100
AcDbXrecord
280
     1
102
RTVSPost2010Prop28
280
     0
102
RTVSPost2010PropOp28
 70
     1
102
RTVSPost2010Prop29
280
     1
102
RTVSPost2010PropOp29
 70
     1
102
RTVSPost2010Prop30
280
     1
102
RTVSPost2010PropOp30
 70
     1
102
RTVSPost2010Prop31
280
     0
102
RTVSPost2010PropOp31
 70
     1
102
RTVSPost2010Prop32
280
     0
102
RTVSPost2010PropOp32
 70
     1
102
RTVSPost2010Prop33
280
     0
102
RTVSPost2010PropOp33
 70
     1
102
RTVSPost2010Prop34
280
     0
102
RTVSPost2010PropOp34
 70
     1
102
RTVSPost2010Prop35
280
     0
102
RTVSPost2010PropOp35
 70
     1
102
RTVSPost2010Prop36
280
     0
102
RTVSPost2010PropOp36
 70
     1
102
RTVSPost2010Prop37
 90
       50
102
RTVSPost2010PropOp37
 70
     1
102
RTVSPost2010Prop38
140
0.0
102
RTVSPost2010PropOp38
 70
     1
102
RTVSPost2010Prop39
140
1.0
102
RTVSPost2010PropOp39
 70
     1
102
RTVSPost2010Prop40
 90
        0
102
RTVSPost2010PropOp40
 70
     1
102
RTVSPost2010Prop41ColorIndex
 90
       18
102
RTVSPost2010Prop41ColorRGB
 90
        0
102
RTVSPost2010PropOp41
 70
     1
102
RTVSPost2010Prop42
 90
       50
102
RTVSPost2010PropOp42
 70
     1
102
RTVSPost2010Prop43
 90
        3
102
RTVSPost2010PropOp43
 70
     1
102
RTVSPost2010Prop44ColorIndex
 90
        5
102
RTVSPost2010Prop44ColorRGB
 90
      255
102
RTVSPost2010PropOp44
 70
     1
102
RTVSPost2010Prop45
280
     0
102
RTVSPost2010PropOp45
 70
     1
102
RTVSPost2010Prop46
 90
       50
102
RTVSPost2010PropOp46
 70
     1
102
RTVSPost2010Prop47
 90
       50
102
RTVSPost2010PropOp47
 70
     1
102
RTVSPost2010Prop48
 90
       50
102
RTVSPost2010PropOp48
 70
     1
102
RTVSPost2010Prop49
280
     0
102
RTVSPost2010PropOp49
 70
     1
102
RTVSPost2010Prop50
 90
       50
102
RTVSPost2010PropOp50
 70
     1
102
RTVSPost2010Prop51ColorIndex
 90
      256
102
RTVSPost2010Prop51ColorRGB
 90
-16777216
102
RTVSPost2010PropOp51
 70
     0
102
RTVSPost2010Prop52
140
1.0
102
RTVSPost2010PropOp52
 70
     0
102
RTVSPost2010Prop53
 90
        2
102
RTVSPost2010PropOp53
 70
     1
102
RTVSPost2010Prop54
  1
strokes_ogs.tif
102
RTVSPost2010PropOp54
 70
     1
102
RTVSPost2010Prop55
280
     0
102
RTVSPost2010PropOp55
 70
     1
102
RTVSPost2010Prop56
140
1.0
102
RTVSPost2010PropOp56
 70
     1
102
RTVSPost2010Prop57
140
1.0
102
RTVSPost2010PropOp57
 70
     1
102
RTVSPropertyOp0
 70
     1
102
RTVSPropertyOp1
 70
     1
102
RTVSPropertyOp2
 70
     1
102
RTVSPropertyOp3
 70
     1
102
RTVSPropertyOp4
 70
     1
102
RTVSPropertyOp5
 70
     1
102
RTVSPropertyOp6
 70
     1
102
RTVSPropertyOp7
 70
     1
102
RTVSPropertyOp8
 70
     1
102
RTVSPropertyOp9
 70
     1
102
RTVSPropertyOp10
 70
     1
102
RTVSPropertyOp11
 70
     1
102
RTVSPropertyOp12
 70
     1
102
RTVSPropertyOp13
 70
     1
102
RTVSPropertyOp14
 70
     1
102
RTVSPropertyOp15
 70
     1
102
RTVSPropertyOp16
 70
     1
102
RTVSPropertyOp17
 70
     1
102
RTVSPropertyOp18
 70
     1
102
RTVSPropertyOp19
 70
     1
102
RTVSPropertyOp20
 70
     1
102
RTVSPropertyOp21
 70
     1
102
RTVSPropertyOp22
 70
     1
102
RTVSPropertyOp23
 70
     1
102
RTVSPropertyOp24
 70
     1
102
RTVSPropertyOp25
 70
     1
102
RTVSPropertyOp26
 70
     1
102
RTVSPropertyOp27
 70
     1
102
RTVSPropertyOp28
 70
     1
102
RTVSPropertyOp29
 70
     1
102
RTVSPropertyOp30
 70
     1
102
RTVSPropertyOp31
 70
     1
102
RTVSPropertyOp32
 70
     1
102
RTVSPropertyOp33
 70
     1
102
RTVSPropertyOp34
 70
     1
102
RTVSPropertyOp35
 70
     1
102
RTVSPropertyOp36
 70
     1
102
RTVSPropertyOp37
 70
     1
102
RTVSPropertyOp38
 70
     1
102
RTVSPropertyOp39
 70
     1
102
RTVSPropertyOp40
 70
     1
102
RTVSPropertyOp41
 70
     1
102
RTVSPropertyOp42
 70
     1
102
RTVSPropertyOp43
 70
     1
102
RTVSPropertyOp44
 70
     1
102
RTVSPropertyOp45
 70
     1
102
RTVSPropertyOp46
 70
     1
102
RTVSPropertyOp47
 70
     1
102
RTVSPropertyOp48
 70
     1
102
RTVSPropertyOp49
 70
     1
102
RTVSPropertyOp50
 70
     1
102
RTVSPropertyOp51
 70
     0
102
RTVSPropertyOp52
 70
     0
102
RTVSPropertyOp53
 70
     1
102
RTVSPropertyOp54
 70
     1
102
RTVSPropertyOp55
 70
     1
102
RTVSPropertyOp56
 70
     1
102
RTVSPropertyOp57
 70
     1
102
RTVSPropertyOp58
 70
     1
102
RTVSPropertyOp59
 70
     1
102
RTVSPropertyOp60
 70
     1
102
RTVSPropertyOp61
 70
     1
102
RTVSPropertyOp62
 70
     1
  0
XRECORD
  5
642
102
{ACAD_REACTORS
330
641
102
}
330
641
100
AcDbXrecord
280
     1
102
RTVSPost2010Prop28
280
     0
102
RTVSPost2010PropOp28
 70
     1
102
RTVSPost2010Prop29
280
     1
102
RTVSPost2010PropOp29
 70
     1
102
RTVSPost2010Prop30
280
     1
102
RTVSPost2010PropOp30
 70
     1
102
RTVSPost2010Prop31
280
     0
102
RTVSPost2010PropOp31
 70
     1
102
RTVSPost2010Prop32
280
     0
102
RTVSPost2010PropOp32
 70
     1
102
RTVSPost2010Prop33
280
     0
102
RTVSPost2010PropOp33
 70
     1
102
RTVSPost2010Prop34
280
     0
102
RTVSPost2010PropOp34
 70
     1
102
RTVSPost2010Prop35
280
     0
102
RTVSPost2010PropOp35
 70
     1
102
RTVSPost2010Prop36
280
     0
102
RTVSPost2010PropOp36
 70
     1
102
RTVSPost2010Prop37
 90
       50
102
RTVSPost2010PropOp37
 70
     1
102
RTVSPost2010Prop38
140
0.0
102
RTVSPost2010PropOp38
 70
     1
102
RTVSPost2010Prop39
140
1.0
102
RTVSPost2010PropOp39
 70
     1
102
RTVSPost2010Prop40
 90
        0
102
RTVSPost2010PropOp40
 70
     1
102
RTVSPost2010Prop41ColorIndex
 90
       18
102
RTVSPost2010Prop41ColorRGB
 90
        0
102
RTVSPost2010PropOp41
 70
     1
102
RTVSPost2010Prop42
 90
       50
102
RTVSPost2010PropOp42
 70
     1
102
RTVSPost2010Prop43
 90
        3
102
RTVSPost2010PropOp43
 70
     1
102
RTVSPost2010Prop44ColorIndex
 90
        5
102
RTVSPost2010Prop44ColorRGB
 90
      255
102
RTVSPost2010PropOp44
 70
     1
102
RTVSPost2010Prop45
280
     0
102
RTVSPost2010PropOp45
 70
     1
102
RTVSPost2010Prop46
 90
       50
102
RTVSPost2010PropOp46
 70
     1
102
RTVSPost2010Prop47
 90
       50
102
RTVSPost2010PropOp47
 70
     1
102
RTVSPost2010Prop48
 90
       50
102
RTVSPost2010PropOp48
 70
     1
102
RTVSPost2010Prop49
280
     0
102
RTVSPost2010PropOp49
 70
     1
102
RTVSPost2010Prop50
 90
       50
102
RTVSPost2010PropOp50
 70
     1
102
RTVSPost2010Prop51ColorIndex
 90
      256
102
RTVSPost2010Prop51ColorRGB
 90
-16777216
102
RTVSPost2010PropOp51
 70
     0
102
RTVSPost2010Prop52
140
1.0
102
RTVSPost2010PropOp52
 70
     0
102
RTVSPost2010Prop53
 90
        2
102
RTVSPost2010PropOp53
 70
     1
102
RTVSPost2010Prop54
  1
strokes_ogs.tif
102
RTVSPost2010PropOp54
 70
     1
102
RTVSPost2010Prop55
280
     0
102
RTVSPost2010PropOp55
 70
     1
102
RTVSPost2010Prop56
140
1.0
102
RTVSPost2010PropOp56
 70
     1
102
RTVSPost2010Prop57
140
1.0
102
RTVSPost2010PropOp57
 70
     1
102
RTVSPropertyOp0
 70
     1
102
RTVSPropertyOp1
 70
     1
102
RTVSPropertyOp2
 70
     1
102
RTVSPropertyOp3
 70
     1
102
RTVSPropertyOp4
 70
     1
102
RTVSPropertyOp5
 70
     1
102
RTVSPropertyOp6
 70
     1
102
RTVSPropertyOp7
 70
     1
102
RTVSPropertyOp8
 70
     1
102
RTVSPropertyOp9
 70
     1
102
RTVSPropertyOp10
 70
     1
102
RTVSPropertyOp11
 70
     1
102
RTVSPropertyOp12
 70
     1
102
RTVSPropertyOp13
 70
     1
102
RTVSPropertyOp14
 70
     1
102
RTVSPropertyOp15
 70
     1
102
RTVSPropertyOp16
 70
     1
102
RTVSPropertyOp17
 70
     1
102
RTVSPropertyOp18
 70
     1
102
RTVSPropertyOp19
 70
     1
102
RTVSPropertyOp20
 70
     1
102
RTVSPropertyOp21
 70
     1
102
RTVSPropertyOp22
 70
     1
102
RTVSPropertyOp23
 70
     1
102
RTVSPropertyOp24
 70
     1
102
RTVSPropertyOp25
 70
     1
102
RTVSPropertyOp26
 70
     1
102
RTVSPropertyOp27
 70
     1
102
RTVSPropertyOp28
 70
     1
102
RTVSPropertyOp29
 70
     1
102
RTVSPropertyOp30
 70
     1
102
RTVSPropertyOp31
 70
     1
102
RTVSPropertyOp32
 70
     1
102
RTVSPropertyOp33
 70
     1
102
RTVSPropertyOp34
 70
     1
102
RTVSPropertyOp35
 70
     1
102
RTVSPropertyOp36
 70
     1
102
RTVSPropertyOp37
 70
     1
102
RTVSPropertyOp38
 70
     1
102
RTVSPropertyOp39
 70
     1
102
RTVSPropertyOp40
 70
     1
102
RTVSPropertyOp41
 70
     1
102
RTVSPropertyOp42
 70
     1
102
RTVSPropertyOp43
 70
     1
102
RTVSPropertyOp44
 70
     1
102
RTVSPropertyOp45
 70
     1
102
RTVSPropertyOp46
 70
     1
102
RTVSPropertyOp47
 70
     1
102
RTVSPropertyOp48
 70
     1
102
RTVSPropertyOp49
 70
     1
102
RTVSPropertyOp50
 70
     1
102
RTVSPropertyOp51
 70
     0
102
RTVSPropertyOp52
 70
     0
102
RTVSPropertyOp53
 70
     1
102
RTVSPropertyOp54
 70
     1
102
RTVSPropertyOp55
 70
     1
102
RTVSPropertyOp56
 70
     1
102
RTVSPropertyOp57
 70
     1
102
RTVSPropertyOp58
 70
     1
102
RTVSPropertyOp59
 70
     1
102
RTVSPropertyOp60
 70
     1
102
RTVSPropertyOp61
 70
     1
102
RTVSPropertyOp62
 70
     1
  0
ENDSEC
  0
EOF
