0
SECTION
2
HEADER
9
$ACADVER
1
AC1015
9
$DWGCODEPAGE
3
ANSI_1252
9
$HANDSEED
5
311
9
$ANGBASE
50
0
9
$ANGDIR
70
0
9
$ATTMODE
70
1
9
$AUNITS
70
0
9
$AUPREC
70
0
9
$CECOLOR
62
256
9
$CELTSCALE
40
1
9
$CELTYPE
6
ByLayer
9
$CELWEIGHT
370
18
9
$CLAYER
8
0
9
$CMLJUST
70
0
9
$CMLSCALE
40
1
9
$CMLSTYLE
2
Standard
9
$DIMSTYLE
2
Standard
9
$TEXTSIZE
40
0.2
9
$TEXTSTYLE
7
Standard
9
$LUNITS
70
2
9
$LUPREC
70
4
9
$EXTNAMES
290
1
9
$INSUNITS
70
4
9
$LTSCALE
40
1
9
$LWDISPLAY
290
1
9
$PDMODE
70
0
9
$PDSIZE
40
0
9
$PLINEGEN
70
0
0
ENDSEC
0
SECTION
2
CLASSES
0
CLASS
1
RASTERVARIABLES
2
AcDbRasterVariables
3
ISM
90
0
280
0
281
0
0
ENDSEC
0
SECTION
2
TABLES
0
TABLE
2
VPORT
5
307
100
AcDbSymbolTable
0
VPORT
5
1
100
AcDbSymbolTableRecord
100
AcDbViewportTableRecord
2
*Active
70
0
10
0
20
0
11
1
21
1
12
-1
22
1
13
0
23
0
14
0.5
24
0.5
15
10
25
10
16
0
26
0
36
1
17
0
27
0
37
0
0
ENDTAB
0
TABLE
2
LTYPE
5
308
100
AcDbSymbolTable
0
LTYPE
5
14
100
AcDbSymbolTableRecord
100
AcDbLinetypeTableRecord
70
0
2
ByBlock
3

72
65
73
0
40
0
0
LTYPE
5
15
100
AcDbSymbolTableRecord
100
AcDbLinetypeTableRecord
70
0
2
ByLayer
3

72
65
73
0
40
0
0
LTYPE
5
16
100
AcDbSymbolTableRecord
100
AcDbLinetypeTableRecord
70
0
2
CONTINUOUS
3
Solid line
72
65
73
0
40
0
0
LTYPE
5
6A
100
AcDbSymbolTableRecord
100
AcDbLinetypeTableRecord
70
0
2
CENTER
3
____ _ ____ _ ____ _ ____
72
65
73
4
40
47.5
49
22
74
0
49
-8.5
74
0
49
8.5
74
0
49
-8.5
74
0
0
LTYPE
5
6B
100
AcDbSymbolTableRecord
100
AcDbLinetypeTableRecord
70
0
2
DASHED
3
__ __ __ __ __ __ __ __ __
72
65
73
2
40
25.72
49
12.86
74
0
49
-12.86
74
0
0
ENDTAB
0
TABLE
2
LAYER
5
309
100
AcDbSymbolTable
0
LAYER
5
10
100
AcDbSymbolTableRecord
100
AcDbLayerTableRecord
2
0
70
0
62
7
6
CONTINUOUS
290
1
370
-3
390
0
0
LAYER
5
6D
100
AcDbSymbolTableRecord
100
AcDbLayerTableRecord
2
81
70
0
62
-3
6
CONTINUOUS
290
1
370
-3
390
0
0
LAYER
5
6F
100
AcDbSymbolTableRecord
100
AcDbLayerTableRecord
2
80
70
0
62
-6
6
CONTINUOUS
290
1
370
-3
390
0
0
LAYER
5
83
100
AcDbSymbolTableRecord
100
AcDbLayerTableRecord
2
1
70
0
62
4
6
CONTINUOUS
290
1
370
-3
390
0
0
LAYER
5
241
100
AcDbSymbolTableRecord
100
AcDbLayerTableRecord
2
2
70
0
62
7
6
CONTINUOUS
290
1
370
-3
390
0
0
LAYER
5
2f4
100
AcDbSymbolTableRecord
100
AcDbLayerTableRecord
2
SK1
70
0
62
4
6
CONTINUOUS
290
1
370
-3
390
0
0
LAYER
5
2f5
100
AcDbSymbolTableRecord
100
AcDbLayerTableRecord
2
SK2
70
0
62
7
6
CONTINUOUS
290
1
370
-3
390
0
0
LAYER
5
2f6
100
AcDbSymbolTableRecord
100
AcDbLayerTableRecord
2
SK6
70
0
62
5
6
CONTINUOUS
290
1
370
-3
390
0
0
ENDTAB
0
TABLE
2
STYLE
5
30a
100
AcDbSymbolTable
0
STYLE
5
11
100
AcDbSymbolTableRecord
100
AcDbTextStyleTableRecord
2
Standard
3
txt
70
0
71
0
40
0
41
1
42
0
50
0
0
STYLE
5
23B
100
AcDbSymbolTableRecord
100
AcDbTextStyleTableRecord
2
iso_b_vert
3
simplex.shx
70
0
71
0
40
0
41
1
42
0
50
0
0
STYLE
5
23C
100
AcDbSymbolTableRecord
100
AcDbTextStyleTableRecord
2
DWGDirectTextStyle
3
simplex
70
0
71
0
40
0
41
1
42
0
50
0
0
ENDTAB
0
TABLE
2
DIMSTYLE
5
30b
100
AcDbSymbolTable
100
AcDbDimStyleTable
0
DIMSTYLE
105
27
100
AcDbSymbolTableRecord
100
AcDbDimStyleTableRecord
2
Standard
70
0
3
<>
41
0.18
42
0.0625
44
0.18
140
0.18
147
0.09
73
0
74
0
77
1
271
2
275
0
278
52
280
0
340
11
0
ENDTAB
0
TABLE
2
VIEW
5
30c
100
AcDbSymbolTable
0
ENDTAB
0
TABLE
2
UCS
5
30d
100
AcDbSymbolTable
0
ENDTAB
0
TABLE
2
APPID
5
30e
100
AcDbSymbolTable
0
APPID
5
12
100
AcDbSymbolTableRecord
100
AcDbRegAppTableRecord
2
ACAD
70
0
0
ENDTAB
0
TABLE
2
BLOCK_RECORD
5
30f
100
AcDbSymbolTable
0
BLOCK_RECORD
5
1F
100
AcDbSymbolTableRecord
100
AcDbBlockTableRecord
2
*Model_Space
340
0
70
0
0
BLOCK_RECORD
5
1B
100
AcDbSymbolTableRecord
100
AcDbBlockTableRecord
2
*Paper_Space
340
0
70
0
0
BLOCK_RECORD
5
23
100
AcDbSymbolTableRecord
100
AcDbBlockTableRecord
2
*Paper_Space0
340
0
70
0
0
BLOCK_RECORD
5
23F
100
AcDbSymbolTableRecord
100
AcDbBlockTableRecord
2
DimnDraft3D1
340
0
70
0
0
BLOCK_RECORD
5
24E
100
AcDbSymbolTableRecord
100
AcDbBlockTableRecord
2
_CLOSED
340
0
70
0
0
BLOCK_RECORD
5
255
100
AcDbSymbolTableRecord
100
AcDbBlockTableRecord
2
DimnDraft3D2
340
0
70
0
0
BLOCK_RECORD
5
263
100
AcDbSymbolTableRecord
100
AcDbBlockTableRecord
2
DimnDraft3D3
340
0
70
0
0
BLOCK_RECORD
5
271
100
AcDbSymbolTableRecord
100
AcDbBlockTableRecord
2
DimnDraft3D4
340
0
70
0
0
BLOCK_RECORD
5
27F
100
AcDbSymbolTableRecord
100
AcDbBlockTableRecord
2
DimnDraft3D5
340
0
70
0
0
BLOCK_RECORD
5
28D
100
AcDbSymbolTableRecord
100
AcDbBlockTableRecord
2
DimnDraft3D6
340
0
70
0
0
ENDTAB
0
ENDSEC
0
SECTION
2
BLOCKS
0
BLOCK
5
20
100
AcDbEntity
8
0
100
AcDbBlockBegin
2
*Model_Space
70
0
10
0
20
0
30
0
3
*Model_Space
0
ENDBLK
5
21
100
AcDbEntity
8
0
100
AcDbBlockEnd
0
BLOCK
5
1C
100
AcDbEntity
8
0
100
AcDbBlockBegin
2
*Paper_Space
70
0
10
0
20
0
30
0
3
*Paper_Space
0
ENDBLK
5
1D
100
AcDbEntity
8
0
100
AcDbBlockEnd
0
BLOCK
5
24
100
AcDbEntity
8
0
100
AcDbBlockBegin
2
*Paper_Space0
70
0
10
0
20
0
30
0
3
*Paper_Space0
0
ENDBLK
5
25
100
AcDbEntity
8
0
100
AcDbBlockEnd
0
BLOCK
5
24B
100
AcDbEntity
8
0
100
AcDbBlockBegin
2
DimnDraft3D1
70
0
10
0
20
0
30
0
3
DimnDraft3D1
0
MTEXT
5
240
100
AcDbEntity
8
2
62
256
6
ByLayer
370
18
48
1
60
0
100
AcDbMText
10
65.825
20
-2.982895
30
0
210
0
220
0
230
1
1
\W0.7346;25.5
40
3.5
41
0
44
1.084337
50
90
71
7
72
5
7
iso_b_vert
0
LINE
5
242
100
AcDbEntity
8
2
62
256
6
ByLayer
370
13
48
1
60
0
100
AcDbLine
10
3.6
20
-12.5
30
0
11
68.7
21
-12.5
31
0
39
0
210
0
220
0
230
1
0
LINE
5
243
100
AcDbEntity
8
2
62
256
6
ByLayer
370
13
48
1
60
0
100
AcDbLine
10
43.6
20
13
30
0
11
68.7
21
13
31
0
39
0
210
0
220
0
230
1
0
LINE
5
244
100
AcDbEntity
8
2
62
256
6
ByLayer
370
13
48
1
60
0
100
AcDbLine
10
66.7
20
-12.5
30
0
11
66.7
21
13
31
0
39
0
210
0
220
0
230
1
0
LINE
5
245
100
AcDbEntity
8
2
62
256
6
ByLayer
370
13
48
1
60
0
100
AcDbLine
10
66.7
20
-12.5
30
0
11
66.282003
21
-9.325002
31
0
39
0
210
0
220
0
230
1
0
LINE
5
246
100
AcDbEntity
8
2
62
256
6
ByLayer
370
13
48
1
60
0
100
AcDbLine
10
66.7
20
-12.5
30
0
11
67.117997
21
-9.324998
31
0
39
0
210
0
220
0
230
1
0
LINE
5
247
100
AcDbEntity
8
2
62
256
6
ByLayer
370
13
48
1
60
0
100
AcDbLine
10
66.282003
20
-9.325002
30
0
11
67.117997
21
-9.324998
31
0
39
0
210
0
220
0
230
1
0
LINE
5
248
100
AcDbEntity
8
2
62
256
6
ByLayer
370
13
48
1
60
0
100
AcDbLine
10
66.7
20
13
30
0
11
67.117997
21
9.825002
31
0
39
0
210
0
220
0
230
1
0
LINE
5
249
100
AcDbEntity
8
2
62
256
6
ByLayer
370
13
48
1
60
0
100
AcDbLine
10
66.7
20
13
30
0
11
66.282003
21
9.824998
31
0
39
0
210
0
220
0
230
1
0
LINE
5
24A
100
AcDbEntity
8
2
62
256
6
ByLayer
370
13
48
1
60
0
100
AcDbLine
10
67.117997
20
9.825002
30
0
11
66.282003
21
9.824998
31
0
39
0
210
0
220
0
230
1
0
ENDBLK
5
24C
100
AcDbEntity
8
0
100
AcDbBlockEnd
0
BLOCK
5
24F
100
AcDbEntity
8
0
100
AcDbBlockBegin
2
_CLOSED
70
0
10
0
20
0
30
0
3
_CLOSED
0
LINE
5
251
100
AcDbEntity
8
0
62
256
6
ByLayer
370
-2
48
1
60
0
100
AcDbLine
10
-1
20
0.166667
30
0
11
0
21
0
31
0
39
0
210
0
220
0
230
1
0
LINE
5
252
100
AcDbEntity
8
0
62
256
6
ByLayer
370
-2
48
1
60
0
100
AcDbLine
10
0
20
0
30
0
11
-1
21
-0.166667
31
0
39
0
210
0
220
0
230
1
0
LINE
5
253
100
AcDbEntity
8
0
62
256
6
ByLayer
370
-2
48
1
60
0
100
AcDbLine
10
-1
20
0.166667
30
0
11
-1
21
-0.166667
31
0
39
0
210
0
220
0
230
1
0
LINE
5
254
100
AcDbEntity
8
0
62
256
6
ByLayer
370
-2
48
1
60
0
100
AcDbLine
10
0
20
0
30
0
11
-1
21
0
31
0
39
0
210
0
220
0
230
1
0
ENDBLK
5
250
100
AcDbEntity
8
0
100
AcDbBlockEnd
0
BLOCK
5
260
100
AcDbEntity
8
0
100
AcDbBlockBegin
2
DimnDraft3D2
70
0
10
0
20
0
30
0
3
DimnDraft3D2
0
MTEXT
5
256
100
AcDbEntity
8
SK2
62
256
6
ByLayer
370
18
48
1
60
0
100
AcDbMText
10
-82.384868
20
-24.72505
30
0
210
0
220
0
230
1
1
\W0.5404;3
40
3.5
41
0
44
1.084337
50
0
71
7
72
5
7
iso_b_vert
0
LINE
5
257
100
AcDbEntity
8
SK2
62
256
6
ByLayer
370
13
48
1
60
0
100
AcDbLine
10
-84
20
-14.5
30
0
11
-84
21
-27.60005
31
0
39
0
210
0
220
0
230
1
0
LINE
5
258
100
AcDbEntity
8
SK2
62
256
6
ByLayer
370
13
48
1
60
0
100
AcDbLine
10
-81
20
-14.5
30
0
11
-81
21
-27.60005
31
0
39
0
210
0
220
0
230
1
0
LINE
5
259
100
AcDbEntity
8
SK2
62
256
6
ByLayer
370
13
48
1
60
0
100
AcDbLine
10
-92.75
20
-25.60005
30
0
11
-72.25
21
-25.60005
31
0
39
0
210
0
220
0
230
1
0
LINE
5
25A
100
AcDbEntity
8
SK2
62
256
6
ByLayer
370
13
48
1
60
0
100
AcDbLine
10
-84
20
-25.60005
30
0
11
-87.174998
21
-26.018047
31
0
39
0
210
0
220
0
230
1
0
LINE
5
25B
100
AcDbEntity
8
SK2
62
256
6
ByLayer
370
13
48
1
60
0
100
AcDbLine
10
-84
20
-25.60005
30
0
11
-87.175002
21
-25.182053
31
0
39
0
210
0
220
0
230
1
0
LINE
5
25C
100
AcDbEntity
8
SK2
62
256
6
ByLayer
370
13
48
1
60
0
100
AcDbLine
10
-87.174998
20
-26.018047
30
0
11
-87.175002
21
-25.182053
31
0
39
0
210
0
220
0
230
1
0
LINE
5
25D
100
AcDbEntity
8
SK2
62
256
6
ByLayer
370
13
48
1
60
0
100
AcDbLine
10
-81
20
-25.60005
30
0
11
-77.825002
21
-25.182053
31
0
39
0
210
0
220
0
230
1
0
LINE
5
25E
100
AcDbEntity
8
SK2
62
256
6
ByLayer
370
13
48
1
60
0
100
AcDbLine
10
-81
20
-25.60005
30
0
11
-77.824998
21
-26.018047
31
0
39
0
210
0
220
0
230
1
0
LINE
5
25F
100
AcDbEntity
8
SK2
62
256
6
ByLayer
370
13
48
1
60
0
100
AcDbLine
10
-77.825002
20
-25.182053
30
0
11
-77.824998
21
-26.018047
31
0
39
0
210
0
220
0
230
1
0
ENDBLK
5
261
100
AcDbEntity
8
0
100
AcDbBlockEnd
0
BLOCK
5
26E
100
AcDbEntity
8
0
100
AcDbBlockBegin
2
DimnDraft3D3
70
0
10
0
20
0
30
0
3
DimnDraft3D3
0
MTEXT
5
264
100
AcDbEntity
8
SK2
62
256
6
ByLayer
370
18
48
1
60
0
100
AcDbMText
10
-25.303289
20
36.487462
30
0
210
0
220
0
230
1
1
\W0.6864;125.6
40
3.5
41
0
44
1.084337
50
0
71
7
72
5
7
iso_b_vert
0
LINE
5
265
100
AcDbEntity
8
SK2
62
256
6
ByLayer
370
13
48
1
60
0
100
AcDbLine
10
-84
20
-10.5
30
0
11
-84
21
37.612462
31
0
39
0
210
0
220
0
230
1
0
LINE
5
266
100
AcDbEntity
8
SK2
62
256
6
ByLayer
370
13
48
1
60
0
100
AcDbLine
10
41.6
20
15
30
0
11
41.6
21
37.612462
31
0
39
0
210
0
220
0
230
1
0
LINE
5
267
100
AcDbEntity
8
SK2
62
256
6
ByLayer
370
13
48
1
60
0
100
AcDbLine
10
-84
20
35.612462
30
0
11
41.6
21
35.612462
31
0
39
0
210
0
220
0
230
1
0
LINE
5
268
100
AcDbEntity
8
SK2
62
256
6
ByLayer
370
13
48
1
60
0
100
AcDbLine
10
-84
20
35.612462
30
0
11
-80.825002
21
36.030459
31
0
39
0
210
0
220
0
230
1
0
LINE
5
269
100
AcDbEntity
8
SK2
62
256
6
ByLayer
370
13
48
1
60
0
100
AcDbLine
10
-84
20
35.612462
30
0
11
-80.824998
21
35.194465
31
0
39
0
210
0
220
0
230
1
0
LINE
5
26A
100
AcDbEntity
8
SK2
62
256
6
ByLayer
370
13
48
1
60
0
100
AcDbLine
10
-80.825002
20
36.030459
30
0
11
-80.824998
21
35.194465
31
0
39
0
210
0
220
0
230
1
0
LINE
5
26B
100
AcDbEntity
8
SK2
62
256
6
ByLayer
370
13
48
1
60
0
100
AcDbLine
10
41.6
20
35.612462
30
0
11
38.425002
21
35.194465
31
0
39
0
210
0
220
0
230
1
0
LINE
5
26C
100
AcDbEntity
8
SK2
62
256
6
ByLayer
370
13
48
1
60
0
100
AcDbLine
10
41.6
20
35.612462
30
0
11
38.424998
21
36.030459
31
0
39
0
210
0
220
0
230
1
0
LINE
5
26D
100
AcDbEntity
8
SK2
62
256
6
ByLayer
370
13
48
1
60
0
100
AcDbLine
10
38.425002
20
35.194465
30
0
11
38.424998
21
36.030459
31
0
39
0
210
0
220
0
230
1
0
ENDBLK
5
26F
100
AcDbEntity
8
0
100
AcDbBlockEnd
0
BLOCK
5
27C
100
AcDbEntity
8
0
100
AcDbBlockBegin
2
DimnDraft3D4
70
0
10
0
20
0
30
0
3
DimnDraft3D4
0
MTEXT
5
272
100
AcDbEntity
8
2
62
256
6
ByLayer
370
18
48
1
60
0
100
AcDbMText
10
14.382895
20
30.487462
30
0
210
0
220
0
230
1
1
\W0.7640;47.6
40
3.5
41
0
44
1.084337
50
0
71
7
72
5
7
iso_b_vert
0
LINE
5
273
100
AcDbEntity
8
2
62
256
6
ByLayer
370
13
48
1
60
0
100
AcDbLine
10
-6
20
14.5
30
0
11
-6
21
31.612462
31
0
39
0
210
0
220
0
230
1
0
LINE
5
274
100
AcDbEntity
8
2
62
256
6
ByLayer
370
13
48
1
60
0
100
AcDbLine
10
41.6
20
15
30
0
11
41.6
21
31.612462
31
0
39
0
210
0
220
0
230
1
0
LINE
5
275
100
AcDbEntity
8
2
62
256
6
ByLayer
370
13
48
1
60
0
100
AcDbLine
10
-6
20
29.612462
30
0
11
41.6
21
29.612462
31
0
39
0
210
0
220
0
230
1
0
LINE
5
276
100
AcDbEntity
8
2
62
256
6
ByLayer
370
13
48
1
60
0
100
AcDbLine
10
-6
20
29.612462
30
0
11
-2.825002
21
30.030459
31
0
39
0
210
0
220
0
230
1
0
LINE
5
277
100
AcDbEntity
8
2
62
256
6
ByLayer
370
13
48
1
60
0
100
AcDbLine
10
-6
20
29.612462
30
0
11
-2.824998
21
29.194465
31
0
39
0
210
0
220
0
230
1
0
LINE
5
278
100
AcDbEntity
8
2
62
256
6
ByLayer
370
13
48
1
60
0
100
AcDbLine
10
-2.825002
20
30.030459
30
0
11
-2.824998
21
29.194465
31
0
39
0
210
0
220
0
230
1
0
LINE
5
279
100
AcDbEntity
8
2
62
256
6
ByLayer
370
13
48
1
60
0
100
AcDbLine
10
41.6
20
29.612462
30
0
11
38.425002
21
29.194465
31
0
39
0
210
0
220
0
230
1
0
LINE
5
27A
100
AcDbEntity
8
2
62
256
6
ByLayer
370
13
48
1
60
0
100
AcDbLine
10
41.6
20
29.612462
30
0
11
38.424998
21
30.030459
31
0
39
0
210
0
220
0
230
1
0
LINE
5
27B
100
AcDbEntity
8
2
62
256
6
ByLayer
370
13
48
1
60
0
100
AcDbLine
10
38.425002
20
29.194465
30
0
11
38.424998
21
30.030459
31
0
39
0
210
0
220
0
230
1
0
ENDBLK
5
27D
100
AcDbEntity
8
0
100
AcDbBlockEnd
0
BLOCK
5
28A
100
AcDbEntity
8
0
100
AcDbBlockBegin
2
DimnDraft3D5
70
0
10
0
20
0
30
0
3
DimnDraft3D5
0
MTEXT
5
280
100
AcDbEntity
8
2
62
256
6
ByLayer
370
18
48
1
60
0
100
AcDbMText
10
20.2
20
-24.72505
30
0
210
0
220
0
230
1
1
\W0.7361;40
40
3.5
41
0
44
1.084337
50
0
71
7
72
5
7
iso_b_vert
0
LINE
5
281
100
AcDbEntity
8
2
62
256
6
ByLayer
370
13
48
1
60
0
100
AcDbLine
10
41.6
20
11
30
0
11
41.6
21
-27.60005
31
0
39
0
210
0
220
0
230
1
0
LINE
5
282
100
AcDbEntity
8
2
62
256
6
ByLayer
370
13
48
1
60
0
100
AcDbLine
10
1.6
20
-14.5
30
0
11
1.6
21
-27.60005
31
0
39
0
210
0
220
0
230
1
0
LINE
5
283
100
AcDbEntity
8
2
62
256
6
ByLayer
370
13
48
1
60
0
100
AcDbLine
10
41.6
20
-25.60005
30
0
11
1.6
21
-25.60005
31
0
39
0
210
0
220
0
230
1
0
LINE
5
284
100
AcDbEntity
8
2
62
256
6
ByLayer
370
13
48
1
60
0
100
AcDbLine
10
41.6
20
-25.60005
30
0
11
38.425002
21
-26.018047
31
0
39
0
210
0
220
0
230
1
0
LINE
5
285
100
AcDbEntity
8
2
62
256
6
ByLayer
370
13
48
1
60
0
100
AcDbLine
10
41.6
20
-25.60005
30
0
11
38.424998
21
-25.182053
31
0
39
0
210
0
220
0
230
1
0
LINE
5
286
100
AcDbEntity
8
2
62
256
6
ByLayer
370
13
48
1
60
0
100
AcDbLine
10
38.425002
20
-26.018047
30
0
11
38.424998
21
-25.182053
31
0
39
0
210
0
220
0
230
1
0
LINE
5
287
100
AcDbEntity
8
2
62
256
6
ByLayer
370
13
48
1
60
0
100
AcDbLine
10
1.6
20
-25.60005
30
0
11
4.774998
21
-25.182053
31
0
39
0
210
0
220
0
230
1
0
LINE
5
288
100
AcDbEntity
8
2
62
256
6
ByLayer
370
13
48
1
60
0
100
AcDbLine
10
1.6
20
-25.60005
30
0
11
4.775002
21
-26.018047
31
0
39
0
210
0
220
0
230
1
0
LINE
5
289
100
AcDbEntity
8
2
62
256
6
ByLayer
370
13
48
1
60
0
100
AcDbLine
10
4.774998
20
-25.182053
30
0
11
4.775002
21
-26.018047
31
0
39
0
210
0
220
0
230
1
0
ENDBLK
5
28B
100
AcDbEntity
8
0
100
AcDbBlockEnd
0
BLOCK
5
298
100
AcDbEntity
8
0
100
AcDbBlockBegin
2
DimnDraft3D6
70
0
10
0
20
0
30
0
3
DimnDraft3D6
0
MTEXT
5
28E
100
AcDbEntity
8
2
62
256
6
ByLayer
370
18
48
1
60
0
100
AcDbMText
10
58.825
20
10.092105
30
0
210
0
220
0
230
1
1
\W0.5404;6
40
3.5
41
0
44
1.084337
50
90
71
7
72
5
7
iso_b_vert
0
LINE
5
28F
100
AcDbEntity
8
2
62
256
6
ByLayer
370
13
48
1
60
0
100
AcDbLine
10
43.6
20
13
30
0
11
61.7
21
13
31
0
39
0
210
0
220
0
230
1
0
LINE
5
290
100
AcDbEntity
8
2
62
256
6
ByLayer
370
13
48
1
60
0
100
AcDbLine
10
43.6
20
7
30
0
11
61.7
21
7
31
0
39
0
210
0
220
0
230
1
0
LINE
5
291
100
AcDbEntity
8
2
62
256
6
ByLayer
370
13
48
1
60
0
100
AcDbLine
10
59.7
20
21.75
30
0
11
59.7
21
-1.75
31
0
39
0
210
0
220
0
230
1
0
LINE
5
292
100
AcDbEntity
8
2
62
256
6
ByLayer
370
13
48
1
60
0
100
AcDbLine
10
59.7
20
13
30
0
11
59.282003
21
16.174998
31
0
39
0
210
0
220
0
230
1
0
LINE
5
293
100
AcDbEntity
8
2
62
256
6
ByLayer
370
13
48
1
60
0
100
AcDbLine
10
59.7
20
13
30
0
11
60.117997
21
16.175002
31
0
39
0
210
0
220
0
230
1
0
LINE
5
294
100
AcDbEntity
8
2
62
256
6
ByLayer
370
13
48
1
60
0
100
AcDbLine
10
59.282003
20
16.174998
30
0
11
60.117997
21
16.175002
31
0
39
0
210
0
220
0
230
1
0
LINE
5
295
100
AcDbEntity
8
2
62
256
6
ByLayer
370
13
48
1
60
0
100
AcDbLine
10
59.7
20
7
30
0
11
60.117997
21
3.825002
31
0
39
0
210
0
220
0
230
1
0
LINE
5
296
100
AcDbEntity
8
2
62
256
6
ByLayer
370
13
48
1
60
0
100
AcDbLine
10
59.7
20
7
30
0
11
59.282003
21
3.824998
31
0
39
0
210
0
220
0
230
1
0
LINE
5
297
100
AcDbEntity
8
2
62
256
6
ByLayer
370
13
48
1
60
0
100
AcDbLine
10
60.117997
20
3.825002
30
0
11
59.282003
21
3.824998
31
0
39
0
210
0
220
0
230
1
0
ENDBLK
5
299
100
AcDbEntity
8
0
100
AcDbBlockEnd
0
ENDSEC
0
SECTION
2
ENTITIES
0
ARC
5
10E
100
AcDbEntity
8
SK1
62
256
6
ByLayer
370
18
48
1
60
0
100
AcDbCircle
39
0
10
7.227723
20
14.025
30
0
40
1.59999999999422
210
0
220
0
230
-1
100
AcDbArc
50
237.538255
51
270
0
ARC
5
10F
100
AcDbEntity
8
1
62
256
6
ByLayer
370
18
48
1
60
0
100
AcDbCircle
39
0
10
1.6
20
5.725
30
0
40
1.6
210
0
220
0
230
1
100
AcDbArc
50
90
51
180
0
ARC
5
110
100
AcDbEntity
8
1
62
256
6
ByLayer
370
18
48
1
60
0
100
AcDbCircle
39
0
10
1.6
20
5.725
30
0
40
1.6
210
0
220
0
230
1
100
AcDbArc
50
90
51
180
0
ARC
5
111
100
AcDbEntity
8
1
62
256
6
ByLayer
370
18
48
1
60
0
100
AcDbCircle
39
0
10
7.227723
20
14.025
30
0
40
1.59999999999422
210
0
220
0
230
-1
100
AcDbArc
50
237.538255
51
270
0
ELLIPSE
5
112
100
AcDbEntity
8
1
62
256
6
ByLayer
370
18
48
1
60
0
100
AcDbEllipse
10
33.752588
20
10
30
0
11
2.01022273814869
21
2.03160960858767E-15
31
0
210
0
220
0
230
-1
40
0.497457
41
0.969678448662263
42
-0.969678448662203
0
ELLIPSE
5
113
100
AcDbEntity
8
1
62
256
6
ByLayer
370
18
48
1
60
0
100
AcDbEllipse
10
35.63192
20
10
30
0
11
1.60814287234321E-16
21
1.00000000000254
31
0
210
0
220
0
230
-1
40
0.451247
41
-1.74550750766443
42
-1.39608514592515
0
ELLIPSE
5
114
100
AcDbEntity
8
1
62
256
6
ByLayer
370
18
48
1
60
0
100
AcDbEllipse
10
35.451278
20
10
30
0
11
0.443603532098518
21
-0.985188736500309
31
0
210
0
220
0
230
-1
40
0.386547
41
2.20181390692771
42
2.71279988031665
0
ELLIPSE
5
115
100
AcDbEntity
8
1
62
256
6
ByLayer
370
18
48
1
60
0
100
AcDbEllipse
10
36.356456
20
10
30
0
11
2.6724746802136
21
0.988910207264175
31
0
210
0
220
0
230
-1
40
0.055572
41
-2.11293296050297
42
-2.03810838538316
0
ELLIPSE
5
116
100
AcDbEntity
8
1
62
256
6
ByLayer
370
18
48
1
60
0
100
AcDbEllipse
10
36.356456
20
10
30
0
11
2.67247467856473
21
-0.988910206700834
31
0
210
0
220
0
230
-1
40
0.055572
41
2.03810838549336
42
2.11293296066459
0
ELLIPSE
5
117
100
AcDbEntity
8
1
62
256
6
ByLayer
370
18
48
1
60
0
100
AcDbEllipse
10
35.451278
20
10
30
0
11
0.443603532081634
21
0.985188736480184
31
0
210
0
220
0
230
-1
40
0.386547
41
-2.71279988031064
42
-2.20181390691389
0
ELLIPSE
5
118
100
AcDbEntity
8
1
62
256
6
ByLayer
370
13
48
1
60
0
100
AcDbEllipse
10
39.536428
20
7.719724
30
0
11
0.0344757044900429
21
0.298012459135378
31
0
210
0
220
0
230
1
40
0.004013
41
0.696394960512181
42
1.53612109567714
0
ELLIPSE
5
119
100
AcDbEntity
8
1
62
256
6
ByLayer
370
13
48
1
60
0
100
AcDbEllipse
10
37.389628
20
7.766445
30
0
11
-0.0230464571345713
21
0.299113458094992
31
0
210
0
220
0
230
1
40
0.565336
41
-1.58546383862666
42
-0.788535504423588
0
ELLIPSE
5
11A
100
AcDbEntity
8
1
62
256
6
ByLayer
370
13
48
1
60
0
100
AcDbEllipse
10
39.536428
20
12.280276
30
0
11
0.0344757044900425
21
-0.298012459135378
31
0
210
0
220
0
230
1
40
0.004013
41
-1.53612109567707
42
-0.69639496050823
0
ELLIPSE
5
11B
100
AcDbEntity
8
1
62
256
6
ByLayer
370
13
48
1
60
0
100
AcDbEllipse
10
37.389628
20
12.233555
30
0
11
-0.0230464571345715
21
-0.299113458094992
31
0
210
0
220
0
230
1
40
0.565336
41
0.788535504423556
42
1.58546383862666
0
ELLIPSE
5
11C
100
AcDbEntity
8
1
62
256
6
ByLayer
370
13
48
1
60
0
100
AcDbEllipse
10
36.233721
20
11.32699
30
0
11
-0.145655094548329
21
-0.137056898520714
31
0
210
0
220
0
230
1
40
0.824655
41
0.86544525360159
42
1.58330062290273
0
ELLIPSE
5
11D
100
AcDbEntity
8
1
62
256
6
ByLayer
370
13
48
1
60
0
100
AcDbEllipse
10
36.233727
20
8.673004
30
0
11
0.145654533590935
21
-0.137057494667045
31
0
210
0
220
0
230
1
40
0.824654
41
1.55829671735586
42
2.27615066197104
0
ELLIPSE
5
11E
100
AcDbEntity
8
1
62
256
6
ByLayer
370
13
48
1
60
0
100
AcDbEllipse
10
35.546601
20
8.625278
30
0
11
0.0356112644714499
21
0.196804059517949
31
0
210
0
220
0
230
1
40
0.337181
41
0.552952312025153
42
1.63173288093478
0
ELLIPSE
5
11F
100
AcDbEntity
8
1
62
256
6
ByLayer
370
13
48
1
60
0
100
AcDbEllipse
10
35.546601
20
11.374718
30
0
11
-0.0356101531982815
21
0.19680426059716
31
0
210
0
220
0
230
1
40
0.337181
41
1.50986167657773
42
2.58863944786989
0
ELLIPSE
5
120
100
AcDbEntity
8
1
62
256
6
ByLayer
370
13
48
1
60
0
100
AcDbEllipse
10
35.394567
20
8.656387
30
0
11
-0.0446222323637904
21
-0.194958601705264
31
0
210
0
220
0
230
1
40
0.334374
41
-2.52315165181311
42
-1.49441356325144
0
ELLIPSE
5
121
100
AcDbEntity
8
1
62
256
6
ByLayer
370
13
48
1
60
0
100
AcDbEllipse
10
35.394568
20
11.343611
30
0
11
0.0446208929096927
21
-0.194958908275415
31
0
210
0
220
0
230
1
40
0.334374
41
-1.64717679303883
42
-0.618441579563122
0
ELLIPSE
5
122
100
AcDbEntity
8
1
62
256
6
ByLayer
370
13
48
1
60
0
100
AcDbEllipse
10
35.394568
20
11.343611
30
0
11
-0.189843150463845
21
0.0629251795544686
31
0
210
0
220
0
230
1
40
0.824862
41
0.783492188047282
42
1.83037412070846
0
ELLIPSE
5
123
100
AcDbEntity
8
1
62
256
6
ByLayer
370
13
48
1
60
0
100
AcDbEllipse
10
35.394568
20
11.343611
30
0
11
0.181415923983448
21
0.0841918198237332
31
0
210
0
220
0
230
1
40
0.151449
41
1.88624128123212
42
2.72609499686335
0
ELLIPSE
5
124
100
AcDbEntity
8
1
62
256
6
ByLayer
370
13
48
1
60
0
100
AcDbEllipse
10
35.394567
20
8.656387
30
0
11
-0.181415923982124
21
0.0841918198265856
31
0
210
0
220
0
230
1
40
0.151449
41
0.415497656646189
42
1.25535137230857
0
ELLIPSE
5
125
100
AcDbEntity
8
1
62
256
6
ByLayer
370
13
48
1
60
0
100
AcDbEllipse
10
35.394567
20
8.656387
30
0
11
0.189843211592928
21
0.0629249951297794
31
0
210
0
220
0
230
1
40
0.824861
41
1.31121310851463
42
2.3581012668609
0
ELLIPSE
5
126
100
AcDbEntity
8
1
62
256
6
ByLayer
370
13
48
1
60
0
100
AcDbEllipse
10
34.818964
20
12.583917
30
0
11
0.195374876988354
21
0.0540538505221256
31
0
210
0
220
0
230
-1
40
0.095151
41
-2.68744170643853
42
-1.90204354306168
0
ELLIPSE
5
127
100
AcDbEntity
8
1
62
256
6
ByLayer
370
13
48
1
60
0
100
AcDbEllipse
10
34.818964
20
7.416083
30
0
11
0.195374876974599
21
-0.0540538505192706
31
0
210
0
220
0
230
-1
40
0.095151
41
1.90204354301329
42
2.68744170642527
0
ELLIPSE
5
128
100
AcDbEntity
8
1
62
256
6
ByLayer
370
13
48
1
60
0
100
AcDbEllipse
10
35.395109
20
10.583986
30
0
11
0.196520244347652
21
0.0371455725698103
31
0
210
0
220
0
230
1
40
0.382233
41
-2.69513202135753
42
-1.53760525501864
0
ELLIPSE
5
129
100
AcDbEntity
8
1
62
256
6
ByLayer
370
13
48
1
60
0
100
AcDbEllipse
10
35.395108
20
9.416014
30
0
11
-0.196520211828147
21
0.0371457446152342
31
0
210
0
220
0
230
1
40
0.382232
41
-1.60399008004379
42
-0.446460297603259
0
ELLIPSE
5
12A
100
AcDbEntity
8
1
62
256
6
ByLayer
370
13
48
1
60
0
100
AcDbEllipse
10
36.317675
20
11.143097
30
0
11
-0.199367740021547
21
-0.0158903819557831
31
0
210
0
220
0
230
1
40
0.789046
41
1.51750942137633
42
2.14132768530239
0
ELLIPSE
5
12B
100
AcDbEntity
8
1
62
256
6
ByLayer
370
13
48
1
60
0
100
AcDbEllipse
10
36.317682
20
8.8569
30
0
11
0.199367879080839
21
-0.0158886371601793
31
0
210
0
220
0
230
1
40
0.789045
41
1.00025908098122
42
1.62407577006621
0
ELLIPSE
5
12C
100
AcDbEntity
8
1
62
256
6
ByLayer
370
13
48
1
60
0
100
AcDbEllipse
10
34.818964
20
7.416083
30
0
11
0.199990731950976
21
-0.0330226536425697
31
0
210
0
220
0
230
-1
40
0.058305
41
1.91023508117585
42
2.69563324463837
0
ELLIPSE
5
12D
100
AcDbEntity
8
1
62
256
6
ByLayer
370
13
48
1
60
0
100
AcDbEllipse
10
34.818964
20
12.583917
30
0
11
0.199990731961499
21
0.0330226536438395
31
0
210
0
220
0
230
-1
40
0.058305
41
-2.69563324464093
42
-1.91023508120861
0
ELLIPSE
5
12E
100
AcDbEntity
8
1
62
256
6
ByLayer
370
13
48
1
60
0
100
AcDbEllipse
10
34.683018
20
7.440846
30
0
11
-0.0181929836887898
21
-0.0465726888261718
31
0
210
0
220
0
230
1
40
0.894204
41
-1.55767207624758
42
-1.23473760232676
0
ELLIPSE
5
12F
100
AcDbEntity
8
1
62
256
6
ByLayer
370
13
48
1
60
0
100
AcDbEllipse
10
34.683018
20
12.559154
30
0
11
-0.0181929836887866
21
0.0465726888261731
31
0
210
0
220
0
230
1
40
0.894204
41
1.23473760232676
42
1.55767207624758
0
ELLIPSE
5
130
100
AcDbEntity
8
1
62
256
6
ByLayer
370
13
48
1
60
0
100
AcDbEllipse
10
40.539269
20
12.248035
30
0
11
-0.0770752947303412
21
-0.184551886856328
31
0
210
0
220
0
230
1
40
0.173493
41
0.7330078102109
42
1.60596878949836
0
ELLIPSE
5
131
100
AcDbEntity
8
1
62
256
6
ByLayer
370
13
48
1
60
0
100
AcDbEllipse
10
40.539269
20
7.751965
30
0
11
-0.0770752947303411
21
0.184551886856328
31
0
210
0
220
0
230
1
40
0.173493
41
-1.60596878949833
42
-0.733007810210919
0
ELLIPSE
5
132
100
AcDbEntity
8
1
62
256
6
ByLayer
370
13
48
1
60
0
100
AcDbEllipse
10
37.025098
20
10.96828
30
0
11
0.0825713280238043
21
-0.288412856489418
31
0
210
0
220
0
230
1
40
0.558425
41
-2.51294443030669
42
-1.72932944862263
0
ELLIPSE
5
133
100
AcDbEntity
8
1
62
256
6
ByLayer
370
13
48
1
60
0
100
AcDbEllipse
10
37.025098
20
9.03172
30
0
11
0.0825713280238046
21
0.288412856489417
31
0
210
0
220
0
230
1
40
0.558425
41
1.72932944862263
42
2.5129444303067
0
ELLIPSE
5
134
100
AcDbEntity
8
1
62
256
6
ByLayer
370
13
48
1
60
0
100
AcDbEllipse
10
36.491168
20
10.891601
30
0
11
-0.122268173255619
21
-0.158273477906862
31
0
210
0
220
0
230
1
40
0.484684
41
1.0844734482001
42
1.92906217311913
0
ELLIPSE
5
135
100
AcDbEntity
8
1
62
256
6
ByLayer
370
13
48
1
60
0
100
AcDbEllipse
10
36.491173
20
9.108397
30
0
11
0.122268826309626
21
-0.158272973412603
31
0
210
0
220
0
230
1
40
0.484683
41
1.2125284806092
42
2.05711531973206
0
ELLIPSE
5
136
100
AcDbEntity
8
1
62
256
6
ByLayer
370
13
48
1
60
0
100
AcDbEllipse
10
39.736428
20
7.698544
30
0
11
0.0261610012051277
21
0.29885715988737
31
0
210
0
220
0
230
1
40
0.003045
41
0.693560700131642
42
1.53602277096708
0
ELLIPSE
5
137
100
AcDbEntity
8
1
62
256
6
ByLayer
370
13
48
1
60
0
100
AcDbEllipse
10
40.478728
20
7.676828
30
0
11
-0.00449393620032675
21
0.299966339007275
31
0
210
0
220
0
230
1
40
0.224443
41
0.739818792193713
42
1.42518632678388
0
ELLIPSE
5
138
100
AcDbEntity
8
1
62
256
6
ByLayer
370
13
48
1
60
0
100
AcDbEllipse
10
39.736428
20
12.301456
30
0
11
0.0261610012051277
21
-0.29885715988737
31
0
210
0
220
0
230
1
40
0.003045
41
-1.53602277096672
42
-0.693560700132707
0
ELLIPSE
5
139
100
AcDbEntity
8
1
62
256
6
ByLayer
370
13
48
1
60
0
100
AcDbEllipse
10
40.478728
20
12.323172
30
0
11
-0.00449393620032683
21
-0.299966339007275
31
0
210
0
220
0
230
1
40
0.224443
41
-1.42518632678388
42
-0.739818792193748
0
ELLIPSE
5
13A
100
AcDbEntity
8
1
62
256
6
ByLayer
370
13
48
1
60
0
100
AcDbEllipse
10
37.898594
20
8.829575
30
0
11
0.0475300676839183
21
0.296210892213575
31
0
210
0
220
0
230
1
40
0.247095
41
1.61042446202158
42
2.50923124540553
0
ELLIPSE
5
13B
100
AcDbEntity
8
1
62
256
6
ByLayer
370
13
48
1
60
0
100
AcDbEllipse
10
34.679474
20
7.441521
30
0
11
1.41637461308075E-17
21
0.05
31
0
210
0
220
0
230
1
40
0.906308
41
1.23482044578593
42
1.5707963267949
0
ELLIPSE
5
13C
100
AcDbEntity
8
1
62
256
6
ByLayer
370
13
48
1
60
0
100
AcDbEllipse
10
34.679474
20
12.558479
30
0
11
1.41637461308075E-17
21
0.05
31
0
210
0
220
0
230
1
40
0.906308
41
1.5707963267949
42
1.90677220780387
0
ELLIPSE
5
13D
100
AcDbEntity
8
1
62
256
6
ByLayer
370
13
48
1
60
0
100
AcDbEllipse
10
37.898594
20
11.170425
30
0
11
0.0475300676839182
21
-0.296210892213575
31
0
210
0
220
0
230
1
40
0.247095
41
-2.50923124540546
42
-1.61042446202158
0
ELLIPSE
5
13E
100
AcDbEntity
8
1
62
256
6
ByLayer
370
13
48
1
60
0
100
AcDbEllipse
10
36.738309
20
10.667501
30
0
11
-0.147116653644523
21
-0.13548686364529
31
0
210
0
220
0
230
1
40
0.428574
41
1.29393973964905
42
2.00635086389113
0
ELLIPSE
5
13F
100
AcDbEntity
8
1
62
256
6
ByLayer
370
13
48
1
60
0
100
AcDbEllipse
10
36.738309
20
9.332494
30
0
11
0.147116931807192
21
-0.135486561605342
31
0
210
0
220
0
230
1
40
0.428573
41
1.13524090981113
42
1.84765347921685
0
ELLIPSE
5
140
100
AcDbEntity
8
1
62
256
6
ByLayer
370
13
48
1
60
0
100
AcDbEllipse
10
35.560376
20
9.48284
30
0
11
-0.0689676156404999
21
0.187732437242114
31
0
210
0
220
0
230
1
40
0.223087
41
-1.29134485432415
42
-0.148829673704503
0
ELLIPSE
5
141
100
AcDbEntity
8
1
62
256
6
ByLayer
370
13
48
1
60
0
100
AcDbEllipse
10
35.805153
20
9.868114
30
0
11
-0.199848046799084
21
-0.00779475404301651
31
0
210
0
220
0
230
1
40
0.083289
41
-1.6935409724141
42
-0.437958800565723
0
ELLIPSE
5
142
100
AcDbEntity
8
1
62
256
6
ByLayer
370
13
48
1
60
0
100
AcDbEllipse
10
35.560377
20
10.51716
30
0
11
0.0689675934147269
21
0.187732445407236
31
0
210
0
220
0
230
1
40
0.223086
41
-2.99276300629664
42
-1.85025134770706
0
ELLIPSE
5
143
100
AcDbEntity
8
1
62
256
6
ByLayer
370
13
48
1
60
0
100
AcDbEllipse
10
35.805153
20
10.131886
30
0
11
0.199848033790471
21
-0.00779508756094016
31
0
210
0
220
0
230
1
40
0.083293
41
-2.70363371402334
42
-1.44805176546435
0
ELLIPSE
5
144
100
AcDbEntity
8
1
62
256
6
ByLayer
370
13
48
1
60
0
100
AcDbEllipse
10
35.395109
20
10.583986
30
0
11
0.0817083505375211
21
0.182547926453405
31
0
210
0
220
0
230
1
40
0.256764
41
-2.96631956466367
42
-1.86992384235507
0
ELLIPSE
5
145
100
AcDbEntity
8
1
62
256
6
ByLayer
370
13
48
1
60
0
100
AcDbEllipse
10
35.551068
20
10.52058
30
0
11
0.0689885705881151
21
0.187724737656519
31
0
210
0
220
0
230
1
40
0.223794
41
-2.99273803865042
42
-1.85208974570163
0
ELLIPSE
5
146
100
AcDbEntity
8
1
62
256
6
ByLayer
370
13
48
1
60
0
100
AcDbEllipse
10
35.395108
20
9.416014
30
0
11
-0.0817084005627237
21
0.182547904062143
31
0
210
0
220
0
230
1
40
0.256765
41
-1.27167207778623
42
-0.175273159289782
0
ELLIPSE
5
147
100
AcDbEntity
8
1
62
256
6
ByLayer
370
13
48
1
60
0
100
AcDbEllipse
10
35.551068
20
9.47942
30
0
11
-0.0689885942162015
21
0.187724728973229
31
0
210
0
220
0
230
1
40
0.223795
41
-1.28950643621435
42
-0.148854643107465
0
ELLIPSE
5
148
100
AcDbEntity
8
1
62
256
6
ByLayer
370
13
48
1
60
0
100
AcDbEllipse
10
41.430531
20
8.496874
30
0
11
0.160247744810277
21
0.253615181492001
31
0
210
0
220
0
230
1
40
0.323223
41
-1.88751235157064
42
-1.36933681309578
0
ELLIPSE
5
149
100
AcDbEntity
8
1
62
256
6
ByLayer
370
13
48
1
60
0
100
AcDbEllipse
10
41.21054
20
8.546278
30
0
11
-0.00934290352952681
21
0.29985448163007
31
0
210
0
220
0
230
1
40
0.37445
41
-2.32799563318296
42
-1.58246296899163
0
ELLIPSE
5
14A
100
AcDbEntity
8
1
62
256
6
ByLayer
370
13
48
1
60
0
100
AcDbEllipse
10
41.21054
20
11.453722
30
0
11
-0.00934290352952708
21
-0.29985448163007
31
0
210
0
220
0
230
1
40
0.37445
41
1.58246296899163
42
2.32799563318295
0
ELLIPSE
5
14B
100
AcDbEntity
8
1
62
256
6
ByLayer
370
13
48
1
60
0
100
AcDbEllipse
10
41.430531
20
11.503126
30
0
11
0.160247744810277
21
-0.253615181492001
31
0
210
0
220
0
230
1
40
0.323223
41
1.3693368130958
42
1.88751235157061
0
ELLIPSE
5
14C
100
AcDbEntity
8
1
62
256
6
ByLayer
370
13
48
1
60
0
100
AcDbEllipse
10
41.547855
20
11.574987
30
0
11
0.149040840011555
21
-0.26035903673322
31
0
210
0
220
0
230
1
40
0.070614
41
1.53039607364757
42
1.79230411601785
0
ELLIPSE
5
14D
100
AcDbEntity
8
1
62
256
6
ByLayer
370
13
48
1
60
0
100
AcDbEllipse
10
41.547855
20
8.425013
30
0
11
0.149040840011555
21
0.26035903673322
31
0
210
0
220
0
230
1
40
0.070614
41
-1.79230411601801
42
-1.5303960736476
0
ELLIPSE
5
14E
100
AcDbEntity
8
1
62
256
6
ByLayer
370
13
48
1
60
0
100
AcDbEllipse
10
41.562359
20
11.583575
30
0
11
0.15877234148459
21
-0.254541437843626
31
0
210
0
220
0
230
1
40
0.050686
41
1.56451084021989
42
1.77698417590501
0
ELLIPSE
5
14F
100
AcDbEntity
8
1
62
256
6
ByLayer
370
13
48
1
60
0
100
AcDbEllipse
10
41.562359
20
8.416425
30
0
11
0.158772341484591
21
0.254541437843626
31
0
210
0
220
0
230
1
40
0.050686
41
-1.77698417590499
42
-1.56451084021984
0
ELLIPSE
5
150
100
AcDbEntity
8
1
62
256
6
ByLayer
370
13
48
1
60
0
100
AcDbEllipse
10
42.45521
20
8.425013
30
0
11
0.857471332881844
21
1.21922644466855E-08
31
0
210
0
220
0
230
-1
40
0.466488
41
3.10721598650145
42
-3.14159264695833
0
ELLIPSE
5
151
100
AcDbEntity
8
1
62
256
6
ByLayer
370
13
48
1
60
0
100
AcDbEllipse
10
41.580891
20
8.407828
30
0
11
0.0998194591515971
21
0.00600629458840055
31
0
210
0
220
0
230
1
40
0.02426
41
1.3945892803726
42
1.61576796719748
0
ELLIPSE
5
152
100
AcDbEntity
8
1
62
256
6
ByLayer
370
13
48
1
60
0
100
AcDbEllipse
10
41.580891
20
11.592172
30
0
11
0.0998194591515971
21
-0.00600629458840042
31
0
210
0
220
0
230
1
40
0.02426
41
-1.61576796719755
42
-1.39458928037253
0
ELLIPSE
5
153
100
AcDbEntity
8
1
62
256
6
ByLayer
370
13
48
1
60
0
100
AcDbEllipse
10
42.45521
20
11.574987
30
0
11
0.857471332881844
21
-1.21922649982601E-08
31
0
210
0
220
0
230
-1
40
0.466488
41
3.14159264695833
42
-3.10721598650145
0
ELLIPSE
5
154
100
AcDbEntity
8
1
62
256
6
ByLayer
370
13
48
1
60
0
100
AcDbEllipse
10
40.622653
20
11.469281
30
0
11
-0.00304278008350742
21
-0.299984568752067
31
0
210
0
220
0
230
1
40
0.37459
41
1.5745958208753
42
2.35205450232603
0
ELLIPSE
5
155
100
AcDbEntity
8
1
62
256
6
ByLayer
370
13
48
1
60
0
100
AcDbEllipse
10
40.622653
20
8.530719
30
0
11
-0.00304278008350722
21
0.299984568752067
31
0
210
0
220
0
230
1
40
0.37459
41
-2.3520545023261
42
-1.5745958208753
0
ELLIPSE
5
156
100
AcDbEntity
8
1
62
256
6
ByLayer
370
13
48
1
60
0
100
AcDbEllipse
10
40.066686
20
8.522572
30
0
11
-0.000603333593996458
21
0.299999393313677
31
0
210
0
220
0
230
1
40
0.176047
41
-2.42323398494306
42
-1.57115037716844
0
ELLIPSE
5
157
100
AcDbEntity
8
1
62
256
6
ByLayer
370
13
48
1
60
0
100
AcDbEllipse
10
40.066686
20
11.477428
30
0
11
-0.000603333593996598
21
-0.299999393313677
31
0
210
0
220
0
230
1
40
0.176047
41
1.57115037716842
42
2.42323398494306
0
ELLIPSE
5
158
100
AcDbEntity
8
1
62
256
6
ByLayer
370
13
48
1
60
0
100
AcDbEllipse
10
39.7994
20
11.453055
30
0
11
0.0450980026263403
21
-0.296590913817525
31
0
210
0
220
0
230
1
40
0.079678
41
1.5586815192358
42
2.4483331131149
0
ELLIPSE
5
159
100
AcDbEntity
8
1
62
256
6
ByLayer
370
13
48
1
60
0
100
AcDbEllipse
10
39.7994
20
8.546945
30
0
11
0.0450980026263406
21
0.296590913817525
31
0
210
0
220
0
230
1
40
0.079678
41
-2.44833311311462
42
-1.5586815192358
0
ELLIPSE
5
15A
100
AcDbEntity
8
1
62
256
6
ByLayer
370
18
48
1
60
0
100
AcDbEllipse
10
35.451278
20
10
30
0
11
0.443603532098518
21
-0.985188736500309
31
0
210
0
220
0
230
-1
40
0.386547
41
2.20181390692771
42
2.71279988031665
0
ELLIPSE
5
15B
100
AcDbEntity
8
1
62
256
6
ByLayer
370
18
48
1
60
0
100
AcDbEllipse
10
35.451278
20
10
30
0
11
0.443603532081634
21
0.985188736480184
31
0
210
0
220
0
230
-1
40
0.386547
41
-2.71279988031064
42
-2.20181390691389
0
ELLIPSE
5
15C
100
AcDbEntity
8
1
62
256
6
ByLayer
370
18
48
1
60
0
100
AcDbEllipse
10
36.356456
20
10
30
0
11
2.6724746802136
21
0.988910207264175
31
0
210
0
220
0
230
-1
40
0.055572
41
-2.11293296050297
42
-2.03810838538316
0
ELLIPSE
5
15D
100
AcDbEntity
8
1
62
256
6
ByLayer
370
18
48
1
60
0
100
AcDbEllipse
10
33.752588
20
10
30
0
11
2.01022273814869
21
2.03160960858767E-15
31
0
210
0
220
0
230
-1
40
0.497457
41
0.969678448662263
42
-0.969678448662203
0
ELLIPSE
5
15E
100
AcDbEntity
8
1
62
256
6
ByLayer
370
18
48
1
60
0
100
AcDbEllipse
10
36.356456
20
10
30
0
11
2.67247467856473
21
-0.988910206700834
31
0
210
0
220
0
230
-1
40
0.055572
41
2.03810838549336
42
2.11293296066459
0
ELLIPSE
5
15F
100
AcDbEntity
8
1
62
256
6
ByLayer
370
18
48
1
60
0
100
AcDbEllipse
10
35.63192
20
10
30
0
11
1.60814287234321E-16
21
1.00000000000254
31
0
210
0
220
0
230
-1
40
0.451247
41
-1.74550750766443
42
-1.39608514592515
0
ELLIPSE
5
160
100
AcDbEntity
8
1
62
256
6
ByLayer
370
18
48
1
60
0
100
AcDbEllipse
10
40.467963
20
12.944226
30
0
11
0.299993003501551
21
0.0212470571942227
31
0
210
0
220
0
230
-1
40
0.09643
41
-1.78738101634703
42
-1.38953797936441
0
ELLIPSE
5
161
100
AcDbEntity
8
1
62
256
6
ByLayer
370
18
48
1
60
0
100
AcDbEllipse
10
41.648812
20
11.574987
30
0
11
4.00756595718865E-08
21
0.399991090912373
31
0
210
0
220
0
230
-1
40
0.122034
41
-1.57079714786978
42
-1.53641968587114
0
ELLIPSE
5
162
100
AcDbEntity
8
1
62
256
6
ByLayer
370
18
48
1
60
0
100
AcDbEllipse
10
41.588322
20
8.283602
30
0
11
0.00675217813784296
21
-1.76695229627315
31
0
210
0
220
0
230
-1
40
0.006919
41
-1.62501627814461
42
-1.60953258245932
0
ELLIPSE
5
163
100
AcDbEntity
8
1
62
256
6
ByLayer
370
18
48
1
60
0
100
AcDbEllipse
10
41.588332
20
11.71633
30
0
11
0.00674973329326113
21
1.76619004688421
31
0
210
0
220
0
230
-1
40
0.006916
41
1.6095109273674
42
1.62500129241585
0
ELLIPSE
5
164
100
AcDbEntity
8
1
62
256
6
ByLayer
370
18
48
1
60
0
100
AcDbEllipse
10
37.305211
20
12.9
30
0
11
0.203674870635643
21
2.49421540694359E-17
31
0
210
0
220
0
230
-1
40
0.981957
41
1.03927776944692
42
1.5707963267949
0
ELLIPSE
5
165
100
AcDbEntity
8
1
62
256
6
ByLayer
370
18
48
1
60
0
100
AcDbEllipse
10
40.467963
20
7.055774
30
0
11
0.299993003739658
21
-0.0212470572084294
31
0
210
0
220
0
230
-1
40
0.09643
41
1.38953797960141
42
1.78738101626484
0
ELLIPSE
5
166
100
AcDbEntity
8
1
62
256
6
ByLayer
370
18
48
1
60
0
100
AcDbEllipse
10
37.305211
20
7.1
30
0
11
-0.203674870635643
21
0
31
-3.19189119579732E-16
210
1.56715022615988E-15
220
0
230
-1
40
0.981957
41
1.5707963267949
42
2.10231488414288
0
ELLIPSE
5
167
100
AcDbEntity
8
1
62
256
6
ByLayer
370
18
48
1
60
0
100
AcDbEllipse
10
41.648812
20
8.425013
30
0
11
4.00756596698528E-08
21
-0.399991090912373
31
0
210
0
220
0
230
-1
40
0.122034
41
1.53641968587114
42
1.57079714786978
0
POINT
5
6C
100
AcDbEntity
8
81
62
256
6
ByLayer
370
18
48
1
60
0
100
AcDbPoint
10
41.6
20
13
30
0
39
0
210
0
220
0
230
1
50
360
0
POINT
5
6E
100
AcDbEntity
8
80
62
256
6
ByLayer
370
18
48
1
60
0
100
AcDbPoint
10
0
20
0
30
0
39
0
210
0
220
0
230
1
50
360
0
SPLINE
5
168
100
AcDbEntity
8
1
62
256
6
ByLayer
370
18
48
1
60
0
100
AcDbSpline
70
4
71
3
72
14
73
10
40
0
40
0
40
0
40
0
40
0.26511549667663
40
0.26511549667663
40
0.530351997484443
40
0.530351997484443
40
0.794743006633756
40
0.794743006633756
40
1
40
1
40
1
40
1
41
1
10
35.103474001256
20
9.68709869934148
30
0
41
1
10
35.1178169193669
20
9.69286814032455
30
0
41
1
10
35.1312798336788
20
9.70107615959958
30
0
41
1
10
35.1541755035236
20
9.72123979547777
30
0
41
1
10
35.1639170011518
20
9.73346737762347
30
0
41
1
10
35.1784767387755
20
9.76016268298284
30
0
41
1
10
35.1835136438587
20
9.7749725871484
30
0
41
1
10
35.1880089221204
20
9.80190858852811
30
0
41
1
10
35.1885025937918
20
9.81411601565068
30
0
41
1
10
35.187541993882
20
9.82617627752626
30
0
0
SPLINE
5
169
100
AcDbEntity
8
1
62
256
6
ByLayer
370
18
48
1
60
0
100
AcDbSpline
70
4
71
3
72
12
73
8
40
0
40
0
40
0
40
0
40
0.332414864303877
40
0.332414864303877
40
0.66545076911606
40
0.66545076911606
40
1
40
1
40
1
40
1
41
1
10
34.9304703189274
20
9.61697320392852
30
0
41
1
10
34.9218610250495
20
9.61345571294177
30
0
41
1
10
34.9137959778899
20
9.60856724613114
30
0
41
1
10
34.9001780410718
20
9.59670948329136
30
0
41
1
10
34.8944556422082
20
9.58957694020856
30
0
41
1
10
34.8860910382753
20
9.57418022845968
30
0
41
1
10
34.8833463988581
20
9.56572085924751
30
0
41
1
10
34.882081225362
20
9.55722388299802
30
0
0
SPLINE
5
16A
100
AcDbEntity
8
1
62
256
6
ByLayer
370
18
48
1
60
0
100
AcDbSpline
70
4
71
3
72
12
73
8
40
0
40
0
40
0
40
0
40
0.341621324294097
40
0.341621324294097
40
0.684704153809037
40
0.684704153809037
40
1
40
1
40
1
40
1
41
1
10
34.8820812253629
20
10.4427761170021
30
0
41
1
10
34.8833724269379
20
10.434104334713
30
0
41
1
10
34.8862073194721
20
10.4254690185007
30
0
41
1
10
34.8949039737677
20
10.4097435555255
30
0
41
1
10
34.9009057799659
20
10.4024567515934
30
0
41
1
10
34.9146091122724
20
10.390939836288
30
0
41
1
10
34.9222922726726
20
10.3863680926285
30
0
41
1
10
34.9304703189275
20
10.3830267960717
30
0
0
SPLINE
5
16B
100
AcDbEntity
8
1
62
256
6
ByLayer
370
18
48
1
60
0
100
AcDbSpline
70
4
71
3
72
18
73
14
40
0
40
0
40
0
40
0
40
0.19612420748216
40
0.19612420748216
40
0.391956138879499
40
0.391956138879499
40
0.593391230704847
40
0.593391230704847
40
0.808334742403808
40
0.808334742403808
40
0.996301839338836
40
0.996301839338836
40
1
40
1
40
1
40
1
41
1
10
11.2026316928586
20
5.72500000000039
30
0
41
1
10
11.2026316928586
20
5.89475502210232
30
0
41
1
10
11.2305242974107
20
6.06684752965276
30
0
41
1
10
11.3361638686546
20
6.38667658415318
30
0
41
1
10
11.4151498973843
20
6.53874035569265
30
0
41
1
10
11.6134737857806
20
6.80887678652491
30
0
41
1
10
11.7363488613837
20
6.92941792571062
30
0
41
1
10
12.0154291340496
20
7.12916672660987
30
0
41
1
10
12.1768841985505
20
7.20778354951406
30
0
41
1
10
12.4894498167245
20
7.30144276038763
30
0
41
1
10
12.6422431376522
20
7.32413208972366
30
0
41
1
10
12.7966949148675
20
7.32499173943182
30
0
41
1
10
12.7996632953558
20
7.32500000000053
30
0
41
1
10
12.8026316928587
20
7.32500000000053
30
0
0
SPLINE
5
16C
100
AcDbEntity
8
1
62
256
6
ByLayer
370
18
48
1
60
0
100
AcDbSpline
70
4
71
3
72
14
73
10
40
0
40
0
40
0
40
0
40
0.277964822127863
40
0.277964822127863
40
0.556501573953062
40
0.556501573953062
40
0.827022564378708
40
0.827022564378708
40
1
40
1
40
1
40
1
41
1
10
35.1875419938809
20
10.1738237224738
30
0
41
1
10
35.188835010525
20
10.1900574522263
30
0
41
1
10
35.1874656911388
20
10.2066186943119
30
0
41
1
10
35.1793911623362
20
10.237727442912
30
0
41
1
10
35.172550118279
20
10.2527067230388
30
0
41
1
10
35.1544769848124
20
10.2784703476159
30
0
41
1
10
35.1431148900939
20
10.2897167862919
30
0
41
1
10
35.1219500249486
20
10.3042828295221
30
0
41
1
10
35.1129131106976
20
10.3091044174574
30
0
41
1
10
35.1034740012568
20
10.31290130066
30
0
0
SPLINE
5
16D
100
AcDbEntity
8
1
62
256
6
ByLayer
370
13
48
1
60
0
100
AcDbSpline
70
4
71
3
72
8
73
4
40
0
40
0
40
0
40
0
40
1
40
1
40
1
40
1
41
1
10
36.4359016088518
20
11.019284108092
30
0
41
1
10
36.4282987682254
20
11.0938259968272
30
0
41
1
10
36.3954578468317
20
11.1569372121205
30
0
41
1
10
36.3485584035406
20
11.2085978495646
30
0
0
SPLINE
5
16E
100
AcDbEntity
8
1
62
256
6
ByLayer
370
13
48
1
60
0
100
AcDbSpline
70
4
71
3
72
12
73
8
40
0
40
0
40
0
40
0
40
0.160969670350478
40
0.160969670350478
40
0.981933655007004
40
0.981933655007004
40
1
40
1
40
1
40
1
41
1
10
36.3485584035404
20
11.2085978495644
30
0
41
1
10
36.4024700593704
20
11.2619159441098
30
0
41
1
10
36.45758824643
20
11.3140489755673
30
0
41
1
10
36.7988536829988
20
11.6209142787544
30
0
41
1
10
37.1237749365967
20
11.8389076528689
30
0
41
1
10
37.477886153516
20
12.0062554840137
30
0
41
1
10
37.4856025044903
20
12.0098749196086
30
0
41
1
10
37.4933288758357
20
12.0134727379302
30
0
0
SPLINE
5
16F
100
AcDbEntity
8
1
62
256
6
ByLayer
370
13
48
1
60
0
100
AcDbSpline
70
4
71
3
72
10
73
6
40
0
40
0
40
0
40
0
40
0.51838227864566
40
0.51838227864566
40
1
40
1
40
1
40
1
41
1
10
37.4933288758356
20
12.0134727379301
30
0
41
1
10
37.7963426277498
20
11.9775168645502
30
0
41
1
10
38.1489274122891
20
11.9961317075905
30
0
41
1
10
38.8521911215131
20
12.00906008925
30
0
41
1
10
39.210767528871
20
12.0122271834532
30
0
41
1
10
39.562109564594
20
12.0515638185443
30
0
0
SPLINE
5
170
100
AcDbEntity
8
1
62
256
6
ByLayer
370
13
48
1
60
0
100
AcDbSpline
70
4
71
3
72
8
73
4
40
0
40
0
40
0
40
0
40
1
40
1
40
1
40
1
41
1
10
39.562109564594
20
12.0515638185443
30
0
41
1
10
39.6266681717128
20
12.0587918701636
30
0
41
1
10
39.6912502214358
20
12.0659183500112
30
0
41
1
10
39.755963685526
20
12.0715914032154
30
0
0
SPLINE
5
171
100
AcDbEntity
8
1
62
256
6
ByLayer
370
13
48
1
60
0
100
AcDbSpline
70
4
71
3
72
8
73
4
40
0
40
0
40
0
40
0
40
1
40
1
40
1
40
1
41
1
10
39.755963685526
20
12.0715914032154
30
0
41
1
10
39.9820343342518
20
12.0914097027943
30
0
41
1
10
40.2101060020604
20
12.100821952412
30
0
41
1
10
40.4300209264769
20
12.1022992954736
30
0
0
SPLINE
5
172
100
AcDbEntity
8
1
62
256
6
ByLayer
370
13
48
1
60
0
100
AcDbSpline
70
4
71
3
72
8
73
4
40
0
40
0
40
0
40
0
40
1
40
1
40
1
40
1
41
1
10
40.4300209264768
20
12.1022992954736
30
0
41
1
10
40.4544812091952
20
12.1024636146031
30
0
41
1
10
40.4789484763174
20
12.1023464078042
30
0
41
1
10
40.5034132847064
20
12.1019349695432
30
0
0
SPLINE
5
173
100
AcDbEntity
8
1
62
256
6
ByLayer
370
13
48
1
60
0
100
AcDbSpline
70
4
71
3
72
10
73
6
40
0
40
0
40
0
40
0
40
0.570501669014028
40
0.570501669014028
40
1
40
1
40
1
40
1
41
1
10
40.5034132847052
20
12.1019349695477
30
0
41
1
10
40.6626475529977
20
12.0346089631925
30
0
41
1
10
40.8142113386963
20
11.9494098746301
30
0
41
1
10
41.0764810300832
20
11.7955841696805
30
0
41
1
10
41.1878177951011
20
11.7268219486633
30
0
41
1
10
41.2985587777237
20
11.6571462585064
30
0
0
SPLINE
5
174
100
AcDbEntity
8
1
62
256
6
ByLayer
370
13
48
1
60
0
100
AcDbSpline
70
4
71
3
72
8
73
4
40
0
40
0
40
0
40
0
40
1
40
1
40
1
40
1
41
1
10
41.2985587777251
20
11.6571462585152
30
0
41
1
10
41.1010010686878
20
11.6643677183341
30
0
41
1
10
40.9039447417109
20
11.6715015953951
30
0
41
1
10
40.7045819300009
20
11.6797124775774
30
0
0
SPLINE
5
175
100
AcDbEntity
8
1
62
256
6
ByLayer
370
13
48
1
60
0
100
AcDbSpline
70
4
71
3
72
10
73
6
40
0
40
0
40
0
40
0
40
0.0684120488039617
40
0.0684120488039617
40
1
40
1
40
1
40
1
41
1
10
40.7045819300009
20
11.6797124775774
30
0
41
1
10
40.6912082692696
20
11.6802632801653
30
0
41
1
10
40.6777987666321
20
11.6808160840655
30
0
41
1
10
40.4821298896842
20
11.6887603082083
30
0
41
1
10
40.2934664393741
20
11.6963187464796
30
0
41
1
10
40.1018995872128
20
11.7032236457291
30
0
0
SPLINE
5
176
100
AcDbEntity
8
1
62
256
6
ByLayer
370
13
48
1
60
0
100
AcDbSpline
70
4
71
3
72
10
73
6
40
0
40
0
40
0
40
0
40
0.468044400024023
40
0.468044400024023
40
1
40
1
40
1
40
1
41
1
10
40.1018995872127
20
11.7032236457291
30
0
41
1
10
40.0517560104036
20
11.7050310374671
30
0
41
1
10
40.0013033339733
20
11.7046965348586
30
0
41
1
10
39.8937177499153
20
11.6989301767411
30
0
41
1
10
39.8365975367621
20
11.6918663903992
30
0
41
1
10
39.779814138327
20
11.6834789866571
30
0
0
SPLINE
5
177
100
AcDbEntity
8
1
62
256
6
ByLayer
370
13
48
1
60
0
100
AcDbSpline
70
4
71
3
72
12
73
8
40
0
40
0
40
0
40
0
40
0.0470115153722379
40
0.0470115153722379
40
0.465115903096302
40
0.465115903096302
40
1
40
1
40
1
40
1
41
1
10
39.779814138327
20
11.6834789866571
30
0
41
1
10
39.7761082124741
20
11.6829315890511
30
0
41
1
10
39.7724015800766
20
11.6823852278447
30
0
41
1
10
39.7357276585559
20
11.6769892599279
30
0
41
1
10
39.7027049262585
20
11.6722101266301
30
0
41
1
10
39.6274164309495
20
11.6612234153891
30
0
41
1
10
39.5851810589734
20
11.6546879018028
30
0
41
1
10
39.5428619713804
20
11.6487418797785
30
0
0
SPLINE
5
178
100
AcDbEntity
8
1
62
256
6
ByLayer
370
13
48
1
60
0
100
AcDbSpline
70
4
71
3
72
12
73
8
40
0
40
0
40
0
40
0
40
0.590022741903274
40
0.590022741903274
40
0.970641250406561
40
0.970641250406561
40
1
40
1
40
1
40
1
41
1
10
39.5428619713804
20
11.6487418797785
30
0
41
1
10
39.3448099475357
20
11.6209146802166
30
0
41
1
10
39.1467439547593
20
11.5931283705206
30
0
41
1
10
38.8208968260383
20
11.5475409721338
30
0
41
1
10
38.6930873442261
20
11.5297285174005
30
0
41
1
10
38.5554547439041
20
11.5107448504
30
0
41
1
10
38.5456021400097
20
11.5093538773744
30
0
41
1
10
38.5357561156093
20
11.507916840586
30
0
0
SPLINE
5
179
100
AcDbEntity
8
1
62
256
6
ByLayer
370
13
48
1
60
0
100
AcDbSpline
70
4
71
3
72
10
73
6
40
0
40
0
40
0
40
0
40
0.0961233254681772
40
0.0961233254681772
40
1
40
1
40
1
40
1
41
1
10
38.5357561156093
20
11.507916840586
30
0
41
1
10
38.5123664859309
20
11.5045031015021
30
0
41
1
10
38.4889831583808
20
11.5010773466581
30
0
41
1
10
38.2470954639657
20
11.4656301870604
30
0
41
1
10
38.0281259949603
20
11.4341877605832
30
0
41
1
10
37.8169946393813
20
11.4024168292502
30
0
0
SPLINE
5
17A
100
AcDbEntity
8
1
62
256
6
ByLayer
370
13
48
1
60
0
100
AcDbSpline
70
4
71
3
72
12
73
8
40
0
40
0
40
0
40
0
40
0.33359647415066
40
0.33359647415066
40
0.666225407146582
40
0.666225407146582
40
1
40
1
40
1
40
1
41
1
10
37.8169946393813
20
11.4024168292502
30
0
41
1
10
37.7029555215889
20
11.3852562849496
30
0
41
1
10
37.5908577567951
20
11.3647153827385
30
0
41
1
10
37.3727874682058
20
11.318396978673
30
0
41
1
10
37.2664519302232
20
11.2925255533264
30
0
41
1
10
37.0601968156914
20
11.2364617836523
30
0
41
1
10
36.9602732084934
20
11.2054083731607
30
0
41
1
10
36.863602185457
20
11.1744395563316
30
0
0
SPLINE
5
17B
100
AcDbEntity
8
1
62
256
6
ByLayer
370
13
48
1
60
0
100
AcDbSpline
70
4
71
3
72
8
73
4
40
0
40
0
40
0
40
0
40
1
40
1
40
1
40
1
41
1
10
36.863602185457
20
11.1744395563316
30
0
41
1
10
36.7195966594488
20
11.1283070068119
30
0
41
1
10
36.5767816280718
20
11.0765121951002
30
0
41
1
10
36.4359016088488
20
11.0192841080842
30
0
0
SPLINE
5
17C
100
AcDbEntity
8
1
62
256
6
ByLayer
370
13
48
1
60
0
100
AcDbSpline
70
4
71
3
72
10
73
6
40
0
40
0
40
0
40
0
40
0.87060552001054
40
0.87060552001054
40
1
40
1
40
1
40
1
41
1
10
36.3485642137409
20
8.7913964042142
30
0
41
1
10
36.389412610661
20
8.83639135272665
30
0
41
1
10
36.4196650255191
20
8.8897758451017
30
0
41
1
10
36.4334978291681
20
8.96134571562737
30
0
41
1
10
36.4349105065333
20
8.97092952517067
30
0
41
1
10
36.4359082989303
20
8.98071317428065
30
0
0
SPLINE
5
17D
100
AcDbEntity
8
1
62
256
6
ByLayer
370
13
48
1
60
0
100
AcDbSpline
70
4
71
3
72
8
73
4
40
0
40
0
40
0
40
0
40
1
40
1
40
1
40
1
41
1
10
36.863602185457
20
8.82556044366865
30
0
41
1
10
36.7195989377399
20
8.87169226333174
30
0
41
1
10
36.5767861477318
20
8.92348616494485
30
0
41
1
10
36.4359082989292
20
8.98071317428551
30
0
0
SPLINE
5
17E
100
AcDbEntity
8
1
62
256
6
ByLayer
370
13
48
1
60
0
100
AcDbSpline
70
4
71
3
72
12
73
8
40
0
40
0
40
0
40
0
40
0.33359647415066
40
0.33359647415066
40
0.666225407146582
40
0.666225407146582
40
1
40
1
40
1
40
1
41
1
10
37.8169946393813
20
8.59758317075003
30
0
41
1
10
37.7029555215889
20
8.61474371505062
30
0
41
1
10
37.5908577567951
20
8.6352846172617
30
0
41
1
10
37.3727874682058
20
8.68160302132719
30
0
41
1
10
37.2664519302232
20
8.7074744466739
30
0
41
1
10
37.0601968156914
20
8.76353821634791
30
0
41
1
10
36.9602732084934
20
8.79459162683949
30
0
41
1
10
36.863602185457
20
8.82556044366865
30
0
0
SPLINE
5
17F
100
AcDbEntity
8
1
62
256
6
ByLayer
370
13
48
1
60
0
100
AcDbSpline
70
4
71
3
72
10
73
6
40
0
40
0
40
0
40
0
40
0.0961233254681772
40
0.0961233254681772
40
1
40
1
40
1
40
1
41
1
10
38.5357561156093
20
8.49208315941425
30
0
41
1
10
38.5123664859309
20
8.49549689849809
30
0
41
1
10
38.4889831583808
20
8.49892265334213
30
0
41
1
10
38.2470954639657
20
8.53436981293987
30
0
41
1
10
38.0281259949603
20
8.56581223941706
30
0
41
1
10
37.8169946393813
20
8.59758317075006
30
0
0
SPLINE
5
180
100
AcDbEntity
8
1
62
256
6
ByLayer
370
13
48
1
60
0
100
AcDbSpline
70
4
71
3
72
12
73
8
40
0
40
0
40
0
40
0
40
0.590022741903274
40
0.590022741903274
40
0.970641250406561
40
0.970641250406561
40
1
40
1
40
1
40
1
41
1
10
39.5428619713804
20
8.3512581202217
30
0
41
1
10
39.3448099475357
20
8.37908531978366
30
0
41
1
10
39.1467439547593
20
8.40687162947964
30
0
41
1
10
38.8208968260383
20
8.4524590278665
30
0
41
1
10
38.6930873442261
20
8.47027148259974
30
0
41
1
10
38.5554547439041
20
8.48925514960024
30
0
41
1
10
38.5456021400097
20
8.4906461226258
30
0
41
1
10
38.5357561156093
20
8.49208315941425
30
0
0
SPLINE
5
181
100
AcDbEntity
8
1
62
256
6
ByLayer
370
13
48
1
60
0
100
AcDbSpline
70
4
71
3
72
12
73
8
40
0
40
0
40
0
40
0
40
0.0470115153722379
40
0.0470115153722379
40
0.465115903096302
40
0.465115903096302
40
1
40
1
40
1
40
1
41
1
10
39.779814138327
20
8.31652101334313
30
0
41
1
10
39.7761082124741
20
8.31706841094916
30
0
41
1
10
39.7724015800766
20
8.31761477215557
30
0
41
1
10
39.7357276585559
20
8.32301074007233
30
0
41
1
10
39.7027049262585
20
8.32778987337011
30
0
41
1
10
39.6274164309495
20
8.33877658461111
30
0
41
1
10
39.5851810589734
20
8.34531209819744
30
0
41
1
10
39.5428619713804
20
8.3512581202217
30
0
0
SPLINE
5
182
100
AcDbEntity
8
1
62
256
6
ByLayer
370
13
48
1
60
0
100
AcDbSpline
70
4
71
3
72
10
73
6
40
0
40
0
40
0
40
0
40
0.468044400024023
40
0.468044400024023
40
1
40
1
40
1
40
1
41
1
10
40.1018995872127
20
8.29677635427117
30
0
41
1
10
40.0517560104036
20
8.29496896253315
30
0
41
1
10
40.0013033339733
20
8.2953034651417
30
0
41
1
10
39.8937177499153
20
8.30106982325918
30
0
41
1
10
39.8365975367621
20
8.30813360960101
30
0
41
1
10
39.779814138327
20
8.31652101334313
30
0
0
SPLINE
5
183
100
AcDbEntity
8
1
62
256
6
ByLayer
370
13
48
1
60
0
100
AcDbSpline
70
4
71
3
72
10
73
6
40
0
40
0
40
0
40
0
40
0.0684120488039617
40
0.0684120488039617
40
1
40
1
40
1
40
1
41
1
10
40.7045819300009
20
8.3202875224228
30
0
41
1
10
40.6912082692696
20
8.31973671983496
30
0
41
1
10
40.6777987666321
20
8.31918391593479
30
0
41
1
10
40.4821298896842
20
8.31123969179191
30
0
41
1
10
40.2934664393741
20
8.30368125352058
30
0
41
1
10
40.1018995872128
20
8.29677635427117
30
0
0
SPLINE
5
184
100
AcDbEntity
8
1
62
256
6
ByLayer
370
13
48
1
60
0
100
AcDbSpline
70
4
71
3
72
8
73
4
40
0
40
0
40
0
40
0
40
1
40
1
40
1
40
1
41
1
10
41.2985587777251
20
8.34285374148507
30
0
41
1
10
41.1010010686878
20
8.33563228166608
30
0
41
1
10
40.9039447417109
20
8.32849840460514
30
0
41
1
10
40.7045819300009
20
8.3202875224228
30
0
0
SPLINE
5
185
100
AcDbEntity
8
1
62
256
6
ByLayer
370
13
48
1
60
0
100
AcDbSpline
70
4
71
3
72
10
73
6
40
0
40
0
40
0
40
0
40
0.570501669014028
40
0.570501669014028
40
1
40
1
40
1
40
1
41
1
10
40.5034132847052
20
7.89806503045259
30
0
41
1
10
40.6626475529977
20
7.96539103680774
30
0
41
1
10
40.8142113386963
20
8.05059012537012
30
0
41
1
10
41.0764810300832
20
8.20441583031973
30
0
41
1
10
41.1878177951011
20
8.27317805133697
30
0
41
1
10
41.2985587777237
20
8.34285374149385
30
0
0
SPLINE
5
186
100
AcDbEntity
8
1
62
256
6
ByLayer
370
13
48
1
60
0
100
AcDbSpline
70
4
71
3
72
8
73
4
40
0
40
0
40
0
40
0
40
1
40
1
40
1
40
1
41
1
10
40.4300209264768
20
7.89770070452667
30
0
41
1
10
40.4544812091952
20
7.89753638539713
30
0
41
1
10
40.4789484763174
20
7.89765359219598
30
0
41
1
10
40.5034132847064
20
7.89806503045705
30
0
0
SPLINE
5
187
100
AcDbEntity
8
1
62
256
6
ByLayer
370
13
48
1
60
0
100
AcDbSpline
70
4
71
3
72
8
73
4
40
0
40
0
40
0
40
0
40
1
40
1
40
1
40
1
41
1
10
39.755963685526
20
7.92840859678489
30
0
41
1
10
39.9820343342518
20
7.90859029720593
30
0
41
1
10
40.2101060020604
20
7.89917804758818
30
0
41
1
10
40.4300209264769
20
7.89770070452667
30
0
0
SPLINE
5
188
100
AcDbEntity
8
1
62
256
6
ByLayer
370
13
48
1
60
0
100
AcDbSpline
70
4
71
3
72
8
73
4
40
0
40
0
40
0
40
0
40
1
40
1
40
1
40
1
41
1
10
39.562109564594
20
7.94843618145592
30
0
41
1
10
39.6266681717128
20
7.94120812983667
30
0
41
1
10
39.6912502214358
20
7.93408164998911
30
0
41
1
10
39.755963685526
20
7.92840859678486
30
0
0
SPLINE
5
189
100
AcDbEntity
8
1
62
256
6
ByLayer
370
13
48
1
60
0
100
AcDbSpline
70
4
71
3
72
10
73
6
40
0
40
0
40
0
40
0
40
0.51838227864566
40
0.51838227864566
40
1
40
1
40
1
40
1
41
1
10
37.4933288758356
20
7.98652726207015
30
0
41
1
10
37.7963426277498
20
8.02248313545005
30
0
41
1
10
38.1489274122891
20
8.00386829240975
30
0
41
1
10
38.8521911215131
20
7.99093991075029
30
0
41
1
10
39.210767528871
20
7.98777281654699
30
0
41
1
10
39.562109564594
20
7.94843618145592
30
0
0
SPLINE
5
18A
100
AcDbEntity
8
1
62
256
6
ByLayer
370
13
48
1
60
0
100
AcDbSpline
70
4
71
3
72
12
73
8
40
0
40
0
40
0
40
0
40
0.160964815992481
40
0.160964815992481
40
0.981933550480977
40
0.981933550480977
40
1
40
1
40
1
40
1
41
1
10
36.3485642137406
20
8.79139640421442
30
0
41
1
10
36.402474018767
20
8.73808031085707
30
0
41
1
10
36.4575902714035
20
8.68594920358021
30
0
41
1
10
36.7988536829988
20
8.37908572124582
30
0
41
1
10
37.1237749365967
20
8.1610923471313
30
0
41
1
10
37.477886153516
20
7.99374451598658
30
0
41
1
10
37.4856025044903
20
7.99012508039166
30
0
41
1
10
37.4933288758357
20
7.98652726207007
30
0
0
SPLINE
5
18B
100
AcDbEntity
8
1
62
256
6
ByLayer
370
13
48
1
60
0
100
AcDbSpline
70
4
71
3
72
14
73
10
40
0
40
0
40
0
40
0
40
0.46187092196456
40
0.46187092196456
40
0.784900183824898
40
0.784900183824898
40
0.964711008576954
40
0.964711008576954
40
1
40
1
40
1
40
1
41
1
10
36.7539525182229
20
10.5698183282756
30
0
41
1
10
36.8284643702333
20
10.501193444605
30
0
41
1
10
36.9025028669999
20
10.4276846008187
30
0
41
1
10
37.0134603247844
20
10.28660914063
30
0
41
1
10
37.0559337259585
20
10.2226318332573
30
0
41
1
10
37.0988972131727
20
10.1117706290179
30
0
41
1
10
37.1095547742977
20
10.068902615782
30
0
41
1
10
37.1130464995454
20
10.0171816195867
30
0
41
1
10
37.1133357765146
20
10.0085627204848
30
0
41
1
10
37.113334681324
20
9.99994980763358
30
0
0
SPLINE
5
18C
100
AcDbEntity
8
1
62
256
6
ByLayer
370
13
48
1
60
0
100
AcDbSpline
70
4
71
3
72
12
73
8
40
0
40
0
40
0
40
0
40
0.17060963201422
40
0.17060963201422
40
0.423062344273913
40
0.423062344273913
40
1
40
1
40
1
40
1
41
1
10
37.113334681324
20
9.99994980763358
30
0
41
1
10
37.1133294570519
20
9.95886453990926
30
0
41
1
10
37.1062569401512
20
9.91735474001047
30
0
41
1
10
37.0760172652895
20
9.82120022177153
30
0
41
1
10
37.0470853575982
20
9.76786343458224
30
0
41
1
10
36.940239469095
20
9.60861843356912
30
0
41
1
10
36.8467586441423
20
9.51565105612653
30
0
41
1
10
36.7539521270622
20
9.43017648493077
30
0
0
SPLINE
5
18D
100
AcDbEntity
8
1
62
256
6
ByLayer
370
13
48
1
60
0
100
AcDbSpline
70
4
71
3
72
8
73
4
40
0
40
0
40
0
40
0
40
1
40
1
40
1
40
1
41
1
10
36.7539521270622
20
9.43017648493077
30
0
41
1
10
36.6746745585377
20
9.35716204167537
30
0
41
1
10
36.589409109893
20
9.29300464150043
30
0
41
1
10
36.5018459660847
20
9.23476051650411
30
0
0
SPLINE
5
18E
100
AcDbEntity
8
1
62
256
6
ByLayer
370
13
48
1
60
0
100
AcDbSpline
70
4
71
3
72
12
73
8
40
0
40
0
40
0
40
0
40
0.0772090170260868
40
0.0772090170260868
40
0.585567424894413
40
0.585567424894413
40
1
40
1
40
1
40
1
41
1
10
36.5018459660847
20
9.23476051650411
30
0
41
1
10
36.4945755693702
20
9.22992448759297
30
0
41
1
10
36.4874255779209
20
9.22500205872495
30
0
41
1
10
36.4347459273612
20
9.18740157036441
30
0
41
1
10
36.3940407199349
20
9.15051657567233
30
0
41
1
10
36.3409378784399
20
9.0802580005641
30
0
41
1
10
36.3242339685167
20
9.0465169221018
30
0
41
1
10
36.3195835665847
20
9.01483350476559
30
0
0
SPLINE
5
18F
100
AcDbEntity
8
1
62
256
6
ByLayer
370
13
48
1
60
0
100
AcDbSpline
70
4
71
3
72
10
73
6
40
0
40
0
40
0
40
0
40
0.126368939291459
40
0.126368939291459
40
1
40
1
40
1
40
1
41
1
10
36.3195835665848
20
9.01483350476559
30
0
41
1
10
36.3183540355183
20
9.00645664907327
30
0
41
1
10
36.3167001220843
20
8.99826723636079
30
0
41
1
10
36.3007011573231
20
8.93606156214358
30
0
41
1
10
36.2675240870034
20
8.89070508067479
30
0
41
1
10
36.2253542688251
20
8.85331224838396
30
0
0
SPLINE
5
190
100
AcDbEntity
8
1
62
256
6
ByLayer
370
13
48
1
60
0
100
AcDbSpline
70
4
71
3
72
14
73
10
40
0
40
0
40
0
40
0
40
0.0736066511965389
40
0.0736066511965389
40
0.279115482337526
40
0.279115482337526
40
0.530737523610818
40
0.530737523610818
40
1
40
1
40
1
40
1
41
1
10
36.2253542688251
20
8.85331224838396
30
0
41
1
10
36.2241314602749
20
8.85222795926398
30
0
41
1
10
36.222733124495
20
8.85117700023079
30
0
41
1
10
36.2169331770584
20
8.84739175088416
30
0
41
1
10
36.2115012509994
20
8.8449107191023
30
0
41
1
10
36.198272783965
20
8.84017770768784
30
0
41
1
10
36.1900612580311
20
8.8380257541491
30
0
41
1
10
36.1658772529573
20
8.83301253638325
30
0
41
1
10
36.1488164279867
20
8.83097682344993
30
0
41
1
10
36.1319424296532
20
8.82989289485542
30
0
0
SPLINE
5
191
100
AcDbEntity
8
1
62
256
6
ByLayer
370
13
48
1
60
0
100
AcDbSpline
70
4
71
3
72
10
73
6
40
0
40
0
40
0
40
0
40
0.676946846913182
40
0.676946846913182
40
1
40
1
40
1
40
1
41
1
10
36.1319424296532
20
8.82989289485542
30
0
41
1
10
35.9989356554878
20
8.82134898943747
30
0
41
1
10
35.8658374813155
20
8.81397184976561
30
0
41
1
10
35.6691629176147
20
8.80448165686997
30
0
41
1
10
35.6056133979924
20
8.80164883197594
30
0
41
1
10
35.5420536790832
20
8.79906003763017
30
0
0
SPLINE
5
192
100
AcDbEntity
8
1
62
256
6
ByLayer
370
13
48
1
60
0
100
AcDbSpline
70
4
71
3
72
10
73
6
40
0
40
0
40
0
40
0
40
0.626416619436475
40
0.626416619436475
40
1
40
1
40
1
40
1
41
1
10
35.5420536790832
20
8.79906003763017
30
0
41
1
10
35.5108545968729
20
8.8035853897359
30
0
41
1
10
35.4797114053826
20
8.80851589583693
30
0
41
1
10
35.4301117971857
20
8.81705526370922
30
0
41
1
10
35.4116066404271
20
8.82039497437816
30
0
41
1
10
35.3931300887783
20
8.82388629441948
30
0
0
SPLINE
5
193
100
AcDbEntity
8
1
62
256
6
ByLayer
370
13
48
1
60
0
100
AcDbSpline
70
4
71
3
72
12
73
8
40
0
40
0
40
0
40
0
40
0.0703164649150449
40
0.0703164649150449
40
0.581360051712833
40
0.581360051712833
40
1
40
1
40
1
40
1
41
1
10
35.3931300887783
20
8.82388629441948
30
0
41
1
10
35.3896064746126
20
8.83510663852664
30
0
41
1
10
35.3863722461777
20
8.84675235051606
30
0
41
1
10
35.3624315604254
20
8.94484933758599
30
0
41
1
10
35.3566474511082
20
9.05349002369687
30
0
41
1
10
35.3728792592853
20
9.27133264049431
30
0
41
1
10
35.3901985409609
20
9.37919768612963
30
0
41
1
10
35.415820588827
20
9.48985566775511
30
0
0
SPLINE
5
194
100
AcDbEntity
8
1
62
256
6
ByLayer
370
13
48
1
60
0
100
AcDbSpline
70
4
71
3
72
12
73
8
40
0
40
0
40
0
40
0
40
0.435431113819515
40
0.435431113819515
40
0.717532805798725
40
0.717532805798725
40
1
40
1
40
1
40
1
41
1
10
35.415820588827
20
9.48985566775511
30
0
41
1
10
35.4381724659014
20
9.498738753731
30
0
41
1
10
35.4606950871877
20
9.50732434797754
30
0
41
1
10
35.4980537535315
20
9.52098244528125
30
0
41
1
10
35.5128059409223
20
9.52622822688514
30
0
41
1
10
35.5424455510013
20
9.53647842676182
30
0
41
1
10
35.5573344578467
20
9.54148298551522
30
0
41
1
10
35.5722773697903
20
9.5463639927132
30
0
0
SPLINE
5
195
100
AcDbEntity
8
1
62
256
6
ByLayer
370
13
48
1
60
0
100
AcDbSpline
70
4
71
3
72
8
73
4
40
0
40
0
40
0
40
0
40
1
40
1
40
1
40
1
41
1
10
35.5722773697903
20
9.5463639927132
30
0
41
1
10
35.5753874653814
20
9.54737988566794
30
0
41
1
10
35.5784978788126
20
9.5483955831416
30
0
41
1
10
35.5816086093232
20
9.54941108397489
30
0
0
SPLINE
5
196
100
AcDbEntity
8
1
62
256
6
ByLayer
370
13
48
1
60
0
100
AcDbSpline
70
4
71
3
72
14
73
10
40
0
40
0
40
0
40
0
40
0.187918734288723
40
0.187918734288723
40
0.467635128165853
40
0.467635128165853
40
0.738040419848296
40
0.738040419848296
40
1
40
1
40
1
40
1
41
1
10
35.5816086093235
20
9.54941108397418
30
0
41
1
10
35.6085357651895
20
9.55820147874681
30
0
41
1
10
35.6345832940146
20
9.56968739058968
30
0
41
1
10
35.6946317773618
20
9.60451029491466
30
0
41
1
10
35.7272539304645
20
9.63147749436465
30
0
41
1
10
35.7791059845184
20
9.69376360977739
30
0
41
1
10
35.7994773814669
20
9.72972570556789
30
0
41
1
10
35.8248145615187
20
9.80519145213955
30
0
41
1
10
35.8306163965803
20
9.84575618274553
30
0
41
1
10
35.8289770049337
20
9.88558850836213
30
0
0
SPLINE
5
197
100
AcDbEntity
8
1
62
256
6
ByLayer
370
13
48
1
60
0
100
AcDbSpline
70
4
71
3
72
8
73
4
40
0
40
0
40
0
40
0
40
1
40
1
40
1
40
1
41
1
10
35.8289770049337
20
9.88558850836213
30
0
41
1
10
35.8258512531475
20
9.96153495056456
30
0
41
1
10
35.8258513005742
20
10.0384643350027
30
0
41
1
10
35.8289771490555
20
10.1144107504155
30
0
0
SPLINE
5
198
100
AcDbEntity
8
1
62
256
6
ByLayer
370
13
48
1
60
0
100
AcDbSpline
70
4
71
3
72
14
73
10
40
0
40
0
40
0
40
0
40
0.201099563909462
40
0.201099563909462
40
0.458157239793543
40
0.458157239793543
40
0.723216631469491
40
0.723216631469491
40
1
40
1
40
1
40
1
41
1
10
35.8289771490566
20
10.1144107504157
30
0
41
1
10
35.8302439992733
20
10.145190467797
30
0
41
1
10
35.8271309592397
20
10.1763296472641
30
0
41
1
10
35.8107139234838
20
10.2434022677257
30
0
41
1
10
35.7945509040753
20
10.2793691990905
30
0
41
1
10
35.7512433327387
20
10.3432183890057
30
0
41
1
10
35.7231783841498
20
10.3718047978743
30
0
41
1
10
35.6586223460756
20
10.4189815676763
30
0
41
1
10
35.6209820083779
20
10.4377349421422
30
0
41
1
10
35.581608910529
20
10.4505883430229
30
0
0
SPLINE
5
199
100
AcDbEntity
8
1
62
256
6
ByLayer
370
13
48
1
60
0
100
AcDbSpline
70
4
71
3
72
8
73
4
40
0
40
0
40
0
40
0
40
1
40
1
40
1
40
1
41
1
10
35.581608910529
20
10.4505883430229
30
0
41
1
10
35.578498176657
20
10.4516038462897
30
0
41
1
10
35.5753877598482
20
10.4526195461998
30
0
41
1
10
35.5722776608639
20
10.4536354415967
30
0
0
SPLINE
5
19A
100
AcDbEntity
8
1
62
256
6
ByLayer
370
13
48
1
60
0
100
AcDbSpline
70
4
71
3
72
12
73
8
40
0
40
0
40
0
40
0
40
0.436615517044599
40
0.436615517044599
40
0.718508457790393
40
0.718508457790393
40
1
40
1
40
1
40
1
41
1
10
35.5722776608642
20
10.4536354415974
30
0
41
1
10
35.5491815355813
20
10.4611796540097
30
0
41
1
10
35.5262134736132
20
10.4690193582233
30
0
41
1
10
35.4886602659708
20
10.4824089196426
30
0
41
1
10
35.4739867464327
20
10.4877864612045
30
0
41
1
10
35.4447931060681
20
10.4987823583284
30
0
41
1
10
35.4302713793995
20
10.5044008948328
30
0
41
1
10
35.4158206723641
20
10.5101439011527
30
0
0
SPLINE
5
19B
100
AcDbEntity
8
1
62
256
6
ByLayer
370
13
48
1
60
0
100
AcDbSpline
70
4
71
3
72
12
73
8
40
0
40
0
40
0
40
0
40
0.418641045368793
40
0.418641045368793
40
0.929686279124088
40
0.929686279124088
40
1
40
1
40
1
40
1
41
1
10
35.4158206723641
20
10.5101439011527
30
0
41
1
10
35.3901986248806
20
10.6208018456406
30
0
41
1
10
35.3728793261309
20
10.7286668409611
30
0
41
1
10
35.3566475126931
20
10.9465093692669
30
0
41
1
10
35.3624316672437
20
11.0551500006544
30
0
41
1
10
35.3863724067103
20
11.1532462330717
30
0
41
1
10
35.3896065104014
20
11.1648914383279
30
0
41
1
10
35.3931299777108
20
11.1761113091788
30
0
0
SPLINE
5
19C
100
AcDbEntity
8
1
62
256
6
ByLayer
370
13
48
1
60
0
100
AcDbSpline
70
4
71
3
72
10
73
6
40
0
40
0
40
0
40
0
40
0.37358636951691
40
0.37358636951691
40
1
40
1
40
1
40
1
41
1
10
35.3931299777108
20
11.1761113091788
30
0
41
1
10
35.4116065612643
20
11.1796024963315
30
0
41
1
10
35.4301117484371
20
11.1829420768759
30
0
41
1
10
35.4797110376986
20
11.1914810360323
30
0
41
1
10
35.510853875297
20
11.1964112795079
30
0
41
1
10
35.5420525990654
20
11.2009363880622
30
0
0
SPLINE
5
19D
100
AcDbEntity
8
1
62
256
6
ByLayer
370
13
48
1
60
0
100
AcDbSpline
70
4
71
3
72
10
73
6
40
0
40
0
40
0
40
0
40
0.676948473610577
40
0.676948473610577
40
1
40
1
40
1
40
1
41
1
10
35.5420525990654
20
11.2009363880622
30
0
41
1
10
35.675235998862
20
11.1955109713983
30
0
41
1
10
35.8083774130497
20
11.1890243109294
30
0
41
1
10
36.0049646362058
20
11.1779661590782
30
0
41
1
10
36.0684621823958
20
11.174178934946
30
0
41
1
10
36.1319363732116
20
11.1701014781683
30
0
0
SPLINE
5
19E
100
AcDbEntity
8
1
62
256
6
ByLayer
370
13
48
1
60
0
100
AcDbSpline
70
4
71
3
72
14
73
10
40
0
40
0
40
0
40
0
40
0.205642447172662
40
0.205642447172662
40
0.552024857255131
40
0.552024857255131
40
0.779314767021146
40
0.779314767021146
40
1
40
1
40
1
40
1
41
1
10
36.131936373212
20
11.1701014781712
30
0
41
1
10
36.1394040291651
20
11.1696217706872
30
0
41
1
10
36.1468649213434
20
11.1689547199291
30
0
41
1
10
36.1665362510632
20
11.1666303620123
30
0
41
1
10
36.1787584523611
20
11.1645933060547
30
0
41
1
10
36.1973818324614
20
11.1599992794961
30
0
41
1
10
36.2044521846911
20
11.1578225483761
30
0
41
1
10
36.2165409219454
20
11.1527917254178
30
0
41
1
10
36.221743211803
20
11.1498785216456
30
0
41
1
10
36.2253481221195
20
11.1466819551307
30
0
0
SPLINE
5
19F
100
AcDbEntity
8
1
62
256
6
ByLayer
370
13
48
1
60
0
100
AcDbSpline
70
4
71
3
72
10
73
6
40
0
40
0
40
0
40
0
40
0.800695265608032
40
0.800695265608032
40
1
40
1
40
1
40
1
41
1
10
36.2253481221195
20
11.1466819551307
30
0
41
1
10
36.2640260045436
20
11.1123852839328
30
0
41
1
10
36.2951335289497
20
11.0715428989226
30
0
41
1
10
36.3146627565243
20
11.0110247785749
30
0
41
1
10
36.3176449242415
20
10.9983231238085
30
0
41
1
10
36.3195766360304
20
10.9851632383287
30
0
0
SPLINE
5
1A0
100
AcDbEntity
8
1
62
256
6
ByLayer
370
13
48
1
60
0
100
AcDbSpline
70
4
71
3
72
12
73
8
40
0
40
0
40
0
40
0
40
0.366233000367022
40
0.366233000367022
40
0.431397556128611
40
0.431397556128611
40
1
40
1
40
1
40
1
41
1
10
36.3195766360303
20
10.9851632383287
30
0
41
1
10
36.3237001095777
20
10.9570718636251
30
0
41
1
10
36.3372602127444
20
10.9273673403369
30
0
41
1
10
36.3603497416968
20
10.8940787035574
30
0
41
1
10
36.3640823290741
20
10.8890173888097
30
0
41
1
10
36.4015757775002
20
10.840934064135
30
0
41
1
10
36.4490186945115
20
10.8003722842723
30
0
41
1
10
36.5018406925719
20
10.7652371544727
30
0
0
SPLINE
5
1A1
100
AcDbEntity
8
1
62
256
6
ByLayer
370
13
48
1
60
0
100
AcDbSpline
70
4
71
3
72
8
73
4
40
0
40
0
40
0
40
0
40
1
40
1
40
1
40
1
41
1
10
36.5018406925719
20
10.7652371544727
30
0
41
1
10
36.5894057943155
20
10.7069922692234
30
0
41
1
10
36.6746732080689
20
10.6428340068558
30
0
41
1
10
36.7539525182229
20
10.5698183282756
30
0
0
SPLINE
5
1A2
100
AcDbEntity
8
1
62
256
6
ByLayer
370
13
48
1
60
0
100
AcDbSpline
70
4
71
3
72
8
73
4
40
0
40
0
40
0
40
0
40
1
40
1
40
1
40
1
41
1
10
35.5466009007632
20
8.62527785385021
30
0
41
1
10
35.7448711151022
20
8.63046583455997
30
0
41
1
10
35.9430909311785
20
8.63813419977214
30
0
41
1
10
36.1411735286768
20
8.64819787734228
30
0
0
SPLINE
5
1A3
100
AcDbEntity
8
1
62
256
6
ByLayer
370
13
48
1
60
0
100
AcDbSpline
70
4
71
3
72
12
73
8
40
0
40
0
40
0
40
0
40
0.0174209929473798
40
0.0174209929473798
40
0.813177174176632
40
0.813177174176632
40
1
40
1
40
1
40
1
41
1
10
37.3896279194018
20
7.76644496172295
30
0
41
1
10
37.3815141353121
20
7.77026810955934
30
0
41
1
10
37.3734107189215
20
7.77411334224317
30
0
41
1
10
36.99929607032
20
7.9529173010805
30
0
41
1
10
36.6556304233215
20
8.1828471196886
30
0
41
1
10
36.2796159575702
20
8.51499698230148
30
0
41
1
10
36.2094990867719
20
8.58072015581664
30
0
41
1
10
36.1411735286767
20
8.64819787734339
30
0
0
SPLINE
5
1A4
100
AcDbEntity
8
1
62
256
6
ByLayer
370
13
48
1
60
0
100
AcDbSpline
70
4
71
3
72
8
73
4
40
0
40
0
40
0
40
0
40
1
40
1
40
1
40
1
41
1
10
37.4152478209054
20
7.26847847146294
30
0
41
1
10
37.4066327245049
20
7.4344634191788
30
0
41
1
10
37.398093648773
20
7.60045232882595
30
0
41
1
10
37.389627919401
20
7.76644496173603
30
0
0
SPLINE
5
1A5
100
AcDbEntity
8
1
62
256
6
ByLayer
370
13
48
1
60
0
100
AcDbSpline
70
4
71
3
72
8
73
4
40
0
40
0
40
0
40
0
40
1
40
1
40
1
40
1
41
1
10
37.4152478209045
20
12.7315215285203
30
0
41
1
10
37.4066327245043
20
12.5655365808101
30
0
41
1
10
37.3980936487727
20
12.3995476711686
30
0
41
1
10
37.389627919401
20
12.2335550382642
30
0
0
SPLINE
5
1A6
100
AcDbEntity
8
1
62
256
6
ByLayer
370
13
48
1
60
0
100
AcDbSpline
70
4
71
3
72
12
73
8
40
0
40
0
40
0
40
0
40
0.0174209007758012
40
0.0174209007758012
40
0.813172871791341
40
0.813172871791341
40
1
40
1
40
1
40
1
41
1
10
37.3896279194018
20
12.2335550382773
30
0
41
1
10
37.3815141353121
20
12.2297318904409
30
0
41
1
10
37.3734107189215
20
12.2258866577571
30
0
41
1
10
36.99929607032
20
12.0470826989198
30
0
41
1
10
36.6556304233215
20
11.8171528803116
30
0
41
1
10
36.2796139209144
20
11.4850012186324
30
0
41
1
10
36.2094951180445
20
11.4192761238874
30
0
41
1
10
36.1411677260425
20
11.3517963920178
30
0
0
SPLINE
5
1A7
100
AcDbEntity
8
1
62
256
6
ByLayer
370
13
48
1
60
0
100
AcDbSpline
70
4
71
3
72
8
73
4
40
0
40
0
40
0
40
0
40
1
40
1
40
1
40
1
41
1
10
36.1411677260425
20
11.3517963920178
30
0
41
1
10
35.9430870468135
20
11.3618602545674
30
0
41
1
10
35.744869177038
20
11.3695293033577
30
0
41
1
10
35.5466009007632
20
11.3747184686309
30
0
0
SPLINE
5
1A8
100
AcDbEntity
8
1
62
256
6
ByLayer
370
13
48
1
60
0
100
AcDbSpline
70
4
71
3
72
14
73
10
40
0
40
0
40
0
40
0
40
0.25556417273693
40
0.25556417273693
40
0.49418353017144
40
0.49418353017144
40
0.820252528573789
40
0.820252528573789
40
1
40
1
40
1
40
1
41
1
10
36.3485584035405
20
11.2085978495645
30
0
41
1
10
36.338706427118
20
11.2188548563404
30
0
41
1
10
36.3260113454074
20
11.2302355600717
30
0
41
1
10
36.2973555070672
20
11.2532773412435
30
0
41
1
10
36.2814538668374
20
11.2650431883815
30
0
41
1
10
36.2408961225526
20
11.293042641881
30
0
41
1
10
36.2146113396222
20
11.3097231511645
30
0
41
1
10
36.1723358178908
20
11.3345813906115
30
0
41
1
10
36.1567988692586
20
11.3433442465117
30
0
41
1
10
36.1411677260427
20
11.3517963920181
30
0
0
SPLINE
5
1A9
100
AcDbEntity
8
1
62
256
6
ByLayer
370
13
48
1
60
0
100
AcDbSpline
70
4
71
3
72
10
73
6
40
0
40
0
40
0
40
0
40
0.480374533063216
40
0.480374533063216
40
1
40
1
40
1
40
1
41
1
10
39.5364283337292
20
12.269805847848
30
0
41
1
10
39.2034888340515
20
12.2279902109197
30
0
41
1
10
38.862711540784
20
12.2283746773455
30
0
41
1
10
38.1934202711035
20
12.2198219198143
30
0
41
1
10
37.8570174116718
20
12.1993784482855
30
0
41
1
10
37.5590474001663
20
12.224914537495
30
0
0
SPLINE
5
1AA
100
AcDbEntity
8
1
62
256
6
ByLayer
370
13
48
1
60
0
100
AcDbSpline
70
4
71
3
72
8
73
4
40
0
40
0
40
0
40
0
40
1
40
1
40
1
40
1
41
1
10
37.5590474001655
20
12.224914537482
30
0
41
1
10
37.5682355999366
20
12.4204960308841
30
0
41
1
10
37.5775176399608
20
12.6160731403654
30
0
41
1
10
37.5868975798566
20
12.8116455319233
30
0
0
SPLINE
5
1AB
100
AcDbEntity
8
1
62
256
6
ByLayer
370
13
48
1
60
0
100
AcDbSpline
70
4
71
3
72
8
73
4
40
0
40
0
40
0
40
0
40
1
40
1
40
1
40
1
41
1
10
37.5590474001655
20
7.77508546251823
30
0
41
1
10
37.5682355999366
20
7.57950396911619
30
0
41
1
10
37.5775176399608
20
7.38392685963484
30
0
41
1
10
37.5868975798566
20
7.18835446807691
30
0
0
SPLINE
5
1AC
100
AcDbEntity
8
1
62
256
6
ByLayer
370
13
48
1
60
0
100
AcDbSpline
70
4
71
3
72
16
73
12
40
0
40
0
40
0
40
0
40
0.350242859033379
40
0.350242859033379
40
0.423372547456697
40
0.423372547456697
40
0.679771193971581
40
0.679771193971581
40
0.911749531478506
40
0.911749531478506
40
1
40
1
40
1
40
1
41
1
10
36.1411735286767
20
8.64819787734339
30
0
41
1
10
36.1713229274517
20
8.66450039674405
30
0
41
1
10
36.2013275156643
20
8.68209384392549
30
0
41
1
10
36.2345261613993
20
8.70323615136368
30
0
41
1
10
36.2402297633722
20
8.70693485493499
30
0
41
1
10
36.2652448409325
20
8.72346163786412
30
0
41
1
10
36.2834263988366
20
8.73632721502301
30
0
41
1
10
36.3138395780514
20
8.75965980963605
30
0
41
1
10
36.3266833134206
20
8.77040189632106
30
0
41
1
10
36.3413736271358
20
8.7841291142748
30
0
41
1
10
36.3451349886706
20
8.78782620005356
30
0
41
1
10
36.348564213741
20
8.79139640421405
30
0
0
SPLINE
5
1AD
100
AcDbEntity
8
1
62
256
6
ByLayer
370
13
48
1
60
0
100
AcDbSpline
70
4
71
3
72
10
73
6
40
0
40
0
40
0
40
0
40
0.480374533063216
40
0.480374533063216
40
1
40
1
40
1
40
1
41
1
10
39.5364283337292
20
7.73019415215222
30
0
41
1
10
39.2034888340515
20
7.77200978908053
30
0
41
1
10
38.862711540784
20
7.77162532265476
30
0
41
1
10
38.1934202711035
20
7.78017808018592
30
0
41
1
10
37.8570174116718
20
7.80062155171476
30
0
41
1
10
37.5590474001663
20
7.77508546250527
30
0
0
SPLINE
5
1AE
100
AcDbEntity
8
1
62
256
6
ByLayer
370
18
48
1
60
0
100
AcDbSpline
70
4
71
3
72
13
73
9
40
0
40
0
40
0
40
0
40
0.0066933086298761
40
0.0259916001515922
40
0.0356407459124502
40
0.334764264499049
40
0.643536928846506
40
1
40
1
40
1
40
1
41
1
10
34.3580378891641
20
7.30000000000013
30
0
41
1
10
34.3586639128717
20
7.30000000000013
30
0
41
1
10
34.3610824984175
20
7.30000000000013
30
0
41
1
10
34.3643664118636
20
7.30000000000013
30
0
41
1
10
34.3949584990024
20
7.30000000000013
30
0
41
1
10
34.4525325928789
20
7.30000000000013
30
0
41
1
10
34.5424403417796
20
7.30000000000013
30
0
41
1
10
34.604460638997
20
7.30000000000013
30
0
41
1
10
34.6376938891778
20
7.30000000000013
30
0
0
SPLINE
5
1AF
100
AcDbEntity
8
1
62
256
6
ByLayer
370
13
48
1
60
0
100
AcDbSpline
70
4
71
2
72
6
73
3
40
0
40
0
40
0
40
1
40
1
40
1
41
0.981783356867243
10
35.3102415871436
20
10.0000000000001
30
0
41
0.989421609298001
10
35.3519511500771
20
10.0000000000001
30
0
41
1
10
35.3860245871509
20
10.0000000000001
30
0
0
SPLINE
5
1B0
100
AcDbEntity
8
1
62
256
6
ByLayer
370
18
48
1
60
0
100
AcDbSpline
70
4
71
2
72
9
73
6
40
0
40
0
40
0
40
0.0492648277049124
40
0.135695297913557
40
0.135695297913557
40
1
40
1
40
1
41
1
10
34.3590529396167
20
12.7000000000001
30
0
41
1
10
34.365920847534
20
12.7000000000001
30
0
41
1
10
34.3843349647747
20
12.7000000000001
30
0
41
1
10
34.3968714379785
20
12.7000000000001
30
0
41
1
10
34.4152816599139
20
12.7000000000001
30
0
41
1
10
34.6377029396166
20
12.7000000000001
30
0
0
SPLINE
5
1B1
100
AcDbEntity
8
1
62
256
6
ByLayer
370
13
48
1
60
0
100
AcDbSpline
70
4
71
3
72
8
73
4
40
0
40
0
40
0
40
0
40
1
40
1
40
1
40
1
41
1
10
34.6341585894646
20
7.44152069062167
30
0
41
1
10
34.6353438534347
20
7.44152069062167
30
0
41
1
10
34.6365335048264
20
7.44130309244903
30
0
41
1
10
34.6377029396166
20
7.44084626874832
30
0
0
SPLINE
5
1B2
100
AcDbEntity
8
1
62
256
6
ByLayer
370
13
48
1
60
0
100
AcDbSpline
70
4
71
3
72
10
73
6
40
0
40
0
40
0
40
0
40
0.299090051335103
40
0.299090051335103
40
1
40
1
40
1
40
1
41
1
10
34.363150750369
20
7.44189196592228
30
0
41
1
10
34.3904739699092
20
7.44291513912844
30
0
41
1
10
34.4171001671809
20
7.44152055099076
30
0
41
1
10
34.5074727640398
20
7.44152097830315
30
0
41
1
10
34.5708156312272
20
7.44152069062167
30
0
41
1
10
34.6341585894646
20
7.44152069062167
30
0
0
SPLINE
5
1B3
100
AcDbEntity
8
1
62
256
6
ByLayer
370
13
48
1
60
0
100
AcDbSpline
70
4
71
3
72
14
73
10
40
0
40
0
40
0
40
0
40
0.0136716899694137
40
0.0136716899694137
40
0.637192393526286
40
0.637192393526286
40
0.700909948663931
40
0.700909948663931
40
1
40
1
40
1
40
1
41
1
10
34.6341585894646
20
12.5584793093785
30
0
41
1
10
34.6329230451719
20
12.5584793093785
30
0
41
1
10
34.6316875008792
20
12.5584793093785
30
0
41
1
10
34.574102855021
20
12.5584793093785
30
0
41
1
10
34.5177537534556
20
12.5584793093785
30
0
41
1
10
34.455646339511
20
12.5584793093785
30
0
41
1
10
34.4498880320063
20
12.5584792939773
30
0
41
1
10
34.4171001671808
20
12.5584794490095
30
0
41
1
10
34.3904739699091
20
12.5570848608718
30
0
41
1
10
34.3631507503687
20
12.558108034078
30
0
0
SPLINE
5
1B4
100
AcDbEntity
8
1
62
256
6
ByLayer
370
13
48
1
60
0
100
AcDbSpline
70
4
71
3
72
8
73
4
40
0
40
0
40
0
40
0
40
1
40
1
40
1
40
1
41
1
10
34.6377029396166
20
12.5591537312522
30
0
41
1
10
34.6365335048265
20
12.5586969075515
30
0
41
1
10
34.6353438534347
20
12.5584793093785
30
0
41
1
10
34.6341585894646
20
12.5584793093785
30
0
0
SPLINE
5
1B5
100
AcDbEntity
8
1
62
256
6
ByLayer
370
13
48
1
60
0
100
AcDbSpline
70
4
71
3
72
10
73
6
40
0
40
0
40
0
40
0
40
0.373709297613223
40
0.373709297613223
40
1
40
1
40
1
40
1
41
1
10
35.3261629787254
20
8.65638688566557
30
0
41
1
10
35.345018825356
20
8.65207114908145
30
0
41
1
10
35.3639090232256
20
8.64792212808976
30
0
41
1
10
35.4145363046549
20
8.6372600930132
30
0
41
1
10
35.4463321288579
20
8.63104370950188
30
0
41
1
10
35.478196872098
20
8.62527785385021
30
0
0
SPLINE
5
1B6
100
AcDbEntity
8
1
62
256
6
ByLayer
370
13
48
1
60
0
100
AcDbSpline
70
4
71
3
72
10
73
6
40
0
40
0
40
0
40
0
40
0.626287703218406
40
0.626287703218406
40
1
40
1
40
1
40
1
41
1
10
35.4781968720981
20
11.3747184686309
30
0
41
1
10
35.4463325274094
20
11.368952870912
30
0
41
1
10
35.4145370964038
20
11.3627367658117
30
0
41
1
10
35.3639101896304
20
11.352075156412
30
0
41
1
10
35.3450199784627
20
11.3479262655268
30
0
41
1
10
35.3261641168768
20
11.3436106618543
30
0
0
SPLINE
5
1B7
100
AcDbEntity
8
1
62
256
6
ByLayer
370
13
48
1
60
0
100
AcDbSpline
70
4
71
3
72
8
73
4
40
0
40
0
40
0
40
0
40
1
40
1
40
1
40
1
41
1
10
34.6366922172745
20
12.5419947771154
30
0
41
1
10
34.6381641510866
20
12.5422596387517
30
0
41
1
10
34.6396521400638
20
12.5427576397564
30
0
41
1
10
34.6411376656
20
12.5434981064761
30
0
0
SPLINE
5
1B8
100
AcDbEntity
8
1
62
256
6
ByLayer
370
13
48
1
60
0
100
AcDbSpline
70
4
71
3
72
8
73
4
40
0
40
0
40
0
40
0
40
1
40
1
40
1
40
1
41
1
10
34.6411376656
20
7.45650189352415
30
0
41
1
10
34.6396521400638
20
7.45724236024387
30
0
41
1
10
34.6381641510866
20
7.45774036124854
30
0
41
1
10
34.6366922172745
20
7.45800522288482
30
0
0
SPLINE
5
1B9
100
AcDbEntity
8
1
62
256
6
ByLayer
370
13
48
1
60
0
100
AcDbSpline
70
4
71
2
72
6
73
3
40
0
40
0
40
0
40
1
40
1
40
1
41
0.981783356868291
10
35.3102415871494
20
9.86811421018153
30
0
41
0.989421609298727
10
35.3519511500795
20
9.86811421018154
30
0
41
1
10
35.3860245871509
20
9.86811421018152
30
0
0
SPLINE
5
1BA
100
AcDbEntity
8
1
62
256
6
ByLayer
370
13
48
1
60
0
100
AcDbSpline
70
4
71
3
72
12
73
8
40
0
40
0
40
0
40
0
40
0.0707113849956165
40
0.0707113849956165
40
0.582686810203343
40
0.582686810203343
40
1
40
1
40
1
40
1
41
1
10
35.2234410993736
20
11.2776725327994
30
0
41
1
10
35.2191976307912
20
11.2648701307995
30
0
41
1
10
35.2152532954154
20
11.2515831897354
30
0
41
1
10
35.1856730948325
20
11.13986352539
30
0
41
1
10
35.1753574112632
20
11.0162395578018
30
0
41
1
10
35.1851574406288
20
10.7677134128446
30
0
41
1
10
35.2000400197121
20
10.6447125357134
30
0
41
1
10
35.2239816481906
20
10.5180483237181
30
0
0
SPLINE
5
1BB
100
AcDbEntity
8
1
62
256
6
ByLayer
370
13
48
1
60
0
100
AcDbSpline
70
4
71
2
72
6
73
3
40
0
40
0
40
0
40
1
40
1
40
1
41
0.981171512284226
10
35.1888998108982
20
9.6707787598165
30
0
41
0.988994613310468
10
35.2285975511967
20
9.6707787598165
30
0
41
1
10
35.2607948109093
20
9.6707787598165
30
0
0
SPLINE
5
1BC
100
AcDbEntity
8
1
62
256
6
ByLayer
370
13
48
1
60
0
100
AcDbSpline
70
4
71
3
72
12
73
8
40
0
40
0
40
0
40
0
40
0.41731214513514
40
0.41731214513514
40
0.92928586889468
40
0.92928586889468
40
1
40
1
40
1
40
1
41
1
10
35.2239810325739
20
9.48195167628214
30
0
41
1
10
35.2000392759948
20
9.35528739419004
30
0
41
1
10
35.1851565790995
20
9.23228642432261
30
0
41
1
10
35.1753562827878
20
8.98376011454272
30
0
41
1
10
35.1856717794348
20
8.86013604075995
30
0
41
1
10
35.2152518487448
20
8.74841548176587
30
0
41
1
10
35.2191963265135
20
8.7351279595639
30
0
41
1
10
35.223439961222
20
8.72232501472104
30
0
0
SPLINE
5
1BD
100
AcDbEntity
8
1
62
256
6
ByLayer
370
13
48
1
60
0
100
AcDbSpline
70
4
71
2
72
6
73
3
40
0
40
0
40
0
40
1
40
1
40
1
41
1
10
34.9991138396654
20
10.5180483237181
30
0
41
1
10
34.7966684399712
20
11.1576926077658
30
0
41
1
10
34.5942230402769
20
11.7973368918135
30
0
0
SPLINE
5
1BE
100
AcDbEntity
8
1
62
256
6
ByLayer
370
13
48
1
60
0
100
AcDbSpline
70
4
71
3
72
10
73
6
40
0
40
0
40
0
40
0
40
0.292742959368697
40
0.292742959368697
40
1
40
1
40
1
40
1
41
1
10
34.3681426122259
20
12.5415631311924
30
0
41
1
10
34.3946050001791
20
12.540779935598
30
0
41
1
10
34.4204448032253
20
12.541994912911
30
0
41
1
10
34.5100063820192
20
12.5419944894351
30
0
41
1
10
34.573349254122
20
12.5419947771154
30
0
41
1
10
34.6366922172745
20
12.5419947771154
30
0
0
SPLINE
5
1BF
100
AcDbEntity
8
1
62
256
6
ByLayer
370
13
48
1
60
0
100
AcDbSpline
70
4
71
3
72
14
73
10
40
0
40
0
40
0
40
0
40
0.0093983253738597
40
0.0093983253738597
40
0.638565273553559
40
0.638565273553559
40
0.707257040630515
40
0.707257040630515
40
1
40
1
40
1
40
1
41
1
10
34.6366922172745
20
7.45800522288482
30
0
41
1
10
34.6358504896654
20
7.45800522288482
30
0
41
1
10
34.6350087620562
20
7.45800522288482
30
0
41
1
10
34.5778179328817
20
7.45800522288482
30
0
41
1
10
34.5214688313162
20
7.45800522288482
30
0
41
1
10
34.4589675957728
20
7.45800522288482
30
0
41
1
10
34.4528154672586
20
7.45800524014811
30
0
41
1
10
34.4204448032251
20
7.45800508708919
30
0
41
1
10
34.3946050001789
20
7.45922006440233
30
0
41
1
10
34.3681426122256
20
7.45843686880786
30
0
0
SPLINE
5
1C0
100
AcDbEntity
8
1
62
256
6
ByLayer
370
13
48
1
60
0
100
AcDbSpline
70
4
71
2
72
6
73
3
40
0
40
0
40
0
40
1
40
1
40
1
41
1
10
34.9991138396654
20
9.48195167628214
30
0
41
1
10
34.7966684399711
20
8.84230739223446
30
0
41
1
10
34.5942230402769
20
8.20266310818673
30
0
0
SPLINE
5
1C1
100
AcDbEntity
8
1
62
256
6
ByLayer
370
13
48
1
60
0
100
AcDbSpline
70
4
71
3
72
10
73
6
40
0
40
0
40
0
40
0
40
0.543339987341644
40
0.543339987341644
40
1
40
1
40
1
40
1
41
1
10
41.6003004601926
20
11.6534542670401
30
0
41
1
10
41.4193074892229
20
11.7688748973928
30
0
41
1
10
41.2382449878387
20
11.884359017208
30
0
41
1
10
40.8980781146641
20
12.0842688942051
30
0
41
1
10
40.7398730567058
20
12.1718774163189
30
0
41
1
10
40.5739782123929
20
12.2411608803675
30
0
0
SPLINE
5
1C2
100
AcDbEntity
8
1
62
256
6
ByLayer
370
13
48
1
60
0
100
AcDbSpline
70
4
71
3
72
10
73
6
40
0
40
0
40
0
40
0
40
0.234782437765391
40
0.234782437765391
40
1
40
1
40
1
40
1
41
1
10
40.5739782123929
20
12.2411608803675
30
0
41
1
10
40.5693978590632
20
12.2430737954229
30
0
41
1
10
40.5648613765138
20
12.2450991224392
30
0
41
1
10
40.545927220229
20
12.2542358449335
30
0
41
1
10
40.5317484564292
20
12.2626044072979
30
0
41
1
10
40.5200263771115
20
12.2736602924258
30
0
0
SPLINE
5
1C3
100
AcDbEntity
8
1
62
256
6
ByLayer
370
13
48
1
60
0
100
AcDbSpline
70
4
71
3
72
10
73
6
40
0
40
0
40
0
40
0
40
0.234782437765391
40
0.234782437765391
40
1
40
1
40
1
40
1
41
1
10
40.5739782123929
20
7.75883911963274
30
0
41
1
10
40.5693978590632
20
7.7569262045773
30
0
41
1
10
40.5648613765138
20
7.75490087756103
30
0
41
1
10
40.545927220229
20
7.74576415506675
30
0
41
1
10
40.5317484564292
20
7.73739559270237
30
0
41
1
10
40.5200263771115
20
7.72633970757448
30
0
0
SPLINE
5
1C4
100
AcDbEntity
8
1
62
256
6
ByLayer
370
13
48
1
60
0
100
AcDbSpline
70
4
71
3
72
10
73
6
40
0
40
0
40
0
40
0
40
0.543339987341528
40
0.543339987341528
40
1
40
1
40
1
40
1
41
1
10
41.6003004601924
20
8.34654573295995
30
0
41
1
10
41.4193074892227
20
8.23112510260745
30
0
41
1
10
41.2382449878386
20
8.11564098279214
30
0
41
1
10
40.8980781146641
20
7.91573110579515
30
0
41
1
10
40.7398730567058
20
7.82812258368131
30
0
41
1
10
40.5739782123929
20
7.75883911963274
30
0
0
SPLINE
5
1C5
100
AcDbEntity
8
1
62
256
6
ByLayer
370
13
48
1
60
0
100
AcDbSpline
70
4
71
3
72
12
73
8
40
0
40
0
40
0
40
0
40
0.0484239545861539
40
0.0484239545861539
40
0.787342760202595
40
0.787342760202595
40
1
40
1
40
1
40
1
41
1
10
41.600294180537
20
11.6520595383941
30
0
41
1
10
41.5993679960653
20
11.6519214672468
30
0
41
1
10
41.5984413193327
20
11.6517835350424
30
0
41
1
10
41.5833809106247
20
11.649543294951
30
0
41
1
10
41.5691247049826
20
11.6474557434337
30
0
41
1
10
41.5507227023096
20
11.6447677248303
30
0
41
1
10
41.5466029316181
20
11.6441663527164
30
0
41
1
10
41.5424814286893
20
11.643564429799
30
0
0
SPLINE
5
1C6
100
AcDbEntity
8
1
62
256
6
ByLayer
370
13
48
1
60
0
100
AcDbSpline
70
4
71
3
72
8
73
4
40
0
40
0
40
0
40
0
40
1
40
1
40
1
40
1
41
1
10
41.5424814286894
20
11.6435644297982
30
0
41
1
10
41.539348317674
20
11.643106856091
30
0
41
1
10
41.5361974646702
20
11.6427724021714
30
0
41
1
10
41.5330460166648
20
11.6424549834735
30
0
0
SPLINE
5
1C7
100
AcDbEntity
8
1
62
256
6
ByLayer
370
13
48
1
60
0
100
AcDbSpline
70
4
71
3
72
8
73
4
40
0
40
0
40
0
40
0
40
1
40
1
40
1
40
1
41
1
10
41.5330460166648
20
11.6424549834735
30
0
41
1
10
41.5079947760491
20
11.6399317839273
30
0
41
1
10
41.4828469726042
20
11.6358785459314
30
0
41
1
10
41.458519907022
20
11.6313333333766
30
0
0
SPLINE
5
1C8
100
AcDbEntity
8
1
62
256
6
ByLayer
370
13
48
1
60
0
100
AcDbSpline
70
4
71
3
72
10
73
6
40
0
40
0
40
0
40
0
40
0.365019426424878
40
0.365019426424878
40
1
40
1
40
1
40
1
41
1
10
41.458519907022
20
11.6313333333766
30
0
41
1
10
41.439224054263
20
11.6277281409656
30
0
41
1
10
41.4189374811642
20
11.6291620234108
30
0
41
1
10
41.3651335246498
20
11.6367334993486
30
0
41
1
10
41.3314968249905
20
11.6462732825016
30
0
41
1
10
41.2985587777267
20
11.6571462585089
30
0
0
SPLINE
5
1C9
100
AcDbEntity
8
1
62
256
6
ByLayer
370
13
48
1
60
0
100
AcDbSpline
70
4
71
3
72
10
73
6
40
0
40
0
40
0
40
0
40
0.365019426424878
40
0.365019426424878
40
1
40
1
40
1
40
1
41
1
10
41.458519907022
20
8.36866666662362
30
0
41
1
10
41.439224054263
20
8.37227185903467
30
0
41
1
10
41.4189374811642
20
8.37083797658946
30
0
41
1
10
41.3651335246498
20
8.36326650065166
30
0
41
1
10
41.3314968249905
20
8.35372671749866
30
0
41
1
10
41.2985587777267
20
8.34285374149135
30
0
0
SPLINE
5
1CA
100
AcDbEntity
8
1
62
256
6
ByLayer
370
13
48
1
60
0
100
AcDbSpline
70
4
71
3
72
8
73
4
40
0
40
0
40
0
40
0
40
1
40
1
40
1
40
1
41
1
10
41.5330460166648
20
8.35754501652673
30
0
41
1
10
41.5079947760491
20
8.3600682160729
30
0
41
1
10
41.4828469726042
20
8.36412145406885
30
0
41
1
10
41.458519907022
20
8.36866666662362
30
0
0
SPLINE
5
1CB
100
AcDbEntity
8
1
62
256
6
ByLayer
370
13
48
1
60
0
100
AcDbSpline
70
4
71
3
72
8
73
4
40
0
40
0
40
0
40
0
40
1
40
1
40
1
40
1
41
1
10
41.5424814286894
20
8.35643557020205
30
0
41
1
10
41.539348317674
20
8.3568931439093
30
0
41
1
10
41.5361974646702
20
8.35722759782885
30
0
41
1
10
41.5330460166648
20
8.35754501652676
30
0
0
SPLINE
5
1CC
100
AcDbEntity
8
1
62
256
6
ByLayer
370
13
48
1
60
0
100
AcDbSpline
70
4
71
3
72
12
73
8
40
0
40
0
40
0
40
0
40
0.048423954882324
40
0.048423954882324
40
0.787342760268783
40
0.787342760268783
40
1
40
1
40
1
40
1
41
1
10
41.6002941804905
20
8.34794046159016
30
0
41
1
10
41.5993679959648
20
8.34807853272829
30
0
41
1
10
41.5984413193384
20
8.34821646495698
30
0
41
1
10
41.5833809106247
20
8.35045670504923
30
0
41
1
10
41.5691247049826
20
8.35254425656649
30
0
41
1
10
41.5507227023096
20
8.35523227516995
30
0
41
1
10
41.5466029316181
20
8.35583364728379
30
0
41
1
10
41.5424814286893
20
8.35643557020126
30
0
0
SPLINE
5
1CD
100
AcDbEntity
8
1
62
256
6
ByLayer
370
13
48
1
60
0
100
AcDbSpline
70
4
71
3
72
12
73
8
40
0
40
0
40
0
40
0
40
0.585953603913908
40
0.585953603913908
40
0.932562389653932
40
0.932562389653932
40
1
40
1
40
1
40
1
41
1
10
36.6058830934711
20
10.8916012511839
30
0
41
1
10
36.560211272438
20
10.9097479607935
30
0
41
1
10
36.5175125134993
20
10.9318740596775
30
0
41
1
10
36.4656905223004
20
10.9734721390486
30
0
41
1
10
36.4497083450445
20
10.9907054441619
30
0
41
1
10
36.4387123558149
20
11.0121382518169
30
0
41
1
10
36.4371603851938
20
11.0157038847933
30
0
41
1
10
36.4359016088411
20
11.0192841080837
30
0
0
SPLINE
5
1CE
100
AcDbEntity
8
1
62
256
6
ByLayer
370
13
48
1
60
0
100
AcDbSpline
70
4
71
3
72
8
73
4
40
0
40
0
40
0
40
0
40
1
40
1
40
1
40
1
41
1
10
36.6058830934711
20
10.8916012511841
30
0
41
1
10
36.6878526142754
20
10.9190596125856
30
0
41
1
10
36.7702705240862
20
10.9445874124655
30
0
41
1
10
36.8530247822475
20
10.9682795913759
30
0
0
SPLINE
5
1CF
100
AcDbEntity
8
1
62
256
6
ByLayer
370
13
48
1
60
0
100
AcDbSpline
70
4
71
3
72
12
73
8
40
0
40
0
40
0
40
0
40
0.397348218557931
40
0.397348218557931
40
0.918192388004562
40
0.918192388004562
40
1
40
1
40
1
40
1
41
1
10
36.4359082989188
20
8.98071317428929
30
0
41
1
10
36.4431888439991
20
9.0014214868487
30
0
41
1
10
36.4603756193544
20
9.02168613818955
30
0
41
1
10
36.5103520488149
20
9.06303288826732
30
0
41
1
10
36.5471530158874
20
9.08339871069731
30
0
41
1
10
36.5930740548548
20
9.10320224125121
30
0
41
1
10
36.5994424535555
20
9.10583571323775
30
0
41
1
10
36.6058884944386
20
9.10839693958937
30
0
0
SPLINE
5
1D0
100
AcDbEntity
8
1
62
256
6
ByLayer
370
13
48
1
60
0
100
AcDbSpline
70
4
71
3
72
8
73
4
40
0
40
0
40
0
40
0
40
1
40
1
40
1
40
1
41
1
10
36.6058884944386
20
9.1083969395892
30
0
41
1
10
36.6878562343347
20
9.08093926609234
30
0
41
1
10
36.7702723413183
20
9.0554120672692
30
0
41
1
10
36.8530247822475
20
9.03172040862435
30
0
0
SPLINE
5
1D1
100
AcDbEntity
8
1
62
256
6
ByLayer
370
13
48
1
60
0
100
AcDbSpline
70
4
71
3
72
10
73
6
40
0
40
0
40
0
40
0
40
0.89617120816834
40
0.89617120816834
40
1
40
1
40
1
40
1
41
1
10
40.4114628213833
20
7.71935427760968
30
0
41
1
10
40.408377028677
20
7.70970824734749
30
0
41
1
10
40.4053823050141
20
7.69998900425949
30
0
41
1
10
40.4021596379679
20
7.6891315582948
30
0
41
1
10
40.4018264345891
20
7.68800393812288
30
0
41
1
10
40.4014946003019
20
7.68687612733285
30
0
0
SPLINE
5
1D2
100
AcDbEntity
8
1
62
256
6
ByLayer
370
13
48
1
60
0
100
AcDbSpline
70
4
71
3
72
8
73
4
40
0
40
0
40
0
40
0
40
1
40
1
40
1
40
1
41
1
10
40.4014946002937
20
7.68687612735962
30
0
41
1
10
40.1838173775253
20
7.68343710271895
30
0
41
1
10
39.958631149245
20
7.687619116344
30
0
41
1
10
39.7364283337295
20
7.7090139486584
30
0
0
SPLINE
5
1D3
100
AcDbEntity
8
1
62
256
6
ByLayer
370
13
48
1
60
0
100
AcDbSpline
70
4
71
3
72
10
73
6
40
0
40
0
40
0
40
0
40
0.89617120816834
40
0.89617120816834
40
1
40
1
40
1
40
1
41
1
10
40.4114628213833
20
12.2806457223906
30
0
41
1
10
40.408377028677
20
12.2902917526527
30
0
41
1
10
40.4053823050077
20
12.3000109957388
30
0
41
1
10
40.4021596379687
20
12.3108684417057
30
0
41
1
10
40.4018264345891
20
12.3119960618774
30
0
41
1
10
40.4014946003019
20
12.3131238726674
30
0
0
SPLINE
5
1D4
100
AcDbEntity
8
1
62
256
6
ByLayer
370
13
48
1
60
0
100
AcDbSpline
70
4
71
3
72
8
73
4
40
0
40
0
40
0
40
0
40
1
40
1
40
1
40
1
41
1
10
40.4014946002937
20
12.3131238726406
30
0
41
1
10
40.1838173775253
20
12.3165628972813
30
0
41
1
10
39.958631149245
20
12.3123808836562
30
0
41
1
10
39.7364283337295
20
12.2909860513418
30
0
0
SPLINE
5
1D5
100
AcDbEntity
8
1
62
256
6
ByLayer
370
13
48
1
60
0
100
AcDbSpline
70
4
71
3
72
16
73
12
40
0
40
0
40
0
40
0
40
5.49005868016E-05
40
5.49005868016E-05
40
0.336585103415494
40
0.336585103415494
40
0.668681511902148
40
0.668681511902148
40
0.999945099413196
40
0.999945099413196
40
1
40
1
40
1
40
1
41
1
10
36.8530247822475
20
9.03172040862435
30
0
41
1
10
36.8530408119085
20
9.03171627706504
30
0
41
1
10
36.8530568416984
20
9.0317121456192
30
0
41
1
10
36.951332883376
20
9.00638164229721
30
0
41
1
10
37.0536280850695
20
8.97951743802841
30
0
41
1
10
37.2640882219198
20
8.93072222774961
30
0
41
1
10
37.3723571382594
20
8.90770420433819
30
0
41
1
10
37.5940208878321
20
8.8655863654308
30
0
41
1
10
37.7078139156937
20
8.84631005474523
30
0
41
1
10
37.823538228656
20
8.82958094388644
30
0
41
1
10
37.8235574062948
20
8.82957817170094
30
0
41
1
10
37.8235765839737
20
8.82957539945289
30
0
0
SPLINE
5
1D6
100
AcDbEntity
8
1
62
256
6
ByLayer
370
13
48
1
60
0
100
AcDbSpline
70
4
71
3
72
16
73
12
40
0
40
0
40
0
40
0
40
5.49005868016E-05
40
5.49005868016E-05
40
0.336585103415494
40
0.336585103415494
40
0.668681511902148
40
0.668681511902148
40
0.999945099413196
40
0.999945099413196
40
1
40
1
40
1
40
1
41
1
10
36.8530247822475
20
10.9682795913759
30
0
41
1
10
36.8530408119894
20
10.9682837229726
30
0
41
1
10
36.8530568416984
20
10.968287854381
30
0
41
1
10
36.951332883376
20
10.993618357703
30
0
41
1
10
37.0536280850695
20
11.0204825619718
30
0
41
1
10
37.2640882219198
20
11.0692777722506
30
0
41
1
10
37.3723571382594
20
11.092295795662
30
0
41
1
10
37.5940208878321
20
11.1344136345695
30
0
41
1
10
37.7078139156937
20
11.153689945255
30
0
41
1
10
37.823538228656
20
11.1704190561138
30
0
41
1
10
37.8235574062989
20
11.1704218284314
30
0
41
1
10
37.8235765839737
20
11.1704246005474
30
0
0
SPLINE
5
1D7
100
AcDbEntity
8
1
62
256
6
ByLayer
370
13
48
1
60
0
100
AcDbSpline
70
4
71
3
72
14
73
10
40
0
40
0
40
0
40
0
40
7.60921707146E-05
40
7.60921707146E-05
40
0.558418932331044
40
0.558418932331044
40
0.8175350131134
40
0.8175350131134
40
1
40
1
40
1
40
1
41
1
10
36.8530247822475
20
9.33249410670709
30
0
41
1
10
36.853036668055
20
9.33250787121722
30
0
41
1
10
36.8530485539515
20
9.33252163578456
30
0
41
1
10
36.9402747516226
20
9.43353746559376
30
0
41
1
10
37.0266797916594
20
9.54374768346204
30
0
41
1
10
37.12373030621
20
9.72772243213328
30
0
41
1
10
37.1500662281197
20
9.79070178373598
30
0
41
1
10
37.1777718223727
20
9.90311336443659
30
0
41
1
10
37.1841279769685
20
9.95177163142256
30
0
41
1
10
37.1841229339402
20
10.000058873495
30
0
0
SPLINE
5
1D8
100
AcDbEntity
8
1
62
256
6
ByLayer
370
13
48
1
60
0
100
AcDbSpline
70
4
71
3
72
9
73
5
40
0
40
0
40
0
40
0
40
0.218499821058687
40
1
40
1
40
1
40
1
41
1
10
37.1841229630375
20
9.99994112650978
30
0
41
1
10
37.2287172982938
20
9.99996289498108
30
0
41
1
10
37.4328105329713
20
10.0000625219336
30
0
41
1
10
37.6521571575866
20
10.0000274268299
30
0
41
1
10
37.8235765839737
20
10.0000000000001
30
0
0
SPLINE
5
1D9
100
AcDbEntity
8
1
62
256
6
ByLayer
370
13
48
1
60
0
100
AcDbSpline
70
4
71
3
72
14
73
10
40
0
40
0
40
0
40
0
40
0.229848554188354
40
0.229848554188354
40
0.556132982262946
40
0.556132982262946
40
0.999924050949996
40
0.999924050949996
40
1
40
1
40
1
40
1
41
1
10
37.1841229342493
20
9.99994112650523
30
0
41
1
10
37.1841289378506
20
10.0604681648036
30
0
41
1
10
37.1739446757336
20
10.1216024942608
30
0
41
1
10
37.1318793094984
20
10.2600020119749
30
0
41
1
10
37.0931246863409
20
10.33583263934
30
0
41
1
10
36.9909514875064
20
10.5005351505619
30
0
41
1
10
36.9226503723761
20
10.5868683149403
30
0
41
1
10
36.8530485539982
20
10.6674731918082
30
0
41
1
10
36.8530366680782
20
10.6674869563456
30
0
41
1
10
36.8530247822475
20
10.667500720826
30
0
0
SPLINE
5
1DA
100
AcDbEntity
8
1
62
256
6
ByLayer
370
13
48
1
60
0
100
AcDbSpline
70
4
71
3
72
10
73
6
40
0
40
0
40
0
40
0
40
0.895874350650011
40
0.895874350650011
40
1
40
1
40
1
40
1
41
1
10
40.4329929794783
20
7.69793595668276
30
0
41
1
10
40.4235084653762
20
7.69466364075868
30
0
41
1
10
40.4140728812381
20
7.69135632833135
30
0
41
1
10
40.4036592855553
20
7.68764889528049
30
0
41
1
10
40.4025762547404
20
7.68726261097831
30
0
41
1
10
40.4014946002937
20
7.68687612735962
30
0
0
SPLINE
5
1DB
100
AcDbEntity
8
1
62
256
6
ByLayer
370
13
48
1
60
0
100
AcDbSpline
70
4
71
3
72
8
73
4
40
0
40
0
40
0
40
0
40
1
40
1
40
1
40
1
41
1
10
40.5200263771117
20
7.7263397075742
30
0
41
1
10
40.4913140489629
20
7.71743058198501
30
0
41
1
10
40.4617201129099
20
7.70784729797217
30
0
41
1
10
40.4329929794714
20
7.69793595668793
30
0
0
SPLINE
5
1DC
100
AcDbEntity
8
1
62
256
6
ByLayer
370
13
48
1
60
0
100
AcDbSpline
70
4
71
3
72
8
73
4
40
0
40
0
40
0
40
0
40
1
40
1
40
1
40
1
41
1
10
40.5200263771117
20
12.273660292426
30
0
41
1
10
40.4913140489629
20
12.2825694180152
30
0
41
1
10
40.4617201129099
20
12.2921527020281
30
0
41
1
10
40.4329929794714
20
12.3020640433123
30
0
0
SPLINE
5
1DD
100
AcDbEntity
8
1
62
256
6
ByLayer
370
13
48
1
60
0
100
AcDbSpline
70
4
71
3
72
10
73
6
40
0
40
0
40
0
40
0
40
0.895874350650011
40
0.895874350650011
40
1
40
1
40
1
40
1
41
1
10
40.4329929794783
20
12.3020640433175
30
0
41
1
10
40.4235084653765
20
12.3053363592424
30
0
41
1
10
40.4140728812381
20
12.3086436716689
30
0
41
1
10
40.4036592855553
20
12.3123511047197
30
0
41
1
10
40.4025762547404
20
12.3127373890219
30
0
41
1
10
40.4014946002937
20
12.3131238726406
30
0
0
SPLINE
5
1DE
100
AcDbEntity
8
1
62
256
6
ByLayer
370
13
48
1
60
0
100
AcDbSpline
70
4
71
3
72
8
73
4
40
0
40
0
40
0
40
0
40
1
40
1
40
1
40
1
41
1
10
40.5200263771117
20
7.7263397075742
30
0
41
1
10
40.4947547498996
20
7.75390919927145
30
0
41
1
10
40.4676414158414
20
7.78106005606159
30
0
41
1
10
40.4427945046474
20
7.80367846290434
30
0
0
SPLINE
5
1DF
100
AcDbEntity
8
1
62
256
6
ByLayer
370
13
48
1
60
0
100
AcDbSpline
70
4
71
3
72
8
73
4
40
0
40
0
40
0
40
0
40
1
40
1
40
1
40
1
41
1
10
40.4114628213756
20
7.71935427758714
30
0
41
1
10
40.4184891520225
20
7.71229951585852
30
0
41
1
10
40.4256944839946
20
7.70513161156768
30
0
41
1
10
40.4329929794581
20
7.6979359566684
30
0
0
SPLINE
5
1E0
100
AcDbEntity
8
1
62
256
6
ByLayer
370
13
48
1
60
0
100
AcDbSpline
70
4
71
3
72
8
73
4
40
0
40
0
40
0
40
0
40
1
40
1
40
1
40
1
41
1
10
40.4427945046474
20
7.8036784629044
30
0
41
1
10
40.431937953394
20
7.77693117354161
30
0
41
1
10
40.4212332338795
20
7.74828547989435
30
0
41
1
10
40.4114628213697
20
7.71935427756932
30
0
0
SPLINE
5
1E1
100
AcDbEntity
8
1
62
256
6
ByLayer
370
13
48
1
60
0
100
AcDbSpline
70
4
71
3
72
8
73
4
40
0
40
0
40
0
40
0
40
1
40
1
40
1
40
1
41
1
10
40.4114628213756
20
12.2806457224131
30
0
41
1
10
40.4184891520225
20
12.2877004841417
30
0
41
1
10
40.4256944839946
20
12.2948683884326
30
0
41
1
10
40.4329929794581
20
12.3020640433318
30
0
0
SPLINE
5
1E2
100
AcDbEntity
8
1
62
256
6
ByLayer
370
13
48
1
60
0
100
AcDbSpline
70
4
71
3
72
8
73
4
40
0
40
0
40
0
40
0
40
1
40
1
40
1
40
1
41
1
10
40.5200263771117
20
12.273660292426
30
0
41
1
10
40.4947547498996
20
12.2460908007288
30
0
41
1
10
40.4676414158414
20
12.2189399439387
30
0
41
1
10
40.4427945046474
20
12.1963215370959
30
0
0
SPLINE
5
1E3
100
AcDbEntity
8
1
62
256
6
ByLayer
370
13
48
1
60
0
100
AcDbSpline
70
4
71
3
72
8
73
4
40
0
40
0
40
0
40
0
40
1
40
1
40
1
40
1
41
1
10
40.4427945046474
20
12.1963215370958
30
0
41
1
10
40.431937953394
20
12.2230688264586
30
0
41
1
10
40.4212332338795
20
12.2517145201059
30
0
41
1
10
40.4114628213697
20
12.2806457224309
30
0
0
SPLINE
5
1E4
100
AcDbEntity
8
1
62
256
6
ByLayer
370
13
48
1
60
0
100
AcDbSpline
70
4
71
3
72
8
73
4
40
0
40
0
40
0
40
0
40
1
40
1
40
1
40
1
41
1
10
36.8530247822475
20
10.667500720826
30
0
41
1
10
36.7763475749177
20
10.7507596719129
30
0
41
1
10
36.6925991652656
20
10.8246120383957
30
0
41
1
10
36.6058830934711
20
10.8916012511838
30
0
0
SPLINE
5
1E5
100
AcDbEntity
8
1
62
256
6
ByLayer
370
13
48
1
60
0
100
AcDbSpline
70
4
71
3
72
8
73
4
40
0
40
0
40
0
40
0
40
1
40
1
40
1
40
1
41
1
10
36.6058884944385
20
9.10839693958943
30
0
41
1
10
36.6926026707734
20
9.17538525942862
30
0
41
1
10
36.776349203494
20
9.24923658096367
30
0
41
1
10
36.8530247822475
20
9.33249410670709
30
0
0
SPLINE
5
1E6
100
AcDbEntity
8
1
62
256
6
ByLayer
370
13
48
1
60
0
100
AcDbSpline
70
4
71
3
72
10
73
6
40
0
40
0
40
0
40
0
40
0.212029667990108
40
0.212029667990108
40
1
40
1
40
1
40
1
41
1
10
40.5034132847035
20
12.101934969556
30
0
41
1
10
40.498185300015
20
12.1074607869205
30
0
41
1
10
40.4931085566659
20
12.1132500010078
30
0
41
1
10
40.4702328082276
20
12.141494781459
30
0
41
1
10
40.4544535780449
20
12.1675970736252
30
0
41
1
10
40.4427945046448
20
12.1963215371025
30
0
0
SPLINE
5
1E7
100
AcDbEntity
8
1
62
256
6
ByLayer
370
13
48
1
60
0
100
AcDbSpline
70
4
71
3
72
10
73
6
40
0
40
0
40
0
40
0
40
0.212029667990108
40
0.212029667990108
40
1
40
1
40
1
40
1
41
1
10
40.5034132847035
20
7.89806503044417
30
0
41
1
10
40.498185300015
20
7.89253921307969
30
0
41
1
10
40.4931085566659
20
7.88674999899246
30
0
41
1
10
40.4702328082276
20
7.85850521854121
30
0
41
1
10
40.4544535780449
20
7.83240292637507
30
0
41
1
10
40.4427945046448
20
7.80367846289781
30
0
0
SPLINE
5
1E8
100
AcDbEntity
8
1
62
256
6
ByLayer
370
13
48
1
60
0
100
AcDbSpline
70
4
71
3
72
8
73
4
40
0
40
0
40
0
40
0
40
1
40
1
40
1
40
1
41
1
10
39.7364283337292
20
7.70901394865859
30
0
41
1
10
39.669644117832
20
7.71486002560462
30
0
41
1
10
39.6030235608226
20
7.7224900535505
30
0
41
1
10
39.5364283337292
20
7.73019415215222
30
0
0
SPLINE
5
1E9
100
AcDbEntity
8
1
62
256
6
ByLayer
370
13
48
1
60
0
100
AcDbSpline
70
4
71
3
72
8
73
4
40
0
40
0
40
0
40
0
40
1
40
1
40
1
40
1
41
1
10
39.7364283337292
20
12.2909860513416
30
0
41
1
10
39.669644117832
20
12.2851399743956
30
0
41
1
10
39.6030235608226
20
12.2775099464498
30
0
41
1
10
39.5364283337292
20
12.269805847848
30
0
0
SPLINE
5
1EA
100
AcDbEntity
8
1
62
256
6
ByLayer
370
13
48
1
60
0
100
AcDbSpline
70
4
71
3
72
8
73
4
40
0
40
0
40
0
40
0
40
1
40
1
40
1
40
1
41
1
10
37.1841229342547
20
9.99994112650398
30
0
41
1
10
37.1621364911968
20
9.99994408809428
30
0
41
1
10
37.1379945562381
20
9.99994704874428
30
0
41
1
10
37.1133346813305
20
9.99994980763253
30
0
0
SPLINE
5
1EB
100
AcDbEntity
8
1
62
256
6
ByLayer
370
13
48
1
60
0
100
AcDbSpline
70
4
71
3
72
18
73
14
40
0
40
0
40
0
40
0
40
0.0002320476331928
40
0.0002320476331928
40
0.275512896583265
40
0.275512896583265
40
0.549548193740028
40
0.549548193740028
40
0.82034827856401
40
0.82034827856401
40
0.999767952367583
40
0.999767952367583
40
1
40
1
40
1
40
1
41
1
10
35.6238910536757
20
9.86811421018152
30
0
41
1
10
35.6238925498611
20
9.86809452700467
30
0
41
1
10
35.6238940487922
20
9.86807484408567
30
0
41
1
10
35.6256675055208
20
9.84470486788967
30
0
41
1
10
35.6237464564308
20
9.82098730282073
30
0
41
1
10
35.6124048683296
20
9.77672629530142
30
0
41
1
10
35.602824023711
20
9.75551237396769
30
0
41
1
10
35.5766946646277
20
9.71890543578579
30
0
41
1
10
35.5597143144881
20
9.70287548292509
30
0
41
1
10
35.5274022012004
20
9.68247822042557
30
0
41
1
10
35.5131618975273
20
9.6758058648677
30
0
41
1
10
35.4984185892746
20
9.67079160755628
30
0
41
1
10
35.4983996878341
20
9.67078518520898
30
0
41
1
10
35.4983807874305
20
9.6707787598165
30
0
0
SPLINE
5
1EC
100
AcDbEntity
8
1
62
256
6
ByLayer
370
13
48
1
60
0
100
AcDbSpline
70
4
71
3
72
18
73
14
40
0
40
0
40
0
40
0
40
0.0002327629213411
40
0.0002327629213411
40
0.265137580931158
40
0.265137580931158
40
0.524413902056763
40
0.524413902056763
40
0.787810378106243
40
0.787810378106243
40
0.999767237013987
40
0.999767237013987
40
1
40
1
40
1
40
1
41
1
10
35.4983814923708
20
10.3292212401838
30
0
41
1
10
35.4984003927772
20
10.3292148147945
30
0
41
1
10
35.4984192942204
20
10.3292083924506
30
0
41
1
10
35.5199474313848
20
10.3218865928846
30
0
41
1
10
35.5405076835734
20
10.3108698795224
30
0
41
1
10
35.5746194976181
20
10.2831757315894
30
0
41
1
10
35.588861041942
20
10.2662163319627
30
0
41
1
10
35.6101948543782
20
10.2287073498544
30
0
41
1
10
35.6175625642359
20
10.2075503794953
30
0
41
1
10
35.6244402017239
20
10.1682860181036
30
0
41
1
10
35.6252680311183
20
10.1500273569703
30
0
41
1
10
35.623894266307
20
10.1319251558719
30
0
41
1
10
35.6238927673131
20
10.1319054729743
30
0
41
1
10
35.623891271065
20
10.1318857898187
30
0
0
SPLINE
5
1ED
100
AcDbEntity
8
1
62
256
6
ByLayer
370
13
48
1
60
0
100
AcDbSpline
70
4
71
3
72
16
73
12
40
0
40
0
40
0
40
0
40
0.0003234024746366
40
0.0003234024746366
40
0.282080396684608
40
0.282080396684608
40
0.564087672846331
40
0.564087672846331
40
0.999676597525353
40
0.999676597525353
40
1
40
1
40
1
40
1
41
1
10
35.3228255532626
20
10.400576963399
30
0
41
1
10
35.3228431394738
20
10.4005690566935
30
0
41
1
10
35.3228607255774
20
10.400561149769
30
0
41
1
10
35.3382000012656
20
10.39366485756
30
0
41
1
10
35.3536112434708
20
10.3869187943373
30
0
41
1
10
35.3846122205563
20
10.3737079452672
30
0
41
1
10
35.4002038103746
20
10.3672426854007
30
0
41
1
10
35.4400732534561
20
10.351158667661
30
0
41
1
10
35.4644631576176
20
10.3417376778856
30
0
41
1
10
35.4890367141859
20
10.3326549189322
30
0
41
1
10
35.4890549466885
20
10.3326481803792
30
0
41
1
10
35.4890731791049
20
10.3326414416171
30
0
0
SPLINE
5
1EE
100
AcDbEntity
8
1
62
256
6
ByLayer
370
13
48
1
60
0
100
AcDbSpline
70
4
71
3
72
16
73
12
40
0
40
0
40
0
40
0
40
0.0003234009625968
40
0.0003234009625968
40
0.281891295778052
40
0.281891295778052
40
0.563857518034444
40
0.563857518034444
40
0.999676599037414
40
0.999676599037414
40
1
40
1
40
1
40
1
41
1
10
35.4890724776759
20
9.6673585583832
30
0
41
1
10
35.4890542452638
20
9.66735181962011
30
0
41
1
10
35.4890360127654
20
9.66734508106623
30
0
41
1
10
35.4731438796107
20
9.66147110564131
30
0
41
1
10
35.4573395823257
20
9.65545989812992
30
0
41
1
10
35.4258607502036
20
9.64314240429687
30
0
41
1
10
35.4101848014628
20
9.63683507424773
30
0
41
1
10
35.3704882686511
20
9.62041489126872
30
0
41
1
10
35.3465753514896
20
9.6101008496334
30
0
41
1
10
35.3228601099431
20
9.59943885023421
30
0
41
1
10
35.3228425238483
20
9.59943094330825
30
0
41
1
10
35.3228249376459
20
9.59942303660128
30
0
0
SPLINE
5
1EF
100
AcDbEntity
8
1
62
256
6
ByLayer
370
13
48
1
60
0
100
AcDbSpline
70
4
71
3
72
10
73
6
40
0
40
0
40
0
40
0
40
0.584811321004001
40
0.584811321004001
40
1
40
1
40
1
40
1
41
1
10
41.3229218619212
20
8.54627785188083
30
0
41
1
10
41.3671269207749
20
8.54765519864512
30
0
41
1
10
41.4120128950401
20
8.54448051517724
30
0
41
1
10
41.4856471034019
20
8.52587655252452
30
0
41
1
10
41.5158168934823
20
8.51399523035857
30
0
41
1
10
41.5429134307967
20
8.49687417722882
30
0
0
SPLINE
5
1F0
100
AcDbEntity
8
1
62
256
6
ByLayer
370
13
48
1
60
0
100
AcDbSpline
70
4
71
3
72
10
73
6
40
0
40
0
40
0
40
0
40
0.584811321004001
40
0.584811321004001
40
1
40
1
40
1
40
1
41
1
10
41.3229218619212
20
11.4537221481194
30
0
41
1
10
41.3671269207749
20
11.4523448013551
30
0
41
1
10
41.4120128950401
20
11.455519484823
30
0
41
1
10
41.4856471034019
20
11.4741234474757
30
0
41
1
10
41.5158168934823
20
11.4860047696416
30
0
41
1
10
41.5429134307967
20
11.5031258227714
30
0
0
SPLINE
5
1F1
100
AcDbEntity
8
1
62
256
6
ByLayer
370
13
48
1
60
0
100
AcDbSpline
70
4
71
2
72
6
73
3
40
0
40
0
40
0
40
1
40
1
40
1
41
1
10
35.2239816481906
20
10.5180483237181
30
0
41
0.916194302198624
10
35.2501201860675
20
10.4354612835999
30
0
41
1
10
35.3228255532626
20
10.400576963399
30
0
0
SPLINE
5
1F2
100
AcDbEntity
8
1
62
256
6
ByLayer
370
13
48
1
60
0
100
AcDbSpline
70
4
71
2
72
6
73
3
40
0
40
0
40
0
40
1
40
1
40
1
41
1
10
35.3228249376459
20
9.59942303660128
30
0
41
0.916194302198624
10
35.2501195704508
20
9.56453871640041
30
0
41
1
10
35.2239810325739
20
9.48195167628214
30
0
0
SPLINE
5
1F3
100
AcDbEntity
8
1
62
256
6
ByLayer
370
13
48
1
60
0
100
AcDbSpline
70
4
71
3
72
8
73
4
40
0
40
0
40
0
40
0
40
1
40
1
40
1
40
1
41
1
10
35.4983807874305
20
9.6707787598165
30
0
41
1
10
35.4952776956559
20
9.66963877120318
30
0
41
1
10
35.4921749253846
20
9.66849870388907
30
0
41
1
10
35.4890724776757
20
9.66735855838326
30
0
0
SPLINE
5
1F4
100
AcDbEntity
8
1
62
256
6
ByLayer
370
13
48
1
60
0
100
AcDbSpline
70
4
71
3
72
8
73
4
40
0
40
0
40
0
40
0
40
1
40
1
40
1
40
1
41
1
10
41.5429134307958
20
11.5031258227718
30
0
41
1
10
41.5523662605101
20
11.5270170525457
30
0
41
1
10
41.5618537680906
20
11.5511948686657
30
0
41
1
10
41.572244251906
20
11.5749867286376
30
0
0
SPLINE
5
1F5
100
AcDbEntity
8
1
62
256
6
ByLayer
370
13
48
1
60
0
100
AcDbSpline
70
4
71
3
72
8
73
4
40
0
40
0
40
0
40
0
40
1
40
1
40
1
40
1
41
1
10
35.4890731791048
20
10.332641441617
30
0
41
1
10
35.4921756280066
20
10.3315012961161
30
0
41
1
10
35.4952783994478
20
10.3303612288019
30
0
41
1
10
35.4983814923706
20
10.3292212401837
30
0
0
SPLINE
5
1F6
100
AcDbEntity
8
1
62
256
6
ByLayer
370
13
48
1
60
0
100
AcDbSpline
70
4
71
3
72
8
73
4
40
0
40
0
40
0
40
0
40
1
40
1
40
1
40
1
41
1
10
41.5429134307958
20
8.49687417722839
30
0
41
1
10
41.5523662605101
20
8.47298294745457
30
0
41
1
10
41.5618537680906
20
8.44880513133461
30
0
41
1
10
41.572244251906
20
8.42501327136264
30
0
0
SPLINE
5
1F7
100
AcDbEntity
8
1
62
256
6
ByLayer
370
13
48
1
60
0
100
AcDbSpline
70
4
71
2
72
6
73
3
40
0
40
0
40
0
40
1
40
1
40
1
41
1
10
35.0979577447374
20
10.400576963399
30
0
41
1
10
35.2103916489999
20
10.400576963399
30
0
41
1
10
35.3228255532626
20
10.400576963399
30
0
0
SPLINE
5
1F8
100
AcDbEntity
8
1
62
256
6
ByLayer
370
13
48
1
60
0
100
AcDbSpline
70
4
71
2
72
6
73
3
40
0
40
0
40
0
40
1
40
1
40
1
41
1
10
35.0979577447374
20
10.400576963399
30
0
41
0.916194302198624
10
35.0252523775423
20
10.4354612835998
30
0
41
1
10
34.9991138396654
20
10.5180483237181
30
0
0
SPLINE
5
1F9
100
AcDbEntity
8
1
62
256
6
ByLayer
370
13
48
1
60
0
100
AcDbSpline
70
4
71
2
72
6
73
3
40
0
40
0
40
0
40
1
40
1
40
1
41
1
10
35.0979577447374
20
9.59942303660128
30
0
41
0.916194302198624
10
35.0252523775423
20
9.56453871640042
30
0
41
1
10
34.9991138396654
20
9.48195167628214
30
0
0
SPLINE
5
1FA
100
AcDbEntity
8
1
62
256
6
ByLayer
370
13
48
1
60
0
100
AcDbSpline
70
4
71
2
72
6
73
3
40
0
40
0
40
0
40
1
40
1
40
1
41
1
10
35.0979577447374
20
9.59942303660128
30
0
41
1
10
35.2103913411916
20
9.59942303660128
30
0
41
1
10
35.3228249376459
20
9.59942303660128
30
0
0
SPLINE
5
1FB
100
AcDbEntity
8
1
62
256
6
ByLayer
370
13
48
1
60
0
100
AcDbSpline
70
4
71
3
72
12
73
8
40
0
40
0
40
0
40
0
40
0.222210269969675
40
0.222210269969675
40
0.98789629981278
40
0.98789629981278
40
1
40
1
40
1
40
1
41
1
10
41.5762578641568
20
11.5900225555477
30
0
41
1
10
41.5780568600709
20
11.594301064716
30
0
41
1
10
41.5798523269257
20
11.5985826698892
30
0
41
1
10
41.5878141103189
20
11.6176240855862
30
0
41
1
10
41.5939377359823
20
11.6324167832534
30
0
41
1
10
41.6000844674869
20
11.6474550211964
30
0
41
1
10
41.600180128062
20
11.6476891185091
30
0
41
1
10
41.6002757733597
20
11.6479232188579
30
0
0
SPLINE
5
1FC
100
AcDbEntity
8
1
62
256
6
ByLayer
370
13
48
1
60
0
100
AcDbSpline
70
4
71
3
72
12
73
8
40
0
40
0
40
0
40
0
40
0.222210270055733
40
0.222210270055733
40
0.987896300195374
40
0.987896300195374
40
1
40
1
40
1
40
1
41
1
10
41.5762578641568
20
8.40997744445258
30
0
41
1
10
41.5780568600709
20
8.40569893528425
30
0
41
1
10
41.5798523269257
20
8.40141733011106
30
0
41
1
10
41.5878141103189
20
8.3823759144141
30
0
41
1
10
41.5939377359823
20
8.36758321674685
30
0
41
1
10
41.600084467484
20
8.35254497881118
30
0
41
1
10
41.6001801280886
20
8.35231088151326
30
0
41
1
10
41.600275773394
20
8.35207678117413
30
0
0
SPLINE
5
1FD
100
AcDbEntity
8
1
62
256
6
ByLayer
370
13
48
1
60
0
100
AcDbSpline
70
4
71
3
72
8
73
4
40
0
40
0
40
0
40
0
40
1
40
1
40
1
40
1
41
1
10
41.5722442519074
20
8.42501327136324
30
0
41
1
10
41.573599882656
20
8.42000546548599
30
0
41
1
10
41.5749312509392
20
8.41499137194475
30
0
41
1
10
41.5762578641507
20
8.40997744445096
30
0
0
SPLINE
5
1FE
100
AcDbEntity
8
1
62
256
6
ByLayer
370
13
48
1
60
0
100
AcDbSpline
70
4
71
3
72
8
73
4
40
0
40
0
40
0
40
0
40
1
40
1
40
1
40
1
41
1
10
41.5722442519074
20
11.574986728637
30
0
41
1
10
41.573599882656
20
11.5799945345142
30
0
41
1
10
41.5749312509392
20
11.5850086280555
30
0
41
1
10
41.5762578641507
20
11.5900225555493
30
0
0
SPLINE
5
1FF
100
AcDbEntity
8
1
62
256
6
ByLayer
370
13
48
1
60
0
100
AcDbSpline
70
4
71
3
72
8
73
4
40
0
40
0
40
0
40
0
40
1
40
1
40
1
40
1
41
1
10
40.7350345308899
20
8.5307193644864
30
0
41
1
10
40.9310472934744
20
8.53270754585384
30
0
41
1
10
41.1269821791394
20
8.540172738682
30
0
41
1
10
41.3229218619212
20
8.54627785188083
30
0
0
SPLINE
5
200
100
AcDbEntity
8
1
62
256
6
ByLayer
370
13
48
1
60
0
100
AcDbSpline
70
4
71
3
72
8
73
4
40
0
40
0
40
0
40
0
40
1
40
1
40
1
40
1
41
1
10
40.7350345308899
20
11.4692806355138
30
0
41
1
10
40.9310472934744
20
11.4672924541464
30
0
41
1
10
41.1269821791394
20
11.4598272613182
30
0
41
1
10
41.3229218619212
20
11.4537221481194
30
0
0
SPLINE
5
201
100
AcDbEntity
8
1
62
256
6
ByLayer
370
13
48
1
60
0
100
AcDbSpline
70
4
71
2
72
6
73
3
40
0
40
0
40
0
40
1
40
1
40
1
41
1
10
35.2522783035128
20
10.332641441617
30
0
41
1
10
35.3706757413088
20
10.332641441617
30
0
41
1
10
35.4890731791048
20
10.332641441617
30
0
0
SPLINE
5
202
100
AcDbEntity
8
1
62
256
6
ByLayer
370
13
48
1
60
0
100
AcDbSpline
70
4
71
2
72
6
73
3
40
0
40
0
40
0
40
1
40
1
40
1
41
1
10
35.2522783035128
20
10.332641441617
30
0
41
0.999533107184472
10
35.1741769618959
20
10.3640066842106
30
0
41
1
10
35.0979577447374
20
10.400576963399
30
0
0
SPLINE
5
203
100
AcDbEntity
8
1
62
256
6
ByLayer
370
13
48
1
60
0
100
AcDbSpline
70
4
71
2
72
6
73
3
40
0
40
0
40
0
40
1
40
1
40
1
41
1
10
35.2522783035128
20
9.6673585583832
30
0
41
1
10
35.3706753905944
20
9.6673585583832
30
0
41
1
10
35.4890724776759
20
9.6673585583832
30
0
0
SPLINE
5
204
100
AcDbEntity
8
1
62
256
6
ByLayer
370
13
48
1
60
0
100
AcDbSpline
70
4
71
2
72
6
73
3
40
0
40
0
40
0
40
1
40
1
40
1
41
1
10
35.2522783035128
20
9.6673585583832
30
0
41
0.999533107184472
10
35.1741769618959
20
9.63599331578969
30
0
41
1
10
35.0979577447374
20
9.59942303660128
30
0
0
SPLINE
5
205
100
AcDbEntity
8
1
62
256
6
ByLayer
370
13
48
1
60
0
100
AcDbSpline
70
4
71
2
72
6
73
3
40
0
40
0
40
0
40
1
40
1
40
1
41
0.987111961353889
10
34.9639978396505
20
10.5180483237181
30
0
41
0.992892304589321
10
34.9827927263389
20
10.5180483237181
30
0
41
1
10
34.9991138396654
20
10.5180483237181
30
0
0
SPLINE
5
206
100
AcDbEntity
8
1
62
256
6
ByLayer
370
13
48
1
60
0
100
AcDbSpline
70
4
71
3
72
8
73
4
40
0
40
0
40
0
40
0
40
1
40
1
40
1
40
1
41
1
10
35.623891271065
20
10.1318857898187
30
0
41
1
10
35.6204763080657
20
10.0443340291077
30
0
41
1
10
35.6204762357743
20
9.95566600257919
30
0
41
1
10
35.6238910536757
20
9.86811421018152
30
0
0
SPLINE
5
207
100
AcDbEntity
8
1
62
256
6
ByLayer
370
13
48
1
60
0
100
AcDbSpline
70
4
71
2
72
6
73
3
40
0
40
0
40
0
40
1
40
1
40
1
41
0.987111961353889
10
34.9639978396505
20
9.4819516762821
30
0
41
0.992892304589321
10
34.9827927263389
20
9.48195167628212
30
0
41
1
10
34.9991138396654
20
9.48195167628214
30
0
0
SPLINE
5
208
100
AcDbEntity
8
1
62
256
6
ByLayer
370
13
48
1
60
0
100
AcDbSpline
70
4
71
2
72
6
73
3
40
0
40
0
40
0
40
1
40
1
40
1
41
1
10
35.3860245871509
20
9.86811421018152
30
0
41
0.819152044288999
10
35.3860245871508
20
9.72107062715753
30
0
41
1
10
35.2607948109093
20
9.6707787598165
30
0
0
SPLINE
5
209
100
AcDbEntity
8
1
62
256
6
ByLayer
370
13
48
1
60
0
100
AcDbSpline
70
4
71
2
72
6
73
3
40
0
40
0
40
0
40
1
40
1
40
1
41
1
10
35.3860245871509
20
9.86811421018152
30
0
41
1
10
35.5049578204133
20
9.86811421018152
30
0
41
1
10
35.6238910536757
20
9.86811421018152
30
0
0
SPLINE
5
20A
100
AcDbEntity
8
1
62
256
6
ByLayer
370
13
48
1
60
0
100
AcDbSpline
70
4
71
2
72
6
73
3
40
0
40
0
40
0
40
1
40
1
40
1
41
1
10
35.3860245871509
20
10.1318857898187
30
0
41
1
10
35.504957929108
20
10.1318857898187
30
0
41
1
10
35.623891271065
20
10.1318857898187
30
0
0
SPLINE
5
20B
100
AcDbEntity
8
1
62
256
6
ByLayer
370
13
48
1
60
0
100
AcDbSpline
70
4
71
2
72
6
73
3
40
0
40
0
40
0
40
1
40
1
40
1
41
1
10
35.3860245871509
20
10.1318857898187
30
0
41
0.819152044288999
10
35.3860245871508
20
10.2789293728428
30
0
41
1
10
35.2607948109093
20
10.3292212401838
30
0
0
SPLINE
5
20C
100
AcDbEntity
8
1
62
256
6
ByLayer
370
13
48
1
60
0
100
AcDbSpline
70
4
71
2
72
6
73
3
40
0
40
0
40
0
40
1
40
1
40
1
41
1
10
35.2607948109093
20
10.3292212401838
30
0
41
1
10
35.2565365572111
20
10.3309313409004
30
0
41
1
10
35.2522783035128
20
10.332641441617
30
0
0
SPLINE
5
20D
100
AcDbEntity
8
1
62
256
6
ByLayer
370
13
48
1
60
0
100
AcDbSpline
70
4
71
2
72
6
73
3
40
0
40
0
40
0
40
1
40
1
40
1
41
1
10
35.2607948109093
20
9.6707787598165
30
0
41
1
10
35.2565365572111
20
9.66906865909985
30
0
41
1
10
35.2522783035128
20
9.6673585583832
30
0
0
SPLINE
5
20E
100
AcDbEntity
8
1
62
256
6
ByLayer
370
13
48
1
60
0
100
AcDbSpline
70
4
71
3
72
10
73
6
40
0
40
0
40
0
40
0
40
0.0277062621811719
40
0.0277062621811719
40
1
40
1
40
1
40
1
41
1
10
38.5737540913006
20
11.2781275779167
30
0
41
1
10
38.582957552434
20
11.2796494631795
30
0
41
1
10
38.5921671033025
20
11.2811349888622
30
0
41
1
10
38.9247369993412
20
11.3334003030664
30
0
41
1
10
39.2493640632669
20
11.375821635382
30
0
41
1
10
39.5737540913006
20
11.4195441206499
30
0
0
SPLINE
5
20F
100
AcDbEntity
8
1
62
256
6
ByLayer
370
13
48
1
60
0
100
AcDbSpline
70
4
71
3
72
10
73
6
40
0
40
0
40
0
40
0
40
0.0277062621811719
40
0.0277062621811719
40
1
40
1
40
1
40
1
41
1
10
38.5737540913006
20
8.72187242208358
30
0
41
1
10
38.582957552434
20
8.72035053682069
30
0
41
1
10
38.5921671033025
20
8.71886501113804
30
0
41
1
10
38.9247369993412
20
8.6665996969339
30
0
41
1
10
39.2493640632669
20
8.62417836461822
30
0
41
1
10
39.5737540913006
20
8.58045587935032
30
0
0
SPLINE
5
210
100
AcDbEntity
8
1
62
256
6
ByLayer
370
13
48
1
60
0
100
AcDbSpline
70
4
71
2
72
6
73
3
40
0
40
0
40
0
40
1
40
1
40
1
41
1
10
35.3860245871509
20
10.0000000000001
30
0
41
1
10
35.3860245871509
20
10.0659428949094
30
0
41
1
10
35.3860245871509
20
10.1318857898187
30
0
0
SPLINE
5
211
100
AcDbEntity
8
1
62
256
6
ByLayer
370
13
48
1
60
0
100
AcDbSpline
70
4
71
3
72
10
73
6
40
0
40
0
40
0
40
0
40
0.903960670209891
40
0.903960670209891
40
1
40
1
40
1
40
1
41
1
10
37.8235765839737
20
11.1704246005474
30
0
41
1
10
38.0442936078569
20
11.2022992743826
30
0
41
1
10
38.2730936844327
20
11.2336279590552
30
0
41
1
10
38.5250664073008
20
11.2708918117997
30
0
41
1
10
38.5494118712316
20
11.2745048691437
30
0
41
1
10
38.5737540913006
20
11.2781275779167
30
0
0
SPLINE
5
212
100
AcDbEntity
8
1
62
256
6
ByLayer
370
13
48
1
60
0
100
AcDbSpline
70
4
71
2
72
6
73
3
40
0
40
0
40
0
40
1
40
1
40
1
41
1
10
35.3860245871509
20
10.0000000000001
30
0
41
1
10
35.3860245871509
20
9.93405710509083
30
0
41
1
10
35.3860245871509
20
9.86811421018152
30
0
0
SPLINE
5
213
100
AcDbEntity
8
1
62
256
6
ByLayer
370
13
48
1
60
0
100
AcDbSpline
70
4
71
3
72
10
73
6
40
0
40
0
40
0
40
0
40
0.903960670209891
40
0.903960670209891
40
1
40
1
40
1
40
1
41
1
10
37.8235765839737
20
8.82957539945286
30
0
41
1
10
38.0442936078569
20
8.79770072561766
30
0
41
1
10
38.2730936844327
20
8.76637204094502
30
0
41
1
10
38.5250664073008
20
8.72910818820054
30
0
41
1
10
38.5494118712316
20
8.72549513085656
30
0
41
1
10
38.5737540913006
20
8.72187242208358
30
0
0
SPLINE
5
214
100
AcDbEntity
8
1
62
256
6
ByLayer
370
13
48
1
60
0
100
AcDbSpline
70
4
71
3
72
10
73
6
40
0
40
0
40
0
40
0
40
0.931419946954144
40
0.931419946954144
40
1
40
1
40
1
40
1
41
1
10
40.1195
20
8.52257208760247
30
0
41
1
10
40.3152925310124
20
8.52292774315177
30
0
41
1
10
40.5085438810412
20
8.52854779626003
30
0
41
1
10
40.7077128398514
20
8.53046609547934
30
0
41
1
10
40.7213934636665
20
8.53059439144579
30
0
41
1
10
40.7350345308899
20
8.53071936448643
30
0
0
SPLINE
5
215
100
AcDbEntity
8
1
62
256
6
ByLayer
370
13
48
1
60
0
100
AcDbSpline
70
4
71
3
72
10
73
6
40
0
40
0
40
0
40
0
40
0.931419946954144
40
0.931419946954144
40
1
40
1
40
1
40
1
41
1
10
40.1195
20
11.4774279123978
30
0
41
1
10
40.3152925310124
20
11.4770722568485
30
0
41
1
10
40.5085438810412
20
11.4714522037402
30
0
41
1
10
40.7077128398514
20
11.4695339045209
30
0
41
1
10
40.7213934636665
20
11.4694056085545
30
0
41
1
10
40.7350345308899
20
11.4692806355138
30
0
0
SPLINE
5
216
100
AcDbEntity
8
1
62
256
6
ByLayer
370
13
48
1
60
0
100
AcDbSpline
70
4
71
3
72
14
73
10
40
0
40
0
40
0
40
0
40
0.0002001723396691
40
0.0002001723396691
40
0.544817124375757
40
0.544817124375757
40
0.999799827660401
40
0.999799827660401
40
1
40
1
40
1
40
1
41
1
10
39.8235765839737
20
11.4530547113491
30
0
41
1
10
39.8235963346732
20
11.4530574241899
30
0
41
1
10
39.823616085402
20
11.4530601368507
30
0
41
1
10
39.877364212869
20
11.4604425073668
30
0
41
1
10
39.9310277968251
20
11.4681096266397
30
0
41
1
10
40.029715913931
20
11.4758155388836
30
0
41
1
10
40.074691741791
20
11.477507731413
30
0
41
1
10
40.1194606247576
20
11.4774279834848
30
0
41
1
10
40.1194803124042
20
11.4774279480597
30
0
41
1
10
40.1195
20
11.4774279123978
30
0
0
SPLINE
5
217
100
AcDbEntity
8
1
62
256
6
ByLayer
370
13
48
1
60
0
100
AcDbSpline
70
4
71
3
72
14
73
10
40
0
40
0
40
0
40
0
40
0.0002001723396691
40
0.0002001723396691
40
0.544817124375757
40
0.544817124375757
40
0.999799827660401
40
0.999799827660401
40
1
40
1
40
1
40
1
41
1
10
39.8235765839737
20
8.54694528865113
30
0
41
1
10
39.8235963346941
20
8.54694257589034
30
0
41
1
10
39.823616085402
20
8.54693986314959
30
0
41
1
10
39.877364212869
20
8.53955749263341
30
0
41
1
10
39.9310277968251
20
8.53189037336054
30
0
41
1
10
40.029715913931
20
8.52418446111665
30
0
41
1
10
40.074691741791
20
8.52249226858723
30
0
41
1
10
40.1194606247576
20
8.5225720165154
30
0
41
1
10
40.1194803123958
20
8.52257205221673
30
0
41
1
10
40.1195
20
8.52257208760247
30
0
0
SPLINE
5
218
100
AcDbEntity
8
1
62
256
6
ByLayer
370
13
48
1
60
0
100
AcDbSpline
70
4
71
3
72
12
73
8
40
0
40
0
40
0
40
0
40
0.540730446954289
40
0.540730446954289
40
0.953322112631191
40
0.953322112631191
40
1
40
1
40
1
40
1
41
1
10
39.5737540913006
20
8.5804558793503
30
0
41
1
10
39.6188962912315
20
8.57496026305964
30
0
41
1
10
39.663947436825
20
8.56865627683439
30
0
41
1
10
39.7433231581353
20
8.55788569769868
30
0
41
1
10
39.7776596889687
20
8.55323457348103
30
0
41
1
10
39.8158206583502
20
8.54800960531949
30
0
41
1
10
39.8196989730812
20
8.54747783821043
30
0
41
1
10
39.8235765839737
20
8.54694528865113
30
0
0
SPLINE
5
219
100
AcDbEntity
8
1
62
256
6
ByLayer
370
13
48
1
60
0
100
AcDbSpline
70
4
71
3
72
8
73
4
40
0
40
0
40
0
40
0
40
1
40
1
40
1
40
1
41
1
10
39.8235765839737
20
10.0000000000001
30
0
41
1
10
39.9222177226491
20
10.0000000000001
30
0
41
1
10
40.0208588613246
20
10.0000000000001
30
0
41
1
10
40.1195
20
10.0000000000001
30
0
0
SPLINE
5
21A
100
AcDbEntity
8
1
62
256
6
ByLayer
370
13
48
1
60
0
100
AcDbSpline
70
4
71
3
72
12
73
8
40
0
40
0
40
0
40
0
40
0.540730446954289
40
0.540730446954289
40
0.953322112631191
40
0.953322112631191
40
1
40
1
40
1
40
1
41
1
10
39.5737540913006
20
11.4195441206499
30
0
41
1
10
39.6188962912315
20
11.4250397369406
30
0
41
1
10
39.663947436825
20
11.4313437231658
30
0
41
1
10
39.7433231581353
20
11.4421143023016
30
0
41
1
10
39.7776596889687
20
11.4467654265192
30
0
41
1
10
39.8158206583502
20
11.4519903946808
30
0
41
1
10
39.8196989730812
20
11.4525221617898
30
0
41
1
10
39.8235765839737
20
11.4530547113491
30
0
0
SPLINE
5
21B
100
AcDbEntity
8
1
62
256
6
ByLayer
370
13
48
1
60
0
100
AcDbSpline
70
4
71
2
72
6
73
3
40
0
40
0
40
0
40
1
40
1
40
1
41
0.979740007745961
10
35.0290087447338
20
10.400576963399
30
0
41
0.987968238201332
10
35.06737006363
20
10.400576963399
30
0
41
1
10
35.0979577447374
20
10.400576963399
30
0
0
SPLINE
5
21C
100
AcDbEntity
8
1
62
256
6
ByLayer
370
13
48
1
60
0
100
AcDbSpline
70
4
71
2
72
6
73
3
40
0
40
0
40
0
40
1
40
1
40
1
41
0.980539451558619
10
35.0327067447345
20
9.59942303660128
30
0
41
0.9885463137619
10
35.0688567005582
20
9.5994230366013
30
0
41
1
10
35.0979577447374
20
9.59942303660128
30
0
0
SPLINE
5
21D
100
AcDbEntity
8
1
62
256
6
ByLayer
370
13
48
1
60
0
100
AcDbSpline
70
4
71
2
72
6
73
3
40
0
40
0
40
0
40
1
40
1
40
1
41
0.981171512284226
10
35.1888998108982
20
10.3292212401837
30
0
41
0.988994613310468
10
35.2285975511967
20
10.3292212401838
30
0
41
1
10
35.2607948109093
20
10.3292212401838
30
0
0
SPLINE
5
21E
100
AcDbEntity
8
1
62
256
6
ByLayer
370
13
48
1
60
0
100
AcDbSpline
70
4
71
2
72
6
73
3
40
0
40
0
40
0
40
1
40
1
40
1
41
0.980456323434519
10
35.3027485871603
20
10.1318857898187
30
0
41
0.988486790464936
10
35.3489049885821
20
10.1318857898187
30
0
41
1
10
35.3860245871509
20
10.1318857898187
30
0
0
SPLINE
5
21F
100
AcDbEntity
8
1
62
256
6
ByLayer
370
13
48
1
60
0
100
AcDbSpline
70
4
71
2
72
6
73
3
40
0
40
0
40
0
40
1
40
1
40
1
41
0.981129398986858
10
35.180665303516
20
10.332641441617
30
0
41
0.988964974991533
10
35.2202161407848
20
10.332641441617
30
0
41
1
10
35.2522783035128
20
10.332641441617
30
0
0
SPLINE
5
220
100
AcDbEntity
8
1
62
256
6
ByLayer
370
13
48
1
60
0
100
AcDbSpline
70
4
71
2
72
6
73
3
40
0
40
0
40
0
40
1
40
1
40
1
41
0.981129398986858
10
35.180665303516
20
9.6673585583832
30
0
41
0.988964974991533
10
35.2202161407848
20
9.6673585583832
30
0
41
1
10
35.2522783035128
20
9.6673585583832
30
0
0
SPLINE
5
221
100
AcDbEntity
8
1
62
256
6
ByLayer
370
18
48
1
60
0
100
AcDbSpline
70
4
71
3
72
10
73
6
40
0
40
0
40
0
40
0
40
0.491597105971714
40
0.491597105971714
40
1
40
1
40
1
40
1
41
1
10
27.8724913678668
20
7.32090297269772
30
0
41
1
10
27.8936291819646
20
7.31380127124532
30
0
41
1
10
27.9149576710834
20
7.30857275644422
30
0
41
1
10
27.9576215142476
20
7.3016394398966
30
0
41
1
10
27.9791739726231
20
7.30000000000007
30
0
41
1
10
28
20
7.30000000000007
30
0
0
SPLINE
5
222
100
AcDbEntity
8
1
62
256
6
ByLayer
370
18
48
1
60
0
100
AcDbSpline
70
4
71
3
72
10
73
6
40
0
40
0
40
0
40
0
40
0.897705894104831
40
0.897705894104831
40
1
40
1
40
1
40
1
41
1
10
28
20
12.7000000000001
30
0
41
1
10
27.96178653615
20
12.7000000000001
30
0
41
1
10
27.9207420749076
20
12.6943343105253
30
0
41
1
10
27.8758860617243
20
12.6802877174302
30
0
41
1
10
27.871303777659
20
12.6787579034075
30
0
41
1
10
27.8667246984264
20
12.6771335467322
30
0
0
SPLINE
5
223
100
AcDbEntity
8
1
62
256
6
ByLayer
370
18
48
1
60
0
100
AcDbSpline
70
4
71
3
72
18
73
14
40
0
40
0
40
0
40
0
40
0.19612420748216
40
0.19612420748216
40
0.391956138879499
40
0.391956138879499
40
0.593391230704847
40
0.593391230704847
40
0.808334742403808
40
0.808334742403808
40
0.996301839338836
40
0.996301839338836
40
1
40
1
40
1
40
1
41
1
10
11.2026316928586
20
5.72500000000039
30
0
41
1
10
11.2026316928586
20
5.89475502210232
30
0
41
1
10
11.2305242974107
20
6.06684752965276
30
0
41
1
10
11.3361638686546
20
6.38667658415318
30
0
41
1
10
11.4151498973843
20
6.53874035569265
30
0
41
1
10
11.6134737857806
20
6.80887678652491
30
0
41
1
10
11.7363488613837
20
6.92941792571062
30
0
41
1
10
12.0154291340496
20
7.12916672660987
30
0
41
1
10
12.1768841985505
20
7.20778354951406
30
0
41
1
10
12.4894498167245
20
7.30144276038763
30
0
41
1
10
12.6422431376522
20
7.32413208972366
30
0
41
1
10
12.7966949148675
20
7.32499173943182
30
0
41
1
10
12.7996632953558
20
7.32500000000053
30
0
41
1
10
12.8026316928587
20
7.32500000000053
30
0
0
SPLINE
5
224
100
AcDbEntity
8
1
62
256
6
ByLayer
370
18
48
1
60
0
100
AcDbSpline
70
4
71
3
72
12
73
8
40
0
40
0
40
0
40
0
40
0.341621324294097
40
0.341621324294097
40
0.684704153809037
40
0.684704153809037
40
1
40
1
40
1
40
1
41
1
10
34.8820812253629
20
10.4427761170021
30
0
41
1
10
34.8833724269379
20
10.434104334713
30
0
41
1
10
34.8862073194721
20
10.4254690185007
30
0
41
1
10
34.8949039737677
20
10.4097435555255
30
0
41
1
10
34.9009057799659
20
10.4024567515934
30
0
41
1
10
34.9146091122724
20
10.390939836288
30
0
41
1
10
34.9222922726726
20
10.3863680926285
30
0
41
1
10
34.9304703189275
20
10.3830267960717
30
0
0
SPLINE
5
225
100
AcDbEntity
8
1
62
256
6
ByLayer
370
18
48
1
60
0
100
AcDbSpline
70
4
71
3
72
14
73
10
40
0
40
0
40
0
40
0
40
0.277964822127863
40
0.277964822127863
40
0.556501573953062
40
0.556501573953062
40
0.827022564378708
40
0.827022564378708
40
1
40
1
40
1
40
1
41
1
10
35.1875419938809
20
10.1738237224738
30
0
41
1
10
35.188835010525
20
10.1900574522263
30
0
41
1
10
35.1874656911388
20
10.2066186943119
30
0
41
1
10
35.1793911623362
20
10.237727442912
30
0
41
1
10
35.172550118279
20
10.2527067230388
30
0
41
1
10
35.1544769848124
20
10.2784703476159
30
0
41
1
10
35.1431148900939
20
10.2897167862919
30
0
41
1
10
35.1219500249486
20
10.3042828295221
30
0
41
1
10
35.1129131106976
20
10.3091044174574
30
0
41
1
10
35.1034740012568
20
10.31290130066
30
0
0
SPLINE
5
226
100
AcDbEntity
8
1
62
256
6
ByLayer
370
18
48
1
60
0
100
AcDbSpline
70
4
71
3
72
14
73
10
40
0
40
0
40
0
40
0
40
0.26511549667663
40
0.26511549667663
40
0.530351997484443
40
0.530351997484443
40
0.794743006633756
40
0.794743006633756
40
1
40
1
40
1
40
1
41
1
10
35.103474001256
20
9.68709869934148
30
0
41
1
10
35.1178169193669
20
9.69286814032455
30
0
41
1
10
35.1312798336788
20
9.70107615959958
30
0
41
1
10
35.1541755035236
20
9.72123979547777
30
0
41
1
10
35.1639170011518
20
9.73346737762347
30
0
41
1
10
35.1784767387755
20
9.76016268298284
30
0
41
1
10
35.1835136438587
20
9.7749725871484
30
0
41
1
10
35.1880089221204
20
9.80190858852811
30
0
41
1
10
35.1885025937918
20
9.81411601565068
30
0
41
1
10
35.187541993882
20
9.82617627752626
30
0
0
SPLINE
5
227
100
AcDbEntity
8
1
62
256
6
ByLayer
370
18
48
1
60
0
100
AcDbSpline
70
4
71
3
72
12
73
8
40
0
40
0
40
0
40
0
40
0.332414864303877
40
0.332414864303877
40
0.66545076911606
40
0.66545076911606
40
1
40
1
40
1
40
1
41
1
10
34.9304703189274
20
9.61697320392852
30
0
41
1
10
34.9218610250495
20
9.61345571294177
30
0
41
1
10
34.9137959778899
20
9.60856724613114
30
0
41
1
10
34.9001780410718
20
9.59670948329136
30
0
41
1
10
34.8944556422082
20
9.58957694020856
30
0
41
1
10
34.8860910382753
20
9.57418022845968
30
0
41
1
10
34.8833463988581
20
9.56572085924751
30
0
41
1
10
34.882081225362
20
9.55722388299802
30
0
0
SPLINE
5
228
100
AcDbEntity
8
1
62
256
6
ByLayer
370
18
48
1
60
0
100
AcDbSpline
70
4
71
3
72
8
73
4
40
0
40
0
40
0
40
0
40
1
40
1
40
1
40
1
41
1
10
40.4014946002937
20
12.9679122772211
30
0
41
1
10
40.1842191907709
20
12.9478834204718
30
0
41
1
10
39.9597522052211
20
12.9296885041685
30
0
41
1
10
39.7364283337293
20
12.9140193618495
30
0
0
SPLINE
5
229
100
AcDbEntity
8
1
62
256
6
ByLayer
370
18
48
1
60
0
100
AcDbSpline
70
4
71
3
72
16
73
12
40
0
40
0
40
0
40
0
40
0.210113811526245
40
0.210113811526245
40
0.420118783208566
40
0.420118783208566
40
0.631580723999394
40
0.631580723999394
40
0.841940850168462
40
0.841940850168462
40
1
40
1
40
1
40
1
41
1
10
41.6042883949487
20
12.6036710939697
30
0
41
1
10
41.6044811057617
20
12.6495888604172
30
0
41
1
10
41.5967828860954
20
12.6961185955739
30
0
41
1
10
41.5671175295509
20
12.7826794987036
30
0
41
1
10
41.5447524466944
20
12.8239131656702
30
0
41
1
10
41.488445222228
20
12.8958084250029
30
0
41
1
10
41.4536337555001
20
12.9273981047966
30
0
41
1
10
41.3767933730099
20
12.9760520573876
30
0
41
1
10
41.3337115713392
20
12.9938682406813
30
0
41
1
10
41.2560754222231
20
13.0108768631271
30
0
41
1
10
41.2213698383446
20
13.0137417321624
30
0
41
1
10
41.1871670660913
20
13.0119260461185
30
0
0
SPLINE
5
22A
100
AcDbEntity
8
1
62
256
6
ByLayer
370
18
48
1
60
0
100
AcDbSpline
70
4
71
3
72
16
73
12
40
0
40
0
40
0
40
0
40
0.203997306331301
40
0.203997306331301
40
0.407770646706819
40
0.407770646706819
40
0.614879615558065
40
0.614879615558065
40
0.825469896972415
40
0.825469896972415
40
1
40
1
40
1
40
1
41
1
10
41.1871670660913
20
6.98807395388172
30
0
41
1
10
41.2310543430127
20
6.98574415688108
30
0
41
1
10
41.2758963449
20
6.99119877040945
30
0
41
1
10
41.3599887275446
20
7.01643941846373
30
0
41
1
10
41.400396894831
20
7.03654154056289
30
0
41
1
10
41.4721906259509
20
7.08865366052072
30
0
41
1
10
41.5044027145379
20
7.12155617039156
30
0
41
1
10
41.5562418734156
20
7.19585549753864
30
0
41
1
10
41.5763687602264
20
7.23841407802826
30
0
41
1
10
41.5991626476429
20
7.31936293435624
30
0
41
1
10
41.6044491523364
20
7.35802477528151
30
0
41
1
10
41.6042883949487
20
7.3963289060305
30
0
0
SPLINE
5
22B
100
AcDbEntity
8
1
62
256
6
ByLayer
370
18
48
1
60
0
100
AcDbSpline
70
4
71
3
72
8
73
4
40
0
40
0
40
0
40
0
40
1
40
1
40
1
40
1
41
1
10
41.600275779525
20
11.6479232162764
30
0
41
1
10
41.6002814186847
20
11.6493021499695
30
0
41
1
10
41.6002875522354
20
11.6506809535239
30
0
41
1
10
41.6002941807428
20
11.6520595908735
30
0
0
SPLINE
5
22C
100
AcDbEntity
8
1
62
256
6
ByLayer
370
18
48
1
60
0
100
AcDbSpline
70
4
71
3
72
8
73
4
40
0
40
0
40
0
40
0
40
1
40
1
40
1
40
1
41
1
10
37.6716378217011
20
12.8212669740683
30
0
41
1
10
37.6430480905264
20
12.8210043534102
30
0
41
1
10
37.6145834853097
20
12.8177887659086
30
0
41
1
10
37.5868975798566
20
12.8116455319236
30
0
0
SPLINE
5
22D
100
AcDbEntity
8
1
62
256
6
ByLayer
370
18
48
1
60
0
100
AcDbSpline
70
4
71
3
72
8
73
4
40
0
40
0
40
0
40
0
40
1
40
1
40
1
40
1
41
1
10
41.6002941807468
20
8.34794040912621
30
0
41
1
10
41.6002875522405
20
8.34931904647559
30
0
41
1
10
41.6002814186852
20
8.35069785002909
30
0
41
1
10
41.6002757795255
20
8.35207678372157
30
0
0
SPLINE
5
22E
100
AcDbEntity
8
1
62
256
6
ByLayer
370
18
48
1
60
0
100
AcDbSpline
70
4
71
3
72
10
73
6
40
0
40
0
40
0
40
0
40
0.858584777727605
40
0.858584777727605
40
1
40
1
40
1
40
1
41
1
10
37.5868975798574
20
7.18835446806159
30
0
41
1
10
37.5625920283412
20
7.19374763428266
30
0
41
1
10
37.5359654859782
20
7.2028031919576
30
0
41
1
10
37.5061021283406
20
7.2175932623656
30
0
41
1
10
37.5018325632762
20
7.21981761950249
30
0
41
1
10
37.4975914368446
20
7.22213994133742
30
0
0
SPLINE
5
22F
100
AcDbEntity
8
1
62
256
6
ByLayer
370
18
48
1
60
0
100
AcDbSpline
70
4
71
3
72
8
73
4
40
0
40
0
40
0
40
0
40
1
40
1
40
1
40
1
41
1
10
39.7364283337292
20
7.08598063815063
30
0
41
1
10
39.959752205221
20
7.07031149583167
30
0
41
1
10
40.1842191907708
20
7.05211657952842
30
0
41
1
10
40.4014946002937
20
7.03208772277918
30
0
0
SPLINE
5
230
100
AcDbEntity
8
1
62
256
6
ByLayer
370
18
48
1
60
0
100
AcDbSpline
70
4
71
3
72
14
73
10
40
0
40
0
40
0
40
0
40
0.293378665300578
40
0.293378665300578
40
0.586642161239459
40
0.586642161239459
40
0.825678920142814
40
0.825678920142814
40
1
40
1
40
1
40
1
41
1
10
39.5364283337292
20
12.8999866995871
30
0
41
1
10
39.3447161209204
20
12.8865355359175
30
0
41
1
10
39.152201562555
20
12.8745642602152
30
0
41
1
10
38.77353071936
20
12.8540882734259
30
0
41
1
10
38.5860785946323
20
12.8455123765387
30
0
41
1
10
38.2560337849083
20
12.8332819351382
30
0
41
1
10
38.1107699212904
20
12.8289815140383
30
0
41
1
10
37.8682871535138
20
12.8237163119727
30
0
41
1
10
37.7684041313844
20
12.8221558537773
30
0
41
1
10
37.6716378217012
20
12.8212669740683
30
0
0
SPLINE
5
231
100
AcDbEntity
8
1
62
256
6
ByLayer
370
18
48
1
60
0
100
AcDbSpline
70
4
71
3
72
8
73
4
40
0
40
0
40
0
40
0
40
1
40
1
40
1
40
1
41
1
10
37.5868975798566
20
7.18835446807668
30
0
41
1
10
37.6145834853097
20
7.18221123409165
30
0
41
1
10
37.6430480905265
20
7.17899564658998
30
0
41
1
10
37.6716378217012
20
7.17873302593193
30
0
0
SPLINE
5
232
100
AcDbEntity
8
1
62
256
6
ByLayer
370
18
48
1
60
0
100
AcDbSpline
70
4
71
3
72
8
73
4
40
0
40
0
40
0
40
0
40
1
40
1
40
1
40
1
41
1
10
37.4152478209054
20
12.7315215285373
30
0
41
1
10
37.4427018986566
20
12.7473721477173
30
0
41
1
10
37.4705227095992
20
12.7630379831269
30
0
41
1
10
37.4975914368446
20
12.7778600586628
30
0
0
SPLINE
5
233
100
AcDbEntity
8
1
62
256
6
ByLayer
370
18
48
1
60
0
100
AcDbSpline
70
4
71
2
72
6
73
3
40
0
40
0
40
0
40
1
40
1
40
1
41
1
10
34.6376938966109
20
12.7000000000001
30
0
41
1
10
34.6729846280614
20
12.7000000000001
30
0
41
1
10
34.7503724427435
20
12.7000000000001
30
0
0
SPLINE
5
234
100
AcDbEntity
8
1
62
256
6
ByLayer
370
18
48
1
60
0
100
AcDbSpline
70
4
71
3
72
10
73
6
40
0
40
0
40
0
40
0
40
0.557511536136653
40
0.557511536136653
40
1
40
1
40
1
40
1
41
1
10
37.4975914368447
20
7.22213994133733
30
0
41
1
10
37.4825230005822
20
7.23039099423926
30
0
41
1
10
37.467243242515
20
7.23889095301482
30
0
41
1
10
37.4397304309047
20
7.25442140693747
30
0
41
1
10
37.4274642960358
20
7.26142528625792
30
0
41
1
10
37.4152478209054
20
7.26847847146294
30
0
0
SPLINE
5
235
100
AcDbEntity
8
1
62
256
6
ByLayer
370
18
48
1
60
0
100
AcDbSpline
70
4
71
3
72
8
73
4
40
0
40
0
40
0
40
0
40
1
40
1
40
1
40
1
41
1
10
41.6003004601808
20
11.6534542670476
30
0
41
1
10
41.6002985088423
20
11.6529893159499
30
0
41
1
10
41.6002964155792
20
11.652524403498
30
0
41
1
10
41.6002941804909
20
11.652059538419
30
0
0
SPLINE
5
236
100
AcDbEntity
8
1
62
256
6
ByLayer
370
18
48
1
60
0
100
AcDbSpline
70
4
71
3
72
10
73
6
40
0
40
0
40
0
40
0
40
0.858760852437928
40
0.858760852437928
40
1
40
1
40
1
40
1
41
1
10
37.4975914368446
20
12.7778600586628
30
0
41
1
10
37.5229199764033
20
12.7917292562483
30
0
41
1
10
37.5496844354111
20
12.8021072763607
30
0
41
1
10
37.578710044546
20
12.8097461943844
30
0
41
1
10
37.5828306919773
20
12.8107431289346
30
0
41
1
10
37.5868975798598
20
12.8116455319243
30
0
0
SPLINE
5
237
100
AcDbEntity
8
1
62
256
6
ByLayer
370
18
48
1
60
0
100
AcDbSpline
70
4
71
3
72
12
73
8
40
0
40
0
40
0
40
0
40
0.223236979427623
40
0.223236979427623
40
0.515421340440797
40
0.515421340440797
40
1
40
1
40
1
40
1
41
1
10
37.6716378217012
20
7.17873302593193
30
0
41
1
10
37.7957058834711
20
7.17759335673304
30
0
41
1
10
37.9249600298712
20
7.17534741110353
30
0
41
1
10
38.2317292652914
20
7.16767126793326
30
0
41
1
10
38.4129003102597
20
7.16144053271421
30
0
41
1
10
38.9021442687769
20
7.14030682733937
30
0
41
1
10
39.2209419682616
20
7.12214886848878
30
0
41
1
10
39.5364283337283
20
7.10001330041376
30
0
0
SPLINE
5
238
100
AcDbEntity
8
1
62
256
6
ByLayer
370
18
48
1
60
0
100
AcDbSpline
70
4
71
3
72
8
73
4
40
0
40
0
40
0
40
0
40
1
40
1
40
1
40
1
41
1
10
41.6002941804908
20
8.3479404615903
30
0
41
1
10
41.6002964155792
20
8.34747559650839
30
0
41
1
10
41.6002985088422
20
8.34701068405346
30
0
41
1
10
41.6003004601807
20
8.34654573295276
30
0
0
SPLINE
5
239
100
AcDbEntity
8
1
62
256
6
ByLayer
370
18
48
1
60
0
100
AcDbSpline
70
4
71
2
72
6
73
3
40
0
40
0
40
0
40
1
40
1
40
1
41
1
10
34.7503724427435
20
7.30000000000013
30
0
41
1
10
34.6729846280613
20
7.30000000000013
30
0
41
1
10
34.6376938966108
20
7.30000000000013
30
0
0
LINE
5
70
100
AcDbEntity
8
80
62
256
6
ByLayer
370
18
48
1
60
0
100
AcDbLine
10
0
20
0
30
0
11
-5
21
0
31
0
39
0
210
0
220
0
230
1
0
LINE
5
71
100
AcDbEntity
8
81
62
256
6
ByLayer
370
18
48
1
60
0
100
AcDbLine
10
41.6
20
13
30
0
11
46.6
21
13
31
0
39
0
210
0
220
0
230
1
0
LINE
5
72
100
AcDbEntity
8
SK1
62
256
6
ByLayer
370
18
48
1
60
0
100
AcDbLine
10
-5.682242
20
-12.5
30
0
11
-4.774132
21
-12.5
31
0
39
0
210
0
220
0
230
1
0
LINE
5
74
100
AcDbEntity
8
SK1
62
256
6
ByLayer
370
18
48
1
60
0
100
AcDbLine
10
-0.1
20
-12.5
30
0
11
-4.774132
21
-12.5
31
0
39
0
210
0
220
0
230
1
0
LINE
5
75
100
AcDbEntity
8
SK1
62
256
6
ByLayer
370
13
48
1
60
0
100
AcDbLine
10
-5.682242
20
-12.5
30
0
11
-5.682242
21
12.675
31
0
39
0
210
0
220
0
230
1
0
LINE
5
76
100
AcDbEntity
8
SK1
62
256
6
ByLayer
370
18
48
1
60
0
100
AcDbLine
10
-81
20
-12.5
30
0
11
-84
21
-9.5
31
0
39
0
210
0
220
0
230
1
0
LINE
5
77
100
AcDbEntity
8
SK1
62
256
6
ByLayer
370
18
48
1
60
0
100
AcDbLine
10
-4.774132
20
-12.5
30
0
11
-4.774132
21
12.675
31
0
39
0
210
0
220
0
230
1
0
LINE
5
78
100
AcDbEntity
8
SK1
62
256
6
ByLayer
370
18
48
1
60
0
100
AcDbLine
10
-0.1
20
12.675
30
0
11
-0.1
21
-12.5
31
0
39
0
210
0
220
0
230
1
0
LINE
5
79
100
AcDbEntity
8
SK1
62
256
6
ByLayer
370
18
48
1
60
0
100
AcDbLine
10
-5.682242
20
12.675
30
0
11
-6.368945
21
12.675
31
0
39
0
210
0
220
0
230
1
0
LINE
5
7A
100
AcDbEntity
8
SK1
62
256
6
ByLayer
370
18
48
1
60
0
100
AcDbLine
10
-81
20
-12.5
30
0
11
-7.227723
21
-12.5
31
0
39
0
210
0
220
0
230
1
0
LINE
5
7B
100
AcDbEntity
8
SK1
62
256
6
ByLayer
370
18
48
1
60
0
100
AcDbLine
10
-84
20
9.425
30
0
11
-84
21
-9.5
31
0
39
0
210
0
220
0
230
1
0
LINE
5
7C
100
AcDbEntity
8
SK1
62
256
6
ByLayer
370
18
48
1
60
0
100
AcDbLine
10
-7.227723
20
-12.5
30
0
11
-5.682242
21
-12.5
31
0
39
0
210
0
220
0
230
1
0
LINE
5
7D
100
AcDbEntity
8
SK1
62
256
6
ByLayer
370
18
48
1
60
0
100
AcDbLine
10
-81
20
12.425
30
0
11
-84
21
9.425
31
0
39
0
210
0
220
0
230
1
0
LINE
5
7E
100
AcDbEntity
8
SK1
62
256
6
ByLayer
370
18
48
1
60
0
100
AcDbLine
10
-81
20
12.425
30
0
11
-7.227723
21
12.425
31
0
39
0
210
0
220
0
230
1
0
LINE
5
7F
100
AcDbEntity
8
SK1
62
256
6
ByLayer
370
13
48
1
60
0
100
AcDbLine
10
-7.227723
20
12.425
30
0
11
-7.227723
21
-12.5
31
0
39
0
210
0
220
0
230
1
0
LINE
5
80
100
AcDbEntity
8
SK1
62
256
6
ByLayer
370
18
48
1
60
0
100
AcDbLine
10
-0.1
20
12.675
30
0
11
-4.774132
21
12.675
31
0
39
0
210
0
220
0
230
1
0
LINE
5
81
100
AcDbEntity
8
SK1
62
256
6
ByLayer
370
18
48
1
60
0
100
AcDbLine
10
-4.774132
20
12.675
30
0
11
-5.682242
21
12.675
31
0
39
0
210
0
220
0
230
1
0
LINE
5
82
100
AcDbEntity
8
1
62
256
6
ByLayer
370
18
48
1
60
0
100
AcDbLine
10
-0.1
20
12.675
30
0
11
-0.1
21
-12.5
31
0
39
0
210
0
220
0
230
1
0
LINE
5
84
100
AcDbEntity
8
1
62
256
6
ByLayer
370
18
48
1
60
0
100
AcDbLine
10
34.327778
20
12.675
30
0
11
34.8895
21
10.824704
31
0
39
0
210
0
220
0
230
1
0
LINE
5
85
100
AcDbEntity
8
1
62
256
6
ByLayer
370
18
48
1
60
0
100
AcDbLine
10
0
20
-12.5
30
0
11
-0.1
21
-12.5
31
0
39
0
210
0
220
0
230
1
0
LINE
5
86
100
AcDbEntity
8
1
62
256
6
ByLayer
370
13
48
1
60
0
100
AcDbLine
10
0
20
5.725
30
0
11
11.202632
21
5.725
31
0
39
0
210
0
220
0
230
1
0
LINE
5
87
100
AcDbEntity
8
1
62
256
6
ByLayer
370
18
48
1
60
0
100
AcDbLine
10
34.327778
20
12.675
30
0
11
29.989175
21
12.675
31
0
39
0
210
0
220
0
230
1
0
LINE
5
88
100
AcDbEntity
8
1
62
256
6
ByLayer
370
18
48
1
60
0
100
AcDbLine
10
29.989175
20
7.325
30
0
11
24.989175
21
7.325
31
0
39
0
210
0
220
0
230
1
0
LINE
5
89
100
AcDbEntity
8
1
62
256
6
ByLayer
370
18
48
1
60
0
100
AcDbLine
10
24.989175
20
7.325
30
0
11
1.6
21
7.325
31
0
39
0
210
0
220
0
230
1
0
LINE
5
8A
100
AcDbEntity
8
1
62
256
6
ByLayer
370
18
48
1
60
0
100
AcDbLine
10
24.989175
20
12.675
30
0
11
-0.1
21
12.675
31
0
39
0
210
0
220
0
230
1
0
LINE
5
8B
100
AcDbEntity
8
1
62
256
6
ByLayer
370
13
48
1
60
0
100
AcDbLine
10
24.989175
20
12.675
30
0
11
24.989175
21
7.325
31
0
39
0
210
0
220
0
230
1
0
LINE
5
8C
100
AcDbEntity
8
1
62
256
6
ByLayer
370
18
48
1
60
0
100
AcDbLine
10
11.202632
20
-7.51805
30
0
11
1
21
-12.5
31
0
39
0
210
0
220
0
230
1
0
LINE
5
8D
100
AcDbEntity
8
1
62
256
6
ByLayer
370
18
48
1
60
0
100
AcDbLine
10
34.327778
20
7.325
30
0
11
29.989175
21
7.325
31
0
39
0
210
0
220
0
230
1
0
LINE
5
8E
100
AcDbEntity
8
1
62
256
6
ByLayer
370
18
48
1
60
0
100
AcDbLine
10
0
20
-12.5
30
0
11
0
21
5.725
31
0
39
0
210
0
220
0
230
1
0
LINE
5
8F
100
AcDbEntity
8
1
62
256
6
ByLayer
370
18
48
1
60
0
100
AcDbLine
10
34.8895
20
9.175296
30
0
11
34.327778
21
7.325
31
0
39
0
210
0
220
0
230
1
0
LINE
5
90
100
AcDbEntity
8
1
62
256
6
ByLayer
370
18
48
1
60
0
100
AcDbLine
10
11.202632
20
-7.51805
30
0
11
11.202632
21
5.725
31
0
39
0
210
0
220
0
230
1
0
LINE
5
91
100
AcDbEntity
8
1
62
256
6
ByLayer
370
13
48
1
60
0
100
AcDbLine
10
29.989175
20
7.325
30
0
11
29.989175
21
12.675
31
0
39
0
210
0
220
0
230
1
0
LINE
5
92
100
AcDbEntity
8
1
62
256
6
ByLayer
370
18
48
1
60
0
100
AcDbLine
10
29.989175
20
12.675
30
0
11
24.989175
21
12.675
31
0
39
0
210
0
220
0
230
1
0
LINE
5
93
100
AcDbEntity
8
1
62
256
6
ByLayer
370
18
48
1
60
0
100
AcDbLine
10
0
20
-12.5
30
0
11
1
21
-12.5
31
0
39
0
210
0
220
0
230
1
0
LINE
5
94
100
AcDbEntity
8
1
62
256
6
ByLayer
370
13
48
1
60
0
100
AcDbLine
10
29.989175
20
7.325
30
0
11
29.989175
21
12.675
31
0
39
0
210
0
220
0
230
1
0
LINE
5
95
100
AcDbEntity
8
1
62
256
6
ByLayer
370
13
48
1
60
0
100
AcDbLine
10
-7.227723
20
12.425
30
0
11
-7.227723
21
-12.5
31
0
39
0
210
0
220
0
230
1
0
LINE
5
96
100
AcDbEntity
8
1
62
256
6
ByLayer
370
13
48
1
60
0
100
AcDbLine
10
0
20
5.725
30
0
11
11.202632
21
5.725
31
0
39
0
210
0
220
0
230
1
0
LINE
5
97
100
AcDbEntity
8
1
62
256
6
ByLayer
370
13
48
1
60
0
100
AcDbLine
10
35.546601
20
7.3
30
0
11
35.546601
21
8.625278
31
0
39
0
210
0
220
0
230
1
0
LINE
5
98
100
AcDbEntity
8
1
62
256
6
ByLayer
370
13
48
1
60
0
100
AcDbLine
10
35.546601
20
11.374718
30
0
11
35.546601
21
12.7
31
0
39
0
210
0
220
0
230
1
0
LINE
5
99
100
AcDbEntity
8
1
62
256
6
ByLayer
370
13
48
1
60
0
100
AcDbLine
10
37.389628
20
12.233555
30
0
11
37.493329
21
12.013473
31
0
39
0
210
0
220
0
230
1
0
LINE
5
9A
100
AcDbEntity
8
1
62
256
6
ByLayer
370
13
48
1
60
0
100
AcDbLine
10
37.389628
20
7.766445
30
0
11
37.493329
21
7.986527
31
0
39
0
210
0
220
0
230
1
0
LINE
5
9B
100
AcDbEntity
8
1
62
256
6
ByLayer
370
13
48
1
60
0
100
AcDbLine
10
39.536428
20
12.269806
30
0
11
39.536428
21
12.899987
31
0
39
0
210
0
220
0
230
1
0
LINE
5
9C
100
AcDbEntity
8
1
62
256
6
ByLayer
370
13
48
1
60
0
100
AcDbLine
10
39.536428
20
7.730194
30
0
11
39.536428
21
7.100013
31
0
39
0
210
0
220
0
230
1
0
LINE
5
9D
100
AcDbEntity
8
1
62
256
6
ByLayer
370
13
48
1
60
0
100
AcDbLine
10
-5.682242
20
-12.5
30
0
11
-5.682242
21
12.675
31
0
39
0
210
0
220
0
230
1
0
LINE
5
9E
100
AcDbEntity
8
1
62
256
6
ByLayer
370
13
48
1
60
0
100
AcDbLine
10
35.546601
20
8.625278
30
0
11
35.542054
21
8.79906
31
0
39
0
210
0
220
0
230
1
0
LINE
5
9F
100
AcDbEntity
8
1
62
256
6
ByLayer
370
13
48
1
60
0
100
AcDbLine
10
36.141174
20
8.648198
30
0
11
36.131942
21
8.829893
31
0
39
0
210
0
220
0
230
1
0
LINE
5
A0
100
AcDbEntity
8
1
62
256
6
ByLayer
370
13
48
1
60
0
100
AcDbLine
10
35.542053
20
11.200936
30
0
11
35.546601
21
11.374718
31
0
39
0
210
0
220
0
230
1
0
LINE
5
A1
100
AcDbEntity
8
1
62
256
6
ByLayer
370
13
48
1
60
0
100
AcDbLine
10
36.131936
20
11.170101
30
0
11
36.141168
21
11.351796
31
0
39
0
210
0
220
0
230
1
0
LINE
5
A2
100
AcDbEntity
8
1
62
256
6
ByLayer
370
13
48
1
60
0
100
AcDbLine
10
34.637703
20
7.440846
30
0
11
34.637703
21
7.3
31
0
39
0
210
0
220
0
230
1
0
LINE
5
A3
100
AcDbEntity
8
1
62
256
6
ByLayer
370
13
48
1
60
0
100
AcDbLine
10
34.637703
20
12.7
30
0
11
34.637703
21
12.559154
31
0
39
0
210
0
220
0
230
1
0
LINE
5
A4
100
AcDbEntity
8
1
62
256
6
ByLayer
370
13
48
1
60
0
100
AcDbLine
10
37.389628
20
12.233555
30
0
11
37.559047
21
12.224915
31
0
39
0
210
0
220
0
230
1
0
LINE
5
A5
100
AcDbEntity
8
1
62
256
6
ByLayer
370
13
48
1
60
0
100
AcDbLine
10
37.389628
20
7.766445
30
0
11
37.559047
21
7.775085
31
0
39
0
210
0
220
0
230
1
0
LINE
5
A6
100
AcDbEntity
8
1
62
256
6
ByLayer
370
13
48
1
60
0
100
AcDbLine
10
35.478197
20
8.625278
30
0
11
35.478197
21
7.3
31
0
39
0
210
0
220
0
230
1
0
LINE
5
A7
100
AcDbEntity
8
1
62
256
6
ByLayer
370
13
48
1
60
0
100
AcDbLine
10
35.546601
20
8.625278
30
0
11
35.478197
21
8.625278
31
0
39
0
210
0
220
0
230
1
0
LINE
5
A8
100
AcDbEntity
8
1
62
256
6
ByLayer
370
13
48
1
60
0
100
AcDbLine
10
35.478197
20
11.374718
30
0
11
35.546601
21
11.374718
31
0
39
0
210
0
220
0
230
1
0
LINE
5
A9
100
AcDbEntity
8
1
62
256
6
ByLayer
370
13
48
1
60
0
100
AcDbLine
10
35.478197
20
12.7
30
0
11
35.478197
21
11.374718
31
0
39
0
210
0
220
0
230
1
0
LINE
5
AA
100
AcDbEntity
8
1
62
256
6
ByLayer
370
13
48
1
60
0
100
AcDbLine
10
35.326164
20
11.343611
30
0
11
34.75056
21
12.583917
31
0
39
0
210
0
220
0
230
1
0
LINE
5
AB
100
AcDbEntity
8
1
62
256
6
ByLayer
370
13
48
1
60
0
100
AcDbLine
10
34.75056
20
12.583917
30
0
11
34.75056
21
12.7
31
0
39
0
210
0
220
0
230
1
0
LINE
5
AC
100
AcDbEntity
8
1
62
256
6
ByLayer
370
13
48
1
60
0
100
AcDbLine
10
34.75056
20
7.3
30
0
11
34.75056
21
7.416083
31
0
39
0
210
0
220
0
230
1
0
LINE
5
AD
100
AcDbEntity
8
1
62
256
6
ByLayer
370
13
48
1
60
0
100
AcDbLine
10
34.75056
20
7.416083
30
0
11
35.326163
21
8.656387
31
0
39
0
210
0
220
0
230
1
0
LINE
5
AE
100
AcDbEntity
8
1
62
256
6
ByLayer
370
13
48
1
60
0
100
AcDbLine
10
34.636692
20
12.541995
30
0
11
35.223441
21
11.277673
31
0
39
0
210
0
220
0
230
1
0
LINE
5
AF
100
AcDbEntity
8
1
62
256
6
ByLayer
370
13
48
1
60
0
100
AcDbLine
10
35.22344
20
8.722325
30
0
11
34.636692
21
7.458005
31
0
39
0
210
0
220
0
230
1
0
LINE
5
B0
100
AcDbEntity
8
1
62
256
6
ByLayer
370
13
48
1
60
0
100
AcDbLine
10
30.161716
20
12.675
30
0
11
30.161716
21
12.7
31
0
39
0
210
0
220
0
230
1
0
LINE
5
B1
100
AcDbEntity
8
1
62
256
6
ByLayer
370
13
48
1
60
0
100
AcDbLine
10
30.161716
20
7.3
30
0
11
30.161716
21
7.325
31
0
39
0
210
0
220
0
230
1
0
LINE
5
B2
100
AcDbEntity
8
1
62
256
6
ByLayer
370
13
48
1
60
0
100
AcDbLine
10
34.999114
20
10.518048
30
0
11
35.223982
21
10.518048
31
0
39
0
210
0
220
0
230
1
0
LINE
5
B3
100
AcDbEntity
8
1
62
256
6
ByLayer
370
13
48
1
60
0
100
AcDbLine
10
34.999114
20
9.481952
30
0
11
35.223981
21
9.481952
31
0
39
0
210
0
220
0
230
1
0
LINE
5
B4
100
AcDbEntity
8
1
62
256
6
ByLayer
370
13
48
1
60
0
100
AcDbLine
10
40.520026
20
12.27366
30
0
11
40.520026
21
12.97651
31
0
39
0
210
0
220
0
230
1
0
LINE
5
B5
100
AcDbEntity
8
1
62
256
6
ByLayer
370
13
48
1
60
0
100
AcDbLine
10
40.520026
20
7.72634
30
0
11
40.520026
21
7.02349
31
0
39
0
210
0
220
0
230
1
0
LINE
5
B6
100
AcDbEntity
8
1
62
256
6
ByLayer
370
13
48
1
60
0
100
AcDbLine
10
40.401495
20
7.032088
30
0
11
40.401495
21
7.686876
31
0
39
0
210
0
220
0
230
1
0
LINE
5
B7
100
AcDbEntity
8
1
62
256
6
ByLayer
370
13
48
1
60
0
100
AcDbLine
10
39.736428
20
7.709014
30
0
11
39.736428
21
7.085981
31
0
39
0
210
0
220
0
230
1
0
LINE
5
B8
100
AcDbEntity
8
1
62
256
6
ByLayer
370
13
48
1
60
0
100
AcDbLine
10
40.401495
20
12.967912
30
0
11
40.401495
21
12.313124
31
0
39
0
210
0
220
0
230
1
0
LINE
5
B9
100
AcDbEntity
8
1
62
256
6
ByLayer
370
13
48
1
60
0
100
AcDbLine
10
39.736428
20
12.290986
30
0
11
39.736428
21
12.914019
31
0
39
0
210
0
220
0
230
1
0
LINE
5
BA
100
AcDbEntity
8
1
62
256
6
ByLayer
370
13
48
1
60
0
100
AcDbLine
10
37.823577
20
8.829575
30
0
11
37.823577
21
10
31
0
39
0
210
0
220
0
230
1
0
LINE
5
BB
100
AcDbEntity
8
1
62
256
6
ByLayer
370
13
48
1
60
0
100
AcDbLine
10
36.853025
20
9.03172
30
0
11
36.853025
21
9.332494
31
0
39
0
210
0
220
0
230
1
0
LINE
5
BC
100
AcDbEntity
8
1
62
256
6
ByLayer
370
13
48
1
60
0
100
AcDbLine
10
36.853025
20
10.96828
30
0
11
36.853025
21
10.667501
31
0
39
0
210
0
220
0
230
1
0
LINE
5
BD
100
AcDbEntity
8
1
62
256
6
ByLayer
370
13
48
1
60
0
100
AcDbLine
10
37.823577
20
11.170425
30
0
11
37.823577
21
10
31
0
39
0
210
0
220
0
230
1
0
LINE
5
BE
100
AcDbEntity
8
1
62
256
6
ByLayer
370
13
48
1
60
0
100
AcDbLine
10
41.542913
20
11.503126
30
0
11
41.542913
21
8.496874
31
0
39
0
210
0
220
0
230
1
0
LINE
5
BF
100
AcDbEntity
8
1
62
256
6
ByLayer
370
13
48
1
60
0
100
AcDbLine
10
40.735035
20
11.469281
30
0
11
40.735035
21
8.530719
31
0
39
0
210
0
220
0
230
1
0
LINE
5
C0
100
AcDbEntity
8
1
62
256
6
ByLayer
370
13
48
1
60
0
100
AcDbLine
10
41.597739
20
11.574987
30
0
11
41.572244
21
11.574987
31
0
39
0
210
0
220
0
230
1
0
LINE
5
C1
100
AcDbEntity
8
1
62
256
6
ByLayer
370
13
48
1
60
0
100
AcDbLine
10
41.597739
20
8.425013
30
0
11
41.597739
21
11.574987
31
0
39
0
210
0
220
0
230
1
0
LINE
5
C2
100
AcDbEntity
8
1
62
256
6
ByLayer
370
13
48
1
60
0
100
AcDbLine
10
41.597739
20
8.425013
30
0
11
41.572244
21
8.425013
31
0
39
0
210
0
220
0
230
1
0
LINE
5
C3
100
AcDbEntity
8
1
62
256
6
ByLayer
370
13
48
1
60
0
100
AcDbLine
10
41.598246
20
8.411265
30
0
11
41.600163
21
8.379406
31
0
39
0
210
0
220
0
230
1
0
LINE
5
C4
100
AcDbEntity
8
1
62
256
6
ByLayer
370
13
48
1
60
0
100
AcDbLine
10
41.598246
20
11.588735
30
0
11
41.600163
21
11.620594
31
0
39
0
210
0
220
0
230
1
0
LINE
5
C5
100
AcDbEntity
8
1
62
256
6
ByLayer
370
13
48
1
60
0
100
AcDbLine
10
41.600029
20
8.411265
30
0
11
41.598246
21
8.411265
31
0
39
0
210
0
220
0
230
1
0
LINE
5
C6
100
AcDbEntity
8
1
62
256
6
ByLayer
370
13
48
1
60
0
100
AcDbLine
10
41.600029
20
11.588735
30
0
11
41.598246
21
11.588735
31
0
39
0
210
0
220
0
230
1
0
LINE
5
C7
100
AcDbEntity
8
1
62
256
6
ByLayer
370
13
48
1
60
0
100
AcDbLine
10
41.597739
20
11.574987
30
0
11
41.6
21
11.574987
31
0
39
0
210
0
220
0
230
1
0
LINE
5
C8
100
AcDbEntity
8
1
62
256
6
ByLayer
370
13
48
1
60
0
100
AcDbLine
10
30.088698
20
7.325001
30
0
11
30.088698
21
7.3
31
0
39
0
210
0
220
0
230
1
0
LINE
5
C9
100
AcDbEntity
8
1
62
256
6
ByLayer
370
13
48
1
60
0
100
AcDbLine
10
41.597739
20
8.425013
30
0
11
41.6
21
8.425013
31
0
39
0
210
0
220
0
230
1
0
LINE
5
CA
100
AcDbEntity
8
1
62
256
6
ByLayer
370
13
48
1
60
0
100
AcDbLine
10
35.260795
20
9.670779
30
0
11
35.498381
21
9.670779
31
0
39
0
210
0
220
0
230
1
0
LINE
5
CB
100
AcDbEntity
8
1
62
256
6
ByLayer
370
13
48
1
60
0
100
AcDbLine
10
35.260795
20
10.329221
30
0
11
35.498381
21
10.329221
31
0
39
0
210
0
220
0
230
1
0
LINE
5
CC
100
AcDbEntity
8
1
62
256
6
ByLayer
370
13
48
1
60
0
100
AcDbLine
10
38.535756
20
11.507917
30
0
11
38.573754
21
11.278128
31
0
39
0
210
0
220
0
230
1
0
LINE
5
CD
100
AcDbEntity
8
1
62
256
6
ByLayer
370
13
48
1
60
0
100
AcDbLine
10
39.542862
20
11.648742
30
0
11
39.573754
21
11.419544
31
0
39
0
210
0
220
0
230
1
0
LINE
5
CE
100
AcDbEntity
8
1
62
256
6
ByLayer
370
13
48
1
60
0
100
AcDbLine
10
38.535756
20
8.492083
30
0
11
38.573754
21
8.721872
31
0
39
0
210
0
220
0
230
1
0
LINE
5
CF
100
AcDbEntity
8
1
62
256
6
ByLayer
370
13
48
1
60
0
100
AcDbLine
10
39.542862
20
8.351258
30
0
11
39.573754
21
8.580456
31
0
39
0
210
0
220
0
230
1
0
LINE
5
D0
100
AcDbEntity
8
1
62
256
6
ByLayer
370
13
48
1
60
0
100
AcDbLine
10
38.573754
20
11.278128
30
0
11
38.573754
21
8.721872
31
0
39
0
210
0
220
0
230
1
0
LINE
5
D1
100
AcDbEntity
8
1
62
256
6
ByLayer
370
13
48
1
60
0
100
AcDbLine
10
40.1195
20
11.477428
30
0
11
40.1195
21
10
31
0
39
0
210
0
220
0
230
1
0
LINE
5
D2
100
AcDbEntity
8
1
62
256
6
ByLayer
370
13
48
1
60
0
100
AcDbLine
10
39.573754
20
11.419544
30
0
11
39.573754
21
8.580456
31
0
39
0
210
0
220
0
230
1
0
LINE
5
D3
100
AcDbEntity
8
1
62
256
6
ByLayer
370
13
48
1
60
0
100
AcDbLine
10
40.1195
20
8.522572
30
0
11
40.1195
21
10
31
0
39
0
210
0
220
0
230
1
0
LINE
5
D4
100
AcDbEntity
8
1
62
256
6
ByLayer
370
13
48
1
60
0
100
AcDbLine
10
39.823577
20
11.453055
30
0
11
39.823577
21
10
31
0
39
0
210
0
220
0
230
1
0
LINE
5
D5
100
AcDbEntity
8
1
62
256
6
ByLayer
370
13
48
1
60
0
100
AcDbLine
10
39.823577
20
8.546945
30
0
11
39.823577
21
10
31
0
39
0
210
0
220
0
230
1
0
LINE
5
D6
100
AcDbEntity
8
1
62
256
6
ByLayer
370
13
48
1
60
0
100
AcDbLine
10
30.088698
20
12.7
30
0
11
30.088698
21
12.674999
31
0
39
0
210
0
220
0
230
1
0
LINE
5
D7
100
AcDbEntity
8
1
62
256
6
ByLayer
370
13
48
1
60
0
100
AcDbLine
10
24.989175
20
12.675
30
0
11
24.989175
21
7.325
31
0
39
0
210
0
220
0
230
1
0
LINE
5
D8
100
AcDbEntity
8
1
62
256
6
ByLayer
370
18
48
1
60
0
100
AcDbLine
10
24.989175
20
7.325
30
0
11
1.6
21
7.325
31
0
39
0
210
0
220
0
230
1
0
LINE
5
D9
100
AcDbEntity
8
1
62
256
6
ByLayer
370
18
48
1
60
0
100
AcDbLine
10
24.989175
20
12.675
30
0
11
-4.774132
21
12.675
31
0
39
0
210
0
220
0
230
1
0
LINE
5
DA
100
AcDbEntity
8
1
62
256
6
ByLayer
370
18
48
1
60
0
100
AcDbLine
10
34.327778
20
7.325
30
0
11
29.989175
21
7.325
31
0
39
0
210
0
220
0
230
1
0
LINE
5
DB
100
AcDbEntity
8
1
62
256
6
ByLayer
370
18
48
1
60
0
100
AcDbLine
10
34.327778
20
12.675
30
0
11
29.989175
21
12.675
31
0
39
0
210
0
220
0
230
1
0
LINE
5
DC
100
AcDbEntity
8
1
62
256
6
ByLayer
370
18
48
1
60
0
100
AcDbLine
10
29.989175
20
7.325
30
0
11
24.989175
21
7.325
31
0
39
0
210
0
220
0
230
1
0
LINE
5
DD
100
AcDbEntity
8
1
62
256
6
ByLayer
370
18
48
1
60
0
100
AcDbLine
10
29.989175
20
12.675
30
0
11
24.989175
21
12.675
31
0
39
0
210
0
220
0
230
1
0
LINE
5
DE
100
AcDbEntity
8
1
62
256
6
ByLayer
370
18
48
1
60
0
100
AcDbLine
10
0
20
-12.5
30
0
11
0
21
5.725
31
0
39
0
210
0
220
0
230
1
0
LINE
5
DF
100
AcDbEntity
8
1
62
256
6
ByLayer
370
18
48
1
60
0
100
AcDbLine
10
34.8895
20
9.175296
30
0
11
34.327778
21
7.325
31
0
39
0
210
0
220
0
230
1
0
LINE
5
E0
100
AcDbEntity
8
1
62
256
6
ByLayer
370
18
48
1
60
0
100
AcDbLine
10
34.327778
20
12.675
30
0
11
34.8895
21
10.824704
31
0
39
0
210
0
220
0
230
1
0
LINE
5
E1
100
AcDbEntity
8
1
62
256
6
ByLayer
370
18
48
1
60
0
100
AcDbLine
10
-5.682242
20
12.675
30
0
11
-6.368945
21
12.675
31
0
39
0
210
0
220
0
230
1
0
LINE
5
E2
100
AcDbEntity
8
1
62
256
6
ByLayer
370
18
48
1
60
0
100
AcDbLine
10
-4.774132
20
-12.5
30
0
11
-4.774132
21
12.675
31
0
39
0
210
0
220
0
230
1
0
LINE
5
E3
100
AcDbEntity
8
1
62
256
6
ByLayer
370
18
48
1
60
0
100
AcDbLine
10
-84
20
9.425
30
0
11
-84
21
-9.5
31
0
39
0
210
0
220
0
230
1
0
LINE
5
E4
100
AcDbEntity
8
1
62
256
6
ByLayer
370
18
48
1
60
0
100
AcDbLine
10
-4.774132
20
12.675
30
0
11
-5.682242
21
12.675
31
0
39
0
210
0
220
0
230
1
0
LINE
5
E5
100
AcDbEntity
8
1
62
256
6
ByLayer
370
18
48
1
60
0
100
AcDbLine
10
-81
20
12.425
30
0
11
-7.227723
21
12.425
31
0
39
0
210
0
220
0
230
1
0
LINE
5
E6
100
AcDbEntity
8
1
62
256
6
ByLayer
370
18
48
1
60
0
100
AcDbLine
10
0
20
-12.5
30
0
11
-4.774132
21
-12.5
31
0
39
0
210
0
220
0
230
1
0
LINE
5
E7
100
AcDbEntity
8
1
62
256
6
ByLayer
370
18
48
1
60
0
100
AcDbLine
10
-81
20
-12.5
30
0
11
-7.227723
21
-12.5
31
0
39
0
210
0
220
0
230
1
0
LINE
5
E8
100
AcDbEntity
8
1
62
256
6
ByLayer
370
18
48
1
60
0
100
AcDbLine
10
-5.682242
20
-12.5
30
0
11
-4.774132
21
-12.5
31
0
39
0
210
0
220
0
230
1
0
LINE
5
E9
100
AcDbEntity
8
1
62
256
6
ByLayer
370
18
48
1
60
0
100
AcDbLine
10
-7.227723
20
-12.5
30
0
11
-5.682242
21
-12.5
31
0
39
0
210
0
220
0
230
1
0
LINE
5
EA
100
AcDbEntity
8
1
62
256
6
ByLayer
370
18
48
1
60
0
100
AcDbLine
10
0
20
-12.5
30
0
11
1
21
-12.5
31
0
39
0
210
0
220
0
230
1
0
LINE
5
EB
100
AcDbEntity
8
1
62
256
6
ByLayer
370
18
48
1
60
0
100
AcDbLine
10
11.202632
20
-7.51805
30
0
11
11.202632
21
5.725
31
0
39
0
210
0
220
0
230
1
0
LINE
5
EC
100
AcDbEntity
8
1
62
256
6
ByLayer
370
18
48
1
60
0
100
AcDbLine
10
-81
20
-12.5
30
0
11
-84
21
-9.5
31
0
39
0
210
0
220
0
230
1
0
LINE
5
ED
100
AcDbEntity
8
1
62
256
6
ByLayer
370
18
48
1
60
0
100
AcDbLine
10
-81
20
12.425
30
0
11
-84
21
9.425
31
0
39
0
210
0
220
0
230
1
0
LINE
5
EE
100
AcDbEntity
8
1
62
256
6
ByLayer
370
18
48
1
60
0
100
AcDbLine
10
11.202632
20
-7.51805
30
0
11
1
21
-12.5
31
0
39
0
210
0
220
0
230
1
0
LINE
5
EF
100
AcDbEntity
8
1
62
256
6
ByLayer
370
18
48
1
60
0
100
AcDbLine
10
41.6
20
8.425013
30
0
11
41.6
21
11.574987
31
0
39
0
210
0
220
0
230
1
0
LINE
5
F0
100
AcDbEntity
8
1
62
256
6
ByLayer
370
18
48
1
60
0
100
AcDbLine
10
32.901097
20
7.3
30
0
11
30.161716
21
7.3
31
0
39
0
210
0
220
0
230
1
0
LINE
5
F1
100
AcDbEntity
8
1
62
256
6
ByLayer
370
18
48
1
60
0
100
AcDbLine
10
37.415248
20
7.268478
30
0
11
37.408442
21
7.272408
31
0
39
0
210
0
220
0
230
1
0
LINE
5
F2
100
AcDbEntity
8
1
62
256
6
ByLayer
370
18
48
1
60
0
100
AcDbLine
10
35.478197
20
7.3
30
0
11
34.75056
21
7.3
31
0
39
0
210
0
220
0
230
1
0
LINE
5
F3
100
AcDbEntity
8
1
62
256
6
ByLayer
370
18
48
1
60
0
100
AcDbLine
10
40.520026
20
7.02349
30
0
11
41.187167
21
6.988074
31
0
39
0
210
0
220
0
230
1
0
LINE
5
F4
100
AcDbEntity
8
1
62
256
6
ByLayer
370
18
48
1
60
0
100
AcDbLine
10
41.187167
20
13.011926
30
0
11
40.520026
21
12.97651
31
0
39
0
210
0
220
0
230
1
0
LINE
5
F5
100
AcDbEntity
8
1
62
256
6
ByLayer
370
18
48
1
60
0
100
AcDbLine
10
41.600029
20
11.588735
30
0
11
41.600163
21
11.620594
31
0
39
0
210
0
220
0
230
1
0
LINE
5
F6
100
AcDbEntity
8
1
62
256
6
ByLayer
370
18
48
1
60
0
100
AcDbLine
10
34.750184
20
12.7
30
0
11
35.478197
21
12.7
31
0
39
0
210
0
220
0
230
1
0
LINE
5
F7
100
AcDbEntity
8
1
62
256
6
ByLayer
370
18
48
1
60
0
100
AcDbLine
10
41.600163
20
8.379406
30
0
11
41.600029
21
8.411265
31
0
39
0
210
0
220
0
230
1
0
LINE
5
F8
100
AcDbEntity
8
1
62
256
6
ByLayer
370
18
48
1
60
0
100
AcDbLine
10
35.546601
20
7.3
30
0
11
37.305211
21
7.3
31
0
39
0
210
0
220
0
230
1
0
LINE
5
F9
100
AcDbEntity
8
1
62
256
6
ByLayer
370
18
48
1
60
0
100
AcDbLine
10
39.736428
20
12.914019
30
0
11
39.536428
21
12.899987
31
0
39
0
210
0
220
0
230
1
0
LINE
5
FA
100
AcDbEntity
8
1
62
256
6
ByLayer
370
18
48
1
60
0
100
AcDbLine
10
39.536428
20
7.100013
30
0
11
39.736428
21
7.085981
31
0
39
0
210
0
220
0
230
1
0
LINE
5
FB
100
AcDbEntity
8
1
62
256
6
ByLayer
370
18
48
1
60
0
100
AcDbLine
10
30.161716
20
12.7
30
0
11
30.088698
21
12.7
31
0
39
0
210
0
220
0
230
1
0
LINE
5
FC
100
AcDbEntity
8
1
62
256
6
ByLayer
370
18
48
1
60
0
100
AcDbLine
10
35.546601
20
12.7
30
0
11
35.478197
21
12.7
31
0
39
0
210
0
220
0
230
1
0
LINE
5
FD
100
AcDbEntity
8
1
62
256
6
ByLayer
370
18
48
1
60
0
100
AcDbLine
10
41.6003
20
11.653454
30
0
11
41.604288
21
12.603671
31
0
39
0
210
0
220
0
230
1
0
LINE
5
FE
100
AcDbEntity
8
1
62
256
6
ByLayer
370
18
48
1
60
0
100
AcDbLine
10
30.161716
20
12.7
30
0
11
32.901097
21
12.7
31
0
39
0
210
0
220
0
230
1
0
LINE
5
FF
100
AcDbEntity
8
1
62
256
6
ByLayer
370
18
48
1
60
0
100
AcDbLine
10
37.305211
20
12.7
30
0
11
35.546601
21
12.7
31
0
39
0
210
0
220
0
230
1
0
LINE
5
100
100
AcDbEntity
8
1
62
256
6
ByLayer
370
18
48
1
60
0
100
AcDbLine
10
35.478197
20
7.3
30
0
11
35.546601
21
7.3
31
0
39
0
210
0
220
0
230
1
0
LINE
5
101
100
AcDbEntity
8
1
62
256
6
ByLayer
370
18
48
1
60
0
100
AcDbLine
10
30.088698
20
7.3
30
0
11
30.161716
21
7.3
31
0
39
0
210
0
220
0
230
1
0
LINE
5
102
100
AcDbEntity
8
1
62
256
6
ByLayer
370
18
48
1
60
0
100
AcDbLine
10
37.408442
20
12.727592
30
0
11
37.415248
21
12.731522
31
0
39
0
210
0
220
0
230
1
0
LINE
5
103
100
AcDbEntity
8
1
62
256
6
ByLayer
370
18
48
1
60
0
100
AcDbLine
10
41.604288
20
7.396329
30
0
11
41.6003
21
8.346546
31
0
39
0
210
0
220
0
230
1
0
LINE
5
104
100
AcDbEntity
8
SK2
62
256
6
ByLayer
370
13
48
1
60
0
100
AcDbLine
10
-93.60005
20
12.5
30
0
11
-93.60005
21
-12.5
31
0
39
0
210
0
220
0
230
1
0
LINE
5
106
100
AcDbEntity
8
SK2
62
256
6
ByLayer
370
13
48
1
60
0
100
AcDbLine
10
-2
20
-12.5
30
0
11
-95.60005
21
-12.5
31
0
39
0
210
0
220
0
230
1
0
LINE
5
107
100
AcDbEntity
8
SK2
62
256
6
ByLayer
370
13
48
1
60
0
100
AcDbLine
10
-2
20
12.5
30
0
11
-95.60005
21
12.5
31
0
39
0
210
0
220
0
230
1
0
LINE
5
108
100
AcDbEntity
8
SK2
62
256
6
ByLayer
370
18
48
1
60
0
100
AcDbLine
10
-93.60005
20
-12.5
30
0
11
-94.018047
21
-9.325002
31
0
39
0
210
0
220
0
230
1
0
LINE
5
109
100
AcDbEntity
8
SK2
62
256
6
ByLayer
370
18
48
1
60
0
100
AcDbLine
10
-93.60005
20
-12.5
30
0
11
-93.182053
21
-9.324998
31
0
39
0
210
0
220
0
230
1
0
LINE
5
10A
100
AcDbEntity
8
SK2
62
256
6
ByLayer
370
18
48
1
60
0
100
AcDbLine
10
-94.018047
20
-9.325002
30
0
11
-93.182053
21
-9.324998
31
0
39
0
210
0
220
0
230
1
0
LINE
5
10B
100
AcDbEntity
8
SK2
62
256
6
ByLayer
370
18
48
1
60
0
100
AcDbLine
10
-93.60005
20
12.5
30
0
11
-93.182053
21
9.325002
31
0
39
0
210
0
220
0
230
1
0
LINE
5
10C
100
AcDbEntity
8
SK2
62
256
6
ByLayer
370
18
48
1
60
0
100
AcDbLine
10
-93.60005
20
12.5
30
0
11
-94.018047
21
9.324998
31
0
39
0
210
0
220
0
230
1
0
LINE
5
10D
100
AcDbEntity
8
SK2
62
256
6
ByLayer
370
18
48
1
60
0
100
AcDbLine
10
-93.182053
20
9.325002
30
0
11
-94.018047
21
9.324998
31
0
39
0
210
0
220
0
230
1
0
MTEXT
5
23A
100
AcDbEntity
8
SK6
62
256
6
ByLayer
370
18
48
1
60
0
100
AcDbMText
10
-52.825025
20
-50.618794
30
0
210
0
220
0
230
1
1
\W0.7936;QS-QD-RFK40C2525D
40
3.5
41
0
44
1.084337
50
0
71
7
72
5
7
iso_b_vert
0
MTEXT
5
23E
100
AcDbEntity
8
SK2
62
256
6
ByLayer
370
18
48
1
60
0
100
AcDbMText
10
-94.47505
20
-1.169737
30
0
210
0
220
0
230
1
1
\W0.6740;25
40
3.5
41
0
44
1.084337
50
89.9999999999999
71
7
72
5
7
iso_b_vert
0
DIMENSION
5
24D
100
AcDbEntity
8
2
62
256
6
ByLayer
370
13
48
1
60
0
100
AcDbDimension
2
DimnDraft3D1
10
66.7
20
13
30
0
11
66.7
21
-3.857895
31
0
70
32
71
5
72
1
41
1
210
0
220
0
230
1
3
Standard
100
AcDbAlignedDimension
13
3.6
23
-12.5
33
0
14
43.6
24
13
34
0
50
90
100
AcDbRotatedDimension
1001
ACAD
1000
DSTYLE
1002
{
1070
    74
1070
     0
1070
   279
1070
     0
1070
   172
1070
     1
1070
   173
1070
     1
1070
   340
1005
23B
1070
   271
1070
     1
1070
    77
1070
     1
1070
    73
1070
     0
1070
   171
1070
     3
1070
   274
1070
     4
1070
   177
1070
     2
1070
   176
1070
     2
1070
   178
1070
     7
1070
    78
1070
     8
1070
    41
1041
3.175
1070
   147
1041
1.75
1070
    42
1041
2.0
1070
    44
1041
2.0
1070
   140
1041
3.5
1070
   343
1005
24E
1070
   344
1005
24E
1002
}
0
DIMENSION
5
262
100
AcDbEntity
8
SK2
62
256
6
ByLayer
370
13
48
1
60
0
100
AcDbDimension
2
DimnDraft3D2
10
-81
20
-25.60005
30
0
11
-83.259868
21
-25.60005
31
0
70
32
71
5
72
1
41
1
210
0
220
0
230
1
3
Standard
100
AcDbAlignedDimension
13
-84
23
-14.5
33
0
14
-81
24
-14.5
34
0
50
0
100
AcDbRotatedDimension
1001
ACAD
1000
DSTYLE
1002
{
1070
   279
1070
     0
1070
   172
1070
     1
1070
   173
1070
     1
1070
   340
1005
23B
1070
    77
1070
     1
1070
    73
1070
     0
1070
   171
1070
     3
1070
   274
1070
     4
1070
   177
1070
     2
1070
   176
1070
     2
1070
   178
1070
     7
1070
    78
1070
     8
1070
    41
1041
3.175
1070
   147
1041
1.75
1070
    42
1041
2.0
1070
    44
1041
2.0
1070
   140
1041
3.5
1070
   343
1005
24E
1070
   344
1005
24E
1002
}
0
DIMENSION
5
270
100
AcDbEntity
8
SK2
62
256
6
ByLayer
370
13
48
1
60
0
100
AcDbDimension
2
DimnDraft3D3
10
41.6
20
35.612462
30
0
11
-26.178289
21
35.612462
31
0
70
32
71
5
72
1
41
1
210
0
220
0
230
1
3
Standard
100
AcDbAlignedDimension
13
-84
23
-10.5
33
0
14
41.6
24
15
34
0
50
0
100
AcDbRotatedDimension
1001
ACAD
1000
DSTYLE
1002
{
1070
   279
1070
     0
1070
   172
1070
     1
1070
   173
1070
     1
1070
   340
1005
23B
1070
   271
1070
     1
1070
    77
1070
     1
1070
    73
1070
     0
1070
   171
1070
     3
1070
   274
1070
     4
1070
   177
1070
     2
1070
   176
1070
     2
1070
   178
1070
     7
1070
    78
1070
     8
1070
    41
1041
3.175
1070
   147
1041
1.75
1070
    42
1041
2.0
1070
    44
1041
2.0
1070
   140
1041
3.5
1070
   343
1005
24E
1070
   344
1005
24E
1002
}
0
DIMENSION
5
27E
100
AcDbEntity
8
2
62
256
6
ByLayer
370
13
48
1
60
0
100
AcDbDimension
2
DimnDraft3D4
10
41.6
20
29.612462
30
0
11
13.507895
21
29.612462
31
0
70
32
71
5
72
1
41
1
210
0
220
0
230
1
3
Standard
100
AcDbAlignedDimension
13
-6
23
14.5
33
0
14
41.6
24
15
34
0
50
0
100
AcDbRotatedDimension
1001
ACAD
1000
DSTYLE
1002
{
1070
   279
1070
     0
1070
   172
1070
     1
1070
   173
1070
     1
1070
   340
1005
23B
1070
   271
1070
     1
1070
    77
1070
     1
1070
    73
1070
     0
1070
   171
1070
     3
1070
   274
1070
     4
1070
   177
1070
     2
1070
   176
1070
     2
1070
   178
1070
     7
1070
    78
1070
     8
1070
    41
1041
3.175
1070
   147
1041
1.75
1070
    42
1041
2.0
1070
    44
1041
2.0
1070
   140
1041
3.5
1070
   343
1005
24E
1070
   344
1005
24E
1002
}
0
DIMENSION
5
28C
100
AcDbEntity
8
2
62
256
6
ByLayer
370
13
48
1
60
0
100
AcDbDimension
2
DimnDraft3D5
10
1.6
20
-25.60005
30
0
11
19.325
21
-25.60005
31
0
70
32
71
5
72
1
41
1
210
0
220
0
230
1
3
Standard
100
AcDbAlignedDimension
13
41.6
23
11
33
0
14
1.6
24
-14.5
34
0
50
0
100
AcDbRotatedDimension
1001
ACAD
1000
DSTYLE
1002
{
1070
   279
1070
     0
1070
   172
1070
     1
1070
   173
1070
     1
1070
   340
1005
23B
1070
   271
1070
     1
1070
    77
1070
     1
1070
    73
1070
     0
1070
   171
1070
     3
1070
   274
1070
     4
1070
   177
1070
     2
1070
   176
1070
     2
1070
   178
1070
     7
1070
    78
1070
     8
1070
    41
1041
3.175
1070
   147
1041
1.75
1070
    42
1041
2.0
1070
    44
1041
2.0
1070
   140
1041
3.5
1070
   343
1005
24E
1070
   344
1005
24E
1002
}
0
DIMENSION
5
29A
100
AcDbEntity
8
2
62
256
6
ByLayer
370
13
48
1
60
0
100
AcDbDimension
2
DimnDraft3D6
10
59.7
20
7
30
0
11
59.7
21
9.217105
31
0
70
32
71
5
72
1
41
1
210
0
220
0
230
1
3
Standard
100
AcDbAlignedDimension
13
43.6
23
13
33
0
14
43.6
24
7
34
0
50
90
100
AcDbRotatedDimension
1001
ACAD
1000
DSTYLE
1002
{
1070
    74
1070
     0
1070
   279
1070
     0
1070
   172
1070
     1
1070
   173
1070
     1
1070
   340
1005
23B
1070
   271
1070
     1
1070
    77
1070
     1
1070
    73
1070
     0
1070
   171
1070
     3
1070
   274
1070
     4
1070
   177
1070
     2
1070
   176
1070
     2
1070
   178
1070
     7
1070
    78
1070
     8
1070
    41
1041
3.175
1070
   147
1041
1.75
1070
    42
1041
2.0
1070
    44
1041
2.0
1070
   140
1041
3.5
1070
   343
1005
24E
1070
   344
1005
24E
1002
}
0
ENDSEC
0
SECTION
2
OBJECTS
0
DICTIONARY
5
304
330
0
100
AcDbDictionary
280
0
281
1
3
ACAD_GROUP
350
305
3
ACAD_MLINESTYLE
350
306
0
DICTIONARY
5
305
330
0
100
AcDbDictionary
280
0
281
1
0
DICTIONARY
5
306
330
0
100
AcDbDictionary
280
0
281
1
3
Standard
350
18
0
MLINESTYLE
5
18
330
306
100
AcDbMlineStyle
2
Standard
70
0
3

62
256
51
90
52
90
71
2
49
-0.5
62
256
6
ByLayer
49
0.5
62
256
6
ByLayer
0
RASTERVARIABLES
5
2f3
330

100
AcDbRasterVariables
90
0
70
1
71
1
72
1
0
ENDSEC
0
EOF
