0
SECTION
2
HEADER
9
$ACADVER
1
AC1015
9
$DWGCODEPAGE
3
ANSI_1252
9
$HANDSEED
5
30e
9
$ANGBASE
50
0
9
$ANGDIR
70
0
9
$ATTMODE
70
1
9
$AUNITS
70
0
9
$AUPREC
70
0
9
$CECOLOR
62
256
9
$CELTSCALE
40
1
9
$CELTYPE
6
ByLayer
9
$CELWEIGHT
370
18
9
$CLAYER
8
0
9
$CMLJUST
70
0
9
$CMLSCALE
40
1
9
$CMLSTYLE
2
Standard
9
$DIMSTYLE
2
Standard
9
$TEXTSIZE
40
0.2
9
$TEXTSTYLE
7
Standard
9
$LUNITS
70
2
9
$LUPREC
70
4
9
$EXTNAMES
290
1
9
$INSUNITS
70
4
9
$LTSCALE
40
1
9
$LWDISPLAY
290
1
9
$PDMODE
70
0
9
$PDSIZE
40
0
9
$PLINEGEN
70
0
0
ENDSEC
0
SECTION
2
CLASSES
0
CLASS
1
RASTERVARIABLES
2
AcDbRasterVariables
3
ISM
90
0
280
0
281
0
0
ENDSEC
0
SECTION
2
TABLES
0
TABLE
2
VPORT
5
304
100
AcDbSymbolTable
0
VPORT
5
1
100
AcDbSymbolTableRecord
100
AcDbViewportTableRecord
2
*Active
70
0
10
0
20
0
11
1
21
1
12
-1
22
1
13
0
23
0
14
0.5
24
0.5
15
10
25
10
16
0
26
0
36
1
17
0
27
0
37
0
0
ENDTAB
0
TABLE
2
LTYPE
5
305
100
AcDbSymbolTable
0
LTYPE
5
14
100
AcDbSymbolTableRecord
100
AcDbLinetypeTableRecord
70
0
2
ByBlock
3

72
65
73
0
40
0
0
LTYPE
5
15
100
AcDbSymbolTableRecord
100
AcDbLinetypeTableRecord
70
0
2
ByLayer
3

72
65
73
0
40
0
0
LTYPE
5
16
100
AcDbSymbolTableRecord
100
AcDbLinetypeTableRecord
70
0
2
CONTINUOUS
3
Solid line
72
65
73
0
40
0
0
LTYPE
5
6A
100
AcDbSymbolTableRecord
100
AcDbLinetypeTableRecord
70
0
2
CENTER
3
____ _ ____ _ ____ _ ____
72
65
73
4
40
47.5
49
22
74
0
49
-8.5
74
0
49
8.5
74
0
49
-8.5
74
0
0
LTYPE
5
6B
100
AcDbSymbolTableRecord
100
AcDbLinetypeTableRecord
70
0
2
DASHED
3
__ __ __ __ __ __ __ __ __
72
65
73
2
40
25.72
49
12.86
74
0
49
-12.86
74
0
0
ENDTAB
0
TABLE
2
LAYER
5
306
100
AcDbSymbolTable
0
LAYER
5
10
100
AcDbSymbolTableRecord
100
AcDbLayerTableRecord
2
0
70
0
62
7
6
CONTINUOUS
290
1
370
-3
390
0
0
LAYER
5
6D
100
AcDbSymbolTableRecord
100
AcDbLayerTableRecord
2
81
70
0
62
-3
6
CONTINUOUS
290
1
370
-3
390
0
0
LAYER
5
6F
100
AcDbSymbolTableRecord
100
AcDbLayerTableRecord
2
80
70
0
62
-6
6
CONTINUOUS
290
1
370
-3
390
0
0
LAYER
5
73
100
AcDbSymbolTableRecord
100
AcDbLayerTableRecord
2
1
70
0
62
4
6
CONTINUOUS
290
1
370
-3
390
0
0
LAYER
5
23E
100
AcDbSymbolTableRecord
100
AcDbLayerTableRecord
2
2
70
0
62
7
6
CONTINUOUS
290
1
370
-3
390
0
0
LAYER
5
2f1
100
AcDbSymbolTableRecord
100
AcDbLayerTableRecord
2
SK1
70
0
62
4
6
CONTINUOUS
290
1
370
-3
390
0
0
LAYER
5
2f2
100
AcDbSymbolTableRecord
100
AcDbLayerTableRecord
2
SK2
70
0
62
7
6
CONTINUOUS
290
1
370
-3
390
0
0
LAYER
5
2f3
100
AcDbSymbolTableRecord
100
AcDbLayerTableRecord
2
SK6
70
0
62
5
6
CONTINUOUS
290
1
370
-3
390
0
0
ENDTAB
0
TABLE
2
STYLE
5
307
100
AcDbSymbolTable
0
STYLE
5
11
100
AcDbSymbolTableRecord
100
AcDbTextStyleTableRecord
2
Standard
3
txt
70
0
71
0
40
0
41
1
42
0
50
0
0
STYLE
5
238
100
AcDbSymbolTableRecord
100
AcDbTextStyleTableRecord
2
iso_b_vert
3
simplex.shx
70
0
71
0
40
0
41
1
42
0
50
0
0
STYLE
5
239
100
AcDbSymbolTableRecord
100
AcDbTextStyleTableRecord
2
DWGDirectTextStyle
3
simplex
70
0
71
0
40
0
41
1
42
0
50
0
0
ENDTAB
0
TABLE
2
DIMSTYLE
5
308
100
AcDbSymbolTable
100
AcDbDimStyleTable
0
DIMSTYLE
105
27
100
AcDbSymbolTableRecord
100
AcDbDimStyleTableRecord
2
Standard
70
0
3
<>
41
0.18
42
0.0625
44
0.18
140
0.18
147
0.09
73
0
74
0
77
1
271
2
275
0
278
52
280
0
340
11
0
ENDTAB
0
TABLE
2
VIEW
5
309
100
AcDbSymbolTable
0
ENDTAB
0
TABLE
2
UCS
5
30a
100
AcDbSymbolTable
0
ENDTAB
0
TABLE
2
APPID
5
30b
100
AcDbSymbolTable
0
APPID
5
12
100
AcDbSymbolTableRecord
100
AcDbRegAppTableRecord
2
ACAD
70
0
0
ENDTAB
0
TABLE
2
BLOCK_RECORD
5
30c
100
AcDbSymbolTable
0
BLOCK_RECORD
5
1F
100
AcDbSymbolTableRecord
100
AcDbBlockTableRecord
2
*Model_Space
340
0
70
0
0
BLOCK_RECORD
5
1B
100
AcDbSymbolTableRecord
100
AcDbBlockTableRecord
2
*Paper_Space
340
0
70
0
0
BLOCK_RECORD
5
23
100
AcDbSymbolTableRecord
100
AcDbBlockTableRecord
2
*Paper_Space0
340
0
70
0
0
BLOCK_RECORD
5
23C
100
AcDbSymbolTableRecord
100
AcDbBlockTableRecord
2
DimnDraft3D1
340
0
70
0
0
BLOCK_RECORD
5
24B
100
AcDbSymbolTableRecord
100
AcDbBlockTableRecord
2
_CLOSED
340
0
70
0
0
BLOCK_RECORD
5
252
100
AcDbSymbolTableRecord
100
AcDbBlockTableRecord
2
DimnDraft3D2
340
0
70
0
0
BLOCK_RECORD
5
260
100
AcDbSymbolTableRecord
100
AcDbBlockTableRecord
2
DimnDraft3D3
340
0
70
0
0
BLOCK_RECORD
5
26E
100
AcDbSymbolTableRecord
100
AcDbBlockTableRecord
2
DimnDraft3D4
340
0
70
0
0
BLOCK_RECORD
5
27C
100
AcDbSymbolTableRecord
100
AcDbBlockTableRecord
2
DimnDraft3D5
340
0
70
0
0
BLOCK_RECORD
5
28A
100
AcDbSymbolTableRecord
100
AcDbBlockTableRecord
2
DimnDraft3D6
340
0
70
0
0
ENDTAB
0
ENDSEC
0
SECTION
2
BLOCKS
0
BLOCK
5
20
100
AcDbEntity
8
0
100
AcDbBlockBegin
2
*Model_Space
70
0
10
0
20
0
30
0
3
*Model_Space
0
ENDBLK
5
21
100
AcDbEntity
8
0
100
AcDbBlockEnd
0
BLOCK
5
1C
100
AcDbEntity
8
0
100
AcDbBlockBegin
2
*Paper_Space
70
0
10
0
20
0
30
0
3
*Paper_Space
0
ENDBLK
5
1D
100
AcDbEntity
8
0
100
AcDbBlockEnd
0
BLOCK
5
24
100
AcDbEntity
8
0
100
AcDbBlockBegin
2
*Paper_Space0
70
0
10
0
20
0
30
0
3
*Paper_Space0
0
ENDBLK
5
25
100
AcDbEntity
8
0
100
AcDbBlockEnd
0
BLOCK
5
248
100
AcDbEntity
8
0
100
AcDbBlockBegin
2
DimnDraft3D1
70
0
10
0
20
0
30
0
3
DimnDraft3D1
0
MTEXT
5
23D
100
AcDbEntity
8
2
62
256
6
ByLayer
370
18
48
1
60
0
100
AcDbMText
10
49.225
20
-0.778289
30
0
210
0
220
0
230
1
1
\W0.5321;12
40
3.5
41
0
44
1.084337
50
90
71
7
72
5
7
iso_b_vert
0
LINE
5
23F
100
AcDbEntity
8
2
62
256
6
ByLayer
370
13
48
1
60
0
100
AcDbLine
10
14
20
-6
30
0
11
52.1
21
-6
31
0
39
0
210
0
220
0
230
1
0
LINE
5
240
100
AcDbEntity
8
2
62
256
6
ByLayer
370
13
48
1
60
0
100
AcDbLine
10
27
20
6
30
0
11
52.1
21
6
31
0
39
0
210
0
220
0
230
1
0
LINE
5
241
100
AcDbEntity
8
2
62
256
6
ByLayer
370
13
48
1
60
0
100
AcDbLine
10
50.1
20
-14.75
30
0
11
50.1
21
14.75
31
0
39
0
210
0
220
0
230
1
0
LINE
5
242
100
AcDbEntity
8
2
62
256
6
ByLayer
370
13
48
1
60
0
100
AcDbLine
10
50.1
20
-6
30
0
11
50.517997
21
-9.174998
31
0
39
0
210
0
220
0
230
1
0
LINE
5
243
100
AcDbEntity
8
2
62
256
6
ByLayer
370
13
48
1
60
0
100
AcDbLine
10
50.1
20
-6
30
0
11
49.682003
21
-9.175002
31
0
39
0
210
0
220
0
230
1
0
LINE
5
244
100
AcDbEntity
8
2
62
256
6
ByLayer
370
13
48
1
60
0
100
AcDbLine
10
50.517997
20
-9.174998
30
0
11
49.682003
21
-9.175002
31
0
39
0
210
0
220
0
230
1
0
LINE
5
245
100
AcDbEntity
8
2
62
256
6
ByLayer
370
13
48
1
60
0
100
AcDbLine
10
50.1
20
6
30
0
11
49.682003
21
9.174998
31
0
39
0
210
0
220
0
230
1
0
LINE
5
246
100
AcDbEntity
8
2
62
256
6
ByLayer
370
13
48
1
60
0
100
AcDbLine
10
50.1
20
6
30
0
11
50.517997
21
9.175002
31
0
39
0
210
0
220
0
230
1
0
LINE
5
247
100
AcDbEntity
8
2
62
256
6
ByLayer
370
13
48
1
60
0
100
AcDbLine
10
49.682003
20
9.174998
30
0
11
50.517997
21
9.175002
31
0
39
0
210
0
220
0
230
1
0
ENDBLK
5
249
100
AcDbEntity
8
0
100
AcDbBlockEnd
0
BLOCK
5
24C
100
AcDbEntity
8
0
100
AcDbBlockBegin
2
_CLOSED
70
0
10
0
20
0
30
0
3
_CLOSED
0
LINE
5
24E
100
AcDbEntity
8
0
62
256
6
ByLayer
370
-2
48
1
60
0
100
AcDbLine
10
-1
20
0.166667
30
0
11
0
21
0
31
0
39
0
210
0
220
0
230
1
0
LINE
5
24F
100
AcDbEntity
8
0
62
256
6
ByLayer
370
-2
48
1
60
0
100
AcDbLine
10
0
20
0
30
0
11
-1
21
-0.166667
31
0
39
0
210
0
220
0
230
1
0
LINE
5
250
100
AcDbEntity
8
0
62
256
6
ByLayer
370
-2
48
1
60
0
100
AcDbLine
10
-1
20
0.166667
30
0
11
-1
21
-0.166667
31
0
39
0
210
0
220
0
230
1
0
LINE
5
251
100
AcDbEntity
8
0
62
256
6
ByLayer
370
-2
48
1
60
0
100
AcDbLine
10
0
20
0
30
0
11
-1
21
0
31
0
39
0
210
0
220
0
230
1
0
ENDBLK
5
24D
100
AcDbEntity
8
0
100
AcDbBlockEnd
0
BLOCK
5
25D
100
AcDbEntity
8
0
100
AcDbBlockBegin
2
DimnDraft3D2
70
0
10
0
20
0
30
0
3
DimnDraft3D2
0
MTEXT
5
253
100
AcDbEntity
8
SK2
62
256
6
ByLayer
370
18
48
1
60
0
100
AcDbMText
10
-43.884868
20
-18.22505
30
0
210
0
220
0
230
1
1
\W0.5404;2
40
3.5
41
0
44
1.084337
50
0
71
7
72
5
7
iso_b_vert
0
LINE
5
254
100
AcDbEntity
8
SK2
62
256
6
ByLayer
370
13
48
1
60
0
100
AcDbLine
10
-45
20
-8
30
0
11
-45
21
-21.10005
31
0
39
0
210
0
220
0
230
1
0
LINE
5
255
100
AcDbEntity
8
SK2
62
256
6
ByLayer
370
13
48
1
60
0
100
AcDbLine
10
-43
20
-8
30
0
11
-43
21
-21.10005
31
0
39
0
210
0
220
0
230
1
0
LINE
5
256
100
AcDbEntity
8
SK2
62
256
6
ByLayer
370
13
48
1
60
0
100
AcDbLine
10
-53.75
20
-19.10005
30
0
11
-34.25
21
-19.10005
31
0
39
0
210
0
220
0
230
1
0
LINE
5
257
100
AcDbEntity
8
SK2
62
256
6
ByLayer
370
13
48
1
60
0
100
AcDbLine
10
-45
20
-19.10005
30
0
11
-48.174998
21
-19.518047
31
0
39
0
210
0
220
0
230
1
0
LINE
5
258
100
AcDbEntity
8
SK2
62
256
6
ByLayer
370
13
48
1
60
0
100
AcDbLine
10
-45
20
-19.10005
30
0
11
-48.175002
21
-18.682053
31
0
39
0
210
0
220
0
230
1
0
LINE
5
259
100
AcDbEntity
8
SK2
62
256
6
ByLayer
370
13
48
1
60
0
100
AcDbLine
10
-48.174998
20
-19.518047
30
0
11
-48.175002
21
-18.682053
31
0
39
0
210
0
220
0
230
1
0
LINE
5
25A
100
AcDbEntity
8
SK2
62
256
6
ByLayer
370
13
48
1
60
0
100
AcDbLine
10
-43
20
-19.10005
30
0
11
-39.825002
21
-18.682053
31
0
39
0
210
0
220
0
230
1
0
LINE
5
25B
100
AcDbEntity
8
SK2
62
256
6
ByLayer
370
13
48
1
60
0
100
AcDbLine
10
-43
20
-19.10005
30
0
11
-39.824998
21
-19.518047
31
0
39
0
210
0
220
0
230
1
0
LINE
5
25C
100
AcDbEntity
8
SK2
62
256
6
ByLayer
370
13
48
1
60
0
100
AcDbLine
10
-39.825002
20
-18.682053
30
0
11
-39.824998
21
-19.518047
31
0
39
0
210
0
220
0
230
1
0
ENDBLK
5
25E
100
AcDbEntity
8
0
100
AcDbBlockEnd
0
BLOCK
5
26B
100
AcDbEntity
8
0
100
AcDbBlockBegin
2
DimnDraft3D3
70
0
10
0
20
0
30
0
3
DimnDraft3D3
0
MTEXT
5
261
100
AcDbEntity
8
SK2
62
256
6
ByLayer
370
18
48
1
60
0
100
AcDbMText
10
-11.215789
20
29.475049
30
0
210
0
220
0
230
1
1
\W0.6740;70
40
3.5
41
0
44
1.084337
50
0
71
7
72
5
7
iso_b_vert
0
LINE
5
262
100
AcDbEntity
8
SK2
62
256
6
ByLayer
370
13
48
1
60
0
100
AcDbLine
10
-45
20
-4
30
0
11
-45
21
30.600049
31
0
39
0
210
0
220
0
230
1
0
LINE
5
263
100
AcDbEntity
8
SK2
62
256
6
ByLayer
370
13
48
1
60
0
100
AcDbLine
10
25
20
8
30
0
11
25
21
30.600049
31
0
39
0
210
0
220
0
230
1
0
LINE
5
264
100
AcDbEntity
8
SK2
62
256
6
ByLayer
370
13
48
1
60
0
100
AcDbLine
10
-45
20
28.600049
30
0
11
25
21
28.600049
31
0
39
0
210
0
220
0
230
1
0
LINE
5
265
100
AcDbEntity
8
SK2
62
256
6
ByLayer
370
13
48
1
60
0
100
AcDbLine
10
-45
20
28.600049
30
0
11
-41.825002
21
29.018045
31
0
39
0
210
0
220
0
230
1
0
LINE
5
266
100
AcDbEntity
8
SK2
62
256
6
ByLayer
370
13
48
1
60
0
100
AcDbLine
10
-45
20
28.600049
30
0
11
-41.824998
21
28.182052
31
0
39
0
210
0
220
0
230
1
0
LINE
5
267
100
AcDbEntity
8
SK2
62
256
6
ByLayer
370
13
48
1
60
0
100
AcDbLine
10
-41.825002
20
29.018045
30
0
11
-41.824998
21
28.182052
31
0
39
0
210
0
220
0
230
1
0
LINE
5
268
100
AcDbEntity
8
SK2
62
256
6
ByLayer
370
13
48
1
60
0
100
AcDbLine
10
25
20
28.600049
30
0
11
21.825002
21
28.182052
31
0
39
0
210
0
220
0
230
1
0
LINE
5
269
100
AcDbEntity
8
SK2
62
256
6
ByLayer
370
13
48
1
60
0
100
AcDbLine
10
25
20
28.600049
30
0
11
21.824998
21
29.018045
31
0
39
0
210
0
220
0
230
1
0
LINE
5
26A
100
AcDbEntity
8
SK2
62
256
6
ByLayer
370
13
48
1
60
0
100
AcDbLine
10
21.825002
20
28.182052
30
0
11
21.824998
21
29.018045
31
0
39
0
210
0
220
0
230
1
0
ENDBLK
5
26C
100
AcDbEntity
8
0
100
AcDbBlockEnd
0
BLOCK
5
279
100
AcDbEntity
8
0
100
AcDbBlockBegin
2
DimnDraft3D4
70
0
10
0
20
0
30
0
3
DimnDraft3D4
0
MTEXT
5
26F
100
AcDbEntity
8
2
62
256
6
ByLayer
370
18
48
1
60
0
100
AcDbMText
10
11.284211
20
23.475049
30
0
210
0
220
0
230
1
1
\W0.6740;25
40
3.5
41
0
44
1.084337
50
0
71
7
72
5
7
iso_b_vert
0
LINE
5
270
100
AcDbEntity
8
2
62
256
6
ByLayer
370
13
48
1
60
0
100
AcDbLine
10
0
20
8
30
0
11
0
21
24.600049
31
0
39
0
210
0
220
0
230
1
0
LINE
5
271
100
AcDbEntity
8
2
62
256
6
ByLayer
370
13
48
1
60
0
100
AcDbLine
10
25
20
8
30
0
11
25
21
24.600049
31
0
39
0
210
0
220
0
230
1
0
LINE
5
272
100
AcDbEntity
8
2
62
256
6
ByLayer
370
13
48
1
60
0
100
AcDbLine
10
0
20
22.600049
30
0
11
25
21
22.600049
31
0
39
0
210
0
220
0
230
1
0
LINE
5
273
100
AcDbEntity
8
2
62
256
6
ByLayer
370
13
48
1
60
0
100
AcDbLine
10
0
20
22.600049
30
0
11
3.174998
21
23.018045
31
0
39
0
210
0
220
0
230
1
0
LINE
5
274
100
AcDbEntity
8
2
62
256
6
ByLayer
370
13
48
1
60
0
100
AcDbLine
10
0
20
22.600049
30
0
11
3.175002
21
22.182052
31
0
39
0
210
0
220
0
230
1
0
LINE
5
275
100
AcDbEntity
8
2
62
256
6
ByLayer
370
13
48
1
60
0
100
AcDbLine
10
3.174998
20
23.018045
30
0
11
3.175002
21
22.182052
31
0
39
0
210
0
220
0
230
1
0
LINE
5
276
100
AcDbEntity
8
2
62
256
6
ByLayer
370
13
48
1
60
0
100
AcDbLine
10
25
20
22.600049
30
0
11
21.825002
21
22.182052
31
0
39
0
210
0
220
0
230
1
0
LINE
5
277
100
AcDbEntity
8
2
62
256
6
ByLayer
370
13
48
1
60
0
100
AcDbLine
10
25
20
22.600049
30
0
11
21.824998
21
23.018045
31
0
39
0
210
0
220
0
230
1
0
LINE
5
278
100
AcDbEntity
8
2
62
256
6
ByLayer
370
13
48
1
60
0
100
AcDbLine
10
21.825002
20
22.182052
30
0
11
21.824998
21
23.018045
31
0
39
0
210
0
220
0
230
1
0
ENDBLK
5
27A
100
AcDbEntity
8
0
100
AcDbBlockEnd
0
BLOCK
5
287
100
AcDbEntity
8
0
100
AcDbBlockBegin
2
DimnDraft3D5
70
0
10
0
20
0
30
0
3
DimnDraft3D5
0
MTEXT
5
27D
100
AcDbEntity
8
2
62
256
6
ByLayer
370
18
48
1
60
0
100
AcDbMText
10
17.721711
20
-18.22505
30
0
210
0
220
0
230
1
1
\W0.5321;13
40
3.5
41
0
44
1.084337
50
0
71
7
72
5
7
iso_b_vert
0
LINE
5
27E
100
AcDbEntity
8
2
62
256
6
ByLayer
370
13
48
1
60
0
100
AcDbLine
10
25
20
4
30
0
11
25
21
-21.10005
31
0
39
0
210
0
220
0
230
1
0
LINE
5
27F
100
AcDbEntity
8
2
62
256
6
ByLayer
370
13
48
1
60
0
100
AcDbLine
10
12
20
-8
30
0
11
12
21
-21.10005
31
0
39
0
210
0
220
0
230
1
0
LINE
5
280
100
AcDbEntity
8
2
62
256
6
ByLayer
370
13
48
1
60
0
100
AcDbLine
10
33.75
20
-19.10005
30
0
11
3.25
21
-19.10005
31
0
39
0
210
0
220
0
230
1
0
LINE
5
281
100
AcDbEntity
8
2
62
256
6
ByLayer
370
13
48
1
60
0
100
AcDbLine
10
25
20
-19.10005
30
0
11
28.174998
21
-18.682053
31
0
39
0
210
0
220
0
230
1
0
LINE
5
282
100
AcDbEntity
8
2
62
256
6
ByLayer
370
13
48
1
60
0
100
AcDbLine
10
25
20
-19.10005
30
0
11
28.175002
21
-19.518047
31
0
39
0
210
0
220
0
230
1
0
LINE
5
283
100
AcDbEntity
8
2
62
256
6
ByLayer
370
13
48
1
60
0
100
AcDbLine
10
28.174998
20
-18.682053
30
0
11
28.175002
21
-19.518047
31
0
39
0
210
0
220
0
230
1
0
LINE
5
284
100
AcDbEntity
8
2
62
256
6
ByLayer
370
13
48
1
60
0
100
AcDbLine
10
12
20
-19.10005
30
0
11
8.825002
21
-19.518047
31
0
39
0
210
0
220
0
230
1
0
LINE
5
285
100
AcDbEntity
8
2
62
256
6
ByLayer
370
13
48
1
60
0
100
AcDbLine
10
12
20
-19.10005
30
0
11
8.824998
21
-18.682053
31
0
39
0
210
0
220
0
230
1
0
LINE
5
286
100
AcDbEntity
8
2
62
256
6
ByLayer
370
13
48
1
60
0
100
AcDbLine
10
8.825002
20
-19.518047
30
0
11
8.824998
21
-18.682053
31
0
39
0
210
0
220
0
230
1
0
ENDBLK
5
288
100
AcDbEntity
8
0
100
AcDbBlockEnd
0
BLOCK
5
295
100
AcDbEntity
8
0
100
AcDbBlockBegin
2
DimnDraft3D6
70
0
10
0
20
0
30
0
3
DimnDraft3D6
0
MTEXT
5
28B
100
AcDbEntity
8
2
62
256
6
ByLayer
370
18
48
1
60
0
100
AcDbMText
10
42.225
20
-6.945789
30
0
210
0
220
0
230
1
1
\W0.5404;2
40
3.5
41
0
44
1.084337
50
90
71
7
72
5
7
iso_b_vert
0
LINE
5
28C
100
AcDbEntity
8
2
62
256
6
ByLayer
370
13
48
1
60
0
100
AcDbLine
10
27
20
6
30
0
11
45.1
21
6
31
0
39
0
210
0
220
0
230
1
0
LINE
5
28D
100
AcDbEntity
8
2
62
256
6
ByLayer
370
13
48
1
60
0
100
AcDbLine
10
27
20
4
30
0
11
45.1
21
4
31
0
39
0
210
0
220
0
230
1
0
LINE
5
28E
100
AcDbEntity
8
2
62
256
6
ByLayer
370
13
48
1
60
0
100
AcDbLine
10
43.1
20
-7.820789
30
0
11
43.1
21
14.75
31
0
39
0
210
0
220
0
230
1
0
LINE
5
28F
100
AcDbEntity
8
2
62
256
6
ByLayer
370
13
48
1
60
0
100
AcDbLine
10
43.1
20
6
30
0
11
42.682003
21
9.174998
31
0
39
0
210
0
220
0
230
1
0
LINE
5
290
100
AcDbEntity
8
2
62
256
6
ByLayer
370
13
48
1
60
0
100
AcDbLine
10
43.1
20
6
30
0
11
43.517997
21
9.175002
31
0
39
0
210
0
220
0
230
1
0
LINE
5
291
100
AcDbEntity
8
2
62
256
6
ByLayer
370
13
48
1
60
0
100
AcDbLine
10
42.682003
20
9.174998
30
0
11
43.517997
21
9.175002
31
0
39
0
210
0
220
0
230
1
0
LINE
5
292
100
AcDbEntity
8
2
62
256
6
ByLayer
370
13
48
1
60
0
100
AcDbLine
10
43.1
20
4
30
0
11
43.517997
21
0.825002
31
0
39
0
210
0
220
0
230
1
0
LINE
5
293
100
AcDbEntity
8
2
62
256
6
ByLayer
370
13
48
1
60
0
100
AcDbLine
10
43.1
20
4
30
0
11
42.682003
21
0.824998
31
0
39
0
210
0
220
0
230
1
0
LINE
5
294
100
AcDbEntity
8
2
62
256
6
ByLayer
370
13
48
1
60
0
100
AcDbLine
10
43.517997
20
0.825002
30
0
11
42.682003
21
0.824998
31
0
39
0
210
0
220
0
230
1
0
ENDBLK
5
296
100
AcDbEntity
8
0
100
AcDbBlockEnd
0
ENDSEC
0
SECTION
2
ENTITIES
0
ARC
5
147
100
AcDbEntity
8
SK1
62
256
6
ByLayer
370
18
48
1
60
0
100
AcDbCircle
39
0
10
-1
20
6.75
30
0
40
1
210
0
220
0
230
1
100
AcDbArc
50
235.588491
51
270
0
ARC
5
148
100
AcDbEntity
8
1
62
256
6
ByLayer
370
18
48
1
60
0
100
AcDbCircle
39
0
10
2.7
20
3.25
30
0
40
1
210
0
220
0
230
1
100
AcDbArc
50
90
51
180
0
ARC
5
149
100
AcDbEntity
8
1
62
256
6
ByLayer
370
18
48
1
60
0
100
AcDbCircle
39
0
10
2.7
20
3.25
30
0
40
1
210
0
220
0
230
1
100
AcDbArc
50
90
51
180
0
ARC
5
14A
100
AcDbEntity
8
1
62
256
6
ByLayer
370
18
48
1
60
0
100
AcDbCircle
39
0
10
-1
20
6.75
30
0
40
1
210
0
220
0
230
1
100
AcDbArc
50
235.588491
51
270
0
ELLIPSE
5
14B
100
AcDbEntity
8
1
62
256
6
ByLayer
370
18
48
1
60
0
100
AcDbEllipse
10
20.437312
20
5
30
0
11
-2.44921270764234E-17
21
0.399999999999605
31
0
210
0
220
0
230
-1
40
0.087159
41
-2.46970144325292
42
-0.671891210336482
0
ELLIPSE
5
14C
100
AcDbEntity
8
1
62
256
6
ByLayer
370
18
48
1
60
0
100
AcDbEllipse
10
19.895033
20
5
30
0
11
0.836314415911235
21
8.45212011048289E-16
31
0
210
0
220
0
230
-1
40
0.478289
41
0.898905116456959
42
-0.898905116457004
0
ELLIPSE
5
14D
100
AcDbEntity
8
1
62
256
6
ByLayer
370
13
48
1
60
0
100
AcDbEllipse
10
24.37413
20
5
30
0
11
-6.1541317860938
21
7.53638888751072E-16
31
0
210
0
220
0
230
1
40
0.121869
41
1.12302990717099
42
1.18682389135614
0
ELLIPSE
5
14E
100
AcDbEntity
8
1
62
256
6
ByLayer
370
13
48
1
60
0
100
AcDbEllipse
10
24.37413
20
5
30
0
11
-6.1541317860938
21
7.53638888751072E-16
31
0
210
0
220
0
230
1
40
0.121869
41
-1.18682389135615
42
-1.12302990717099
0
ELLIPSE
5
14F
100
AcDbEntity
8
1
62
256
6
ByLayer
370
13
48
1
60
0
100
AcDbEllipse
10
24.37413
20
5
30
0
11
6.1175709701529
21
6.23670833521734E-10
31
0
210
0
220
0
230
-1
40
0.073559
41
-2.06016834703605
42
-1.95476876143812
0
ELLIPSE
5
150
100
AcDbEntity
8
1
62
256
6
ByLayer
370
13
48
1
60
0
100
AcDbEllipse
10
24.37413
20
5
30
0
11
6.11757095278457
21
-1.45817258640194E-09
31
0
210
0
220
0
230
-1
40
0.073559
41
1.95476876038368
42
2.06016834623596
0
ELLIPSE
5
151
100
AcDbEntity
8
1
62
256
6
ByLayer
370
13
48
1
60
0
100
AcDbEllipse
10
22.073627
20
5
30
0
11
1.22363010710133
21
1.23664837521122E-15
31
0
210
0
220
0
230
-1
40
0.367758
41
-2.41547853525777
42
-2.06016834763839
0
ELLIPSE
5
152
100
AcDbEntity
8
1
62
256
6
ByLayer
370
13
48
1
60
0
100
AcDbEllipse
10
21.786071
20
5
30
0
11
0.899729526972765
21
0.0397735714260815
31
0
210
0
220
0
230
-1
40
0.498193
41
-1.09832268279616
42
-1.00525798187625
0
ELLIPSE
5
153
100
AcDbEntity
8
1
62
256
6
ByLayer
370
13
48
1
60
0
100
AcDbEllipse
10
21.786071
20
5
30
0
11
0.899729527891308
21
-0.0397735718865189
31
0
210
0
220
0
230
-1
40
0.498193
41
1.00525798137449
42
1.09832268221393
0
ELLIPSE
5
154
100
AcDbEntity
8
1
62
256
6
ByLayer
370
13
48
1
60
0
100
AcDbEllipse
10
22.073627
20
5
30
0
11
1.22363010714932
21
1.23664837525972E-15
31
0
210
0
220
0
230
-1
40
0.367758
41
2.06016834764053
42
2.41547853523971
0
ELLIPSE
5
155
100
AcDbEntity
8
1
62
256
6
ByLayer
370
13
48
1
60
0
100
AcDbEllipse
10
22.308716
20
4.352384
30
0
11
-0.0309022559569112
21
-0.238002207083828
31
0
210
0
220
0
230
1
40
0.697921
41
1.71098898168886
42
2.36528722147383
0
ELLIPSE
5
156
100
AcDbEntity
8
1
62
256
6
ByLayer
370
13
48
1
60
0
100
AcDbEllipse
10
23.533781
20
4.11922
30
0
11
0.0220590948837
21
0.238984092217269
31
0
210
0
220
0
230
1
40
0.006427
41
0.704838524415454
42
1.50127915029164
0
ELLIPSE
5
157
100
AcDbEntity
8
1
62
256
6
ByLayer
370
13
48
1
60
0
100
AcDbEllipse
10
22.308716
20
5.647616
30
0
11
0.0309022559561243
21
-0.238002207083931
31
0
210
0
220
0
230
1
40
0.697921
41
0.776305432118371
42
1.43060367190732
0
ELLIPSE
5
158
100
AcDbEntity
8
1
62
256
6
ByLayer
370
13
48
1
60
0
100
AcDbEllipse
10
23.533781
20
5.88078
30
0
11
0.0220590948836999
21
-0.238984092217269
31
0
210
0
220
0
230
1
40
0.006427
41
-1.50127915029226
42
-0.704838524422289
0
ELLIPSE
5
159
100
AcDbEntity
8
1
62
256
6
ByLayer
370
13
48
1
60
0
100
AcDbEllipse
10
22.152761
20
4.300476
30
0
11
0.10209648341447
21
-0.282092729566714
31
0
210
0
220
0
230
1
40
0.694069
41
1.37564748435104
42
2.59886419488526
0
ELLIPSE
5
15A
100
AcDbEntity
8
1
62
256
6
ByLayer
370
13
48
1
60
0
100
AcDbEllipse
10
22.152761
20
5.699524
30
0
11
-0.102096483414469
21
-0.282092729566714
31
0
210
0
220
0
230
1
40
0.694069
41
0.542728458704472
42
1.76594516923875
0
ELLIPSE
5
15B
100
AcDbEntity
8
1
62
256
6
ByLayer
370
13
48
1
60
0
100
AcDbEllipse
10
21.48984
20
5.529577
30
0
11
0.0373781701033243
21
-0.145268277334479
31
0
210
0
220
0
230
1
40
0.332441
41
-1.6561270901124
42
-0.517494909403559
0
ELLIPSE
5
15C
100
AcDbEntity
8
1
62
256
6
ByLayer
370
13
48
1
60
0
100
AcDbEllipse
10
21.48984
20
4.470423
30
0
11
0.0373781701033242
21
0.145268277334479
31
0
210
0
220
0
230
1
40
0.332441
41
0.517494909403288
42
1.65612709011242
0
ELLIPSE
5
15D
100
AcDbEntity
8
1
62
256
6
ByLayer
370
13
48
1
60
0
100
AcDbEllipse
10
22.022324
20
5
30
0
11
1.24191050868325
21
1.2551232629925E-15
31
0
210
0
220
0
230
-1
40
0.483127
41
2.06016834764294
42
2.41547853523705
0
ELLIPSE
5
15E
100
AcDbEntity
8
1
62
256
6
ByLayer
370
13
48
1
60
0
100
AcDbEllipse
10
22.022324
20
5
30
0
11
1.24191050866324
21
1.25512326297227E-15
31
0
210
0
220
0
230
-1
40
0.483127
41
-2.41547853524248
42
-2.06016834764123
0
ELLIPSE
5
15F
100
AcDbEntity
8
1
62
256
6
ByLayer
370
13
48
1
60
0
100
AcDbEllipse
10
21.997945
20
5.014816
30
0
11
0.847017708360886
21
-0.196304063773868
31
0
210
0
220
0
230
-1
40
0.854591
41
0.792533372056079
42
0.92200057552993
0
ELLIPSE
5
160
100
AcDbEntity
8
1
62
256
6
ByLayer
370
13
48
1
60
0
100
AcDbEllipse
10
21.997945
20
4.985184
30
0
11
0.847017705461261
21
0.196304049305101
31
0
210
0
220
0
230
-1
40
0.854591
41
-0.922000591456699
42
-0.792533387343521
0
ELLIPSE
5
161
100
AcDbEntity
8
1
62
256
6
ByLayer
370
13
48
1
60
0
100
AcDbEllipse
10
22.16419
20
5.695388
30
0
11
-0.102096483414469
21
-0.282092729566714
31
0
210
0
220
0
230
1
40
0.694069
41
0.542728458704538
42
1.76594516923875
0
ELLIPSE
5
162
100
AcDbEntity
8
1
62
256
6
ByLayer
370
13
48
1
60
0
100
AcDbEllipse
10
22.261247
20
5.653295
30
0
11
0.136500727004937
21
0.267147059738871
31
0
210
0
220
0
230
1
40
0.677974
41
-1.35487317172656
42
-1.28974538225851
0
ELLIPSE
5
163
100
AcDbEntity
8
1
62
256
6
ByLayer
370
13
48
1
60
0
100
AcDbEllipse
10
22.261247
20
4.346705
30
0
11
-0.136500727005176
21
0.267147059738748
31
0
210
0
220
0
230
1
40
0.677974
41
-1.85184727133187
42
-1.78671948186544
0
ELLIPSE
5
164
100
AcDbEntity
8
1
62
256
6
ByLayer
370
13
48
1
60
0
100
AcDbEllipse
10
22.16419
20
4.304612
30
0
11
0.10209648341447
21
-0.282092729566714
31
0
210
0
220
0
230
1
40
0.694069
41
1.37564748435104
42
2.59886419488531
0
ELLIPSE
5
165
100
AcDbEntity
8
1
62
256
6
ByLayer
370
13
48
1
60
0
100
AcDbEllipse
10
21.144976
20
4.601619
30
0
11
0.0716898187946788
21
0.131759515334514
31
0
210
0
220
0
230
1
40
0.304525
41
0.893380334283847
42
1.73499558700915
0
ELLIPSE
5
166
100
AcDbEntity
8
1
62
256
6
ByLayer
370
13
48
1
60
0
100
AcDbEllipse
10
21.144976
20
5.398381
30
0
11
0.0716898187935411
21
-0.131759515335133
31
0
210
0
220
0
230
1
40
0.304525
41
-1.73499558697388
42
-0.893380334272901
0
ELLIPSE
5
167
100
AcDbEntity
8
1
62
256
6
ByLayer
370
13
48
1
60
0
100
AcDbEllipse
10
22.268095
20
4.36856
30
0
11
0.171518916221875
21
0.16787275353098
31
0
210
0
220
0
230
1
40
0.082052
41
0.518298817417708
42
0.779655640507724
0
ELLIPSE
5
168
100
AcDbEntity
8
1
62
256
6
ByLayer
370
13
48
1
60
0
100
AcDbEllipse
10
22.302479
20
4.353337
30
0
11
0.0417762271290194
21
0.236336088752574
31
0
210
0
220
0
230
1
40
0.675324
41
-1.34029986666134
42
-0.746155527792867
0
ELLIPSE
5
169
100
AcDbEntity
8
1
62
256
6
ByLayer
370
13
48
1
60
0
100
AcDbEllipse
10
22.302479
20
5.646663
30
0
11
-0.0417762271294201
21
0.236336088752503
31
0
210
0
220
0
230
1
40
0.675324
41
-2.39543712579808
42
-1.80129278693142
0
ELLIPSE
5
16A
100
AcDbEntity
8
1
62
256
6
ByLayer
370
13
48
1
60
0
100
AcDbEllipse
10
23.291288
20
4.706548
30
0
11
-0.114657467550524
21
-0.383214907245139
31
0
210
0
220
0
230
1
40
0.149521
41
-1.52608952887372
42
-0.632305349725107
0
ELLIPSE
5
16B
100
AcDbEntity
8
1
62
256
6
ByLayer
370
13
48
1
60
0
100
AcDbEllipse
10
21.176259
20
5.479243
30
0
11
0.111438992389702
21
0.278534290483538
31
0
210
0
220
0
230
1
40
0.391057
41
-2.99672437051153
42
-2.16330924043511
0
ELLIPSE
5
16C
100
AcDbEntity
8
1
62
256
6
ByLayer
370
13
48
1
60
0
100
AcDbEllipse
10
21.176259
20
4.520757
30
0
11
-0.111438992389677
21
0.278534290483548
31
0
210
0
220
0
230
1
40
0.391057
41
-0.978283413154567
42
-0.144868283078228
0
ELLIPSE
5
16D
100
AcDbEntity
8
1
62
256
6
ByLayer
370
13
48
1
60
0
100
AcDbEllipse
10
22.252499
20
4.42942
30
0
11
0.29766898486033
21
0.0373252656014786
31
0
210
0
220
0
230
1
40
0.756445
41
0.856307358412483
42
1.39678515212246
0
ELLIPSE
5
16E
100
AcDbEntity
8
1
62
256
6
ByLayer
370
13
48
1
60
0
100
AcDbEllipse
10
22.252499
20
5.57058
30
0
11
-0.297668984860324
21
0.0373252656015258
31
0
210
0
220
0
230
1
40
0.756445
41
1.74480750146743
42
2.28528529517745
0
ELLIPSE
5
16F
100
AcDbEntity
8
1
62
256
6
ByLayer
370
13
48
1
60
0
100
AcDbEllipse
10
23.291288
20
5.293452
30
0
11
-0.114657467550524
21
0.383214907245139
31
0
210
0
220
0
230
1
40
0.149521
41
0.632305349724999
42
1.52608952887372
0
ELLIPSE
5
170
100
AcDbEntity
8
1
62
256
6
ByLayer
370
13
48
1
60
0
100
AcDbEllipse
10
21.048488
20
4.616805
30
0
11
-0.0204696158072206
21
0.148596752416413
31
0
210
0
220
0
230
1
40
0.33919
41
0.367590503029039
42
1.52410589159643
0
ELLIPSE
5
171
100
AcDbEntity
8
1
62
256
6
ByLayer
370
13
48
1
60
0
100
AcDbEllipse
10
21.048488
20
5.383195
30
0
11
0.0204696158039751
21
0.14859675241686
31
0
210
0
220
0
230
1
40
0.33919
41
1.61748676198879
42
2.77400215055174
0
ELLIPSE
5
172
100
AcDbEntity
8
1
62
256
6
ByLayer
370
13
48
1
60
0
100
AcDbEllipse
10
21.167717
20
5.482663
30
0
11
0.111594752970791
21
0.278471921581671
31
0
210
0
220
0
230
1
40
0.394318
41
-2.99660724386009
42
-2.16841033890641
0
ELLIPSE
5
173
100
AcDbEntity
8
1
62
256
6
ByLayer
370
13
48
1
60
0
100
AcDbEllipse
10
21.167717
20
4.517337
30
0
11
-0.111594752970814
21
0.278471921581661
31
0
210
0
220
0
230
1
40
0.394318
41
-0.973182314683311
42
-0.144985409729454
0
ELLIPSE
5
174
100
AcDbEntity
8
1
62
256
6
ByLayer
370
13
48
1
60
0
100
AcDbEllipse
10
21.014981
20
5.393907
30
0
11
0.0722486702513559
21
0.131453906929048
31
0
210
0
220
0
230
1
40
0.303884
41
1.73628735495827
42
2.7191926110968
0
ELLIPSE
5
175
100
AcDbEntity
8
1
62
256
6
ByLayer
370
13
48
1
60
0
100
AcDbEllipse
10
21.014981
20
4.606093
30
0
11
-0.0722486702265449
21
0.131453906942685
31
0
210
0
220
0
230
1
40
0.303884
41
0.422400042195108
42
1.40530529868881
0
ELLIPSE
5
176
100
AcDbEntity
8
1
62
256
6
ByLayer
370
13
48
1
60
0
100
AcDbEllipse
10
22.293937
20
4.869004
30
0
11
0.288517367888856
21
-0.0822054038764276
31
0
210
0
220
0
230
1
40
0.201316
41
0.955679576570765
42
1.50320190071235
0
ELLIPSE
5
177
100
AcDbEntity
8
1
62
256
6
ByLayer
370
13
48
1
60
0
100
AcDbEllipse
10
20.992833
20
5.412554
30
0
11
0.122999586129777
21
0.0858551210581151
31
0
210
0
220
0
230
1
40
0.203946
41
1.85506502495931
42
2.61874247938654
0
ELLIPSE
5
178
100
AcDbEntity
8
1
62
256
6
ByLayer
370
13
48
1
60
0
100
AcDbEllipse
10
20.992833
20
4.587446
30
0
11
-0.122999586130244
21
0.0858551210574456
31
0
210
0
220
0
230
1
40
0.203946
41
0.522850174197426
42
1.28652762862986
0
ELLIPSE
5
179
100
AcDbEntity
8
1
62
256
6
ByLayer
370
13
48
1
60
0
100
AcDbEllipse
10
22.293937
20
5.130996
30
0
11
-0.288517367888757
21
-0.0822054038767749
31
0
210
0
220
0
230
1
40
0.201316
41
1.63839075288005
42
2.18591307702128
0
ELLIPSE
5
17A
100
AcDbEntity
8
1
62
256
6
ByLayer
370
13
48
1
60
0
100
AcDbEllipse
10
20.978252
20
5.438419
30
0
11
0.136631968823999
21
0.0619007681315656
31
0
210
0
220
0
230
1
40
0.148534
41
1.88760878179945
42
2.74962710514653
0
ELLIPSE
5
17B
100
AcDbEntity
8
1
62
256
6
ByLayer
370
13
48
1
60
0
100
AcDbEllipse
10
20.978252
20
4.561581
30
0
11
0.136631968824137
21
-0.0619007681312608
31
0
210
0
220
0
230
1
40
0.148534
41
-2.74962710515969
42
-1.88760878179983
0
ELLIPSE
5
17C
100
AcDbEntity
8
1
62
256
6
ByLayer
370
13
48
1
60
0
100
AcDbEllipse
10
20.838501
20
4.274562
30
0
11
0.132407679423122
21
-0.0704855051041258
31
0
210
0
220
0
230
1
40
0.168583
41
-2.61018272665905
42
-1.87748899426512
0
ELLIPSE
5
17D
100
AcDbEntity
8
1
62
256
6
ByLayer
370
13
48
1
60
0
100
AcDbEllipse
10
20.838501
20
5.725438
30
0
11
0.132407679423122
21
0.0704855051041255
31
0
210
0
220
0
230
1
40
0.168583
41
1.87748899426517
42
2.61018272665885
0
ELLIPSE
5
17E
100
AcDbEntity
8
1
62
256
6
ByLayer
370
13
48
1
60
0
100
AcDbEllipse
10
21.042406
20
5.430874
30
0
11
-0.0486052519780795
21
-0.194003941919095
31
0
210
0
220
0
230
1
40
0.669878
41
-0.553928558803333
42
-0.205864067887369
0
ELLIPSE
5
17F
100
AcDbEntity
8
1
62
256
6
ByLayer
370
13
48
1
60
0
100
AcDbEllipse
10
21.022373
20
5.433936
30
0
11
5.665498452323E-17
21
0.2
31
0
210
0
220
0
230
1
40
0.909654
41
1.90677220782005
42
2.72521072930061
0
ELLIPSE
5
180
100
AcDbEntity
8
1
62
256
6
ByLayer
370
13
48
1
60
0
100
AcDbEllipse
10
21.022373
20
4.566064
30
0
11
5.665498452323E-17
21
0.2
31
0
210
0
220
0
230
1
40
0.909654
41
0.416381924289194
42
1.23482044577494
0
ELLIPSE
5
181
100
AcDbEntity
8
1
62
256
6
ByLayer
370
13
48
1
60
0
100
AcDbEllipse
10
21.042406
20
4.569126
30
0
11
-0.0486052519780804
21
0.194003941919095
31
0
210
0
220
0
230
1
40
0.669878
41
0.205864067887418
42
0.553928558476741
0
ELLIPSE
5
182
100
AcDbEntity
8
1
62
256
6
ByLayer
370
13
48
1
60
0
100
AcDbEllipse
10
20.838501
20
4.274562
30
0
11
4.24912383924225E-17
21
0.15
31
0
210
0
220
0
230
1
40
0.848573
41
1.23482044578596
42
1.5707963267949
0
ELLIPSE
5
183
100
AcDbEntity
8
1
62
256
6
ByLayer
370
13
48
1
60
0
100
AcDbEllipse
10
20.838501
20
5.725438
30
0
11
4.24912383924225E-17
21
0.15
31
0
210
0
220
0
230
1
40
0.848573
41
1.5707963267949
42
1.90677220780379
0
ELLIPSE
5
184
100
AcDbEntity
8
1
62
256
6
ByLayer
370
13
48
1
60
0
100
AcDbEllipse
10
20.534034
20
5.433936
30
0
11
5.665498452323E-17
21
0.2
31
0
210
0
220
0
230
1
40
0.34202
41
1.90677220780381
42
2.72521072930055
0
ELLIPSE
5
185
100
AcDbEntity
8
1
62
256
6
ByLayer
370
13
48
1
60
0
100
AcDbEllipse
10
20.534034
20
4.566064
30
0
11
-3.67381906146713E-17
21
-0.2
31
0
210
0
220
0
230
1
40
0.34202
41
-2.72521072930055
42
-1.90677220780381
0
ELLIPSE
5
186
100
AcDbEntity
8
1
62
256
6
ByLayer
370
13
48
1
60
0
100
AcDbEllipse
10
20.78303
20
2.919859
30
0
11
-3.67381906146715E-16
21
-2.00000000000001
31
0
210
0
220
0
230
1
40
0.34202
41
-2.79252680319092
42
-2.72521072930059
0
ELLIPSE
5
187
100
AcDbEntity
8
1
62
256
6
ByLayer
370
13
48
1
60
0
100
AcDbEllipse
10
20.481103
20
5.725438
30
0
11
4.24912383924225E-17
21
0.15
31
0
210
0
220
0
230
1
40
0.34202
41
1.5707963267949
42
1.90677220780379
0
ELLIPSE
5
188
100
AcDbEntity
8
1
62
256
6
ByLayer
370
13
48
1
60
0
100
AcDbEllipse
10
20.78303
20
7.080141
30
0
11
5.66549845232303E-16
21
2.00000000000001
31
0
210
0
220
0
230
1
40
0.34202
41
2.72521072930059
42
2.79252680319092
0
ELLIPSE
5
189
100
AcDbEntity
8
1
62
256
6
ByLayer
370
13
48
1
60
0
100
AcDbEllipse
10
20.481103
20
4.274562
30
0
11
-2.75536429610035E-17
21
-0.15
31
0
210
0
220
0
230
1
40
0.34202
41
-1.90677220780379
42
-1.5707963267949
0
ELLIPSE
5
18A
100
AcDbEntity
8
1
62
256
6
ByLayer
370
13
48
1
60
0
100
AcDbEllipse
10
24.222654
20
5.891305
30
0
11
0.00588101291965487
21
-0.239927934361631
31
0
210
0
220
0
230
1
40
0.175234
41
-1.50631558565103
42
-0.750535400473322
0
ELLIPSE
5
18B
100
AcDbEntity
8
1
62
256
6
ByLayer
370
13
48
1
60
0
100
AcDbEllipse
10
24.222654
20
4.108695
30
0
11
0.00588101291965508
21
0.239927934361631
31
0
210
0
220
0
230
1
40
0.175234
41
0.750535400473072
42
1.50631558565103
0
ELLIPSE
5
18C
100
AcDbEntity
8
1
62
256
6
ByLayer
370
13
48
1
60
0
100
AcDbEllipse
10
20.527723
20
5
30
0
11
5.94877337493915E-17
21
0.21
31
0
210
0
220
0
230
1
40
0.34202
41
-2.7925268031909
42
-0.349065850398889
0
ELLIPSE
5
18D
100
AcDbEntity
8
1
62
256
6
ByLayer
370
13
48
1
60
0
100
AcDbEllipse
10
24.75209
20
4.312207
30
0
11
-0.0532002340369041
21
0.0846742882959086
31
0
210
0
220
0
230
1
40
0.139782
41
-1.57684789387821
42
-0.739654044677402
0
ELLIPSE
5
18E
100
AcDbEntity
8
1
62
256
6
ByLayer
370
13
48
1
60
0
100
AcDbEllipse
10
24.913506
20
4.461955
30
0
11
-0.0833195870797989
21
0.0552977975045282
31
0
210
0
220
0
230
1
40
0.125168
41
-1.63384778655086
42
-1.00901921834433
0
ELLIPSE
5
18F
100
AcDbEntity
8
1
62
256
6
ByLayer
370
13
48
1
60
0
100
AcDbEllipse
10
24.75209
20
5.687793
30
0
11
-0.0532002340369042
21
-0.0846742882959085
31
0
210
0
220
0
230
1
40
0.139782
41
0.739654044676975
42
1.57684789387807
0
ELLIPSE
5
190
100
AcDbEntity
8
1
62
256
6
ByLayer
370
13
48
1
60
0
100
AcDbEllipse
10
24.913506
20
5.538045
30
0
11
-0.0833195870797989
21
-0.0552977975045282
31
0
210
0
220
0
230
1
40
0.125168
41
1.00901921834408
42
1.63384778655097
0
ELLIPSE
5
191
100
AcDbEntity
8
1
62
256
6
ByLayer
370
13
48
1
60
0
100
AcDbEllipse
10
24.441387
20
4.647871
30
0
11
0.0115886927836044
21
0.399832092508302
31
0
210
0
220
0
230
1
40
0.406594
41
-2.32325251776617
42
-1.55901218905987
0
ELLIPSE
5
192
100
AcDbEntity
8
1
62
256
6
ByLayer
370
13
48
1
60
0
100
AcDbEllipse
10
24.441387
20
5.352129
30
0
11
0.0115886927836045
21
-0.399832092508302
31
0
210
0
220
0
230
1
40
0.406594
41
1.55901218905987
42
2.32325251776617
0
ELLIPSE
5
193
100
AcDbEntity
8
1
62
256
6
ByLayer
370
13
48
1
60
0
100
AcDbEllipse
10
24.598358
20
5.800378
30
0
11
0.0768343605824262
21
0.0640037579669328
31
0
210
0
220
0
230
1
40
0.131171
41
-1.98237212656338
42
-1.52167934605462
0
ELLIPSE
5
194
100
AcDbEntity
8
1
62
256
6
ByLayer
370
13
48
1
60
0
100
AcDbEllipse
10
24.694545
20
5.723676
30
0
11
-0.0526170259943807
21
-0.0850379243367726
31
0
210
0
220
0
230
1
40
0.13982
41
0.737799907002491
42
1.57588705481515
0
ELLIPSE
5
195
100
AcDbEntity
8
1
62
256
6
ByLayer
370
13
48
1
60
0
100
AcDbEllipse
10
24.598358
20
4.199622
30
0
11
0.0768343605824262
21
-0.0640037579669329
31
0
210
0
220
0
230
1
40
0.131171
41
1.52167934605459
42
1.98237212656357
0
ELLIPSE
5
196
100
AcDbEntity
8
1
62
256
6
ByLayer
370
13
48
1
60
0
100
AcDbEllipse
10
24.694545
20
4.276324
30
0
11
-0.0526170259943807
21
0.0850379243367727
31
0
210
0
220
0
230
1
40
0.13982
41
-1.57588705481519
42
-0.737799907002136
0
ELLIPSE
5
197
100
AcDbEntity
8
1
62
256
6
ByLayer
370
13
48
1
60
0
100
AcDbEllipse
10
23.833781
20
5.883503
30
0
11
-0.00779618045171942
21
-0.239873340682878
31
0
210
0
220
0
230
1
40
0.002272
41
0.730980747449054
42
1.50102006034287
0
ELLIPSE
5
198
100
AcDbEntity
8
1
62
256
6
ByLayer
370
13
48
1
60
0
100
AcDbEllipse
10
23.833781
20
4.116497
30
0
11
-0.00779618045171957
21
0.239873340682878
31
0
210
0
220
0
230
1
40
0.002272
41
-1.50102006034467
42
-0.730980747449094
0
ELLIPSE
5
199
100
AcDbEntity
8
1
62
256
6
ByLayer
370
13
48
1
60
0
100
AcDbEllipse
10
24.935851
20
4.496575
30
0
11
-0.0846406472330468
21
0.0532537401125117
31
0
210
0
220
0
230
1
40
0.065248
41
-1.67413113259318
42
-1.04586785899659
0
ELLIPSE
5
19A
100
AcDbEntity
8
1
62
256
6
ByLayer
370
13
48
1
60
0
100
AcDbEllipse
10
24.935851
20
5.503425
30
0
11
-0.0846406472330468
21
-0.0532537401125116
31
0
210
0
220
0
230
1
40
0.065248
41
1.04586785899545
42
1.67413113259343
0
ELLIPSE
5
19B
100
AcDbEntity
8
1
62
256
6
ByLayer
370
13
48
1
60
0
100
AcDbEllipse
10
17.074248
20
4.130414
30
0
11
0.979582052617495
21
0.301726209267422
31
0
210
0
220
0
230
-1
40
0.270086
41
-2.11639244210243
42
-1.98807590276297
0
ELLIPSE
5
19C
100
AcDbEntity
8
1
62
256
6
ByLayer
370
13
48
1
60
0
100
AcDbEllipse
10
17.074248
20
5.869586
30
0
11
0.998914190626267
21
-0.226032306374557
31
0
210
0
220
0
230
-1
40
0.206112
41
1.87325735033856
42
2.07998265361284
0
ELLIPSE
5
19D
100
AcDbEntity
8
1
62
256
6
ByLayer
370
13
48
1
60
0
100
AcDbEllipse
10
17.074248
20
4.130414
30
0
11
0.998914188862673
21
0.226032306226586
31
0
210
0
220
0
230
-1
40
0.206112
41
-2.07998265312488
42
-1.87325734954813
0
ELLIPSE
5
19E
100
AcDbEntity
8
1
62
256
6
ByLayer
370
13
48
1
60
0
100
AcDbEllipse
10
17.074248
20
5.869586
30
0
11
0.979582052979429
21
-0.301726209308138
31
0
210
0
220
0
230
-1
40
0.270086
41
1.98807590289635
42
2.11639244219742
0
ELLIPSE
5
19F
100
AcDbEntity
8
1
62
256
6
ByLayer
370
18
48
1
60
0
100
AcDbEllipse
10
20.437312
20
5
30
0
11
-2.44921270764234E-17
21
0.399999999999605
31
0
210
0
220
0
230
-1
40
0.087159
41
-2.46970144325292
42
-0.671891210336482
0
ELLIPSE
5
1A0
100
AcDbEntity
8
1
62
256
6
ByLayer
370
18
48
1
60
0
100
AcDbEllipse
10
19.895033
20
5
30
0
11
0.836314415911235
21
8.45212011048289E-16
31
0
210
0
220
0
230
-1
40
0.478289
41
0.898905116456959
42
-0.898905116457004
0
ELLIPSE
5
1A1
100
AcDbEntity
8
1
62
256
6
ByLayer
370
18
48
1
60
0
100
AcDbEllipse
10
24.581337
20
4.023913
30
0
11
0.239998276225084
21
-0.0147981977522489
31
0
210
0
220
0
230
-1
40
0.061458
41
1.4451284796155
42
1.7411231852067
0
ELLIPSE
5
1A2
100
AcDbEntity
8
1
62
256
6
ByLayer
370
18
48
1
60
0
100
AcDbEllipse
10
22.048461
20
4.333076
30
0
11
0.057752929499109
21
0.191891975732293
31
0
210
-1.59650527093405E-15
220
-7.67208394159938E-18
230
1
40
0.998032
41
2.91077570167875
42
-2.91077570167872
0
ELLIPSE
5
1A3
100
AcDbEntity
8
1
62
256
6
ByLayer
370
18
48
1
60
0
100
AcDbEllipse
10
21.82387
20
6
30
0
11
0.201490790302156
21
0
31
0
210
0
220
0
230
1
40
0.992601
41
-1.5707963267949
42
-1.04397591016874
0
ELLIPSE
5
1A4
100
AcDbEntity
8
1
62
256
6
ByLayer
370
18
48
1
60
0
100
AcDbEllipse
10
24.581337
20
5.976087
30
0
11
0.239998276549448
21
0.0147981977699887
31
0
210
0
220
0
230
-1
40
0.061458
41
-1.74112318512822
42
-1.44512847993903
0
ELLIPSE
5
1A5
100
AcDbEntity
8
1
62
256
6
ByLayer
370
18
48
1
60
0
100
AcDbEllipse
10
22.163726
20
4.143661
30
0
11
0.302024948149042
21
-0.0186199320925205
31
0
210
0
220
0
230
-1
40
0.060635
41
0.776166089233693
42
1.56278371217202
0
ELLIPSE
5
1A6
100
AcDbEntity
8
1
62
256
6
ByLayer
370
18
48
1
60
0
100
AcDbEllipse
10
22.048461
20
5.666924
30
0
11
0.0577529294991086
21
-0.191891975732293
31
0
210
-1.62972770132427E-15
220
-2.32673269882162E-18
230
1
40
0.998032
41
2.91077570167872
42
-2.91077570167875
0
ELLIPSE
5
1A7
100
AcDbEntity
8
1
62
256
6
ByLayer
370
18
48
1
60
0
100
AcDbEllipse
10
25.048748
20
4.496575
30
0
11
1.1330996904646E-16
21
0.4
31
0
210
0
220
0
230
1
40
0.121869
41
1.5707963267949
42
1.64009079051253
0
ELLIPSE
5
1A8
100
AcDbEntity
8
1
62
256
6
ByLayer
370
18
48
1
60
0
100
AcDbEllipse
10
22.163726
20
5.856339
30
0
11
0.3020249481472
21
0.0186199320923763
31
0
210
0
220
0
230
-1
40
0.060635
41
-1.56278371217276
42
-0.776166089228622
0
ELLIPSE
5
1A9
100
AcDbEntity
8
1
62
256
6
ByLayer
370
18
48
1
60
0
100
AcDbEllipse
10
21.82387
20
4
30
0
11
-0.201490790302156
21
2.46746902040712E-17
31
0
210
0
220
0
230
1
40
0.992601
41
-2.09761674342106
42
-1.5707963267949
0
ELLIPSE
5
1AA
100
AcDbEntity
8
1
62
256
6
ByLayer
370
18
48
1
60
0
100
AcDbEllipse
10
25.048748
20
5.503425
30
0
11
1.1330996904646E-16
21
0.4
31
0
210
0
220
0
230
1
40
0.121869
41
1.50150186307726
42
1.5707963267949
0
POINT
5
6C
100
AcDbEntity
8
81
62
256
6
ByLayer
370
18
48
1
60
0
100
AcDbPoint
10
25
20
6
30
0
39
0
210
0
220
0
230
1
50
360
0
POINT
5
6E
100
AcDbEntity
8
80
62
256
6
ByLayer
370
18
48
1
60
0
100
AcDbPoint
10
0
20
0
30
0
39
0
210
0
220
0
230
1
50
360
0
SPLINE
5
1AB
100
AcDbEntity
8
1
62
256
6
ByLayer
370
18
48
1
60
0
100
AcDbSpline
70
4
71
3
72
16
73
12
40
0
40
0
40
0
40
0
40
0.210930408817836
40
0.210930408817836
40
0.420913574028618
40
0.420913574028618
40
0.645153363842447
40
0.645153363842447
40
0.911675053812082
40
0.911675053812082
40
1
40
1
40
1
40
1
41
1
10
20.9453730134573
20
3.25000000000043
30
0
41
1
10
20.9453730134573
20
3.34578043150953
30
0
41
1
10
20.9596885388885
20
3.44290208056086
30
0
41
1
10
21.0126431751449
20
3.62250623920806
30
0
41
1
10
21.0517156011935
20
3.70744591879821
30
0
41
1
10
21.1495379305965
20
3.86290576708541
30
0
41
1
10
21.2104615894256
20
3.93398569583783
30
0
41
1
10
21.3553110388973
20
4.06425469057021
30
0
41
1
10
21.4430183060601
20
4.12035794808281
30
0
41
1
10
21.5634562951002
20
4.17477673514966
30
0
41
1
10
21.5938041655409
20
4.18670529203621
30
0
41
1
10
21.6245079528186
20
4.19709081135096
30
0
0
SPLINE
5
1AC
100
AcDbEntity
8
1
62
256
6
ByLayer
370
18
48
1
60
0
100
AcDbSpline
70
4
71
3
72
18
73
14
40
0
40
0
40
0
40
0
40
0.0038721827723068
40
0.0038721827723068
40
0.301909614475971
40
0.301909614475971
40
0.573851588923206
40
0.573851588923206
40
0.764246898786125
40
0.764246898786125
40
0.955935356673762
40
0.955935356673762
40
1
40
1
40
1
40
1
41
1
10
13.0853031931148
20
4.25000000000054
30
0
41
1
10
13.0840971729918
20
4.25000000000054
30
0
41
1
10
13.0828910214763
20
4.24999490820679
30
0
41
1
10
12.9888700254238
20
4.24920079812608
30
0
41
1
10
12.8952368983404
20
4.21754303333913
30
0
41
1
10
12.7328034699777
20
4.09837528445445
30
0
41
1
10
12.6598191670123
20
4.01359469589516
30
0
41
1
10
12.5592800554966
20
3.82956670846963
30
0
41
1
10
12.5236083552237
20
3.73991602183608
30
0
41
1
10
12.4716184438299
20
3.54462145059728
30
0
41
1
10
12.4547620930035
20
3.4358382102896
30
0
41
1
10
12.4483224339003
20
3.30125327279751
30
0
41
1
10
12.4477093723893
20
3.27561362605394
30
0
41
1
10
12.4477093723893
20
3.25000000000048
30
0
0
SPLINE
5
1AD
100
AcDbEntity
8
1
62
256
6
ByLayer
370
18
48
1
60
0
100
AcDbSpline
70
4
71
3
72
16
73
12
40
0
40
0
40
0
40
0
40
0.210930408817836
40
0.210930408817836
40
0.420913574028618
40
0.420913574028618
40
0.645153363842447
40
0.645153363842447
40
0.911675053812082
40
0.911675053812082
40
1
40
1
40
1
40
1
41
1
10
20.9453730134573
20
3.25000000000043
30
0
41
1
10
20.9453730134573
20
3.34578043150953
30
0
41
1
10
20.9596885388885
20
3.44290208056086
30
0
41
1
10
21.0126431751449
20
3.62250623920806
30
0
41
1
10
21.0517156011935
20
3.70744591879821
30
0
41
1
10
21.1495379305965
20
3.86290576708541
30
0
41
1
10
21.2104615894256
20
3.93398569583783
30
0
41
1
10
21.3553110388973
20
4.06425469057021
30
0
41
1
10
21.4430183060601
20
4.12035794808281
30
0
41
1
10
21.5634562951002
20
4.17477673514966
30
0
41
1
10
21.5938041655409
20
4.18670529203621
30
0
41
1
10
21.6245079528186
20
4.19709081135096
30
0
0
SPLINE
5
1AE
100
AcDbEntity
8
1
62
256
6
ByLayer
370
13
48
1
60
0
100
AcDbSpline
70
4
71
3
72
10
73
6
40
0
40
0
40
0
40
0
40
0.807289382551453
40
0.807289382551453
40
1
40
1
40
1
40
1
41
1
10
22.4262120963125
20
5.37602364728997
30
0
41
1
10
22.4302762008164
20
5.40827338339267
30
0
41
1
10
22.4269568435097
20
5.43741094383614
30
0
41
1
10
22.4156280417962
20
5.46763122432733
30
0
41
1
10
22.4131204986913
20
5.47328374634458
30
0
41
1
10
22.4102634152023
20
5.47864301426415
30
0
0
SPLINE
5
1AF
100
AcDbEntity
8
1
62
256
6
ByLayer
370
13
48
1
60
0
100
AcDbSpline
70
4
71
3
72
14
73
10
40
0
40
0
40
0
40
0
40
0.140335064029798
40
0.140335064029798
40
0.313324577863399
40
0.313324577863399
40
0.854437087129479
40
0.854437087129479
40
1
40
1
40
1
40
1
41
1
10
22.4102634152023
20
5.47864301426412
30
0
41
1
10
22.4115615907815
20
5.48003711222631
30
0
41
1
10
22.4130492807412
20
5.4813429898791
30
0
41
1
10
22.4164306495377
20
5.48386327402784
30
0
41
1
10
22.418387975026
20
5.48503492183187
30
0
41
1
10
22.4261757331449
20
5.48902862645522
30
0
41
1
10
22.4318897349344
20
5.4905519053905
30
0
41
1
10
22.4386571441607
20
5.49184195092192
30
0
41
1
10
22.4400859075475
20
5.49207471604998
30
0
41
1
10
22.441497419172
20
5.4922720357487
30
0
0
SPLINE
5
1B0
100
AcDbEntity
8
1
62
256
6
ByLayer
370
13
48
1
60
0
100
AcDbSpline
70
4
71
3
72
8
73
4
40
0
40
0
40
0
40
0
40
1
40
1
40
1
40
1
41
1
10
22.4414974191717
20
5.49227203574841
30
0
41
1
10
22.4434065060311
20
5.49253891307157
30
0
41
1
10
22.4452888609443
20
5.49274765450886
30
0
41
1
10
22.4471477503401
20
5.49291053580177
30
0
0
SPLINE
5
1B1
100
AcDbEntity
8
1
62
256
6
ByLayer
370
13
48
1
60
0
100
AcDbSpline
70
4
71
3
72
12
73
8
40
0
40
0
40
0
40
0
40
0.271863792020762
40
0.271863792020762
40
0.680333498425164
40
0.680333498425164
40
1
40
1
40
1
40
1
41
1
10
22.4471477503394
20
5.49291053580112
30
0
41
1
10
22.5254708389114
20
5.49977343251896
30
0
41
1
10
22.6132950984392
20
5.51219735217077
30
0
41
1
10
22.8465931614069
20
5.55200448973835
30
0
41
1
10
23.0026236458242
20
5.58432391740305
30
0
41
1
10
23.2875983266002
20
5.64847491014865
30
0
41
1
10
23.4183646565651
20
5.6826158859148
30
0
41
1
10
23.5495881472218
20
5.69865031829849
30
0
0
SPLINE
5
1B2
100
AcDbEntity
8
1
62
256
6
ByLayer
370
13
48
1
60
0
100
AcDbSpline
70
4
71
3
72
8
73
4
40
0
40
0
40
0
40
0
40
1
40
1
40
1
40
1
41
1
10
23.5495881472218
20
5.69865031829849
30
0
41
1
10
23.6417788954044
20
5.70991527025743
30
0
41
1
10
23.7354245830992
20
5.70761647058961
30
0
41
1
10
23.8283398883331
20
5.70490100037179
30
0
0
SPLINE
5
1B3
100
AcDbEntity
8
1
62
256
6
ByLayer
370
13
48
1
60
0
100
AcDbSpline
70
4
71
3
72
8
73
4
40
0
40
0
40
0
40
0
40
1
40
1
40
1
40
1
41
1
10
23.8283398883331
20
5.70490100037179
30
0
41
1
10
23.9522136636574
20
5.70128076206106
30
0
41
1
10
24.0768571353025
20
5.70979565849589
30
0
41
1
10
24.1982800289245
20
5.71513670628934
30
0
0
SPLINE
5
1B4
100
AcDbEntity
8
1
62
256
6
ByLayer
370
13
48
1
60
0
100
AcDbSpline
70
4
71
3
72
10
73
6
40
0
40
0
40
0
40
0
40
0.860053459941695
40
0.860053459941695
40
1
40
1
40
1
40
1
41
1
10
24.1982800289245
20
5.71513670628934
30
0
41
1
10
24.3321716826563
20
5.72102621938191
30
0
41
1
10
24.4692183325878
20
5.70958366409235
30
0
41
1
10
24.6209193574704
20
5.66841365488105
30
0
41
1
10
24.6422592203893
20
5.66208740031067
30
0
41
1
10
24.6636089363248
20
5.65580305439761
30
0
0
SPLINE
5
1B5
100
AcDbEntity
8
1
62
256
6
ByLayer
370
13
48
1
60
0
100
AcDbSpline
70
4
71
3
72
8
73
4
40
0
40
0
40
0
40
0
40
1
40
1
40
1
40
1
41
1
10
24.6636089363248
20
5.65580305439764
30
0
41
1
10
24.6827084170632
20
5.6440184752056
30
0
41
1
10
24.7017609506472
20
5.63215983084015
30
0
41
1
10
24.7207683583679
20
5.620231768134
30
0
0
SPLINE
5
1B6
100
AcDbEntity
8
1
62
256
6
ByLayer
370
13
48
1
60
0
100
AcDbSpline
70
4
71
3
72
10
73
6
40
0
40
0
40
0
40
0
40
0.776503433583243
40
0.776503433583243
40
1
40
1
40
1
40
1
41
1
10
24.7207683583679
20
5.620231768134
30
0
41
1
10
24.6774725026343
20
5.62193831465041
30
0
41
1
10
24.6344378625006
20
5.62322049736358
30
0
41
1
10
24.5776224808541
20
5.62745621869547
30
0
41
1
10
24.5648810790715
20
5.62825873729946
30
0
41
1
10
24.5521447262338
20
5.62882757604763
30
0
0
SPLINE
5
1B7
100
AcDbEntity
8
1
62
256
6
ByLayer
370
13
48
1
60
0
100
AcDbSpline
70
4
71
3
72
10
73
6
40
0
40
0
40
0
40
0
40
0.802218039223748
40
0.802218039223748
40
1
40
1
40
1
40
1
41
1
10
24.5521447262338
20
5.62882757604763
30
0
41
1
10
24.4127836505348
20
5.63505180529577
30
0
41
1
10
24.2644549248777
20
5.64071631237957
30
0
41
1
10
24.0792703339537
20
5.6479206677343
30
0
41
1
10
24.0422443273126
20
5.6493561988228
30
0
41
1
10
24.0052430294062
20
5.65066632923683
30
0
0
SPLINE
5
1B8
100
AcDbEntity
8
1
62
256
6
ByLayer
370
13
48
1
60
0
100
AcDbSpline
70
4
71
3
72
16
73
12
40
0
40
0
40
0
40
0
40
0.0308303102605419
40
0.0308303102605419
40
0.572662020821238
40
0.572662020821238
40
0.596525876635503
40
0.596525876635503
40
0.811742896024901
40
0.811742896024901
40
1
40
1
40
1
40
1
41
1
10
24.0052430294062
20
5.65066632923683
30
0
41
1
10
23.9993536372725
20
5.65087485899636
30
0
41
1
10
23.9934642432981
20
5.65108352215438
30
0
41
1
10
23.884075321957
20
5.65496209104373
30
0
41
1
10
23.7804680881193
20
5.658111168951
30
0
41
1
10
23.6725520075114
20
5.6631688400588
30
0
41
1
10
23.6679952849823
20
5.66335472240038
30
0
41
1
10
23.6223626957531
20
5.66495365662573
30
0
41
1
10
23.5811924961802
20
5.66454559295266
30
0
41
1
10
23.5042684809455
20
5.66189619430705
30
0
41
1
10
23.4684207998393
20
5.65978292286789
30
0
41
1
10
23.4328798390933
20
5.65521488872432
30
0
0
SPLINE
5
1B9
100
AcDbEntity
8
1
62
256
6
ByLayer
370
13
48
1
60
0
100
AcDbSpline
70
4
71
3
72
12
73
8
40
0
40
0
40
0
40
0
40
0.491351269778757
40
0.491351269778757
40
0.753050934981407
40
0.753050934981407
40
1
40
1
40
1
40
1
41
1
10
23.4328798390933
20
5.65521488872432
30
0
41
1
10
23.3879752829179
20
5.64944336365841
30
0
41
1
10
23.3433932389101
20
5.64158486370491
30
0
41
1
10
23.2762335559799
20
5.62561959723388
30
0
41
1
10
23.253137166922
20
5.61852725902489
30
0
41
1
10
23.2083199167815
20
5.60518039924696
30
0
41
1
10
23.1865899596688
20
5.59880832408905
30
0
41
1
10
23.1649336450021
20
5.59244673011691
30
0
0
SPLINE
5
1BA
100
AcDbEntity
8
1
62
256
6
ByLayer
370
13
48
1
60
0
100
AcDbSpline
70
4
71
3
72
12
73
8
40
0
40
0
40
0
40
0
40
0.244915547318589
40
0.244915547318589
40
0.864563982028735
40
0.864563982028735
40
1
40
1
40
1
40
1
41
1
10
23.1649336450021
20
5.59244673011691
30
0
41
1
10
23.0994204230127
20
5.57320206524582
30
0
41
1
10
23.0343929566216
20
5.5541271200118
30
0
41
1
10
22.8105405998204
20
5.48855933736851
30
0
41
1
10
22.6555221571247
20
5.443363985579
30
0
41
1
10
22.4855701545792
20
5.39349633818483
30
0
41
1
10
22.4555057237629
20
5.38465815002562
30
0
41
1
10
22.4262120963125
20
5.37602364729
30
0
0
SPLINE
5
1BB
100
AcDbEntity
8
1
62
256
6
ByLayer
370
13
48
1
60
0
100
AcDbSpline
70
4
71
3
72
8
73
4
40
0
40
0
40
0
40
0
40
1
40
1
40
1
40
1
41
1
10
22.4471477503394
20
4.50708946419917
30
0
41
1
10
22.4452888609435
20
4.50725234549211
30
0
41
1
10
22.4434065060322
20
4.50746108692778
30
0
41
1
10
22.4414974191728
20
4.5077279642509
30
0
0
SPLINE
5
1BC
100
AcDbEntity
8
1
62
256
6
ByLayer
370
13
48
1
60
0
100
AcDbSpline
70
4
71
3
72
14
73
10
40
0
40
0
40
0
40
0
40
0.538704325353333
40
0.538704325353333
40
0.684467013462083
40
0.684467013462083
40
0.858675811811913
40
0.858675811811913
40
1
40
1
40
1
40
1
41
1
10
22.4414974191717
20
4.50772796425187
30
0
41
1
10
22.436304109803
20
4.50845395348375
30
0
41
1
10
22.4308274196762
20
4.50960410190041
30
0
41
1
10
22.4235066860402
20
4.51245717488436
30
0
41
1
10
22.4219066564684
20
4.51316063404852
30
0
41
1
10
22.4183879750259
20
4.51496507816847
30
0
41
1
10
22.4164306495377
20
4.51613672597253
30
0
41
1
10
22.4130492807491
20
4.51865701011533
30
0
41
1
10
22.4115615907703
20
4.51996288771889
30
0
41
1
10
22.4102634151937
20
4.52135698567122
30
0
0
SPLINE
5
1BD
100
AcDbEntity
8
1
62
256
6
ByLayer
370
13
48
1
60
0
100
AcDbSpline
70
4
71
3
72
10
73
6
40
0
40
0
40
0
40
0
40
0.429405505457208
40
0.429405505457208
40
1
40
1
40
1
40
1
41
1
10
22.4102634152023
20
4.52135698573616
30
0
41
1
10
22.416591143752
20
4.53322642978651
30
0
41
1
10
22.4213513498927
20
4.54645078946555
30
0
41
1
10
22.428338741334
20
4.57980136455143
30
0
41
1
10
22.4290939581085
20
4.60110802284345
30
0
41
1
10
22.4262120963125
20
4.62397635271032
30
0
0
SPLINE
5
1BE
100
AcDbEntity
8
1
62
256
6
ByLayer
370
13
48
1
60
0
100
AcDbSpline
70
4
71
3
72
12
73
8
40
0
40
0
40
0
40
0
40
0.244915547318584
40
0.244915547318584
40
0.864563982028716
40
0.864563982028716
40
1
40
1
40
1
40
1
41
1
10
23.1649336450021
20
4.40755326988341
30
0
41
1
10
23.0994204230127
20
4.42679793475449
30
0
41
1
10
23.0343929566216
20
4.44587287998851
30
0
41
1
10
22.8105405998204
20
4.5114406626318
30
0
41
1
10
22.6555221571247
20
4.55663601442129
30
0
41
1
10
22.4855701545792
20
4.60650366181548
30
0
41
1
10
22.4555057237629
20
4.6153418499747
30
0
41
1
10
22.4262120963125
20
4.62397635271032
30
0
0
SPLINE
5
1BF
100
AcDbEntity
8
1
62
256
6
ByLayer
370
13
48
1
60
0
100
AcDbSpline
70
4
71
3
72
12
73
8
40
0
40
0
40
0
40
0
40
0.491351269778757
40
0.491351269778757
40
0.753050934981407
40
0.753050934981407
40
1
40
1
40
1
40
1
41
1
10
23.4328798390933
20
4.344785111276
30
0
41
1
10
23.3879752829179
20
4.35055663634188
30
0
41
1
10
23.3433932389101
20
4.35841513629541
30
0
41
1
10
23.2762335559799
20
4.3743804027664
30
0
41
1
10
23.253137166922
20
4.38147274097542
30
0
41
1
10
23.2083199167815
20
4.39481960075335
30
0
41
1
10
23.1865899596688
20
4.40119167591126
30
0
41
1
10
23.1649336450021
20
4.40755326988341
30
0
0
SPLINE
5
1C0
100
AcDbEntity
8
1
62
256
6
ByLayer
370
13
48
1
60
0
100
AcDbSpline
70
4
71
3
72
16
73
12
40
0
40
0
40
0
40
0
40
0.0308303102605419
40
0.0308303102605419
40
0.572662020821238
40
0.572662020821238
40
0.596525876635503
40
0.596525876635503
40
0.811742896024901
40
0.811742896024901
40
1
40
1
40
1
40
1
41
1
10
24.0052430294062
20
4.34933367076346
30
0
41
1
10
23.9993536372725
20
4.34912514100392
30
0
41
1
10
23.9934642432981
20
4.34891647784593
30
0
41
1
10
23.884075321957
20
4.34503790895658
30
0
41
1
10
23.7804680881193
20
4.34188883104929
30
0
41
1
10
23.6725520075114
20
4.33683115994151
30
0
41
1
10
23.6679952849823
20
4.33664527759993
30
0
41
1
10
23.6223626957531
20
4.33504634337456
30
0
41
1
10
23.5811924961802
20
4.33545440704765
30
0
41
1
10
23.5042684809455
20
4.33810380569324
30
0
41
1
10
23.4684207998393
20
4.34021707713239
30
0
41
1
10
23.4328798390933
20
4.34478511127597
30
0
0
SPLINE
5
1C1
100
AcDbEntity
8
1
62
256
6
ByLayer
370
13
48
1
60
0
100
AcDbSpline
70
4
71
3
72
10
73
6
40
0
40
0
40
0
40
0
40
0.802218039223748
40
0.802218039223748
40
1
40
1
40
1
40
1
41
1
10
24.5521447262338
20
4.37117242395266
30
0
41
1
10
24.4127836505348
20
4.36494819470454
30
0
41
1
10
24.2644549248777
20
4.35928368762075
30
0
41
1
10
24.0792703339537
20
4.35207933226599
30
0
41
1
10
24.0422443273126
20
4.35064380117748
30
0
41
1
10
24.0052430294062
20
4.34933367076346
30
0
0
SPLINE
5
1C2
100
AcDbEntity
8
1
62
256
6
ByLayer
370
13
48
1
60
0
100
AcDbSpline
70
4
71
3
72
10
73
6
40
0
40
0
40
0
40
0
40
0.776503433583243
40
0.776503433583243
40
1
40
1
40
1
40
1
41
1
10
24.7207683583679
20
4.37976823186628
30
0
41
1
10
24.6774725026343
20
4.3780616853499
30
0
41
1
10
24.6344378625006
20
4.37677950263671
30
0
41
1
10
24.5776224808541
20
4.37254378130484
30
0
41
1
10
24.5648810790715
20
4.37174126270085
30
0
41
1
10
24.5521447262338
20
4.37117242395266
30
0
0
SPLINE
5
1C3
100
AcDbEntity
8
1
62
256
6
ByLayer
370
13
48
1
60
0
100
AcDbSpline
70
4
71
3
72
8
73
4
40
0
40
0
40
0
40
0
40
1
40
1
40
1
40
1
41
1
10
24.6636089363248
20
4.34419694560268
30
0
41
1
10
24.6827084170632
20
4.35598152479471
30
0
41
1
10
24.7017609506472
20
4.36784016916013
30
0
41
1
10
24.7207683583679
20
4.37976823186628
30
0
0
SPLINE
5
1C4
100
AcDbEntity
8
1
62
256
6
ByLayer
370
13
48
1
60
0
100
AcDbSpline
70
4
71
3
72
10
73
6
40
0
40
0
40
0
40
0
40
0.860053459941695
40
0.860053459941695
40
1
40
1
40
1
40
1
41
1
10
24.1982800289245
20
4.28486329371097
30
0
41
1
10
24.3321716826563
20
4.2789737806184
30
0
41
1
10
24.4692183325878
20
4.29041633590793
30
0
41
1
10
24.6209193574704
20
4.33158634511926
30
0
41
1
10
24.6422592203893
20
4.33791259968962
30
0
41
1
10
24.6636089363248
20
4.34419694560268
30
0
0
SPLINE
5
1C5
100
AcDbEntity
8
1
62
256
6
ByLayer
370
13
48
1
60
0
100
AcDbSpline
70
4
71
3
72
8
73
4
40
0
40
0
40
0
40
0
40
1
40
1
40
1
40
1
41
1
10
23.8283398883331
20
4.29509899962849
30
0
41
1
10
23.9522136636574
20
4.29871923793925
30
0
41
1
10
24.0768571353025
20
4.29020434150439
30
0
41
1
10
24.1982800289245
20
4.28486329371097
30
0
0
SPLINE
5
1C6
100
AcDbEntity
8
1
62
256
6
ByLayer
370
13
48
1
60
0
100
AcDbSpline
70
4
71
3
72
8
73
4
40
0
40
0
40
0
40
0
40
1
40
1
40
1
40
1
41
1
10
23.5495881472218
20
4.30134968170182
30
0
41
1
10
23.6417788954044
20
4.29008472974289
30
0
41
1
10
23.7354245830992
20
4.2923835294107
30
0
41
1
10
23.8283398883331
20
4.29509899962849
30
0
0
SPLINE
5
1C7
100
AcDbEntity
8
1
62
256
6
ByLayer
370
13
48
1
60
0
100
AcDbSpline
70
4
71
3
72
12
73
8
40
0
40
0
40
0
40
0
40
0.271863792020766
40
0.271863792020766
40
0.680333498425166
40
0.680333498425166
40
1
40
1
40
1
40
1
41
1
10
22.4471477503394
20
4.50708946419917
30
0
41
1
10
22.5254708389114
20
4.50022656748135
30
0
41
1
10
22.6132950984392
20
4.48780264782954
30
0
41
1
10
22.8465931614069
20
4.44799551026196
30
0
41
1
10
23.0026236458242
20
4.41567608259723
30
0
41
1
10
23.2875983266002
20
4.35152508985166
30
0
41
1
10
23.4183646565651
20
4.31738411408551
30
0
41
1
10
23.5495881472218
20
4.30134968170182
30
0
0
SPLINE
5
1C8
100
AcDbEntity
8
1
62
256
6
ByLayer
370
13
48
1
60
0
100
AcDbSpline
70
4
71
3
72
18
73
14
40
0
40
0
40
0
40
0
40
0.447407316387175
40
0.447407316387175
40
0.605547053795674
40
0.605547053795674
40
0.784635535666972
40
0.784635535666972
40
0.885678387143329
40
0.885678387143329
40
0.977084410920521
40
0.977084410920521
40
1
40
1
40
1
40
1
41
1
10
21.4984332400776
20
5.3971827025369
30
0
41
1
10
21.5440476624861
20
5.41798640430477
30
0
41
1
10
21.5884120317077
20
5.4462496616411
30
0
41
1
10
21.6394879059807
20
5.49777745186506
30
0
41
1
10
21.6521556621418
20
5.51272854016932
30
0
41
1
10
21.6761327225129
20
5.547527445881
30
0
41
1
10
21.6872348583249
20
5.56807602663946
30
0
41
1
10
21.6999368895843
20
5.60272921699914
30
0
41
1
10
21.7036086002949
20
5.61589568766934
30
0
41
1
10
21.7083103046788
20
5.64153818748156
30
0
41
1
10
21.7095747514646
20
5.65407652117187
30
0
41
1
10
21.7097949440651
20
5.66974950223047
30
0
41
1
10
21.7097712271323
20
5.67290745580658
30
0
41
1
10
21.7096790521406
20
5.67606228943657
30
0
0
SPLINE
5
1C9
100
AcDbEntity
8
1
62
256
6
ByLayer
370
13
48
1
60
0
100
AcDbSpline
70
4
71
3
72
18
73
14
40
0
40
0
40
0
40
0
40
0.0976852199958056
40
0.0976852199958056
40
0.212989397473362
40
0.212989397473362
40
0.394159987615223
40
0.394159987615223
40
0.774111539176557
40
0.774111539176557
40
0.851520792185893
40
0.851520792185893
40
1
40
1
40
1
40
1
41
1
10
21.7096790521406
20
4.32393771056374
30
0
41
1
10
21.7100703037073
20
4.33732890896329
30
0
41
1
10
21.7092072189939
20
4.35083310459842
30
0
41
1
10
21.7048326306339
20
4.37944586836795
30
0
41
1
10
21.7008494527307
20
4.39461411725273
30
0
41
1
10
21.6875217769499
20
4.43138998501598
30
0
41
1
10
21.6762967783069
20
4.45223394750627
30
0
41
1
10
21.6367316649357
20
4.50965799756293
30
0
41
1
10
21.6023540549561
20
4.54063444562979
30
0
41
1
10
21.5587483922281
20
4.57005485576113
30
0
41
1
10
21.5511702800925
20
4.57483088073212
30
0
41
1
10
21.5287968496802
20
4.58804436319141
30
0
41
1
10
21.513730117624
20
4.59584073916139
30
0
41
1
10
21.4984332400879
20
4.60281729748223
30
0
0
SPLINE
5
1CA
100
AcDbEntity
8
1
62
256
6
ByLayer
370
13
48
1
60
0
100
AcDbSpline
70
4
71
3
72
12
73
8
40
0
40
0
40
0
40
0
40
0.167536140690989
40
0.167536140690989
40
0.701521703333122
40
0.701521703333122
40
1
40
1
40
1
40
1
41
1
10
22.2514801084145
20
5.3997616476619
30
0
41
1
10
22.2542826384415
20
5.3973856341193
30
0
41
1
10
22.256923133606
20
5.39488069303204
30
0
41
1
10
22.2670778771217
20
5.38389053150686
30
0
41
1
10
22.2728726221449
20
5.37398738261257
30
0
41
1
10
22.2767050040373
20
5.35635156265894
30
0
41
1
10
22.2770407186254
20
5.34949511375092
30
0
41
1
10
22.2762277573114
20
5.34234820759474
30
0
0
SPLINE
5
1CB
100
AcDbEntity
8
1
62
256
6
ByLayer
370
13
48
1
60
0
100
AcDbSpline
70
4
71
3
72
14
73
10
40
0
40
0
40
0
40
0
40
0.418540706662839
40
0.418540706662839
40
0.495635548088754
40
0.495635548088754
40
0.9192675759406
40
0.9192675759406
40
1
40
1
40
1
40
1
41
1
10
22.2762277573114
20
5.34234820759463
30
0
41
1
10
22.2729405983399
20
5.31345013300501
30
0
41
1
10
22.2733660154213
20
5.27895989182849
30
0
41
1
10
22.2796751136804
20
5.23517508342229
30
0
41
1
10
22.2808357853226
20
5.2281820025018
30
0
41
1
10
22.2893735192744
20
5.18282104090011
30
0
41
1
10
22.3018447500132
20
5.14161067966344
30
0
41
1
10
22.3226367698616
20
5.09394234249766
30
0
41
1
10
22.326193922031
20
5.08624510089317
30
0
41
1
10
22.3299358617497
20
5.07859732511403
30
0
0
SPLINE
5
1CC
100
AcDbEntity
8
1
62
256
6
ByLayer
370
13
48
1
60
0
100
AcDbSpline
70
4
71
3
72
14
73
10
40
0
40
0
40
0
40
0
40
0.335733568867722
40
0.335733568867722
40
0.507284823780995
40
0.507284823780995
40
0.847453801813234
40
0.847453801813234
40
1
40
1
40
1
40
1
41
1
10
22.3299358617497
20
5.07859732511406
30
0
41
1
10
22.337814020394
20
5.06249594577781
30
0
41
1
10
22.3439375481741
20
5.04498241277304
30
0
41
1
10
22.3485739754979
20
5.01767547098109
30
0
41
1
10
22.3493588445425
20
5.00817179467668
30
0
41
1
10
22.3491329115972
20
4.98021220513726
30
0
41
1
10
22.3455495425812
20
4.9615180281881
30
0
41
1
10
22.3367872446761
20
4.93642378552386
30
0
41
1
10
22.3335488022127
20
4.92878680200775
30
0
41
1
10
22.3299358617498
20
4.9214026748862
30
0
0
SPLINE
5
1CD
100
AcDbEntity
8
1
62
256
6
ByLayer
370
13
48
1
60
0
100
AcDbSpline
70
4
71
3
72
12
73
8
40
0
40
0
40
0
40
0
40
0.060976756616879
40
0.060976756616879
40
0.525861690105106
40
0.525861690105106
40
1
40
1
40
1
40
1
41
1
10
22.3299358617497
20
4.92140267488622
30
0
41
1
10
22.3271003220153
20
4.91560739924518
30
0
41
1
10
22.3243711082764
20
4.9097842705313
30
0
41
1
10
22.3021069872871
20
4.86017473989656
30
0
41
1
10
22.2884144324718
20
4.81464994277539
30
0
41
1
10
22.2735997997306
20
4.73035845086193
30
0
41
1
10
22.2725076756419
20
4.69035577736554
30
0
41
1
10
22.2762277573114
20
4.65765179240566
30
0
0
SPLINE
5
1CE
100
AcDbEntity
8
1
62
256
6
ByLayer
370
13
48
1
60
0
100
AcDbSpline
70
4
71
3
72
10
73
6
40
0
40
0
40
0
40
0
40
0.579743919086243
40
0.579743919086243
40
1
40
1
40
1
40
1
41
1
10
22.2762277573114
20
4.65765179240566
30
0
41
1
10
22.2777925092618
20
4.64389574380345
30
0
41
1
10
22.274921505156
20
4.63122245035251
30
0
41
1
10
22.2645276574484
20
4.61297636671378
30
0
41
1
10
22.2584959094317
20
4.60618642000139
30
0
41
1
10
22.2514801084147
20
4.60023835233821
30
0
0
SPLINE
5
1CF
100
AcDbEntity
8
1
62
256
6
ByLayer
370
13
48
1
60
0
100
AcDbSpline
70
4
71
3
72
8
73
4
40
0
40
0
40
0
40
0
40
1
40
1
40
1
40
1
41
1
10
21.1586453076088
20
4.70121397345531
30
0
41
1
10
21.1709068417096
20
4.70439837213809
30
0
41
1
10
21.1832654919602
20
4.70746022329573
30
0
41
1
10
21.1957009625836
20
4.7104019371784
30
0
0
SPLINE
5
1D0
100
AcDbEntity
8
1
62
256
6
ByLayer
370
13
48
1
60
0
100
AcDbSpline
70
4
71
3
72
10
73
6
40
0
40
0
40
0
40
0
40
0.333728436493078
40
0.333728436493078
40
1
40
1
40
1
40
1
41
1
10
21.1957009625832
20
4.71040193717971
30
0
41
1
10
21.1966662675297
20
4.71063028808399
30
0
41
1
10
21.1976317049565
20
4.71085861657744
30
0
41
1
10
21.2005249812794
20
4.71154272374284
30
0
41
1
10
21.2024532131263
20
4.71199843560683
30
0
41
1
10
21.204381960042
20
4.71245405802909
30
0
0
SPLINE
5
1D1
100
AcDbEntity
8
1
62
256
6
ByLayer
370
13
48
1
60
0
100
AcDbSpline
70
4
71
3
72
28
73
24
40
0
40
0
40
0
40
0
40
0.120400997037726
40
0.120400997037726
40
0.267193145137956
40
0.267193145137956
40
0.387937930337117
40
0.387937930337117
40
0.465259875154669
40
0.465259875154669
40
0.495901986784595
40
0.495901986784595
40
0.581704825079178
40
0.581704825079178
40
0.603681926078793
40
0.603681926078793
40
0.705282320663386
40
0.705282320663386
40
0.836662945425109
40
0.836662945425109
40
0.962212936191202
40
0.962212936191202
40
1
40
1
40
1
40
1
41
1
10
21.2043819600418
20
4.71245405803967
30
0
41
1
10
21.2386117615898
20
4.72054006713068
30
0
41
1
10
21.2717745161216
20
4.73156759623532
30
0
41
1
10
21.3403563386755
20
4.76346467881473
30
0
41
1
10
21.3755506139921
20
4.7863309713596
30
0
41
1
10
21.4293957511653
20
4.83910752385799
30
0
41
1
10
21.4505128568283
20
4.86789212108371
30
0
41
1
10
21.4742896735613
20
4.9212598363757
30
0
41
1
10
21.4810059815831
20
4.94419350869919
30
0
41
1
10
21.485458778987
20
4.97693202772925
30
0
41
1
10
21.4861866916511
20
4.98643115667341
30
0
41
1
10
21.4867918153238
20
5.02206289411686
30
0
41
1
10
21.4827627697971
20
5.04871935486594
30
0
41
1
10
21.473008547855
20
5.07955836654506
30
0
41
1
10
21.4707421946394
20
5.0858255544197
30
0
41
1
10
21.4568990508133
20
5.11987962840996
30
0
41
1
10
21.4406033083254
20
5.14534350876394
30
0
41
1
10
21.3970837039401
20
5.19540862105004
30
0
41
1
10
21.3674044337148
20
5.21860295382797
30
0
41
1
10
21.304685404423
20
5.25481856681623
30
0
41
1
10
21.2712334060984
20
5.26860982750654
30
0
41
1
10
21.2258807591636
20
5.28214936746255
30
0
41
1
10
21.215191249574
20
5.28499249410427
30
0
41
1
10
21.2043819600419
20
5.2875459419617
30
0
0
SPLINE
5
1D2
100
AcDbEntity
8
1
62
256
6
ByLayer
370
13
48
1
60
0
100
AcDbSpline
70
4
71
3
72
10
73
6
40
0
40
0
40
0
40
0
40
0.666271563875835
40
0.666271563875835
40
1
40
1
40
1
40
1
41
1
10
21.2043819600418
20
5.28754594196064
30
0
41
1
10
21.202453213125
20
5.28800156438316
30
0
41
1
10
21.2005249812773
20
5.28845727625796
30
0
41
1
10
21.1976317049544
20
5.28914138342336
30
0
41
1
10
21.1966662675286
20
5.28936971191723
30
0
41
1
10
21.1957009625832
20
5.28959806282126
30
0
0
SPLINE
5
1D3
100
AcDbEntity
8
1
62
256
6
ByLayer
370
13
48
1
60
0
100
AcDbSpline
70
4
71
3
72
8
73
4
40
0
40
0
40
0
40
0
40
1
40
1
40
1
40
1
41
1
10
21.1957009625832
20
5.2895980628206
30
0
41
1
10
21.1832654919591
20
5.29253977670345
30
0
41
1
10
21.170906841708
20
5.29560162786262
30
0
41
1
10
21.1586453076064
20
5.2987860265456
30
0
0
SPLINE
5
1D4
100
AcDbEntity
8
1
62
256
6
ByLayer
370
13
48
1
60
0
100
AcDbSpline
70
4
71
3
72
8
73
4
40
0
40
0
40
0
40
0
40
1
40
1
40
1
40
1
41
1
10
22.4731203716814
20
4.36152047093327
30
0
41
1
10
22.4745825957789
20
4.36243758836841
30
0
41
1
10
22.4760463384842
20
4.36335930844905
30
0
41
1
10
22.4775115598651
20
4.36428557231326
30
0
0
SPLINE
5
1D5
100
AcDbEntity
8
1
62
256
6
ByLayer
370
13
48
1
60
0
100
AcDbSpline
70
4
71
3
72
12
73
8
40
0
40
0
40
0
40
0
40
0.334418366090769
40
0.334418366090769
40
0.734677033774883
40
0.734677033774883
40
1
40
1
40
1
40
1
41
1
10
23.5337805434612
20
4.13596132736774
30
0
41
1
10
23.4022679617029
20
4.15003793624157
30
0
41
1
10
23.2723193598528
20
4.18420728001098
30
0
41
1
10
22.9995089617335
20
4.25558496497598
30
0
41
1
10
22.8541870739038
20
4.2914503671827
30
0
41
1
10
22.6350503526795
20
4.33828615984166
30
0
41
1
10
22.5522182729484
20
4.35385771409531
30
0
41
1
10
22.4775115598652
20
4.36428557231289
30
0
0
SPLINE
5
1D6
100
AcDbEntity
8
1
62
256
6
ByLayer
370
13
48
1
60
0
100
AcDbSpline
70
4
71
3
72
12
73
8
40
0
40
0
40
0
40
0
40
0.334418366090769
40
0.334418366090769
40
0.734677033774883
40
0.734677033774883
40
1
40
1
40
1
40
1
41
1
10
23.5337805434612
20
5.86403867263255
30
0
41
1
10
23.4022679617029
20
5.84996206375871
30
0
41
1
10
23.2723193598528
20
5.8157927199893
30
0
41
1
10
22.9995089617335
20
5.74441503502433
30
0
41
1
10
22.8541870739038
20
5.70854963281761
30
0
41
1
10
22.6350503526795
20
5.66171384015863
30
0
41
1
10
22.5522182729484
20
5.646142285905
30
0
41
1
10
22.4775115598653
20
5.63571442768739
30
0
0
SPLINE
5
1D7
100
AcDbEntity
8
1
62
256
6
ByLayer
370
13
48
1
60
0
100
AcDbSpline
70
4
71
3
72
8
73
4
40
0
40
0
40
0
40
0
40
1
40
1
40
1
40
1
41
1
10
22.4775115598653
20
5.63571442768739
30
0
41
1
10
22.4760463384844
20
5.63664069155161
30
0
41
1
10
22.4745825957789
20
5.63756241163188
30
0
41
1
10
22.4731203716814
20
5.63847952906701
30
0
0
SPLINE
5
1D8
100
AcDbEntity
8
1
62
256
6
ByLayer
370
13
48
1
60
0
100
AcDbSpline
70
4
71
3
72
18
73
14
40
0
40
0
40
0
40
0
40
0.0161194639884916
40
0.0161194639884916
40
0.0830400526233481
40
0.0830400526233481
40
0.164187348294867
40
0.164187348294867
40
0.329246171114526
40
0.329246171114526
40
0.49267383795864
40
0.49267383795864
40
1
40
1
40
1
40
1
41
1
10
21.6583760306418
20
5.67606228943657
30
0
41
1
10
21.6583760306418
20
5.67447808105982
30
0
41
1
10
21.6583070506514
20
5.67289226839063
30
0
41
1
10
21.6576154305964
20
5.66485498226521
30
0
41
1
10
21.6558959531471
20
5.6584492064006
30
0
41
1
10
21.6503990140808
20
5.64532837616164
30
0
41
1
10
21.6462332916851
20
5.63864068513053
30
0
41
1
10
21.632021466155
20
5.62023780499104
30
0
41
1
10
21.6201790807021
20
5.60993438422065
30
0
41
1
10
21.595503040914
20
5.59200652967999
30
0
41
1
10
21.5824167868289
20
5.58425298508266
30
0
41
1
10
21.5277159291731
20
5.55578235947885
30
0
41
1
10
21.4832430916057
20
5.54107998114605
30
0
41
1
10
21.4385371190036
20
5.52957693671581
30
0
0
SPLINE
5
1D9
100
AcDbEntity
8
1
62
256
6
ByLayer
370
13
48
1
60
0
100
AcDbSpline
70
4
71
3
72
16
73
12
40
0
40
0
40
0
40
0
40
0.17415962102223
40
0.17415962102223
40
0.671976092746537
40
0.671976092746537
40
0.83822694518602
40
0.83822694518602
40
0.929660782988591
40
0.929660782988591
40
1
40
1
40
1
40
1
41
1
10
21.4385371190036
20
4.4704230632845
30
0
41
1
10
21.453942214897
20
4.46645926399307
30
0
41
1
10
21.4692599827102
20
4.46207690892794
30
0
41
1
10
21.5274830378249
20
4.44333836718198
30
0
41
1
10
21.5706632046931
20
4.42604099957725
30
0
41
1
10
21.6203257985211
20
4.38995879464571
30
0
41
1
10
21.6323080918469
20
4.37951698988033
30
0
41
1
10
21.6471462242705
20
4.36010417808913
30
0
41
1
10
21.651743706976
20
4.35240109225777
30
0
41
1
10
21.6570278864054
20
4.33770211125042
30
0
41
1
10
21.6583760306417
20
4.3307790595826
30
0
41
1
10
21.6583760306418
20
4.32393771056374
30
0
0
SPLINE
5
1DA
100
AcDbEntity
8
1
62
256
6
ByLayer
370
13
48
1
60
0
100
AcDbSpline
70
4
71
3
72
8
73
4
40
0
40
0
40
0
40
0
40
1
40
1
40
1
40
1
41
1
10
20.7871982348828
20
4.27456207186484
30
0
41
1
10
20.8371072022262
20
4.3683165329924
30
0
41
1
10
20.8829751479404
20
4.46451900355919
30
0
41
1
10
20.9269486592887
20
4.56158060090286
30
0
0
SPLINE
5
1DB
100
AcDbEntity
8
1
62
256
6
ByLayer
370
13
48
1
60
0
100
AcDbSpline
70
4
71
3
72
8
73
4
40
0
40
0
40
0
40
0
40
1
40
1
40
1
40
1
41
1
10
20.9269486592887
20
4.56158060090286
30
0
41
1
10
20.9310517239117
20
4.57063718961044
30
0
41
1
10
20.9358959391856
20
4.57937474305976
30
0
41
1
10
20.9415296908639
20
4.58744588798695
30
0
0
SPLINE
5
1DC
100
AcDbEntity
8
1
62
256
6
ByLayer
370
13
48
1
60
0
100
AcDbSpline
70
4
71
3
72
10
73
6
40
0
40
0
40
0
40
0
40
0.607627674029775
40
0.607627674029775
40
1
40
1
40
1
40
1
41
1
10
20.9415296908639
20
4.58744588798686
30
0
41
1
10
20.9449483939528
20
4.59234366298094
30
0
41
1
10
20.9493450872492
20
4.59651079521723
30
0
41
1
10
20.9571218081436
20
4.60225675487965
30
0
41
1
10
20.9603603656148
20
4.60426909183965
30
0
41
1
10
20.9636781743631
20
4.60609259998597
30
0
0
SPLINE
5
1DD
100
AcDbEntity
8
1
62
256
6
ByLayer
370
13
48
1
60
0
100
AcDbSpline
70
4
71
3
72
8
73
4
40
0
40
0
40
0
40
0
40
1
40
1
40
1
40
1
41
1
10
20.963678174367
20
4.60609259998003
30
0
41
1
10
20.9740398294939
20
4.61178749199101
30
0
41
1
10
20.9856192161749
20
4.6152116946455
30
0
41
1
10
20.9971847075066
20
4.61680487323397
30
0
0
SPLINE
5
1DE
100
AcDbEntity
8
1
62
256
6
ByLayer
370
13
48
1
60
0
100
AcDbSpline
70
4
71
3
72
10
73
6
40
0
40
0
40
0
40
0
40
0.468522557911306
40
0.468522557911306
40
1
40
1
40
1
40
1
41
1
10
20.9971847075066
20
4.61680487323389
30
0
41
1
10
21.0125073622826
20
4.61891561153317
30
0
41
1
10
21.0281890938236
20
4.61919118815646
30
0
41
1
10
21.0608326130715
20
4.61511097895956
30
0
41
1
10
21.0781649337055
20
4.61005646948783
30
0
41
1
10
21.0936729304055
20
4.60161863127598
30
0
0
SPLINE
5
1DF
100
AcDbEntity
8
1
62
256
6
ByLayer
370
13
48
1
60
0
100
AcDbSpline
70
4
71
3
72
10
73
6
40
0
40
0
40
0
40
0
40
0.39285874077214
40
0.39285874077214
40
1
40
1
40
1
40
1
41
1
10
21.0936729304044
20
5.39838136872402
30
0
41
1
10
21.0821344359051
20
5.39210332058698
30
0
41
1
10
21.069596920594
20
5.38769630729192
30
0
41
1
10
21.0373718406939
20
5.38080459502467
30
0
41
1
10
21.0169301631213
20
5.38047513535471
30
0
41
1
10
20.9971847075165
20
5.38319512676316
30
0
0
SPLINE
5
1E0
100
AcDbEntity
8
1
62
256
6
ByLayer
370
13
48
1
60
0
100
AcDbSpline
70
4
71
3
72
10
73
6
40
0
40
0
40
0
40
0
40
0.0840681653027228
40
0.0840681653027228
40
1
40
1
40
1
40
1
41
1
10
20.9971847075161
20
5.38319512676466
30
0
41
1
10
20.9962010455789
20
5.38333062893147
30
0
41
1
10
20.9952188661862
20
5.38347897106524
30
0
41
1
10
20.9836819996079
20
5.38537946065924
30
0
41
1
10
20.9731694732704
20
5.38869086640372
30
0
41
1
10
20.9636781743698
20
5.39390740001872
30
0
0
SPLINE
5
1E1
100
AcDbEntity
8
1
62
256
6
ByLayer
370
13
48
1
60
0
100
AcDbSpline
70
4
71
3
72
10
73
6
40
0
40
0
40
0
40
0
40
0.300964641608717
40
0.300964641608717
40
1
40
1
40
1
40
1
41
1
10
20.9636781743711
20
5.3939074000275
30
0
41
1
10
20.9611279033247
20
5.39530906009341
30
0
41
1
10
20.9586265623859
20
5.39682140991241
30
0
41
1
10
20.9506729861664
20
5.40226899695676
30
0
41
1
10
20.9454582450927
20
5.40692590325605
30
0
41
1
10
20.9415296908643
20
5.41255411201311
30
0
0
SPLINE
5
1E2
100
AcDbEntity
8
1
62
256
6
ByLayer
370
13
48
1
60
0
100
AcDbSpline
70
4
71
3
72
8
73
4
40
0
40
0
40
0
40
0
40
1
40
1
40
1
40
1
41
1
10
20.9415296908642
20
5.41255411201297
30
0
41
1
10
20.9358959391855
20
5.42062525694064
30
0
41
1
10
20.9310517239112
20
5.42936281039056
30
0
41
1
10
20.9269486592881
20
5.43841939909873
30
0
0
SPLINE
5
1E3
100
AcDbEntity
8
1
62
256
6
ByLayer
370
13
48
1
60
0
100
AcDbSpline
70
4
71
3
72
8
73
4
40
0
40
0
40
0
40
0
40
1
40
1
40
1
40
1
41
1
10
20.9269486592881
20
5.43841939909873
30
0
41
1
10
20.88297514794
20
5.53548099644198
30
0
41
1
10
20.837107202226
20
5.63168346700832
30
0
41
1
10
20.7871982348828
20
5.72543792813548
30
0
0
SPLINE
5
1E4
100
AcDbEntity
8
1
62
256
6
ByLayer
370
13
48
1
60
0
100
AcDbSpline
70
4
71
3
72
12
73
8
40
0
40
0
40
0
40
0
40
0.597224160982647
40
0.597224160982647
40
0.806459478729557
40
0.806459478729557
40
1
40
1
40
1
40
1
41
1
10
22.4674054923344
20
5.62013615124116
30
0
41
1
10
22.4517404047312
20
5.59790556643614
30
0
41
1
10
22.4345712719748
20
5.57385998036043
30
0
41
1
10
22.4107775882301
20
5.54173531009985
30
0
41
1
10
22.404453368985
20
5.53330722741387
30
0
41
1
10
22.3922252793236
20
5.51728466460196
30
0
41
1
10
22.3863036863561
20
5.50964680265216
30
0
41
1
10
22.3803879305321
20
5.50216215554872
30
0
0
SPLINE
5
1E5
100
AcDbEntity
8
1
62
256
6
ByLayer
370
13
48
1
60
0
100
AcDbSpline
70
4
71
3
72
12
73
8
40
0
40
0
40
0
40
0
40
0.0216552127699091
40
0.0216552127699091
40
0.549266071356395
40
0.549266071356395
40
1
40
1
40
1
40
1
41
1
10
22.251480108414
20
5.39976164766139
30
0
41
1
10
22.2524880633972
20
5.40018786632683
30
0
41
1
10
22.2534955429719
20
5.40062163151586
30
0
41
1
10
22.2789531871476
20
5.41177663887112
30
0
41
1
10
22.3033813442807
20
5.42713938503769
30
0
41
1
10
22.3454052205907
20
5.46219636085058
30
0
41
1
10
22.3638645140883
20
5.48125663735152
30
0
41
1
10
22.3803879305349
20
5.50216215555236
30
0
0
SPLINE
5
1E6
100
AcDbEntity
8
1
62
256
6
ByLayer
370
13
48
1
60
0
100
AcDbSpline
70
4
71
3
72
12
73
8
40
0
40
0
40
0
40
0
40
0.365727906004492
40
0.365727906004492
40
0.978437105133119
40
0.978437105133119
40
1
40
1
40
1
40
1
41
1
10
22.3803879305321
20
4.49783784445154
30
0
41
1
10
22.3669233419134
20
4.51487331670614
30
0
41
1
10
22.3521983132535
20
4.53066893315554
30
0
41
1
10
22.3111353907574
20
4.56782739035177
30
0
41
1
10
22.2828055733672
20
4.58653535361213
30
0
41
1
10
22.2534955383431
20
4.59937836611701
30
0
41
1
10
22.2524880622417
20
4.59981213307933
30
0
41
1
10
22.2514801084146
20
4.60023835233838
30
0
0
SPLINE
5
1E7
100
AcDbEntity
8
1
62
256
6
ByLayer
370
13
48
1
60
0
100
AcDbSpline
70
4
71
3
72
12
73
8
40
0
40
0
40
0
40
0
40
0.597224160967102
40
0.597224160967102
40
0.806459478710096
40
0.806459478710096
40
1
40
1
40
1
40
1
41
1
10
22.4674054923344
20
4.37986384875916
30
0
41
1
10
22.4517404047311
20
4.4020944335642
30
0
41
1
10
22.4345712719747
20
4.42614001964
30
0
41
1
10
22.4107775882299
20
4.45826468990074
30
0
41
1
10
22.4044533689847
20
4.46669277258687
30
0
41
1
10
22.3922252793233
20
4.48271533539869
30
0
41
1
10
22.3863036863559
20
4.4903531973483
30
0
41
1
10
22.3803879305321
20
4.49783784445151
30
0
0
SPLINE
5
1E8
100
AcDbEntity
8
1
62
256
6
ByLayer
370
13
48
1
60
0
100
AcDbSpline
70
4
71
3
72
8
73
4
40
0
40
0
40
0
40
0
40
1
40
1
40
1
40
1
41
1
10
22.3803879305321
20
5.50216215554872
30
0
41
1
10
22.3917464413886
20
5.49275226732715
30
0
41
1
10
22.4018184386868
20
5.48482320005596
30
0
41
1
10
22.4102634151926
20
5.47864301424838
30
0
0
SPLINE
5
1E9
100
AcDbEntity
8
1
62
256
6
ByLayer
370
13
48
1
60
0
100
AcDbSpline
70
4
71
3
72
12
73
8
40
0
40
0
40
0
40
0
40
0.488366722420296
40
0.488366722420296
40
0.942436355362905
40
0.942436355362905
40
1
40
1
40
1
40
1
41
1
10
22.4262120963125
20
4.62397635271032
30
0
41
1
10
22.4283429607195
20
4.65285213503148
30
0
41
1
10
22.4319548858697
20
4.68946158998006
30
0
41
1
10
22.4453657154375
20
4.76789458463571
30
0
41
1
10
22.4548755278662
20
4.81022383760222
30
0
41
1
10
22.4702301431231
20
4.85807620222326
30
0
41
1
10
22.4720501662501
20
4.86353988068518
30
0
41
1
10
22.4739430174867
20
4.86900445814359
30
0
0
SPLINE
5
1EA
100
AcDbEntity
8
1
62
256
6
ByLayer
370
13
48
1
60
0
100
AcDbSpline
70
4
71
3
72
12
73
8
40
0
40
0
40
0
40
0
40
0.037828268420456
40
0.037828268420456
40
0.727108891322556
40
0.727108891322556
40
1
40
1
40
1
40
1
41
1
10
22.4739430174867
20
4.86900445814359
30
0
41
1
10
22.4824023364264
20
4.86732648969664
30
0
41
1
10
22.4909189581296
20
4.86563055378605
30
0
41
1
10
22.6536057521076
20
4.83311046808845
30
0
41
1
10
22.8281123770015
20
4.79613133698913
30
0
41
1
10
23.0808681739289
20
4.74015326486949
30
0
41
1
10
23.1546315555727
20
4.72354574028054
30
0
41
1
10
23.2289221872924
20
4.70654810788915
30
0
0
SPLINE
5
1EB
100
AcDbEntity
8
1
62
256
6
ByLayer
370
13
48
1
60
0
100
AcDbSpline
70
4
71
3
72
24
73
20
40
0
40
0
40
0
40
0
40
0.0291918203657016
40
0.0291918203657016
40
0.136396538158131
40
0.136396538158131
40
0.265987867368488
40
0.265987867368488
40
0.377753358158994
40
0.377753358158994
40
0.50483938938664
40
0.50483938938664
40
0.632110922025969
40
0.632110922025969
40
0.762713398901978
40
0.762713398901978
40
0.901999958850298
40
0.901999958850298
40
1
40
1
40
1
40
1
41
1
10
21.0817115471211
20
5.19733545036519
30
0
41
1
10
21.0860998093752
20
5.19555251808811
30
0
41
1
10
21.090300333935
20
5.19358964409966
30
0
41
1
10
21.108779374532
20
5.18380189411556
30
0
41
1
10
21.1208255768154
20
5.17398723060367
30
0
41
1
10
21.1430843368215
20
5.14907661537089
30
0
41
1
10
21.1527903934534
20
5.13288922969335
30
0
41
1
10
21.166954912446
20
5.09905596630662
30
0
41
1
10
21.17204803846
20
5.08156799349317
30
0
41
1
10
21.1794867440361
20
5.04225015590671
30
0
41
1
10
21.181458605176
20
5.01951309527198
30
0
41
1
10
21.1811100662915
20
4.97485266814425
30
0
41
1
10
21.1787796342844
20
4.95223700430202
30
0
41
1
10
21.1700744334302
20
4.91035344404446
30
0
41
1
10
21.1634978563533
20
4.89052524549024
30
0
41
1
10
21.1457369932043
20
4.85483328676548
30
0
41
1
10
21.1340799608659
20
4.83872544632319
30
0
41
1
10
21.108701419119
20
4.81647953976832
30
0
41
1
10
21.0962344198634
20
4.80856513101989
30
0
41
1
10
21.0817115471211
20
4.8026645496351
30
0
0
SPLINE
5
1EC
100
AcDbEntity
8
1
62
256
6
ByLayer
370
13
48
1
60
0
100
AcDbSpline
70
4
71
3
72
12
73
8
40
0
40
0
40
0
40
0
40
0.365724954919257
40
0.365724954919257
40
0.979118069631435
40
0.979118069631435
40
1
40
1
40
1
40
1
41
1
10
22.4102634152023
20
4.52135698573616
30
0
41
1
10
22.3937361056157
20
4.53602435493599
30
0
41
1
10
22.3756371518841
20
4.54919685392915
30
0
41
1
10
22.3250623637126
20
4.57895501315221
30
0
41
1
10
22.2900751797185
20
4.59244432336678
30
0
41
1
10
22.2538899332389
20
4.59977232425459
30
0
41
1
10
22.2526851799038
20
4.60000880225365
30
0
41
1
10
22.2514801084145
20
4.60023835233829
30
0
0
SPLINE
5
1ED
100
AcDbEntity
8
1
62
256
6
ByLayer
370
13
48
1
60
0
100
AcDbSpline
70
4
71
3
72
12
73
8
40
0
40
0
40
0
40
0
40
0.0209717280275962
40
0.0209717280275962
40
0.549261945584352
40
0.549261945584352
40
1
40
1
40
1
40
1
41
1
10
22.2514801084148
20
5.39976164766179
30
0
41
1
10
22.2526851798995
20
5.39999119775234
30
0
41
1
10
22.2538899332219
20
5.40022767576963
30
0
41
1
10
22.2853191773472
20
5.40659252180242
30
0
41
1
10
22.3154975045281
20
5.41744413606614
30
0
41
1
10
22.3672856302101
20
5.44488086161036
30
0
41
1
10
22.3899815347171
20
5.46064360379819
30
0
41
1
10
22.4102634152025
20
5.47864301426387
30
0
0
SPLINE
5
1EE
100
AcDbEntity
8
1
62
256
6
ByLayer
370
13
48
1
60
0
100
AcDbSpline
70
4
71
3
72
12
73
8
40
0
40
0
40
0
40
0
40
0.49164663932398
40
0.49164663932398
40
0.875373657848572
40
0.875373657848572
40
1
40
1
40
1
40
1
41
1
10
22.4739430174867
20
5.13099554185669
30
0
41
1
10
22.4580682635103
20
5.17682525158767
30
0
41
1
10
22.4471504774152
20
5.22316701216181
30
0
41
1
10
22.4341440987431
20
5.29672594206951
30
0
41
1
10
22.430526825236
20
5.32668663880537
30
0
41
1
10
22.4274054244723
20
5.36060496448053
30
0
41
1
10
22.4267634910172
20
5.36855158411669
30
0
41
1
10
22.4262120963126
20
5.37602364729005
30
0
0
SPLINE
5
1EF
100
AcDbEntity
8
1
62
256
6
ByLayer
370
13
48
1
60
0
100
AcDbSpline
70
4
71
3
72
12
73
8
40
0
40
0
40
0
40
0
40
0.0378282684204534
40
0.0378282684204534
40
0.727108891322555
40
0.727108891322555
40
1
40
1
40
1
40
1
41
1
10
22.4739430174867
20
5.13099554185669
30
0
41
1
10
22.4824023364264
20
5.13267351030368
30
0
41
1
10
22.4909189581296
20
5.13436944621427
30
0
41
1
10
22.6536057521076
20
5.16688953191186
30
0
41
1
10
22.8281123770015
20
5.20386866301118
30
0
41
1
10
23.0808681739289
20
5.25984673513082
30
0
41
1
10
23.1546315555727
20
5.27645425971977
30
0
41
1
10
23.2289221872924
20
5.29345189211114
30
0
0
SPLINE
5
1F0
100
AcDbEntity
8
1
62
256
6
ByLayer
370
13
48
1
60
0
100
AcDbSpline
70
4
71
3
72
8
73
4
40
0
40
0
40
0
40
0
40
1
40
1
40
1
40
1
41
1
10
22.4775115598657
20
5.63571442768892
30
0
41
1
10
22.4742211632921
20
5.63058249659002
30
0
41
1
10
22.4708498814567
20
5.6253842052671
30
0
41
1
10
22.4674054923343
20
5.62013615124064
30
0
0
SPLINE
5
1F1
100
AcDbEntity
8
1
62
256
6
ByLayer
370
13
48
1
60
0
100
AcDbSpline
70
4
71
3
72
8
73
4
40
0
40
0
40
0
40
0
40
1
40
1
40
1
40
1
41
1
10
22.4775115598653
20
4.36428557231241
30
0
41
1
10
22.4742211632919
20
4.36941750341094
30
0
41
1
10
22.4708498814565
20
4.3746157947331
30
0
41
1
10
22.4674054923344
20
4.37986384875919
30
0
0
SPLINE
5
1F2
100
AcDbEntity
8
1
62
256
6
ByLayer
370
13
48
1
60
0
100
AcDbSpline
70
4
71
3
72
10
73
6
40
0
40
0
40
0
40
0
40
0.543977242056965
40
0.543977242056965
40
1
40
1
40
1
40
1
41
1
10
21.1586453076065
20
4.70121397345247
30
0
41
1
10
21.1348598955802
20
4.72020707568689
30
0
41
1
10
21.1082267241209
20
4.73436967800328
30
0
41
1
10
21.0582400099704
20
4.75001822475596
30
0
41
1
10
21.0345424108346
20
4.75336645569584
30
0
41
1
10
21.0112725012788
20
4.7529796356327
30
0
0
SPLINE
5
1F3
100
AcDbEntity
8
1
62
256
6
ByLayer
370
13
48
1
60
0
100
AcDbSpline
70
4
71
3
72
10
73
6
40
0
40
0
40
0
40
0
40
0.594671969867266
40
0.594671969867266
40
1
40
1
40
1
40
1
41
1
10
21.0112725012887
20
5.24702036436773
30
0
41
1
10
21.0414272134588
20
5.24651909694407
30
0
41
1
10
21.0724285425084
20
5.25237043009688
30
0
41
1
10
21.121404499001
20
5.27299737090507
30
0
41
1
10
21.1407983096893
20
5.2845348605077
30
0
41
1
10
21.1586453076066
20
5.29878602654338
30
0
0
SPLINE
5
1F4
100
AcDbEntity
8
1
62
256
6
ByLayer
370
13
48
1
60
0
100
AcDbSpline
70
4
71
3
72
10
73
6
40
0
40
0
40
0
40
0
40
0.441584000439074
40
0.441584000439074
40
1
40
1
40
1
40
1
41
1
10
20.9682618588516
20
5.24762203031543
30
0
41
1
10
20.9831578146862
20
5.2402108637551
30
0
41
1
10
20.9983157146139
20
5.23301479089514
30
0
41
1
10
21.0331615279671
20
5.21724550451287
30
0
41
1
10
21.0530007239137
20
5.20880549483422
30
0
41
1
10
21.0731579439906
20
5.20075565179945
30
0
0
SPLINE
5
1F5
100
AcDbEntity
8
1
62
256
6
ByLayer
370
13
48
1
60
0
100
AcDbSpline
70
4
71
3
72
10
73
6
40
0
40
0
40
0
40
0
40
0.317001517206847
40
0.317001517206847
40
1
40
1
40
1
40
1
41
1
10
21.0112725012775
20
5.24702036436912
30
0
41
1
10
21.0064777423953
20
5.24637879477174
30
0
41
1
10
21.001749086712
20
5.2459595095346
30
0
41
1
10
20.9870718822178
20
5.24534083733815
30
0
41
1
10
20.9773952454518
20
5.24596469294968
30
0
41
1
10
20.9682618588516
20
5.24762203031543
30
0
0
SPLINE
5
1F6
100
AcDbEntity
8
1
62
256
6
ByLayer
370
13
48
1
60
0
100
AcDbSpline
70
4
71
3
72
10
73
6
40
0
40
0
40
0
40
0
40
0.357650901073067
40
0.357650901073067
40
1
40
1
40
1
40
1
41
1
10
20.9682618588516
20
4.75237796968489
30
0
41
1
10
20.9730683572598
20
4.75325015321974
30
0
41
1
10
20.9780213367012
20
4.75383669394702
30
0
41
1
10
20.9921229263446
20
4.75466428627286
30
0
41
1
10
21.0015680505855
20
4.75427815359311
30
0
41
1
10
21.0112725012795
20
4.75297963563281
30
0
0
SPLINE
5
1F7
100
AcDbEntity
8
1
62
256
6
ByLayer
370
13
48
1
60
0
100
AcDbSpline
70
4
71
3
72
10
73
6
40
0
40
0
40
0
40
0
40
0.558477308496816
40
0.558477308496816
40
1
40
1
40
1
40
1
41
1
10
21.0731579439905
20
4.79924434820185
30
0
41
1
10
21.0529985124188
20
4.79119362200035
30
0
41
1
10
21.0331571738854
20
4.78275264297528
30
0
41
1
10
20.9983115077505
20
4.76698321205899
30
0
41
1
10
20.9831557478674
20
4.75978810794336
30
0
41
1
10
20.9682618588516
20
4.75237796968489
30
0
0
SPLINE
5
1F8
100
AcDbEntity
8
1
62
256
6
ByLayer
370
13
48
1
60
0
100
AcDbSpline
70
4
71
3
72
12
73
8
40
0
40
0
40
0
40
0
40
0.709988165001255
40
0.709988165001255
40
0.92220788847233
40
0.92220788847233
40
1
40
1
40
1
40
1
41
1
10
20.9327064157301
20
5.28300785026434
30
0
41
1
10
20.949201252382
20
5.27082260061084
30
0
41
1
10
20.9677573595242
20
5.26109267119401
30
0
41
1
10
20.9928332682202
20
5.25210794569057
30
0
41
1
10
20.9987365689449
20
5.2502680486856
30
0
41
1
10
21.0068788977592
20
5.24809048278527
30
0
41
1
10
21.0090724396468
20
5.2475389387769
30
0
41
1
10
21.0112725012799
20
5.24702036437535
30
0
0
SPLINE
5
1F9
100
AcDbEntity
8
1
62
256
6
ByLayer
370
13
48
1
60
0
100
AcDbSpline
70
4
71
3
72
10
73
6
40
0
40
0
40
0
40
0
40
0.735193443551149
40
0.735193443551149
40
1
40
1
40
1
40
1
41
1
10
21.0112725012795
20
4.75297963563179
30
0
41
1
10
20.9906991613073
20
4.74813031354751
30
0
41
1
10
20.9704915627687
20
4.74028534978461
30
0
41
1
10
20.9454099006125
20
4.72582105256492
30
0
41
1
10
20.9389206110604
20
4.7215827694321
30
0
41
1
10
20.9327064157472
20
4.71699214978278
30
0
0
SPLINE
5
1FA
100
AcDbEntity
8
1
62
256
6
ByLayer
370
13
48
1
60
0
100
AcDbSpline
70
4
71
3
72
10
73
6
40
0
40
0
40
0
40
0
40
0.333804371559252
40
0.333804371559252
40
1
40
1
40
1
40
1
41
1
10
21.0731579439905
20
5.20075565179846
30
0
41
1
10
21.0741089610471
20
5.20037511065308
30
0
41
1
10
21.075060222121
20
5.19999456304734
30
0
41
1
10
21.0779107035581
20
5.19885451340372
30
0
41
1
10
21.0798106484521
20
5.1980949926789
30
0
41
1
10
21.0817115471211
20
5.19733545036519
30
0
0
SPLINE
5
1FB
100
AcDbEntity
8
1
62
256
6
ByLayer
370
13
48
1
60
0
100
AcDbSpline
70
4
71
3
72
10
73
6
40
0
40
0
40
0
40
0
40
0.666195628071545
40
0.666195628071545
40
1
40
1
40
1
40
1
41
1
10
21.0817115471211
20
4.8026645496351
30
0
41
1
10
21.0798106484531
20
4.80190500732184
30
0
41
1
10
21.0779107035602
20
4.80114548659742
30
0
41
1
10
21.0750602221231
20
4.8000054369538
30
0
41
1
10
21.0741089610481
20
4.79962488934709
30
0
41
1
10
21.0731579439904
20
4.79924434820129
30
0
0
SPLINE
5
1FC
100
AcDbEntity
8
1
62
256
6
ByLayer
370
13
48
1
60
0
100
AcDbSpline
70
4
71
3
72
10
73
6
40
0
40
0
40
0
40
0
40
0.741839809293022
40
0.741839809293022
40
1
40
1
40
1
40
1
41
1
10
20.8775223795398
20
5.35069566244152
30
0
41
1
10
20.8872637205793
20
5.33134415138917
30
0
41
1
10
20.9004639767515
20
5.31349268770416
30
0
41
1
10
20.9211300943468
20
5.29286854471894
30
0
41
1
10
20.9267956571449
20
5.28778002523157
30
0
41
1
10
20.9327064157229
20
5.2830078502549
30
0
0
SPLINE
5
1FD
100
AcDbEntity
8
1
62
256
6
ByLayer
370
13
48
1
60
0
100
AcDbSpline
70
4
71
3
72
10
73
6
40
0
40
0
40
0
40
0
40
0.344098564729953
40
0.344098564729953
40
1
40
1
40
1
40
1
41
1
10
20.9327064157476
20
4.7169921497819
30
0
41
1
10
20.9248480305402
20
4.71064751757709
30
0
41
1
10
20.9174164333952
20
4.70373967535429
30
0
41
1
10
20.8974612534847
20
4.68237795283696
30
0
41
1
10
20.8861446779715
20
4.66643283174929
30
0
41
1
10
20.8775223795392
20
4.64930433755791
30
0
0
SPLINE
5
1FE
100
AcDbEntity
8
1
62
256
6
ByLayer
370
13
48
1
60
0
100
AcDbSpline
70
4
71
3
72
8
73
4
40
0
40
0
40
0
40
0
40
1
40
1
40
1
40
1
41
1
10
20.8484695777327
20
5.38896580230897
30
0
41
1
10
20.856844178597
20
5.37525642948151
30
0
41
1
10
20.8665807416807
20
5.36237056657077
30
0
41
1
10
20.8775223795411
20
5.35069566244266
30
0
0
SPLINE
5
1FF
100
AcDbEntity
8
1
62
256
6
ByLayer
370
13
48
1
60
0
100
AcDbSpline
70
4
71
3
72
8
73
4
40
0
40
0
40
0
40
0
40
1
40
1
40
1
40
1
41
1
10
20.8775223795389
20
4.64930433755808
30
0
41
1
10
20.866580741679
20
4.63762943343042
30
0
41
1
10
20.8568441785981
20
4.62474357051644
30
0
41
1
10
20.8484695777341
20
4.61103419768963
30
0
0
SPLINE
5
200
100
AcDbEntity
8
1
62
256
6
ByLayer
370
13
48
1
60
0
100
AcDbSpline
70
4
71
3
72
8
73
4
40
0
40
0
40
0
40
0
40
1
40
1
40
1
40
1
41
1
10
20.8484695777332
20
4.61103419769228
30
0
41
1
10
20.806994641852
20
4.51450719106714
30
0
41
1
10
20.7641587550012
20
4.41851015554781
30
0
41
1
10
20.7183319361237
20
4.32401566865425
30
0
0
SPLINE
5
201
100
AcDbEntity
8
1
62
256
6
ByLayer
370
13
48
1
60
0
100
AcDbSpline
70
4
71
3
72
8
73
4
40
0
40
0
40
0
40
0
40
1
40
1
40
1
40
1
41
1
10
20.7183319361237
20
5.67598433134606
30
0
41
1
10
20.764158755001
20
5.58148984445285
30
0
41
1
10
20.8069946418516
20
5.48549280893386
30
0
41
1
10
20.8484695777328
20
5.38896580230909
30
0
0
SPLINE
5
202
100
AcDbEntity
8
1
62
256
6
ByLayer
370
13
48
1
60
0
100
AcDbSpline
70
4
71
3
72
10
73
6
40
0
40
0
40
0
40
0
40
0.779724613001554
40
0.779724613001554
40
1
40
1
40
1
40
1
41
1
10
20.9487905068831
20
5.25102435555308
30
0
41
1
10
20.9522814951948
20
5.25102435555291
30
0
41
1
10
20.9570719807736
20
5.25036409064705
30
0
41
1
10
20.964621012228
20
5.24858762926138
30
0
41
1
10
20.9664035390181
20
5.24813142462546
30
0
41
1
10
20.9682618588516
20
5.24762203031543
30
0
0
SPLINE
5
203
100
AcDbEntity
8
1
62
256
6
ByLayer
370
13
48
1
60
0
100
AcDbSpline
70
4
71
3
72
8
73
4
40
0
40
0
40
0
40
0
40
1
40
1
40
1
40
1
41
1
10
20.8775223795398
20
5.35069566244167
30
0
41
1
10
20.8675268649006
20
5.35648771905471
30
0
41
1
10
20.8585032631411
20
5.36231849937272
30
0
41
1
10
20.8506142807835
20
5.36799788027787
30
0
0
SPLINE
5
204
100
AcDbEntity
8
1
62
256
6
ByLayer
370
13
48
1
60
0
100
AcDbSpline
70
4
71
3
72
8
73
4
40
0
40
0
40
0
40
0
40
1
40
1
40
1
40
1
41
1
10
20.8506142807802
20
4.6320021197204
30
0
41
1
10
20.8585032631377
20
4.63768150062549
30
0
41
1
10
20.8675268648999
20
4.64351228094515
30
0
41
1
10
20.877522379539
20
4.64930433755819
30
0
0
SPLINE
5
205
100
AcDbEntity
8
1
62
256
6
ByLayer
370
13
48
1
60
0
100
AcDbSpline
70
4
71
3
72
10
73
6
40
0
40
0
40
0
40
0
40
0.220275387008479
40
0.220275387008479
40
1
40
1
40
1
40
1
41
1
10
20.9682618588516
20
4.75237796968489
30
0
41
1
10
20.966403539018
20
4.7518685753748
30
0
41
1
10
20.9646210122277
20
4.75141237073882
30
0
41
1
10
20.9570719807734
20
4.74963590935329
30
0
41
1
10
20.9522814951945
20
4.74897564444734
30
0
41
1
10
20.9487905068828
20
4.74897564444723
30
0
0
SPLINE
5
206
100
AcDbEntity
8
1
62
256
6
ByLayer
370
13
48
1
60
0
100
AcDbSpline
70
4
71
3
72
10
73
6
40
0
40
0
40
0
40
0
40
0.491839191976824
40
0.491839191976824
40
1
40
1
40
1
40
1
41
1
10
22.4739430174867
20
4.86900445814359
30
0
41
1
10
22.4840171195627
20
4.9106011713084
30
0
41
1
10
22.489736079367
20
4.95440385520243
30
0
41
1
10
22.490089674138
20
5.0427325714019
30
0
41
1
10
22.4843433987004
20
5.08805159798064
30
0
41
1
10
22.4739430174867
20
5.13099554185669
30
0
0
SPLINE
5
207
100
AcDbEntity
8
1
62
256
6
ByLayer
370
13
48
1
60
0
100
AcDbSpline
70
4
71
3
72
8
73
4
40
0
40
0
40
0
40
0
40
1
40
1
40
1
40
1
41
1
10
20.848469577733
20
5.38896580231022
30
0
41
1
10
20.8491523507353
20
5.38203639644769
30
0
41
1
10
20.8498660198604
20
5.37504473107759
30
0
41
1
10
20.8506142807768
20
5.36799788028225
30
0
0
SPLINE
5
208
100
AcDbEntity
8
1
62
256
6
ByLayer
370
13
48
1
60
0
100
AcDbSpline
70
4
71
3
72
8
73
4
40
0
40
0
40
0
40
0
40
1
40
1
40
1
40
1
41
1
10
20.8506142807767
20
4.6320021197169
30
0
41
1
10
20.8498660198604
20
4.62495526892269
30
0
41
1
10
20.8491523507354
20
4.61796360355373
30
0
41
1
10
20.8484695777332
20
4.61103419769228
30
0
0
SPLINE
5
209
100
AcDbEntity
8
1
62
256
6
ByLayer
370
13
48
1
60
0
100
AcDbSpline
70
4
71
3
72
8
73
4
40
0
40
0
40
0
40
0
40
1
40
1
40
1
40
1
41
1
10
24.5397600217523
20
5.84385290031727
30
0
41
1
10
24.4220556485929
20
5.86832619055454
30
0
41
1
10
24.3008781086109
20
5.87775268068643
30
0
41
1
10
24.1810768987951
20
5.87481616366691
30
0
0
SPLINE
5
20A
100
AcDbEntity
8
1
62
256
6
ByLayer
370
13
48
1
60
0
100
AcDbSpline
70
4
71
3
72
16
73
12
40
0
40
0
40
0
40
0
40
0.565035752121982
40
0.565035752121982
40
0.802127499925977
40
0.802127499925977
40
0.909039374754918
40
0.909039374754918
40
0.963879000672096
40
0.963879000672096
40
1
40
1
40
1
40
1
41
1
10
24.5753143467793
20
5.76553588596028
30
0
41
1
10
24.5686286509488
20
5.77992845912692
30
0
41
1
10
24.5618879302625
20
5.79463383009733
30
0
41
1
10
24.5523712685777
20
5.81565620057046
30
0
41
1
10
24.5495577546969
20
5.82190441712669
30
0
41
1
10
24.5454904861867
20
5.83098604104708
30
0
41
1
10
24.5442279534699
20
5.83381199936275
30
0
41
1
10
24.5423215351282
20
5.83808980238106
30
0
41
1
10
24.5416757755847
20
5.83954066984671
30
0
41
1
10
24.5406068513424
20
5.84194538741983
30
0
41
1
10
24.5401828059207
20
5.8428988877765
30
0
41
1
10
24.5397600217523
20
5.84385290031727
30
0
0
SPLINE
5
20B
100
AcDbEntity
8
1
62
256
6
ByLayer
370
13
48
1
60
0
100
AcDbSpline
70
4
71
3
72
10
73
6
40
0
40
0
40
0
40
0
40
0.484066971714713
40
0.484066971714713
40
1
40
1
40
1
40
1
41
1
10
24.6636089363248
20
5.65580305439761
30
0
41
1
10
24.6463854867531
20
5.67066752353591
30
0
41
1
10
24.6300210449058
20
5.68672855837647
30
0
41
1
10
24.5997771424429
20
5.72282111294047
30
0
41
1
10
24.585689560494
20
5.74320073547105
30
0
41
1
10
24.5753143467793
20
5.76553588596028
30
0
0
SPLINE
5
20C
100
AcDbEntity
8
1
62
256
6
ByLayer
370
13
48
1
60
0
100
AcDbSpline
70
4
71
3
72
16
73
12
40
0
40
0
40
0
40
0
40
0.565035752121982
40
0.565035752121982
40
0.802127499925978
40
0.802127499925978
40
0.909039374754918
40
0.909039374754918
40
0.963879000672096
40
0.963879000672096
40
1
40
1
40
1
40
1
41
1
10
24.5753143467793
20
4.23446411404001
30
0
41
1
10
24.5686286509485
20
4.22007154087353
30
0
41
1
10
24.5618879302625
20
4.20536616990299
30
0
41
1
10
24.5523712685777
20
4.18434379942985
30
0
41
1
10
24.5495577546969
20
4.17809558287362
30
0
41
1
10
24.5454904861867
20
4.16901395895323
30
0
41
1
10
24.5442279534699
20
4.16618800063753
30
0
41
1
10
24.5423215351282
20
4.16191019761922
30
0
41
1
10
24.5416757755847
20
4.1604593301536
30
0
41
1
10
24.5406068513424
20
4.15805461258046
30
0
41
1
10
24.5401828059207
20
4.15710111222378
30
0
41
1
10
24.5397600217523
20
4.15614709968301
30
0
0
SPLINE
5
20D
100
AcDbEntity
8
1
62
256
6
ByLayer
370
13
48
1
60
0
100
AcDbSpline
70
4
71
3
72
8
73
4
40
0
40
0
40
0
40
0
40
1
40
1
40
1
40
1
41
1
10
24.5397600217523
20
4.15614709968304
30
0
41
1
10
24.4220556485929
20
4.13167380944577
30
0
41
1
10
24.3008781086109
20
4.12224731931386
30
0
41
1
10
24.1810768987951
20
4.12518383633341
30
0
0
SPLINE
5
20E
100
AcDbEntity
8
1
62
256
6
ByLayer
370
13
48
1
60
0
100
AcDbSpline
70
4
71
3
72
10
73
6
40
0
40
0
40
0
40
0
40
0.484066971714709
40
0.484066971714709
40
1
40
1
40
1
40
1
41
1
10
24.6636089363248
20
4.34419694560268
30
0
41
1
10
24.6463854867531
20
4.32933247646437
30
0
41
1
10
24.6300210449058
20
4.31327144162381
30
0
41
1
10
24.5997771424429
20
4.27717888705982
30
0
41
1
10
24.585689560494
20
4.25679926452924
30
0
41
1
10
24.5753143467793
20
4.23446411404001
30
0
0
SPLINE
5
20F
100
AcDbEntity
8
1
62
256
6
ByLayer
370
13
48
1
60
0
100
AcDbSpline
70
4
71
3
72
10
73
6
40
0
40
0
40
0
40
0
40
0.176628710800224
40
0.176628710800224
40
1
40
1
40
1
40
1
41
1
10
24.9256635776614
20
5.53112088729748
30
0
41
1
10
24.9183722025778
20
5.54210711800886
30
0
41
1
10
24.9104894309624
20
5.55271086992656
30
0
41
1
10
24.8638040682909
20
5.60976557532283
30
0
41
1
10
24.8154493527108
20
5.64869946679849
30
0
41
1
10
24.7642473322785
20
5.68086932054015
30
0
0
SPLINE
5
210
100
AcDbEntity
8
1
62
256
6
ByLayer
370
13
48
1
60
0
100
AcDbSpline
70
4
71
3
72
8
73
4
40
0
40
0
40
0
40
0
40
1
40
1
40
1
40
1
41
1
10
24.7642473322785
20
5.68086932054015
30
0
41
1
10
24.7451065349848
20
5.6928953430338
30
0
41
1
10
24.725925565824
20
5.70485756792939
30
0
41
1
10
24.7067026707551
20
5.71675169137387
30
0
0
SPLINE
5
211
100
AcDbEntity
8
1
62
256
6
ByLayer
370
13
48
1
60
0
100
AcDbSpline
70
4
71
3
72
10
73
6
40
0
40
0
40
0
40
0
40
0.502273026272322
40
0.502273026272322
40
1
40
1
40
1
40
1
41
1
10
24.7067026707552
20
5.71675169137387
30
0
41
1
10
24.6891255877275
20
5.72762747228913
30
0
41
1
10
24.6719685584501
20
5.73925206390382
30
0
41
1
10
24.6393998135679
20
5.76433772449755
30
0
41
1
10
24.6236090237987
20
5.77773551377726
30
0
41
1
10
24.6105155637419
20
5.79345377256877
30
0
0
SPLINE
5
212
100
AcDbEntity
8
1
62
256
6
ByLayer
370
13
48
1
60
0
100
AcDbSpline
70
4
71
3
72
10
73
6
40
0
40
0
40
0
40
0
40
0.502273026272322
40
0.502273026272322
40
1
40
1
40
1
40
1
41
1
10
24.7067026707552
20
4.28324830862641
30
0
41
1
10
24.6891255877275
20
4.27237252771118
30
0
41
1
10
24.6719685584501
20
4.26074793609646
30
0
41
1
10
24.6393998135679
20
4.23566227550276
30
0
41
1
10
24.6236090237987
20
4.22226448622303
30
0
41
1
10
24.6105155637419
20
4.20654622743152
30
0
0
SPLINE
5
213
100
AcDbEntity
8
1
62
256
6
ByLayer
370
13
48
1
60
0
100
AcDbSpline
70
4
71
3
72
8
73
4
40
0
40
0
40
0
40
0
40
1
40
1
40
1
40
1
41
1
10
24.7642473322785
20
4.31913067946016
30
0
41
1
10
24.7451065349848
20
4.30710465696649
30
0
41
1
10
24.725925565824
20
4.29514243207092
30
0
41
1
10
24.7067026707551
20
4.28324830862644
30
0
0
SPLINE
5
214
100
AcDbEntity
8
1
62
256
6
ByLayer
370
13
48
1
60
0
100
AcDbSpline
70
4
71
3
72
10
73
6
40
0
40
0
40
0
40
0
40
0.176628710800224
40
0.176628710800224
40
1
40
1
40
1
40
1
41
1
10
24.9256635776614
20
4.46887911270284
30
0
41
1
10
24.9183722025778
20
4.45789288199143
30
0
41
1
10
24.9104894309624
20
4.44728913007376
30
0
41
1
10
24.8638040682909
20
4.39023442467746
30
0
41
1
10
24.8154493527108
20
4.35130053320179
30
0
41
1
10
24.7642473322785
20
4.31913067946016
30
0
0
SPLINE
5
215
100
AcDbEntity
8
1
62
256
6
ByLayer
370
13
48
1
60
0
100
AcDbSpline
70
4
71
3
72
10
73
6
40
0
40
0
40
0
40
0
40
0.828685679108716
40
0.828685679108716
40
1
40
1
40
1
40
1
41
1
10
24.7207683583679
20
4.37976823186628
30
0
41
1
10
24.7686097493866
20
4.40512105855083
30
0
41
1
10
24.8147633392971
20
4.43592679239779
30
0
41
1
10
24.8604070337687
20
4.48282894495168
30
0
41
1
10
24.8679488590383
20
4.49133995857275
30
0
41
1
10
24.8749800271743
20
4.5002379501104
30
0
0
SPLINE
5
216
100
AcDbEntity
8
1
62
256
6
ByLayer
370
13
48
1
60
0
100
AcDbSpline
70
4
71
3
72
10
73
6
40
0
40
0
40
0
40
0
40
0.828685679108716
40
0.828685679108716
40
1
40
1
40
1
40
1
41
1
10
24.7207683583679
20
5.620231768134
30
0
41
1
10
24.7686097493866
20
5.59487894144945
30
0
41
1
10
24.8147633392971
20
5.56407320760252
30
0
41
1
10
24.8604070337687
20
5.51717105504864
30
0
41
1
10
24.8679488590383
20
5.50866004142753
30
0
41
1
10
24.8749800271743
20
5.49976204988988
30
0
0
SPLINE
5
217
100
AcDbEntity
8
1
62
256
6
ByLayer
370
13
48
1
60
0
100
AcDbSpline
70
4
71
3
72
12
73
8
40
0
40
0
40
0
40
0
40
0.0880792633922689
40
0.0880792633922689
40
0.576107189837383
40
0.576107189837383
40
1
40
1
40
1
40
1
41
1
10
24.6040818169429
20
4.64787095975126
30
0
41
1
10
24.6140661440235
20
4.64758157502862
30
0
41
1
10
24.6240551161812
20
4.6474392202837
30
0
41
1
10
24.6893799480028
20
4.64756539366223
30
0
41
1
10
24.7447000295702
20
4.64962439636622
30
0
41
1
10
24.8480735369365
20
4.65228068976322
30
0
41
1
10
24.8961214732615
20
4.65369674610781
30
0
41
1
10
24.9441651422481
20
4.65525959326112
30
0
0
SPLINE
5
218
100
AcDbEntity
8
1
62
256
6
ByLayer
370
13
48
1
60
0
100
AcDbSpline
70
4
71
3
72
10
73
6
40
0
40
0
40
0
40
0
40
0.595894712070617
40
0.595894712070617
40
1
40
1
40
1
40
1
41
1
10
24.896439687712
20
4.5280419591254
30
0
41
1
10
24.9128914645872
20
4.54980964960691
30
0
41
1
10
24.9267183907983
20
4.5742299013429
30
0
41
1
10
24.940810212682
20
4.6179010189137
30
0
41
1
10
24.9440390421827
20
4.63665955692355
30
0
41
1
10
24.9441651422481
20
4.65525959326112
30
0
0
SPLINE
5
219
100
AcDbEntity
8
1
62
256
6
ByLayer
370
13
48
1
60
0
100
AcDbSpline
70
4
71
3
72
8
73
4
40
0
40
0
40
0
40
0
40
1
40
1
40
1
40
1
41
1
10
24.8749800271743
20
4.5002379501104
30
0
41
1
10
24.882226373284
20
4.50940825085084
30
0
41
1
10
24.8893744966751
20
4.51869385692035
30
0
41
1
10
24.896439687712
20
4.5280419591254
30
0
0
SPLINE
5
21A
100
AcDbEntity
8
1
62
256
6
ByLayer
370
13
48
1
60
0
100
AcDbSpline
70
4
71
3
72
8
73
4
40
0
40
0
40
0
40
0
40
1
40
1
40
1
40
1
41
1
10
24.8749800271743
20
5.49976204988988
30
0
41
1
10
24.882226373284
20
5.49059174914944
30
0
41
1
10
24.8893744966751
20
5.48130614307993
30
0
41
1
10
24.896439687712
20
5.47195804087491
30
0
0
SPLINE
5
21B
100
AcDbEntity
8
1
62
256
6
ByLayer
370
13
48
1
60
0
100
AcDbSpline
70
4
71
3
72
10
73
6
40
0
40
0
40
0
40
0
40
0.595894712070617
40
0.595894712070617
40
1
40
1
40
1
40
1
41
1
10
24.896439687712
20
5.47195804087491
30
0
41
1
10
24.9128914645872
20
5.45019035039337
30
0
41
1
10
24.9267183907983
20
5.42577009865738
30
0
41
1
10
24.940810212682
20
5.38209898108661
30
0
41
1
10
24.9440390421827
20
5.36334044307676
30
0
41
1
10
24.9441651422481
20
5.34474040673916
30
0
0
SPLINE
5
21C
100
AcDbEntity
8
1
62
256
6
ByLayer
370
13
48
1
60
0
100
AcDbSpline
70
4
71
3
72
12
73
8
40
0
40
0
40
0
40
0
40
0.0880792633922689
40
0.0880792633922689
40
0.576107189837383
40
0.576107189837383
40
1
40
1
40
1
40
1
41
1
10
24.6040818169429
20
5.35212904024903
30
0
41
1
10
24.6140661440235
20
5.35241842497166
30
0
41
1
10
24.6240551161812
20
5.35256077971658
30
0
41
1
10
24.6893799480028
20
5.35243460633808
30
0
41
1
10
24.7447000295702
20
5.35037560363409
30
0
41
1
10
24.8480735369365
20
5.34771931023707
30
0
41
1
10
24.8961214732615
20
5.3463032538925
30
0
41
1
10
24.9441651422481
20
5.34474040673916
30
0
0
SPLINE
5
21D
100
AcDbEntity
8
1
62
256
6
ByLayer
370
13
48
1
60
0
100
AcDbSpline
70
4
71
3
72
16
73
12
40
0
40
0
40
0
40
0
40
0.550547840515593
40
0.550547840515593
40
0.792876062772848
40
0.792876062772848
40
0.904227776395907
40
0.904227776395907
40
0.964015152759446
40
0.964015152759446
40
1
40
1
40
1
40
1
41
1
10
24.610515563742
20
5.79345377256882
30
0
41
1
10
24.5975450008677
20
5.80249051936389
30
0
41
1
10
24.5844768135886
20
5.81170828269404
30
0
41
1
10
24.5657548110492
20
5.82507250823602
30
0
41
1
10
24.560032266874
20
5.8291789905538
30
0
41
1
10
24.5517104802333
20
5.83518269678234
30
0
41
1
10
24.5490936305623
20
5.83707526073553
30
0
41
1
10
24.5450796636702
20
5.83998549826339
30
0
41
1
10
24.5436787273479
20
5.84100257904458
30
0
41
1
10
24.5414390369606
20
5.84263079450866
30
0
41
1
10
24.5405990425507
20
5.84324156697471
30
0
41
1
10
24.5397600217523
20
5.84385290031733
30
0
0
SPLINE
5
21E
100
AcDbEntity
8
1
62
256
6
ByLayer
370
13
48
1
60
0
100
AcDbSpline
70
4
71
3
72
16
73
12
40
0
40
0
40
0
40
0
40
0.550547840515593
40
0.550547840515593
40
0.792876062772848
40
0.792876062772848
40
0.904227776395907
40
0.904227776395907
40
0.964015152759446
40
0.964015152759446
40
1
40
1
40
1
40
1
41
1
10
24.610515563742
20
4.20654622743146
30
0
41
1
10
24.5975450008677
20
4.1975094806364
30
0
41
1
10
24.5844768135886
20
4.18829171730627
30
0
41
1
10
24.5657548110492
20
4.17492749176429
30
0
41
1
10
24.560032266874
20
4.17082100944648
30
0
41
1
10
24.5517104802333
20
4.16481730321797
30
0
41
1
10
24.5490936305623
20
4.16292473926475
30
0
41
1
10
24.5450796636702
20
4.16001450173692
30
0
41
1
10
24.5436787273479
20
4.15899742095573
30
0
41
1
10
24.5414390369606
20
4.15736920549162
30
0
41
1
10
24.5405990425507
20
4.15675843302557
30
0
41
1
10
24.5397600217523
20
4.15614709968295
30
0
0
SPLINE
5
21F
100
AcDbEntity
8
1
62
256
6
ByLayer
370
13
48
1
60
0
100
AcDbSpline
70
4
71
3
72
8
73
4
40
0
40
0
40
0
40
0
40
1
40
1
40
1
40
1
41
1
10
24.1810768987951
20
4.12518383633341
30
0
41
1
10
24.0666740375911
20
4.12849186212765
30
0
41
1
10
23.9499584372937
20
4.13746616057213
30
0
41
1
10
23.8337805434613
20
4.13323822795013
30
0
0
SPLINE
5
220
100
AcDbEntity
8
1
62
256
6
ByLayer
370
13
48
1
60
0
100
AcDbSpline
70
4
71
3
72
8
73
4
40
0
40
0
40
0
40
0
40
1
40
1
40
1
40
1
41
1
10
24.1810768987951
20
5.87481616366691
30
0
41
1
10
24.0666740375911
20
5.87150813787267
30
0
41
1
10
23.9499584372937
20
5.86253383942815
30
0
41
1
10
23.8337805434613
20
5.86676177205018
30
0
0
SPLINE
5
221
100
AcDbEntity
8
1
62
256
6
ByLayer
370
13
48
1
60
0
100
AcDbSpline
70
4
71
3
72
10
73
6
40
0
40
0
40
0
40
0
40
0.202374079532489
40
0.202374079532489
40
1
40
1
40
1
40
1
41
1
10
23.9939768523292
20
5.35333262012344
30
0
41
1
10
24.0366335743464
20
5.35214733910541
30
0
41
1
10
24.0793460209674
20
5.35165309851447
30
0
41
1
10
24.2872289032592
20
5.34882111109482
30
0
41
1
10
24.4524723046481
20
5.34890660145805
30
0
41
1
10
24.6040818169429
20
5.35212904024903
30
0
0
SPLINE
5
222
100
AcDbEntity
8
1
62
256
6
ByLayer
370
13
48
1
60
0
100
AcDbSpline
70
4
71
3
72
10
73
6
40
0
40
0
40
0
40
0
40
0.202374079532489
40
0.202374079532489
40
1
40
1
40
1
40
1
41
1
10
23.9939768523292
20
4.64666737987685
30
0
41
1
10
24.0366335743464
20
4.64785266089487
30
0
41
1
10
24.0793460209674
20
4.64834690148581
30
0
41
1
10
24.2872289032592
20
4.65117888890549
30
0
41
1
10
24.4524723046481
20
4.65109339854223
30
0
41
1
10
24.6040818169429
20
4.64787095975126
30
0
0
SPLINE
5
223
100
AcDbEntity
8
1
62
256
6
ByLayer
370
13
48
1
60
0
100
AcDbSpline
70
4
71
3
72
8
73
4
40
0
40
0
40
0
40
0
40
1
40
1
40
1
40
1
41
1
10
23.8337805434613
20
4.1332382279501
30
0
41
1
10
23.7338294385697
20
4.12998969333654
30
0
41
1
10
23.6333593139737
20
4.12676984718684
30
0
41
1
10
23.5337805434612
20
4.13596132736774
30
0
0
SPLINE
5
224
100
AcDbEntity
8
1
62
256
6
ByLayer
370
13
48
1
60
0
100
AcDbSpline
70
4
71
3
72
8
73
4
40
0
40
0
40
0
40
0
40
1
40
1
40
1
40
1
41
1
10
23.8337805434613
20
5.86676177205018
30
0
41
1
10
23.7338294385697
20
5.87001030666377
30
0
41
1
10
23.6333593139737
20
5.87323015281345
30
0
41
1
10
23.5337805434612
20
5.86403867263255
30
0
0
SPLINE
5
225
100
AcDbEntity
8
1
62
256
6
ByLayer
370
13
48
1
60
0
100
AcDbSpline
70
4
71
3
72
10
73
6
40
0
40
0
40
0
40
0
40
0.412056726398416
40
0.412056726398416
40
1
40
1
40
1
40
1
41
1
10
24.9970257408962
20
4.65525959326112
30
0
41
1
10
24.9970257408962
20
4.63214005529514
30
0
41
1
10
24.99385361432
20
4.60884672723631
30
0
41
1
10
24.9795476699584
20
4.55477853641017
30
0
41
1
10
24.9654870839336
20
4.52430879873805
30
0
41
1
10
24.9480375085945
20
4.49657472132827
30
0
0
SPLINE
5
226
100
AcDbEntity
8
1
62
256
6
ByLayer
370
13
48
1
60
0
100
AcDbSpline
70
4
71
3
72
10
73
6
40
0
40
0
40
0
40
0
40
0.412056726398416
40
0.412056726398416
40
1
40
1
40
1
40
1
41
1
10
24.9970257408962
20
5.34474040673916
30
0
41
1
10
24.9970257408962
20
5.36785994470515
30
0
41
1
10
24.99385361432
20
5.39115327276397
30
0
41
1
10
24.9795476699584
20
5.44522146359014
30
0
41
1
10
24.9654870839336
20
5.47569120126226
30
0
41
1
10
24.9480375085945
20
5.50342527867201
30
0
0
SPLINE
5
227
100
AcDbEntity
8
1
62
256
6
ByLayer
370
13
48
1
60
0
100
AcDbSpline
70
4
71
3
72
16
73
12
40
0
40
0
40
0
40
0
40
0.144623406732697
40
0.144623406732697
40
0.340113210683642
40
0.340113210683642
40
0.361421053906806
40
0.361421053906806
40
0.96509055241744
40
0.96509055241744
40
1
40
1
40
1
40
1
41
1
10
23.4939768523292
20
4.650302890288
30
0
41
1
10
23.5176378728546
20
4.64557119287622
30
0
41
1
10
23.5416309953235
20
4.64235596523585
30
0
41
1
10
23.598193352456
20
4.6375989059909
30
0
41
1
10
23.6308631318152
20
4.63644376415795
30
0
41
1
10
23.6670552818254
20
4.63643675022701
30
0
41
1
10
23.6706149406199
20
4.63645287929276
30
0
41
1
10
23.7749938211815
20
4.63747518965079
30
0
41
1
10
23.8757429102795
20
4.64225645257707
30
0
41
1
10
23.9823238693042
20
4.64622768379195
30
0
41
1
10
23.9881503958336
20
4.64644661146548
30
0
41
1
10
23.9939768523292
20
4.64666737987685
30
0
0
SPLINE
5
228
100
AcDbEntity
8
1
62
256
6
ByLayer
370
13
48
1
60
0
100
AcDbSpline
70
4
71
3
72
16
73
12
40
0
40
0
40
0
40
0
40
0.144623406732697
40
0.144623406732697
40
0.340113210683642
40
0.340113210683642
40
0.361421053906806
40
0.361421053906806
40
0.96509055241744
40
0.96509055241744
40
1
40
1
40
1
40
1
41
1
10
23.4939768523292
20
5.34969710971228
30
0
41
1
10
23.5176378728546
20
5.35442880712409
30
0
41
1
10
23.5416309953235
20
5.35764403476443
30
0
41
1
10
23.598193352456
20
5.36240109400939
30
0
41
1
10
23.6308631318152
20
5.36355623584237
30
0
41
1
10
23.6670552818254
20
5.36356324977331
30
0
41
1
10
23.6706149406199
20
5.36354712070755
30
0
41
1
10
23.7749938211815
20
5.36252481034953
30
0
41
1
10
23.8757429102795
20
5.35774354742321
30
0
41
1
10
23.9823238693042
20
5.35377231620836
30
0
41
1
10
23.9881503958336
20
5.35355338853483
30
0
41
1
10
23.9939768523292
20
5.35333262012344
30
0
0
SPLINE
5
229
100
AcDbEntity
8
1
62
256
6
ByLayer
370
13
48
1
60
0
100
AcDbSpline
70
4
71
3
72
8
73
4
40
0
40
0
40
0
40
0
40
1
40
1
40
1
40
1
41
1
10
24.9480375085945
20
4.49657472132827
30
0
41
1
10
24.9406822121478
20
4.48722240841243
30
0
41
1
10
24.9332278664847
20
4.4779738840854
30
0
41
1
10
24.9256635776614
20
4.46887911270284
30
0
0
SPLINE
5
22A
100
AcDbEntity
8
1
62
256
6
ByLayer
370
13
48
1
60
0
100
AcDbSpline
70
4
71
3
72
8
73
4
40
0
40
0
40
0
40
0
40
1
40
1
40
1
40
1
41
1
10
24.9480375085945
20
5.50342527867201
30
0
41
1
10
24.9406822121478
20
5.51277759158788
30
0
41
1
10
24.9332278664847
20
5.52202611591491
30
0
41
1
10
24.9256635776614
20
5.53112088729748
30
0
0
SPLINE
5
22B
100
AcDbEntity
8
1
62
256
6
ByLayer
370
13
48
1
60
0
100
AcDbSpline
70
4
71
3
72
16
73
12
40
0
40
0
40
0
40
0
40
0.0002204728141812
40
0.0002204728141812
40
0.28207049074326
40
0.28207049074326
40
0.563941110555105
40
0.563941110555105
40
0.999779527185927
40
0.999779527185927
40
1
40
1
40
1
40
1
41
1
10
23.2289221872924
20
4.70654810788906
30
0
41
1
10
23.2289414547824
20
4.70654369036933
30
0
41
1
10
23.2289607223292
20
4.70653927287123
30
0
41
1
10
23.2536114636835
20
4.70088751905041
30
0
41
1
10
23.2783272225084
20
4.69520974468443
30
0
41
1
10
23.327843685161
20
4.68372948708847
30
0
41
1
10
23.3526291596669
20
4.67780650220578
30
0
41
1
10
23.4159850762818
20
4.66361412495743
30
0
41
1
10
23.4548717009099
20
4.65629674530038
30
0
41
1
10
23.4939373139163
20
4.6503089494876
30
0
41
1
10
23.4939570831493
20
4.65030592006121
30
0
41
1
10
23.4939768523292
20
4.650302890288
30
0
0
SPLINE
5
22C
100
AcDbEntity
8
1
62
256
6
ByLayer
370
13
48
1
60
0
100
AcDbSpline
70
4
71
3
72
16
73
12
40
0
40
0
40
0
40
0
40
0.0002204728141812
40
0.0002204728141812
40
0.28207049074326
40
0.28207049074326
40
0.563941110555105
40
0.563941110555105
40
0.999779527185927
40
0.999779527185927
40
1
40
1
40
1
40
1
41
1
10
23.2289221872924
20
5.29345189211122
30
0
41
1
10
23.2289414547825
20
5.29345630977744
30
0
41
1
10
23.2289607223292
20
5.29346072712909
30
0
41
1
10
23.2536114636835
20
5.29911248094987
30
0
41
1
10
23.2783272225084
20
5.30479025531588
30
0
41
1
10
23.327843685161
20
5.31627051291181
30
0
41
1
10
23.3526291596669
20
5.3221934977945
30
0
41
1
10
23.4159850762818
20
5.33638587504285
30
0
41
1
10
23.4548717009099
20
5.34370325469993
30
0
41
1
10
23.4939373139163
20
5.34969105051269
30
0
41
1
10
23.4939570830919
20
5.34969408031387
30
0
41
1
10
23.4939768523292
20
5.34969710971228
30
0
0
SPLINE
5
22D
100
AcDbEntity
8
1
62
256
6
ByLayer
370
13
48
1
60
0
100
AcDbSpline
70
4
71
3
72
8
73
4
40
0
40
0
40
0
40
0
40
1
40
1
40
1
40
1
41
1
10
23.2289221872924
20
5.00000000000014
30
0
41
1
10
23.3172737423047
20
5.00000000000014
30
0
41
1
10
23.405625297317
20
5.00000000000014
30
0
41
1
10
23.4939768523292
20
5.00000000000014
30
0
0
SPLINE
5
22E
100
AcDbEntity
8
1
62
256
6
ByLayer
370
18
48
1
60
0
100
AcDbSpline
70
4
71
3
72
18
73
14
40
0
40
0
40
0
40
0
40
0.0038721827723068
40
0.0038721827723068
40
0.301909614475971
40
0.301909614475971
40
0.573851588923206
40
0.573851588923206
40
0.764246898786125
40
0.764246898786125
40
0.955935356673762
40
0.955935356673762
40
1
40
1
40
1
40
1
41
1
10
13.0853031931148
20
4.25000000000054
30
0
41
1
10
13.0840971729918
20
4.25000000000054
30
0
41
1
10
13.0828910214763
20
4.24999490820679
30
0
41
1
10
12.9888700254238
20
4.24920079812608
30
0
41
1
10
12.8952368983404
20
4.21754303333913
30
0
41
1
10
12.7328034699777
20
4.09837528445445
30
0
41
1
10
12.6598191670123
20
4.01359469589516
30
0
41
1
10
12.5592800554966
20
3.82956670846963
30
0
41
1
10
12.5236083552237
20
3.73991602183608
30
0
41
1
10
12.4716184438299
20
3.54462145059728
30
0
41
1
10
12.4547620930035
20
3.4358382102896
30
0
41
1
10
12.4483224339003
20
3.30125327279751
30
0
41
1
10
12.4477093723893
20
3.27561362605394
30
0
41
1
10
12.4477093723893
20
3.25000000000048
30
0
0
SPLINE
5
22F
100
AcDbEntity
8
1
62
256
6
ByLayer
370
18
48
1
60
0
100
AcDbSpline
70
4
71
3
72
10
73
6
40
0
40
0
40
0
40
0
40
0.756102769204547
40
0.756102769204547
40
1
40
1
40
1
40
1
41
1
10
16.5466320131342
20
5.80000000000015
30
0
41
1
10
16.533535857732
20
5.80000000000015
30
0
41
1
10
16.5207202080259
20
5.80000000000015
30
0
41
1
10
16.5042092102192
20
5.80000000000015
30
0
41
1
10
16.5002140960561
20
5.80000000000015
30
0
41
1
10
16.4962544185031
20
5.80000000000015
30
0
0
SPLINE
5
230
100
AcDbEntity
8
1
62
256
6
ByLayer
370
18
48
1
60
0
100
AcDbSpline
70
4
71
3
72
14
73
10
40
0
40
0
40
0
40
0
40
0.209394252568555
40
0.209394252568555
40
0.418674140634421
40
0.418674140634421
40
0.627952529466336
40
0.627952529466336
40
1
40
1
40
1
40
1
41
1
10
22.4731203716814
20
4.11755488638985
30
0
41
1
10
22.5313095888795
20
4.11756156567648
30
0
41
1
10
22.5945415508062
20
4.11697530639512
30
0
41
1
10
22.7284652768354
20
4.11463999013245
30
0
41
1
10
22.7996116692105
20
4.11288356168163
30
0
41
1
10
22.9473813033077
20
4.10826485442377
30
0
41
1
10
23.0245105149097
20
4.10538677507964
30
0
41
1
10
23.2423341909035
20
4.09602281610063
30
0
41
1
10
23.3889070981155
20
4.08833917316258
30
0
41
1
10
23.5337805434601
20
4.07944020246231
30
0
0
SPLINE
5
231
100
AcDbEntity
8
1
62
256
6
ByLayer
370
18
48
1
60
0
100
AcDbSpline
70
4
71
3
72
14
73
10
40
0
40
0
40
0
40
0
40
0.209828521639199
40
0.209828521639199
40
0.4195901540272
40
0.4195901540272
40
0.628965113592846
40
0.628965113592846
40
1
40
1
40
1
40
1
41
1
10
23.5337805434612
20
5.92055979753852
30
0
41
1
10
23.4514732695809
20
5.91550400545089
30
0
41
1
10
23.3688292147962
20
5.91084733227277
30
0
41
1
10
23.2062811533077
20
5.90252740236272
30
0
41
1
10
23.1258208334326
20
5.89883542626421
30
0
41
1
10
22.9699639724299
20
5.89254633597253
30
0
41
1
10
22.8940252483449
20
5.88992572070458
30
0
41
1
10
22.6941103545506
20
5.8842831645629
30
0
41
1
10
22.5754747567342
20
5.8824333647959
30
0
41
1
10
22.4731203716824
20
5.88244511360963
30
0
0
SPLINE
5
232
100
AcDbEntity
8
1
62
256
6
ByLayer
370
18
48
1
60
0
100
AcDbSpline
70
4
71
3
72
8
73
4
40
0
40
0
40
0
40
0
40
1
40
1
40
1
40
1
41
1
10
24.1810768987951
20
5.96219038955928
30
0
41
1
10
24.0667232362903
20
5.95392523920961
30
0
41
1
10
23.9500733165824
20
5.94613092399257
30
0
41
1
10
23.8337805434612
20
5.9389875446231
30
0
0
SPLINE
5
233
100
AcDbEntity
8
1
62
256
6
ByLayer
370
18
48
1
60
0
100
AcDbSpline
70
4
71
3
72
10
73
6
40
0
40
0
40
0
40
0
40
0.575849552148122
40
0.575849552148122
40
1
40
1
40
1
40
1
41
1
10
16.4962544185031
20
4.20000000000016
30
0
41
1
10
16.5055992325651
20
4.20000000000016
30
0
41
1
10
16.5151434423376
20
4.20000000000016
30
0
41
1
10
16.5320239080445
20
4.20000000000016
30
0
41
1
10
16.5392832271311
20
4.20000000000016
30
0
41
1
10
16.5466320131342
20
4.20000000000016
30
0
0
SPLINE
5
234
100
AcDbEntity
8
1
62
256
6
ByLayer
370
18
48
1
60
0
100
AcDbSpline
70
4
71
3
72
8
73
4
40
0
40
0
40
0
40
0
40
1
40
1
40
1
40
1
41
1
10
23.8337805434612
20
4.06101245537721
30
0
41
1
10
23.9500733165824
20
4.05386907600772
30
0
41
1
10
24.0667232362903
20
4.04607476079067
30
0
41
1
10
24.1810768987951
20
4.037809610441
30
0
0
SPLINE
5
235
100
AcDbEntity
8
1
62
256
6
ByLayer
370
18
48
1
60
0
100
AcDbSpline
70
4
71
3
72
16
73
12
40
0
40
0
40
0
40
0
40
0.211440290976243
40
0.211440290976243
40
0.422896736694443
40
0.422896736694443
40
0.633935131411306
40
0.633935131411306
40
0.842399597812144
40
0.842399597812144
40
1
40
1
40
1
40
1
41
1
10
25.0019409516835
20
5.74675966634382
30
0
41
1
10
25.0021828121519
20
5.77535373660595
30
0
41
1
10
24.9975098650129
20
5.80434077036472
30
0
41
1
10
24.9791355265766
20
5.8583068798294
30
0
41
1
10
24.9651770288146
20
5.8840356042092
30
0
41
1
10
24.9300123990848
20
5.92861657686126
30
0
41
1
10
24.9083234948748
20
5.94810458999692
30
0
41
1
10
24.8605708510196
20
5.97792095369903
30
0
41
1
10
24.8338898983737
20
5.98877060184458
30
0
41
1
10
24.7856899076454
20
5.9991283575005
30
0
41
1
10
24.7640691721776
20
6.00084708455827
30
0
41
1
10
24.7427579923014
20
5.99969906010136
30
0
0
SPLINE
5
236
100
AcDbEntity
8
1
62
256
6
ByLayer
370
18
48
1
60
0
100
AcDbSpline
70
4
71
3
72
16
73
12
40
0
40
0
40
0
40
0
40
0.203363754276493
40
0.203363754276493
40
0.40658604208921
40
0.40658604208921
40
0.611967971554986
40
0.611967971554986
40
0.82073821984358
40
0.82073821984358
40
1
40
1
40
1
40
1
41
1
10
24.7427579923014
20
4.00030093989895
30
0
41
1
10
24.7700970081208
20
3.99882819840968
30
0
41
1
10
24.7980262240332
20
4.00212198698623
30
0
41
1
10
24.8504076479783
20
4.01758892463567
30
0
41
1
10
24.8755789022368
20
4.02996168671615
30
0
41
1
10
24.9201132665787
20
4.062022668119
30
0
41
1
10
24.9400202557988
20
4.08221774731484
30
0
41
1
10
24.9720355922843
20
4.12780499164003
30
0
41
1
10
24.9844520380369
20
4.15389956722149
30
0
41
1
10
24.9988187436013
20
4.2043263112233
30
0
41
1
10
25.0021467885115
20
4.22890517562234
30
0
41
1
10
25.0019409516835
20
4.25324033365649
30
0
0
LINE
5
70
100
AcDbEntity
8
80
62
256
6
ByLayer
370
18
48
1
60
0
100
AcDbLine
10
0
20
0
30
0
11
-5
21
0
31
0
39
0
210
0
220
0
230
1
0
LINE
5
71
100
AcDbEntity
8
81
62
256
6
ByLayer
370
18
48
1
60
0
100
AcDbLine
10
25
20
6
30
0
11
30
21
6
31
0
39
0
210
0
220
0
230
1
0
LINE
5
72
100
AcDbEntity
8
1
62
256
6
ByLayer
370
13
48
1
60
0
100
AcDbLine
10
16.290738
20
4.25
30
0
11
16.290738
21
5.75
31
0
39
0
210
0
220
0
230
1
0
LINE
5
74
100
AcDbEntity
8
1
62
256
6
ByLayer
370
13
48
1
60
0
100
AcDbLine
10
1.7
20
3.25
30
0
11
7.9
21
3.25
31
0
39
0
210
0
220
0
230
1
0
LINE
5
75
100
AcDbEntity
8
1
62
256
6
ByLayer
370
13
48
1
60
0
100
AcDbLine
10
11.290738
20
5.75
30
0
11
11.290738
21
4.25
31
0
39
0
210
0
220
0
230
1
0
LINE
5
76
100
AcDbEntity
8
1
62
256
6
ByLayer
370
13
48
1
60
0
100
AcDbLine
10
7.9
20
3.25
30
0
11
12.447709
21
3.25
31
0
39
0
210
0
220
0
230
1
0
LINE
5
77
100
AcDbEntity
8
1
62
256
6
ByLayer
370
13
48
1
60
0
100
AcDbLine
10
7.9
20
4.25
30
0
11
7.9
21
3.25
31
0
39
0
210
0
220
0
230
1
0
LINE
5
78
100
AcDbEntity
8
1
62
256
6
ByLayer
370
13
48
1
60
0
100
AcDbLine
10
7.9
20
3.25
30
0
11
7.9
21
-3.609865
31
0
39
0
210
0
220
0
230
1
0
LINE
5
79
100
AcDbEntity
8
1
62
256
6
ByLayer
370
13
48
1
60
0
100
AcDbLine
10
12.447709
20
3.25
30
0
11
20.945373
21
3.25
31
0
39
0
210
0
220
0
230
1
0
LINE
5
7A
100
AcDbEntity
8
SK1
62
256
6
ByLayer
370
13
48
1
60
0
100
AcDbLine
10
-0.8
20
5.75
30
0
11
-0.8
21
-6
31
0
39
0
210
0
220
0
230
1
0
LINE
5
7C
100
AcDbEntity
8
SK1
62
256
6
ByLayer
370
18
48
1
60
0
100
AcDbLine
10
-43
20
-6
30
0
11
-45
21
-4.017378
31
0
39
0
210
0
220
0
230
1
0
LINE
5
7D
100
AcDbEntity
8
SK1
62
256
6
ByLayer
370
18
48
1
60
0
100
AcDbLine
10
-0.8
20
5.75
30
0
11
-1
21
5.75
31
0
39
0
210
0
220
0
230
1
0
LINE
5
7E
100
AcDbEntity
8
SK1
62
256
6
ByLayer
370
18
48
1
60
0
100
AcDbLine
10
-0.8
20
-6
30
0
11
-0.1
21
-6
31
0
39
0
210
0
220
0
230
1
0
LINE
5
7F
100
AcDbEntity
8
SK1
62
256
6
ByLayer
370
18
48
1
60
0
100
AcDbLine
10
-0.1
20
-6
30
0
11
-0.1
21
5.75
31
0
39
0
210
0
220
0
230
1
0
LINE
5
80
100
AcDbEntity
8
SK1
62
256
6
ByLayer
370
18
48
1
60
0
100
AcDbLine
10
-45
20
5.925
30
0
11
-1.565133
21
5.925
31
0
39
0
210
0
220
0
230
1
0
LINE
5
81
100
AcDbEntity
8
SK1
62
256
6
ByLayer
370
18
48
1
60
0
100
AcDbLine
10
-45
20
-4.017378
30
0
11
-45
21
5.925
31
0
39
0
210
0
220
0
230
1
0
LINE
5
82
100
AcDbEntity
8
SK1
62
256
6
ByLayer
370
18
48
1
60
0
100
AcDbLine
10
-43
20
-6
30
0
11
-0.8
21
-6
31
0
39
0
210
0
220
0
230
1
0
LINE
5
83
100
AcDbEntity
8
SK1
62
256
6
ByLayer
370
18
48
1
60
0
100
AcDbLine
10
-0.1
20
5.75
30
0
11
-0.8
21
5.75
31
0
39
0
210
0
220
0
230
1
0
LINE
5
84
100
AcDbEntity
8
1
62
256
6
ByLayer
370
18
48
1
60
0
100
AcDbLine
10
-0.1
20
-6
30
0
11
-0.1
21
5.75
31
0
39
0
210
0
220
0
230
1
0
LINE
5
85
100
AcDbEntity
8
1
62
256
6
ByLayer
370
18
48
1
60
0
100
AcDbLine
10
12.447709
20
3.25
30
0
11
12.447709
21
-1.519551
31
0
39
0
210
0
220
0
230
1
0
LINE
5
86
100
AcDbEntity
8
1
62
256
6
ByLayer
370
18
48
1
60
0
100
AcDbLine
10
7.9
20
-3.609865
30
0
11
2.7
21
-6
31
0
39
0
210
0
220
0
230
1
0
LINE
5
87
100
AcDbEntity
8
1
62
256
6
ByLayer
370
18
48
1
60
0
100
AcDbLine
10
20.945373
20
2.386326
30
0
11
20.945373
21
3.25
31
0
39
0
210
0
220
0
230
1
0
LINE
5
88
100
AcDbEntity
8
1
62
256
6
ByLayer
370
18
48
1
60
0
100
AcDbLine
10
-0.1
20
-6
30
0
11
0
21
-6
31
0
39
0
210
0
220
0
230
1
0
LINE
5
89
100
AcDbEntity
8
1
62
256
6
ByLayer
370
18
48
1
60
0
100
AcDbLine
10
16.290738
20
4.25
30
0
11
11.290738
21
4.25
31
0
39
0
210
0
220
0
230
1
0
LINE
5
8A
100
AcDbEntity
8
1
62
256
6
ByLayer
370
18
48
1
60
0
100
AcDbLine
10
16.290738
20
5.75
30
0
11
11.290738
21
5.75
31
0
39
0
210
0
220
0
230
1
0
LINE
5
8B
100
AcDbEntity
8
1
62
256
6
ByLayer
370
18
48
1
60
0
100
AcDbLine
10
20.415611
20
4.25
30
0
11
20.415611
21
4.686942
31
0
39
0
210
0
220
0
230
1
0
LINE
5
8C
100
AcDbEntity
8
1
62
256
6
ByLayer
370
18
48
1
60
0
100
AcDbLine
10
20.415611
20
5.75
30
0
11
16.290738
21
5.75
31
0
39
0
210
0
220
0
230
1
0
LINE
5
8D
100
AcDbEntity
8
1
62
256
6
ByLayer
370
18
48
1
60
0
100
AcDbLine
10
0
20
5.75
30
0
11
-0.1
21
5.75
31
0
39
0
210
0
220
0
230
1
0
LINE
5
8E
100
AcDbEntity
8
1
62
256
6
ByLayer
370
18
48
1
60
0
100
AcDbLine
10
11.290738
20
4.25
30
0
11
2.7
21
4.25
31
0
39
0
210
0
220
0
230
1
0
LINE
5
8F
100
AcDbEntity
8
1
62
256
6
ByLayer
370
18
48
1
60
0
100
AcDbLine
10
12.447709
20
-1.519551
30
0
11
7.9
21
-3.609865
31
0
39
0
210
0
220
0
230
1
0
LINE
5
90
100
AcDbEntity
8
1
62
256
6
ByLayer
370
18
48
1
60
0
100
AcDbLine
10
20.945373
20
2.386326
30
0
11
12.447709
21
-1.519551
31
0
39
0
210
0
220
0
230
1
0
LINE
5
91
100
AcDbEntity
8
1
62
256
6
ByLayer
370
18
48
1
60
0
100
AcDbLine
10
20.415611
20
4.25
30
0
11
16.290738
21
4.25
31
0
39
0
210
0
220
0
230
1
0
LINE
5
92
100
AcDbEntity
8
1
62
256
6
ByLayer
370
18
48
1
60
0
100
AcDbLine
10
20.415611
20
5.313058
30
0
11
20.415611
21
5.75
31
0
39
0
210
0
220
0
230
1
0
LINE
5
93
100
AcDbEntity
8
1
62
256
6
ByLayer
370
18
48
1
60
0
100
AcDbLine
10
1.7
20
-6
30
0
11
2.7
21
-6
31
0
39
0
210
0
220
0
230
1
0
LINE
5
94
100
AcDbEntity
8
1
62
256
6
ByLayer
370
18
48
1
60
0
100
AcDbLine
10
0
20
5.75
30
0
11
11.290738
21
5.75
31
0
39
0
210
0
220
0
230
1
0
LINE
5
95
100
AcDbEntity
8
1
62
256
6
ByLayer
370
18
48
1
60
0
100
AcDbLine
10
1.7
20
-6
30
0
11
0
21
-6
31
0
39
0
210
0
220
0
230
1
0
LINE
5
96
100
AcDbEntity
8
1
62
256
6
ByLayer
370
18
48
1
60
0
100
AcDbLine
10
0
20
-6
30
0
11
0
21
5.75
31
0
39
0
210
0
220
0
230
1
0
LINE
5
97
100
AcDbEntity
8
1
62
256
6
ByLayer
370
18
48
1
60
0
100
AcDbLine
10
1.7
20
-6
30
0
11
1.7
21
3.25
31
0
39
0
210
0
220
0
230
1
0
LINE
5
98
100
AcDbEntity
8
1
62
256
6
ByLayer
370
13
48
1
60
0
100
AcDbLine
10
-0.8
20
5.75
30
0
11
-0.8
21
-6
31
0
39
0
210
0
220
0
230
1
0
LINE
5
99
100
AcDbEntity
8
1
62
256
6
ByLayer
370
13
48
1
60
0
100
AcDbLine
10
11.290738
20
5.75
30
0
11
11.290738
21
4.25
31
0
39
0
210
0
220
0
230
1
0
LINE
5
9A
100
AcDbEntity
8
1
62
256
6
ByLayer
370
13
48
1
60
0
100
AcDbLine
10
16.290738
20
4.25
30
0
11
16.290738
21
5.75
31
0
39
0
210
0
220
0
230
1
0
LINE
5
9B
100
AcDbEntity
8
1
62
256
6
ByLayer
370
13
48
1
60
0
100
AcDbLine
10
1.7
20
3.25
30
0
11
7.9
21
3.25
31
0
39
0
210
0
220
0
230
1
0
LINE
5
9C
100
AcDbEntity
8
1
62
256
6
ByLayer
370
13
48
1
60
0
100
AcDbLine
10
7.9
20
3.25
30
0
11
7.9
21
-3.609865
31
0
39
0
210
0
220
0
230
1
0
LINE
5
9D
100
AcDbEntity
8
1
62
256
6
ByLayer
370
13
48
1
60
0
100
AcDbLine
10
15.665685
20
5.749992
30
0
11
15.665685
21
5.8
31
0
39
0
210
0
220
0
230
1
0
LINE
5
9E
100
AcDbEntity
8
1
62
256
6
ByLayer
370
13
48
1
60
0
100
AcDbLine
10
12.447709
20
3.25
30
0
11
20.945373
21
3.25
31
0
39
0
210
0
220
0
230
1
0
LINE
5
9F
100
AcDbEntity
8
1
62
256
6
ByLayer
370
13
48
1
60
0
100
AcDbLine
10
22.068752
20
4.304612
30
0
11
22.152761
21
4.300476
31
0
39
0
210
0
220
0
230
1
0
LINE
5
A0
100
AcDbEntity
8
1
62
256
6
ByLayer
370
13
48
1
60
0
100
AcDbLine
10
22.165017
20
4.125199
30
0
11
22.152761
21
4.300476
31
0
39
0
210
0
220
0
230
1
0
LINE
5
A1
100
AcDbEntity
8
1
62
256
6
ByLayer
370
13
48
1
60
0
100
AcDbLine
10
22.165017
20
5.874801
30
0
11
22.152761
21
5.699524
31
0
39
0
210
0
220
0
230
1
0
LINE
5
A2
100
AcDbEntity
8
1
62
256
6
ByLayer
370
13
48
1
60
0
100
AcDbLine
10
21.709679
20
4.2
30
0
11
21.709679
21
4.323938
31
0
39
0
210
0
220
0
230
1
0
LINE
5
A3
100
AcDbEntity
8
1
62
256
6
ByLayer
370
13
48
1
60
0
100
AcDbLine
10
22.152761
20
5.699524
30
0
11
22.068752
21
5.695388
31
0
39
0
210
0
220
0
230
1
0
LINE
5
A4
100
AcDbEntity
8
1
62
256
6
ByLayer
370
13
48
1
60
0
100
AcDbLine
10
21.709679
20
5.676062
30
0
11
21.709679
21
5.8
31
0
39
0
210
0
220
0
230
1
0
LINE
5
A5
100
AcDbEntity
8
1
62
256
6
ByLayer
370
13
48
1
60
0
100
AcDbLine
10
22.082448
20
5.417233
30
0
11
22.068752
21
5.695388
31
0
39
0
210
0
220
0
230
1
0
LINE
5
A6
100
AcDbEntity
8
1
62
256
6
ByLayer
370
13
48
1
60
0
100
AcDbLine
10
22.068752
20
4.304612
30
0
11
22.082448
21
4.582767
31
0
39
0
210
0
220
0
230
1
0
LINE
5
A7
100
AcDbEntity
8
1
62
256
6
ByLayer
370
13
48
1
60
0
100
AcDbLine
10
22.177886
20
5.417233
30
0
11
22.082448
21
5.417233
31
0
39
0
210
0
220
0
230
1
0
LINE
5
A8
100
AcDbEntity
8
1
62
256
6
ByLayer
370
13
48
1
60
0
100
AcDbLine
10
22.177886
20
4.582767
30
0
11
22.082448
21
4.582767
31
0
39
0
210
0
220
0
230
1
0
LINE
5
A9
100
AcDbEntity
8
1
62
256
6
ByLayer
370
13
48
1
60
0
100
AcDbLine
10
22.47312
20
4.36152
30
0
11
22.47312
21
4.117555
31
0
39
0
210
0
220
0
230
1
0
LINE
5
AA
100
AcDbEntity
8
1
62
256
6
ByLayer
370
13
48
1
60
0
100
AcDbLine
10
23.533781
20
4.135961
30
0
11
23.533781
21
4.07944
31
0
39
0
210
0
220
0
230
1
0
LINE
5
AB
100
AcDbEntity
8
1
62
256
6
ByLayer
370
13
48
1
60
0
100
AcDbLine
10
23.533781
20
5.864039
30
0
11
23.533781
21
5.92056
31
0
39
0
210
0
220
0
230
1
0
LINE
5
AC
100
AcDbEntity
8
1
62
256
6
ByLayer
370
13
48
1
60
0
100
AcDbLine
10
22.47312
20
5.63848
30
0
11
22.47312
21
5.882445
31
0
39
0
210
0
220
0
230
1
0
LINE
5
AD
100
AcDbEntity
8
1
62
256
6
ByLayer
370
13
48
1
60
0
100
AcDbLine
10
22.152761
20
4.300476
30
0
11
22.364634
21
4.315291
31
0
39
0
210
0
220
0
230
1
0
LINE
5
AE
100
AcDbEntity
8
1
62
256
6
ByLayer
370
13
48
1
60
0
100
AcDbLine
10
22.364634
20
5.684709
30
0
11
22.378462
21
5.882456
31
0
39
0
210
0
220
0
230
1
0
LINE
5
AF
100
AcDbEntity
8
1
62
256
6
ByLayer
370
13
48
1
60
0
100
AcDbLine
10
22.364634
20
4.315291
30
0
11
22.378462
21
4.117544
31
0
39
0
210
0
220
0
230
1
0
LINE
5
B0
100
AcDbEntity
8
1
62
256
6
ByLayer
370
13
48
1
60
0
100
AcDbLine
10
22.152761
20
4.300476
30
0
11
22.166456
21
4.578631
31
0
39
0
210
0
220
0
230
1
0
LINE
5
B1
100
AcDbEntity
8
1
62
256
6
ByLayer
370
13
48
1
60
0
100
AcDbLine
10
22.364634
20
5.684709
30
0
11
22.152761
21
5.699524
31
0
39
0
210
0
220
0
230
1
0
LINE
5
B2
100
AcDbEntity
8
1
62
256
6
ByLayer
370
13
48
1
60
0
100
AcDbLine
10
22.166456
20
5.421369
30
0
11
22.152761
21
5.699524
31
0
39
0
210
0
220
0
230
1
0
LINE
5
B3
100
AcDbEntity
8
1
62
256
6
ByLayer
370
13
48
1
60
0
100
AcDbLine
10
21.709679
20
5.676062
30
0
11
21.658376
21
5.676062
31
0
39
0
210
0
220
0
230
1
0
LINE
5
B4
100
AcDbEntity
8
1
62
256
6
ByLayer
370
13
48
1
60
0
100
AcDbLine
10
21.709679
20
4.323938
30
0
11
21.658376
21
4.323938
31
0
39
0
210
0
220
0
230
1
0
LINE
5
B5
100
AcDbEntity
8
1
62
256
6
ByLayer
370
13
48
1
60
0
100
AcDbLine
10
22.166456
20
4.578631
30
0
11
22.082448
21
4.582767
31
0
39
0
210
0
220
0
230
1
0
LINE
5
B6
100
AcDbEntity
8
1
62
256
6
ByLayer
370
13
48
1
60
0
100
AcDbLine
10
22.082448
20
5.417233
30
0
11
22.166456
21
5.421369
31
0
39
0
210
0
220
0
230
1
0
LINE
5
B7
100
AcDbEntity
8
1
62
256
6
ByLayer
370
13
48
1
60
0
100
AcDbLine
10
21.658376
20
4.323938
30
0
11
21.658376
21
4.2
31
0
39
0
210
0
220
0
230
1
0
LINE
5
B8
100
AcDbEntity
8
1
62
256
6
ByLayer
370
13
48
1
60
0
100
AcDbLine
10
21.658376
20
5.8
30
0
11
21.658376
21
5.676062
31
0
39
0
210
0
220
0
230
1
0
LINE
5
B9
100
AcDbEntity
8
1
62
256
6
ByLayer
370
13
48
1
60
0
100
AcDbLine
10
20.787198
20
4.2
30
0
11
20.787198
21
4.274562
31
0
39
0
210
0
220
0
230
1
0
LINE
5
BA
100
AcDbEntity
8
1
62
256
6
ByLayer
370
13
48
1
60
0
100
AcDbLine
10
20.787198
20
5.725438
30
0
11
20.787198
21
5.8
31
0
39
0
210
0
220
0
230
1
0
LINE
5
BB
100
AcDbEntity
8
1
62
256
6
ByLayer
370
13
48
1
60
0
100
AcDbLine
10
22.364634
20
4.315291
30
0
11
22.376063
21
4.319428
31
0
39
0
210
0
220
0
230
1
0
LINE
5
BC
100
AcDbEntity
8
1
62
256
6
ByLayer
370
13
48
1
60
0
100
AcDbLine
10
22.376063
20
5.680572
30
0
11
22.364634
21
5.684709
31
0
39
0
210
0
220
0
230
1
0
LINE
5
BD
100
AcDbEntity
8
1
62
256
6
ByLayer
370
13
48
1
60
0
100
AcDbLine
10
22.177886
20
4.582767
30
0
11
22.166456
21
4.578631
31
0
39
0
210
0
220
0
230
1
0
LINE
5
BE
100
AcDbEntity
8
1
62
256
6
ByLayer
370
13
48
1
60
0
100
AcDbLine
10
22.166456
20
5.421369
30
0
11
22.177886
21
5.417233
31
0
39
0
210
0
220
0
230
1
0
LINE
5
BF
100
AcDbEntity
8
1
62
256
6
ByLayer
370
13
48
1
60
0
100
AcDbLine
10
20.787198
20
4.274562
30
0
11
20.711215
21
4.274562
31
0
39
0
210
0
220
0
230
1
0
LINE
5
C0
100
AcDbEntity
8
1
62
256
6
ByLayer
370
13
48
1
60
0
100
AcDbLine
10
23.228922
20
5.293452
30
0
11
23.228922
21
5
31
0
39
0
210
0
220
0
230
1
0
LINE
5
C1
100
AcDbEntity
8
1
62
256
6
ByLayer
370
13
48
1
60
0
100
AcDbLine
10
23.228922
20
4.706548
30
0
11
23.228922
21
5
31
0
39
0
210
0
220
0
230
1
0
LINE
5
C2
100
AcDbEntity
8
1
62
256
6
ByLayer
370
13
48
1
60
0
100
AcDbLine
10
20.711215
20
5.8
30
0
11
20.711215
21
5.725438
31
0
39
0
210
0
220
0
230
1
0
LINE
5
C3
100
AcDbEntity
8
1
62
256
6
ByLayer
370
13
48
1
60
0
100
AcDbLine
10
20.787198
20
5.725438
30
0
11
20.711215
21
5.725438
31
0
39
0
210
0
220
0
230
1
0
LINE
5
C4
100
AcDbEntity
8
1
62
256
6
ByLayer
370
13
48
1
60
0
100
AcDbLine
10
20.711215
20
4.274562
30
0
11
20.711215
21
4.2
31
0
39
0
210
0
220
0
230
1
0
LINE
5
C5
100
AcDbEntity
8
1
62
256
6
ByLayer
370
13
48
1
60
0
100
AcDbLine
10
20.718332
20
4.324016
30
0
11
20.432668
21
4.324016
31
0
39
0
210
0
220
0
230
1
0
LINE
5
C6
100
AcDbEntity
8
1
62
256
6
ByLayer
370
13
48
1
60
0
100
AcDbLine
10
20.432668
20
4.324016
30
0
11
20.469454
21
4.632002
31
0
39
0
210
0
220
0
230
1
0
LINE
5
C7
100
AcDbEntity
8
1
62
256
6
ByLayer
370
13
48
1
60
0
100
AcDbLine
10
20.469454
20
4.632002
30
0
11
20.850614
21
4.632002
31
0
39
0
210
0
220
0
230
1
0
LINE
5
C8
100
AcDbEntity
8
1
62
256
6
ByLayer
370
13
48
1
60
0
100
AcDbLine
10
20.469454
20
5.367998
30
0
11
20.850614
21
5.367998
31
0
39
0
210
0
220
0
230
1
0
LINE
5
C9
100
AcDbEntity
8
1
62
256
6
ByLayer
370
13
48
1
60
0
100
AcDbLine
10
20.432668
20
5.675984
30
0
11
20.469454
21
5.367998
31
0
39
0
210
0
220
0
230
1
0
LINE
5
CA
100
AcDbEntity
8
1
62
256
6
ByLayer
370
13
48
1
60
0
100
AcDbLine
10
20.718332
20
5.675984
30
0
11
20.432668
21
5.675984
31
0
39
0
210
0
220
0
230
1
0
LINE
5
CB
100
AcDbEntity
8
1
62
256
6
ByLayer
370
13
48
1
60
0
100
AcDbLine
10
20.506367
20
5.251024
30
0
11
20.948791
21
5.251024
31
0
39
0
210
0
220
0
230
1
0
LINE
5
CC
100
AcDbEntity
8
1
62
256
6
ByLayer
370
13
48
1
60
0
100
AcDbLine
10
20.506367
20
4.748976
30
0
11
20.948791
21
4.748976
31
0
39
0
210
0
220
0
230
1
0
LINE
5
CD
100
AcDbEntity
8
1
62
256
6
ByLayer
370
13
48
1
60
0
100
AcDbLine
10
20.549075
20
4.799244
30
0
11
21.073158
21
4.799244
31
0
39
0
210
0
220
0
230
1
0
LINE
5
CE
100
AcDbEntity
8
1
62
256
6
ByLayer
370
13
48
1
60
0
100
AcDbLine
10
20.4298
20
5.725438
30
0
11
20.711215
21
5.725438
31
0
39
0
210
0
220
0
230
1
0
LINE
5
CF
100
AcDbEntity
8
1
62
256
6
ByLayer
370
13
48
1
60
0
100
AcDbLine
10
20.549075
20
5.200756
30
0
11
21.073158
21
5.200756
31
0
39
0
210
0
220
0
230
1
0
LINE
5
D0
100
AcDbEntity
8
1
62
256
6
ByLayer
370
13
48
1
60
0
100
AcDbLine
10
20.4298
20
4.274562
30
0
11
20.711215
21
4.274562
31
0
39
0
210
0
220
0
230
1
0
LINE
5
D1
100
AcDbEntity
8
1
62
256
6
ByLayer
370
13
48
1
60
0
100
AcDbLine
10
20.4298
20
4.2
30
0
11
20.4298
21
4.274562
31
0
39
0
210
0
220
0
230
1
0
LINE
5
D2
100
AcDbEntity
8
1
62
256
6
ByLayer
370
13
48
1
60
0
100
AcDbLine
10
20.4298
20
5.8
30
0
11
20.4298
21
5.725438
31
0
39
0
210
0
220
0
230
1
0
LINE
5
D3
100
AcDbEntity
8
1
62
256
6
ByLayer
370
13
48
1
60
0
100
AcDbLine
10
25.000117
20
5.531121
30
0
11
24.925664
21
5.531121
31
0
39
0
210
0
220
0
230
1
0
LINE
5
D4
100
AcDbEntity
8
1
62
256
6
ByLayer
370
13
48
1
60
0
100
AcDbLine
10
24.610516
20
5.793454
30
0
11
24.610516
21
5.992575
31
0
39
0
210
0
220
0
230
1
0
LINE
5
D5
100
AcDbEntity
8
1
62
256
6
ByLayer
370
13
48
1
60
0
100
AcDbLine
10
24.610516
20
4.206546
30
0
11
24.610516
21
4.007425
31
0
39
0
210
0
220
0
230
1
0
LINE
5
D6
100
AcDbEntity
8
1
62
256
6
ByLayer
370
13
48
1
60
0
100
AcDbLine
10
25.000117
20
4.468879
30
0
11
24.925664
21
4.468879
31
0
39
0
210
0
220
0
230
1
0
LINE
5
D7
100
AcDbEntity
8
1
62
256
6
ByLayer
370
13
48
1
60
0
100
AcDbLine
10
20.552289
20
4.802665
30
0
11
21.081712
21
4.802665
31
0
39
0
210
0
220
0
230
1
0
LINE
5
D8
100
AcDbEntity
8
1
62
256
6
ByLayer
370
13
48
1
60
0
100
AcDbLine
10
24.181077
20
4.125184
30
0
11
24.181077
21
4.03781
31
0
39
0
210
0
220
0
230
1
0
LINE
5
D9
100
AcDbEntity
8
1
62
256
6
ByLayer
370
13
48
1
60
0
100
AcDbLine
10
24.53976
20
4.011885
30
0
11
24.53976
21
4.156147
31
0
39
0
210
0
220
0
230
1
0
LINE
5
DA
100
AcDbEntity
8
1
62
256
6
ByLayer
370
13
48
1
60
0
100
AcDbLine
10
20.552289
20
5.197335
30
0
11
21.081712
21
5.197335
31
0
39
0
210
0
220
0
230
1
0
LINE
5
DB
100
AcDbEntity
8
1
62
256
6
ByLayer
370
13
48
1
60
0
100
AcDbLine
10
24.53976
20
5.988115
30
0
11
24.53976
21
5.843853
31
0
39
0
210
0
220
0
230
1
0
LINE
5
DC
100
AcDbEntity
8
1
62
256
6
ByLayer
370
13
48
1
60
0
100
AcDbLine
10
24.181077
20
5.874816
30
0
11
24.181077
21
5.96219
31
0
39
0
210
0
220
0
230
1
0
LINE
5
DD
100
AcDbEntity
8
1
62
256
6
ByLayer
370
13
48
1
60
0
100
AcDbLine
10
20.549075
20
4.799244
30
0
11
20.552289
21
4.802665
31
0
39
0
210
0
220
0
230
1
0
LINE
5
DE
100
AcDbEntity
8
1
62
256
6
ByLayer
370
13
48
1
60
0
100
AcDbLine
10
20.549075
20
5.200756
30
0
11
20.552289
21
5.197335
31
0
39
0
210
0
220
0
230
1
0
LINE
5
DF
100
AcDbEntity
8
1
62
256
6
ByLayer
370
13
48
1
60
0
100
AcDbLine
10
23.833781
20
4.133238
30
0
11
23.833781
21
4.061012
31
0
39
0
210
0
220
0
230
1
0
LINE
5
E0
100
AcDbEntity
8
1
62
256
6
ByLayer
370
13
48
1
60
0
100
AcDbLine
10
23.833781
20
5.866762
30
0
11
23.833781
21
5.938988
31
0
39
0
210
0
220
0
230
1
0
LINE
5
E1
100
AcDbEntity
8
1
62
256
6
ByLayer
370
13
48
1
60
0
100
AcDbLine
10
24.005243
20
5.650666
30
0
11
23.993977
21
5.353333
31
0
39
0
210
0
220
0
230
1
0
LINE
5
E2
100
AcDbEntity
8
1
62
256
6
ByLayer
370
13
48
1
60
0
100
AcDbLine
10
24.005243
20
4.349334
30
0
11
23.993977
21
4.646667
31
0
39
0
210
0
220
0
230
1
0
LINE
5
E3
100
AcDbEntity
8
1
62
256
6
ByLayer
370
13
48
1
60
0
100
AcDbLine
10
24.944165
20
4.65526
30
0
11
24.997026
21
4.65526
31
0
39
0
210
0
220
0
230
1
0
LINE
5
E4
100
AcDbEntity
8
1
62
256
6
ByLayer
370
13
48
1
60
0
100
AcDbLine
10
24.944165
20
5.34474
30
0
11
24.997026
21
5.34474
31
0
39
0
210
0
220
0
230
1
0
LINE
5
E5
100
AcDbEntity
8
1
62
256
6
ByLayer
370
13
48
1
60
0
100
AcDbLine
10
23.493977
20
4.650303
30
0
11
23.43288
21
4.344785
31
0
39
0
210
0
220
0
230
1
0
LINE
5
E6
100
AcDbEntity
8
1
62
256
6
ByLayer
370
13
48
1
60
0
100
AcDbLine
10
23.493977
20
5.349697
30
0
11
23.43288
21
5.655215
31
0
39
0
210
0
220
0
230
1
0
LINE
5
E7
100
AcDbEntity
8
1
62
256
6
ByLayer
370
13
48
1
60
0
100
AcDbLine
10
24.948038
20
5.503425
30
0
11
25
21
5.503425
31
0
39
0
210
0
220
0
230
1
0
LINE
5
E8
100
AcDbEntity
8
1
62
256
6
ByLayer
370
13
48
1
60
0
100
AcDbLine
10
24.948038
20
4.496575
30
0
11
25
21
4.496575
31
0
39
0
210
0
220
0
230
1
0
LINE
5
E9
100
AcDbEntity
8
1
62
256
6
ByLayer
370
13
48
1
60
0
100
AcDbLine
10
7.9
20
4.25
30
0
11
7.9
21
3.25
31
0
39
0
210
0
220
0
230
1
0
LINE
5
EA
100
AcDbEntity
8
1
62
256
6
ByLayer
370
13
48
1
60
0
100
AcDbLine
10
24.997026
20
4.65526
30
0
11
24.997026
21
5.34474
31
0
39
0
210
0
220
0
230
1
0
LINE
5
EB
100
AcDbEntity
8
1
62
256
6
ByLayer
370
13
48
1
60
0
100
AcDbLine
10
16.326482
20
5.8
30
0
11
16.297265
21
5.749996
31
0
39
0
210
0
220
0
230
1
0
LINE
5
EC
100
AcDbEntity
8
1
62
256
6
ByLayer
370
13
48
1
60
0
100
AcDbLine
10
16.326482
20
4.2
30
0
11
16.297265
21
4.250004
31
0
39
0
210
0
220
0
230
1
0
LINE
5
ED
100
AcDbEntity
8
1
62
256
6
ByLayer
370
13
48
1
60
0
100
AcDbLine
10
20.415562
20
4.274562
30
0
11
20.4298
21
4.274562
31
0
39
0
210
0
220
0
230
1
0
LINE
5
EE
100
AcDbEntity
8
1
62
256
6
ByLayer
370
13
48
1
60
0
100
AcDbLine
10
20.415562
20
5.725438
30
0
11
20.4298
21
5.725438
31
0
39
0
210
0
220
0
230
1
0
LINE
5
EF
100
AcDbEntity
8
1
62
256
6
ByLayer
370
13
48
1
60
0
100
AcDbLine
10
24.944165
20
5.34474
30
0
11
24.944165
21
4.65526
31
0
39
0
210
0
220
0
230
1
0
LINE
5
F0
100
AcDbEntity
8
1
62
256
6
ByLayer
370
13
48
1
60
0
100
AcDbLine
10
24.604082
20
5.352129
30
0
11
24.604082
21
4.647871
31
0
39
0
210
0
220
0
230
1
0
LINE
5
F1
100
AcDbEntity
8
1
62
256
6
ByLayer
370
13
48
1
60
0
100
AcDbLine
10
20.432668
20
4.324016
30
0
11
20.41556
21
4.324016
31
0
39
0
210
0
220
0
230
1
0
LINE
5
F2
100
AcDbEntity
8
1
62
256
6
ByLayer
370
13
48
1
60
0
100
AcDbLine
10
23.993977
20
5.353333
30
0
11
23.993977
21
4.646667
31
0
39
0
210
0
220
0
230
1
0
LINE
5
F3
100
AcDbEntity
8
1
62
256
6
ByLayer
370
13
48
1
60
0
100
AcDbLine
10
20.432668
20
5.675984
30
0
11
20.41556
21
5.675984
31
0
39
0
210
0
220
0
230
1
0
LINE
5
F4
100
AcDbEntity
8
1
62
256
6
ByLayer
370
13
48
1
60
0
100
AcDbLine
10
16.732227
20
5.75
30
0
11
16.732227
21
5.8
31
0
39
0
210
0
220
0
230
1
0
LINE
5
F5
100
AcDbEntity
8
1
62
256
6
ByLayer
370
13
48
1
60
0
100
AcDbLine
10
16.732227
20
4.25
30
0
11
16.732227
21
4.2
31
0
39
0
210
0
220
0
230
1
0
LINE
5
F6
100
AcDbEntity
8
1
62
256
6
ByLayer
370
13
48
1
60
0
100
AcDbLine
10
20.415577
20
5.367998
30
0
11
20.469454
21
5.367998
31
0
39
0
210
0
220
0
230
1
0
LINE
5
F7
100
AcDbEntity
8
1
62
256
6
ByLayer
370
13
48
1
60
0
100
AcDbLine
10
23.493977
20
4.650303
30
0
11
23.493977
21
5
31
0
39
0
210
0
220
0
230
1
0
LINE
5
F8
100
AcDbEntity
8
1
62
256
6
ByLayer
370
13
48
1
60
0
100
AcDbLine
10
20.415577
20
4.632002
30
0
11
20.469454
21
4.632002
31
0
39
0
210
0
220
0
230
1
0
LINE
5
F9
100
AcDbEntity
8
1
62
256
6
ByLayer
370
13
48
1
60
0
100
AcDbLine
10
20.410128
20
4.748976
30
0
11
20.506367
21
4.748976
31
0
39
0
210
0
220
0
230
1
0
LINE
5
FA
100
AcDbEntity
8
1
62
256
6
ByLayer
370
13
48
1
60
0
100
AcDbLine
10
23.493977
20
5.349697
30
0
11
23.493977
21
5
31
0
39
0
210
0
220
0
230
1
0
LINE
5
FB
100
AcDbEntity
8
1
62
256
6
ByLayer
370
13
48
1
60
0
100
AcDbLine
10
20.410128
20
5.251024
30
0
11
20.506367
21
5.251024
31
0
39
0
210
0
220
0
230
1
0
LINE
5
FC
100
AcDbEntity
8
1
62
256
6
ByLayer
370
13
48
1
60
0
100
AcDbLine
10
20.407093
20
4.799244
30
0
11
20.549075
21
4.799244
31
0
39
0
210
0
220
0
230
1
0
LINE
5
FD
100
AcDbEntity
8
1
62
256
6
ByLayer
370
13
48
1
60
0
100
AcDbLine
10
20.407093
20
5.200756
30
0
11
20.549075
21
5.200756
31
0
39
0
210
0
220
0
230
1
0
LINE
5
FE
100
AcDbEntity
8
1
62
256
6
ByLayer
370
13
48
1
60
0
100
AcDbLine
10
20.40692
20
5.197335
30
0
11
20.552289
21
5.197335
31
0
39
0
210
0
220
0
230
1
0
LINE
5
FF
100
AcDbEntity
8
1
62
256
6
ByLayer
370
13
48
1
60
0
100
AcDbLine
10
20.40692
20
4.802665
30
0
11
20.552289
21
4.802665
31
0
39
0
210
0
220
0
230
1
0
LINE
5
100
100
AcDbEntity
8
1
62
256
6
ByLayer
370
13
48
1
60
0
100
AcDbLine
10
15.665685
20
4.250008
30
0
11
15.665685
21
4.2
31
0
39
0
210
0
220
0
230
1
0
LINE
5
101
100
AcDbEntity
8
1
62
256
6
ByLayer
370
13
48
1
60
0
100
AcDbLine
10
7.9
20
3.25
30
0
11
12.447709
21
3.25
31
0
39
0
210
0
220
0
230
1
0
LINE
5
102
100
AcDbEntity
8
1
62
256
6
ByLayer
370
18
48
1
60
0
100
AcDbLine
10
16.290738
20
5.75
30
0
11
11.290738
21
5.75
31
0
39
0
210
0
220
0
230
1
0
LINE
5
103
100
AcDbEntity
8
1
62
256
6
ByLayer
370
18
48
1
60
0
100
AcDbLine
10
16.290738
20
4.25
30
0
11
11.290738
21
4.25
31
0
39
0
210
0
220
0
230
1
0
LINE
5
104
100
AcDbEntity
8
1
62
256
6
ByLayer
370
18
48
1
60
0
100
AcDbLine
10
20.415611
20
5.75
30
0
11
16.290738
21
5.75
31
0
39
0
210
0
220
0
230
1
0
LINE
5
105
100
AcDbEntity
8
1
62
256
6
ByLayer
370
18
48
1
60
0
100
AcDbLine
10
20.415611
20
4.25
30
0
11
16.290738
21
4.25
31
0
39
0
210
0
220
0
230
1
0
LINE
5
106
100
AcDbEntity
8
1
62
256
6
ByLayer
370
18
48
1
60
0
100
AcDbLine
10
11.290738
20
4.25
30
0
11
2.7
21
4.25
31
0
39
0
210
0
220
0
230
1
0
LINE
5
107
100
AcDbEntity
8
1
62
256
6
ByLayer
370
18
48
1
60
0
100
AcDbLine
10
12.447709
20
3.25
30
0
11
12.447709
21
-1.519551
31
0
39
0
210
0
220
0
230
1
0
LINE
5
108
100
AcDbEntity
8
1
62
256
6
ByLayer
370
18
48
1
60
0
100
AcDbLine
10
1.7
20
-6
30
0
11
1.7
21
3.25
31
0
39
0
210
0
220
0
230
1
0
LINE
5
109
100
AcDbEntity
8
1
62
256
6
ByLayer
370
18
48
1
60
0
100
AcDbLine
10
20.415611
20
4.25
30
0
11
20.415611
21
4.686942
31
0
39
0
210
0
220
0
230
1
0
LINE
5
10A
100
AcDbEntity
8
1
62
256
6
ByLayer
370
18
48
1
60
0
100
AcDbLine
10
0
20
5.75
30
0
11
11.290738
21
5.75
31
0
39
0
210
0
220
0
230
1
0
LINE
5
10B
100
AcDbEntity
8
1
62
256
6
ByLayer
370
18
48
1
60
0
100
AcDbLine
10
0
20
-6
30
0
11
0
21
5.75
31
0
39
0
210
0
220
0
230
1
0
LINE
5
10C
100
AcDbEntity
8
1
62
256
6
ByLayer
370
18
48
1
60
0
100
AcDbLine
10
-45
20
-4.017378
30
0
11
-45
21
5.925
31
0
39
0
210
0
220
0
230
1
0
LINE
5
10D
100
AcDbEntity
8
1
62
256
6
ByLayer
370
18
48
1
60
0
100
AcDbLine
10
0
20
5.75
30
0
11
-0.8
21
5.75
31
0
39
0
210
0
220
0
230
1
0
LINE
5
10E
100
AcDbEntity
8
1
62
256
6
ByLayer
370
18
48
1
60
0
100
AcDbLine
10
-0.8
20
5.75
30
0
11
-1
21
5.75
31
0
39
0
210
0
220
0
230
1
0
LINE
5
10F
100
AcDbEntity
8
1
62
256
6
ByLayer
370
18
48
1
60
0
100
AcDbLine
10
-45
20
5.925
30
0
11
-1.565133
21
5.925
31
0
39
0
210
0
220
0
230
1
0
LINE
5
110
100
AcDbEntity
8
1
62
256
6
ByLayer
370
18
48
1
60
0
100
AcDbLine
10
-43
20
-6
30
0
11
-0.8
21
-6
31
0
39
0
210
0
220
0
230
1
0
LINE
5
111
100
AcDbEntity
8
1
62
256
6
ByLayer
370
18
48
1
60
0
100
AcDbLine
10
-0.8
20
-6
30
0
11
0
21
-6
31
0
39
0
210
0
220
0
230
1
0
LINE
5
112
100
AcDbEntity
8
1
62
256
6
ByLayer
370
18
48
1
60
0
100
AcDbLine
10
1.7
20
-6
30
0
11
0
21
-6
31
0
39
0
210
0
220
0
230
1
0
LINE
5
113
100
AcDbEntity
8
1
62
256
6
ByLayer
370
18
48
1
60
0
100
AcDbLine
10
1.7
20
-6
30
0
11
2.7
21
-6
31
0
39
0
210
0
220
0
230
1
0
LINE
5
114
100
AcDbEntity
8
1
62
256
6
ByLayer
370
18
48
1
60
0
100
AcDbLine
10
20.945373
20
2.386326
30
0
11
20.945373
21
3.25
31
0
39
0
210
0
220
0
230
1
0
LINE
5
115
100
AcDbEntity
8
1
62
256
6
ByLayer
370
18
48
1
60
0
100
AcDbLine
10
20.415611
20
5.313058
30
0
11
20.415611
21
5.75
31
0
39
0
210
0
220
0
230
1
0
LINE
5
116
100
AcDbEntity
8
1
62
256
6
ByLayer
370
18
48
1
60
0
100
AcDbLine
10
-43
20
-6
30
0
11
-45
21
-4.017378
31
0
39
0
210
0
220
0
230
1
0
LINE
5
117
100
AcDbEntity
8
1
62
256
6
ByLayer
370
18
48
1
60
0
100
AcDbLine
10
7.9
20
-3.609865
30
0
11
2.7
21
-6
31
0
39
0
210
0
220
0
230
1
0
LINE
5
118
100
AcDbEntity
8
1
62
256
6
ByLayer
370
18
48
1
60
0
100
AcDbLine
10
20.945373
20
2.386326
30
0
11
12.447709
21
-1.519551
31
0
39
0
210
0
220
0
230
1
0
LINE
5
119
100
AcDbEntity
8
1
62
256
6
ByLayer
370
18
48
1
60
0
100
AcDbLine
10
12.447709
20
-1.519551
30
0
11
7.9
21
-3.609865
31
0
39
0
210
0
220
0
230
1
0
LINE
5
11A
100
AcDbEntity
8
1
62
256
6
ByLayer
370
18
48
1
60
0
100
AcDbLine
10
21.948426
20
5.840541
30
0
11
21.925177
21
5.827118
31
0
39
0
210
0
220
0
230
1
0
LINE
5
11B
100
AcDbEntity
8
1
62
256
6
ByLayer
370
18
48
1
60
0
100
AcDbLine
10
21.709679
20
5.8
30
0
11
21.82387
21
5.8
31
0
39
0
210
0
220
0
230
1
0
LINE
5
11C
100
AcDbEntity
8
1
62
256
6
ByLayer
370
18
48
1
60
0
100
AcDbLine
10
16.326482
20
4.2
30
0
11
16.496254
21
4.2
31
0
39
0
210
0
220
0
230
1
0
LINE
5
11D
100
AcDbEntity
8
1
62
256
6
ByLayer
370
18
48
1
60
0
100
AcDbLine
10
24.742758
20
5.999699
30
0
11
24.610516
21
5.992575
31
0
39
0
210
0
220
0
230
1
0
LINE
5
11E
100
AcDbEntity
8
1
62
256
6
ByLayer
370
18
48
1
60
0
100
AcDbLine
10
21.709679
20
5.8
30
0
11
21.658376
21
5.8
31
0
39
0
210
0
220
0
230
1
0
LINE
5
11F
100
AcDbEntity
8
1
62
256
6
ByLayer
370
18
48
1
60
0
100
AcDbLine
10
23.533781
20
4.07944
30
0
11
23.833781
21
4.061012
31
0
39
0
210
0
220
0
230
1
0
LINE
5
120
100
AcDbEntity
8
1
62
256
6
ByLayer
370
18
48
1
60
0
100
AcDbLine
10
25.000117
20
5.531121
30
0
11
25.001941
21
5.74676
31
0
39
0
210
0
220
0
230
1
0
LINE
5
121
100
AcDbEntity
8
1
62
256
6
ByLayer
370
18
48
1
60
0
100
AcDbLine
10
15.25
20
4.2
30
0
11
15.665685
21
4.2
31
0
39
0
210
0
220
0
230
1
0
LINE
5
122
100
AcDbEntity
8
1
62
256
6
ByLayer
370
18
48
1
60
0
100
AcDbLine
10
15.665685
20
4.2
30
0
11
16.326482
21
4.2
31
0
39
0
210
0
220
0
230
1
0
LINE
5
123
100
AcDbEntity
8
1
62
256
6
ByLayer
370
18
48
1
60
0
100
AcDbLine
10
22.036053
20
4.133086
30
0
11
22.165017
21
4.125199
31
0
39
0
210
0
220
0
230
1
0
LINE
5
124
100
AcDbEntity
8
1
62
256
6
ByLayer
370
18
48
1
60
0
100
AcDbLine
10
24.181077
20
4.03781
30
0
11
24.53976
21
4.011885
31
0
39
0
210
0
220
0
230
1
0
LINE
5
125
100
AcDbEntity
8
1
62
256
6
ByLayer
370
18
48
1
60
0
100
AcDbLine
10
20.711215
20
5.8
30
0
11
20.4298
21
5.8
31
0
39
0
210
0
220
0
230
1
0
LINE
5
126
100
AcDbEntity
8
1
62
256
6
ByLayer
370
18
48
1
60
0
100
AcDbLine
10
21.658376
20
4.2
30
0
11
20.787198
21
4.2
31
0
39
0
210
0
220
0
230
1
0
LINE
5
127
100
AcDbEntity
8
1
62
256
6
ByLayer
370
18
48
1
60
0
100
AcDbLine
10
24.53976
20
5.988115
30
0
11
24.181077
21
5.96219
31
0
39
0
210
0
220
0
230
1
0
LINE
5
128
100
AcDbEntity
8
1
62
256
6
ByLayer
370
18
48
1
60
0
100
AcDbLine
10
24.610516
20
4.007425
30
0
11
24.742758
21
4.000301
31
0
39
0
210
0
220
0
230
1
0
LINE
5
129
100
AcDbEntity
8
1
62
256
6
ByLayer
370
18
48
1
60
0
100
AcDbLine
10
20.4298
20
4.2
30
0
11
20.711215
21
4.2
31
0
39
0
210
0
220
0
230
1
0
LINE
5
12A
100
AcDbEntity
8
1
62
256
6
ByLayer
370
18
48
1
60
0
100
AcDbLine
10
23.833781
20
5.938988
30
0
11
23.533781
21
5.92056
31
0
39
0
210
0
220
0
230
1
0
LINE
5
12B
100
AcDbEntity
8
1
62
256
6
ByLayer
370
18
48
1
60
0
100
AcDbLine
10
20.787198
20
5.8
30
0
11
20.711215
21
5.8
31
0
39
0
210
0
220
0
230
1
0
LINE
5
12C
100
AcDbEntity
8
1
62
256
6
ByLayer
370
18
48
1
60
0
100
AcDbLine
10
21.82387
20
4.2
30
0
11
21.709679
21
4.2
31
0
39
0
210
0
220
0
230
1
0
LINE
5
12D
100
AcDbEntity
8
1
62
256
6
ByLayer
370
18
48
1
60
0
100
AcDbLine
10
16.326482
20
5.8
30
0
11
15.665685
21
5.8
31
0
39
0
210
0
220
0
230
1
0
LINE
5
12E
100
AcDbEntity
8
1
62
256
6
ByLayer
370
18
48
1
60
0
100
AcDbLine
10
21.658376
20
4.2
30
0
11
21.709679
21
4.2
31
0
39
0
210
0
220
0
230
1
0
LINE
5
12F
100
AcDbEntity
8
1
62
256
6
ByLayer
370
18
48
1
60
0
100
AcDbLine
10
22.378462
20
4.117544
30
0
11
22.47312
21
4.117555
31
0
39
0
210
0
220
0
230
1
0
LINE
5
130
100
AcDbEntity
8
1
62
256
6
ByLayer
370
18
48
1
60
0
100
AcDbLine
10
16.732227
20
5.8
30
0
11
16.546632
21
5.8
31
0
39
0
210
0
220
0
230
1
0
LINE
5
131
100
AcDbEntity
8
1
62
256
6
ByLayer
370
18
48
1
60
0
100
AcDbLine
10
20.787198
20
5.8
30
0
11
21.658376
21
5.8
31
0
39
0
210
0
220
0
230
1
0
LINE
5
132
100
AcDbEntity
8
1
62
256
6
ByLayer
370
18
48
1
60
0
100
AcDbLine
10
15.665685
20
5.8
30
0
11
15.25
21
5.8
31
0
39
0
210
0
220
0
230
1
0
LINE
5
133
100
AcDbEntity
8
1
62
256
6
ByLayer
370
18
48
1
60
0
100
AcDbLine
10
21.925177
20
4.172882
30
0
11
21.948426
21
4.159459
31
0
39
0
210
0
220
0
230
1
0
LINE
5
134
100
AcDbEntity
8
1
62
256
6
ByLayer
370
18
48
1
60
0
100
AcDbLine
10
22.47312
20
5.882445
30
0
11
22.378462
21
5.882456
31
0
39
0
210
0
220
0
230
1
0
LINE
5
135
100
AcDbEntity
8
1
62
256
6
ByLayer
370
18
48
1
60
0
100
AcDbLine
10
16.496254
20
5.8
30
0
11
16.326482
21
5.8
31
0
39
0
210
0
220
0
230
1
0
LINE
5
136
100
AcDbEntity
8
1
62
256
6
ByLayer
370
18
48
1
60
0
100
AcDbLine
10
25.001941
20
4.25324
30
0
11
25.000117
21
4.468879
31
0
39
0
210
0
220
0
230
1
0
LINE
5
137
100
AcDbEntity
8
1
62
256
6
ByLayer
370
18
48
1
60
0
100
AcDbLine
10
20.711215
20
4.2
30
0
11
20.787198
21
4.2
31
0
39
0
210
0
220
0
230
1
0
LINE
5
138
100
AcDbEntity
8
1
62
256
6
ByLayer
370
18
48
1
60
0
100
AcDbLine
10
20.4298
20
5.8
30
0
11
16.732227
21
5.8
31
0
39
0
210
0
220
0
230
1
0
LINE
5
139
100
AcDbEntity
8
1
62
256
6
ByLayer
370
18
48
1
60
0
100
AcDbLine
10
16.732227
20
4.2
30
0
11
20.4298
21
4.2
31
0
39
0
210
0
220
0
230
1
0
LINE
5
13A
100
AcDbEntity
8
1
62
256
6
ByLayer
370
18
48
1
60
0
100
AcDbLine
10
22.165017
20
5.874801
30
0
11
22.036053
21
5.866914
31
0
39
0
210
0
220
0
230
1
0
LINE
5
13B
100
AcDbEntity
8
1
62
256
6
ByLayer
370
18
48
1
60
0
100
AcDbLine
10
25
20
4.496575
30
0
11
25
21
5.503425
31
0
39
0
210
0
220
0
230
1
0
LINE
5
13C
100
AcDbEntity
8
1
62
256
6
ByLayer
370
18
48
1
60
0
100
AcDbLine
10
16.546632
20
4.2
30
0
11
16.732227
21
4.2
31
0
39
0
210
0
220
0
230
1
0
LINE
5
13D
100
AcDbEntity
8
SK2
62
256
6
ByLayer
370
13
48
1
60
0
100
AcDbLine
10
-54.817433
20
14.75
30
0
11
-54.817433
21
-14.75
31
0
39
0
210
0
220
0
230
1
0
LINE
5
13F
100
AcDbEntity
8
SK2
62
256
6
ByLayer
370
13
48
1
60
0
100
AcDbLine
10
-47
20
-6
30
0
11
-56.817433
21
-6
31
0
39
0
210
0
220
0
230
1
0
LINE
5
140
100
AcDbEntity
8
SK2
62
256
6
ByLayer
370
13
48
1
60
0
100
AcDbLine
10
-47
20
6
30
0
11
-56.817433
21
6
31
0
39
0
210
0
220
0
230
1
0
LINE
5
141
100
AcDbEntity
8
SK2
62
256
6
ByLayer
370
18
48
1
60
0
100
AcDbLine
10
-54.817433
20
-6
30
0
11
-54.399436
21
-9.174998
31
0
39
0
210
0
220
0
230
1
0
LINE
5
142
100
AcDbEntity
8
SK2
62
256
6
ByLayer
370
18
48
1
60
0
100
AcDbLine
10
-54.817433
20
-6
30
0
11
-55.235429
21
-9.175002
31
0
39
0
210
0
220
0
230
1
0
LINE
5
143
100
AcDbEntity
8
SK2
62
256
6
ByLayer
370
18
48
1
60
0
100
AcDbLine
10
-54.399436
20
-9.174998
30
0
11
-55.235429
21
-9.175002
31
0
39
0
210
0
220
0
230
1
0
LINE
5
144
100
AcDbEntity
8
SK2
62
256
6
ByLayer
370
18
48
1
60
0
100
AcDbLine
10
-54.817433
20
6
30
0
11
-55.235429
21
9.174998
31
0
39
0
210
0
220
0
230
1
0
LINE
5
145
100
AcDbEntity
8
SK2
62
256
6
ByLayer
370
18
48
1
60
0
100
AcDbLine
10
-54.817433
20
6
30
0
11
-54.399436
21
9.175002
31
0
39
0
210
0
220
0
230
1
0
LINE
5
146
100
AcDbEntity
8
SK2
62
256
6
ByLayer
370
18
48
1
60
0
100
AcDbLine
10
-55.235429
20
9.174998
30
0
11
-54.399436
21
9.175002
31
0
39
0
210
0
220
0
230
1
0
MTEXT
5
237
100
AcDbEntity
8
SK6
62
256
6
ByLayer
370
18
48
1
60
0
100
AcDbMText
10
-41.733716
20
-50.875001
30
0
210
0
220
0
230
1
1
\W0.7427;QS-QD-RFE13C1212S
40
3.5
41
0
44
1.084337
50
0
71
7
72
5
7
iso_b_vert
0
MTEXT
5
23B
100
AcDbEntity
8
SK2
62
256
6
ByLayer
370
18
48
1
60
0
100
AcDbMText
10
-55.692433
20
-0.732237
30
0
210
0
220
0
230
1
1
\W0.5321;12
40
3.5
41
0
44
1.084337
50
89.9999999999999
71
7
72
5
7
iso_b_vert
0
DIMENSION
5
24A
100
AcDbEntity
8
2
62
256
6
ByLayer
370
13
48
1
60
0
100
AcDbDimension
2
DimnDraft3D1
10
50.1
20
6
30
0
11
50.1
21
-1.653289
31
0
70
32
71
5
72
1
41
1
210
0
220
0
230
1
3
Standard
100
AcDbAlignedDimension
13
14
23
-6
33
0
14
27
24
6
34
0
50
90
100
AcDbRotatedDimension
1001
ACAD
1000
DSTYLE
1002
{
1070
    74
1070
     0
1070
   279
1070
     0
1070
   172
1070
     1
1070
   173
1070
     1
1070
   340
1005
238
1070
   271
1070
     1
1070
    77
1070
     1
1070
    73
1070
     0
1070
   171
1070
     3
1070
   274
1070
     4
1070
   177
1070
     2
1070
   176
1070
     2
1070
   178
1070
     7
1070
    78
1070
     8
1070
    41
1041
3.175
1070
   147
1041
1.75
1070
    42
1041
2.0
1070
    44
1041
2.0
1070
   140
1041
3.5
1070
   343
1005
24B
1070
   344
1005
24B
1002
}
0
DIMENSION
5
25F
100
AcDbEntity
8
SK2
62
256
6
ByLayer
370
13
48
1
60
0
100
AcDbDimension
2
DimnDraft3D2
10
-43
20
-19.10005
30
0
11
-44.759868
21
-19.10005
31
0
70
32
71
5
72
1
41
1
210
0
220
0
230
1
3
Standard
100
AcDbAlignedDimension
13
-45
23
-8
33
0
14
-43
24
-8
34
0
50
0
100
AcDbRotatedDimension
1001
ACAD
1000
DSTYLE
1002
{
1070
   279
1070
     0
1070
   172
1070
     1
1070
   173
1070
     1
1070
   340
1005
238
1070
    77
1070
     1
1070
    73
1070
     0
1070
   171
1070
     3
1070
   274
1070
     4
1070
   177
1070
     2
1070
   176
1070
     2
1070
   178
1070
     7
1070
    78
1070
     8
1070
    41
1041
3.175
1070
   147
1041
1.75
1070
    42
1041
2.0
1070
    44
1041
2.0
1070
   140
1041
3.5
1070
   343
1005
24B
1070
   344
1005
24B
1002
}
0
DIMENSION
5
26D
100
AcDbEntity
8
SK2
62
256
6
ByLayer
370
13
48
1
60
0
100
AcDbDimension
2
DimnDraft3D3
10
25
20
28.600049
30
0
11
-12.090789
21
28.600049
31
0
70
32
71
5
72
1
41
1
210
0
220
0
230
1
3
Standard
100
AcDbAlignedDimension
13
-45
23
-4
33
0
14
25
24
8
34
0
50
0
100
AcDbRotatedDimension
1001
ACAD
1000
DSTYLE
1002
{
1070
   279
1070
     0
1070
   172
1070
     1
1070
   173
1070
     1
1070
   340
1005
238
1070
   271
1070
     1
1070
    77
1070
     1
1070
    73
1070
     0
1070
   171
1070
     3
1070
   274
1070
     4
1070
   177
1070
     2
1070
   176
1070
     2
1070
   178
1070
     7
1070
    78
1070
     8
1070
    41
1041
3.175
1070
   147
1041
1.75
1070
    42
1041
2.0
1070
    44
1041
2.0
1070
   140
1041
3.5
1070
   343
1005
24B
1070
   344
1005
24B
1002
}
0
DIMENSION
5
27B
100
AcDbEntity
8
2
62
256
6
ByLayer
370
13
48
1
60
0
100
AcDbDimension
2
DimnDraft3D4
10
25
20
22.600049
30
0
11
10.409211
21
22.600049
31
0
70
32
71
5
72
1
41
1
210
0
220
0
230
1
3
Standard
100
AcDbAlignedDimension
13
0
23
8
33
0
14
25
24
8
34
0
50
0
100
AcDbRotatedDimension
1001
ACAD
1000
DSTYLE
1002
{
1070
   279
1070
     0
1070
   172
1070
     1
1070
   173
1070
     1
1070
   340
1005
238
1070
   271
1070
     1
1070
    77
1070
     1
1070
    73
1070
     0
1070
   171
1070
     3
1070
   274
1070
     4
1070
   177
1070
     2
1070
   176
1070
     2
1070
   178
1070
     7
1070
    78
1070
     8
1070
    41
1041
3.175
1070
   147
1041
1.75
1070
    42
1041
2.0
1070
    44
1041
2.0
1070
   140
1041
3.5
1070
   343
1005
24B
1070
   344
1005
24B
1002
}
0
DIMENSION
5
289
100
AcDbEntity
8
2
62
256
6
ByLayer
370
13
48
1
60
0
100
AcDbDimension
2
DimnDraft3D5
10
12
20
-19.10005
30
0
11
16.846711
21
-19.10005
31
0
70
32
71
5
72
1
41
1
210
0
220
0
230
1
3
Standard
100
AcDbAlignedDimension
13
25
23
4
33
0
14
12
24
-8
34
0
50
0
100
AcDbRotatedDimension
1001
ACAD
1000
DSTYLE
1002
{
1070
   279
1070
     0
1070
   172
1070
     1
1070
   173
1070
     1
1070
   340
1005
238
1070
   271
1070
     1
1070
    77
1070
     1
1070
    73
1070
     0
1070
   171
1070
     3
1070
   274
1070
     4
1070
   177
1070
     2
1070
   176
1070
     2
1070
   178
1070
     7
1070
    78
1070
     8
1070
    41
1041
3.175
1070
   147
1041
1.75
1070
    42
1041
2.0
1070
    44
1041
2.0
1070
   140
1041
3.5
1070
   343
1005
24B
1070
   344
1005
24B
1002
}
0
DIMENSION
5
297
100
AcDbEntity
8
2
62
256
6
ByLayer
370
13
48
1
60
0
100
AcDbDimension
2
DimnDraft3D6
10
43.1
20
4
30
0
11
43.1
21
-7.820789
31
0
70
32
71
5
72
1
41
1
210
0
220
0
230
1
3
Standard
100
AcDbAlignedDimension
13
27
23
6
33
0
14
27
24
4
34
0
50
90
100
AcDbRotatedDimension
1001
ACAD
1000
DSTYLE
1002
{
1070
    74
1070
     0
1070
   279
1070
     0
1070
   172
1070
     1
1070
   173
1070
     1
1070
   340
1005
238
1070
   271
1070
     1
1070
    77
1070
     1
1070
    73
1070
     0
1070
   171
1070
     3
1070
   274
1070
     4
1070
   177
1070
     2
1070
   176
1070
     2
1070
   178
1070
     7
1070
    78
1070
     8
1070
    41
1041
3.175
1070
   147
1041
1.75
1070
    42
1041
2.0
1070
    44
1041
2.0
1070
   140
1041
3.5
1070
   343
1005
24B
1070
   344
1005
24B
1002
}
0
ENDSEC
0
SECTION
2
OBJECTS
0
DICTIONARY
5
301
330
0
100
AcDbDictionary
280
0
281
1
3
ACAD_GROUP
350
302
3
ACAD_MLINESTYLE
350
303
0
DICTIONARY
5
302
330
0
100
AcDbDictionary
280
0
281
1
0
DICTIONARY
5
303
330
0
100
AcDbDictionary
280
0
281
1
3
Standard
350
18
0
MLINESTYLE
5
18
330
303
100
AcDbMlineStyle
2
Standard
70
0
3

62
256
51
90
52
90
71
2
49
-0.5
62
256
6
ByLayer
49
0.5
62
256
6
ByLayer
0
RASTERVARIABLES
5
2f0
330

100
AcDbRasterVariables
90
0
70
1
71
1
72
1
0
ENDSEC
0
EOF
