0
SECTION
2
HEADER
9
$ACADVER
1
AC1015
9
$DWGCODEPAGE
3
ANSI_1252
9
$HANDSEED
5
2e9
9
$ANGBASE
50
0
9
$ANGDIR
70
0
9
$ATTMODE
70
1
9
$AUNITS
70
0
9
$AUPREC
70
0
9
$CECOLOR
62
256
9
$CELTSCALE
40
1
9
$CELTYPE
6
ByLayer
9
$CELWEIGHT
370
18
9
$CLAYER
8
0
9
$CMLJUST
70
0
9
$CMLSCALE
40
1
9
$CMLSTYLE
2
Standard
9
$DIMSTYLE
2
Standard
9
$TEXTSIZE
40
0.2
9
$TEXTSTYLE
7
Standard
9
$LUNITS
70
2
9
$LUPREC
70
4
9
$EXTNAMES
290
1
9
$INSUNITS
70
4
9
$LTSCALE
40
1
9
$LWDISPLAY
290
1
9
$PDMODE
70
0
9
$PDSIZE
40
0
9
$PLINEGEN
70
0
0
ENDSEC
0
SECTION
2
CLASSES
0
CLASS
1
RASTERVARIABLES
2
AcDbRasterVariables
3
ISM
90
0
280
0
281
0
0
ENDSEC
0
SECTION
2
TABLES
0
TABLE
2
VPORT
5
2df
100
AcDbSymbolTable
0
VPORT
5
1
100
AcDbSymbolTableRecord
100
AcDbViewportTableRecord
2
*Active
70
0
10
0
20
0
11
1
21
1
12
-1
22
1
13
0
23
0
14
0.5
24
0.5
15
10
25
10
16
0
26
0
36
1
17
0
27
0
37
0
0
ENDTAB
0
TABLE
2
LTYPE
5
2e0
100
AcDbSymbolTable
0
LTYPE
5
14
100
AcDbSymbolTableRecord
100
AcDbLinetypeTableRecord
70
0
2
ByBlock
3

72
65
73
0
40
0
0
LTYPE
5
15
100
AcDbSymbolTableRecord
100
AcDbLinetypeTableRecord
70
0
2
ByLayer
3

72
65
73
0
40
0
0
LTYPE
5
16
100
AcDbSymbolTableRecord
100
AcDbLinetypeTableRecord
70
0
2
CONTINUOUS
3
Solid line
72
65
73
0
40
0
0
LTYPE
5
6A
100
AcDbSymbolTableRecord
100
AcDbLinetypeTableRecord
70
0
2
CENTER
3
____ _ ____ _ ____ _ ____
72
65
73
4
40
47.5
49
22
74
0
49
-8.5
74
0
49
8.5
74
0
49
-8.5
74
0
0
LTYPE
5
6B
100
AcDbSymbolTableRecord
100
AcDbLinetypeTableRecord
70
0
2
DASHED
3
__ __ __ __ __ __ __ __ __
72
65
73
2
40
25.72
49
12.86
74
0
49
-12.86
74
0
0
ENDTAB
0
TABLE
2
LAYER
5
2e1
100
AcDbSymbolTable
0
LAYER
5
10
100
AcDbSymbolTableRecord
100
AcDbLayerTableRecord
2
0
70
0
62
7
6
CONTINUOUS
290
1
370
-3
390
0
0
LAYER
5
6D
100
AcDbSymbolTableRecord
100
AcDbLayerTableRecord
2
80
70
0
62
-6
6
CONTINUOUS
290
1
370
-3
390
0
0
LAYER
5
6F
100
AcDbSymbolTableRecord
100
AcDbLayerTableRecord
2
81
70
0
62
-3
6
CONTINUOUS
290
1
370
-3
390
0
0
LAYER
5
73
100
AcDbSymbolTableRecord
100
AcDbLayerTableRecord
2
1
70
0
62
4
6
CONTINUOUS
290
1
370
-3
390
0
0
LAYER
5
219
100
AcDbSymbolTableRecord
100
AcDbLayerTableRecord
2
2
70
0
62
7
6
CONTINUOUS
290
1
370
-3
390
0
0
LAYER
5
2cc
100
AcDbSymbolTableRecord
100
AcDbLayerTableRecord
2
SK1
70
0
62
4
6
CONTINUOUS
290
1
370
-3
390
0
0
LAYER
5
2cd
100
AcDbSymbolTableRecord
100
AcDbLayerTableRecord
2
SK2
70
0
62
7
6
CONTINUOUS
290
1
370
-3
390
0
0
LAYER
5
2ce
100
AcDbSymbolTableRecord
100
AcDbLayerTableRecord
2
SK6
70
0
62
5
6
CONTINUOUS
290
1
370
-3
390
0
0
ENDTAB
0
TABLE
2
STYLE
5
2e2
100
AcDbSymbolTable
0
STYLE
5
11
100
AcDbSymbolTableRecord
100
AcDbTextStyleTableRecord
2
Standard
3
txt
70
0
71
0
40
0
41
1
42
0
50
0
0
STYLE
5
213
100
AcDbSymbolTableRecord
100
AcDbTextStyleTableRecord
2
iso_b_vert
3
simplex.shx
70
0
71
0
40
0
41
1
42
0
50
0
0
STYLE
5
214
100
AcDbSymbolTableRecord
100
AcDbTextStyleTableRecord
2
DWGDirectTextStyle
3
simplex
70
0
71
0
40
0
41
1
42
0
50
0
0
ENDTAB
0
TABLE
2
DIMSTYLE
5
2e3
100
AcDbSymbolTable
100
AcDbDimStyleTable
0
DIMSTYLE
105
27
100
AcDbSymbolTableRecord
100
AcDbDimStyleTableRecord
2
Standard
70
0
3
<>
41
0.18
42
0.0625
44
0.18
140
0.18
147
0.09
73
0
74
0
77
1
271
2
275
0
278
52
280
0
340
11
0
ENDTAB
0
TABLE
2
VIEW
5
2e4
100
AcDbSymbolTable
0
ENDTAB
0
TABLE
2
UCS
5
2e5
100
AcDbSymbolTable
0
ENDTAB
0
TABLE
2
APPID
5
2e6
100
AcDbSymbolTable
0
APPID
5
12
100
AcDbSymbolTableRecord
100
AcDbRegAppTableRecord
2
ACAD
70
0
0
ENDTAB
0
TABLE
2
BLOCK_RECORD
5
2e7
100
AcDbSymbolTable
0
BLOCK_RECORD
5
1F
100
AcDbSymbolTableRecord
100
AcDbBlockTableRecord
2
*Model_Space
340
0
70
0
0
BLOCK_RECORD
5
1B
100
AcDbSymbolTableRecord
100
AcDbBlockTableRecord
2
*Paper_Space
340
0
70
0
0
BLOCK_RECORD
5
23
100
AcDbSymbolTableRecord
100
AcDbBlockTableRecord
2
*Paper_Space0
340
0
70
0
0
BLOCK_RECORD
5
217
100
AcDbSymbolTableRecord
100
AcDbBlockTableRecord
2
DimnDraft3D1
340
0
70
0
0
BLOCK_RECORD
5
226
100
AcDbSymbolTableRecord
100
AcDbBlockTableRecord
2
_CLOSED
340
0
70
0
0
BLOCK_RECORD
5
22D
100
AcDbSymbolTableRecord
100
AcDbBlockTableRecord
2
DimnDraft3D2
340
0
70
0
0
BLOCK_RECORD
5
23B
100
AcDbSymbolTableRecord
100
AcDbBlockTableRecord
2
DimnDraft3D3
340
0
70
0
0
BLOCK_RECORD
5
249
100
AcDbSymbolTableRecord
100
AcDbBlockTableRecord
2
DimnDraft3D4
340
0
70
0
0
BLOCK_RECORD
5
257
100
AcDbSymbolTableRecord
100
AcDbBlockTableRecord
2
DimnDraft3D5
340
0
70
0
0
BLOCK_RECORD
5
265
100
AcDbSymbolTableRecord
100
AcDbBlockTableRecord
2
DimnDraft3D6
340
0
70
0
0
ENDTAB
0
ENDSEC
0
SECTION
2
BLOCKS
0
BLOCK
5
20
100
AcDbEntity
8
0
100
AcDbBlockBegin
2
*Model_Space
70
0
10
0
20
0
30
0
3
*Model_Space
0
ENDBLK
5
21
100
AcDbEntity
8
0
100
AcDbBlockEnd
0
BLOCK
5
1C
100
AcDbEntity
8
0
100
AcDbBlockBegin
2
*Paper_Space
70
0
10
0
20
0
30
0
3
*Paper_Space
0
ENDBLK
5
1D
100
AcDbEntity
8
0
100
AcDbBlockEnd
0
BLOCK
5
24
100
AcDbEntity
8
0
100
AcDbBlockBegin
2
*Paper_Space0
70
0
10
0
20
0
30
0
3
*Paper_Space0
0
ENDBLK
5
25
100
AcDbEntity
8
0
100
AcDbBlockEnd
0
BLOCK
5
223
100
AcDbEntity
8
0
100
AcDbBlockBegin
2
DimnDraft3D1
70
0
10
0
20
0
30
0
3
DimnDraft3D1
0
MTEXT
5
218
100
AcDbEntity
8
2
62
256
6
ByLayer
370
18
48
1
60
0
100
AcDbMText
10
14.382895
20
29.97505
30
0
210
0
220
0
230
1
1
\W0.7640;47.6
40
3.5
41
0
44
1.084337
50
0
71
7
72
5
7
iso_b_vert
0
LINE
5
21A
100
AcDbEntity
8
2
62
256
6
ByLayer
370
13
48
1
60
0
100
AcDbLine
10
-6
20
14.5
30
0
11
-6
21
31.10005
31
0
39
0
210
0
220
0
230
1
0
LINE
5
21B
100
AcDbEntity
8
2
62
256
6
ByLayer
370
13
48
1
60
0
100
AcDbLine
10
41.6
20
-11
30
0
11
41.6
21
31.10005
31
0
39
0
210
0
220
0
230
1
0
LINE
5
21C
100
AcDbEntity
8
2
62
256
6
ByLayer
370
13
48
1
60
0
100
AcDbLine
10
-6
20
29.10005
30
0
11
41.6
21
29.10005
31
0
39
0
210
0
220
0
230
1
0
LINE
5
21D
100
AcDbEntity
8
2
62
256
6
ByLayer
370
13
48
1
60
0
100
AcDbLine
10
-6
20
29.10005
30
0
11
-2.825002
21
29.518047
31
0
39
0
210
0
220
0
230
1
0
LINE
5
21E
100
AcDbEntity
8
2
62
256
6
ByLayer
370
13
48
1
60
0
100
AcDbLine
10
-6
20
29.10005
30
0
11
-2.824998
21
28.682053
31
0
39
0
210
0
220
0
230
1
0
LINE
5
21F
100
AcDbEntity
8
2
62
256
6
ByLayer
370
13
48
1
60
0
100
AcDbLine
10
-2.825002
20
29.518047
30
0
11
-2.824998
21
28.682053
31
0
39
0
210
0
220
0
230
1
0
LINE
5
220
100
AcDbEntity
8
2
62
256
6
ByLayer
370
13
48
1
60
0
100
AcDbLine
10
41.6
20
29.10005
30
0
11
38.425002
21
28.682053
31
0
39
0
210
0
220
0
230
1
0
LINE
5
221
100
AcDbEntity
8
2
62
256
6
ByLayer
370
13
48
1
60
0
100
AcDbLine
10
41.6
20
29.10005
30
0
11
38.424998
21
29.518047
31
0
39
0
210
0
220
0
230
1
0
LINE
5
222
100
AcDbEntity
8
2
62
256
6
ByLayer
370
13
48
1
60
0
100
AcDbLine
10
38.425002
20
28.682053
30
0
11
38.424998
21
29.518047
31
0
39
0
210
0
220
0
230
1
0
ENDBLK
5
224
100
AcDbEntity
8
0
100
AcDbBlockEnd
0
BLOCK
5
227
100
AcDbEntity
8
0
100
AcDbBlockBegin
2
_CLOSED
70
0
10
0
20
0
30
0
3
_CLOSED
0
LINE
5
229
100
AcDbEntity
8
0
62
256
6
ByLayer
370
-2
48
1
60
0
100
AcDbLine
10
-1
20
0.166667
30
0
11
0
21
0
31
0
39
0
210
0
220
0
230
1
0
LINE
5
22A
100
AcDbEntity
8
0
62
256
6
ByLayer
370
-2
48
1
60
0
100
AcDbLine
10
0
20
0
30
0
11
-1
21
-0.166667
31
0
39
0
210
0
220
0
230
1
0
LINE
5
22B
100
AcDbEntity
8
0
62
256
6
ByLayer
370
-2
48
1
60
0
100
AcDbLine
10
-1
20
0.166667
30
0
11
-1
21
-0.166667
31
0
39
0
210
0
220
0
230
1
0
LINE
5
22C
100
AcDbEntity
8
0
62
256
6
ByLayer
370
-2
48
1
60
0
100
AcDbLine
10
0
20
0
30
0
11
-1
21
0
31
0
39
0
210
0
220
0
230
1
0
ENDBLK
5
228
100
AcDbEntity
8
0
100
AcDbBlockEnd
0
BLOCK
5
238
100
AcDbEntity
8
0
100
AcDbBlockBegin
2
DimnDraft3D2
70
0
10
0
20
0
30
0
3
DimnDraft3D2
0
MTEXT
5
22E
100
AcDbEntity
8
SK2
62
256
6
ByLayer
370
18
48
1
60
0
100
AcDbMText
10
-82.384868
20
-25.236273
30
0
210
0
220
0
230
1
1
\W0.5404;3
40
3.5
41
0
44
1.084337
50
0
71
7
72
5
7
iso_b_vert
0
LINE
5
22F
100
AcDbEntity
8
SK2
62
256
6
ByLayer
370
13
48
1
60
0
100
AcDbLine
10
-84
20
10.5
30
0
11
-84
21
-28.111273
31
0
39
0
210
0
220
0
230
1
0
LINE
5
230
100
AcDbEntity
8
SK2
62
256
6
ByLayer
370
13
48
1
60
0
100
AcDbLine
10
-81
20
-14.5
30
0
11
-81
21
-28.111273
31
0
39
0
210
0
220
0
230
1
0
LINE
5
231
100
AcDbEntity
8
SK2
62
256
6
ByLayer
370
13
48
1
60
0
100
AcDbLine
10
-92.75
20
-26.111273
30
0
11
-72.25
21
-26.111273
31
0
39
0
210
0
220
0
230
1
0
LINE
5
232
100
AcDbEntity
8
SK2
62
256
6
ByLayer
370
13
48
1
60
0
100
AcDbLine
10
-84
20
-26.111273
30
0
11
-87.174998
21
-26.529269
31
0
39
0
210
0
220
0
230
1
0
LINE
5
233
100
AcDbEntity
8
SK2
62
256
6
ByLayer
370
13
48
1
60
0
100
AcDbLine
10
-84
20
-26.111273
30
0
11
-87.175002
21
-25.693276
31
0
39
0
210
0
220
0
230
1
0
LINE
5
234
100
AcDbEntity
8
SK2
62
256
6
ByLayer
370
13
48
1
60
0
100
AcDbLine
10
-87.174998
20
-26.529269
30
0
11
-87.175002
21
-25.693276
31
0
39
0
210
0
220
0
230
1
0
LINE
5
235
100
AcDbEntity
8
SK2
62
256
6
ByLayer
370
13
48
1
60
0
100
AcDbLine
10
-81
20
-26.111273
30
0
11
-77.825002
21
-25.693276
31
0
39
0
210
0
220
0
230
1
0
LINE
5
236
100
AcDbEntity
8
SK2
62
256
6
ByLayer
370
13
48
1
60
0
100
AcDbLine
10
-81
20
-26.111273
30
0
11
-77.824998
21
-26.529269
31
0
39
0
210
0
220
0
230
1
0
LINE
5
237
100
AcDbEntity
8
SK2
62
256
6
ByLayer
370
13
48
1
60
0
100
AcDbLine
10
-77.825002
20
-25.693276
30
0
11
-77.824998
21
-26.529269
31
0
39
0
210
0
220
0
230
1
0
ENDBLK
5
239
100
AcDbEntity
8
0
100
AcDbBlockEnd
0
BLOCK
5
246
100
AcDbEntity
8
0
100
AcDbBlockBegin
2
DimnDraft3D3
70
0
10
0
20
0
30
0
3
DimnDraft3D3
0
MTEXT
5
23C
100
AcDbEntity
8
SK2
62
256
6
ByLayer
370
18
48
1
60
0
100
AcDbMText
10
-25.303289
20
35.97505
30
0
210
0
220
0
230
1
1
\W0.6864;125.6
40
3.5
41
0
44
1.084337
50
0
71
7
72
5
7
iso_b_vert
0
LINE
5
23D
100
AcDbEntity
8
SK2
62
256
6
ByLayer
370
13
48
1
60
0
100
AcDbLine
10
-84
20
14.5
30
0
11
-84
21
37.10005
31
0
39
0
210
0
220
0
230
1
0
LINE
5
23E
100
AcDbEntity
8
SK2
62
256
6
ByLayer
370
13
48
1
60
0
100
AcDbLine
10
41.6
20
-11
30
0
11
41.6
21
37.10005
31
0
39
0
210
0
220
0
230
1
0
LINE
5
23F
100
AcDbEntity
8
SK2
62
256
6
ByLayer
370
13
48
1
60
0
100
AcDbLine
10
-84
20
35.10005
30
0
11
41.6
21
35.10005
31
0
39
0
210
0
220
0
230
1
0
LINE
5
240
100
AcDbEntity
8
SK2
62
256
6
ByLayer
370
13
48
1
60
0
100
AcDbLine
10
-84
20
35.10005
30
0
11
-80.825002
21
35.518047
31
0
39
0
210
0
220
0
230
1
0
LINE
5
241
100
AcDbEntity
8
SK2
62
256
6
ByLayer
370
13
48
1
60
0
100
AcDbLine
10
-84
20
35.10005
30
0
11
-80.824998
21
34.682053
31
0
39
0
210
0
220
0
230
1
0
LINE
5
242
100
AcDbEntity
8
SK2
62
256
6
ByLayer
370
13
48
1
60
0
100
AcDbLine
10
-80.825002
20
35.518047
30
0
11
-80.824998
21
34.682053
31
0
39
0
210
0
220
0
230
1
0
LINE
5
243
100
AcDbEntity
8
SK2
62
256
6
ByLayer
370
13
48
1
60
0
100
AcDbLine
10
41.6
20
35.10005
30
0
11
38.425002
21
34.682053
31
0
39
0
210
0
220
0
230
1
0
LINE
5
244
100
AcDbEntity
8
SK2
62
256
6
ByLayer
370
13
48
1
60
0
100
AcDbLine
10
41.6
20
35.10005
30
0
11
38.424998
21
35.518047
31
0
39
0
210
0
220
0
230
1
0
LINE
5
245
100
AcDbEntity
8
SK2
62
256
6
ByLayer
370
13
48
1
60
0
100
AcDbLine
10
38.425002
20
34.682053
30
0
11
38.424998
21
35.518047
31
0
39
0
210
0
220
0
230
1
0
ENDBLK
5
247
100
AcDbEntity
8
0
100
AcDbBlockEnd
0
BLOCK
5
254
100
AcDbEntity
8
0
100
AcDbBlockBegin
2
DimnDraft3D4
70
0
10
0
20
0
30
0
3
DimnDraft3D4
0
MTEXT
5
24A
100
AcDbEntity
8
2
62
256
6
ByLayer
370
18
48
1
60
0
100
AcDbMText
10
20.2
20
-25.236273
30
0
210
0
220
0
230
1
1
\W0.7361;40
40
3.5
41
0
44
1.084337
50
0
71
7
72
5
7
iso_b_vert
0
LINE
5
24B
100
AcDbEntity
8
2
62
256
6
ByLayer
370
13
48
1
60
0
100
AcDbLine
10
41.6
20
-15
30
0
11
41.6
21
-28.111273
31
0
39
0
210
0
220
0
230
1
0
LINE
5
24C
100
AcDbEntity
8
2
62
256
6
ByLayer
370
13
48
1
60
0
100
AcDbLine
10
1.6
20
-14.5
30
0
11
1.6
21
-28.111273
31
0
39
0
210
0
220
0
230
1
0
LINE
5
24D
100
AcDbEntity
8
2
62
256
6
ByLayer
370
13
48
1
60
0
100
AcDbLine
10
41.6
20
-26.111273
30
0
11
1.6
21
-26.111273
31
0
39
0
210
0
220
0
230
1
0
LINE
5
24E
100
AcDbEntity
8
2
62
256
6
ByLayer
370
13
48
1
60
0
100
AcDbLine
10
41.6
20
-26.111273
30
0
11
38.425002
21
-26.529269
31
0
39
0
210
0
220
0
230
1
0
LINE
5
24F
100
AcDbEntity
8
2
62
256
6
ByLayer
370
13
48
1
60
0
100
AcDbLine
10
41.6
20
-26.111273
30
0
11
38.424998
21
-25.693276
31
0
39
0
210
0
220
0
230
1
0
LINE
5
250
100
AcDbEntity
8
2
62
256
6
ByLayer
370
13
48
1
60
0
100
AcDbLine
10
38.425002
20
-26.529269
30
0
11
38.424998
21
-25.693276
31
0
39
0
210
0
220
0
230
1
0
LINE
5
251
100
AcDbEntity
8
2
62
256
6
ByLayer
370
13
48
1
60
0
100
AcDbLine
10
1.6
20
-26.111273
30
0
11
4.774998
21
-25.693276
31
0
39
0
210
0
220
0
230
1
0
LINE
5
252
100
AcDbEntity
8
2
62
256
6
ByLayer
370
13
48
1
60
0
100
AcDbLine
10
1.6
20
-26.111273
30
0
11
4.775002
21
-26.529269
31
0
39
0
210
0
220
0
230
1
0
LINE
5
253
100
AcDbEntity
8
2
62
256
6
ByLayer
370
13
48
1
60
0
100
AcDbLine
10
4.774998
20
-25.693276
30
0
11
4.775002
21
-26.529269
31
0
39
0
210
0
220
0
230
1
0
ENDBLK
5
255
100
AcDbEntity
8
0
100
AcDbBlockEnd
0
BLOCK
5
262
100
AcDbEntity
8
0
100
AcDbBlockBegin
2
DimnDraft3D5
70
0
10
0
20
0
30
0
3
DimnDraft3D5
0
MTEXT
5
258
100
AcDbEntity
8
2
62
256
6
ByLayer
370
18
48
1
60
0
100
AcDbMText
10
65.825
20
-3.482895
30
0
210
0
220
0
230
1
1
\W0.7346;25.5
40
3.5
41
0
44
1.084337
50
90
71
7
72
5
7
iso_b_vert
0
LINE
5
259
100
AcDbEntity
8
2
62
256
6
ByLayer
370
13
48
1
60
0
100
AcDbLine
10
-4
20
12.5
30
0
11
68.7
21
12.5
31
0
39
0
210
0
220
0
230
1
0
LINE
5
25A
100
AcDbEntity
8
2
62
256
6
ByLayer
370
13
48
1
60
0
100
AcDbLine
10
43.6
20
-13
30
0
11
68.7
21
-13
31
0
39
0
210
0
220
0
230
1
0
LINE
5
25B
100
AcDbEntity
8
2
62
256
6
ByLayer
370
13
48
1
60
0
100
AcDbLine
10
66.7
20
12.5
30
0
11
66.7
21
-13
31
0
39
0
210
0
220
0
230
1
0
LINE
5
25C
100
AcDbEntity
8
2
62
256
6
ByLayer
370
13
48
1
60
0
100
AcDbLine
10
66.7
20
12.5
30
0
11
67.117997
21
9.325002
31
0
39
0
210
0
220
0
230
1
0
LINE
5
25D
100
AcDbEntity
8
2
62
256
6
ByLayer
370
13
48
1
60
0
100
AcDbLine
10
66.7
20
12.5
30
0
11
66.282003
21
9.324998
31
0
39
0
210
0
220
0
230
1
0
LINE
5
25E
100
AcDbEntity
8
2
62
256
6
ByLayer
370
13
48
1
60
0
100
AcDbLine
10
67.117997
20
9.325002
30
0
11
66.282003
21
9.324998
31
0
39
0
210
0
220
0
230
1
0
LINE
5
25F
100
AcDbEntity
8
2
62
256
6
ByLayer
370
13
48
1
60
0
100
AcDbLine
10
66.7
20
-13
30
0
11
66.282003
21
-9.825002
31
0
39
0
210
0
220
0
230
1
0
LINE
5
260
100
AcDbEntity
8
2
62
256
6
ByLayer
370
13
48
1
60
0
100
AcDbLine
10
66.7
20
-13
30
0
11
67.117997
21
-9.824998
31
0
39
0
210
0
220
0
230
1
0
LINE
5
261
100
AcDbEntity
8
2
62
256
6
ByLayer
370
13
48
1
60
0
100
AcDbLine
10
66.282003
20
-9.825002
30
0
11
67.117997
21
-9.824998
31
0
39
0
210
0
220
0
230
1
0
ENDBLK
5
263
100
AcDbEntity
8
0
100
AcDbBlockEnd
0
BLOCK
5
270
100
AcDbEntity
8
0
100
AcDbBlockBegin
2
DimnDraft3D6
70
0
10
0
20
0
30
0
3
DimnDraft3D6
0
MTEXT
5
266
100
AcDbEntity
8
2
62
256
6
ByLayer
370
18
48
1
60
0
100
AcDbMText
10
58.825
20
-24.314211
30
0
210
0
220
0
230
1
1
\W0.6380;4
40
3.5
41
0
44
1.084337
50
90
71
7
72
5
7
iso_b_vert
0
LINE
5
267
100
AcDbEntity
8
2
62
256
6
ByLayer
370
13
48
1
60
0
100
AcDbLine
10
43.6
20
-13
30
0
11
61.7
21
-13
31
0
39
0
210
0
220
0
230
1
0
LINE
5
268
100
AcDbEntity
8
2
62
256
6
ByLayer
370
13
48
1
60
0
100
AcDbLine
10
43.6
20
-9
30
0
11
61.7
21
-9
31
0
39
0
210
0
220
0
230
1
0
LINE
5
269
100
AcDbEntity
8
2
62
256
6
ByLayer
370
13
48
1
60
0
100
AcDbLine
10
59.7
20
-0.25
30
0
11
59.7
21
-25.189211
31
0
39
0
210
0
220
0
230
1
0
LINE
5
26A
100
AcDbEntity
8
2
62
256
6
ByLayer
370
13
48
1
60
0
100
AcDbLine
10
59.7
20
-13
30
0
11
60.117997
21
-16.174998
31
0
39
0
210
0
220
0
230
1
0
LINE
5
26B
100
AcDbEntity
8
2
62
256
6
ByLayer
370
13
48
1
60
0
100
AcDbLine
10
59.7
20
-13
30
0
11
59.282003
21
-16.175002
31
0
39
0
210
0
220
0
230
1
0
LINE
5
26C
100
AcDbEntity
8
2
62
256
6
ByLayer
370
13
48
1
60
0
100
AcDbLine
10
60.117997
20
-16.174998
30
0
11
59.282003
21
-16.175002
31
0
39
0
210
0
220
0
230
1
0
LINE
5
26D
100
AcDbEntity
8
2
62
256
6
ByLayer
370
13
48
1
60
0
100
AcDbLine
10
59.7
20
-9
30
0
11
59.282003
21
-5.825002
31
0
39
0
210
0
220
0
230
1
0
LINE
5
26E
100
AcDbEntity
8
2
62
256
6
ByLayer
370
13
48
1
60
0
100
AcDbLine
10
59.7
20
-9
30
0
11
60.117997
21
-5.824998
31
0
39
0
210
0
220
0
230
1
0
LINE
5
26F
100
AcDbEntity
8
2
62
256
6
ByLayer
370
13
48
1
60
0
100
AcDbLine
10
59.282003
20
-5.825002
30
0
11
60.117997
21
-5.824998
31
0
39
0
210
0
220
0
230
1
0
ENDBLK
5
271
100
AcDbEntity
8
0
100
AcDbBlockEnd
0
ENDSEC
0
SECTION
2
ENTITIES
0
ARC
5
111
100
AcDbEntity
8
1
62
256
6
ByLayer
370
18
48
1
60
0
100
AcDbCircle
39
0
10
1.6
20
-7.725
30
0
40
1.6
210
0
220
0
230
1
100
AcDbArc
50
180
51
270
0
ARC
5
112
100
AcDbEntity
8
SK1
62
256
6
ByLayer
370
18
48
1
60
0
100
AcDbCircle
39
0
10
7.227723
20
-14.025
30
0
40
1.60000000000474
210
0
220
0
230
-1
100
AcDbArc
50
90
51
122.461745
0
ARC
5
113
100
AcDbEntity
8
1
62
256
6
ByLayer
370
18
48
1
60
0
100
AcDbCircle
39
0
10
1.6
20
-7.725
30
0
40
1.6
210
0
220
0
230
1
100
AcDbArc
50
180
51
270
0
ARC
5
114
100
AcDbEntity
8
1
62
256
6
ByLayer
370
18
48
1
60
0
100
AcDbCircle
39
0
10
7.227723
20
-14.025
30
0
40
1.60000000000474
210
0
220
0
230
-1
100
AcDbArc
50
90
51
122.461745
0
ELLIPSE
5
115
100
AcDbEntity
8
1
62
256
6
ByLayer
370
18
48
1
60
0
100
AcDbEllipse
10
34.984806
20
-11
30
0
11
1.68451585122089
21
1.70243750814914E-15
31
0
210
0
220
0
230
-1
40
0.445232
41
0.995211031746387
42
-0.995211031746382
0
ELLIPSE
5
116
100
AcDbEntity
8
1
62
256
6
ByLayer
370
13
48
1
60
0
100
AcDbEllipse
10
37.364493
20
-11
30
0
11
1.63188711718081
21
4.62499691926037E-08
31
0
210
0
220
0
230
-1
40
0.459591
41
-2.00702500708017
42
-1.95476872295405
0
ELLIPSE
5
117
100
AcDbEntity
8
1
62
256
6
ByLayer
370
13
48
1
60
0
100
AcDbEllipse
10
37.890882
20
-9.830285
30
0
11
0.999555377594336
21
0.0750740152180828
31
0
210
0
220
0
230
-1
40
0.397167
41
1.6006176394233
42
1.96711290950963
0
ELLIPSE
5
118
100
AcDbEntity
8
1
62
256
6
ByLayer
370
13
48
1
60
0
100
AcDbEllipse
10
37.364493
20
-11
30
0
11
1.63188705684541
21
-6.78848075523296E-08
31
0
210
0
220
0
230
-1
40
0.459591
41
1.95476870528358
42
2.00702499109829
0
ELLIPSE
5
119
100
AcDbEntity
8
1
62
256
6
ByLayer
370
13
48
1
60
0
100
AcDbEllipse
10
37.24586
20
-11.458356
30
0
11
0.799644302092094
21
-0.0600592121788381
31
0
210
0
220
0
230
-1
40
0.397167
41
1.17447974407844
42
1.89004086455368
0
ELLIPSE
5
11A
100
AcDbEntity
8
1
62
256
6
ByLayer
370
13
48
1
60
0
100
AcDbEllipse
10
41.352853
20
-12.154812
30
0
11
-0.0533981556875962
21
0.0845496124719874
31
0
210
0
220
0
230
1
40
0.139768
41
-1.57717485146108
42
-0.740023965275252
0
ELLIPSE
5
11B
100
AcDbEntity
8
1
62
256
6
ByLayer
370
13
48
1
60
0
100
AcDbEllipse
10
37.24586
20
-10.541644
30
0
11
0.799644302088817
21
0.0600592121785639
31
0
210
0
220
0
230
-1
40
0.397167
41
-1.89004086455511
42
-1.17447974407683
0
ELLIPSE
5
11C
100
AcDbEntity
8
1
62
256
6
ByLayer
370
13
48
1
60
0
100
AcDbEllipse
10
37.890882
20
-12.169715
30
0
11
0.999555377490458
21
-0.0750740151909481
31
0
210
0
220
0
230
-1
40
0.397167
41
-1.9671129095012
42
-1.60061763937739
0
ELLIPSE
5
11D
100
AcDbEntity
8
1
62
256
6
ByLayer
370
13
48
1
60
0
100
AcDbEllipse
10
37.24
20
-10.448926
30
0
11
0.899768154458711
21
0.0577956472349818
31
0
210
0
220
0
230
-1
40
0.353437
41
-1.89716340067298
42
-1.18160228020005
0
ELLIPSE
5
11E
100
AcDbEntity
8
1
62
256
6
ByLayer
370
13
48
1
60
0
100
AcDbEllipse
10
37.526677
20
-10.132766
30
0
11
-0.00896052458610162
21
-0.0995977359137338
31
0
210
0
220
0
230
1
40
0.357088
41
0.407276239897592
42
1.60291149819115
0
ELLIPSE
5
11F
100
AcDbEntity
8
1
62
256
6
ByLayer
370
13
48
1
60
0
100
AcDbEllipse
10
36.966384
20
-10.16623
30
0
11
0.0204060592957395
21
-0.0978958259785307
31
0
210
0
220
0
230
1
40
0.335642
41
-1.64064594521365
42
-0.403652442248954
0
ELLIPSE
5
120
100
AcDbEntity
8
1
62
256
6
ByLayer
370
13
48
1
60
0
100
AcDbEllipse
10
37.526677
20
-11.867234
30
0
11
0.00896052458610168
21
-0.0995977359137339
31
0
210
0
220
0
230
1
40
0.357088
41
1.53868115539872
42
2.7343164136922
0
ELLIPSE
5
121
100
AcDbEntity
8
1
62
256
6
ByLayer
370
13
48
1
60
0
100
AcDbEllipse
10
37.24
20
-11.551074
30
0
11
0.899768154441953
21
-0.0577956472335694
31
0
210
0
220
0
230
-1
40
0.353437
41
1.18160228019351
42
1.89716340068039
0
ELLIPSE
5
122
100
AcDbEntity
8
1
62
256
6
ByLayer
370
13
48
1
60
0
100
AcDbEllipse
10
36.966384
20
-11.83377
30
0
11
-0.02040605929574
21
-0.0978958259785306
31
0
210
0
220
0
230
1
40
0.335642
41
-2.73794021134111
42
-1.50094670837614
0
ELLIPSE
5
123
100
AcDbEntity
8
1
62
256
6
ByLayer
370
13
48
1
60
0
100
AcDbEllipse
10
37.885022
20
-12.262433
30
0
11
0.899334980997473
21
-0.0784946153729321
31
0
210
0
220
0
230
-1
40
0.44069
41
-1.97573638555869
42
-1.60924111543054
0
ELLIPSE
5
124
100
AcDbEntity
8
1
62
256
6
ByLayer
370
13
48
1
60
0
100
AcDbEllipse
10
37.885022
20
-9.737567
30
0
11
0.899334981148104
21
0.0784946154213523
31
0
210
0
220
0
230
-1
40
0.44069
41
1.60924111551352
42
1.97573638558131
0
ELLIPSE
5
125
100
AcDbEntity
8
1
62
256
6
ByLayer
370
13
48
1
60
0
100
AcDbEllipse
10
36.747318
20
-10.211894
30
0
11
0.0204060592957395
21
-0.0978958259785307
31
0
210
0
220
0
230
1
40
0.335642
41
-1.64064594521365
42
-0.403652442248906
0
ELLIPSE
5
126
100
AcDbEntity
8
1
62
256
6
ByLayer
370
13
48
1
60
0
100
AcDbEllipse
10
36.747318
20
-11.788106
30
0
11
-0.02040605929574
21
-0.0978958259785306
31
0
210
0
220
0
230
1
40
0.335642
41
-2.73794021134071
42
-1.50094670837614
0
ELLIPSE
5
127
100
AcDbEntity
8
1
62
256
6
ByLayer
370
13
48
1
60
0
100
AcDbEllipse
10
37.330291
20
-10.999999
30
0
11
1.64752991591428
21
3.40863452730947E-07
31
0
210
0
220
0
230
-1
40
0.515923
41
-1.99606314640825
42
-1.95476849978327
0
ELLIPSE
5
128
100
AcDbEntity
8
1
62
256
6
ByLayer
370
13
48
1
60
0
100
AcDbEllipse
10
37.330291
20
-11
30
0
11
1.64753043023417
21
-1.14814980457715E-07
31
0
210
0
220
0
230
-1
40
0.515924
41
1.95476867318085
42
1.99606330862881
0
ELLIPSE
5
129
100
AcDbEntity
8
1
62
256
6
ByLayer
370
13
48
1
60
0
100
AcDbEllipse
10
38.409145
20
-9.914957
30
0
11
0.0993076742641672
21
0.21849024196115
31
0
210
0
220
0
230
1
40
0.684643
41
-1.82065987921347
42
-1.32093277447541
0
ELLIPSE
5
12A
100
AcDbEntity
8
1
62
256
6
ByLayer
370
13
48
1
60
0
100
AcDbEllipse
10
41.513527
20
-12.005335
30
0
11
-0.0833341889559587
21
0.055275789917943
31
0
210
0
220
0
230
1
40
0.125151
41
-1.63388084261208
42
-1.00888984397393
0
ELLIPSE
5
12B
100
AcDbEntity
8
1
62
256
6
ByLayer
370
13
48
1
60
0
100
AcDbEllipse
10
38.409145
20
-12.085043
30
0
11
0.0993076742641673
21
-0.218490241961151
31
0
210
0
220
0
230
1
40
0.684643
41
1.32093277447541
42
1.8206598792135
0
ELLIPSE
5
12C
100
AcDbEntity
8
1
62
256
6
ByLayer
370
13
48
1
60
0
100
AcDbEllipse
10
38.365057
20
-11.864167
30
0
11
0.0628430094928668
21
-0.0777866065455966
31
0
210
0
220
0
230
1
40
0.861674
41
1.63965370412772
42
2.32457401880077
0
ELLIPSE
5
12D
100
AcDbEntity
8
1
62
256
6
ByLayer
370
13
48
1
60
0
100
AcDbEllipse
10
38.365057
20
-10.135833
30
0
11
-0.0628430094928667
21
-0.0777866065455968
31
0
210
0
220
0
230
1
40
0.861674
41
0.817018634788941
42
1.50193894946207
0
ELLIPSE
5
12E
100
AcDbEntity
8
1
62
256
6
ByLayer
370
13
48
1
60
0
100
AcDbEllipse
10
39.858781
20
-12.375588
30
0
11
0.058481849775624
21
0.23276570461909
31
0
210
0
220
0
230
1
40
0.017037
41
0.664838164893807
42
1.50309079968203
0
ELLIPSE
5
12F
100
AcDbEntity
8
1
62
256
6
ByLayer
370
13
48
1
60
0
100
AcDbEllipse
10
38.628622
20
-12.116369
30
0
11
0.0296712398023679
21
0.238158807371448
31
0
210
0
220
0
230
1
40
0.701267
41
-1.43405097029582
42
-0.787275740372037
0
ELLIPSE
5
130
100
AcDbEntity
8
1
62
256
6
ByLayer
370
13
48
1
60
0
100
AcDbEllipse
10
39.858781
20
-9.624412
30
0
11
0.0584818497756239
21
-0.23276570461909
31
0
210
0
220
0
230
1
40
0.017037
41
-1.50309079968203
42
-0.664838164894965
0
ELLIPSE
5
131
100
AcDbEntity
8
1
62
256
6
ByLayer
370
13
48
1
60
0
100
AcDbEllipse
10
38.628622
20
-9.883631
30
0
11
0.0296712398023675
21
-0.238158807371448
31
0
210
0
220
0
230
1
40
0.701267
41
0.787275740371965
42
1.43405097029582
0
ELLIPSE
5
132
100
AcDbEntity
8
1
62
256
6
ByLayer
370
13
48
1
60
0
100
AcDbEllipse
10
36.66768
20
-10.225711
30
0
11
-0.0453539127209969
21
-0.0210481020734934
31
0
210
0
220
0
230
1
40
0.15145
41
-1.25535186362499
42
-0.415505137037504
0
ELLIPSE
5
133
100
AcDbEntity
8
1
62
256
6
ByLayer
370
13
48
1
60
0
100
AcDbEllipse
10
36.246487
20
-9.453962
30
0
11
-0.0394011819793233
21
-0.0307822490833963
31
0
210
0
220
0
230
1
40
0.218654
41
-1.29790181863593
42
-0.756489013689365
0
ELLIPSE
5
134
100
AcDbEntity
8
1
62
256
6
ByLayer
370
13
48
1
60
0
100
AcDbEllipse
10
36.66768
20
-11.774289
30
0
11
0.0453539127209971
21
-0.0210481020734929
31
0
210
0
220
0
230
1
40
0.15145
41
-2.72608751655256
42
-1.88624078996467
0
ELLIPSE
5
135
100
AcDbEntity
8
1
62
256
6
ByLayer
370
13
48
1
60
0
100
AcDbEllipse
10
36.246487
20
-12.546038
30
0
11
0.0394011819793204
21
-0.0307822490833999
31
0
210
0
220
0
230
1
40
0.218654
41
-2.38510363990009
42
-1.84369083495359
0
ELLIPSE
5
136
100
AcDbEntity
8
1
62
256
6
ByLayer
370
13
48
1
60
0
100
AcDbEllipse
10
36.671676
20
-11.725081
30
0
11
0.0431707448900942
21
0.0252247256800625
31
0
210
0
220
0
230
1
40
0.873615
41
1.03058312084529
42
2.18027064336919
0
ELLIPSE
5
137
100
AcDbEntity
8
1
62
256
6
ByLayer
370
13
48
1
60
0
100
AcDbEllipse
10
36.671676
20
-10.274919
30
0
11
0.0431707448900942
21
-0.0252247256800625
31
0
210
0
220
0
230
1
40
0.873615
41
-2.18027064336952
42
-1.03058312084562
0
ELLIPSE
5
138
100
AcDbEntity
8
1
62
256
6
ByLayer
370
13
48
1
60
0
100
AcDbEllipse
10
38.411038
20
-12.084833
30
0
11
0.0381290273564358
21
0.236951845894587
31
0
210
0
220
0
230
1
40
0.698537
41
-1.40913325933156
42
-0.804380097280459
0
ELLIPSE
5
139
100
AcDbEntity
8
1
62
256
6
ByLayer
370
13
48
1
60
0
100
AcDbEllipse
10
38.411038
20
-9.915167
30
0
11
0.0381290273564358
21
-0.236951845894587
31
0
210
0
220
0
230
1
40
0.698537
41
0.804380097280459
42
1.40913325933156
0
ELLIPSE
5
13A
100
AcDbEntity
8
1
62
256
6
ByLayer
370
13
48
1
60
0
100
AcDbEllipse
10
36.601973
20
-10.465478
30
0
11
0.0488172744774217
21
-0.0108108146129732
31
0
210
0
220
0
230
1
40
0.649178
41
-2.29846695859499
42
-1.30973779548819
0
ELLIPSE
5
13B
100
AcDbEntity
8
1
62
256
6
ByLayer
370
13
48
1
60
0
100
AcDbEllipse
10
36.601973
20
-11.534522
30
0
11
0.0488172744774217
21
0.0108108146129732
31
0
210
0
220
0
230
1
40
0.649178
41
1.30973779548848
42
2.29846695859521
0
ELLIPSE
5
13C
100
AcDbEntity
8
1
62
256
6
ByLayer
370
13
48
1
60
0
100
AcDbEllipse
10
38.455379
20
-10.211894
30
0
11
-0.0663198302365384
21
-0.0748443726501648
31
0
210
0
220
0
230
1
40
0.871893
41
0.856507032384849
42
1.52920128671772
0
ELLIPSE
5
13D
100
AcDbEntity
8
1
62
256
6
ByLayer
370
13
48
1
60
0
100
AcDbEllipse
10
38.455379
20
-11.788106
30
0
11
0.0663198302365375
21
-0.0748443726501656
31
0
210
0
220
0
230
1
40
0.871893
41
1.61239136687193
42
2.28508562120493
0
ELLIPSE
5
13E
100
AcDbEntity
8
1
62
256
6
ByLayer
370
13
48
1
60
0
100
AcDbEllipse
10
36.229235
20
-9.441479
30
0
11
2.96302531225332E-05
21
-0.0499999912204803
31
0
210
0
220
0
230
1
40
0.687053
41
-1.57120347777985
42
-1.23545988901365
0
ELLIPSE
5
13F
100
AcDbEntity
8
1
62
256
6
ByLayer
370
13
48
1
60
0
100
AcDbEllipse
10
36.229235
20
-12.558521
30
0
11
-2.96302531218854E-05
21
-0.0499999912204803
31
0
210
0
220
0
230
1
40
0.687053
41
-1.90613276457599
42
-1.57038917580995
0
ELLIPSE
5
140
100
AcDbEntity
8
1
62
256
6
ByLayer
370
13
48
1
60
0
100
AcDbEllipse
10
38.892029
20
-10.512415
30
0
11
0.0874722239911491
21
-0.390318600671352
31
0
210
0
220
0
230
1
40
0.698392
41
-2.4149403133249
42
-2.11118245994092
0
ELLIPSE
5
141
100
AcDbEntity
8
1
62
256
6
ByLayer
370
13
48
1
60
0
100
AcDbEllipse
10
38.892029
20
-11.487585
30
0
11
0.0874722239911492
21
0.390318600671352
31
0
210
0
220
0
230
1
40
0.698392
41
2.11118245994091
42
2.41494031332489
0
ELLIPSE
5
142
100
AcDbEntity
8
1
62
256
6
ByLayer
370
13
48
1
60
0
100
AcDbEllipse
10
36.646066
20
-11.446424
30
0
11
0.0212624954428799
21
-0.0452537985979245
31
0
210
0
220
0
230
1
40
0.397259
41
2.03740170297214
42
2.86665979515067
0
ELLIPSE
5
143
100
AcDbEntity
8
1
62
256
6
ByLayer
370
13
48
1
60
0
100
AcDbEllipse
10
36.646066
20
-10.553576
30
0
11
0.0212624954428813
21
0.0452537985979238
31
0
210
0
220
0
230
1
40
0.397259
41
-2.86665979515067
42
-2.0374017029721
0
ELLIPSE
5
144
100
AcDbEntity
8
1
62
256
6
ByLayer
370
13
48
1
60
0
100
AcDbEllipse
10
38.472998
20
-11.769537
30
0
11
0.0784611863610882
21
-0.0619987276870308
31
0
210
0
220
0
230
1
40
0.873195
41
1.45974972721522
42
2.10501810958158
0
ELLIPSE
5
145
100
AcDbEntity
8
1
62
256
6
ByLayer
370
13
48
1
60
0
100
AcDbEllipse
10
38.472998
20
-10.230463
30
0
11
-0.0784611863611367
21
-0.0619987276869693
31
0
210
0
220
0
230
1
40
0.873195
41
1.03657454400862
42
1.68184292637543
0
ELLIPSE
5
146
100
AcDbEntity
8
1
62
256
6
ByLayer
370
13
48
1
60
0
100
AcDbEllipse
10
38.543585
20
-10.326889
30
0
11
-0.0809620682329364
21
-0.058695344853279
31
0
210
0
220
0
230
1
40
0.756283
41
1.17291667305385
42
1.92455286660233
0
ELLIPSE
5
147
100
AcDbEntity
8
1
62
256
6
ByLayer
370
13
48
1
60
0
100
AcDbEllipse
10
38.543585
20
-11.673111
30
0
11
0.0809620682329358
21
-0.0586953448532799
31
0
210
0
220
0
230
1
40
0.756283
41
1.21703978698746
42
1.96867598053609
0
ELLIPSE
5
148
100
AcDbEntity
8
1
62
256
6
ByLayer
370
13
48
1
60
0
100
AcDbEllipse
10
36.806238
20
-10.620378
30
0
11
0.0173833813679464
21
0.0468808921866525
31
0
210
0
220
0
230
1
40
0.320428
41
-2.92457512659403
42
-1.97909853952213
0
ELLIPSE
5
149
100
AcDbEntity
8
1
62
256
6
ByLayer
370
13
48
1
60
0
100
AcDbEllipse
10
36.806238
20
-11.379622
30
0
11
0.0173833813678365
21
-0.0468808921866932
31
0
210
0
220
0
230
1
40
0.320428
41
1.97909853952274
42
2.92457512659539
0
ELLIPSE
5
14A
100
AcDbEntity
8
1
62
256
6
ByLayer
370
13
48
1
60
0
100
AcDbEllipse
10
36.950151
20
-11.131886
30
0
11
0.0496862814333484
21
0.00559226584901827
31
0
210
0
220
0
230
1
40
0.148777
41
1.39817586461252
42
2.49393692538391
0
ELLIPSE
5
14B
100
AcDbEntity
8
1
62
256
6
ByLayer
370
13
48
1
60
0
100
AcDbEllipse
10
36.815466
20
-11.376202
30
0
11
0.0173706970697336
21
-0.0468855935582728
31
0
210
0
220
0
230
1
40
0.318454
41
1.97468567311163
42
2.92535400620152
0
ELLIPSE
5
14C
100
AcDbEntity
8
1
62
256
6
ByLayer
370
13
48
1
60
0
100
AcDbEllipse
10
36.815466
20
-10.623798
30
0
11
0.0173706970696218
21
0.0468855935583142
31
0
210
0
220
0
230
1
40
0.318454
41
-2.92535400620404
42
-1.97468567311255
0
ELLIPSE
5
14D
100
AcDbEntity
8
1
62
256
6
ByLayer
370
13
48
1
60
0
100
AcDbEllipse
10
36.950151
20
-10.868114
30
0
11
0.0496862814333484
21
-0.00559226584901837
31
0
210
0
220
0
230
1
40
0.148777
41
-2.49393692538399
42
-1.39817586461238
0
ELLIPSE
5
14E
100
AcDbEntity
8
1
62
256
6
ByLayer
370
13
48
1
60
0
100
AcDbEllipse
10
38.690562
20
-10.48506
30
0
11
-0.0637117915960023
21
-0.0770766346672425
31
0
210
0
220
0
230
1
40
0.52278
41
1.17272243764698
42
1.97869210912819
0
ELLIPSE
5
14F
100
AcDbEntity
8
1
62
256
6
ByLayer
370
13
48
1
60
0
100
AcDbEllipse
10
38.690562
20
-11.51494
30
0
11
-0.0637117915966215
21
0.0770766346667308
31
0
210
0
220
0
230
1
40
0.52278
41
-1.97869210881555
42
-1.17272243762732
0
ELLIPSE
5
150
100
AcDbEntity
8
1
62
256
6
ByLayer
370
13
48
1
60
0
100
AcDbEllipse
10
40.747654
20
-9.574998
30
0
11
-0.00560126668057479
21
-0.239934628204378
31
0
210
0
220
0
230
1
40
0.172043
41
-1.49800588930574
42
-0.732097455140939
0
ELLIPSE
5
151
100
AcDbEntity
8
1
62
256
6
ByLayer
370
13
48
1
60
0
100
AcDbEllipse
10
40.747654
20
-12.425002
30
0
11
-0.00560126668057452
21
0.239934628204378
31
0
210
0
220
0
230
1
40
0.172043
41
0.732097455140939
42
1.49800588930574
0
ELLIPSE
5
152
100
AcDbEntity
8
1
62
256
6
ByLayer
370
13
48
1
60
0
100
AcDbEllipse
10
40.358781
20
-12.428796
30
0
11
-0.00824662055120358
21
0.239858277425409
31
0
210
0
220
0
230
1
40
0.002403
41
-1.50102444918796
42
-0.709373157671079
0
ELLIPSE
5
153
100
AcDbEntity
8
1
62
256
6
ByLayer
370
13
48
1
60
0
100
AcDbEllipse
10
40.358781
20
-9.571204
30
0
11
-0.00824662055120385
21
-0.239858277425409
31
0
210
0
220
0
230
1
40
0.002403
41
0.70937315767104
42
1.50102444918882
0
ELLIPSE
5
154
100
AcDbEntity
8
1
62
256
6
ByLayer
370
13
48
1
60
0
100
AcDbEllipse
10
41.352853
20
-9.845188
30
0
11
-0.0533981556875962
21
-0.0845496124719873
31
0
210
0
220
0
230
1
40
0.139768
41
0.740023965275252
42
1.57717485146101
0
ELLIPSE
5
155
100
AcDbEntity
8
1
62
256
6
ByLayer
370
13
48
1
60
0
100
AcDbEllipse
10
41.513527
20
-9.994665
30
0
11
-0.0833341889559587
21
-0.055275789917943
31
0
210
0
220
0
230
1
40
0.125151
41
1.00888984397348
42
1.63388084261208
0
ELLIPSE
5
156
100
AcDbEntity
8
1
62
256
6
ByLayer
370
13
48
1
60
0
100
AcDbEllipse
10
40.858678
20
-11.82272
30
0
11
0.0148293336171678
21
0.399725019062444
31
0
210
0
220
0
230
1
40
0.406503
41
-2.33595515067483
42
-1.5557166718563
0
ELLIPSE
5
157
100
AcDbEntity
8
1
62
256
6
ByLayer
370
13
48
1
60
0
100
AcDbEllipse
10
41.123358
20
-9.685726
30
0
11
-0.0777628762498865
21
-0.062872371335467
31
0
210
0
220
0
230
1
40
0.13045
41
1.15581636427955
42
1.62182792903084
0
ELLIPSE
5
158
100
AcDbEntity
8
1
62
256
6
ByLayer
370
13
48
1
60
0
100
AcDbEllipse
10
41.220403
20
-9.763099
30
0
11
-0.0518341759381041
21
-0.0855173561612944
31
0
210
0
220
0
230
1
40
0.13986
41
0.736311954700658
42
1.57460332353076
0
ELLIPSE
5
159
100
AcDbEntity
8
1
62
256
6
ByLayer
370
13
48
1
60
0
100
AcDbEllipse
10
40.858678
20
-10.17728
30
0
11
0.0148293336171675
21
-0.399725019062444
31
0
210
0
220
0
230
1
40
0.406503
41
1.5557166718563
42
2.33595515067483
0
ELLIPSE
5
15A
100
AcDbEntity
8
1
62
256
6
ByLayer
370
13
48
1
60
0
100
AcDbEllipse
10
41.220403
20
-12.236901
30
0
11
-0.051834175938104
21
0.0855173561612944
31
0
210
0
220
0
230
1
40
0.13986
41
-1.57460332353084
42
-0.736311954700089
0
ELLIPSE
5
15B
100
AcDbEntity
8
1
62
256
6
ByLayer
370
13
48
1
60
0
100
AcDbEllipse
10
41.535862
20
-10.029285
30
0
11
-0.0846493904271148
21
-0.0532398412874971
31
0
210
0
220
0
230
1
40
0.065231
41
1.04577954889757
42
1.67414184501542
0
ELLIPSE
5
15C
100
AcDbEntity
8
1
62
256
6
ByLayer
370
13
48
1
60
0
100
AcDbEllipse
10
41.123358
20
-12.314274
30
0
11
-0.0777628762498864
21
0.062872371335467
31
0
210
0
220
0
230
1
40
0.13045
41
-1.62182792903077
42
-1.1558163642798
0
ELLIPSE
5
15D
100
AcDbEntity
8
1
62
256
6
ByLayer
370
13
48
1
60
0
100
AcDbEllipse
10
41.535862
20
-11.970715
30
0
11
-0.0846493904271148
21
0.0532398412874971
31
0
210
0
220
0
230
1
40
0.065231
41
-1.67414184501563
42
-1.045779548897
0
ELLIPSE
5
15E
100
AcDbEntity
8
1
62
256
6
ByLayer
370
18
48
1
60
0
100
AcDbEllipse
10
34.984806
20
-11
30
0
11
1.68451585122089
21
1.70243750814914E-15
31
0
210
0
220
0
230
-1
40
0.445232
41
0.995211031746387
42
-0.995211031746382
0
ELLIPSE
5
15F
100
AcDbEntity
8
1
62
256
6
ByLayer
370
18
48
1
60
0
100
AcDbEllipse
10
41.106337
20
-9.023661
30
0
11
0.239994305245042
21
0.0170571478764938
31
0
210
0
220
0
230
-1
40
0.096932
41
-1.73802346924103
42
-1.44202876500373
0
ELLIPSE
5
160
100
AcDbEntity
8
1
62
256
6
ByLayer
370
18
48
1
60
0
100
AcDbEllipse
10
37.885022
20
-12.947453
30
0
11
0.898944108328516
21
-0.523851238241478
31
0
210
0
220
0
230
-1
40
0.083195
41
-1.85746854466648
42
-1.74744280044991
0
ELLIPSE
5
161
100
AcDbEntity
8
1
62
256
6
ByLayer
370
18
48
1
60
0
100
AcDbEllipse
10
38.455207
20
-9.154759
30
0
11
0.25184182412804
21
0.0179368090001824
31
0
210
0
220
0
230
-1
40
0.095335
41
-1.55727336981935
42
-0.770655746893019
0
ELLIPSE
5
162
100
AcDbEntity
8
1
62
256
6
ByLayer
370
18
48
1
60
0
100
AcDbEllipse
10
41.106337
20
-12.976339
30
0
11
0.23999430451487
21
-0.0170571478248338
31
0
210
0
220
0
230
-1
40
0.096932
41
1.4420287645991
42
1.73802346974385
0
ELLIPSE
5
163
100
AcDbEntity
8
1
62
256
6
ByLayer
370
18
48
1
60
0
100
AcDbEllipse
10
37.970355
20
-9.567363
30
0
11
0.117518340696116
21
-0.3843851723858
31
1.94289029309403E-16
210
1.60117654267523E-15
220
-1.59252210866294E-17
230
-1
40
0.995153
41
-3.0584188357418
42
-2.91576259201242
0
ELLIPSE
5
164
100
AcDbEntity
8
1
62
256
6
ByLayer
370
18
48
1
60
0
100
AcDbEllipse
10
37.885022
20
-9.052547
30
0
11
0.898944122141663
21
0.523851246987053
31
0
210
0
220
0
230
-1
40
0.083195
41
1.74744280490918
42
1.85746854748963
0
ELLIPSE
5
165
100
AcDbEntity
8
1
62
256
6
ByLayer
370
18
48
1
60
0
100
AcDbEllipse
10
41.648748
20
-11.970715
30
0
11
1.1330996904646E-16
21
0.4
31
0
210
0
220
0
230
1
40
0.121869
41
1.5707963267949
42
1.64009079051253
0
ELLIPSE
5
166
100
AcDbEntity
8
1
62
256
6
ByLayer
370
18
48
1
60
0
100
AcDbEllipse
10
38.455207
20
-12.845241
30
0
11
0.251841824136427
21
-0.0179368090012434
31
0
210
0
220
0
230
-1
40
0.095335
41
0.770655746901059
42
1.55727336980136
0
ELLIPSE
5
167
100
AcDbEntity
8
1
62
256
6
ByLayer
370
18
48
1
60
0
100
AcDbEllipse
10
37.970355
20
-12.432637
30
0
11
0.117518340696115
21
0.3843851723858
31
1.87350135405496E-16
210
1.59612928733378E-15
220
-5.83607263126116E-19
230
-1
40
0.995153
41
2.91576259201242
42
3.05841883574182
0
ELLIPSE
5
168
100
AcDbEntity
8
1
62
256
6
ByLayer
370
18
48
1
60
0
100
AcDbEllipse
10
41.648748
20
-10.029285
30
0
11
1.1330996904646E-16
21
0.4
31
0
210
0
220
0
230
1
40
0.121869
41
1.50150186307726
42
1.5707963267949
0
POINT
5
6C
100
AcDbEntity
8
80
62
256
6
ByLayer
370
18
48
1
60
0
100
AcDbPoint
10
0
20
0
30
0
39
0
210
0
220
0
230
1
50
360
0
POINT
5
6E
100
AcDbEntity
8
81
62
256
6
ByLayer
370
18
48
1
60
0
100
AcDbPoint
10
41.6
20
-13
30
0
39
0
210
0
220
0
230
1
50
360
0
SPLINE
5
169
100
AcDbEntity
8
1
62
256
6
ByLayer
370
18
48
1
60
0
100
AcDbSpline
70
4
71
3
72
18
73
14
40
0
40
0
40
0
40
0
40
0.003697916850819
40
0.003697916850819
40
0.239927141126698
40
0.239927141126698
40
0.476737351639852
40
0.476737351639852
40
0.703614755365924
40
0.703614755365924
40
0.913702960667461
40
0.913702960667461
40
1
40
1
40
1
40
1
41
1
10
12.8026316928587
20
-9.32499999999965
30
0
41
1
10
12.7996632953498
20
-9.32499999999965
30
0
41
1
10
12.7966949148431
20
-9.32499173943091
30
0
41
1
10
12.6041010515535
20
-9.32391979800235
30
0
41
1
10
12.4118681241295
20
-9.28832520566391
30
0
41
1
10
12.0536800905217
20
-9.1518335522866
30
0
41
1
10
11.8825688119425
20
-9.04864208603965
30
0
41
1
10
11.5960262586514
20
-8.79245610011174
30
0
41
1
10
11.4744031123271
20
-8.63769977650665
30
0
41
1
10
11.3020621187194
20
-8.30832798120682
30
0
41
1
10
11.2444317930785
20
-8.13115992221634
30
0
41
1
10
11.2080402663623
20
-7.87663056469904
30
0
41
1
10
11.2026316928583
20
-7.80070642732429
30
0
41
1
10
11.2026316928583
20
-7.72499999999965
30
0
0
SPLINE
5
16A
100
AcDbEntity
8
1
62
256
6
ByLayer
370
13
48
1
60
0
100
AcDbSpline
70
4
71
3
72
12
73
8
40
0
40
0
40
0
40
0
40
0.39010501540954
40
0.39010501540954
40
0.395238792461496
40
0.395238792461496
40
1
40
1
40
1
40
1
41
1
10
40.4112677608008
20
-10.1782990987159
30
0
41
1
10
40.4930131894971
20
-10.1804068437433
30
0
41
1
10
40.5750694911575
20
-10.1808175959685
30
0
41
1
10
40.6568134956409
20
-10.1811030977612
30
0
41
1
10
40.6578786372161
20
-10.1811067044703
30
0
41
1
10
40.7833815366517
20
-10.1815182763484
30
0
41
1
10
40.9061458913858
20
-10.1804143576165
30
0
41
1
10
41.0213727254145
20
-10.1772795177638
30
0
0
SPLINE
5
16B
100
AcDbEntity
8
1
62
256
6
ByLayer
370
13
48
1
60
0
100
AcDbSpline
70
4
71
3
72
12
73
8
40
0
40
0
40
0
40
0
40
0.39010501540954
40
0.39010501540954
40
0.395238792461496
40
0.395238792461496
40
1
40
1
40
1
40
1
41
1
10
40.4112677608008
20
-11.8217009012839
30
0
41
1
10
40.4930131894971
20
-11.8195931562565
30
0
41
1
10
40.5750694911575
20
-11.8191824040313
30
0
41
1
10
40.6568134956409
20
-11.8188969022386
30
0
41
1
10
40.6578786372161
20
-11.8188932955295
30
0
41
1
10
40.7833815366517
20
-11.8184817236513
30
0
41
1
10
40.9061458913858
20
-11.8195856423833
30
0
41
1
10
41.0213727254145
20
-11.822720482236
30
0
0
SPLINE
5
16C
100
AcDbEntity
8
1
62
256
6
ByLayer
370
13
48
1
60
0
100
AcDbSpline
70
4
71
3
72
8
73
4
40
0
40
0
40
0
40
0
40
1
40
1
40
1
40
1
41
1
10
31.6740398113324
20
-12.6999999999999
30
0
41
1
10
31.6740398069724
20
-12.6916663333333
30
0
41
1
10
31.6740398026121
20
-12.6833326666666
30
0
41
1
10
31.6740397982515
20
-12.6749989999999
30
0
0
SPLINE
5
16D
100
AcDbEntity
8
1
62
256
6
ByLayer
370
13
48
1
60
0
100
AcDbSpline
70
4
71
3
72
8
73
4
40
0
40
0
40
0
40
0
40
1
40
1
40
1
40
1
41
1
10
31.6083240679326
20
-9.2999999999999
30
0
41
1
10
31.6083240679326
20
-9.30833366666658
30
0
41
1
10
31.6083240679326
20
-9.31666733333324
30
0
41
1
10
31.6083240679326
20
-9.32500099999993
30
0
0
SPLINE
5
16E
100
AcDbEntity
8
1
62
256
6
ByLayer
370
13
48
1
60
0
100
AcDbSpline
70
4
71
3
72
8
73
4
40
0
40
0
40
0
40
0
40
1
40
1
40
1
40
1
41
1
10
31.6083240679326
20
-12.6749989999999
30
0
41
1
10
31.6083240679326
20
-12.6833326666666
30
0
41
1
10
31.6083240679326
20
-12.6916663333332
30
0
41
1
10
31.6083240679326
20
-12.6999999999999
30
0
0
SPLINE
5
16F
100
AcDbEntity
8
1
62
256
6
ByLayer
370
13
48
1
60
0
100
AcDbSpline
70
4
71
3
72
8
73
4
40
0
40
0
40
0
40
0
40
1
40
1
40
1
40
1
41
1
10
31.6740397982515
20
-9.3250009999999
30
0
41
1
10
31.6740398026121
20
-9.31666733333321
30
0
41
1
10
31.6740398069725
20
-9.30833366666656
30
0
41
1
10
31.6740398113324
20
-9.2999999999999
30
0
0
SPLINE
5
170
100
AcDbEntity
8
1
62
256
6
ByLayer
370
13
48
1
60
0
100
AcDbSpline
70
4
71
3
72
10
73
6
40
0
40
0
40
0
40
0
40
0.838937617766275
40
0.838937617766275
40
1
40
1
40
1
40
1
41
1
10
38.5178211501258
20
-10.2727797609648
30
0
41
1
10
38.4935943168164
20
-10.2509072026834
30
0
41
1
10
38.4683899171275
20
-10.2292048971734
30
0
41
1
10
38.4375900894901
20
-10.2034811155243
30
0
41
1
10
38.4326058289528
20
-10.1993420856906
30
0
41
1
10
38.4276010148921
20
-10.1952069591954
30
0
0
SPLINE
5
171
100
AcDbEntity
8
1
62
256
6
ByLayer
370
13
48
1
60
0
100
AcDbSpline
70
4
71
3
72
8
73
4
40
0
40
0
40
0
40
0
40
1
40
1
40
1
40
1
41
1
10
38.4276010148921
20
-10.1952069591954
30
0
41
1
10
38.4701630922749
20
-10.1497895534463
30
0
41
1
10
38.5131571930301
20
-10.104771368004
30
0
41
1
10
38.5567233231079
20
-10.0603190949194
30
0
0
SPLINE
5
172
100
AcDbEntity
8
1
62
256
6
ByLayer
370
13
48
1
60
0
100
AcDbSpline
70
4
71
3
72
8
73
4
40
0
40
0
40
0
40
0
40
1
40
1
40
1
40
1
41
1
10
38.5567233231079
20
-10.0603190949194
30
0
41
1
10
38.6273458910486
20
-10.0509904813628
30
0
41
1
10
38.6978685108517
20
-10.0427146391797
30
0
41
1
10
38.7678805766493
20
-10.0369772983269
30
0
0
SPLINE
5
173
100
AcDbEntity
8
1
62
256
6
ByLayer
370
13
48
1
60
0
100
AcDbSpline
70
4
71
3
72
12
73
8
40
0
40
0
40
0
40
0
40
0.0998683717390313
40
0.0998683717390313
40
0.537823266363916
40
0.537823266363916
40
1
40
1
40
1
40
1
41
1
10
38.7678805766493
20
-10.0369772983269
30
0
41
1
10
38.7977300732363
20
-10.0345311951552
30
0
41
1
10
38.8288553963951
20
-10.0312825353887
30
0
41
1
10
39.0003359434831
20
-10.0103303217508
30
0
41
1
10
39.1643332524475
20
-9.9796973025268
30
0
41
1
10
39.5166201131585
20
-9.90448437926099
30
0
41
1
10
39.712033802554
20
-9.85703587711453
30
0
41
1
10
39.9023602239473
20
-9.80821680347549
30
0
0
SPLINE
5
174
100
AcDbEntity
8
1
62
256
6
ByLayer
370
13
48
1
60
0
100
AcDbSpline
70
4
71
3
72
8
73
4
40
0
40
0
40
0
40
0
40
1
40
1
40
1
40
1
41
1
10
39.9023602239473
20
-9.80821680347549
30
0
41
1
10
40.0489218064241
20
-9.77062349070692
30
0
41
1
10
40.2016353978425
20
-9.74817262113567
30
0
41
1
10
40.3528986418119
20
-9.75321460831759
30
0
0
SPLINE
5
175
100
AcDbEntity
8
1
62
256
6
ByLayer
370
13
48
1
60
0
100
AcDbSpline
70
4
71
3
72
8
73
4
40
0
40
0
40
0
40
0
40
1
40
1
40
1
40
1
41
1
10
40.3528986418119
20
-9.75321460831759
30
0
41
1
10
40.4744062234275
20
-9.75726476388044
30
0
41
1
10
40.5966210532666
20
-9.75242513726076
30
0
41
1
10
40.7158957172707
20
-9.75281092802291
30
0
0
SPLINE
5
176
100
AcDbEntity
8
1
62
256
6
ByLayer
370
13
48
1
60
0
100
AcDbSpline
70
4
71
3
72
8
73
4
40
0
40
0
40
0
40
0
40
1
40
1
40
1
40
1
41
1
10
40.7158957172694
20
-9.75281092802476
30
0
41
1
10
40.8755545267195
20
-9.75332734024272
30
0
41
1
10
41.0354150796998
20
-9.78752008941473
30
0
41
1
10
41.1900286630426
20
-9.83133117385117
30
0
0
SPLINE
5
177
100
AcDbEntity
8
1
62
256
6
ByLayer
370
13
48
1
60
0
100
AcDbSpline
70
4
71
3
72
8
73
4
40
0
40
0
40
0
40
0
40
1
40
1
40
1
40
1
41
1
10
41.1900286630425
20
-9.83133117385117
30
0
41
1
10
41.234090020669
20
-9.85799414175801
30
0
41
1
10
41.2778395366007
20
-9.88517096030557
30
0
41
1
10
41.3213895076228
20
-9.91265636314907
30
0
0
SPLINE
5
178
100
AcDbEntity
8
1
62
256
6
ByLayer
370
13
48
1
60
0
100
AcDbSpline
70
4
71
3
72
12
73
8
40
0
40
0
40
0
40
0
40
0.178891096392097
40
0.178891096392097
40
0.986291642515957
40
0.986291642515957
40
1
40
1
40
1
40
1
41
1
10
41.3213895076228
20
-9.91265636314907
30
0
41
1
10
41.300311526968
20
-9.91182002210192
30
0
41
1
10
41.2792221384666
20
-9.910977001752
30
0
41
1
10
41.1629014296377
20
-9.90628830968046
30
0
41
1
10
41.0679540502603
20
-9.9006446473866
30
0
41
1
10
40.9689156735319
20
-9.89620087125226
30
0
41
1
10
40.9672607449415
20
-9.89612963834665
30
0
41
1
10
40.9656057053219
20
-9.8960614046735
30
0
0
SPLINE
5
179
100
AcDbEntity
8
1
62
256
6
ByLayer
370
13
48
1
60
0
100
AcDbSpline
70
4
71
3
72
12
73
8
40
0
40
0
40
0
40
0
40
0.609383607481524
40
0.609383607481524
40
0.614539779328588
40
0.614539779328588
40
1
40
1
40
1
40
1
41
1
10
40.9656057053219
20
-9.8960614046735
30
0
41
1
10
40.8600213620047
20
-9.89170839252347
30
0
41
1
10
40.7496097970338
20
-9.88737893954522
30
0
41
1
10
40.6373081383664
20
-9.88310742741461
30
0
41
1
10
40.6363601843114
20
-9.88307137227787
30
0
41
1
10
40.5647049543392
20
-9.88034607326267
30
0
41
1
10
40.4932165299024
20
-9.87754621732608
30
0
41
1
10
40.4219297662852
20
-9.87505962793787
30
0
0
SPLINE
5
17A
100
AcDbEntity
8
1
62
256
6
ByLayer
370
13
48
1
60
0
100
AcDbSpline
70
4
71
3
72
16
73
12
40
0
40
0
40
0
40
0
40
0.0442199247554431
40
0.0442199247554431
40
0.0484399555489736
40
0.0484399555489736
40
0.21689535852514
40
0.21689535852514
40
0.889245809545941
40
0.889245809545941
40
1
40
1
40
1
40
1
41
1
10
40.4219297662852
20
-9.87505962793787
30
0
41
1
10
40.4113300785451
20
-9.87468989490867
30
0
41
1
10
40.400729128945
20
-9.87435857248218
30
0
41
1
10
40.3891179461187
20
-9.87395178268017
30
0
41
1
10
40.3881063966876
20
-9.8739162154771
30
0
41
1
10
40.3467182945273
20
-9.87245605677541
30
0
41
1
10
40.3063476610928
20
-9.87055986319092
30
0
41
1
10
40.1067119730518
20
-9.86381642715162
30
0
41
1
10
39.9453726295509
20
-9.88476261478155
30
0
41
1
10
39.7656324617668
20
-9.93224326778778
30
0
41
1
10
39.7400997197493
20
-9.93941218085527
30
0
41
1
10
39.7146869282979
20
-9.9469709203515
30
0
0
SPLINE
5
17B
100
AcDbEntity
8
1
62
256
6
ByLayer
370
13
48
1
60
0
100
AcDbSpline
70
4
71
3
72
12
73
8
40
0
40
0
40
0
40
0
40
0.262655118490606
40
0.262655118490606
40
0.697392919166919
40
0.697392919166919
40
1
40
1
40
1
40
1
41
1
10
39.7146869282979
20
-9.94697092035153
30
0
41
1
10
39.6122143236958
20
-9.97745020576059
30
0
41
1
10
39.5094974627491
20
-10.0077975264423
30
0
41
1
10
39.2439453836003
20
-10.0859327261648
30
0
41
1
10
39.0820473482736
20
-10.1332259119503
30
0
41
1
10
38.8314330442441
20
-10.2065907788863
30
0
41
1
10
38.7338240971894
20
-10.2368143127598
30
0
41
1
10
38.6455473303953
20
-10.2612762011148
30
0
0
SPLINE
5
17C
100
AcDbEntity
8
1
62
256
6
ByLayer
370
13
48
1
60
0
100
AcDbSpline
70
4
71
3
72
8
73
4
40
0
40
0
40
0
40
0
40
1
40
1
40
1
40
1
41
1
10
38.6455473303953
20
-10.2612762011148
30
0
41
1
10
38.6087652449776
20
-10.2714686820997
30
0
41
1
10
38.5720869999075
20
-10.2815735577131
30
0
41
1
10
38.5354962551973
20
-10.2916818744051
30
0
0
SPLINE
5
17D
100
AcDbEntity
8
1
62
256
6
ByLayer
370
13
48
1
60
0
100
AcDbSpline
70
4
71
3
72
8
73
4
40
0
40
0
40
0
40
0
40
1
40
1
40
1
40
1
41
1
10
38.5354962551913
20
-10.2916818744108
30
0
41
1
10
38.5301777182169
20
-10.2848816411931
30
0
41
1
10
38.5242544977346
20
-10.2785879393889
30
0
41
1
10
38.5178211501259
20
-10.2727797609647
30
0
0
SPLINE
5
17E
100
AcDbEntity
8
1
62
256
6
ByLayer
370
13
48
1
60
0
100
AcDbSpline
70
4
71
3
72
8
73
4
40
0
40
0
40
0
40
0
40
1
40
1
40
1
40
1
41
1
10
38.5178211501258
20
-11.727220239035
30
0
41
1
10
38.5242544977346
20
-11.7214120606106
30
0
41
1
10
38.5301777182172
20
-11.7151183588067
30
0
41
1
10
38.5354962551917
20
-11.7083181255889
30
0
0
SPLINE
5
17F
100
AcDbEntity
8
1
62
256
6
ByLayer
370
13
48
1
60
0
100
AcDbSpline
70
4
71
3
72
8
73
4
40
0
40
0
40
0
40
0
40
1
40
1
40
1
40
1
41
1
10
38.6455473303953
20
-11.7387237988849
30
0
41
1
10
38.6087652449776
20
-11.7285313179001
30
0
41
1
10
38.5720869999075
20
-11.7184264422867
30
0
41
1
10
38.5354962551973
20
-11.7083181255946
30
0
0
SPLINE
5
180
100
AcDbEntity
8
1
62
256
6
ByLayer
370
13
48
1
60
0
100
AcDbSpline
70
4
71
3
72
12
73
8
40
0
40
0
40
0
40
0
40
0.262655118490606
40
0.262655118490606
40
0.697392919166919
40
0.697392919166919
40
1
40
1
40
1
40
1
41
1
10
39.7146869282979
20
-12.0530290796483
30
0
41
1
10
39.6122143236958
20
-12.0225497942392
30
0
41
1
10
39.5094974627491
20
-11.9922024735575
30
0
41
1
10
39.2439453836003
20
-11.914067273835
30
0
41
1
10
39.0820473482736
20
-11.8667740880495
30
0
41
1
10
38.8314330442441
20
-11.7934092211135
30
0
41
1
10
38.7338240971894
20
-11.76318568724
30
0
41
1
10
38.6455473303953
20
-11.7387237988849
30
0
0
SPLINE
5
181
100
AcDbEntity
8
1
62
256
6
ByLayer
370
13
48
1
60
0
100
AcDbSpline
70
4
71
3
72
16
73
12
40
0
40
0
40
0
40
0
40
0.0442199247554431
40
0.0442199247554431
40
0.0484399555489736
40
0.0484399555489736
40
0.21689535852514
40
0.21689535852514
40
0.889245809545941
40
0.889245809545941
40
1
40
1
40
1
40
1
41
1
10
40.4219297662852
20
-12.1249403720619
30
0
41
1
10
40.4113300785451
20
-12.1253101050911
30
0
41
1
10
40.400729128945
20
-12.1256414275176
30
0
41
1
10
40.3891179461187
20
-12.1260482173196
30
0
41
1
10
40.3881063966876
20
-12.1260837845227
30
0
41
1
10
40.3467182945273
20
-12.1275439432244
30
0
41
1
10
40.3063476610928
20
-12.1294401368088
30
0
41
1
10
40.1067119730518
20
-12.1361835728482
30
0
41
1
10
39.9453726295509
20
-12.1152373852182
30
0
41
1
10
39.7656324617668
20
-12.067756732212
30
0
41
1
10
39.7400997197493
20
-12.0605878191445
30
0
41
1
10
39.7146869282979
20
-12.0530290796483
30
0
0
SPLINE
5
182
100
AcDbEntity
8
1
62
256
6
ByLayer
370
13
48
1
60
0
100
AcDbSpline
70
4
71
3
72
12
73
8
40
0
40
0
40
0
40
0
40
0.609383607481524
40
0.609383607481524
40
0.614539779328588
40
0.614539779328588
40
1
40
1
40
1
40
1
41
1
10
40.9656057053219
20
-12.1039385953263
30
0
41
1
10
40.8600213620047
20
-12.1082916074763
30
0
41
1
10
40.7496097970338
20
-12.1126210604546
30
0
41
1
10
40.6373081383664
20
-12.1168925725852
30
0
41
1
10
40.6363601843114
20
-12.1169286277219
30
0
41
1
10
40.5647049543392
20
-12.1196539267371
30
0
41
1
10
40.4932165299024
20
-12.1224537826737
30
0
41
1
10
40.4219297662852
20
-12.1249403720619
30
0
0
SPLINE
5
183
100
AcDbEntity
8
1
62
256
6
ByLayer
370
13
48
1
60
0
100
AcDbSpline
70
4
71
3
72
12
73
8
40
0
40
0
40
0
40
0
40
0.178891096392097
40
0.178891096392097
40
0.986291642515957
40
0.986291642515957
40
1
40
1
40
1
40
1
41
1
10
41.3213895076228
20
-12.0873436368507
30
0
41
1
10
41.300311526968
20
-12.0881799778979
30
0
41
1
10
41.2792221384666
20
-12.0890229982478
30
0
41
1
10
41.1629014296377
20
-12.0937116903193
30
0
41
1
10
41.0679540502603
20
-12.0993553526132
30
0
41
1
10
40.9689156735319
20
-12.1037991287475
30
0
41
1
10
40.9672607449415
20
-12.1038703616531
30
0
41
1
10
40.9656057053219
20
-12.1039385953263
30
0
0
SPLINE
5
184
100
AcDbEntity
8
1
62
256
6
ByLayer
370
13
48
1
60
0
100
AcDbSpline
70
4
71
3
72
8
73
4
40
0
40
0
40
0
40
0
40
1
40
1
40
1
40
1
41
1
10
41.1900286630425
20
-12.1686688261486
30
0
41
1
10
41.234090020669
20
-12.1420058582418
30
0
41
1
10
41.2778395366007
20
-12.1148290396942
30
0
41
1
10
41.3213895076228
20
-12.0873436368507
30
0
0
SPLINE
5
185
100
AcDbEntity
8
1
62
256
6
ByLayer
370
13
48
1
60
0
100
AcDbSpline
70
4
71
3
72
8
73
4
40
0
40
0
40
0
40
0
40
1
40
1
40
1
40
1
41
1
10
40.7158957172694
20
-12.247189071975
30
0
41
1
10
40.8755545267195
20
-12.246672659757
30
0
41
1
10
41.0354150796998
20
-12.212479910585
30
0
41
1
10
41.1900286630426
20
-12.1686688261486
30
0
0
SPLINE
5
186
100
AcDbEntity
8
1
62
256
6
ByLayer
370
13
48
1
60
0
100
AcDbSpline
70
4
71
3
72
8
73
4
40
0
40
0
40
0
40
0
40
1
40
1
40
1
40
1
41
1
10
40.3528986418119
20
-12.2467853916822
30
0
41
1
10
40.4744062234275
20
-12.2427352361193
30
0
41
1
10
40.5966210532666
20
-12.247574862739
30
0
41
1
10
40.7158957172707
20
-12.2471890719769
30
0
0
SPLINE
5
187
100
AcDbEntity
8
1
62
256
6
ByLayer
370
13
48
1
60
0
100
AcDbSpline
70
4
71
3
72
8
73
4
40
0
40
0
40
0
40
0
40
1
40
1
40
1
40
1
41
1
10
39.9023602239473
20
-12.1917831965243
30
0
41
1
10
40.0489218064241
20
-12.2293765092929
30
0
41
1
10
40.2016353978425
20
-12.2518273788641
30
0
41
1
10
40.3528986418119
20
-12.2467853916822
30
0
0
SPLINE
5
188
100
AcDbEntity
8
1
62
256
6
ByLayer
370
13
48
1
60
0
100
AcDbSpline
70
4
71
3
72
12
73
8
40
0
40
0
40
0
40
0
40
0.0998683717390313
40
0.0998683717390313
40
0.537823266363916
40
0.537823266363916
40
1
40
1
40
1
40
1
41
1
10
38.7678805766493
20
-11.9630227016729
30
0
41
1
10
38.7977300732363
20
-11.9654688048446
30
0
41
1
10
38.8288553963951
20
-11.968717464611
30
0
41
1
10
39.0003359434831
20
-11.9896696782489
30
0
41
1
10
39.1643332524475
20
-12.020302697473
30
0
41
1
10
39.5166201131585
20
-12.0955156207388
30
0
41
1
10
39.712033802554
20
-12.1429641228852
30
0
41
1
10
39.9023602239473
20
-12.1917831965243
30
0
0
SPLINE
5
189
100
AcDbEntity
8
1
62
256
6
ByLayer
370
13
48
1
60
0
100
AcDbSpline
70
4
71
3
72
8
73
4
40
0
40
0
40
0
40
0
40
1
40
1
40
1
40
1
41
1
10
38.5567233231079
20
-11.9396809050804
30
0
41
1
10
38.6273458910486
20
-11.949009518637
30
0
41
1
10
38.6978685108517
20
-11.95728536082
30
0
41
1
10
38.7678805766493
20
-11.9630227016729
30
0
0
SPLINE
5
18A
100
AcDbEntity
8
1
62
256
6
ByLayer
370
13
48
1
60
0
100
AcDbSpline
70
4
71
3
72
8
73
4
40
0
40
0
40
0
40
0
40
1
40
1
40
1
40
1
41
1
10
38.4276010148921
20
-11.8047930408044
30
0
41
1
10
38.4701630922749
20
-11.8502104465535
30
0
41
1
10
38.5131571930301
20
-11.8952286319958
30
0
41
1
10
38.5567233231079
20
-11.9396809050804
30
0
0
SPLINE
5
18B
100
AcDbEntity
8
1
62
256
6
ByLayer
370
13
48
1
60
0
100
AcDbSpline
70
4
71
3
72
10
73
6
40
0
40
0
40
0
40
0
40
0.83890545480639
40
0.83890545480639
40
1
40
1
40
1
40
1
41
1
10
38.4276010148921
20
-11.8047930408044
30
0
41
1
10
38.4536671436958
20
-11.7832564285472
30
0
41
1
10
38.4791716040464
20
-11.7616106130768
30
0
41
1
10
38.5084803863996
20
-11.7356146325437
30
0
41
1
10
38.5131686824077
20
-11.7314205969611
30
0
41
1
10
38.5178211501258
20
-11.727220239035
30
0
0
SPLINE
5
18C
100
AcDbEntity
8
1
62
256
6
ByLayer
370
13
48
1
60
0
100
AcDbSpline
70
4
71
3
72
10
73
6
40
0
40
0
40
0
40
0
40
0.164044484569757
40
0.164044484569757
40
1
40
1
40
1
40
1
41
1
10
36.6749813396558
20
-11.6797636730828
30
0
41
1
10
36.6707623351465
20
-11.6727423409175
30
0
41
1
10
36.6668552617127
20
-11.6652019721452
30
0
41
1
10
36.6428320860097
20
-11.6168879304075
30
0
41
1
10
36.62195353334
20
-11.5635403269084
30
0
41
1
10
36.6077920863591
20
-11.5011146342636
30
0
0
SPLINE
5
18D
100
AcDbEntity
8
1
62
256
6
ByLayer
370
13
48
1
60
0
100
AcDbSpline
70
4
71
3
72
14
73
10
40
0
40
0
40
0
40
0
40
0.0985152723692072
40
0.0985152723692072
40
0.414436270780364
40
0.414436270780364
40
0.704242772098099
40
0.704242772098099
40
1
40
1
40
1
40
1
41
1
10
36.6077920863591
20
-11.5011146342636
30
0
41
1
10
36.6070883147008
20
-11.4980123076933
30
0
41
1
10
36.606544409998
20
-11.4948758714285
30
0
41
1
10
36.6050532075373
20
-11.4817291074056
30
0
41
1
10
36.6058382838901
20
-11.4713241924904
30
0
41
1
10
36.6123337680469
20
-11.4526088500044
30
0
41
1
10
36.6177790953189
20
-11.4439738793897
30
0
41
1
10
36.632529463701
20
-11.4293174738584
30
0
41
1
10
36.6420968074832
20
-11.4231161461556
30
0
41
1
10
36.6525569632055
20
-11.4185228011354
30
0
0
SPLINE
5
18E
100
AcDbEntity
8
1
62
256
6
ByLayer
370
13
48
1
60
0
100
AcDbSpline
70
4
71
3
72
12
73
8
40
0
40
0
40
0
40
0
40
0.496107925963443
40
0.496107925963443
40
0.747917555821972
40
0.747917555821972
40
1
40
1
40
1
40
1
41
1
10
36.6525569632055
20
-11.4185228011354
30
0
41
1
10
36.6782259885473
20
-11.4072508188765
30
0
41
1
10
36.7044232564924
20
-11.3964447553642
30
0
41
1
10
36.7444918597128
20
-11.3808337531947
30
0
41
1
10
36.758087438744
20
-11.375691655102
30
0
41
1
10
36.7854689641485
20
-11.3656282857144
30
0
41
1
10
36.7992572905257
20
-11.3607064643733
30
0
41
1
10
36.813123427891
20
-11.3558956653636
30
0
0
SPLINE
5
18F
100
AcDbEntity
8
1
62
256
6
ByLayer
370
13
48
1
60
0
100
AcDbSpline
70
4
71
3
72
12
73
8
40
0
40
0
40
0
40
0
40
0.249995921123566
40
0.249995921123566
40
0.499994611291234
40
0.499994611291234
40
1
40
1
40
1
40
1
41
1
10
36.813123427891
20
-11.3558956653636
30
0
41
1
10
36.8138936076927
20
-11.3556284546668
30
0
41
1
10
36.8146638586454
20
-11.355361246431
30
0
41
1
10
36.8162045107647
20
-11.3548268319195
30
0
41
1
10
36.8169749119805
20
-11.3545596256271
30
0
41
1
10
36.8192863519125
20
-11.3537580055676
30
0
41
1
10
36.8208276026665
20
-11.3532235990298
30
0
41
1
10
36.8223691335979
20
-11.3526892021631
30
0
0
SPLINE
5
190
100
AcDbEntity
8
1
62
256
6
ByLayer
370
13
48
1
60
0
100
AcDbSpline
70
4
71
3
72
14
73
10
40
0
40
0
40
0
40
0
40
0.209566828991457
40
0.209566828991457
40
0.477962265361934
40
0.477962265361934
40
0.751790472133232
40
0.751790472133232
40
1
40
1
40
1
40
1
41
1
10
36.8223691335979
20
-11.3526892021622
30
0
41
1
10
36.841617540391
20
-11.3460164276682
30
0
41
1
10
36.8598564545835
20
-11.336819747294
30
0
41
1
10
36.8965606674396
20
-11.3107406642387
30
0
41
1
10
36.9142538244809
20
-11.2919867093065
30
0
41
1
10
36.9412074732292
20
-11.2488885420827
30
0
41
1
10
36.9507658802402
20
-11.2237434757156
30
0
41
1
10
36.9600817667494
20
-11.1737734227985
30
0
41
1
10
36.9608032158717
20
-11.1484732564537
30
0
41
1
10
36.9578654950163
20
-11.1236429279547
30
0
0
SPLINE
5
191
100
AcDbEntity
8
1
62
256
6
ByLayer
370
13
48
1
60
0
100
AcDbSpline
70
4
71
3
72
12
73
8
40
0
40
0
40
0
40
0
40
0.484718757846364
40
0.484718757846364
40
0.742368127854248
40
0.742368127854248
40
1
40
1
40
1
40
1
41
1
10
36.9578654950163
20
-11.1236429279547
30
0
41
1
10
36.9555314956403
20
-11.1039153996861
30
0
41
1
10
36.9537340522476
20
-11.0839966093883
30
0
41
1
10
36.9518563021364
20
-11.0533745113803
30
0
41
1
10
36.9513650480975
20
-11.042712742739
30
0
41
1
10
36.9507097053509
20
-11.0213705130401
30
0
41
1
10
36.9505454016023
20
-11.0106836474106
30
0
41
1
10
36.9505454016023
20
-10.9999999999999
30
0
0
SPLINE
5
192
100
AcDbEntity
8
1
62
256
6
ByLayer
370
13
48
1
60
0
100
AcDbSpline
70
4
71
3
72
12
73
8
40
0
40
0
40
0
40
0
40
0.484598094488008
40
0.484598094488008
40
0.742275381080524
40
0.742275381080524
40
1
40
1
40
1
40
1
41
1
10
36.9505454016023
20
-10.9999999999999
30
0
41
1
10
36.9505454016023
20
-10.9799195908465
30
0
41
1
10
36.9511276733156
20
-10.9598180030655
30
0
41
1
10
36.9528938955774
20
-10.9291828396049
30
0
41
1
10
36.9536688928946
20
-10.9185636321992
30
0
41
1
10
36.9555334358542
20
-10.8974023459687
30
0
41
1
10
36.9566235745109
20
-10.8868540850816
30
0
41
1
10
36.9578654950163
20
-10.8763570720451
30
0
0
SPLINE
5
193
100
AcDbEntity
8
1
62
256
6
ByLayer
370
13
48
1
60
0
100
AcDbSpline
70
4
71
3
72
14
73
10
40
0
40
0
40
0
40
0
40
0.250234813702171
40
0.250234813702171
40
0.496416801970183
40
0.496416801970183
40
0.738510482714681
40
0.738510482714681
40
1
40
1
40
1
40
1
41
1
10
36.9578654950163
20
-10.8763570720451
30
0
41
1
10
36.9608258417356
20
-10.8513355042622
30
0
41
1
10
36.9600693337852
20
-10.8258343076565
30
0
41
1
10
36.9510838008997
20
-10.778289791717
30
0
41
1
10
36.942851299282
20
-10.7555789288323
30
0
41
1
10
36.9198912433956
20
-10.7157062793548
30
0
41
1
10
36.9049566128546
20
-10.697947432092
30
0
41
1
10
36.868616957053
20
-10.6678316287486
30
0
41
1
10
36.846247555362
20
-10.655588642618
30
0
41
1
10
36.8223691335978
20
-10.6473107978375
30
0
0
SPLINE
5
194
100
AcDbEntity
8
1
62
256
6
ByLayer
370
13
48
1
60
0
100
AcDbSpline
70
4
71
3
72
12
73
8
40
0
40
0
40
0
40
0
40
0.375005495397418
40
0.375005495397418
40
0.750004420334853
40
0.750004420334853
40
1
40
1
40
1
40
1
41
1
10
36.8223691335978
20
-10.6473107978375
30
0
41
1
10
36.8212129808679
20
-10.6469099986165
30
0
41
1
10
36.8200569857664
20
-10.6465091939643
30
0
41
1
10
36.8177453331293
20
-10.6457075808211
30
0
41
1
10
36.8165896754277
20
-10.6453067722748
30
0
41
1
10
36.8146638565237
20
-10.6446387528327
30
0
41
1
10
36.813893606632
20
-10.6443715449649
30
0
41
1
10
36.8131234278911
20
-10.6441043346362
30
0
0
SPLINE
5
195
100
AcDbEntity
8
1
62
256
6
ByLayer
370
13
48
1
60
0
100
AcDbSpline
70
4
71
3
72
12
73
8
40
0
40
0
40
0
40
0
40
0.497315582869531
40
0.497315582869531
40
0.748831584262143
40
0.748831584262143
40
1
40
1
40
1
40
1
41
1
10
36.8131234278911
20
-10.6441043346362
30
0
41
1
10
36.785774958576
20
-10.6346158963183
30
0
41
1
10
36.7587228913463
20
-10.6246942465839
30
0
41
1
10
36.7185879067828
20
-10.6090817497884
30
0
41
1
10
36.7052046989864
20
-10.6037215065454
30
0
41
1
10
36.6786905265709
20
-10.5927738536884
30
0
41
1
10
36.6655562462092
20
-10.5871855452252
30
0
41
1
10
36.6525569632055
20
-10.5814771988644
30
0
0
SPLINE
5
196
100
AcDbEntity
8
1
62
256
6
ByLayer
370
13
48
1
60
0
100
AcDbSpline
70
4
71
3
72
14
73
10
40
0
40
0
40
0
40
0
40
0.146358635709911
40
0.146358635709911
40
0.433881431207652
40
0.433881431207652
40
0.719759865932541
40
0.719759865932541
40
1
40
1
40
1
40
1
41
1
10
36.6525569632055
20
-10.5814771988644
30
0
41
1
10
36.647322378194
20
-10.5791785471393
30
0
41
1
10
36.6423304731996
20
-10.5765041334038
30
0
41
1
10
36.6288154758869
20
-10.567616667542
30
0
41
1
10
36.6212172293989
20
-10.5602209614942
30
0
41
1
10
36.6106066155424
20
-10.5439020667032
30
0
41
1
10
36.6074118804341
20
-10.5347705803371
30
0
41
1
10
36.6050958171896
20
-10.5167404800641
30
0
41
1
10
36.6058073973602
20
-10.5076341599532
30
0
41
1
10
36.6077920863591
20
-10.4988853657362
30
0
0
SPLINE
5
197
100
AcDbEntity
8
1
62
256
6
ByLayer
370
13
48
1
60
0
100
AcDbSpline
70
4
71
3
72
10
73
6
40
0
40
0
40
0
40
0
40
0.164022507484308
40
0.164022507484308
40
1
40
1
40
1
40
1
41
1
10
36.6077920863591
20
-10.4988853657362
30
0
41
1
10
36.6106088732773
20
-10.4864685643573
30
0
41
1
10
36.6136935122213
20
-10.4744269876923
30
0
41
1
10
36.6335290779586
20
-10.404340961962
30
0
41
1
10
36.6537691349528
20
-10.3555380040899
30
0
41
1
10
36.6749813396558
20
-10.320236326917
30
0
0
SPLINE
5
198
100
AcDbEntity
8
1
62
256
6
ByLayer
370
13
48
1
60
0
100
AcDbSpline
70
4
71
3
72
8
73
4
40
0
40
0
40
0
40
0
40
1
40
1
40
1
40
1
41
1
10
38.4612392286167
20
-10.3046121090748
30
0
41
1
10
38.4678919852693
20
-10.3096117998598
30
0
41
1
10
38.4740636815956
20
-10.315062650854
30
0
41
1
10
38.4796413868038
20
-10.3209963469393
30
0
0
SPLINE
5
199
100
AcDbEntity
8
1
62
256
6
ByLayer
370
13
48
1
60
0
100
AcDbSpline
70
4
71
3
72
8
73
4
40
0
40
0
40
0
40
0
40
1
40
1
40
1
40
1
41
1
10
38.4796413868038
20
-10.3209963469393
30
0
41
1
10
38.5017885112894
20
-10.3445569871935
30
0
41
1
10
38.5256559333116
20
-10.373696511109
30
0
41
1
10
38.5531379821876
20
-10.4060784329744
30
0
0
SPLINE
5
19A
100
AcDbEntity
8
1
62
256
6
ByLayer
370
13
48
1
60
0
100
AcDbSpline
70
4
71
3
72
10
73
6
40
0
40
0
40
0
40
0
40
0.101705478367115
40
0.101705478367115
40
1
40
1
40
1
40
1
41
1
10
38.5531379821876
20
-10.4060784329744
30
0
41
1
10
38.5570571038711
20
-10.4106963089089
30
0
41
1
10
38.5610812537061
20
-10.4153708949747
30
0
41
1
10
38.6013120480039
20
-10.4611873135301
30
0
41
1
10
38.6478377355349
20
-10.5058627231216
30
0
41
1
10
38.7030083519938
20
-10.5456409481302
30
0
0
SPLINE
5
19B
100
AcDbEntity
8
1
62
256
6
ByLayer
370
13
48
1
60
0
100
AcDbSpline
70
4
71
3
72
22
73
18
40
0
40
0
40
0
40
0
40
0.0535247857815907
40
0.0535247857815907
40
0.344422421150875
40
0.344422421150875
40
0.436152029470063
40
0.436152029470063
40
0.486473184357829
40
0.486473184357829
40
0.536644672635369
40
0.536644672635369
40
0.60048485243454
40
0.60048485243454
40
0.694476768116402
40
0.694476768116402
40
1
40
1
40
1
40
1
41
1
10
38.7030083519938
20
-10.5456409481302
30
0
41
1
10
38.7196320996514
20
-10.5576267336315
30
0
41
1
10
38.7363261903865
20
-10.569879891643
30
0
41
1
10
38.8432990561217
20
-10.6499961376879
30
0
41
1
10
38.9386373424033
20
-10.7237102168576
30
0
41
1
10
39.0424827579693
20
-10.8473111339987
30
0
41
1
10
39.066024368827
20
-10.8800664864351
30
0
41
1
10
39.0907794752773
20
-10.9369734361119
30
0
41
1
10
39.097197909396
20
-10.9588598847821
30
0
41
1
10
39.10174765266
20
-11.0031334443138
30
0
41
1
10
39.0998237299357
20
-11.0260386645669
30
0
41
1
10
39.0874292546899
20
-11.0747124635656
30
0
41
1
10
39.0749890844967
20
-11.1004546557336
30
0
41
1
10
39.0390316300355
20
-11.1585051888263
30
0
41
1
10
39.0127472406221
20
-11.1894354276103
30
0
41
1
10
38.8973943411545
20
-11.3109182123744
30
0
41
1
10
38.797606877986
20
-11.3861531536198
30
0
41
1
10
38.7030083519668
20
-11.4543590518891
30
0
0
SPLINE
5
19C
100
AcDbEntity
8
1
62
256
6
ByLayer
370
13
48
1
60
0
100
AcDbSpline
70
4
71
3
72
10
73
6
40
0
40
0
40
0
40
0
40
0.106342453443183
40
0.106342453443183
40
1
40
1
40
1
40
1
41
1
10
38.7030083519668
20
-11.4543590518891
30
0
41
1
10
38.6963895832058
20
-11.4591312094247
30
0
41
1
10
38.6898960212794
20
-11.4639635294984
30
0
41
1
10
38.6307812728788
20
-11.5093118472233
30
0
41
1
10
38.587116931345
20
-11.5538843892427
30
0
41
1
10
38.5531379821876
20
-11.5939215670254
30
0
0
SPLINE
5
19D
100
AcDbEntity
8
1
62
256
6
ByLayer
370
13
48
1
60
0
100
AcDbSpline
70
4
71
3
72
8
73
4
40
0
40
0
40
0
40
0
40
1
40
1
40
1
40
1
41
1
10
38.5531379821876
20
-11.5939215670254
30
0
41
1
10
38.5256559333117
20
-11.6263034888906
30
0
41
1
10
38.5017885112896
20
-11.6554430128061
30
0
41
1
10
38.479641386804
20
-11.6790036530601
30
0
0
SPLINE
5
19E
100
AcDbEntity
8
1
62
256
6
ByLayer
370
13
48
1
60
0
100
AcDbSpline
70
4
71
3
72
8
73
4
40
0
40
0
40
0
40
0
40
1
40
1
40
1
40
1
41
1
10
38.4612392286167
20
-11.695387890925
30
0
41
1
10
38.4323463374084
20
-11.7209899712435
30
0
41
1
10
38.4020351268596
20
-11.74630851589
30
0
41
1
10
38.3709170449828
20
-11.7714484982292
30
0
0
SPLINE
5
19F
100
AcDbEntity
8
1
62
256
6
ByLayer
370
13
48
1
60
0
100
AcDbSpline
70
4
71
3
72
14
73
10
40
0
40
0
40
0
40
0
40
0.136203122873046
40
0.136203122873046
40
0.341331556238926
40
0.341331556238926
40
0.593041737013191
40
0.593041737013191
40
1
40
1
40
1
40
1
41
1
10
38.3709170449828
20
-11.7714484982292
30
0
41
1
10
38.3675517247922
20
-11.7741673062358
30
0
41
1
10
38.3630822252157
20
-11.7766756196041
30
0
41
1
10
38.3499298143352
20
-11.7821536640596
30
0
41
1
10
38.3400783636783
20
-11.7848097294846
30
0
41
1
10
38.316289842691
20
-11.7892525946393
30
0
41
1
10
38.3016257900578
20
-11.7907950377998
30
0
41
1
10
38.2625090196811
20
-11.7929622313751
30
0
41
1
10
38.236864179057
20
-11.7925301229744
30
0
41
1
10
38.2117108282577
20
-11.7909403399853
30
0
0
SPLINE
5
1A0
100
AcDbEntity
8
1
62
256
6
ByLayer
370
13
48
1
60
0
100
AcDbSpline
70
4
71
3
72
8
73
4
40
0
40
0
40
0
40
0
40
1
40
1
40
1
40
1
41
1
10
38.479641386804
20
-11.6790036530601
30
0
41
1
10
38.4740636815958
20
-11.6849373491455
30
0
41
1
10
38.4678919852693
20
-11.6903882001399
30
0
41
1
10
38.4612392286167
20
-11.695387890925
30
0
0
SPLINE
5
1A1
100
AcDbEntity
8
1
62
256
6
ByLayer
370
13
48
1
60
0
100
AcDbSpline
70
4
71
3
72
8
73
4
40
0
40
0
40
0
40
0
40
1
40
1
40
1
40
1
41
1
10
38.3709170449828
20
-10.2285515017705
30
0
41
1
10
38.4020351268596
20
-10.2536914841098
30
0
41
1
10
38.4323463374084
20
-10.2790100287563
30
0
41
1
10
38.4612392286167
20
-10.3046121090748
30
0
0
SPLINE
5
1A2
100
AcDbEntity
8
1
62
256
6
ByLayer
370
18
48
1
60
0
100
AcDbSpline
70
4
71
3
72
8
73
4
40
0
40
0
40
0
40
0
40
1
40
1
40
1
40
1
41
1
10
34.6940255880445
20
-12.6999999999999
30
0
41
1
10
34.6940255881512
20
-12.6916663333332
30
0
41
1
10
34.6940255882572
20
-12.6833326666665
30
0
41
1
10
34.6940255883627
20
-12.6749989999999
30
0
0
SPLINE
5
1A3
100
AcDbEntity
8
1
62
256
6
ByLayer
370
13
48
1
60
0
100
AcDbSpline
70
4
71
3
72
10
73
6
40
0
40
0
40
0
40
0
40
0.155061591761412
40
0.155061591761412
40
1
40
1
40
1
40
1
41
1
10
41.3213895076228
20
-12.0873436368507
30
0
41
1
10
41.3304066184319
20
-12.082537791795
30
0
41
1
10
41.3393274149503
20
-12.0775468294832
30
0
41
1
10
41.3954797246053
20
-12.0444256360856
30
0
41
1
10
41.4409287471059
20
-12.0101627991135
30
0
41
1
10
41.4749811562302
20
-11.9670577707526
30
0
0
SPLINE
5
1A4
100
AcDbEntity
8
1
62
256
6
ByLayer
370
18
48
1
60
0
100
AcDbSpline
70
4
71
3
72
8
73
4
40
0
40
0
40
0
40
0
40
1
40
1
40
1
40
1
41
1
10
34.6940255880445
20
-9.2999999999999
30
0
41
1
10
34.6940255881512
20
-9.30833366666656
30
0
41
1
10
34.6940255882573
20
-9.31666733333321
30
0
41
1
10
34.6940255883627
20
-9.3250009999999
30
0
0
SPLINE
5
1A5
100
AcDbEntity
8
1
62
256
6
ByLayer
370
13
48
1
60
0
100
AcDbSpline
70
4
71
3
72
10
73
6
40
0
40
0
40
0
40
0
40
0.469742002065221
40
0.469742002065221
40
1
40
1
40
1
40
1
41
1
10
35.7943413365115
20
-12.5589593959919
30
0
41
1
10
35.8616709676841
20
-12.5588858290223
30
0
41
1
10
35.9284612712288
20
-12.5587129074789
30
0
41
1
10
36.0678981915867
20
-12.5580182350171
30
0
41
1
10
36.1365014520711
20
-12.5584843421818
30
0
41
1
10
36.1948828441304
20
-12.5585212761869
30
0
0
SPLINE
5
1A6
100
AcDbEntity
8
1
62
256
6
ByLayer
370
13
48
1
60
0
100
AcDbSpline
70
4
71
3
72
14
73
10
40
0
40
0
40
0
40
0
40
0.266795397634221
40
0.266795397634221
40
0.588216378506765
40
0.588216378506765
40
0.792812125325585
40
0.792812125325585
40
1
40
1
40
1
40
1
41
1
10
38.2117108282577
20
-10.2090596600145
30
0
41
1
10
38.2283191383986
20
-10.2080099545835
30
0
41
1
10
38.2450519942378
20
-10.2074725199396
30
0
41
1
10
38.2810516869464
20
-10.2077567749578
30
0
41
1
10
38.3005882478432
20
-10.2088778839803
30
0
41
1
10
38.3294317577717
20
-10.2129573217305
30
0
41
1
10
38.3400751079881
20
-10.2151501376923
30
0
41
1
10
38.3582004556815
20
-10.2208416198183
30
0
41
1
10
38.3658492932569
20
-10.224457316615
30
0
41
1
10
38.3709170449828
20
-10.2285515017705
30
0
0
SPLINE
5
1A7
100
AcDbEntity
8
1
62
256
6
ByLayer
370
18
48
1
60
0
100
AcDbSpline
70
4
71
3
72
12
73
8
40
0
40
0
40
0
40
0
40
0.279869576112629
40
0.349272013486345
40
0.462233024935981
40
0.575591215053302
40
1
40
1
40
1
40
1
41
1
10
35.7897397170614
20
-12.6999999999999
30
0
41
1
10
35.8305217859382
20
-12.6999999999999
30
0
41
1
10
35.8813329897664
20
-12.6999999999999
30
0
41
1
10
35.9486320961792
20
-12.6999999999999
30
0
41
1
10
35.9911192099326
20
-12.6999999999999
30
0
41
1
10
36.0815867463964
20
-12.6999999999999
30
0
41
1
10
36.1482281661727
20
-12.6999999999999
30
0
41
1
10
36.1948827170794
20
-12.6999999999999
30
0
0
SPLINE
5
1A8
100
AcDbEntity
8
1
62
256
6
ByLayer
370
18
48
1
60
0
100
AcDbSpline
70
4
71
2
72
8
73
5
40
0
40
0
40
0
40
0.132603808896657
40
0.132603808896657
40
1
40
1
40
1
41
1
10
35.9257545904581
20
-9.2999999999999
30
0
41
1
10
35.937875374895
20
-9.2999999999999
30
0
41
1
10
35.9462315780005
20
-9.2999999999999
30
0
41
1
10
36.0870084597083
20
-9.2999999999999
30
0
41
1
10
36.194935590458
20
-9.2999999999999
30
0
0
SPLINE
5
1A9
100
AcDbEntity
8
1
62
256
6
ByLayer
370
13
48
1
60
0
100
AcDbSpline
70
4
71
3
72
10
73
6
40
0
40
0
40
0
40
0
40
0.27118936689055
40
0.27118936689055
40
1
40
1
40
1
40
1
41
1
10
36.1948828441304
20
-9.44147872381294
30
0
41
1
10
36.1645469964297
20
-9.44149791527641
30
0
41
1
10
36.1316481387212
20
-9.44154966778535
30
0
41
1
10
36.0043566106604
20
-9.44147891470334
30
0
41
1
10
35.8963185202284
20
-9.44138510591631
30
0
41
1
10
35.791620899976
20
-9.44141111772603
30
0
0
SPLINE
5
1AA
100
AcDbEntity
8
1
62
256
6
ByLayer
370
13
48
1
60
0
100
AcDbSpline
70
4
71
3
72
8
73
4
40
0
40
0
40
0
40
0
40
1
40
1
40
1
40
1
41
1
10
38.402267069978
20
-12.0881688770474
30
0
41
1
10
38.3355916320271
20
-12.0211752868243
30
0
41
1
10
38.2702596862047
20
-11.9528341283806
30
0
41
1
10
38.2058506900535
20
-11.883658725442
30
0
0
SPLINE
5
1AB
100
AcDbEntity
8
1
62
256
6
ByLayer
370
13
48
1
60
0
100
AcDbSpline
70
4
71
3
72
8
73
4
40
0
40
0
40
0
40
0
40
1
40
1
40
1
40
1
41
1
10
38.402267069978
20
-9.91183112295241
30
0
41
1
10
38.3355916320271
20
-9.97882471317553
30
0
41
1
10
38.2702596862047
20
-10.0471658716191
30
0
41
1
10
38.2058506900535
20
-10.1163412745577
30
0
0
SPLINE
5
1AC
100
AcDbEntity
8
1
62
256
6
ByLayer
370
13
48
1
60
0
100
AcDbSpline
70
4
71
3
72
14
73
10
40
0
40
0
40
0
40
0
40
0.379834320808259
40
0.379834320808259
40
0.631210770699312
40
0.631210770699312
40
0.849410729670967
40
0.849410729670967
40
1
40
1
40
1
40
1
41
1
10
38.2058506900545
20
-11.8836587254475
30
0
41
1
10
38.2404033722191
20
-11.8772007495148
30
0
41
1
10
38.2752740386826
20
-11.8690294227424
30
0
41
1
10
38.3283312327764
20
-11.8532657482245
30
0
41
1
10
38.3486005534599
20
-11.8462690010058
30
0
41
1
10
38.3820194936537
20
-11.8325172154131
30
0
41
1
10
38.3960160172766
20
-11.8257360405221
30
0
41
1
10
38.415385004528
20
-11.8142340090419
30
0
41
1
10
38.4221856797107
20
-11.8094653328982
30
0
41
1
10
38.4276010148924
20
-11.8047930408047
30
0
0
SPLINE
5
1AD
100
AcDbEntity
8
1
62
256
6
ByLayer
370
13
48
1
60
0
100
AcDbSpline
70
4
71
3
72
10
73
6
40
0
40
0
40
0
40
0
40
0.635676539314332
40
0.635676539314332
40
1
40
1
40
1
40
1
41
1
10
38.5567233231079
20
-11.9396809050804
30
0
41
1
10
38.5517886304992
20
-11.9440980990625
30
0
41
1
10
38.5462831167139
20
-11.9491775758383
30
0
41
1
10
38.5368712173819
20
-11.9580757067082
30
0
41
1
10
38.5332733120423
20
-11.9615184482997
30
0
41
1
10
38.5295320689357
20
-11.9651378789012
30
0
0
SPLINE
5
1AE
100
AcDbEntity
8
1
62
256
6
ByLayer
370
13
48
1
60
0
100
AcDbSpline
70
4
71
3
72
14
73
10
40
0
40
0
40
0
40
0
40
0.444167189427318
40
0.444167189427318
40
0.907416360928084
40
0.907416360928084
40
0.983345356785529
40
0.983345356785529
40
1
40
1
40
1
40
1
41
1
10
38.5295320689501
20
-11.9651378789161
30
0
41
1
10
38.5148301349195
20
-11.979361127293
30
0
41
1
10
38.4972708614501
20
-11.9963448469377
30
0
41
1
10
38.4587609098674
20
-12.0335789491005
30
0
41
1
10
38.4370796347395
20
-12.0545350036346
30
0
41
1
10
38.4118382446762
20
-12.0789224631472
30
0
41
1
10
38.4082241827248
20
-12.0824140427681
30
0
41
1
10
38.4038292329152
20
-12.0866597810329
30
0
41
1
10
38.4030481406259
20
-12.0874143344227
30
0
41
1
10
38.4022670699779
20
-12.0881688770473
30
0
0
SPLINE
5
1AF
100
AcDbEntity
8
1
62
256
6
ByLayer
370
13
48
1
60
0
100
AcDbSpline
70
4
71
3
72
14
73
10
40
0
40
0
40
0
40
0
40
0.444167189427318
40
0.444167189427318
40
0.907416360928084
40
0.907416360928084
40
0.983345356785529
40
0.983345356785529
40
1
40
1
40
1
40
1
41
1
10
38.5295320689501
20
-10.0348621210837
30
0
41
1
10
38.5148301349195
20
-10.0206388727067
30
0
41
1
10
38.4972708614501
20
-10.0036551530621
30
0
41
1
10
38.4587609098674
20
-9.96642105089933
30
0
41
1
10
38.4370796347395
20
-9.94546499636516
30
0
41
1
10
38.4118382446762
20
-9.92107753685258
30
0
41
1
10
38.4082241827248
20
-9.91758595723164
30
0
41
1
10
38.4038292329152
20
-9.91334021896682
30
0
41
1
10
38.4030481406259
20
-9.9125856655771
30
0
41
1
10
38.4022670699779
20
-9.91183112295249
30
0
0
SPLINE
5
1B0
100
AcDbEntity
8
1
62
256
6
ByLayer
370
13
48
1
60
0
100
AcDbSpline
70
4
71
3
72
14
73
10
40
0
40
0
40
0
40
0
40
0.227211797335153
40
0.227211797335153
40
0.440863858228167
40
0.440863858228167
40
0.754067952335979
40
0.754067952335979
40
1
40
1
40
1
40
1
41
1
10
38.4276010148921
20
-10.1952069591954
30
0
41
1
10
38.4194894327672
20
-10.1882083746654
30
0
41
1
10
38.4081952324148
20
-10.1809691379581
30
0
41
1
10
38.3819004770139
20
-10.1674261036968
30
0
41
1
10
38.3669338023779
20
-10.1609655327876
30
0
41
1
10
38.3271167273861
20
-10.1461167038842
30
0
41
1
10
38.3003050585003
20
-10.137984634061
30
0
41
1
10
38.2509997489857
20
-10.125474299007
30
0
41
1
10
38.2284130284009
20
-10.1205582275961
30
0
41
1
10
38.2058506900536
20
-10.1163412745576
30
0
0
SPLINE
5
1B1
100
AcDbEntity
8
1
62
256
6
ByLayer
370
13
48
1
60
0
100
AcDbSpline
70
4
71
3
72
14
73
10
40
0
40
0
40
0
40
0
40
0.444167523254406
40
0.444167523254406
40
0.907416528022182
40
0.907416528022182
40
0.983345421218332
40
0.983345421218332
40
1
40
1
40
1
40
1
41
1
10
38.5786440339733
20
-12.0731908083754
30
0
41
1
10
38.5582612980086
20
-12.0749218145067
30
0
41
1
10
38.5339198409799
20
-12.0769889830321
30
0
41
1
10
38.4805450699943
20
-12.0815216553303
30
0
41
1
10
38.4504996564204
20
-12.0840731021464
30
0
41
1
10
38.4155273744394
20
-12.0870428553961
30
0
41
1
10
38.4105201979463
20
-12.0874680496815
30
0
41
1
10
38.4044313098844
20
-12.0879850973936
30
0
41
1
10
38.4033491786774
20
-12.0880769881382
30
0
41
1
10
38.4022670704388
20
-12.0881688770152
30
0
0
SPLINE
5
1B2
100
AcDbEntity
8
1
62
256
6
ByLayer
370
13
48
1
60
0
100
AcDbSpline
70
4
71
3
72
10
73
6
40
0
40
0
40
0
40
0
40
0.635676539314332
40
0.635676539314332
40
1
40
1
40
1
40
1
41
1
10
38.5567233231079
20
-10.0603190949194
30
0
41
1
10
38.5517886304992
20
-10.0559019009372
30
0
41
1
10
38.5462831167139
20
-10.0508224241615
30
0
41
1
10
38.5368712173819
20
-10.0419242932916
30
0
41
1
10
38.5332733120423
20
-10.0384815517001
30
0
41
1
10
38.5295320689357
20
-10.0348621210986
30
0
0
SPLINE
5
1B3
100
AcDbEntity
8
1
62
256
6
ByLayer
370
13
48
1
60
0
100
AcDbSpline
70
4
71
3
72
14
73
10
40
0
40
0
40
0
40
0
40
0.444167523254406
40
0.444167523254406
40
0.907416528022182
40
0.907416528022182
40
0.983345421218332
40
0.983345421218332
40
1
40
1
40
1
40
1
41
1
10
38.5786440339733
20
-9.92680919162441
30
0
41
1
10
38.5582612980086
20
-9.92507818549311
30
0
41
1
10
38.5339198409799
20
-9.92301101696765
30
0
41
1
10
38.4805450699943
20
-9.91847834466944
30
0
41
1
10
38.4504996564204
20
-9.91592689785332
30
0
41
1
10
38.4155273744394
20
-9.91295714460367
30
0
41
1
10
38.4105201979463
20
-9.91253195031825
30
0
41
1
10
38.4044313098844
20
-9.91201490260616
30
0
41
1
10
38.4033491786774
20
-9.91192301186155
30
0
41
1
10
38.4022670704388
20
-9.91183112298464
30
0
0
SPLINE
5
1B4
100
AcDbEntity
8
1
62
256
6
ByLayer
370
13
48
1
60
0
100
AcDbSpline
70
4
71
3
72
10
73
6
40
0
40
0
40
0
40
0
40
0.497554089050764
40
0.497554089050764
40
1
40
1
40
1
40
1
41
1
10
36.6505794795572
20
-10.2257107036877
30
0
41
1
10
36.5888213319316
20
-10.0926358246588
30
0
41
1
10
36.527713897839
20
-9.95909669836459
30
0
41
1
10
36.3926923078269
20
-9.69810767342108
30
0
41
1
10
36.3192033259222
20
-9.56892786765772
30
0
41
1
10
36.2293861108521
20
-9.45396211495179
30
0
0
SPLINE
5
1B5
100
AcDbEntity
8
1
62
256
6
ByLayer
370
13
48
1
60
0
100
AcDbSpline
70
4
71
3
72
10
73
6
40
0
40
0
40
0
40
0
40
0.502445910949252
40
0.502445910949252
40
1
40
1
40
1
40
1
41
1
10
36.2293861108519
20
-12.5460378850479
30
0
41
1
10
36.319203325922
20
-12.431072132342
30
0
41
1
10
36.3926923078269
20
-12.3018923265787
30
0
41
1
10
36.5277138978391
20
-12.0409033016352
30
0
41
1
10
36.5888213319316
20
-11.9073641753409
30
0
41
1
10
36.6505794795572
20
-11.7742892963121
30
0
0
SPLINE
5
1B6
100
AcDbEntity
8
1
62
256
6
ByLayer
370
13
48
1
60
0
100
AcDbSpline
70
4
71
3
72
12
73
8
40
0
40
0
40
0
40
0
40
0.463337467097879
40
0.463337467097879
40
0.900600131165872
40
0.900600131165872
40
1
40
1
40
1
40
1
41
1
10
39.8587805434613
20
-12.3588468043886
30
0
41
1
10
39.6818273249509
20
-12.3072915873501
30
0
41
1
10
39.50042203057
20
-12.2580977837113
30
0
41
1
10
39.1720767833215
20
-12.1756951522805
30
0
41
1
10
39.0188276083644
20
-12.1406906221078
30
0
41
1
10
38.8561199419521
20
-12.1129504977449
30
0
41
1
10
38.8265505861075
20
-12.1083092293308
30
0
41
1
10
38.7981203716815
20
-12.104516736948
30
0
0
SPLINE
5
1B7
100
AcDbEntity
8
1
62
256
6
ByLayer
370
13
48
1
60
0
100
AcDbSpline
70
4
71
3
72
18
73
14
40
0
40
0
40
0
40
0
40
0.0063240448349623
40
0.115571666530674
40
0.280469175692592
40
0.368232734071898
40
0.448339110094565
40
0.465553780381002
40
0.490325726476706
40
0.50069624506212
40
0.556763305637165
40
0.755111044663369
40
1
40
1
40
1
40
1
41
1
10
36.9028415230971
20
-10.9999999999999
30
0
41
1
10
36.9005154116541
20
-10.9999999999999
30
0
41
1
10
36.8578593433939
20
-10.9999999999999
30
0
41
1
10
36.7469736785093
20
-10.9999999999999
30
0
41
1
10
36.5821864796328
20
-10.9999999999999
30
0
41
1
10
36.3999950653449
20
-10.9999999999999
30
0
41
1
10
36.2985561666313
20
-10.9999999999999
30
0
41
1
10
36.2323336814468
20
-10.9999999999999
30
0
41
1
10
36.2093626981952
20
-10.9999999999999
30
0
41
1
10
36.1808112622735
20
-10.9999999999999
30
0
41
1
10
36.1064535903822
20
-10.9999999999999
30
0
41
1
10
35.9603376907844
20
-10.9999999999999
30
0
41
1
10
35.8270644313684
20
-10.9999999999999
30
0
41
1
10
35.7524775231027
20
-10.9999999999999
30
0
0
SPLINE
5
1B8
100
AcDbEntity
8
1
62
256
6
ByLayer
370
13
48
1
60
0
100
AcDbSpline
70
4
71
3
72
12
73
8
40
0
40
0
40
0
40
0
40
0.463337467097879
40
0.463337467097879
40
0.900600131165872
40
0.900600131165872
40
1
40
1
40
1
40
1
41
1
10
39.8587805434613
20
-9.6411531956112
30
0
41
1
10
39.6818273249509
20
-9.69270841264975
30
0
41
1
10
39.50042203057
20
-9.74190221628845
30
0
41
1
10
39.1720767833215
20
-9.8243048477193
30
0
41
1
10
39.0188276083644
20
-9.85930937789195
30
0
41
1
10
38.8561199419521
20
-9.88704950225488
30
0
41
1
10
38.8265505861075
20
-9.89169077066904
30
0
41
1
10
38.7981203716815
20
-9.89548326305174
30
0
0
SPLINE
5
1B9
100
AcDbEntity
8
1
62
256
6
ByLayer
370
13
48
1
60
0
100
AcDbSpline
70
4
71
3
72
10
73
6
40
0
40
0
40
0
40
0
40
0.536023803633833
40
0.536023803633833
40
1
40
1
40
1
40
1
41
1
10
36.196806058006
20
-12.5420477111233
30
0
41
1
10
36.1381775714992
20
-12.5420082354183
30
0
41
1
10
36.069278310824
20
-12.5415436735715
30
0
41
1
10
35.9307615620125
20
-12.5422165357409
30
0
41
1
10
35.8653396280713
20
-12.5424025865502
30
0
41
1
10
35.7994265962998
20
-12.542500187262
30
0
0
SPLINE
5
1BA
100
AcDbEntity
8
1
62
256
6
ByLayer
370
13
48
1
60
0
100
AcDbSpline
70
4
71
3
72
17
73
13
40
0
40
0
40
0
40
0
40
0.0114388526231844
40
0.156919219899098
40
0.376506152991124
40
0.493377115564799
40
0.600051337154535
40
0.622975374464748
40
0.655963111499243
40
0.669773085842208
40
0.744435183176073
40
1
40
1
40
1
40
1
41
1.02166924057829
10
36.5642619721899
20
-11.5180483237179
30
0
41
1.02166924057829
10
36.5620121846723
20
-11.5180483237179
30
0
41
1.02166924057829
10
36.5309928442017
20
-11.5180483237179
30
0
41
1.02166924057829
10
36.4508721914325
20
-11.5180483237179
30
0
41
1.02166924057829
10
36.3319780838439
20
-11.5180483237179
30
0
41
1.02166924057829
10
36.2034802291129
20
-11.5180483237179
30
0
41
1.02166924057829
10
36.1299298007581
20
-11.5180483237179
30
0
41
1.02166924057829
10
36.0811802263965
20
-11.5180483237179
30
0
41
1.02166924057829
10
36.0626115241028
20
-11.5180483237179
30
0
41
1.02166924057829
10
36.0354849092951
20
-11.5180483237179
30
0
41
1.02166924057829
10
35.9621912359773
20
-11.5180483237179
30
0
41
1.02166924057829
10
35.889695428171
20
-11.5180483237178
30
0
41
1.02166924057829
10
35.8328999721898
20
-11.5180483237178
30
0
0
SPLINE
5
1BB
100
AcDbEntity
8
1
62
256
6
ByLayer
370
13
48
1
60
0
100
AcDbSpline
70
4
71
3
72
12
73
8
40
0
40
0
40
0
40
0
40
0.0001909827237722
40
0.0001909827237722
40
0.835060855040991
40
0.835060855040991
40
1
40
1
40
1
40
1
41
1
10
36.5642619721899
20
-11.5180483237179
30
0
41
1
10
36.5642649947143
20
-11.518063417298
30
0
41
1
10
36.5642680166039
20
-11.51807851125
30
0
41
1
10
36.5774847059302
20
-11.584071856885
30
0
41
1
10
36.5973504519073
20
-11.6411676576041
30
0
41
1
10
36.6206908788007
20
-11.6931932274458
30
0
41
1
10
36.6245975046497
20
-11.7012417336326
30
0
41
1
10
36.6288949833902
20
-11.708596734157
30
0
0
SPLINE
5
1BC
100
AcDbEntity
8
1
62
256
6
ByLayer
370
13
48
1
60
0
100
AcDbSpline
70
4
71
3
72
14
73
10
40
0
40
0
40
0
40
0
40
0.311178400285531
40
0.311178400285531
40
0.543346484169134
40
0.543346484169134
40
0.778369753410881
40
0.778369753410881
40
1
40
1
40
1
40
1
41
1
10
36.6288949833902
20
-11.708596734157
30
0
41
1
10
36.6305297633023
20
-11.7113946088732
30
0
41
1
10
36.6317726045297
20
-11.715015960987
30
0
41
1
10
36.6328133247892
20
-11.7227576019716
30
0
41
1
10
36.6328989549484
20
-11.7266047296154
30
0
41
1
10
36.6321296350065
20
-11.735035048716
30
0
41
1
10
36.631238465166
20
-11.7397690942224
30
0
41
1
10
36.6286039699771
20
-11.7489583805866
30
0
41
1
10
36.6268707498713
20
-11.7535558232454
30
0
41
1
10
36.6248988849921
20
-11.7578047547719
30
0
0
SPLINE
5
1BD
100
AcDbEntity
8
1
62
256
6
ByLayer
370
13
48
1
60
0
100
AcDbSpline
70
4
71
3
72
10
73
6
40
0
40
0
40
0
40
0
40
0.499742345998437
40
0.499742345998437
40
1
40
1
40
1
40
1
41
1
10
36.6248988849921
20
-11.7578047547719
30
0
41
1
10
36.5633542951558
20
-11.8904196975089
30
0
41
1
10
36.5028086692735
20
-12.0238035572337
30
0
41
1
10
36.371167250745
20
-12.2849078636479
30
0
41
1
10
36.3000490853336
20
-12.4137317616672
30
0
41
1
10
36.2132128483601
20
-12.5295647457849
30
0
0
SPLINE
5
1BE
100
AcDbEntity
8
1
62
256
6
ByLayer
370
13
48
1
60
0
100
AcDbSpline
70
4
71
3
72
12
73
8
40
0
40
0
40
0
40
0
40
0.375703177063746
40
0.375703177063746
40
0.751775167261341
40
0.751775167261341
40
1
40
1
40
1
40
1
41
1
10
36.2132128483601
20
-12.5295647457849
30
0
41
1
10
36.2114646681789
20
-12.5318966861615
30
0
41
1
10
36.2096033447167
20
-12.5341339265011
30
0
41
1
10
36.205633361088
20
-12.5380704570086
30
0
41
1
10
36.20346235006
20
-12.5398252389486
30
0
41
1
10
36.199764819209
20
-12.54162758097
30
0
41
1
10
36.1982273714241
20
-12.5420486681214
30
0
41
1
10
36.196806058006
20
-12.5420477111233
30
0
0
SPLINE
5
1BF
100
AcDbEntity
8
1
62
256
6
ByLayer
370
13
48
1
60
0
100
AcDbSpline
70
4
71
3
72
12
73
8
40
0
40
0
40
0
40
0
40
0.834949441595139
40
0.834949441595139
40
0.999808961982549
40
0.999808961982549
40
1
40
1
40
1
40
1
41
1
10
36.6288949833902
20
-10.2914032658427
30
0
41
1
10
36.6074358885222
20
-10.3281298358948
30
0
41
1
10
36.5885583727964
20
-10.3814846131083
30
0
41
1
10
36.5698264172733
20
-10.4558671465002
30
0
41
1
10
36.5669159860824
20
-10.4686996931319
30
0
41
1
10
36.5642680166041
20
-10.4819214887497
30
0
41
1
10
36.5642649947144
20
-10.4819365827017
30
0
41
1
10
36.5642619721899
20
-10.4819516762819
30
0
0
SPLINE
5
1C0
100
AcDbEntity
8
1
62
256
6
ByLayer
370
13
48
1
60
0
100
AcDbSpline
70
4
71
3
72
17
73
13
40
0
40
0
40
0
40
0
40
0.0114388526231844
40
0.156919219899098
40
0.376506152991124
40
0.493377115564799
40
0.600051337154535
40
0.622975374464748
40
0.655963111499243
40
0.669773085842208
40
0.744435183176073
40
1
40
1
40
1
40
1
41
1.02166924057829
10
36.5642619721899
20
-10.4819516762819
30
0
41
1.02166924057829
10
36.5620121846723
20
-10.4819516762819
30
0
41
1.02166924057829
10
36.5309928442017
20
-10.4819516762819
30
0
41
1.02166924057829
10
36.4508721914325
20
-10.4819516762819
30
0
41
1.02166924057829
10
36.3319780838439
20
-10.4819516762819
30
0
41
1.02166924057829
10
36.2034802291129
20
-10.4819516762819
30
0
41
1.02166924057829
10
36.1299298007581
20
-10.4819516762819
30
0
41
1.02166924057829
10
36.0811802263965
20
-10.4819516762819
30
0
41
1.02166924057829
10
36.0626115241028
20
-10.4819516762819
30
0
41
1.02166924057829
10
36.0354849092951
20
-10.4819516762819
30
0
41
1.02166924057829
10
35.9621912359773
20
-10.4819516762819
30
0
41
1.02166924057829
10
35.889695428171
20
-10.4819516762819
30
0
41
1.02166924057829
10
35.8328999721898
20
-10.4819516762819
30
0
0
SPLINE
5
1C1
100
AcDbEntity
8
1
62
256
6
ByLayer
370
13
48
1
60
0
100
AcDbSpline
70
4
71
3
72
10
73
6
40
0
40
0
40
0
40
0
40
0.725745953634146
40
0.725745953634146
40
1
40
1
40
1
40
1
41
1
10
35.7967651095336
20
-9.45789439443055
30
0
41
1
10
35.9003515864991
20
-9.45786979380836
30
0
41
1
10
36.0069409467159
20
-9.45794961259148
30
0
41
1
10
36.1333197414333
20
-9.45802325615537
30
0
41
1
10
36.1663501006526
20
-9.45797279546736
30
0
41
1
10
36.1968060580059
20
-9.45795228887644
30
0
0
SPLINE
5
1C2
100
AcDbEntity
8
1
62
256
6
ByLayer
370
13
48
1
60
0
100
AcDbSpline
70
4
71
3
72
12
73
8
40
0
40
0
40
0
40
0
40
0.233419544939649
40
0.233419544939649
40
0.533242188339535
40
0.533242188339535
40
1
40
1
40
1
40
1
41
1
10
36.196806058006
20
-9.45795228887644
30
0
41
1
10
36.1981428732452
20
-9.45795138877264
30
0
41
1
10
36.1995818076069
20
-9.45832176130105
30
0
41
1
10
36.2027553138587
20
-9.45978830877203
30
0
41
1
10
36.2045163143435
20
-9.46106189225964
30
0
41
1
10
36.2087030592946
20
-9.46478733839024
30
0
41
1
10
36.2110488801263
20
-9.46754868396741
30
0
41
1
10
36.2132128483601
20
-9.47043525421486
30
0
0
SPLINE
5
1C3
100
AcDbEntity
8
1
62
256
6
ByLayer
370
13
48
1
60
0
100
AcDbSpline
70
4
71
3
72
12
73
8
40
0
40
0
40
0
40
0
40
0.500303615083402
40
0.500303615083402
40
0.706948141205687
40
0.706948141205687
40
1
40
1
40
1
40
1
41
1
10
36.2132128483601
20
-9.47043525421486
30
0
41
1
10
36.3000490853336
20
-9.58626823833259
30
0
41
1
10
36.371167250745
20
-9.7150921363519
30
0
41
1
10
36.4641815336572
20
-9.89958141106396
30
0
41
1
10
36.4905769602076
20
-9.95402796554097
30
0
41
1
10
36.5531524224408
20
-10.0863631950606
30
0
41
1
10
36.5888033962697
20
-10.1644174717027
30
0
41
1
10
36.6248988849921
20
-10.2421952452279
30
0
0
SPLINE
5
1C4
100
AcDbEntity
8
1
62
256
6
ByLayer
370
13
48
1
60
0
100
AcDbSpline
70
4
71
3
72
16
73
12
40
0
40
0
40
0
40
0
40
0.194932576020356
40
0.194932576020356
40
0.39011325308891
40
0.39011325308891
40
0.582453198361958
40
0.582453198361958
40
0.861227543943274
40
0.861227543943274
40
1
40
1
40
1
40
1
41
1
10
36.6248988849921
20
-10.2421952452279
30
0
41
1
10
36.6266351273015
20
-10.2459364623691
30
0
41
1
10
36.6281854797658
20
-10.2499375173244
30
0
41
1
10
36.6306140427218
20
-10.2578189544101
30
0
41
1
10
36.631521907995
20
-10.2617995225777
30
0
41
1
10
36.6326119921052
20
-10.2691399812688
30
0
41
1
10
36.6328220918346
20
-10.2725961908823
30
0
41
1
10
36.6326331363436
20
-10.280163643779
30
0
41
1
10
36.6319280541769
20
-10.284015775443
30
0
41
1
10
36.6302825932795
20
-10.2887299188863
30
0
41
1
10
36.6296297457925
20
-10.29014574296
30
0
41
1
10
36.6288949833902
20
-10.2914032658427
30
0
0
SPLINE
5
1C5
100
AcDbEntity
8
1
62
256
6
ByLayer
370
13
48
1
60
0
100
AcDbSpline
70
4
71
3
72
8
73
4
40
0
40
0
40
0
40
0
40
1
40
1
40
1
40
1
41
1
10
38.7981203716815
20
-9.89548326305174
30
0
41
1
10
38.72554414311
20
-9.90452524098936
30
0
41
1
10
38.6530161894473
20
-9.91535628268701
30
0
41
1
10
38.5805367788459
20
-9.92701928290197
30
0
0
SPLINE
5
1C6
100
AcDbEntity
8
1
62
256
6
ByLayer
370
13
48
1
60
0
100
AcDbSpline
70
4
71
3
72
10
73
6
40
0
40
0
40
0
40
0
40
0.65577982668938
40
0.65577982668938
40
1
40
1
40
1
40
1
41
1
10
38.5805367788459
20
-9.92701928290197
30
0
41
1
10
38.5801191070633
20
-9.92708649241774
30
0
41
1
10
38.5796942374048
20
-9.92709310460211
30
0
41
1
10
38.5790658180181
20
-9.9269703018559
30
0
41
1
10
38.5788510647694
20
-9.92690329077823
30
0
41
1
10
38.5786440339733
20
-9.92680919162456
30
0
0
SPLINE
5
1C7
100
AcDbEntity
8
1
62
256
6
ByLayer
370
13
48
1
60
0
100
AcDbSpline
70
4
71
3
72
14
73
10
40
0
40
0
40
0
40
0
40
0.233154461884277
40
0.233154461884277
40
0.479060596235394
40
0.479060596235394
40
0.710446838090714
40
0.710446838090714
40
1
40
1
40
1
40
1
41
1
10
36.6505794795572
20
-11.7742892963121
30
0
41
1
10
36.6535287299073
20
-11.7653955416999
30
0
41
1
10
36.6564221376374
20
-11.7561855827973
30
0
41
1
10
36.6618332759263
20
-11.7379818512592
30
0
41
1
10
36.6643914009319
20
-11.72879508385
30
0
41
1
10
36.668587164908
20
-11.7126014630579
30
0
41
1
10
36.6703175223951
20
-11.7053189771986
30
0
41
1
10
36.6733370258104
20
-11.6911545828675
30
0
41
1
10
36.6744553636978
20
-11.6846117683512
30
0
41
1
10
36.6749813396558
20
-11.6797636730828
30
0
0
SPLINE
5
1C8
100
AcDbEntity
8
1
62
256
6
ByLayer
370
13
48
1
60
0
100
AcDbSpline
70
4
71
3
72
16
73
12
40
0
40
0
40
0
40
0
40
0.126440774462018
40
0.126440774462018
40
0.393583756685852
40
0.393583756685852
40
0.589520715253497
40
0.589520715253497
40
0.795096123384776
40
0.795096123384776
40
1
40
1
40
1
40
1
41
1
10
36.6749813396558
20
-10.320236326917
30
0
41
1
10
36.674749579454
20
-10.3181001160868
30
0
41
1
10
36.6744061147986
20
-10.3156502336149
30
0
41
1
10
36.6730009566775
20
-10.3071783931593
30
0
41
1
10
36.6715364949885
20
-10.3000420225427
30
0
41
1
10
36.6682103368523
20
-10.2859379767459
30
0
41
1
10
36.666531997418
20
-10.2793228416124
30
0
41
1
10
36.662680714042
20
-10.2650776859419
30
0
41
1
10
36.6604525899759
20
-10.2572861667477
30
0
41
1
10
36.6557194619694
20
-10.2415830080993
30
0
41
1
10
36.6531724651188
20
-10.233530106783
30
0
41
1
10
36.6505794795553
20
-10.2257107036885
30
0
0
SPLINE
5
1C9
100
AcDbEntity
8
1
62
256
6
ByLayer
370
13
48
1
60
0
100
AcDbSpline
70
4
71
3
72
10
73
6
40
0
40
0
40
0
40
0
40
0.65577982668938
40
0.65577982668938
40
1
40
1
40
1
40
1
41
1
10
38.5805367788459
20
-12.0729807170978
30
0
41
1
10
38.5801191070633
20
-12.0729135075821
30
0
41
1
10
38.5796942374048
20
-12.0729068953977
30
0
41
1
10
38.5790658180181
20
-12.0730296981439
30
0
41
1
10
38.5788510647694
20
-12.0730967092216
30
0
41
1
10
38.5786440339733
20
-12.0731908083752
30
0
0
SPLINE
5
1CA
100
AcDbEntity
8
1
62
256
6
ByLayer
370
13
48
1
60
0
100
AcDbSpline
70
4
71
3
72
8
73
4
40
0
40
0
40
0
40
0
40
1
40
1
40
1
40
1
41
1
10
38.7981203716815
20
-12.104516736948
30
0
41
1
10
38.72554414311
20
-12.0954747590104
30
0
41
1
10
38.6530161894473
20
-12.0846437173128
30
0
41
1
10
38.5805367788459
20
-12.0729807170978
30
0
0
SPLINE
5
1CB
100
AcDbEntity
8
1
62
256
6
ByLayer
370
13
48
1
60
0
100
AcDbSpline
70
4
71
3
72
10
73
6
40
0
40
0
40
0
40
0
40
0.895575341108676
40
0.895575341108676
40
1
40
1
40
1
40
1
41
1
10
38.7528237185281
20
-10.4850597412118
30
0
41
1
10
38.7017089957987
20
-10.4501416307693
30
0
41
1
10
38.659091700601
20
-10.4109963768919
30
0
41
1
10
38.6210320216285
20
-10.3720272543165
30
0
41
1
10
38.6171123387419
20
-10.3679741936718
30
0
41
1
10
38.6132739541157
20
-10.3639941066531
30
0
0
SPLINE
5
1CC
100
AcDbEntity
8
1
62
256
6
ByLayer
370
13
48
1
60
0
100
AcDbSpline
70
4
71
3
72
12
73
8
40
0
40
0
40
0
40
0
40
0.186611634777379
40
0.186611634777379
40
0.69338882082023
40
0.69338882082023
40
1
40
1
40
1
40
1
41
1
10
38.7528237185344
20
-10.4850597411969
30
0
41
1
10
38.8090277271942
20
-10.4740168811315
30
0
41
1
10
38.8680824534585
20
-10.4620719573103
30
0
41
1
10
39.0939294786756
20
-10.4152726953653
30
0
41
1
10
39.2774173301443
20
-10.3751870497232
30
0
41
1
10
39.5783768705611
20
-10.3062544751915
30
0
41
1
10
39.6952214954586
20
-10.2787496067102
30
0
41
1
10
39.8112677608008
20
-10.250514065676
30
0
0
SPLINE
5
1CD
100
AcDbEntity
8
1
62
256
6
ByLayer
370
13
48
1
60
0
100
AcDbSpline
70
4
71
3
72
10
73
6
40
0
40
0
40
0
40
0
40
0.895407880007388
40
0.895407880007388
40
1
40
1
40
1
40
1
41
1
10
38.6132739541157
20
-11.6360058933466
30
0
41
1
10
38.6458088830839
20
-11.602269866071
30
0
41
1
10
38.6859541892358
20
-11.5631217894106
30
0
41
1
10
38.7408552378462
20
-11.5232461828697
30
0
41
1
10
38.7467812438336
20
-11.5190680675187
30
0
41
1
10
38.7528237185018
20
-11.514940258806
30
0
0
SPLINE
5
1CE
100
AcDbEntity
8
1
62
256
6
ByLayer
370
13
48
1
60
0
100
AcDbSpline
70
4
71
3
72
12
73
8
40
0
40
0
40
0
40
0
40
0.186611634810624
40
0.186611634810624
40
0.693388820832762
40
0.693388820832762
40
1
40
1
40
1
40
1
41
1
10
38.7528237184975
20
-11.5149402587957
30
0
41
1
10
38.8090277271684
20
-11.525983118863
30
0
41
1
10
38.8680824534452
20
-11.5379280426867
30
0
41
1
10
39.0939294786756
20
-11.5847273046345
30
0
41
1
10
39.2774173301443
20
-11.6248129502765
30
0
41
1
10
39.5783768705611
20
-11.6937455248083
30
0
41
1
10
39.6952214954586
20
-11.7212503932895
30
0
41
1
10
39.8112677608008
20
-11.7494859343237
30
0
0
SPLINE
5
1CF
100
AcDbEntity
8
1
62
256
6
ByLayer
370
13
48
1
60
0
100
AcDbSpline
70
4
71
3
72
17
73
13
40
0
40
0
40
0
40
0
40
0.11846752799369
40
0.326190253527792
40
0.436746717611308
40
0.537657367169687
40
0.559342826514973
40
0.590548247299896
40
0.603612073410507
40
0.674240202934878
40
0.924100453483556
40
1
40
1
40
1
40
1
41
1.02166924057829
10
36.6304829603476
20
-11.4005769633987
30
0
41
1.02166924057829
10
36.6025181202443
20
-11.4005769633987
30
0
41
1.02166924057829
10
36.521029746144
20
-11.4005769633987
30
0
41
1.02166924057829
10
36.3958987039929
20
-11.4005769633987
30
0
41
1.02166924057829
10
36.2536837810793
20
-11.4005769633987
30
0
41
1.02166924057829
10
36.173008698435
20
-11.4005769633987
30
0
41
1.02166924057829
10
36.1197953278362
20
-11.4005769633987
30
0
41
1.02166924057829
10
36.1001019769151
20
-11.4005769633987
30
0
41
1.02166924057829
10
36.0726113637335
20
-11.4005769633987
30
0
41
1.02166924057829
10
35.9976871203487
20
-11.4005769633987
30
0
41
1.02166924057829
10
35.9056201861375
20
-11.4005769633987
30
0
41
1.02166924057829
10
35.8287411960605
20
-11.4005769633987
30
0
41
1.02166924057829
10
35.8107649603499
20
-11.4005769633988
30
0
0
SPLINE
5
1D0
100
AcDbEntity
8
1
62
256
6
ByLayer
370
13
48
1
60
0
100
AcDbSpline
70
4
71
3
72
12
73
8
40
0
40
0
40
0
40
0
40
0.284615438372511
40
0.284615438372511
40
0.667690975958614
40
0.667690975958614
40
1
40
1
40
1
40
1
41
1
10
36.1948828441304
20
-12.5585212761869
30
0
41
1
10
36.1978605568158
20
-12.5585221584908
30
0
41
1
10
36.2010318130271
20
-12.5581314463065
30
0
41
1
10
36.2086278393444
20
-12.5563780844258
30
0
41
1
10
36.2131769281055
20
-12.5547131903038
30
0
41
1
10
36.2215997566267
20
-12.5507277210879
30
0
41
1
10
36.2255317184139
20
-12.5485046901522
30
0
41
1
10
36.2293861108528
20
-12.5460378850545
30
0
0
SPLINE
5
1D1
100
AcDbEntity
8
1
62
256
6
ByLayer
370
13
48
1
60
0
100
AcDbSpline
70
4
71
3
72
18
73
14
40
0
40
0
40
0
40
0
40
0.0003522007305194
40
0.0003522007305194
40
0.297488387658359
40
0.297488387658359
40
0.59301932818094
40
0.59301932818094
40
0.905704189131033
40
0.905704189131033
40
0.999647799262026
40
0.999647799262026
40
1
40
1
40
1
40
1
41
1
10
36.6304829603426
20
-11.4005769633987
30
0
41
1
10
36.6304668731362
20
-11.4005848471204
30
0
41
1
10
36.6304507857493
20
-11.4005927333916
30
0
41
1
10
36.616865097381
20
-11.4072564096237
30
0
41
1
10
36.6045872514046
20
-11.4160794023089
30
0
41
1
10
36.5848447184794
20
-11.4368078464568
30
0
41
1
10
36.5771334079904
20
-11.4489430527534
30
0
41
1
10
36.5666355950013
20
-11.4753918764917
30
0
41
1
10
36.5640066394331
20
-11.4900840946998
30
0
41
1
10
36.5637463392746
20
-11.5091215423362
30
0
41
1
10
36.5639024360132
20
-11.5135653659696
30
0
41
1
10
36.5642593256509
20
-11.5180154269588
30
0
41
1
10
36.5642606486736
20
-11.5180318745851
30
0
41
1
10
36.5642619721899
20
-11.5180483237177
30
0
0
SPLINE
5
1D2
100
AcDbEntity
8
1
62
256
6
ByLayer
370
13
48
1
60
0
100
AcDbSpline
70
4
71
3
72
12
73
8
40
0
40
0
40
0
40
0
40
0.419389511187602
40
0.419389511187602
40
0.73199563373051
40
0.73199563373051
40
1
40
1
40
1
40
1
41
1
10
36.2293861108519
20
-9.45396211495188
30
0
41
1
10
36.2245354591971
20
-9.45085770552339
30
0
41
1
10
36.2195494047904
20
-9.44813410411311
30
0
41
1
10
36.2109438735579
20
-9.44448580782978
30
0
41
1
10
36.2072592207382
20
-9.44326655759403
30
0
41
1
10
36.2006642853839
20
-9.44182389799937
30
0
41
1
10
36.1976881920181
20
-9.44147789258099
30
0
41
1
10
36.1948828441304
20
-9.44147872381282
30
0
0
SPLINE
5
1D3
100
AcDbEntity
8
1
62
256
6
ByLayer
370
13
48
1
60
0
100
AcDbSpline
70
4
71
3
72
18
73
14
40
0
40
0
40
0
40
0
40
0.0003510431352723
40
0.0003510431352723
40
0.272262893622951
40
0.272262893622951
40
0.561312801131931
40
0.561312801131931
40
0.853766373242132
40
0.853766373242132
40
0.999648956870035
40
0.999648956870035
40
1
40
1
40
1
40
1
41
1
10
36.5642619721899
20
-10.4819516762821
30
0
41
1
10
36.5642606486736
20
-10.4819681254146
30
0
41
1
10
36.5642593256509
20
-10.481984573041
30
0
41
1
10
36.5632362148503
20
-10.4947417533613
30
0
41
1
10
36.563881351676
20
-10.5076486712827
30
0
41
1
10
36.5693719002484
20
-10.5332299675925
30
0
41
1
10
36.5745633812585
20
-10.5460754921451
30
0
41
1
10
36.5895898623041
20
-10.5691495774426
30
0
41
1
10
36.5996551870805
20
-10.5795967378794
30
0
41
1
10
36.6173245018118
20
-10.5923002941297
30
0
41
1
10
36.6237139278252
20
-10.5961028893247
30
0
41
1
10
36.6304507857487
20
-10.5994072666081
30
0
41
1
10
36.630466873136
20
-10.5994151528793
30
0
41
1
10
36.6304829603426
20
-10.599423036601
30
0
0
SPLINE
5
1D4
100
AcDbEntity
8
1
62
256
6
ByLayer
370
13
48
1
60
0
100
AcDbSpline
70
4
71
3
72
17
73
13
40
0
40
0
40
0
40
0
40
0.11846752799369
40
0.326190253527792
40
0.436746717611308
40
0.537657367169687
40
0.559342826514973
40
0.590548247299896
40
0.603612073410507
40
0.674240202934878
40
0.924100453483556
40
1
40
1
40
1
40
1
41
1.02166924057829
10
36.6304829603476
20
-10.5994230366011
30
0
41
1.02166924057829
10
36.6025181202443
20
-10.5994230366011
30
0
41
1.02166924057829
10
36.521029746144
20
-10.5994230366011
30
0
41
1.02166924057829
10
36.3958987039929
20
-10.599423036601
30
0
41
1.02166924057829
10
36.2536837810793
20
-10.5994230366011
30
0
41
1.02166924057829
10
36.173008698435
20
-10.5994230366011
30
0
41
1.02166924057829
10
36.1197953278362
20
-10.5994230366011
30
0
41
1.02166924057829
10
36.1001019769151
20
-10.599423036601
30
0
41
1.02166924057829
10
36.0726113637335
20
-10.599423036601
30
0
41
1.02166924057829
10
35.9976871203487
20
-10.5994230366011
30
0
41
1.02166924057829
10
35.9056201861375
20
-10.5994230366011
30
0
41
1.02166924057829
10
35.8287411960605
20
-10.5994230366011
30
0
41
1.02166924057829
10
35.8107649603499
20
-10.5994230366011
30
0
0
SPLINE
5
1D5
100
AcDbEntity
8
1
62
256
6
ByLayer
370
13
48
1
60
0
100
AcDbSpline
70
4
71
3
72
22
73
18
40
0
40
0
40
0
40
0
40
0.29870209965608
40
0.29870209965608
40
0.393670626081331
40
0.393670626081331
40
0.460670630485623
40
0.460670630485623
40
0.514736103979951
40
0.514736103979951
40
0.568442815189713
40
0.568442815189713
40
0.662542648285732
40
0.662542648285732
40
0.948162779223048
40
0.948162779223048
40
1
40
1
40
1
40
1
41
1
10
38.7528237185025
20
-11.5149402588074
30
0
41
1
10
38.8419293692555
20
-11.4369525963025
30
0
41
1
10
38.9361316772849
20
-11.3504063452278
30
0
41
1
10
39.0431900401125
20
-11.2141997153866
30
0
41
1
10
39.0678625682308
20
-11.1788869458917
30
0
41
1
10
39.1015158097833
20
-11.1133204620137
30
0
41
1
10
39.1130478798159
20
-11.0841241480437
30
0
41
1
10
39.1246257120911
20
-11.0292792347198
30
0
41
1
10
39.1263864751529
20
-11.0035708826646
30
0
41
1
10
39.1221313786764
20
-10.9536272721045
30
0
41
1
10
39.1162091749462
20
-10.9289307890583
30
0
41
1
10
39.0931821174294
20
-10.8650674200841
30
0
41
1
10
39.0711990350886
20
-10.8276476551663
30
0
41
1
10
38.9750568619266
20
-10.6894685277524
30
0
41
1
10
38.8849150861723
20
-10.6042415892048
30
0
41
1
10
38.7839523892537
20
-10.512543421034
30
0
41
1
10
38.7683562737129
20
-10.4986542513427
30
0
41
1
10
38.752823718527
20
-10.4850597412138
30
0
0
SPLINE
5
1D6
100
AcDbEntity
8
1
62
256
6
ByLayer
370
13
48
1
60
0
100
AcDbSpline
70
4
71
3
72
16
73
12
40
0
40
0
40
0
40
0
40
0.0003180357848869
40
0.0003180357848869
40
0.251729887964903
40
0.251729887964903
40
0.50339433347081
40
0.50339433347081
40
0.999681964215131
40
0.999681964215131
40
1
40
1
40
1
40
1
41
1
10
36.6304829603426
20
-10.599423036601
30
0
41
1
10
36.6304995095588
20
-10.5994308527328
30
0
41
1
10
36.6305160586533
20
-10.5994386687269
30
0
41
1
10
36.6436152330391
20
-10.6056249580858
30
0
41
1
10
36.6568468497939
20
-10.6116796442317
30
0
41
1
10
36.6835771699335
20
-10.6235481777803
30
0
41
1
10
36.6970793416627
20
-10.6293631965057
30
0
41
1
10
36.7375333608593
20
-10.6462815222395
30
0
41
1
10
36.7648203203589
20
-10.6570401186553
30
0
41
1
10
36.7924618795183
20
-10.6673453565602
30
0
41
1
10
36.79247958602
20
-10.6673519575425
30
0
41
1
10
36.7924972924749
20
-10.667358558383
30
0
0
SPLINE
5
1D7
100
AcDbEntity
8
1
62
256
6
ByLayer
370
13
48
1
60
0
100
AcDbSpline
70
4
71
3
72
18
73
14
40
0
40
0
40
0
40
0
40
0.0147623169458824
40
0.132429609800254
40
0.310035705020847
40
0.404563166264106
40
0.49084330912356
40
0.509384707266098
40
0.536065817486828
40
0.547235587853459
40
0.607623714695643
40
0.821258035816201
40
1
40
1
40
1
40
1
41
1
10
36.7924972924752
20
-10.6673585583829
30
0
41
1
10
36.7879894571145
20
-10.6673585583829
30
0
41
1
10
36.7472798005847
20
-10.6673585583829
30
0
41
1
10
36.644618099778
20
-10.6673585583829
30
0
41
1
10
36.4956951032901
20
-10.6673585583829
30
0
41
1
10
36.3320643366262
20
-10.6673585583829
30
0
41
1
10
36.2402658505687
20
-10.6673585583829
30
0
41
1
10
36.1800833549737
20
-10.6673585583829
30
0
41
1
10
36.1586341405577
20
-10.6673585583829
30
0
41
1
10
36.1305752330294
20
-10.6673585583829
30
0
41
1
10
36.0559545081916
20
-10.6673585583829
30
0
41
1
10
35.9329490835556
20
-10.667358558383
30
0
41
1
10
35.8239387570543
20
-10.667358558383
30
0
41
1
10
35.7738222924752
20
-10.667358558383
30
0
0
SPLINE
5
1D8
100
AcDbEntity
8
1
62
256
6
ByLayer
370
13
48
1
60
0
100
AcDbSpline
70
4
71
3
72
16
73
12
40
0
40
0
40
0
40
0
40
0.0003180203342997
40
0.0003180203342997
40
0.251566631388001
40
0.251566631388001
40
0.503174270286074
40
0.503174270286074
40
0.999681979668716
40
0.999681979668716
40
1
40
1
40
1
40
1
41
1
10
36.7924972924749
20
-11.3326414416168
30
0
41
1
10
36.79247958602
20
-11.3326480424572
30
0
41
1
10
36.7924618795182
20
-11.3326546434396
30
0
41
1
10
36.7784555263874
20
-11.3378764473313
30
0
41
1
10
36.7645549869886
20
-11.3432091519379
30
0
41
1
10
36.73693675467
20
-11.3541188909
30
0
41
1
10
36.723216935737
20
-11.3596972024141
30
0
41
1
10
36.6827734687442
20
-11.3766376302248
30
0
41
1
10
36.6563614405871
20
-11.3883554466489
30
0
41
1
10
36.6305160586543
20
-11.4005613312732
30
0
41
1
10
36.6304995095591
20
-11.4005691472671
30
0
41
1
10
36.6304829603426
20
-11.4005769633987
30
0
0
SPLINE
5
1D9
100
AcDbEntity
8
1
62
256
6
ByLayer
370
13
48
1
60
0
100
AcDbSpline
70
4
71
3
72
18
73
14
40
0
40
0
40
0
40
0
40
0.0147623169457345
40
0.132429609799123
40
0.310035705018232
40
0.404563166260701
40
0.490843309119434
40
0.509384707261818
40
0.536065817482325
40
0.547235587848862
40
0.607623714690542
40
0.821258035809314
40
1
40
1
40
1
40
1
41
1
10
36.7924972924752
20
-11.3326414416169
30
0
41
1
10
36.7879894571145
20
-11.3326414416169
30
0
41
1
10
36.7472798005847
20
-11.3326414416169
30
0
41
1
10
36.644618099778
20
-11.3326414416169
30
0
41
1
10
36.4956951032901
20
-11.3326414416169
30
0
41
1
10
36.3320643366262
20
-11.3326414416169
30
0
41
1
10
36.2402658505687
20
-11.3326414416169
30
0
41
1
10
36.1800833549737
20
-11.3326414416169
30
0
41
1
10
36.1586341405577
20
-11.3326414416169
30
0
41
1
10
36.1305752330294
20
-11.3326414416169
30
0
41
1
10
36.0559545081916
20
-11.3326414416169
30
0
41
1
10
35.9329490835534
20
-11.3326414416168
30
0
41
1
10
35.8239387570497
20
-11.3326414416168
30
0
41
1
10
35.7738222924682
20
-11.3326414416168
30
0
0
SPLINE
5
1DA
100
AcDbEntity
8
1
62
256
6
ByLayer
370
13
48
1
60
0
100
AcDbSpline
70
4
71
3
72
8
73
4
40
0
40
0
40
0
40
0
40
1
40
1
40
1
40
1
41
1
10
38.6132739541157
20
-10.3639941066531
30
0
41
1
10
38.5848441187078
20
-10.3357950635863
30
0
41
1
10
38.5594573268684
20
-10.3111555409981
30
0
41
1
10
38.5354962551919
20
-10.2916818744101
30
0
0
SPLINE
5
1DB
100
AcDbEntity
8
1
62
256
6
ByLayer
370
13
48
1
60
0
100
AcDbSpline
70
4
71
3
72
8
73
4
40
0
40
0
40
0
40
0
40
1
40
1
40
1
40
1
41
1
10
38.5354962551923
20
-11.7083181255894
30
0
41
1
10
38.5594573268689
20
-11.6888444590015
30
0
41
1
10
38.5848441187079
20
-11.6642049364133
30
0
41
1
10
38.6132739541157
20
-11.6360058933466
30
0
0
SPLINE
5
1DC
100
AcDbEntity
8
1
62
256
6
ByLayer
370
13
48
1
60
0
100
AcDbSpline
70
4
71
3
72
18
73
14
40
0
40
0
40
0
40
0
40
0.00023158089382
40
0.00023158089382
40
0.253623359717151
40
0.253623359717151
40
0.529920957096893
40
0.529920957096893
40
0.795188631627136
40
0.795188631627136
40
0.999768419108964
40
0.999768419108964
40
1
40
1
40
1
40
1
41
1
10
36.9100240060455
20
-11.1318857898184
30
0
41
1
10
36.9100266345093
20
-11.1319052985268
30
0
41
1
10
36.9100292610428
20
-11.1319248071349
30
0
41
1
10
36.9129028077693
20
-11.1532905139973
30
0
41
1
10
36.9128100982842
20
-11.1750098279674
30
0
41
1
10
36.906145671286
20
-11.21794963432
30
0
41
1
10
36.8988781443871
20
-11.2395993383122
30
0
41
1
10
36.8774807999279
20
-11.2767272008537
30
0
41
1
10
36.863233633533
20
-11.292977962734
30
0
41
1
10
36.8330132258612
20
-11.3155162094176
30
0
41
1
10
36.8178470302409
20
-11.3234675746874
30
0
41
1
10
36.8017399278975
20
-11.3292082994537
30
0
41
1
10
36.8017217604415
20
-11.329214770911
30
0
41
1
10
36.8017035929298
20
-11.3292212401835
30
0
0
SPLINE
5
1DD
100
AcDbEntity
8
1
62
256
6
ByLayer
370
13
48
1
60
0
100
AcDbSpline
70
4
71
3
72
18
73
14
40
0
40
0
40
0
40
0
40
0.0002325599132508
40
0.0002325599132508
40
0.255891971717352
40
0.255891971717352
40
0.495789486831356
40
0.495789486831356
40
0.744387685796496
40
0.744387685796496
40
0.999767440083953
40
0.999767440083953
40
1
40
1
40
1
40
1
41
1
10
36.8017035929298
20
-10.6707787598163
30
0
41
1
10
36.8017217604415
20
-10.6707852290888
30
0
41
1
10
36.8017399278975
20
-10.6707917005461
30
0
41
1
10
36.8217278570615
20
-10.6779155889732
30
0
41
1
10
36.8403039926447
20
-10.6885330991039
30
0
41
1
10
36.8700010474332
20
-10.7145091374584
30
0
41
1
10
36.8819619102921
20
-10.7298697239334
30
0
41
1
10
36.9001095834958
20
-10.7642119686373
30
0
41
1
10
36.9063619410124
20
-10.7837648267159
30
0
41
1
10
36.9128079648331
20
-10.8246542455954
30
0
41
1
10
36.9129248724815
20
-10.8465454280567
30
0
41
1
10
36.9100292610428
20
-10.8680751928649
30
0
41
1
10
36.9100266345093
20
-10.868094701473
30
0
41
1
10
36.9100240060455
20
-10.8681142101814
30
0
0
SPLINE
5
1DE
100
AcDbEntity
8
1
62
256
6
ByLayer
370
13
48
1
60
0
100
AcDbSpline
70
4
71
3
72
10
73
6
40
0
40
0
40
0
40
0
40
0.848961873468764
40
0.848961873468764
40
1
40
1
40
1
40
1
41
1
10
41.5256851850748
20
-10.0015893930764
30
0
41
1
10
41.4912977154035
20
-9.94974658993317
30
0
41
1
10
41.4438747427161
20
-9.90629094216803
30
0
41
1
10
41.3838155264513
20
-9.86428536804851
30
0
41
1
10
41.3744787017949
20
-9.858091432409
30
0
41
1
10
41.3650107000386
20
-9.8521118209471
30
0
0
SPLINE
5
1DF
100
AcDbEntity
8
1
62
256
6
ByLayer
370
13
48
1
60
0
100
AcDbSpline
70
4
71
3
72
8
73
4
40
0
40
0
40
0
40
0
40
1
40
1
40
1
40
1
41
1
10
41.3650107000386
20
-9.8521118209471
30
0
41
1
10
41.3210937227594
20
-9.82437561351199
30
0
41
1
10
41.2769798114245
20
-9.79694596555316
30
0
41
1
10
41.232560747957
20
-9.77002247710439
30
0
0
SPLINE
5
1E0
100
AcDbEntity
8
1
62
256
6
ByLayer
370
13
48
1
60
0
100
AcDbSpline
70
4
71
3
72
10
73
6
40
0
40
0
40
0
40
0
40
0.657586553479241
40
0.657586553479241
40
1
40
1
40
1
40
1
41
1
10
41.232560747957
20
-9.77002247710439
30
0
41
1
10
41.2092305437703
20
-9.75588146570314
30
0
41
1
10
41.1864384919004
20
-9.74055804614341
30
0
41
1
10
41.1548281900599
20
-9.71364924559765
30
0
41
1
10
41.1444660370969
20
-9.70371980607615
30
0
41
1
10
41.1355155637421
20
-9.69264952930612
30
0
0
SPLINE
5
1E1
100
AcDbEntity
8
1
62
256
6
ByLayer
370
13
48
1
60
0
100
AcDbSpline
70
4
71
3
72
10
73
6
40
0
40
0
40
0
40
0
40
0.657586553479241
40
0.657586553479241
40
1
40
1
40
1
40
1
41
1
10
41.232560747957
20
-12.2299775228954
30
0
41
1
10
41.2092305437703
20
-12.2441185342966
30
0
41
1
10
41.1864384919004
20
-12.2594419538564
30
0
41
1
10
41.1548281900599
20
-12.2863507544022
30
0
41
1
10
41.1444660370969
20
-12.2962801939236
30
0
41
1
10
41.1355155637421
20
-12.3073504706937
30
0
0
SPLINE
5
1E2
100
AcDbEntity
8
1
62
256
6
ByLayer
370
13
48
1
60
0
100
AcDbSpline
70
4
71
3
72
8
73
4
40
0
40
0
40
0
40
0
40
1
40
1
40
1
40
1
41
1
10
41.3650107000386
20
-12.1478881790527
30
0
41
1
10
41.3210937227594
20
-12.1756243864878
30
0
41
1
10
41.2769798114245
20
-12.2030540344466
30
0
41
1
10
41.232560747957
20
-12.2299775228954
30
0
0
SPLINE
5
1E3
100
AcDbEntity
8
1
62
256
6
ByLayer
370
13
48
1
60
0
100
AcDbSpline
70
4
71
3
72
10
73
6
40
0
40
0
40
0
40
0
40
0.848961873468764
40
0.848961873468764
40
1
40
1
40
1
40
1
41
1
10
41.5256851850748
20
-11.9984106069234
30
0
41
1
10
41.4912977154035
20
-12.0502534100666
30
0
41
1
10
41.4438747427161
20
-12.0937090578318
30
0
41
1
10
41.3838155264513
20
-12.1357146319513
30
0
41
1
10
41.3744787017949
20
-12.1419085675908
30
0
41
1
10
41.3650107000386
20
-12.1478881790527
30
0
0
SPLINE
5
1E4
100
AcDbEntity
8
1
62
256
6
ByLayer
370
13
48
1
60
0
100
AcDbSpline
70
4
71
3
72
18
73
14
40
0
40
0
40
0
40
0
40
0.0127522791561751
40
0.121124696796829
40
0.284701179775776
40
0.371761647131336
40
0.451226275315077
40
0.468303035512421
40
0.492876528705095
40
0.503163967038709
40
0.558781863430509
40
0.755540599942857
40
1
40
1
40
1
40
1
41
1
10
36.9100240060455
20
-10.8681142101814
30
0
41
1
10
36.9053269002981
20
-10.8681142101814
30
0
41
1
10
36.8604415120433
20
-10.8681142101814
30
0
41
1
10
36.7469736785094
20
-10.8681142101814
30
0
41
1
10
36.5821864796328
20
-10.8681142101814
30
0
41
1
10
36.3999950653449
20
-10.8681142101814
30
0
41
1
10
36.2985561666313
20
-10.8681142101814
30
0
41
1
10
36.2323336814468
20
-10.8681142101814
30
0
41
1
10
36.2093626981953
20
-10.8681142101814
30
0
41
1
10
36.1808112622735
20
-10.8681142101814
30
0
41
1
10
36.1064535903822
20
-10.8681142101814
30
0
41
1
10
35.9598856588545
20
-10.8681142101814
30
0
41
1
10
35.8261354777782
20
-10.8681142101814
30
0
41
1
10
35.7510660060544
20
-10.8681142101814
30
0
0
SPLINE
5
1E5
100
AcDbEntity
8
1
62
256
6
ByLayer
370
13
48
1
60
0
100
AcDbSpline
70
4
71
3
72
18
73
14
40
0
40
0
40
0
40
0
40
0.0164366124740256
40
0.133179670182015
40
0.309390732072336
40
0.403175713397343
40
0.488778156119985
40
0.507173918109854
40
0.533645457606109
40
0.544727493360176
40
0.604641292732953
40
0.816597591496884
40
1
40
1
40
1
40
1
41
1.02166924057829
10
36.8017035929298
20
-10.6707787598163
30
0
41
1.02166924057829
10
36.7966174631243
20
-10.6707787598163
30
0
41
1.02166924057829
10
36.7551085949151
20
-10.6707787598163
30
0
41
1.02166924057829
10
36.651135754098
20
-10.6707787598162
30
0
41
1.02166924057829
10
36.5012025792836
20
-10.6707787598162
30
0
41
1.02166924057829
10
36.3363899338529
20
-10.6707787598162
30
0
41
1.02166924057829
10
36.2439775791819
20
-10.6707787598163
30
0
41
1.02166924057829
10
36.1834104776404
20
-10.6707787598163
30
0
41
1.02166924057829
10
36.1618643621727
20
-10.6707787598163
30
0
41
1.02166924057829
10
36.1337740921154
20
-10.6707787598163
30
0
41
1.02166924057829
10
36.0591701175925
20
-10.6707787598163
30
0
41
1.02166924057829
10
35.9345034206947
20
-10.6707787598162
30
0
41
1.02166924057829
10
35.8237563950372
20
-10.6707787598162
30
0
41
1.02166924057829
10
35.7718935929332
20
-10.6707787598162
30
0
0
SPLINE
5
1E6
100
AcDbEntity
8
1
62
256
6
ByLayer
370
13
48
1
60
0
100
AcDbSpline
70
4
71
3
72
18
73
14
40
0
40
0
40
0
40
0
40
0.016436612474048
40
0.133179670181953
40
0.309390732072146
40
0.403175713397086
40
0.488778156119666
40
0.507173918109521
40
0.533645457605757
40
0.544727493359817
40
0.604641292732549
40
0.816597591496327
40
1
40
1
40
1
40
1
41
1.02166924057829
10
36.8017035929298
20
-11.3292212401835
30
0
41
1.02166924057829
10
36.7966174631243
20
-11.3292212401835
30
0
41
1.02166924057829
10
36.7551085949151
20
-11.3292212401835
30
0
41
1.02166924057829
10
36.651135754098
20
-11.3292212401835
30
0
41
1.02166924057829
10
36.5012025792836
20
-11.3292212401835
30
0
41
1.02166924057829
10
36.3363899338529
20
-11.3292212401835
30
0
41
1.02166924057829
10
36.2439775791819
20
-11.3292212401835
30
0
41
1.02166924057829
10
36.1834104776404
20
-11.3292212401835
30
0
41
1.02166924057829
10
36.1618643621727
20
-11.3292212401835
30
0
41
1.02166924057829
10
36.1337740921154
20
-11.3292212401835
30
0
41
1.02166924057829
10
36.0591701175925
20
-11.3292212401835
30
0
41
1.02166924057829
10
35.9345034206945
20
-11.3292212401835
30
0
41
1.02166924057829
10
35.8237563950368
20
-11.3292212401835
30
0
41
1.02166924057829
10
35.7718935929326
20
-11.3292212401835
30
0
0
SPLINE
5
1E7
100
AcDbEntity
8
1
62
256
6
ByLayer
370
13
48
1
60
0
100
AcDbSpline
70
4
71
3
72
18
73
14
40
0
40
0
40
0
40
0
40
0.0127522791561751
40
0.121124696796829
40
0.284701179775776
40
0.371761647131336
40
0.451226275315077
40
0.468303035512421
40
0.492876528705095
40
0.503163967038709
40
0.558781863430509
40
0.755540599942857
40
1
40
1
40
1
40
1
41
1
10
36.9100240060455
20
-11.1318857898184
30
0
41
1
10
36.9053269002981
20
-11.1318857898184
30
0
41
1
10
36.8604415120433
20
-11.1318857898184
30
0
41
1
10
36.7469736785094
20
-11.1318857898184
30
0
41
1
10
36.5821864796328
20
-11.1318857898184
30
0
41
1
10
36.3999950653449
20
-11.1318857898184
30
0
41
1
10
36.2985561666313
20
-11.1318857898184
30
0
41
1
10
36.2323336814468
20
-11.1318857898184
30
0
41
1
10
36.2093626981953
20
-11.1318857898184
30
0
41
1
10
36.1808112622735
20
-11.1318857898184
30
0
41
1
10
36.1064535903822
20
-11.1318857898184
30
0
41
1
10
35.9598856588545
20
-11.1318857898184
30
0
41
1
10
35.8261354777782
20
-11.1318857898184
30
0
41
1
10
35.7510660060544
20
-11.1318857898184
30
0
0
SPLINE
5
1E8
100
AcDbEntity
8
1
62
256
6
ByLayer
370
13
48
1
60
0
100
AcDbSpline
70
4
71
3
72
16
73
12
40
0
40
0
40
0
40
0
40
0.0057828244240233
40
0.0057828244240233
40
0.500000493987984
40
0.500000493987984
40
0.750000398281966
40
0.750000398281966
40
0.994217175588821
40
0.994217175588821
40
1
40
1
40
1
40
1
41
1
10
36.8017035929295
20
-11.3292212401834
30
0
41
1
10
36.8016858395656
20
-11.3292278328906
30
0
41
1
10
36.8016680861537
20
-11.3292344255762
30
0
41
1
10
36.800133079949
20
-11.3298044501261
30
0
41
1
10
36.7986161325266
20
-11.3303678867315
30
0
41
1
10
36.796332301323
20
-11.3312163446659
30
0
41
1
10
36.7955651882595
20
-11.3315013625601
30
0
41
1
10
36.7940488637028
20
-11.3320648075589
30
0
41
1
10
36.7932996485426
20
-11.3323432346272
30
0
41
1
10
36.7925327701838
20
-11.3326282557771
30
0
41
1
10
36.7925150313536
20
-11.3326348487079
30
0
41
1
10
36.7924972924749
20
-11.3326414416168
30
0
0
SPLINE
5
1E9
100
AcDbEntity
8
1
62
256
6
ByLayer
370
13
48
1
60
0
100
AcDbSpline
70
4
71
3
72
16
73
12
40
0
40
0
40
0
40
0
40
0.0057828239042467
40
0.0057828239042467
40
0.249999260186564
40
0.249999260186564
40
0.624999089284546
40
0.624999089284546
40
0.99421717603004
40
0.99421717603004
40
1
40
1
40
1
40
1
41
1
10
36.7924972924749
20
-10.667358558383
30
0
41
1
10
36.7925150313537
20
-10.6673651512919
30
0
41
1
10
36.7925327701839
20
-10.6673717442227
30
0
41
1
10
36.7932996474865
20
-10.6676567649801
30
0
41
1
10
36.7940488615902
20
-10.6679351916557
30
0
41
1
10
36.7959487019352
20
-10.668641145758
30
0
41
1
10
36.7970994307142
20
-10.6690686716477
30
0
41
1
10
36.7993834972574
20
-10.6699171263815
30
0
41
1
10
36.8005168297864
20
-10.6703380553748
30
0
41
1
10
36.8016680861533
20
-10.6707655744235
30
0
41
1
10
36.8016858395654
20
-10.6707721671091
30
0
41
1
10
36.8017035929295
20
-10.6707787598164
30
0
0
SPLINE
5
1EA
100
AcDbEntity
8
1
62
256
6
ByLayer
370
13
48
1
60
0
100
AcDbSpline
70
4
71
3
72
16
73
12
40
0
40
0
40
0
40
0
40
0.0355702320994276
40
0.0355702320994276
40
0.0905081710166269
40
0.0905081710166269
40
0.198049233530912
40
0.198049233530912
40
0.436780146594186
40
0.436780146594186
40
1
40
1
40
1
40
1
41
1
10
41.0647600217563
20
-9.64003310460029
30
0
41
1
10
41.0651586810189
20
-9.64099988056296
30
0
41
1
10
41.0655584542086
20
-9.64196621905478
30
0
41
1
10
41.0665771815566
20
-9.64442828523252
30
0
41
1
10
41.0671970808022
20
-9.64592363124629
30
0
41
1
10
41.0690334070428
20
-9.6503439392323
30
0
41
1
10
41.0702528942054
20
-9.65326734393179
30
0
41
1
10
41.0741930527675
20
-9.6626653015939
30
0
41
1
10
41.0769343827305
20
-9.66912708045245
30
0
41
1
10
41.0861946238308
20
-9.69069570413097
30
0
41
1
10
41.0928248586496
20
-9.70570275873587
30
0
41
1
10
41.0995116901683
20
-9.72035718036935
30
0
0
SPLINE
5
1EB
100
AcDbEntity
8
1
62
256
6
ByLayer
370
13
48
1
60
0
100
AcDbSpline
70
4
71
3
72
10
73
6
40
0
40
0
40
0
40
0
40
0.638823417468494
40
0.638823417468494
40
1
40
1
40
1
40
1
41
1
10
41.1900286630426
20
-9.83133117385117
30
0
41
1
10
41.1668419908651
20
-9.81164448226122
30
0
41
1
10
41.1449724664756
20
-9.78985285248808
30
0
41
1
10
41.1161775948407
20
-9.75133526719716
30
0
41
1
10
41.1068123576005
20
-9.73635684455184
30
0
41
1
10
41.0995116901683
20
-9.72035718036938
30
0
0
SPLINE
5
1EC
100
AcDbEntity
8
1
62
256
6
ByLayer
370
13
48
1
60
0
100
AcDbSpline
70
4
71
3
72
8
73
4
40
0
40
0
40
0
40
0
40
1
40
1
40
1
40
1
41
1
10
41.0647600217523
20
-9.64003310459839
30
0
41
1
10
40.9478492133728
20
-9.60928154931077
30
0
41
1
10
40.8265101800572
20
-9.59429785338401
30
0
41
1
10
40.7060768987952
20
-9.5914863420544
30
0
0
SPLINE
5
1ED
100
AcDbEntity
8
1
62
256
6
ByLayer
370
13
48
1
60
0
100
AcDbSpline
70
4
71
3
72
10
73
6
40
0
40
0
40
0
40
0
40
0.638823417468494
40
0.638823417468494
40
1
40
1
40
1
40
1
41
1
10
41.1900286630426
20
-12.1686688261486
30
0
41
1
10
41.1668419908651
20
-12.1883555177386
30
0
41
1
10
41.1449724664756
20
-12.2101471475117
30
0
41
1
10
41.1161775948407
20
-12.2486647328026
30
0
41
1
10
41.1068123576005
20
-12.2636431554479
30
0
41
1
10
41.0995116901683
20
-12.2796428196304
30
0
0
SPLINE
5
1EE
100
AcDbEntity
8
1
62
256
6
ByLayer
370
13
48
1
60
0
100
AcDbSpline
70
4
71
3
72
16
73
12
40
0
40
0
40
0
40
0
40
0.0355702320994276
40
0.0355702320994276
40
0.0905081710166269
40
0.0905081710166269
40
0.198049233530912
40
0.198049233530912
40
0.436780146594186
40
0.436780146594186
40
1
40
1
40
1
40
1
41
1
10
41.0647600217563
20
-12.3599668953995
30
0
41
1
10
41.0651586810189
20
-12.3590001194368
30
0
41
1
10
41.0655584542086
20
-12.358033780945
30
0
41
1
10
41.0665771815566
20
-12.3555717147673
30
0
41
1
10
41.0671970808022
20
-12.3540763687535
30
0
41
1
10
41.0690334070428
20
-12.3496560607675
30
0
41
1
10
41.0702528942054
20
-12.346732656068
30
0
41
1
10
41.0741930527675
20
-12.3373346984059
30
0
41
1
10
41.0769343827305
20
-12.3308729195473
30
0
41
1
10
41.0861946238308
20
-12.3093042958688
30
0
41
1
10
41.0928248586496
20
-12.2942972412639
30
0
41
1
10
41.0995116901683
20
-12.2796428196304
30
0
0
SPLINE
5
1EF
100
AcDbEntity
8
1
62
256
6
ByLayer
370
13
48
1
60
0
100
AcDbSpline
70
4
71
3
72
8
73
4
40
0
40
0
40
0
40
0
40
1
40
1
40
1
40
1
41
1
10
41.0647600217523
20
-12.3599668954014
30
0
41
1
10
40.9478492133728
20
-12.390718450689
30
0
41
1
10
40.8265101800572
20
-12.4057021466158
30
0
41
1
10
40.7060768987952
20
-12.4085136579454
30
0
0
SPLINE
5
1F0
100
AcDbEntity
8
1
62
256
6
ByLayer
370
13
48
1
60
0
100
AcDbSpline
70
4
71
3
72
8
73
4
40
0
40
0
40
0
40
0
40
1
40
1
40
1
40
1
41
1
10
40.3587805434613
20
-9.58794591280446
30
0
41
1
10
40.1912677337034
20
-9.58218661779756
30
0
41
1
10
40.0213169004327
20
-9.60031630846311
30
0
41
1
10
39.8587805434613
20
-9.6411531956112
30
0
0
SPLINE
5
1F1
100
AcDbEntity
8
1
62
256
6
ByLayer
370
13
48
1
60
0
100
AcDbSpline
70
4
71
3
72
16
73
12
40
0
40
0
40
0
40
0
40
0.0355303527441879
40
0.0355303527441879
40
0.0917680599187698
40
0.0917680599187698
40
0.200182520092124
40
0.200182520092124
40
0.439533504712099
40
0.439533504712099
40
1
40
1
40
1
40
1
41
1
10
41.0647600217524
20
-9.64003310459839
30
0
41
1
10
41.0655855998636
20
-9.64066683218033
30
0
41
1
10
41.0664120929672
20
-9.64130006619735
30
0
41
1
10
41.0685507889318
20
-9.64293798573084
30
0
41
1
10
41.0698640688782
20
-9.64394229950091
30
0
41
1
10
41.0737129338246
20
-9.64688116308642
30
0
41
1
10
41.0762525536656
20
-9.64881462177868
30
0
41
1
10
41.0844114693383
20
-9.65500587889633
30
0
41
1
10
41.0900517136002
20
-9.65925419967294
30
0
41
1
10
41.1089188273347
20
-9.67335066844285
30
0
41
1
10
41.1222466489563
20
-9.68312340125027
30
0
41
1
10
41.1355155637421
20
-9.69264952930612
30
0
0
SPLINE
5
1F2
100
AcDbEntity
8
1
62
256
6
ByLayer
370
13
48
1
60
0
100
AcDbSpline
70
4
71
3
72
8
73
4
40
0
40
0
40
0
40
0
40
1
40
1
40
1
40
1
41
1
10
40.3587805434613
20
-12.4120540871953
30
0
41
1
10
40.1912677337034
20
-12.4178133822022
30
0
41
1
10
40.0213169004327
20
-12.3996836915367
30
0
41
1
10
39.8587805434613
20
-12.3588468043886
30
0
0
SPLINE
5
1F3
100
AcDbEntity
8
1
62
256
6
ByLayer
370
13
48
1
60
0
100
AcDbSpline
70
4
71
3
72
16
73
12
40
0
40
0
40
0
40
0
40
0.0355303527441879
40
0.0355303527441879
40
0.0917680599187698
40
0.0917680599187698
40
0.200182520092124
40
0.200182520092124
40
0.4395335047121
40
0.4395335047121
40
1
40
1
40
1
40
1
41
1
10
41.0647600217524
20
-12.3599668954014
30
0
41
1
10
41.0655855998636
20
-12.3593331678194
30
0
41
1
10
41.0664120929672
20
-12.3586999338025
30
0
41
1
10
41.0685507889318
20
-12.3570620142689
30
0
41
1
10
41.0698640688782
20
-12.3560577004989
30
0
41
1
10
41.0737129338246
20
-12.3531188369134
30
0
41
1
10
41.0762525536656
20
-12.3511853782211
30
0
41
1
10
41.0844114693383
20
-12.3449941211034
30
0
41
1
10
41.0900517136002
20
-12.3407458003268
30
0
41
1
10
41.1089188273347
20
-12.3266493315569
30
0
41
1
10
41.1222466489563
20
-12.3168765987495
30
0
41
1
10
41.1355155637421
20
-12.3073504706937
30
0
0
SPLINE
5
1F4
100
AcDbEntity
8
1
62
256
6
ByLayer
370
13
48
1
60
0
100
AcDbSpline
70
4
71
3
72
8
73
4
40
0
40
0
40
0
40
0
40
1
40
1
40
1
40
1
41
1
10
40.7060768987952
20
-12.4085136579454
30
0
41
1
10
40.5916360304015
20
-12.4113370311762
30
0
41
1
10
40.4749005955277
20
-12.4075838230837
30
0
41
1
10
40.3587805434613
20
-12.4120540871953
30
0
0
SPLINE
5
1F5
100
AcDbEntity
8
1
62
256
6
ByLayer
370
13
48
1
60
0
100
AcDbSpline
70
4
71
3
72
8
73
4
40
0
40
0
40
0
40
0
40
1
40
1
40
1
40
1
41
1
10
40.7060768987952
20
-9.5914863420544
30
0
41
1
10
40.5916360304015
20
-9.58866296882354
30
0
41
1
10
40.4749005955277
20
-9.59241617691603
30
0
41
1
10
40.3587805434613
20
-9.58794591280446
30
0
0
SPLINE
5
1F6
100
AcDbEntity
8
1
62
256
6
ByLayer
370
13
48
1
60
0
100
AcDbSpline
70
4
71
3
72
10
73
6
40
0
40
0
40
0
40
0
40
0.155061591761412
40
0.155061591761412
40
1
40
1
40
1
40
1
41
1
10
41.3213895076228
20
-9.91265636314907
30
0
41
1
10
41.3304066184319
20
-9.91746220820477
30
0
41
1
10
41.3393274149503
20
-9.9224531705166
30
0
41
1
10
41.3954797246053
20
-9.9555743639142
30
0
41
1
10
41.4409287471059
20
-9.98983720088623
30
0
41
1
10
41.4749811562302
20
-10.0329422292473
30
0
0
SPLINE
5
1F7
100
AcDbEntity
8
1
62
256
6
ByLayer
370
13
48
1
60
0
100
AcDbSpline
70
4
71
3
72
16
73
12
40
0
40
0
40
0
40
0
40
0.0004523985411366
40
0.0004523985411366
40
0.257549970995908
40
0.257549970995908
40
0.515211450419599
40
0.515211450419599
40
0.999547601459687
40
0.999547601459687
40
1
40
1
40
1
40
1
41
1
10
36.9100240060455
20
-10.8681142101814
30
0
41
1
10
36.910021864881
20
-10.8681338855378
30
0
41
1
10
36.910019723233
20
-10.8681535607495
30
0
41
1
10
36.9088010179857
20
-10.8793548008854
30
0
41
1
10
36.9077336238965
20
-10.8905860696142
30
0
41
1
10
36.9059057653385
20
-10.9131377512557
30
0
41
1
10
36.905145500161
20
-10.9244643360053
30
0
41
1
10
36.903413479595
20
-10.9571255627714
30
0
41
1
10
36.9028425855878
20
-10.978542988086
30
0
41
1
10
36.9028415235943
20
-10.99996
30
0
41
1
10
36.9028415235928
20
-10.99998
30
0
41
1
10
36.9028415230964
20
-10.9999999999999
30
0
0
SPLINE
5
1F8
100
AcDbEntity
8
1
62
256
6
ByLayer
370
13
48
1
60
0
100
AcDbSpline
70
4
71
3
72
16
73
12
40
0
40
0
40
0
40
0
40
0.0004524024963632
40
0.0004524024963632
40
0.257769385461147
40
0.257769385461147
40
0.515499162994264
40
0.515499162994264
40
0.999547597506527
40
0.999547597506527
40
1
40
1
40
1
40
1
41
1
10
36.9028415230964
20
-10.9999999999999
30
0
41
1
10
36.9028415235924
20
-11.0000199999998
30
0
41
1
10
36.902841523593
20
-11.0000399999998
30
0
41
1
10
36.9028420886592
20
-11.011435577434
30
0
41
1
10
36.903003252671
20
-11.0228142337223
30
0
41
1
10
36.9036456179239
20
-11.045558680442
30
0
41
1
10
36.9041275042309
20
-11.0569306234703
30
0
41
1
10
36.9059682233651
20
-11.0895657919346
30
0
41
1
10
36.907728672899
20
-11.1107891696356
30
0
41
1
10
36.9100197232347
20
-11.13184643925
30
0
41
1
10
36.9100218648816
20
-11.131866114462
30
0
41
1
10
36.9100240060455
20
-11.1318857898184
30
0
0
SPLINE
5
1F9
100
AcDbEntity
8
1
62
256
6
ByLayer
370
13
48
1
60
0
100
AcDbSpline
70
4
71
3
72
10
73
6
40
0
40
0
40
0
40
0
40
0.596085739020482
40
0.596085739020482
40
1
40
1
40
1
40
1
41
1
10
41.4964383490931
20
-11.9392516502748
30
0
41
1
10
41.5128939358857
20
-11.9174761819977
30
0
41
1
10
41.5267245821228
20
-11.8930477604038
30
0
41
1
10
41.5408118743801
20
-11.8493753797689
30
0
41
1
10
41.5440383812061
20
-11.8306258450722
30
0
41
1
10
41.5441651422481
20
-11.8120344784733
30
0
0
SPLINE
5
1FA
100
AcDbEntity
8
1
62
256
6
ByLayer
370
13
48
1
60
0
100
AcDbSpline
70
4
71
3
72
8
73
4
40
0
40
0
40
0
40
0
40
1
40
1
40
1
40
1
41
1
10
41.4749811562302
20
-11.9670577707526
30
0
41
1
10
41.4822263780106
20
-11.9578864522363
30
0
41
1
10
41.4893737130964
20
-11.9486001930509
30
0
41
1
10
41.4964383490931
20
-11.9392516502748
30
0
0
SPLINE
5
1FB
100
AcDbEntity
8
1
62
256
6
ByLayer
370
13
48
1
60
0
100
AcDbSpline
70
4
71
3
72
8
73
4
40
0
40
0
40
0
40
0
40
1
40
1
40
1
40
1
41
1
10
41.4749811562302
20
-10.0329422292473
30
0
41
1
10
41.4822263780106
20
-10.0421135477635
30
0
41
1
10
41.4893737130964
20
-10.0513998069489
30
0
41
1
10
41.4964383490931
20
-10.060748349725
30
0
0
SPLINE
5
1FC
100
AcDbEntity
8
1
62
256
6
ByLayer
370
13
48
1
60
0
100
AcDbSpline
70
4
71
3
72
10
73
6
40
0
40
0
40
0
40
0
40
0.596085739020482
40
0.596085739020482
40
1
40
1
40
1
40
1
41
1
10
41.4964383490931
20
-10.060748349725
30
0
41
1
10
41.5128939358857
20
-10.0825238180021
30
0
41
1
10
41.5267245821228
20
-10.106952239596
30
0
41
1
10
41.5408118743801
20
-10.1506246202309
30
0
41
1
10
41.5440383812061
20
-10.1693741549275
30
0
41
1
10
41.5441651422481
20
-10.1879655215265
30
0
0
SPLINE
5
1FD
100
AcDbEntity
8
1
62
256
6
ByLayer
370
13
48
1
60
0
100
AcDbSpline
70
4
71
3
72
12
73
8
40
0
40
0
40
0
40
0
40
0.0075770979408485
40
0.0075770979408485
40
0.524912447401224
40
0.524912447401224
40
1
40
1
40
1
40
1
41
1
10
41.0213727254145
20
-10.1772795177638
30
0
41
1
10
41.0226938848632
20
-10.1772305042838
30
0
41
1
10
41.0240151186689
20
-10.177183835413
30
0
41
1
10
41.1154638182291
20
-10.1741173471658
30
0
41
1
10
41.2056735270382
20
-10.1788814005796
30
0
41
1
10
41.3786115881782
20
-10.1829377292973
30
0
41
1
10
41.4613940232688
20
-10.1852575903152
30
0
41
1
10
41.5441651422334
20
-10.1879655215312
30
0
0
SPLINE
5
1FE
100
AcDbEntity
8
1
62
256
6
ByLayer
370
13
48
1
60
0
100
AcDbSpline
70
4
71
3
72
12
73
8
40
0
40
0
40
0
40
0
40
0.0075770979408485
40
0.0075770979408485
40
0.524912447401224
40
0.524912447401224
40
1
40
1
40
1
40
1
41
1
10
41.0213727254145
20
-11.822720482236
30
0
41
1
10
41.0226938848632
20
-11.822769495716
30
0
41
1
10
41.0240151186689
20
-11.8228161645868
30
0
41
1
10
41.1154638182291
20
-11.8258826528339
30
0
41
1
10
41.2056735270382
20
-11.8211185994202
30
0
41
1
10
41.3786115881782
20
-11.8170622707025
30
0
41
1
10
41.4613940232688
20
-11.8147424096846
30
0
41
1
10
41.5441651422334
20
-11.8120344784686
30
0
0
SPLINE
5
1FF
100
AcDbEntity
8
1
62
256
6
ByLayer
370
13
48
1
60
0
100
AcDbSpline
70
4
71
3
72
16
73
12
40
0
40
0
40
0
40
0
40
0.113631665737396
40
0.113631665737396
40
0.758132216188138
40
0.758132216188138
40
0.942823120098959
40
0.942823120098959
40
0.947778003019264
40
0.947778003019264
40
1
40
1
40
1
40
1
41
1
10
39.8112677608008
20
-10.250514065676
30
0
41
1
10
39.8332807942053
20
-10.2435099968151
30
0
41
1
10
39.855408813319
20
-10.2368573490436
30
0
41
1
10
40.002669794017
20
-10.1951695709072
30
0
41
1
10
40.1333481685157
20
-10.1724271814377
30
0
41
1
10
40.3009734748333
20
-10.1739117142031
30
0
41
1
10
40.3386296238166
20
-10.1757179496403
30
0
41
1
10
40.37730048355
20
-10.1770961044077
30
0
41
1
10
40.3783108496888
20
-10.1771321217412
30
0
41
1
10
40.3899699703881
20
-10.1775477649479
30
0
41
1
10
40.4006188219401
20
-10.1779246783139
30
0
41
1
10
40.4112677608008
20
-10.1782990987159
30
0
0
SPLINE
5
200
100
AcDbEntity
8
1
62
256
6
ByLayer
370
13
48
1
60
0
100
AcDbSpline
70
4
71
3
72
16
73
12
40
0
40
0
40
0
40
0
40
0.113631665737396
40
0.113631665737396
40
0.758132216188138
40
0.758132216188138
40
0.942823120098959
40
0.942823120098959
40
0.947778003019264
40
0.947778003019264
40
1
40
1
40
1
40
1
41
1
10
39.8112677608008
20
-11.7494859343237
30
0
41
1
10
39.8332807942053
20
-11.7564900031847
30
0
41
1
10
39.855408813319
20
-11.7631426509561
30
0
41
1
10
40.002669794017
20
-11.8048304290926
30
0
41
1
10
40.1333481685157
20
-11.827572818562
30
0
41
1
10
40.3009734748333
20
-11.8260882857967
30
0
41
1
10
40.3386296238166
20
-11.8242820503595
30
0
41
1
10
40.37730048355
20
-11.8229038955921
30
0
41
1
10
40.3783108496888
20
-11.8228678782586
30
0
41
1
10
40.3899699703881
20
-11.8224522350519
30
0
41
1
10
40.4006188219401
20
-11.8220753216859
30
0
41
1
10
40.4112677608008
20
-11.8217009012839
30
0
0
SPLINE
5
201
100
AcDbEntity
8
1
62
256
6
ByLayer
370
13
48
1
60
0
100
AcDbSpline
70
4
71
3
72
10
73
6
40
0
40
0
40
0
40
0
40
0.41187861913105
40
0.41187861913105
40
1
40
1
40
1
40
1
41
1
10
41.5970257408784
20
-11.8120344784687
30
0
41
1
10
41.5970257408783
20
-11.8351429843726
30
0
41
1
10
41.5938567437525
20
-11.8584250023017
30
0
41
1
10
41.5795589487909
20
-11.9124924134573
30
0
41
1
10
41.5654981180154
20
-11.9429711288688
30
0
41
1
10
41.5480487400854
20
-11.970714998298
30
0
0
SPLINE
5
202
100
AcDbEntity
8
1
62
256
6
ByLayer
370
13
48
1
60
0
100
AcDbSpline
70
4
71
3
72
10
73
6
40
0
40
0
40
0
40
0
40
0.41187861913105
40
0.41187861913105
40
1
40
1
40
1
40
1
41
1
10
41.5970257408784
20
-10.187965521531
30
0
41
1
10
41.5970257408783
20
-10.1648570156272
30
0
41
1
10
41.5938567437525
20
-10.1415749976981
30
0
41
1
10
41.5795589487909
20
-10.0875075865425
30
0
41
1
10
41.5654981180154
20
-10.057028871131
30
0
41
1
10
41.5480487400854
20
-10.0292850017018
30
0
0
SPLINE
5
203
100
AcDbEntity
8
1
62
256
6
ByLayer
370
13
48
1
60
0
100
AcDbSpline
70
4
71
3
72
8
73
4
40
0
40
0
40
0
40
0
40
1
40
1
40
1
40
1
41
1
10
41.5480487400851
20
-10.0292850017019
30
0
41
1
10
41.5406964490065
20
-10.0199331036797
30
0
41
1
10
41.5332455329699
20
-10.010684625697
30
0
41
1
10
41.5256851850748
20
-10.0015893930764
30
0
0
SPLINE
5
204
100
AcDbEntity
8
1
62
256
6
ByLayer
370
13
48
1
60
0
100
AcDbSpline
70
4
71
3
72
8
73
4
40
0
40
0
40
0
40
0
40
1
40
1
40
1
40
1
41
1
10
41.5480487400851
20
-11.9707149982979
30
0
41
1
10
41.5406964490065
20
-11.9800668963201
30
0
41
1
10
41.5332455329699
20
-11.9893153743028
30
0
41
1
10
41.5256851850748
20
-11.9984106069234
30
0
0
SPLINE
5
205
100
AcDbEntity
8
1
62
256
6
ByLayer
370
18
48
1
60
0
100
AcDbSpline
70
4
71
3
72
10
73
6
40
0
40
0
40
0
40
0
40
0.21277933248606
40
0.21277933248606
40
1
40
1
40
1
40
1
41
1
10
29.7869028690683
20
-12.677841463352
30
0
41
1
10
29.7947459125518
20
-12.6810442374217
30
0
41
1
10
29.8026693586332
20
-12.6838945474544
30
0
41
1
10
29.8401025194282
20
-12.6955777253526
30
0
41
1
10
29.8706763772596
20
-12.6999999999999
30
0
41
1
10
29.9000000000001
20
-12.6999999999999
30
0
0
SPLINE
5
206
100
AcDbEntity
8
1
62
256
6
ByLayer
370
18
48
1
60
0
100
AcDbSpline
70
4
71
3
72
10
73
6
40
0
40
0
40
0
40
0
40
0.826582342135123
40
0.826582342135123
40
1
40
1
40
1
40
1
41
1
10
29.9000000000001
20
-9.2999999999999
30
0
41
1
10
29.8690427640991
20
-9.2999999999999
30
0
41
1
10
29.8366601047691
20
-9.30494677236737
30
0
41
1
10
29.7991341599143
20
-9.31738194656242
30
0
41
1
10
29.7926581551495
20
-9.31978481509694
30
0
41
1
10
29.7862348207102
20
-9.32242685512014
30
0
0
SPLINE
5
207
100
AcDbEntity
8
1
62
256
6
ByLayer
370
18
48
1
60
0
100
AcDbSpline
70
4
71
3
72
18
73
14
40
0
40
0
40
0
40
0
40
0.003697916850819
40
0.003697916850819
40
0.239927141126698
40
0.239927141126698
40
0.476737351639852
40
0.476737351639852
40
0.703614755365924
40
0.703614755365924
40
0.913702960667461
40
0.913702960667461
40
1
40
1
40
1
40
1
41
1
10
12.8026316928587
20
-9.32499999999965
30
0
41
1
10
12.7996632953498
20
-9.32499999999965
30
0
41
1
10
12.7966949148431
20
-9.32499173943091
30
0
41
1
10
12.6041010515535
20
-9.32391979800235
30
0
41
1
10
12.4118681241295
20
-9.28832520566391
30
0
41
1
10
12.0536800905217
20
-9.1518335522866
30
0
41
1
10
11.8825688119425
20
-9.04864208603965
30
0
41
1
10
11.5960262586514
20
-8.79245610011174
30
0
41
1
10
11.4744031123271
20
-8.63769977650665
30
0
41
1
10
11.3020621187194
20
-8.30832798120682
30
0
41
1
10
11.2444317930785
20
-8.13115992221634
30
0
41
1
10
11.2080402663623
20
-7.87663056469904
30
0
41
1
10
11.2026316928583
20
-7.80070642732429
30
0
41
1
10
11.2026316928583
20
-7.72499999999965
30
0
0
SPLINE
5
208
100
AcDbEntity
8
1
62
256
6
ByLayer
370
18
48
1
60
0
100
AcDbSpline
70
4
71
3
72
12
73
8
40
0
40
0
40
0
40
0
40
0.42509336529619
40
0.42509336529619
40
0.63310712595513
40
0.63310712595513
40
1
40
1
40
1
40
1
41
1
10
39.8587805434613
20
-9.09756361750701
30
0
41
1
10
39.6933804472915
20
-9.10920811495237
30
0
41
1
10
39.5253561091229
20
-9.11830139622606
30
0
41
1
10
39.2910861495545
20
-9.12692285070614
30
0
41
1
10
39.2154780531597
20
-9.12900839420462
30
0
41
1
10
39.0170751815052
20
-9.13251372774309
30
0
41
1
10
38.8995633762628
20
-9.1322575747181
30
0
41
1
10
38.7981203716823
20
-9.12954112313253
30
0
0
SPLINE
5
209
100
AcDbEntity
8
1
62
256
6
ByLayer
370
18
48
1
60
0
100
AcDbSpline
70
4
71
3
72
16
73
12
40
0
40
0
40
0
40
0
40
0.211361443762593
40
0.211361443762593
40
0.422716290819052
40
0.422716290819052
40
0.633949151070055
40
0.633949151070055
40
0.842299705561758
40
0.842299705561758
40
1
40
1
40
1
40
1
41
1
10
41.6060954592074
20
-9.29478196299405
30
0
41
1
10
41.6063878799805
20
-9.26021037638913
30
0
41
1
10
41.6007247736218
20
-9.22516480084627
30
0
41
1
10
41.5784973461869
20
-9.15992398574781
30
0
41
1
10
41.5616237145543
20
-9.12882092205419
30
0
41
1
10
41.5190960738525
20
-9.07487766082394
30
0
41
1
10
41.492843247774
20
-9.05127749279745
30
0
41
1
10
41.4350670289678
20
-9.01522822135462
30
0
41
1
10
41.4027995289618
20
-9.00213169460253
30
0
41
1
10
41.344484454926
20
-8.98971482461229
30
0
41
1
10
41.3183039576487
20
-8.98771227366748
30
0
41
1
10
41.2925195383578
20
-8.98921988305852
30
0
0
SPLINE
5
20A
100
AcDbEntity
8
1
62
256
6
ByLayer
370
18
48
1
60
0
100
AcDbSpline
70
4
71
3
72
8
73
4
40
0
40
0
40
0
40
0
40
1
40
1
40
1
40
1
41
1
10
40.3587805434613
20
-12.9376373821144
30
0
41
1
10
40.4751145296815
20
-12.9458275273242
30
0
41
1
10
40.5917705115932
20
-12.9550344158145
30
0
41
1
10
40.7060768987952
20
-12.9650405081989
30
0
0
SPLINE
5
20B
100
AcDbEntity
8
1
62
256
6
ByLayer
370
18
48
1
60
0
100
AcDbSpline
70
4
71
3
72
14
73
10
40
0
40
0
40
0
40
0
40
0.208299027735494
40
0.208299027735494
40
0.416431647973881
40
0.416431647973881
40
0.624564826978372
40
0.624564826978372
40
1
40
1
40
1
40
1
41
1
10
38.7981203716815
20
-12.8704588768682
30
0
41
1
10
38.8559629158584
20
-12.868909963057
30
0
41
1
10
38.9188120459095
20
-12.8681531253791
30
0
41
1
10
39.0519206443794
20
-12.868260066214
30
0
41
1
10
39.1226293120467
20
-12.8691229557037
30
0
41
1
10
39.2695068973413
20
-12.8724339807097
30
0
41
1
10
39.3461789808539
20
-12.8748934627583
30
0
41
1
10
39.5647101978241
20
-12.8838549306265
30
0
41
1
10
39.712666896291
20
-12.8921496896145
30
0
41
1
10
39.8587805434601
20
-12.9024363824919
30
0
0
SPLINE
5
20C
100
AcDbEntity
8
1
62
256
6
ByLayer
370
18
48
1
60
0
100
AcDbSpline
70
4
71
3
72
8
73
4
40
0
40
0
40
0
40
0
40
1
40
1
40
1
40
1
41
1
10
37.885022192013
20
-9.17459104198667
30
0
41
1
10
37.8448570829342
20
-9.18328340122829
30
0
41
1
10
37.8055404050447
20
-9.1981914663188
30
0
41
1
10
37.7699547982735
20
-9.21822678003298
30
0
0
SPLINE
5
20D
100
AcDbEntity
8
1
62
256
6
ByLayer
370
18
48
1
60
0
100
AcDbSpline
70
4
71
3
72
8
73
4
40
0
40
0
40
0
40
0
40
1
40
1
40
1
40
1
41
1
10
40.7060768987952
20
-9.03495949180092
30
0
41
1
10
40.5917705115932
20
-9.04496558418526
30
0
41
1
10
40.4751145296815
20
-9.05417247267556
30
0
41
1
10
40.3587805434613
20
-9.06236261788538
30
0
0
SPLINE
5
20E
100
AcDbEntity
8
1
62
256
6
ByLayer
370
18
48
1
60
0
100
AcDbSpline
70
4
71
3
72
10
73
6
40
0
40
0
40
0
40
0
40
0.658092800347461
40
0.658092800347461
40
1
40
1
40
1
40
1
41
1
10
37.6726381143078
20
-12.7275923210766
30
0
41
1
10
37.650326595133
20
-12.7153131761918
30
0
41
1
10
37.6257492517909
20
-12.7071403835229
30
0
41
1
10
37.5885109918382
20
-12.7010170305406
30
0
41
1
10
37.5755836924548
20
-12.6999999999999
30
0
41
1
10
37.5628139582058
20
-12.6999999999999
30
0
0
SPLINE
5
20F
100
AcDbEntity
8
1
62
256
6
ByLayer
370
18
48
1
60
0
100
AcDbSpline
70
4
71
3
72
8
73
4
40
0
40
0
40
0
40
0
40
1
40
1
40
1
40
1
41
1
10
37.7699547982736
20
-12.7817732199668
30
0
41
1
10
37.8055404050452
20
-12.8018085336813
30
0
41
1
10
37.8448570829354
20
-12.816716598772
30
0
41
1
10
37.885022192015
20
-12.8254089580135
30
0
0
SPLINE
5
210
100
AcDbEntity
8
1
62
256
6
ByLayer
370
18
48
1
60
0
100
AcDbSpline
70
4
71
3
72
16
73
12
40
0
40
0
40
0
40
0
40
0.201783384736309
40
0.201783384736309
40
0.40337786454364
40
0.40337786454364
40
0.60783295932887
40
0.60783295932887
40
0.816478248424763
40
0.816478248424763
40
1
40
1
40
1
40
1
41
1
10
41.2925195383578
20
-13.0107801169413
30
0
41
1
10
41.3253231085994
20
-13.0126981345626
30
0
41
1
10
41.3588610300669
20
-13.0088779817092
30
0
41
1
10
41.4217991281965
20
-12.9905770934466
30
0
41
1
10
41.4520629393796
20
-12.9758656033463
30
0
41
1
10
41.5058024815466
20
-12.9376143310754
30
0
41
1
10
41.5299089005271
20
-12.9134414142565
30
0
41
1
10
41.5688991836001
20
-12.8587015844237
30
0
41
1
10
41.5841231155448
20
-12.8272666741768
30
0
41
1
10
41.602113628816
20
-12.7657679170015
30
0
41
1
10
41.6063502038844
20
-12.735335349028
30
0
41
1
10
41.6060954592074
20
-12.7052180370057
30
0
0
SPLINE
5
211
100
AcDbEntity
8
1
62
256
6
ByLayer
370
18
48
1
60
0
100
AcDbSpline
70
4
71
3
72
10
73
6
40
0
40
0
40
0
40
0
40
0.67805397343686
40
0.67805397343686
40
1
40
1
40
1
40
1
41
1
10
37.5628139582058
20
-9.2999999999999
30
0
41
1
10
37.5878743353474
20
-9.2999999999999
30
0
41
1
10
37.6137719550684
20
-9.29600155633577
30
0
41
1
10
37.6500459353044
20
-9.28355688694165
30
0
41
1
10
37.6616013632274
20
-9.27848175503456
30
0
41
1
10
37.6726381143083
20
-9.27240767892536
30
0
0
LINE
5
70
100
AcDbEntity
8
80
62
256
6
ByLayer
370
18
48
1
60
0
100
AcDbLine
10
0
20
0
30
0
11
-5
21
0
31
0
39
0
210
0
220
0
230
1
0
LINE
5
71
100
AcDbEntity
8
81
62
256
6
ByLayer
370
18
48
1
60
0
100
AcDbLine
10
41.6
20
-13
30
0
11
46.6
21
-13
31
0
39
0
210
0
220
0
230
1
0
LINE
5
72
100
AcDbEntity
8
1
62
256
6
ByLayer
370
13
48
1
60
0
100
AcDbLine
10
24.527391
20
-9.325
30
0
11
24.527391
21
-12.675
31
0
39
0
210
0
220
0
230
1
0
LINE
5
74
100
AcDbEntity
8
SK1
62
256
6
ByLayer
370
13
48
1
60
0
100
AcDbLine
10
-5.682242
20
-12.675
30
0
11
-5.682242
21
12.5
31
0
39
0
210
0
220
0
230
1
0
LINE
5
76
100
AcDbEntity
8
SK1
62
256
6
ByLayer
370
13
48
1
60
0
100
AcDbLine
10
-7.227723
20
12.5
30
0
11
-7.227723
21
-12.425
31
0
39
0
210
0
220
0
230
1
0
LINE
5
77
100
AcDbEntity
8
1
62
256
6
ByLayer
370
13
48
1
60
0
100
AcDbLine
10
29.527391
20
-12.675
30
0
11
29.527391
21
-9.325
31
0
39
0
210
0
220
0
230
1
0
LINE
5
78
100
AcDbEntity
8
1
62
256
6
ByLayer
370
13
48
1
60
0
100
AcDbLine
10
0
20
-7.725
30
0
11
11.202632
21
-7.725
31
0
39
0
210
0
220
0
230
1
0
LINE
5
79
100
AcDbEntity
8
1
62
256
6
ByLayer
370
18
48
1
60
0
100
AcDbLine
10
11.202632
20
-7.725
30
0
11
11.202632
21
7.015457
31
0
39
0
210
0
220
0
230
1
0
LINE
5
7A
100
AcDbEntity
8
1
62
256
6
ByLayer
370
18
48
1
60
0
100
AcDbLine
10
35.755966
20
-12.675
30
0
11
29.527391
21
-12.675
31
0
39
0
210
0
220
0
230
1
0
LINE
5
7B
100
AcDbEntity
8
1
62
256
6
ByLayer
370
18
48
1
60
0
100
AcDbLine
10
35.901732
20
-11.629155
30
0
11
35.901732
21
-10.370845
31
0
39
0
210
0
220
0
230
1
0
LINE
5
7C
100
AcDbEntity
8
1
62
256
6
ByLayer
370
18
48
1
60
0
100
AcDbLine
10
-0.1
20
12.5
30
0
11
-0.1
21
-12.675
31
0
39
0
210
0
220
0
230
1
0
LINE
5
7D
100
AcDbEntity
8
1
62
256
6
ByLayer
370
18
48
1
60
0
100
AcDbLine
10
0
20
12.5
30
0
11
0
21
-7.725
31
0
39
0
210
0
220
0
230
1
0
LINE
5
7E
100
AcDbEntity
8
1
62
256
6
ByLayer
370
18
48
1
60
0
100
AcDbLine
10
29.527391
20
-12.675
30
0
11
24.527391
21
-12.675
31
0
39
0
210
0
220
0
230
1
0
LINE
5
7F
100
AcDbEntity
8
1
62
256
6
ByLayer
370
18
48
1
60
0
100
AcDbLine
10
35.901732
20
-12.20034
30
0
11
35.755966
21
-12.675
31
0
39
0
210
0
220
0
230
1
0
LINE
5
80
100
AcDbEntity
8
1
62
256
6
ByLayer
370
18
48
1
60
0
100
AcDbLine
10
35.755966
20
-9.325
30
0
11
35.901732
21
-9.79966
31
0
39
0
210
0
220
0
230
1
0
LINE
5
81
100
AcDbEntity
8
1
62
256
6
ByLayer
370
18
48
1
60
0
100
AcDbLine
10
0
20
12.5
30
0
11
-0.1
21
12.5
31
0
39
0
210
0
220
0
230
1
0
LINE
5
82
100
AcDbEntity
8
1
62
256
6
ByLayer
370
18
48
1
60
0
100
AcDbLine
10
24.527391
20
-9.325
30
0
11
1.6
21
-9.325
31
0
39
0
210
0
220
0
230
1
0
LINE
5
83
100
AcDbEntity
8
1
62
256
6
ByLayer
370
18
48
1
60
0
100
AcDbLine
10
35.755966
20
-9.325
30
0
11
29.527391
21
-9.325
31
0
39
0
210
0
220
0
230
1
0
LINE
5
84
100
AcDbEntity
8
1
62
256
6
ByLayer
370
18
48
1
60
0
100
AcDbLine
10
24.527391
20
-12.675
30
0
11
-0.1
21
-12.675
31
0
39
0
210
0
220
0
230
1
0
LINE
5
85
100
AcDbEntity
8
1
62
256
6
ByLayer
370
18
48
1
60
0
100
AcDbLine
10
1
20
12.5
30
0
11
11.202632
21
7.015457
31
0
39
0
210
0
220
0
230
1
0
LINE
5
86
100
AcDbEntity
8
1
62
256
6
ByLayer
370
18
48
1
60
0
100
AcDbLine
10
35.901732
20
-10.370845
30
0
11
35.901732
21
-9.79966
31
0
39
0
210
0
220
0
230
1
0
LINE
5
87
100
AcDbEntity
8
1
62
256
6
ByLayer
370
18
48
1
60
0
100
AcDbLine
10
35.901732
20
-12.20034
30
0
11
35.901732
21
-11.629155
31
0
39
0
210
0
220
0
230
1
0
LINE
5
88
100
AcDbEntity
8
1
62
256
6
ByLayer
370
18
48
1
60
0
100
AcDbLine
10
29.527391
20
-9.325
30
0
11
24.527391
21
-9.325
31
0
39
0
210
0
220
0
230
1
0
LINE
5
89
100
AcDbEntity
8
1
62
256
6
ByLayer
370
18
48
1
60
0
100
AcDbLine
10
0
20
12.5
30
0
11
1
21
12.5
31
0
39
0
210
0
220
0
230
1
0
LINE
5
8A
100
AcDbEntity
8
SK1
62
256
6
ByLayer
370
18
48
1
60
0
100
AcDbLine
10
-0.1
20
12.5
30
0
11
-4.506183
21
12.5
31
0
39
0
210
0
220
0
230
1
0
LINE
5
8B
100
AcDbEntity
8
SK1
62
256
6
ByLayer
370
18
48
1
60
0
100
AcDbLine
10
-84
20
9.5
30
0
11
-84
21
-9.425
31
0
39
0
210
0
220
0
230
1
0
LINE
5
8C
100
AcDbEntity
8
SK1
62
256
6
ByLayer
370
18
48
1
60
0
100
AcDbLine
10
-4.506183
20
-12.675
30
0
11
-4.506183
21
12.5
31
0
39
0
210
0
220
0
230
1
0
LINE
5
8D
100
AcDbEntity
8
SK1
62
256
6
ByLayer
370
18
48
1
60
0
100
AcDbLine
10
-81
20
-12.425
30
0
11
-84
21
-9.425
31
0
39
0
210
0
220
0
230
1
0
LINE
5
8E
100
AcDbEntity
8
SK1
62
256
6
ByLayer
370
18
48
1
60
0
100
AcDbLine
10
-5.682242
20
12.5
30
0
11
-4.506183
21
12.5
31
0
39
0
210
0
220
0
230
1
0
LINE
5
8F
100
AcDbEntity
8
SK1
62
256
6
ByLayer
370
18
48
1
60
0
100
AcDbLine
10
-81
20
-12.425
30
0
11
-7.227723
21
-12.425
31
0
39
0
210
0
220
0
230
1
0
LINE
5
90
100
AcDbEntity
8
SK1
62
256
6
ByLayer
370
18
48
1
60
0
100
AcDbLine
10
-81
20
12.5
30
0
11
-7.227723
21
12.5
31
0
39
0
210
0
220
0
230
1
0
LINE
5
91
100
AcDbEntity
8
SK1
62
256
6
ByLayer
370
18
48
1
60
0
100
AcDbLine
10
-81
20
12.5
30
0
11
-84
21
9.5
31
0
39
0
210
0
220
0
230
1
0
LINE
5
92
100
AcDbEntity
8
SK1
62
256
6
ByLayer
370
18
48
1
60
0
100
AcDbLine
10
-5.682242
20
-12.675
30
0
11
-6.368945
21
-12.675
31
0
39
0
210
0
220
0
230
1
0
LINE
5
93
100
AcDbEntity
8
SK1
62
256
6
ByLayer
370
18
48
1
60
0
100
AcDbLine
10
-0.1
20
-12.675
30
0
11
-4.506183
21
-12.675
31
0
39
0
210
0
220
0
230
1
0
LINE
5
94
100
AcDbEntity
8
SK1
62
256
6
ByLayer
370
18
48
1
60
0
100
AcDbLine
10
-0.1
20
12.5
30
0
11
-0.1
21
-12.675
31
0
39
0
210
0
220
0
230
1
0
LINE
5
95
100
AcDbEntity
8
SK1
62
256
6
ByLayer
370
18
48
1
60
0
100
AcDbLine
10
-7.227723
20
12.5
30
0
11
-5.682242
21
12.5
31
0
39
0
210
0
220
0
230
1
0
LINE
5
96
100
AcDbEntity
8
SK1
62
256
6
ByLayer
370
18
48
1
60
0
100
AcDbLine
10
-4.506183
20
-12.675
30
0
11
-5.682242
21
-12.675
31
0
39
0
210
0
220
0
230
1
0
LINE
5
97
100
AcDbEntity
8
1
62
256
6
ByLayer
370
13
48
1
60
0
100
AcDbLine
10
41.544165
20
-10.187966
30
0
11
41.544165
21
-11.812034
31
0
39
0
210
0
220
0
230
1
0
LINE
5
98
100
AcDbEntity
8
1
62
256
6
ByLayer
370
13
48
1
60
0
100
AcDbLine
10
40.411268
20
-10.178299
30
0
11
40.411268
21
-11.821701
31
0
39
0
210
0
220
0
230
1
0
LINE
5
99
100
AcDbEntity
8
1
62
256
6
ByLayer
370
13
48
1
60
0
100
AcDbLine
10
24.527391
20
-9.325
30
0
11
24.527391
21
-12.675
31
0
39
0
210
0
220
0
230
1
0
LINE
5
9A
100
AcDbEntity
8
1
62
256
6
ByLayer
370
13
48
1
60
0
100
AcDbLine
10
-5.682242
20
-12.675
30
0
11
-5.682242
21
12.5
31
0
39
0
210
0
220
0
230
1
0
LINE
5
9B
100
AcDbEntity
8
1
62
256
6
ByLayer
370
13
48
1
60
0
100
AcDbLine
10
29.527391
20
-12.675
30
0
11
29.527391
21
-9.325
31
0
39
0
210
0
220
0
230
1
0
LINE
5
9C
100
AcDbEntity
8
1
62
256
6
ByLayer
370
13
48
1
60
0
100
AcDbLine
10
-7.227723
20
12.5
30
0
11
-7.227723
21
-12.425
31
0
39
0
210
0
220
0
230
1
0
LINE
5
9D
100
AcDbEntity
8
1
62
256
6
ByLayer
370
13
48
1
60
0
100
AcDbLine
10
36.753178
20
-10.304612
30
0
11
38.461239
21
-10.304612
31
0
39
0
210
0
220
0
230
1
0
LINE
5
9E
100
AcDbEntity
8
1
62
256
6
ByLayer
370
13
48
1
60
0
100
AcDbLine
10
36.753178
20
-11.695388
30
0
11
38.461239
21
-11.695388
31
0
39
0
210
0
220
0
230
1
0
LINE
5
9F
100
AcDbEntity
8
1
62
256
6
ByLayer
370
13
48
1
60
0
100
AcDbLine
10
38.211711
20
-11.79094
30
0
11
37.890882
21
-11.770663
31
0
39
0
210
0
220
0
230
1
0
LINE
5
A0
100
AcDbEntity
8
1
62
256
6
ByLayer
370
13
48
1
60
0
100
AcDbLine
10
36.972244
20
-11.741052
30
0
11
36.753178
21
-11.695388
31
0
39
0
210
0
220
0
230
1
0
LINE
5
A1
100
AcDbEntity
8
1
62
256
6
ByLayer
370
13
48
1
60
0
100
AcDbLine
10
37.890882
20
-10.229337
30
0
11
38.211711
21
-10.20906
31
0
39
0
210
0
220
0
230
1
0
LINE
5
A2
100
AcDbEntity
8
1
62
256
6
ByLayer
370
13
48
1
60
0
100
AcDbLine
10
36.753178
20
-10.304612
30
0
11
36.972244
21
-10.258948
31
0
39
0
210
0
220
0
230
1
0
LINE
5
A3
100
AcDbEntity
8
1
62
256
6
ByLayer
370
13
48
1
60
0
100
AcDbLine
10
36.194883
20
-12.558521
30
0
11
36.194883
21
-12.7
31
0
39
0
210
0
220
0
230
1
0
LINE
5
A4
100
AcDbEntity
8
1
62
256
6
ByLayer
370
13
48
1
60
0
100
AcDbLine
10
36.194883
20
-9.3
30
0
11
36.194883
21
-9.441479
31
0
39
0
210
0
220
0
230
1
0
LINE
5
A5
100
AcDbEntity
8
1
62
256
6
ByLayer
370
13
48
1
60
0
100
AcDbLine
10
36.932182
20
-12.7
30
0
11
36.932182
21
-11.83377
31
0
39
0
210
0
220
0
230
1
0
LINE
5
A6
100
AcDbEntity
8
1
62
256
6
ByLayer
370
13
48
1
60
0
100
AcDbLine
10
37.562511
20
-11.867234
30
0
11
37.562511
21
-12.7
31
0
39
0
210
0
220
0
230
1
0
LINE
5
A7
100
AcDbEntity
8
1
62
256
6
ByLayer
370
13
48
1
60
0
100
AcDbLine
10
38.456902
20
-12.869491
30
0
11
38.402267
21
-12.088169
31
0
39
0
210
0
220
0
230
1
0
LINE
5
A8
100
AcDbEntity
8
1
62
256
6
ByLayer
370
13
48
1
60
0
100
AcDbLine
10
38.456902
20
-9.130509
30
0
11
38.402267
21
-9.911831
31
0
39
0
210
0
220
0
230
1
0
LINE
5
A9
100
AcDbEntity
8
1
62
256
6
ByLayer
370
13
48
1
60
0
100
AcDbLine
10
37.562511
20
-9.3
30
0
11
37.562511
21
-10.132766
31
0
39
0
210
0
220
0
230
1
0
LINE
5
AA
100
AcDbEntity
8
1
62
256
6
ByLayer
370
13
48
1
60
0
100
AcDbLine
10
36.932182
20
-9.3
30
0
11
36.932182
21
-10.16623
31
0
39
0
210
0
220
0
230
1
0
LINE
5
AB
100
AcDbEntity
8
1
62
256
6
ByLayer
370
13
48
1
60
0
100
AcDbLine
10
37.885022
20
-12.825409
30
0
11
37.885022
21
-11.863381
31
0
39
0
210
0
220
0
230
1
0
LINE
5
AC
100
AcDbEntity
8
1
62
256
6
ByLayer
370
13
48
1
60
0
100
AcDbLine
10
38.205851
20
-10.116341
30
0
11
37.885022
21
-10.136619
31
0
39
0
210
0
220
0
230
1
0
LINE
5
AD
100
AcDbEntity
8
1
62
256
6
ByLayer
370
13
48
1
60
0
100
AcDbLine
10
37.885022
20
-11.863381
30
0
11
38.205851
21
-11.883659
31
0
39
0
210
0
220
0
230
1
0
LINE
5
AE
100
AcDbEntity
8
1
62
256
6
ByLayer
370
13
48
1
60
0
100
AcDbLine
10
37.885022
20
-11.863381
30
0
11
37.890882
21
-11.770663
31
0
39
0
210
0
220
0
230
1
0
LINE
5
AF
100
AcDbEntity
8
1
62
256
6
ByLayer
370
13
48
1
60
0
100
AcDbLine
10
37.885022
20
-10.136619
30
0
11
37.885022
21
-9.174591
31
0
39
0
210
0
220
0
230
1
0
LINE
5
B0
100
AcDbEntity
8
1
62
256
6
ByLayer
370
13
48
1
60
0
100
AcDbLine
10
37.890882
20
-10.229337
30
0
11
37.885022
21
-10.136619
31
0
39
0
210
0
220
0
230
1
0
LINE
5
B1
100
AcDbEntity
8
1
62
256
6
ByLayer
370
13
48
1
60
0
100
AcDbLine
10
38.205851
20
-11.883659
30
0
11
38.211711
21
-11.79094
31
0
39
0
210
0
220
0
230
1
0
LINE
5
B2
100
AcDbEntity
8
1
62
256
6
ByLayer
370
13
48
1
60
0
100
AcDbLine
10
38.211711
20
-10.20906
30
0
11
38.205851
21
-10.116341
31
0
39
0
210
0
220
0
230
1
0
LINE
5
B3
100
AcDbEntity
8
1
62
256
6
ByLayer
370
13
48
1
60
0
100
AcDbLine
10
38.578644
20
-12.073191
30
0
11
38.6347
21
-12.874835
31
0
39
0
210
0
220
0
230
1
0
LINE
5
B4
100
AcDbEntity
8
1
62
256
6
ByLayer
370
13
48
1
60
0
100
AcDbLine
10
38.578644
20
-9.926809
30
0
11
38.6347
21
-9.125165
31
0
39
0
210
0
220
0
230
1
0
LINE
5
B5
100
AcDbEntity
8
1
62
256
6
ByLayer
370
13
48
1
60
0
100
AcDbLine
10
36.713116
20
-11.788106
30
0
11
36.932182
21
-11.83377
31
0
39
0
210
0
220
0
230
1
0
LINE
5
B6
100
AcDbEntity
8
1
62
256
6
ByLayer
370
13
48
1
60
0
100
AcDbLine
10
36.229386
20
-12.7
30
0
11
36.229386
21
-12.546038
31
0
39
0
210
0
220
0
230
1
0
LINE
5
B7
100
AcDbEntity
8
1
62
256
6
ByLayer
370
13
48
1
60
0
100
AcDbLine
10
36.932182
20
-10.16623
30
0
11
36.713116
21
-10.211894
31
0
39
0
210
0
220
0
230
1
0
LINE
5
B8
100
AcDbEntity
8
1
62
256
6
ByLayer
370
13
48
1
60
0
100
AcDbLine
10
36.229386
20
-9.453962
30
0
11
36.229386
21
-9.3
31
0
39
0
210
0
220
0
230
1
0
LINE
5
B9
100
AcDbEntity
8
1
62
256
6
ByLayer
370
13
48
1
60
0
100
AcDbLine
10
38.79812
20
-12.104517
30
0
11
38.79812
21
-12.870459
31
0
39
0
210
0
220
0
230
1
0
LINE
5
BA
100
AcDbEntity
8
1
62
256
6
ByLayer
370
13
48
1
60
0
100
AcDbLine
10
39.858781
20
-12.358847
30
0
11
39.858781
21
-12.902436
31
0
39
0
210
0
220
0
230
1
0
LINE
5
BB
100
AcDbEntity
8
1
62
256
6
ByLayer
370
13
48
1
60
0
100
AcDbLine
10
39.858781
20
-9.641153
30
0
11
39.858781
21
-9.097564
31
0
39
0
210
0
220
0
230
1
0
LINE
5
BC
100
AcDbEntity
8
1
62
256
6
ByLayer
370
13
48
1
60
0
100
AcDbLine
10
38.79812
20
-9.895483
30
0
11
38.79812
21
-9.129541
31
0
39
0
210
0
220
0
230
1
0
LINE
5
BD
100
AcDbEntity
8
1
62
256
6
ByLayer
370
13
48
1
60
0
100
AcDbLine
10
39.714687
20
-9.946971
30
0
11
39.811268
21
-10.250514
31
0
39
0
210
0
220
0
230
1
0
LINE
5
BE
100
AcDbEntity
8
1
62
256
6
ByLayer
370
13
48
1
60
0
100
AcDbLine
10
39.714687
20
-12.053029
30
0
11
39.811268
21
-11.749486
31
0
39
0
210
0
220
0
230
1
0
LINE
5
BF
100
AcDbEntity
8
1
62
256
6
ByLayer
370
13
48
1
60
0
100
AcDbLine
10
39.811268
20
-10.250514
30
0
11
39.811268
21
-11.749486
31
0
39
0
210
0
220
0
230
1
0
LINE
5
C0
100
AcDbEntity
8
1
62
256
6
ByLayer
370
13
48
1
60
0
100
AcDbLine
10
41.600117
20
-10.001589
30
0
11
41.525685
21
-10.001589
31
0
39
0
210
0
220
0
230
1
0
LINE
5
C1
100
AcDbEntity
8
1
62
256
6
ByLayer
370
13
48
1
60
0
100
AcDbLine
10
41.135516
20
-9.69265
30
0
11
41.135516
21
-8.9984
31
0
39
0
210
0
220
0
230
1
0
LINE
5
C2
100
AcDbEntity
8
1
62
256
6
ByLayer
370
13
48
1
60
0
100
AcDbLine
10
41.135516
20
-12.30735
30
0
11
41.135516
21
-13.0016
31
0
39
0
210
0
220
0
230
1
0
LINE
5
C3
100
AcDbEntity
8
1
62
256
6
ByLayer
370
13
48
1
60
0
100
AcDbLine
10
41.600117
20
-11.998411
30
0
11
41.525685
21
-11.998411
31
0
39
0
210
0
220
0
230
1
0
LINE
5
C4
100
AcDbEntity
8
1
62
256
6
ByLayer
370
13
48
1
60
0
100
AcDbLine
10
41.06476
20
-9.003561
30
0
11
41.06476
21
-9.640033
31
0
39
0
210
0
220
0
230
1
0
LINE
5
C5
100
AcDbEntity
8
1
62
256
6
ByLayer
370
13
48
1
60
0
100
AcDbLine
10
40.706077
20
-9.591486
30
0
11
40.706077
21
-9.034959
31
0
39
0
210
0
220
0
230
1
0
LINE
5
C6
100
AcDbEntity
8
1
62
256
6
ByLayer
370
13
48
1
60
0
100
AcDbLine
10
40.706077
20
-12.408514
30
0
11
40.706077
21
-12.965041
31
0
39
0
210
0
220
0
230
1
0
LINE
5
C7
100
AcDbEntity
8
1
62
256
6
ByLayer
370
13
48
1
60
0
100
AcDbLine
10
41.06476
20
-12.996439
30
0
11
41.06476
21
-12.359967
31
0
39
0
210
0
220
0
230
1
0
LINE
5
C8
100
AcDbEntity
8
1
62
256
6
ByLayer
370
13
48
1
60
0
100
AcDbLine
10
40.358781
20
-9.587946
30
0
11
40.358781
21
-9.062363
31
0
39
0
210
0
220
0
230
1
0
LINE
5
C9
100
AcDbEntity
8
1
62
256
6
ByLayer
370
13
48
1
60
0
100
AcDbLine
10
40.358781
20
-12.412054
30
0
11
40.358781
21
-12.937637
31
0
39
0
210
0
220
0
230
1
0
LINE
5
CA
100
AcDbEntity
8
1
62
256
6
ByLayer
370
13
48
1
60
0
100
AcDbLine
10
36.950545
20
-11
30
0
11
36.902842
21
-11
31
0
39
0
210
0
220
0
230
1
0
LINE
5
CB
100
AcDbEntity
8
1
62
256
6
ByLayer
370
13
48
1
60
0
100
AcDbLine
10
40.42193
20
-9.87506
30
0
11
40.411268
21
-10.178299
31
0
39
0
210
0
220
0
230
1
0
LINE
5
CC
100
AcDbEntity
8
1
62
256
6
ByLayer
370
13
48
1
60
0
100
AcDbLine
10
40.42193
20
-12.12494
30
0
11
40.411268
21
-11.821701
31
0
39
0
210
0
220
0
230
1
0
LINE
5
CD
100
AcDbEntity
8
1
62
256
6
ByLayer
370
13
48
1
60
0
100
AcDbLine
10
41.544165
20
-11.812034
30
0
11
41.597026
21
-11.812034
31
0
39
0
210
0
220
0
230
1
0
LINE
5
CE
100
AcDbEntity
8
1
62
256
6
ByLayer
370
13
48
1
60
0
100
AcDbLine
10
41.544165
20
-10.187966
30
0
11
41.597026
21
-10.187966
31
0
39
0
210
0
220
0
230
1
0
LINE
5
CF
100
AcDbEntity
8
1
62
256
6
ByLayer
370
13
48
1
60
0
100
AcDbLine
10
41.548049
20
-11.970715
30
0
11
41.6
21
-11.970715
31
0
39
0
210
0
220
0
230
1
0
LINE
5
D0
100
AcDbEntity
8
1
62
256
6
ByLayer
370
13
48
1
60
0
100
AcDbLine
10
41.597026
20
-11.812034
30
0
11
41.597026
21
-10.187966
31
0
39
0
210
0
220
0
230
1
0
LINE
5
D1
100
AcDbEntity
8
1
62
256
6
ByLayer
370
13
48
1
60
0
100
AcDbLine
10
41.548049
20
-10.029285
30
0
11
41.6
21
-10.029285
31
0
39
0
210
0
220
0
230
1
0
LINE
5
D2
100
AcDbEntity
8
1
62
256
6
ByLayer
370
13
48
1
60
0
100
AcDbLine
10
41.021373
20
-10.17728
30
0
11
41.021373
21
-11.82272
31
0
39
0
210
0
220
0
230
1
0
LINE
5
D3
100
AcDbEntity
8
1
62
256
6
ByLayer
370
13
48
1
60
0
100
AcDbLine
10
0
20
-7.725
30
0
11
11.202632
21
-7.725
31
0
39
0
210
0
220
0
230
1
0
LINE
5
D4
100
AcDbEntity
8
1
62
256
6
ByLayer
370
18
48
1
60
0
100
AcDbLine
10
35.755966
20
-12.675
30
0
11
29.527391
21
-12.675
31
0
39
0
210
0
220
0
230
1
0
LINE
5
D5
100
AcDbEntity
8
1
62
256
6
ByLayer
370
18
48
1
60
0
100
AcDbLine
10
35.755966
20
-9.325
30
0
11
29.527391
21
-9.325
31
0
39
0
210
0
220
0
230
1
0
LINE
5
D6
100
AcDbEntity
8
1
62
256
6
ByLayer
370
18
48
1
60
0
100
AcDbLine
10
0
20
12.5
30
0
11
0
21
-7.725
31
0
39
0
210
0
220
0
230
1
0
LINE
5
D7
100
AcDbEntity
8
1
62
256
6
ByLayer
370
18
48
1
60
0
100
AcDbLine
10
29.527391
20
-12.675
30
0
11
24.527391
21
-12.675
31
0
39
0
210
0
220
0
230
1
0
LINE
5
D8
100
AcDbEntity
8
1
62
256
6
ByLayer
370
18
48
1
60
0
100
AcDbLine
10
29.527391
20
-9.325
30
0
11
24.527391
21
-9.325
31
0
39
0
210
0
220
0
230
1
0
LINE
5
D9
100
AcDbEntity
8
1
62
256
6
ByLayer
370
18
48
1
60
0
100
AcDbLine
10
24.527391
20
-12.675
30
0
11
-4.506183
21
-12.675
31
0
39
0
210
0
220
0
230
1
0
LINE
5
DA
100
AcDbEntity
8
1
62
256
6
ByLayer
370
18
48
1
60
0
100
AcDbLine
10
24.527391
20
-9.325
30
0
11
1.6
21
-9.325
31
0
39
0
210
0
220
0
230
1
0
LINE
5
DB
100
AcDbEntity
8
1
62
256
6
ByLayer
370
18
48
1
60
0
100
AcDbLine
10
35.755966
20
-9.325
30
0
11
35.901732
21
-9.79966
31
0
39
0
210
0
220
0
230
1
0
LINE
5
DC
100
AcDbEntity
8
1
62
256
6
ByLayer
370
18
48
1
60
0
100
AcDbLine
10
35.901732
20
-12.20034
30
0
11
35.901732
21
-11.629155
31
0
39
0
210
0
220
0
230
1
0
LINE
5
DD
100
AcDbEntity
8
1
62
256
6
ByLayer
370
18
48
1
60
0
100
AcDbLine
10
35.901732
20
-12.20034
30
0
11
35.755966
21
-12.675
31
0
39
0
210
0
220
0
230
1
0
LINE
5
DE
100
AcDbEntity
8
1
62
256
6
ByLayer
370
18
48
1
60
0
100
AcDbLine
10
-84
20
9.5
30
0
11
-84
21
-9.425
31
0
39
0
210
0
220
0
230
1
0
LINE
5
DF
100
AcDbEntity
8
1
62
256
6
ByLayer
370
18
48
1
60
0
100
AcDbLine
10
-5.682242
20
-12.675
30
0
11
-6.368945
21
-12.675
31
0
39
0
210
0
220
0
230
1
0
LINE
5
E0
100
AcDbEntity
8
1
62
256
6
ByLayer
370
18
48
1
60
0
100
AcDbLine
10
-4.506183
20
-12.675
30
0
11
-4.506183
21
12.5
31
0
39
0
210
0
220
0
230
1
0
LINE
5
E1
100
AcDbEntity
8
1
62
256
6
ByLayer
370
18
48
1
60
0
100
AcDbLine
10
-4.506183
20
-12.675
30
0
11
-5.682242
21
-12.675
31
0
39
0
210
0
220
0
230
1
0
LINE
5
E2
100
AcDbEntity
8
1
62
256
6
ByLayer
370
18
48
1
60
0
100
AcDbLine
10
0
20
12.5
30
0
11
1
21
12.5
31
0
39
0
210
0
220
0
230
1
0
LINE
5
E3
100
AcDbEntity
8
1
62
256
6
ByLayer
370
18
48
1
60
0
100
AcDbLine
10
-7.227723
20
12.5
30
0
11
-5.682242
21
12.5
31
0
39
0
210
0
220
0
230
1
0
LINE
5
E4
100
AcDbEntity
8
1
62
256
6
ByLayer
370
18
48
1
60
0
100
AcDbLine
10
0
20
12.5
30
0
11
-4.506183
21
12.5
31
0
39
0
210
0
220
0
230
1
0
LINE
5
E5
100
AcDbEntity
8
1
62
256
6
ByLayer
370
18
48
1
60
0
100
AcDbLine
10
-81
20
12.5
30
0
11
-7.227723
21
12.5
31
0
39
0
210
0
220
0
230
1
0
LINE
5
E6
100
AcDbEntity
8
1
62
256
6
ByLayer
370
18
48
1
60
0
100
AcDbLine
10
-5.682242
20
12.5
30
0
11
-4.506183
21
12.5
31
0
39
0
210
0
220
0
230
1
0
LINE
5
E7
100
AcDbEntity
8
1
62
256
6
ByLayer
370
18
48
1
60
0
100
AcDbLine
10
-81
20
-12.425
30
0
11
-7.227723
21
-12.425
31
0
39
0
210
0
220
0
230
1
0
LINE
5
E8
100
AcDbEntity
8
1
62
256
6
ByLayer
370
18
48
1
60
0
100
AcDbLine
10
11.202632
20
-7.725
30
0
11
11.202632
21
7.015457
31
0
39
0
210
0
220
0
230
1
0
LINE
5
E9
100
AcDbEntity
8
1
62
256
6
ByLayer
370
18
48
1
60
0
100
AcDbLine
10
35.901732
20
-11.629155
30
0
11
35.901732
21
-10.370845
31
0
39
0
210
0
220
0
230
1
0
LINE
5
EA
100
AcDbEntity
8
1
62
256
6
ByLayer
370
18
48
1
60
0
100
AcDbLine
10
35.901732
20
-10.370845
30
0
11
35.901732
21
-9.79966
31
0
39
0
210
0
220
0
230
1
0
LINE
5
EB
100
AcDbEntity
8
1
62
256
6
ByLayer
370
18
48
1
60
0
100
AcDbLine
10
-81
20
-12.425
30
0
11
-84
21
-9.425
31
0
39
0
210
0
220
0
230
1
0
LINE
5
EC
100
AcDbEntity
8
1
62
256
6
ByLayer
370
18
48
1
60
0
100
AcDbLine
10
-81
20
12.5
30
0
11
-84
21
9.5
31
0
39
0
210
0
220
0
230
1
0
LINE
5
ED
100
AcDbEntity
8
1
62
256
6
ByLayer
370
18
48
1
60
0
100
AcDbLine
10
1
20
12.5
30
0
11
11.202632
21
7.015457
31
0
39
0
210
0
220
0
230
1
0
LINE
5
EE
100
AcDbEntity
8
1
62
256
6
ByLayer
370
18
48
1
60
0
100
AcDbLine
10
38.79812
20
-9.129541
30
0
11
38.6347
21
-9.125165
31
0
39
0
210
0
220
0
230
1
0
LINE
5
EF
100
AcDbEntity
8
1
62
256
6
ByLayer
370
18
48
1
60
0
100
AcDbLine
10
31.873333
20
-12.7
30
0
11
34.584409
21
-12.7
31
0
39
0
210
0
220
0
230
1
0
LINE
5
F0
100
AcDbEntity
8
1
62
256
6
ByLayer
370
18
48
1
60
0
100
AcDbLine
10
36.932182
20
-12.7
30
0
11
37.562511
21
-12.7
31
0
39
0
210
0
220
0
230
1
0
LINE
5
F1
100
AcDbEntity
8
1
62
256
6
ByLayer
370
18
48
1
60
0
100
AcDbLine
10
37.941473
20
-9.166552
30
0
11
38.456902
21
-9.130509
31
0
39
0
210
0
220
0
230
1
0
LINE
5
F2
100
AcDbEntity
8
1
62
256
6
ByLayer
370
18
48
1
60
0
100
AcDbLine
10
37.562511
20
-9.3
30
0
11
37.562814
21
-9.3
31
0
39
0
210
0
220
0
230
1
0
LINE
5
F3
100
AcDbEntity
8
1
62
256
6
ByLayer
370
18
48
1
60
0
100
AcDbLine
10
40.706077
20
-12.965041
30
0
11
41.06476
21
-12.996439
31
0
39
0
210
0
220
0
230
1
0
LINE
5
F4
100
AcDbEntity
8
1
62
256
6
ByLayer
370
18
48
1
60
0
100
AcDbLine
10
37.562511
20
-9.3
30
0
11
36.932182
21
-9.3
31
0
39
0
210
0
220
0
230
1
0
LINE
5
F5
100
AcDbEntity
8
1
62
256
6
ByLayer
370
18
48
1
60
0
100
AcDbLine
10
31.67404
20
-9.3
30
0
11
31.608324
21
-9.3
31
0
39
0
210
0
220
0
230
1
0
LINE
5
F6
100
AcDbEntity
8
1
62
256
6
ByLayer
370
18
48
1
60
0
100
AcDbLine
10
41.29252
20
-8.98922
30
0
11
41.135516
21
-8.9984
31
0
39
0
210
0
220
0
230
1
0
LINE
5
F7
100
AcDbEntity
8
1
62
256
6
ByLayer
370
18
48
1
60
0
100
AcDbLine
10
36.932182
20
-9.3
30
0
11
36.229386
21
-9.3
31
0
39
0
210
0
220
0
230
1
0
LINE
5
F8
100
AcDbEntity
8
1
62
256
6
ByLayer
370
18
48
1
60
0
100
AcDbLine
10
39.858781
20
-12.902436
30
0
11
40.358781
21
-12.937637
31
0
39
0
210
0
220
0
230
1
0
LINE
5
F9
100
AcDbEntity
8
1
62
256
6
ByLayer
370
18
48
1
60
0
100
AcDbLine
10
41.600117
20
-10.001589
30
0
11
41.606095
21
-9.294782
31
0
39
0
210
0
220
0
230
1
0
LINE
5
FA
100
AcDbEntity
8
1
62
256
6
ByLayer
370
18
48
1
60
0
100
AcDbLine
10
36.194883
20
-12.7
30
0
11
36.229386
21
-12.7
31
0
39
0
210
0
220
0
230
1
0
LINE
5
FB
100
AcDbEntity
8
1
62
256
6
ByLayer
370
18
48
1
60
0
100
AcDbLine
10
41.135516
20
-13.0016
30
0
11
41.29252
21
-13.01078
31
0
39
0
210
0
220
0
230
1
0
LINE
5
FC
100
AcDbEntity
8
1
62
256
6
ByLayer
370
18
48
1
60
0
100
AcDbLine
10
37.562814
20
-12.7
30
0
11
37.562511
21
-12.7
31
0
39
0
210
0
220
0
230
1
0
LINE
5
FD
100
AcDbEntity
8
1
62
256
6
ByLayer
370
18
48
1
60
0
100
AcDbLine
10
41.606095
20
-12.705218
30
0
11
41.600117
21
-11.998411
31
0
39
0
210
0
220
0
230
1
0
LINE
5
FE
100
AcDbEntity
8
1
62
256
6
ByLayer
370
18
48
1
60
0
100
AcDbLine
10
38.6347
20
-12.874835
30
0
11
38.79812
21
-12.870459
31
0
39
0
210
0
220
0
230
1
0
LINE
5
FF
100
AcDbEntity
8
1
62
256
6
ByLayer
370
18
48
1
60
0
100
AcDbLine
10
40.358781
20
-9.062363
30
0
11
39.858781
21
-9.097564
31
0
39
0
210
0
220
0
230
1
0
LINE
5
100
100
AcDbEntity
8
1
62
256
6
ByLayer
370
18
48
1
60
0
100
AcDbLine
10
31.608324
20
-12.7
30
0
11
31.67404
21
-12.7
31
0
39
0
210
0
220
0
230
1
0
LINE
5
101
100
AcDbEntity
8
1
62
256
6
ByLayer
370
18
48
1
60
0
100
AcDbLine
10
38.456902
20
-12.869491
30
0
11
37.941473
21
-12.833448
31
0
39
0
210
0
220
0
230
1
0
LINE
5
102
100
AcDbEntity
8
1
62
256
6
ByLayer
370
18
48
1
60
0
100
AcDbLine
10
36.229386
20
-12.7
30
0
11
36.932182
21
-12.7
31
0
39
0
210
0
220
0
230
1
0
LINE
5
103
100
AcDbEntity
8
1
62
256
6
ByLayer
370
18
48
1
60
0
100
AcDbLine
10
41.06476
20
-9.003561
30
0
11
40.706077
21
-9.034959
31
0
39
0
210
0
220
0
230
1
0
LINE
5
104
100
AcDbEntity
8
1
62
256
6
ByLayer
370
18
48
1
60
0
100
AcDbLine
10
36.229386
20
-9.3
30
0
11
36.194883
21
-9.3
31
0
39
0
210
0
220
0
230
1
0
LINE
5
105
100
AcDbEntity
8
1
62
256
6
ByLayer
370
18
48
1
60
0
100
AcDbLine
10
41.6
20
-11.970715
30
0
11
41.6
21
-10.029285
31
0
39
0
210
0
220
0
230
1
0
LINE
5
106
100
AcDbEntity
8
1
62
256
6
ByLayer
370
18
48
1
60
0
100
AcDbLine
10
31.873333
20
-9.3
30
0
11
34.584409
21
-9.3
31
0
39
0
210
0
220
0
230
1
0
LINE
5
107
100
AcDbEntity
8
SK2
62
256
6
ByLayer
370
13
48
1
60
0
100
AcDbLine
10
-93.60005
20
-12.5
30
0
11
-93.60005
21
12.5
31
0
39
0
210
0
220
0
230
1
0
LINE
5
109
100
AcDbEntity
8
SK2
62
256
6
ByLayer
370
13
48
1
60
0
100
AcDbLine
10
-2
20
12.5
30
0
11
-95.60005
21
12.5
31
0
39
0
210
0
220
0
230
1
0
LINE
5
10A
100
AcDbEntity
8
SK2
62
256
6
ByLayer
370
13
48
1
60
0
100
AcDbLine
10
-2
20
-12.5
30
0
11
-95.60005
21
-12.5
31
0
39
0
210
0
220
0
230
1
0
LINE
5
10B
100
AcDbEntity
8
SK2
62
256
6
ByLayer
370
18
48
1
60
0
100
AcDbLine
10
-93.60005
20
12.5
30
0
11
-93.182053
21
9.325002
31
0
39
0
210
0
220
0
230
1
0
LINE
5
10C
100
AcDbEntity
8
SK2
62
256
6
ByLayer
370
18
48
1
60
0
100
AcDbLine
10
-93.60005
20
12.5
30
0
11
-94.018047
21
9.324998
31
0
39
0
210
0
220
0
230
1
0
LINE
5
10D
100
AcDbEntity
8
SK2
62
256
6
ByLayer
370
18
48
1
60
0
100
AcDbLine
10
-93.182053
20
9.325002
30
0
11
-94.018047
21
9.324998
31
0
39
0
210
0
220
0
230
1
0
LINE
5
10E
100
AcDbEntity
8
SK2
62
256
6
ByLayer
370
18
48
1
60
0
100
AcDbLine
10
-93.60005
20
-12.5
30
0
11
-94.018047
21
-9.325002
31
0
39
0
210
0
220
0
230
1
0
LINE
5
10F
100
AcDbEntity
8
SK2
62
256
6
ByLayer
370
18
48
1
60
0
100
AcDbLine
10
-93.60005
20
-12.5
30
0
11
-93.182053
21
-9.324998
31
0
39
0
210
0
220
0
230
1
0
LINE
5
110
100
AcDbEntity
8
SK2
62
256
6
ByLayer
370
18
48
1
60
0
100
AcDbLine
10
-94.018047
20
-9.325002
30
0
11
-93.182053
21
-9.324998
31
0
39
0
210
0
220
0
230
1
0
MTEXT
5
212
100
AcDbEntity
8
SK6
62
256
6
ByLayer
370
18
48
1
60
0
100
AcDbMText
10
-52.825025
20
-51.130611
30
0
210
0
220
0
230
1
1
\W0.7938;QS-QD-LFH40C2525D
40
3.5
41
0
44
1.084337
50
0
71
7
72
5
7
iso_b_vert
0
MTEXT
5
216
100
AcDbEntity
8
SK2
62
256
6
ByLayer
370
18
48
1
60
0
100
AcDbMText
10
-94.47505
20
-1.169737
30
0
210
0
220
0
230
1
1
\W0.6740;25
40
3.5
41
0
44
1.084337
50
89.9999999999999
71
7
72
5
7
iso_b_vert
0
DIMENSION
5
225
100
AcDbEntity
8
2
62
256
6
ByLayer
370
13
48
1
60
0
100
AcDbDimension
2
DimnDraft3D1
10
41.6
20
29.10005
30
0
11
13.507895
21
29.10005
31
0
70
32
71
5
72
1
41
1
210
0
220
0
230
1
3
Standard
100
AcDbAlignedDimension
13
-6
23
14.5
33
0
14
41.6
24
-11
34
0
50
0
100
AcDbRotatedDimension
1001
ACAD
1000
DSTYLE
1002
{
1070
   279
1070
     0
1070
   172
1070
     1
1070
   173
1070
     1
1070
   340
1005
213
1070
   271
1070
     1
1070
    77
1070
     1
1070
    73
1070
     0
1070
   171
1070
     3
1070
   274
1070
     4
1070
   177
1070
     2
1070
   176
1070
     2
1070
   178
1070
     7
1070
    78
1070
     8
1070
    41
1041
3.175
1070
   147
1041
1.75
1070
    42
1041
2.0
1070
    44
1041
2.0
1070
   140
1041
3.5
1070
   343
1005
226
1070
   344
1005
226
1002
}
0
DIMENSION
5
23A
100
AcDbEntity
8
SK2
62
256
6
ByLayer
370
13
48
1
60
0
100
AcDbDimension
2
DimnDraft3D2
10
-81
20
-26.111273
30
0
11
-83.259868
21
-26.111273
31
0
70
32
71
5
72
1
41
1
210
0
220
0
230
1
3
Standard
100
AcDbAlignedDimension
13
-84
23
10.5
33
0
14
-81
24
-14.5
34
0
50
0
100
AcDbRotatedDimension
1001
ACAD
1000
DSTYLE
1002
{
1070
   279
1070
     0
1070
   172
1070
     1
1070
   173
1070
     1
1070
   340
1005
213
1070
    77
1070
     1
1070
    73
1070
     0
1070
   171
1070
     3
1070
   274
1070
     4
1070
   177
1070
     2
1070
   176
1070
     2
1070
   178
1070
     7
1070
    78
1070
     8
1070
    41
1041
3.175
1070
   147
1041
1.75
1070
    42
1041
2.0
1070
    44
1041
2.0
1070
   140
1041
3.5
1070
   343
1005
226
1070
   344
1005
226
1002
}
0
DIMENSION
5
248
100
AcDbEntity
8
SK2
62
256
6
ByLayer
370
13
48
1
60
0
100
AcDbDimension
2
DimnDraft3D3
10
41.6
20
35.10005
30
0
11
-26.178289
21
35.10005
31
0
70
32
71
5
72
1
41
1
210
0
220
0
230
1
3
Standard
100
AcDbAlignedDimension
13
-84
23
14.5
33
0
14
41.6
24
-11
34
0
50
0
100
AcDbRotatedDimension
1001
ACAD
1000
DSTYLE
1002
{
1070
   279
1070
     0
1070
   172
1070
     1
1070
   173
1070
     1
1070
   340
1005
213
1070
   271
1070
     1
1070
    77
1070
     1
1070
    73
1070
     0
1070
   171
1070
     3
1070
   274
1070
     4
1070
   177
1070
     2
1070
   176
1070
     2
1070
   178
1070
     7
1070
    78
1070
     8
1070
    41
1041
3.175
1070
   147
1041
1.75
1070
    42
1041
2.0
1070
    44
1041
2.0
1070
   140
1041
3.5
1070
   343
1005
226
1070
   344
1005
226
1002
}
0
DIMENSION
5
256
100
AcDbEntity
8
2
62
256
6
ByLayer
370
13
48
1
60
0
100
AcDbDimension
2
DimnDraft3D4
10
1.6
20
-26.111273
30
0
11
19.325
21
-26.111273
31
0
70
32
71
5
72
1
41
1
210
0
220
0
230
1
3
Standard
100
AcDbAlignedDimension
13
41.6
23
-15
33
0
14
1.6
24
-14.5
34
0
50
0
100
AcDbRotatedDimension
1001
ACAD
1000
DSTYLE
1002
{
1070
   279
1070
     0
1070
   172
1070
     1
1070
   173
1070
     1
1070
   340
1005
213
1070
   271
1070
     1
1070
    77
1070
     1
1070
    73
1070
     0
1070
   171
1070
     3
1070
   274
1070
     4
1070
   177
1070
     2
1070
   176
1070
     2
1070
   178
1070
     7
1070
    78
1070
     8
1070
    41
1041
3.175
1070
   147
1041
1.75
1070
    42
1041
2.0
1070
    44
1041
2.0
1070
   140
1041
3.5
1070
   343
1005
226
1070
   344
1005
226
1002
}
0
DIMENSION
5
264
100
AcDbEntity
8
2
62
256
6
ByLayer
370
13
48
1
60
0
100
AcDbDimension
2
DimnDraft3D5
10
66.7
20
-13
30
0
11
66.7
21
-4.357895
31
0
70
32
71
5
72
1
41
1
210
0
220
0
230
1
3
Standard
100
AcDbAlignedDimension
13
-4
23
12.5
33
0
14
43.6
24
-13
34
0
50
90
100
AcDbRotatedDimension
1001
ACAD
1000
DSTYLE
1002
{
1070
    74
1070
     0
1070
   279
1070
     0
1070
   172
1070
     1
1070
   173
1070
     1
1070
   340
1005
213
1070
   271
1070
     1
1070
    77
1070
     1
1070
    73
1070
     0
1070
   171
1070
     3
1070
   274
1070
     4
1070
   177
1070
     2
1070
   176
1070
     2
1070
   178
1070
     7
1070
    78
1070
     8
1070
    41
1041
3.175
1070
   147
1041
1.75
1070
    42
1041
2.0
1070
    44
1041
2.0
1070
   140
1041
3.5
1070
   343
1005
226
1070
   344
1005
226
1002
}
0
DIMENSION
5
272
100
AcDbEntity
8
2
62
256
6
ByLayer
370
13
48
1
60
0
100
AcDbDimension
2
DimnDraft3D6
10
59.7
20
-9
30
0
11
59.7
21
-25.189211
31
0
70
32
71
5
72
1
41
1
210
0
220
0
230
1
3
Standard
100
AcDbAlignedDimension
13
43.6
23
-13
33
0
14
43.6
24
-9
34
0
50
90
100
AcDbRotatedDimension
1001
ACAD
1000
DSTYLE
1002
{
1070
    74
1070
     0
1070
   279
1070
     0
1070
   172
1070
     1
1070
   173
1070
     1
1070
   340
1005
213
1070
   271
1070
     1
1070
    77
1070
     1
1070
    73
1070
     0
1070
   171
1070
     3
1070
   274
1070
     4
1070
   177
1070
     2
1070
   176
1070
     2
1070
   178
1070
     7
1070
    78
1070
     8
1070
    41
1041
3.175
1070
   147
1041
1.75
1070
    42
1041
2.0
1070
    44
1041
2.0
1070
   140
1041
3.5
1070
   343
1005
226
1070
   344
1005
226
1002
}
0
ENDSEC
0
SECTION
2
OBJECTS
0
DICTIONARY
5
2dc
330
0
100
AcDbDictionary
280
0
281
1
3
ACAD_GROUP
350
2dd
3
ACAD_MLINESTYLE
350
2de
0
DICTIONARY
5
2dd
330
0
100
AcDbDictionary
280
0
281
1
0
DICTIONARY
5
2de
330
0
100
AcDbDictionary
280
0
281
1
3
Standard
350
18
0
MLINESTYLE
5
18
330
2de
100
AcDbMlineStyle
2
Standard
70
0
3

62
256
51
90
52
90
71
2
49
-0.5
62
256
6
ByLayer
49
0.5
62
256
6
ByLayer
0
RASTERVARIABLES
5
2cb
330

100
AcDbRasterVariables
90
0
70
1
71
1
72
1
0
ENDSEC
0
EOF
