0
SECTION
2
HEADER
9
$ACADVER
1
AC1015
9
$DWGCODEPAGE
3
ANSI_1252
9
$HANDSEED
5
306
9
$ANGBASE
50
0
9
$ANGDIR
70
0
9
$ATTMODE
70
1
9
$AUNITS
70
0
9
$AUPREC
70
0
9
$CECOLOR
62
256
9
$CELTSCALE
40
1
9
$CELTYPE
6
ByLayer
9
$CELWEIGHT
370
18
9
$CLAYER
8
0
9
$CMLJUST
70
0
9
$CMLSCALE
40
1
9
$CMLSTYLE
2
Standard
9
$DIMSTYLE
2
Standard
9
$TEXTSIZE
40
0.2
9
$TEXTSTYLE
7
Standard
9
$LUNITS
70
2
9
$LUPREC
70
4
9
$EXTNAMES
290
1
9
$INSUNITS
70
4
9
$LTSCALE
40
1
9
$LWDISPLAY
290
1
9
$PDMODE
70
0
9
$PDSIZE
40
0
9
$PLINEGEN
70
0
0
ENDSEC
0
SECTION
2
CLASSES
0
CLASS
1
RASTERVARIABLES
2
AcDbRasterVariables
3
ISM
90
0
280
0
281
0
0
ENDSEC
0
SECTION
2
TABLES
0
TABLE
2
VPORT
5
2fc
100
AcDbSymbolTable
0
VPORT
5
1
100
AcDbSymbolTableRecord
100
AcDbViewportTableRecord
2
*Active
70
0
10
0
20
0
11
1
21
1
12
-1
22
1
13
0
23
0
14
0.5
24
0.5
15
10
25
10
16
0
26
0
36
1
17
0
27
0
37
0
0
ENDTAB
0
TABLE
2
LTYPE
5
2fd
100
AcDbSymbolTable
0
LTYPE
5
14
100
AcDbSymbolTableRecord
100
AcDbLinetypeTableRecord
70
0
2
ByBlock
3

72
65
73
0
40
0
0
LTYPE
5
15
100
AcDbSymbolTableRecord
100
AcDbLinetypeTableRecord
70
0
2
ByLayer
3

72
65
73
0
40
0
0
LTYPE
5
16
100
AcDbSymbolTableRecord
100
AcDbLinetypeTableRecord
70
0
2
CONTINUOUS
3
Solid line
72
65
73
0
40
0
0
LTYPE
5
6A
100
AcDbSymbolTableRecord
100
AcDbLinetypeTableRecord
70
0
2
CENTER
3
____ _ ____ _ ____ _ ____
72
65
73
4
40
47.5
49
22
74
0
49
-8.5
74
0
49
8.5
74
0
49
-8.5
74
0
0
LTYPE
5
6B
100
AcDbSymbolTableRecord
100
AcDbLinetypeTableRecord
70
0
2
DASHED
3
__ __ __ __ __ __ __ __ __
72
65
73
2
40
25.72
49
12.86
74
0
49
-12.86
74
0
0
ENDTAB
0
TABLE
2
LAYER
5
2fe
100
AcDbSymbolTable
0
LAYER
5
10
100
AcDbSymbolTableRecord
100
AcDbLayerTableRecord
2
0
70
0
62
7
6
CONTINUOUS
290
1
370
-3
390
0
0
LAYER
5
6D
100
AcDbSymbolTableRecord
100
AcDbLayerTableRecord
2
80
70
0
62
-6
6
CONTINUOUS
290
1
370
-3
390
0
0
LAYER
5
6F
100
AcDbSymbolTableRecord
100
AcDbLayerTableRecord
2
81
70
0
62
-3
6
CONTINUOUS
290
1
370
-3
390
0
0
LAYER
5
73
100
AcDbSymbolTableRecord
100
AcDbLayerTableRecord
2
1
70
0
62
4
6
CONTINUOUS
290
1
370
-3
390
0
0
LAYER
5
236
100
AcDbSymbolTableRecord
100
AcDbLayerTableRecord
2
2
70
0
62
7
6
CONTINUOUS
290
1
370
-3
390
0
0
LAYER
5
2e9
100
AcDbSymbolTableRecord
100
AcDbLayerTableRecord
2
SK1
70
0
62
4
6
CONTINUOUS
290
1
370
-3
390
0
0
LAYER
5
2ea
100
AcDbSymbolTableRecord
100
AcDbLayerTableRecord
2
SK2
70
0
62
7
6
CONTINUOUS
290
1
370
-3
390
0
0
LAYER
5
2eb
100
AcDbSymbolTableRecord
100
AcDbLayerTableRecord
2
SK6
70
0
62
5
6
CONTINUOUS
290
1
370
-3
390
0
0
ENDTAB
0
TABLE
2
STYLE
5
2ff
100
AcDbSymbolTable
0
STYLE
5
11
100
AcDbSymbolTableRecord
100
AcDbTextStyleTableRecord
2
Standard
3
txt
70
0
71
0
40
0
41
1
42
0
50
0
0
STYLE
5
230
100
AcDbSymbolTableRecord
100
AcDbTextStyleTableRecord
2
iso_b_vert
3
simplex.shx
70
0
71
0
40
0
41
1
42
0
50
0
0
STYLE
5
231
100
AcDbSymbolTableRecord
100
AcDbTextStyleTableRecord
2
DWGDirectTextStyle
3
simplex
70
0
71
0
40
0
41
1
42
0
50
0
0
ENDTAB
0
TABLE
2
DIMSTYLE
5
300
100
AcDbSymbolTable
100
AcDbDimStyleTable
0
DIMSTYLE
105
27
100
AcDbSymbolTableRecord
100
AcDbDimStyleTableRecord
2
Standard
70
0
3
<>
41
0.18
42
0.0625
44
0.18
140
0.18
147
0.09
73
0
74
0
77
1
271
2
275
0
278
52
280
0
340
11
0
ENDTAB
0
TABLE
2
VIEW
5
301
100
AcDbSymbolTable
0
ENDTAB
0
TABLE
2
UCS
5
302
100
AcDbSymbolTable
0
ENDTAB
0
TABLE
2
APPID
5
303
100
AcDbSymbolTable
0
APPID
5
12
100
AcDbSymbolTableRecord
100
AcDbRegAppTableRecord
2
ACAD
70
0
0
ENDTAB
0
TABLE
2
BLOCK_RECORD
5
304
100
AcDbSymbolTable
0
BLOCK_RECORD
5
1F
100
AcDbSymbolTableRecord
100
AcDbBlockTableRecord
2
*Model_Space
340
0
70
0
0
BLOCK_RECORD
5
1B
100
AcDbSymbolTableRecord
100
AcDbBlockTableRecord
2
*Paper_Space
340
0
70
0
0
BLOCK_RECORD
5
23
100
AcDbSymbolTableRecord
100
AcDbBlockTableRecord
2
*Paper_Space0
340
0
70
0
0
BLOCK_RECORD
5
234
100
AcDbSymbolTableRecord
100
AcDbBlockTableRecord
2
DimnDraft3D1
340
0
70
0
0
BLOCK_RECORD
5
243
100
AcDbSymbolTableRecord
100
AcDbBlockTableRecord
2
_CLOSED
340
0
70
0
0
BLOCK_RECORD
5
24A
100
AcDbSymbolTableRecord
100
AcDbBlockTableRecord
2
DimnDraft3D2
340
0
70
0
0
BLOCK_RECORD
5
258
100
AcDbSymbolTableRecord
100
AcDbBlockTableRecord
2
DimnDraft3D3
340
0
70
0
0
BLOCK_RECORD
5
266
100
AcDbSymbolTableRecord
100
AcDbBlockTableRecord
2
DimnDraft3D4
340
0
70
0
0
BLOCK_RECORD
5
274
100
AcDbSymbolTableRecord
100
AcDbBlockTableRecord
2
DimnDraft3D5
340
0
70
0
0
BLOCK_RECORD
5
282
100
AcDbSymbolTableRecord
100
AcDbBlockTableRecord
2
DimnDraft3D6
340
0
70
0
0
ENDTAB
0
ENDSEC
0
SECTION
2
BLOCKS
0
BLOCK
5
20
100
AcDbEntity
8
0
100
AcDbBlockBegin
2
*Model_Space
70
0
10
0
20
0
30
0
3
*Model_Space
0
ENDBLK
5
21
100
AcDbEntity
8
0
100
AcDbBlockEnd
0
BLOCK
5
1C
100
AcDbEntity
8
0
100
AcDbBlockBegin
2
*Paper_Space
70
0
10
0
20
0
30
0
3
*Paper_Space
0
ENDBLK
5
1D
100
AcDbEntity
8
0
100
AcDbBlockEnd
0
BLOCK
5
24
100
AcDbEntity
8
0
100
AcDbBlockBegin
2
*Paper_Space0
70
0
10
0
20
0
30
0
3
*Paper_Space0
0
ENDBLK
5
25
100
AcDbEntity
8
0
100
AcDbBlockEnd
0
BLOCK
5
240
100
AcDbEntity
8
0
100
AcDbBlockBegin
2
DimnDraft3D1
70
0
10
0
20
0
30
0
3
DimnDraft3D1
0
MTEXT
5
235
100
AcDbEntity
8
2
62
256
6
ByLayer
370
18
48
1
60
0
100
AcDbMText
10
11.284211
20
25.475025
30
0
210
0
220
0
230
1
1
\W0.6740;25
40
3.5
41
0
44
1.084337
50
0
71
7
72
5
7
iso_b_vert
0
LINE
5
237
100
AcDbEntity
8
2
62
256
6
ByLayer
370
13
48
1
60
0
100
AcDbLine
10
0
20
10
30
0
11
0
21
26.600025
31
0
39
0
210
0
220
0
230
1
0
LINE
5
238
100
AcDbEntity
8
2
62
256
6
ByLayer
370
13
48
1
60
0
100
AcDbLine
10
25
20
-6
30
0
11
25
21
26.600025
31
0
39
0
210
0
220
0
230
1
0
LINE
5
239
100
AcDbEntity
8
2
62
256
6
ByLayer
370
13
48
1
60
0
100
AcDbLine
10
0
20
24.600025
30
0
11
25
21
24.600025
31
0
39
0
210
0
220
0
230
1
0
LINE
5
23A
100
AcDbEntity
8
2
62
256
6
ByLayer
370
13
48
1
60
0
100
AcDbLine
10
0
20
24.600025
30
0
11
3.174998
21
25.018022
31
0
39
0
210
0
220
0
230
1
0
LINE
5
23B
100
AcDbEntity
8
2
62
256
6
ByLayer
370
13
48
1
60
0
100
AcDbLine
10
0
20
24.600025
30
0
11
3.175002
21
24.182028
31
0
39
0
210
0
220
0
230
1
0
LINE
5
23C
100
AcDbEntity
8
2
62
256
6
ByLayer
370
13
48
1
60
0
100
AcDbLine
10
3.174998
20
25.018022
30
0
11
3.175002
21
24.182028
31
0
39
0
210
0
220
0
230
1
0
LINE
5
23D
100
AcDbEntity
8
2
62
256
6
ByLayer
370
13
48
1
60
0
100
AcDbLine
10
25
20
24.600025
30
0
11
21.825002
21
24.182028
31
0
39
0
210
0
220
0
230
1
0
LINE
5
23E
100
AcDbEntity
8
2
62
256
6
ByLayer
370
13
48
1
60
0
100
AcDbLine
10
25
20
24.600025
30
0
11
21.824998
21
25.018022
31
0
39
0
210
0
220
0
230
1
0
LINE
5
23F
100
AcDbEntity
8
2
62
256
6
ByLayer
370
13
48
1
60
0
100
AcDbLine
10
21.825002
20
24.182028
30
0
11
21.824998
21
25.018022
31
0
39
0
210
0
220
0
230
1
0
ENDBLK
5
241
100
AcDbEntity
8
0
100
AcDbBlockEnd
0
BLOCK
5
244
100
AcDbEntity
8
0
100
AcDbBlockBegin
2
_CLOSED
70
0
10
0
20
0
30
0
3
_CLOSED
0
LINE
5
246
100
AcDbEntity
8
0
62
256
6
ByLayer
370
-2
48
1
60
0
100
AcDbLine
10
-1
20
0.166667
30
0
11
0
21
0
31
0
39
0
210
0
220
0
230
1
0
LINE
5
247
100
AcDbEntity
8
0
62
256
6
ByLayer
370
-2
48
1
60
0
100
AcDbLine
10
0
20
0
30
0
11
-1
21
-0.166667
31
0
39
0
210
0
220
0
230
1
0
LINE
5
248
100
AcDbEntity
8
0
62
256
6
ByLayer
370
-2
48
1
60
0
100
AcDbLine
10
-1
20
0.166667
30
0
11
-1
21
-0.166667
31
0
39
0
210
0
220
0
230
1
0
LINE
5
249
100
AcDbEntity
8
0
62
256
6
ByLayer
370
-2
48
1
60
0
100
AcDbLine
10
0
20
0
30
0
11
-1
21
0
31
0
39
0
210
0
220
0
230
1
0
ENDBLK
5
245
100
AcDbEntity
8
0
100
AcDbBlockEnd
0
BLOCK
5
255
100
AcDbEntity
8
0
100
AcDbBlockBegin
2
DimnDraft3D2
70
0
10
0
20
0
30
0
3
DimnDraft3D2
0
MTEXT
5
24B
100
AcDbEntity
8
SK2
62
256
6
ByLayer
370
18
48
1
60
0
100
AcDbMText
10
-43.384868
20
-20.233569
30
0
210
0
220
0
230
1
1
\W0.5404;3
40
3.5
41
0
44
1.084337
50
0
71
7
72
5
7
iso_b_vert
0
LINE
5
24C
100
AcDbEntity
8
SK2
62
256
6
ByLayer
370
13
48
1
60
0
100
AcDbLine
10
-45
20
6
30
0
11
-45
21
-23.108569
31
0
39
0
210
0
220
0
230
1
0
LINE
5
24D
100
AcDbEntity
8
SK2
62
256
6
ByLayer
370
13
48
1
60
0
100
AcDbLine
10
-42
20
-10
30
0
11
-42
21
-23.108569
31
0
39
0
210
0
220
0
230
1
0
LINE
5
24E
100
AcDbEntity
8
SK2
62
256
6
ByLayer
370
13
48
1
60
0
100
AcDbLine
10
-53.75
20
-21.108569
30
0
11
-33.25
21
-21.108569
31
0
39
0
210
0
220
0
230
1
0
LINE
5
24F
100
AcDbEntity
8
SK2
62
256
6
ByLayer
370
13
48
1
60
0
100
AcDbLine
10
-45
20
-21.108569
30
0
11
-48.174998
21
-21.526566
31
0
39
0
210
0
220
0
230
1
0
LINE
5
250
100
AcDbEntity
8
SK2
62
256
6
ByLayer
370
13
48
1
60
0
100
AcDbLine
10
-45
20
-21.108569
30
0
11
-48.175002
21
-20.690573
31
0
39
0
210
0
220
0
230
1
0
LINE
5
251
100
AcDbEntity
8
SK2
62
256
6
ByLayer
370
13
48
1
60
0
100
AcDbLine
10
-48.174998
20
-21.526566
30
0
11
-48.175002
21
-20.690573
31
0
39
0
210
0
220
0
230
1
0
LINE
5
252
100
AcDbEntity
8
SK2
62
256
6
ByLayer
370
13
48
1
60
0
100
AcDbLine
10
-42
20
-21.108569
30
0
11
-38.825002
21
-20.690573
31
0
39
0
210
0
220
0
230
1
0
LINE
5
253
100
AcDbEntity
8
SK2
62
256
6
ByLayer
370
13
48
1
60
0
100
AcDbLine
10
-42
20
-21.108569
30
0
11
-38.824998
21
-21.526566
31
0
39
0
210
0
220
0
230
1
0
LINE
5
254
100
AcDbEntity
8
SK2
62
256
6
ByLayer
370
13
48
1
60
0
100
AcDbLine
10
-38.825002
20
-20.690573
30
0
11
-38.824998
21
-21.526566
31
0
39
0
210
0
220
0
230
1
0
ENDBLK
5
256
100
AcDbEntity
8
0
100
AcDbBlockEnd
0
BLOCK
5
263
100
AcDbEntity
8
0
100
AcDbBlockBegin
2
DimnDraft3D3
70
0
10
0
20
0
30
0
3
DimnDraft3D3
0
MTEXT
5
259
100
AcDbEntity
8
SK2
62
256
6
ByLayer
370
18
48
1
60
0
100
AcDbMText
10
-11.215789
20
31.475025
30
0
210
0
220
0
230
1
1
\W0.6740;70
40
3.5
41
0
44
1.084337
50
0
71
7
72
5
7
iso_b_vert
0
LINE
5
25A
100
AcDbEntity
8
SK2
62
256
6
ByLayer
370
13
48
1
60
0
100
AcDbLine
10
-45
20
10
30
0
11
-45
21
32.600025
31
0
39
0
210
0
220
0
230
1
0
LINE
5
25B
100
AcDbEntity
8
SK2
62
256
6
ByLayer
370
13
48
1
60
0
100
AcDbLine
10
25
20
-6
30
0
11
25
21
32.600025
31
0
39
0
210
0
220
0
230
1
0
LINE
5
25C
100
AcDbEntity
8
SK2
62
256
6
ByLayer
370
13
48
1
60
0
100
AcDbLine
10
-45
20
30.600025
30
0
11
25
21
30.600025
31
0
39
0
210
0
220
0
230
1
0
LINE
5
25D
100
AcDbEntity
8
SK2
62
256
6
ByLayer
370
13
48
1
60
0
100
AcDbLine
10
-45
20
30.600025
30
0
11
-41.825002
21
31.018022
31
0
39
0
210
0
220
0
230
1
0
LINE
5
25E
100
AcDbEntity
8
SK2
62
256
6
ByLayer
370
13
48
1
60
0
100
AcDbLine
10
-45
20
30.600025
30
0
11
-41.824998
21
30.182028
31
0
39
0
210
0
220
0
230
1
0
LINE
5
25F
100
AcDbEntity
8
SK2
62
256
6
ByLayer
370
13
48
1
60
0
100
AcDbLine
10
-41.825002
20
31.018022
30
0
11
-41.824998
21
30.182028
31
0
39
0
210
0
220
0
230
1
0
LINE
5
260
100
AcDbEntity
8
SK2
62
256
6
ByLayer
370
13
48
1
60
0
100
AcDbLine
10
25
20
30.600025
30
0
11
21.825002
21
30.182028
31
0
39
0
210
0
220
0
230
1
0
LINE
5
261
100
AcDbEntity
8
SK2
62
256
6
ByLayer
370
13
48
1
60
0
100
AcDbLine
10
25
20
30.600025
30
0
11
21.824998
21
31.018022
31
0
39
0
210
0
220
0
230
1
0
LINE
5
262
100
AcDbEntity
8
SK2
62
256
6
ByLayer
370
13
48
1
60
0
100
AcDbLine
10
21.825002
20
30.182028
30
0
11
21.824998
21
31.018022
31
0
39
0
210
0
220
0
230
1
0
ENDBLK
5
264
100
AcDbEntity
8
0
100
AcDbBlockEnd
0
BLOCK
5
271
100
AcDbEntity
8
0
100
AcDbBlockBegin
2
DimnDraft3D4
70
0
10
0
20
0
30
0
3
DimnDraft3D4
0
MTEXT
5
267
100
AcDbEntity
8
2
62
256
6
ByLayer
370
18
48
1
60
0
100
AcDbMText
10
16.221711
20
-20.233569
30
0
210
0
220
0
230
1
1
\W0.5321;16
40
3.5
41
0
44
1.084337
50
0
71
7
72
5
7
iso_b_vert
0
LINE
5
268
100
AcDbEntity
8
2
62
256
6
ByLayer
370
13
48
1
60
0
100
AcDbLine
10
25
20
-10
30
0
11
25
21
-23.108569
31
0
39
0
210
0
220
0
230
1
0
LINE
5
269
100
AcDbEntity
8
2
62
256
6
ByLayer
370
13
48
1
60
0
100
AcDbLine
10
9
20
-10
30
0
11
9
21
-23.108569
31
0
39
0
210
0
220
0
230
1
0
LINE
5
26A
100
AcDbEntity
8
2
62
256
6
ByLayer
370
13
48
1
60
0
100
AcDbLine
10
25
20
-21.108569
30
0
11
9
21
-21.108569
31
0
39
0
210
0
220
0
230
1
0
LINE
5
26B
100
AcDbEntity
8
2
62
256
6
ByLayer
370
13
48
1
60
0
100
AcDbLine
10
25
20
-21.108569
30
0
11
21.825002
21
-21.526566
31
0
39
0
210
0
220
0
230
1
0
LINE
5
26C
100
AcDbEntity
8
2
62
256
6
ByLayer
370
13
48
1
60
0
100
AcDbLine
10
25
20
-21.108569
30
0
11
21.824998
21
-20.690573
31
0
39
0
210
0
220
0
230
1
0
LINE
5
26D
100
AcDbEntity
8
2
62
256
6
ByLayer
370
13
48
1
60
0
100
AcDbLine
10
21.825002
20
-21.526566
30
0
11
21.824998
21
-20.690573
31
0
39
0
210
0
220
0
230
1
0
LINE
5
26E
100
AcDbEntity
8
2
62
256
6
ByLayer
370
13
48
1
60
0
100
AcDbLine
10
9
20
-21.108569
30
0
11
12.174998
21
-20.690573
31
0
39
0
210
0
220
0
230
1
0
LINE
5
26F
100
AcDbEntity
8
2
62
256
6
ByLayer
370
13
48
1
60
0
100
AcDbLine
10
9
20
-21.108569
30
0
11
12.175002
21
-21.526566
31
0
39
0
210
0
220
0
230
1
0
LINE
5
270
100
AcDbEntity
8
2
62
256
6
ByLayer
370
13
48
1
60
0
100
AcDbLine
10
12.174998
20
-20.690573
30
0
11
12.175002
21
-21.526566
31
0
39
0
210
0
220
0
230
1
0
ENDBLK
5
272
100
AcDbEntity
8
0
100
AcDbBlockEnd
0
BLOCK
5
27F
100
AcDbEntity
8
0
100
AcDbBlockBegin
2
DimnDraft3D5
70
0
10
0
20
0
30
0
3
DimnDraft3D5
0
MTEXT
5
275
100
AcDbEntity
8
2
62
256
6
ByLayer
370
18
48
1
60
0
100
AcDbMText
10
49.225
20
-0.778289
30
0
210
0
220
0
230
1
1
\W0.5321;16
40
3.5
41
0
44
1.084337
50
90
71
7
72
5
7
iso_b_vert
0
LINE
5
276
100
AcDbEntity
8
2
62
256
6
ByLayer
370
13
48
1
60
0
100
AcDbLine
10
2
20
8
30
0
11
52.1
21
8
31
0
39
0
210
0
220
0
230
1
0
LINE
5
277
100
AcDbEntity
8
2
62
256
6
ByLayer
370
13
48
1
60
0
100
AcDbLine
10
27
20
-8
30
0
11
52.1
21
-8
31
0
39
0
210
0
220
0
230
1
0
LINE
5
278
100
AcDbEntity
8
2
62
256
6
ByLayer
370
13
48
1
60
0
100
AcDbLine
10
50.1
20
8
30
0
11
50.1
21
-8
31
0
39
0
210
0
220
0
230
1
0
LINE
5
279
100
AcDbEntity
8
2
62
256
6
ByLayer
370
13
48
1
60
0
100
AcDbLine
10
50.1
20
8
30
0
11
50.517997
21
4.825002
31
0
39
0
210
0
220
0
230
1
0
LINE
5
27A
100
AcDbEntity
8
2
62
256
6
ByLayer
370
13
48
1
60
0
100
AcDbLine
10
50.1
20
8
30
0
11
49.682003
21
4.824998
31
0
39
0
210
0
220
0
230
1
0
LINE
5
27B
100
AcDbEntity
8
2
62
256
6
ByLayer
370
13
48
1
60
0
100
AcDbLine
10
50.517997
20
4.825002
30
0
11
49.682003
21
4.824998
31
0
39
0
210
0
220
0
230
1
0
LINE
5
27C
100
AcDbEntity
8
2
62
256
6
ByLayer
370
13
48
1
60
0
100
AcDbLine
10
50.1
20
-8
30
0
11
49.682003
21
-4.825002
31
0
39
0
210
0
220
0
230
1
0
LINE
5
27D
100
AcDbEntity
8
2
62
256
6
ByLayer
370
13
48
1
60
0
100
AcDbLine
10
50.1
20
-8
30
0
11
50.517997
21
-4.824998
31
0
39
0
210
0
220
0
230
1
0
LINE
5
27E
100
AcDbEntity
8
2
62
256
6
ByLayer
370
13
48
1
60
0
100
AcDbLine
10
49.682003
20
-4.825002
30
0
11
50.517997
21
-4.824998
31
0
39
0
210
0
220
0
230
1
0
ENDBLK
5
280
100
AcDbEntity
8
0
100
AcDbBlockEnd
0
BLOCK
5
28D
100
AcDbEntity
8
0
100
AcDbBlockBegin
2
DimnDraft3D6
70
0
10
0
20
0
30
0
3
DimnDraft3D6
0
MTEXT
5
283
100
AcDbEntity
8
2
62
256
6
ByLayer
370
18
48
1
60
0
100
AcDbMText
10
42.225
20
-18.945789
30
0
210
0
220
0
230
1
1
\W0.5404;3
40
3.5
41
0
44
1.084337
50
90
71
7
72
5
7
iso_b_vert
0
LINE
5
284
100
AcDbEntity
8
2
62
256
6
ByLayer
370
13
48
1
60
0
100
AcDbLine
10
27
20
-8
30
0
11
45.1
21
-8
31
0
39
0
210
0
220
0
230
1
0
LINE
5
285
100
AcDbEntity
8
2
62
256
6
ByLayer
370
13
48
1
60
0
100
AcDbLine
10
27
20
-5
30
0
11
45.1
21
-5
31
0
39
0
210
0
220
0
230
1
0
LINE
5
286
100
AcDbEntity
8
2
62
256
6
ByLayer
370
13
48
1
60
0
100
AcDbLine
10
43.1
20
3.75
30
0
11
43.1
21
-19.820789
31
0
39
0
210
0
220
0
230
1
0
LINE
5
287
100
AcDbEntity
8
2
62
256
6
ByLayer
370
13
48
1
60
0
100
AcDbLine
10
43.1
20
-8
30
0
11
43.517997
21
-11.174998
31
0
39
0
210
0
220
0
230
1
0
LINE
5
288
100
AcDbEntity
8
2
62
256
6
ByLayer
370
13
48
1
60
0
100
AcDbLine
10
43.1
20
-8
30
0
11
42.682003
21
-11.175002
31
0
39
0
210
0
220
0
230
1
0
LINE
5
289
100
AcDbEntity
8
2
62
256
6
ByLayer
370
13
48
1
60
0
100
AcDbLine
10
43.517997
20
-11.174998
30
0
11
42.682003
21
-11.175002
31
0
39
0
210
0
220
0
230
1
0
LINE
5
28A
100
AcDbEntity
8
2
62
256
6
ByLayer
370
13
48
1
60
0
100
AcDbLine
10
43.1
20
-5
30
0
11
42.682003
21
-1.825002
31
0
39
0
210
0
220
0
230
1
0
LINE
5
28B
100
AcDbEntity
8
2
62
256
6
ByLayer
370
13
48
1
60
0
100
AcDbLine
10
43.1
20
-5
30
0
11
43.517997
21
-1.824998
31
0
39
0
210
0
220
0
230
1
0
LINE
5
28C
100
AcDbEntity
8
2
62
256
6
ByLayer
370
13
48
1
60
0
100
AcDbLine
10
42.682003
20
-1.825002
30
0
11
43.517997
21
-1.824998
31
0
39
0
210
0
220
0
230
1
0
ENDBLK
5
28E
100
AcDbEntity
8
0
100
AcDbBlockEnd
0
ENDSEC
0
SECTION
2
ENTITIES
0
ARC
5
13E
100
AcDbEntity
8
1
62
256
6
ByLayer
370
18
48
1
60
0
100
AcDbCircle
39
0
10
2.7
20
-4.325
30
0
40
1
210
0
220
0
230
1
100
AcDbArc
50
180
51
270
0
ARC
5
13F
100
AcDbEntity
8
SK1
62
256
6
ByLayer
370
18
48
1
60
0
100
AcDbCircle
39
0
10
-1
20
-8.675
30
0
40
1
210
0
220
0
230
1
100
AcDbArc
50
90
51
131.409622
0
ARC
5
140
100
AcDbEntity
8
1
62
256
6
ByLayer
370
18
48
1
60
0
100
AcDbCircle
39
0
10
15.2
20
-7.55
30
0
40
0.2
210
0
220
0
230
1
100
AcDbArc
50
218.681386
51
240
0
ARC
5
141
100
AcDbEntity
8
1
62
256
6
ByLayer
370
18
48
1
60
0
100
AcDbCircle
39
0
10
15.2
20
-5.45
30
0
40
0.2
210
0
220
0
230
1
100
AcDbArc
50
120
51
141.318614
0
ARC
5
142
100
AcDbEntity
8
1
62
256
6
ByLayer
370
18
48
1
60
0
100
AcDbCircle
39
0
10
2.7
20
-4.325
30
0
40
1
210
0
220
0
230
1
100
AcDbArc
50
180
51
270
0
ARC
5
143
100
AcDbEntity
8
1
62
256
6
ByLayer
370
18
48
1
60
0
100
AcDbCircle
39
0
10
-1
20
-8.675
30
0
40
1
210
0
220
0
230
1
100
AcDbArc
50
90
51
131.409622
0
ELLIPSE
5
144
100
AcDbEntity
8
1
62
256
6
ByLayer
370
18
48
1
60
0
100
AcDbEllipse
10
19.782033
20
-6.5
30
0
11
1.28358760011042
21
1.29724375929103E-15
31
0
210
0
220
0
230
-1
40
0.46744
41
1.05457302640846
42
-1.05457302640849
0
ELLIPSE
5
145
100
AcDbEntity
8
1
62
256
6
ByLayer
370
18
48
1
60
0
100
AcDbEllipse
10
20.441428
20
-6.5
30
0
11
-3.67381906146713E-17
21
0.599999999999999
31
0
210
0
220
0
230
-1
40
0.087172
41
-2.62536935320336
42
-0.516223300386435
0
ELLIPSE
5
146
100
AcDbEntity
8
1
62
256
6
ByLayer
370
13
48
1
60
0
100
AcDbEllipse
10
24.37413
20
-6.5
30
0
11
-7.38495814331257
21
9.04366666501288E-16
31
0
210
0
220
0
230
1
40
0.121869
41
1.16456723893879
42
1.18682389135614
0
ELLIPSE
5
147
100
AcDbEntity
8
1
62
256
6
ByLayer
370
13
48
1
60
0
100
AcDbEllipse
10
24.37413
20
-6.5
30
0
11
-7.38495814331257
21
9.04366666501288E-16
31
0
210
0
220
0
230
1
40
0.121869
41
-1.18682389135614
42
-1.16456723893881
0
ELLIPSE
5
148
100
AcDbEntity
8
1
62
256
6
ByLayer
370
13
48
1
60
0
100
AcDbEllipse
10
23.458781
20
-7.681166
30
0
11
0.0322705528359686
21
0.237820544570188
31
0
210
0
220
0
230
1
40
0.009402
41
0.684082575272994
42
1.50161815253496
0
ELLIPSE
5
149
100
AcDbEntity
8
1
62
256
6
ByLayer
370
13
48
1
60
0
100
AcDbEllipse
10
22.228622
20
-7.559701
30
0
11
-0.0129780832447762
21
0.239648845929397
31
0
210
0
220
0
230
1
40
0.707925
41
-1.55967335367816
42
-0.878821726711987
0
ELLIPSE
5
14A
100
AcDbEntity
8
1
62
256
6
ByLayer
370
13
48
1
60
0
100
AcDbEllipse
10
23.458781
20
-5.318834
30
0
11
0.0322705528359684
21
-0.237820544570188
31
0
210
0
220
0
230
1
40
0.009402
41
-1.50161815253496
42
-0.684082575262879
0
ELLIPSE
5
14B
100
AcDbEntity
8
1
62
256
6
ByLayer
370
13
48
1
60
0
100
AcDbEllipse
10
22.228622
20
-5.440299
30
0
11
-0.0129780832447759
21
-0.239648845929397
31
0
210
0
220
0
230
1
40
0.707925
41
0.878821726711947
42
1.55967335367816
0
ELLIPSE
5
14C
100
AcDbEntity
8
1
62
256
6
ByLayer
370
13
48
1
60
0
100
AcDbEllipse
10
24.37413
20
-6.5
30
0
11
7.34839645866455
21
-4.55728434302781E-08
31
0
210
0
220
0
230
-1
40
0.08165
41
1.95476872159131
42
2.00162045613567
0
ELLIPSE
5
14D
100
AcDbEntity
8
1
62
256
6
ByLayer
370
13
48
1
60
0
100
AcDbEllipse
10
21.986644
20
-6.5
30
0
11
1.63150680860542
21
2.83600419126772E-10
31
0
210
0
220
0
230
-1
40
0.367758
41
-2.17407423384075
42
-2.00162049161245
0
ELLIPSE
5
14E
100
AcDbEntity
8
1
62
256
6
ByLayer
370
13
48
1
60
0
100
AcDbEllipse
10
24.374131
20
-6.5
30
0
11
7.34839812375715
21
-4.03980055069498E-08
31
0
210
0
220
0
230
-1
40
0.08165
41
-2.00162052344294
42
-1.95476879808211
0
ELLIPSE
5
14F
100
AcDbEntity
8
1
62
256
6
ByLayer
370
13
48
1
60
0
100
AcDbEllipse
10
21.986644
20
-6.5
30
0
11
1.63150680778335
21
-5.27920321450663E-10
31
0
210
0
220
0
230
-1
40
0.367758
41
2.00162049133876
42
2.17407423363444
0
ELLIPSE
5
150
100
AcDbEntity
8
1
62
256
6
ByLayer
370
13
48
1
60
0
100
AcDbEllipse
10
22.123829
20
-5.438617
30
0
11
0.1082392992065
21
0.214206101937563
31
0
210
0
220
0
230
1
40
0.678671
41
-1.84879976311945
42
-1.29279293091365
0
ELLIPSE
5
151
100
AcDbEntity
8
1
62
256
6
ByLayer
370
13
48
1
60
0
100
AcDbEllipse
10
22.123829
20
-7.561383
30
0
11
0.1082392992065
21
-0.214206101937563
31
0
210
0
220
0
230
1
40
0.678671
41
1.29279293091362
42
1.84879976311951
0
ELLIPSE
5
152
100
AcDbEntity
8
1
62
256
6
ByLayer
370
13
48
1
60
0
100
AcDbEllipse
10
21.859452
20
-7.321836
30
0
11
0.219354463278089
21
0.119931728245622
31
0
210
0
220
0
230
1
40
0.441633
41
0.600579851753485
42
1.30662817391549
0
ELLIPSE
5
153
100
AcDbEntity
8
1
62
256
6
ByLayer
370
13
48
1
60
0
100
AcDbEllipse
10
21.859452
20
-5.678164
30
0
11
-0.219354463278086
21
0.119931728245626
31
0
210
0
220
0
230
1
40
0.441633
41
1.83496447967432
42
2.5410128018364
0
ELLIPSE
5
154
100
AcDbEntity
8
1
62
256
6
ByLayer
370
13
48
1
60
0
100
AcDbEllipse
10
21.295115
20
-7.226897
30
0
11
-0.0433548151255266
21
-0.195244359727577
31
0
210
0
220
0
230
1
40
0.334809
41
-2.68611088405471
42
-1.49658713340604
0
ELLIPSE
5
155
100
AcDbEntity
8
1
62
256
6
ByLayer
370
13
48
1
60
0
100
AcDbEllipse
10
21.295115
20
-5.773103
30
0
11
-0.0433548151255279
21
0.195244359727577
31
0
210
0
220
0
230
1
40
0.334809
41
1.49658713340601
42
2.68611088405481
0
ELLIPSE
5
156
100
AcDbEntity
8
1
62
256
6
ByLayer
370
13
48
1
60
0
100
AcDbEllipse
10
21.91824
20
-6.5
30
0
11
1.65588067818906
21
1.67349768393413E-15
31
0
210
0
220
0
230
-1
40
0.483127
41
2.00162049192569
42
2.17407423407718
0
ELLIPSE
5
157
100
AcDbEntity
8
1
62
256
6
ByLayer
370
13
48
1
60
0
100
AcDbEllipse
10
21.91824
20
-6.5
30
0
11
1.65588067652675
21
7.50563956717669E-10
31
0
210
0
220
0
230
-1
40
0.483127
41
-2.17407423356559
42
-2.00162049127438
0
ELLIPSE
5
158
100
AcDbEntity
8
1
62
256
6
ByLayer
370
13
48
1
60
0
100
AcDbEllipse
10
22.125564
20
-5.438978
30
0
11
0.00742724597932567
21
-0.239885047506431
31
0
210
0
220
0
230
1
40
0.70617
41
0.846393084122536
42
1.49951821957463
0
ELLIPSE
5
159
100
AcDbEntity
8
1
62
256
6
ByLayer
370
13
48
1
60
0
100
AcDbEllipse
10
22.125564
20
-7.561022
30
0
11
0.00742724597932589
21
0.239885047506431
31
0
210
0
220
0
230
1
40
0.70617
41
-1.49951821957461
42
-0.846393084122475
0
ELLIPSE
5
15A
100
AcDbEntity
8
1
62
256
6
ByLayer
370
13
48
1
60
0
100
AcDbEllipse
10
21.047188
20
-7.158784
30
0
11
-0.0631638165780187
21
-0.189763885592856
31
0
210
0
220
0
230
1
40
0.326425
41
-2.50339446299653
42
-1.46256868006916
0
ELLIPSE
5
15B
100
AcDbEntity
8
1
62
256
6
ByLayer
370
13
48
1
60
0
100
AcDbEllipse
10
21.047188
20
-5.841216
30
0
11
-0.0631638165785347
21
0.189763885592684
31
0
210
0
220
0
230
1
40
0.326425
41
1.46256868006821
42
2.50339446299218
0
ELLIPSE
5
15C
100
AcDbEntity
8
1
62
256
6
ByLayer
370
13
48
1
60
0
100
AcDbEllipse
10
21.850683
20
-7.334465
30
0
11
0.195064510201759
21
-0.227925068519783
31
0
210
0
220
0
230
1
40
0.863833
41
1.64869430110509
42
2.31141389753818
0
ELLIPSE
5
15D
100
AcDbEntity
8
1
62
256
6
ByLayer
370
13
48
1
60
0
100
AcDbEllipse
10
21.850683
20
-5.665535
30
0
11
-0.195064510201764
21
-0.227925068519779
31
0
210
0
220
0
230
1
40
0.863833
41
0.830178756051661
42
1.49289835248477
0
ELLIPSE
5
15E
100
AcDbEntity
8
1
62
256
6
ByLayer
370
13
48
1
60
0
100
AcDbEllipse
10
20.950966
20
-7.197967
30
0
11
0.182866340278506
21
-0.0809932194269721
31
0
210
0
220
0
230
1
40
0.14582
41
-2.77286095187722
42
-1.88885149068666
0
ELLIPSE
5
15F
100
AcDbEntity
8
1
62
256
6
ByLayer
370
13
48
1
60
0
100
AcDbEllipse
10
20.950966
20
-5.802033
30
0
11
0.182866340278443
21
0.0809932194271139
31
0
210
0
220
0
230
1
40
0.14582
41
1.88885149068647
42
2.7728609518751
0
ELLIPSE
5
160
100
AcDbEntity
8
1
62
256
6
ByLayer
370
13
48
1
60
0
100
AcDbEllipse
10
21.902412
20
-5.793067
30
0
11
-0.299757884748935
21
0.0120503332254432
31
0
210
0
220
0
230
1
40
0.786325
41
1.67791435062295
42
2.25220990045418
0
ELLIPSE
5
161
100
AcDbEntity
8
1
62
256
6
ByLayer
370
13
48
1
60
0
100
AcDbEllipse
10
21.902412
20
-7.206933
30
0
11
0.299757884748933
21
0.0120503332254948
31
0
210
0
220
0
230
1
40
0.786325
41
0.88938275313549
42
1.4636783029667
0
ELLIPSE
5
162
100
AcDbEntity
8
1
62
256
6
ByLayer
370
13
48
1
60
0
100
AcDbEllipse
10
17.308132
20
-7.769586
30
0
11
0.979582052654586
21
0.301726209270758
31
0
210
0
220
0
230
-1
40
0.270086
41
-2.24185105463813
42
-2.0527307452698
0
ELLIPSE
5
163
100
AcDbEntity
8
1
62
256
6
ByLayer
370
13
48
1
60
0
100
AcDbEllipse
10
20.692326
20
-5.374098
30
0
11
0.0570319130279923
21
-0.138734858259803
31
0
210
0
220
0
230
1
40
0.776494
41
-1.87977830526731
42
-1.56980601158798
0
ELLIPSE
5
164
100
AcDbEntity
8
1
62
256
6
ByLayer
370
13
48
1
60
0
100
AcDbEllipse
10
20.692326
20
-7.625902
30
0
11
-0.0570319130268966
21
-0.138734858260253
31
0
210
0
220
0
230
1
40
0.776494
41
-1.5717866420083
42
-1.26181434832864
0
ELLIPSE
5
165
100
AcDbEntity
8
1
62
256
6
ByLayer
370
13
48
1
60
0
100
AcDbEllipse
10
21.08147
20
-6.979243
30
0
11
-0.105329348464612
21
0.280901634655301
31
0
210
0
220
0
230
1
40
0.319781
41
-1.09012327608123
42
-0.203695114399896
0
ELLIPSE
5
166
100
AcDbEntity
8
1
62
256
6
ByLayer
370
13
48
1
60
0
100
AcDbEllipse
10
21.08147
20
-6.020757
30
0
11
-0.105329348464631
21
-0.280901634655294
31
0
210
0
220
0
230
1
40
0.319781
41
0.203695114400141
42
1.09012327608119
0
ELLIPSE
5
167
100
AcDbEntity
8
1
62
256
6
ByLayer
370
13
48
1
60
0
100
AcDbEllipse
10
22.009329
20
-6.788572
30
0
11
-0.263738087060282
21
0.142976296755033
31
0
210
0
220
0
230
1
40
0.337339
41
-2.12742665195262
42
-1.51944467242793
0
ELLIPSE
5
168
100
AcDbEntity
8
1
62
256
6
ByLayer
370
13
48
1
60
0
100
AcDbEllipse
10
22.009329
20
-6.211428
30
0
11
-0.26373808706239
21
-0.142976296751144
31
0
210
0
220
0
230
1
40
0.337339
41
1.51944467242556
42
2.12742665190398
0
ELLIPSE
5
169
100
AcDbEntity
8
1
62
256
6
ByLayer
370
13
48
1
60
0
100
AcDbEllipse
10
20.689927
20
-7.625438
30
0
11
4.24912383924225E-17
21
0.15
31
0
210
0
220
0
230
1
40
0.795546
41
1.23482044578595
42
1.5707963267949
0
ELLIPSE
5
16A
100
AcDbEntity
8
1
62
256
6
ByLayer
370
13
48
1
60
0
100
AcDbEllipse
10
20.689927
20
-5.374562
30
0
11
4.24912383924225E-17
21
0.15
31
0
210
0
220
0
230
1
40
0.795546
41
1.5707963267949
42
1.90677220780379
0
ELLIPSE
5
16B
100
AcDbEntity
8
1
62
256
6
ByLayer
370
13
48
1
60
0
100
AcDbEllipse
10
17.308132
20
-7.769586
30
0
11
0.998914191710556
21
0.226032306474965
31
0
210
0
220
0
230
-1
40
0.206112
41
-2.24548541566889
42
-1.99506909479917
0
ELLIPSE
5
16C
100
AcDbEntity
8
1
62
256
6
ByLayer
370
13
48
1
60
0
100
AcDbEllipse
10
20.433293
20
-7.625438
30
0
11
-2.75536429610035E-17
21
-0.15
31
0
210
0
220
0
230
1
40
0.34202
41
-1.75278811305915
42
-1.57079632679492
0
ELLIPSE
5
16D
100
AcDbEntity
8
1
62
256
6
ByLayer
370
13
48
1
60
0
100
AcDbEllipse
10
20.433293
20
-5.374562
30
0
11
4.24912383924225E-17
21
0.15
31
0
210
0
220
0
230
1
40
0.34202
41
1.57079632679492
42
1.75278811305915
0
ELLIPSE
5
16E
100
AcDbEntity
8
1
62
256
6
ByLayer
370
13
48
1
60
0
100
AcDbEllipse
10
20.939982
20
-6.066549
30
0
11
-0.0205626710087509
21
-0.198940133107892
31
0
210
0
220
0
230
1
40
0.702979
41
-1.1086767583908
42
-0.33705954463877
0
ELLIPSE
5
16F
100
AcDbEntity
8
1
62
256
6
ByLayer
370
13
48
1
60
0
100
AcDbEllipse
10
20.939982
20
-6.933451
30
0
11
-0.0205626710087514
21
0.198940133107892
31
0
210
0
220
0
230
1
40
0.702979
41
0.33705954463877
42
1.10867675839074
0
ELLIPSE
5
170
100
AcDbEntity
8
1
62
256
6
ByLayer
370
13
48
1
60
0
100
AcDbEllipse
10
21.072352
20
-6.982663
30
0
11
-0.105403162979924
21
0.280873945452097
31
0
210
0
220
0
230
1
40
0.321796
41
-1.08607437585367
42
-0.204565039389451
0
ELLIPSE
5
171
100
AcDbEntity
8
1
62
256
6
ByLayer
370
13
48
1
60
0
100
AcDbEllipse
10
24.147654
20
-7.691357
30
0
11
-0.00560126668057228
21
0.239934628204378
31
0
210
0
220
0
230
1
40
0.172043
41
0.732097455140825
42
1.49800588930574
0
ELLIPSE
5
172
100
AcDbEntity
8
1
62
256
6
ByLayer
370
13
48
1
60
0
100
AcDbEllipse
10
21.072352
20
-6.017337
30
0
11
0.1054031629799
21
0.280873945452106
31
0
210
0
220
0
230
1
40
0.321796
41
-2.93702761420025
42
-2.05551827773608
0
ELLIPSE
5
173
100
AcDbEntity
8
1
62
256
6
ByLayer
370
13
48
1
60
0
100
AcDbEllipse
10
24.147654
20
-5.308643
30
0
11
-0.00560126668057245
21
-0.239934628204378
31
0
210
0
220
0
230
1
40
0.172043
41
-1.49800588930574
42
-0.732097455141088
0
ELLIPSE
5
174
100
AcDbEntity
8
1
62
256
6
ByLayer
370
13
48
1
60
0
100
AcDbEllipse
10
20.931197
20
-6.933936
30
0
11
5.665498452323E-17
21
0.2
31
0
210
0
220
0
230
1
40
0.803713
41
0.416381924289214
42
1.23482044578601
0
ELLIPSE
5
175
100
AcDbEntity
8
1
62
256
6
ByLayer
370
13
48
1
60
0
100
AcDbEllipse
10
20.931197
20
-6.066064
30
0
11
5.665498452323E-17
21
0.2
31
0
210
0
220
0
230
1
40
0.803713
41
1.90677220780379
42
2.72521072930057
0
ELLIPSE
5
176
100
AcDbEntity
8
1
62
256
6
ByLayer
370
13
48
1
60
0
100
AcDbEllipse
10
20.533999
20
-6.933936
30
0
11
-3.67381906146713E-17
21
-0.2
31
0
210
0
220
0
230
1
40
0.34202
41
-2.72521072930075
42
-1.90677220780381
0
ELLIPSE
5
177
100
AcDbEntity
8
1
62
256
6
ByLayer
370
13
48
1
60
0
100
AcDbEllipse
10
20.533999
20
-6.066064
30
0
11
5.665498452323E-17
21
0.2
31
0
210
0
220
0
230
1
40
0.34202
41
1.90677220780381
42
2.72521072930075
0
ELLIPSE
5
178
100
AcDbEntity
8
1
62
256
6
ByLayer
370
13
48
1
60
0
100
AcDbEllipse
10
17.308132
20
-5.230414
30
0
11
0.998914191578476
21
-0.22603230646445
31
0
210
0
220
0
230
-1
40
0.206112
41
1.99506909475065
42
2.24548541564782
0
ELLIPSE
5
179
100
AcDbEntity
8
1
62
256
6
ByLayer
370
13
48
1
60
0
100
AcDbEllipse
10
24.752853
20
-5.578833
30
0
11
-0.0533981556875966
21
-0.0845496124719871
31
0
210
0
220
0
230
1
40
0.139768
41
0.740023965275513
42
1.57717485146108
0
ELLIPSE
5
17A
100
AcDbEntity
8
1
62
256
6
ByLayer
370
13
48
1
60
0
100
AcDbEllipse
10
24.913527
20
-5.72831
30
0
11
-0.0833341889559589
21
-0.0552757899179427
31
0
210
0
220
0
230
1
40
0.125151
41
1.00888984397409
42
1.63388084261197
0
ELLIPSE
5
17B
100
AcDbEntity
8
1
62
256
6
ByLayer
370
13
48
1
60
0
100
AcDbEllipse
10
24.913527
20
-7.27169
30
0
11
-0.0833341889559589
21
0.0552757899179428
31
0
210
0
220
0
230
1
40
0.125151
41
-1.63388084261229
42
-1.00888984397412
0
ELLIPSE
5
17C
100
AcDbEntity
8
1
62
256
6
ByLayer
370
13
48
1
60
0
100
AcDbEllipse
10
24.752853
20
-7.421167
30
0
11
-0.0533981556875965
21
0.0845496124719871
31
0
210
0
220
0
230
1
40
0.139768
41
-1.57717485146108
42
-0.740023965274802
0
ELLIPSE
5
17D
100
AcDbEntity
8
1
62
256
6
ByLayer
370
13
48
1
60
0
100
AcDbEllipse
10
24.258678
20
-5.910924
30
0
11
0.014829333617164
21
-0.399725019062444
31
0
210
0
220
0
230
1
40
0.406503
41
1.55571667185631
42
2.3359551506748
0
ELLIPSE
5
17E
100
AcDbEntity
8
1
62
256
6
ByLayer
370
13
48
1
60
0
100
AcDbEllipse
10
24.258678
20
-7.089076
30
0
11
0.0148293336171642
21
0.399725019062444
31
0
210
0
220
0
230
1
40
0.406503
41
-2.33595515067486
42
-1.5557166718563
0
ELLIPSE
5
17F
100
AcDbEntity
8
1
62
256
6
ByLayer
370
13
48
1
60
0
100
AcDbEllipse
10
24.620403
20
-7.503257
30
0
11
-0.0518341759381039
21
0.0855173561612945
31
0
210
0
220
0
230
1
40
0.13986
41
-1.57460332353069
42
-0.736311954700208
0
ELLIPSE
5
180
100
AcDbEntity
8
1
62
256
6
ByLayer
370
13
48
1
60
0
100
AcDbEllipse
10
24.523358
20
-7.58063
30
0
11
-0.0777628762498878
21
0.0628723713354654
31
0
210
0
220
0
230
1
40
0.13045
41
-1.62182792903077
42
-1.15581636427915
0
ELLIPSE
5
181
100
AcDbEntity
8
1
62
256
6
ByLayer
370
13
48
1
60
0
100
AcDbEllipse
10
24.523358
20
-5.41937
30
0
11
-0.0777628762498878
21
-0.0628723713354653
31
0
210
0
220
0
230
1
40
0.13045
41
1.15581636427949
42
1.62182792903077
0
ELLIPSE
5
182
100
AcDbEntity
8
1
62
256
6
ByLayer
370
13
48
1
60
0
100
AcDbEllipse
10
24.620403
20
-5.496743
30
0
11
-0.0518341759381039
21
-0.0855173561612945
31
0
210
0
220
0
230
1
40
0.13986
41
0.736311954700208
42
1.57460332353062
0
ELLIPSE
5
183
100
AcDbEntity
8
1
62
256
6
ByLayer
370
13
48
1
60
0
100
AcDbEllipse
10
23.758781
20
-7.695151
30
0
11
-0.00824662055120453
21
0.239858277425409
31
0
210
0
220
0
230
1
40
0.002403
41
-1.5010244491874
42
-0.709373157669197
0
ELLIPSE
5
184
100
AcDbEntity
8
1
62
256
6
ByLayer
370
13
48
1
60
0
100
AcDbEllipse
10
23.758781
20
-5.304849
30
0
11
-0.0082466205512047
21
-0.239858277425409
31
0
210
0
220
0
230
1
40
0.002403
41
0.709373157669168
42
1.5010244491891
0
ELLIPSE
5
185
100
AcDbEntity
8
1
62
256
6
ByLayer
370
13
48
1
60
0
100
AcDbEllipse
10
20.782996
20
-8.580141
30
0
11
-3.67381906146713E-16
21
-2
31
0
210
0
220
0
230
1
40
0.34202
41
-2.79252680319092
42
-2.72521072930059
0
ELLIPSE
5
186
100
AcDbEntity
8
1
62
256
6
ByLayer
370
13
48
1
60
0
100
AcDbEllipse
10
20.782996
20
-4.419859
30
0
11
5.665498452323E-16
21
2
31
0
210
0
220
0
230
1
40
0.34202
41
2.72521072930059
42
2.79252680319092
0
ELLIPSE
5
187
100
AcDbEntity
8
1
62
256
6
ByLayer
370
13
48
1
60
0
100
AcDbEllipse
10
24.935862
20
-7.23707
30
0
11
-0.0846493904271157
21
0.0532398412874958
31
0
210
0
220
0
230
1
40
0.065231
41
-1.67414184501564
42
-1.045779548897
0
ELLIPSE
5
188
100
AcDbEntity
8
1
62
256
6
ByLayer
370
13
48
1
60
0
100
AcDbEllipse
10
24.935862
20
-5.76293
30
0
11
-0.0846493904271157
21
-0.0532398412874957
31
0
210
0
220
0
230
1
40
0.065231
41
1.04577954889826
42
1.67414184501557
0
ELLIPSE
5
189
100
AcDbEntity
8
1
62
256
6
ByLayer
370
13
48
1
60
0
100
AcDbEllipse
10
20.527689
20
-6.5
30
0
11
5.94877337493915E-17
21
0.21
31
0
210
0
220
0
230
1
40
0.34202
41
-2.7925268031909
42
-0.349065850398889
0
ELLIPSE
5
18A
100
AcDbEntity
8
1
62
256
6
ByLayer
370
13
48
1
60
0
100
AcDbEllipse
10
17.308132
20
-5.230414
30
0
11
0.979582052472818
21
-0.301726209252771
31
0
210
0
220
0
230
-1
40
0.270086
41
2.05273074519672
42
2.24185105459201
0
ELLIPSE
5
18B
100
AcDbEntity
8
1
62
256
6
ByLayer
370
18
48
1
60
0
100
AcDbEllipse
10
19.782033
20
-6.5
30
0
11
1.28358760011042
21
1.29724375929103E-15
31
0
210
0
220
0
230
-1
40
0.46744
41
1.05457302640846
42
-1.05457302640849
0
ELLIPSE
5
18C
100
AcDbEntity
8
1
62
256
6
ByLayer
370
18
48
1
60
0
100
AcDbEllipse
10
20.441428
20
-6.5
30
0
11
-3.67381906146713E-17
21
0.599999999999999
31
0
210
0
220
0
230
-1
40
0.087172
41
-2.62536935320336
42
-0.516223300386435
0
ELLIPSE
5
18D
100
AcDbEntity
8
1
62
256
6
ByLayer
370
18
48
1
60
0
100
AcDbEllipse
10
24.506337
20
-7.973303
30
0
11
0.239997044695122
21
-0.0169489929795883
31
0
210
0
220
0
230
-1
40
0.070266
41
1.44395567098463
42
1.73995037637711
0
ELLIPSE
5
18E
100
AcDbEntity
8
1
62
256
6
ByLayer
370
18
48
1
60
0
100
AcDbEllipse
10
25.048748
20
-7.23707
30
0
11
1.1330996904646E-16
21
0.4
31
0
210
0
220
0
230
1
40
0.121869
41
1.5707963267949
42
1.64009079051253
0
ELLIPSE
5
18F
100
AcDbEntity
8
1
62
256
6
ByLayer
370
18
48
1
60
0
100
AcDbEllipse
10
25.048748
20
-5.76293
30
0
11
1.1330996904646E-16
21
0.4
31
0
210
0
220
0
230
1
40
0.121869
41
1.50150186307726
42
1.5707963267949
0
ELLIPSE
5
190
100
AcDbEntity
8
1
62
256
6
ByLayer
370
18
48
1
60
0
100
AcDbEllipse
10
21.542652
20
-5.05
30
0
11
0.201946432116473
21
0
31
0
210
0
220
0
230
1
40
0.990362
41
-1.5707963267949
42
-1.04299365512072
0
ELLIPSE
5
191
100
AcDbEntity
8
1
62
256
6
ByLayer
370
18
48
1
60
0
100
AcDbEllipse
10
22.136306
20
-7.841309
30
0
11
0.251841921996982
21
-0.0177818623393465
31
0
210
0
220
0
230
-1
40
0.06924
41
0.774400198848876
42
1.56101782172889
0
ELLIPSE
5
192
100
AcDbEntity
8
1
62
256
6
ByLayer
370
18
48
1
60
0
100
AcDbEllipse
10
21.553398
20
-7.95
30
0
11
-0.201490790302156
21
2.46746902040712E-17
31
0
210
0
220
0
230
1
40
0.992601
41
-2.09761674342106
42
-1.5707963267949
0
ELLIPSE
5
193
100
AcDbEntity
8
1
62
256
6
ByLayer
370
18
48
1
60
0
100
AcDbEllipse
10
22.136306
20
-5.158691
30
0
11
0.251841921955324
21
0.0177818623344477
31
0
210
0
220
0
230
-1
40
0.06924
41
-1.56101782184355
42
-0.774400198845261
0
ELLIPSE
5
194
100
AcDbEntity
8
1
62
256
6
ByLayer
370
18
48
1
60
0
100
AcDbEllipse
10
24.506337
20
-5.026697
30
0
11
0.239997045112406
21
0.0169489930055943
31
0
210
0
220
0
230
-1
40
0.070266
41
-1.73995037628614
42
-1.44395567141074
0
ELLIPSE
5
195
100
AcDbEntity
8
1
62
256
6
ByLayer
370
18
48
1
60
0
100
AcDbEllipse
10
21.79757
20
-5.365831
30
0
11
0.058624730201206
21
-0.191752852286547
31
0
210
-1.59644179966719E-15
220
4.38574520942052E-19
230
1
40
0.997435
41
2.91526219766619
42
-2.91526219766617
0
ELLIPSE
5
196
100
AcDbEntity
8
1
62
256
6
ByLayer
370
18
48
1
60
0
100
AcDbEllipse
10
21.809275
20
-7.634987
30
0
11
0.00297293931671267
21
0.200467814146891
31
0
210
-1.59612295829283E-15
220
-1.26268957575375E-19
230
1
40
0.997557
41
2.63386280411414
42
3.08674247812915
0
POINT
5
6C
100
AcDbEntity
8
80
62
256
6
ByLayer
370
18
48
1
60
0
100
AcDbPoint
10
0
20
0
30
0
39
0
210
0
220
0
230
1
50
360
0
POINT
5
6E
100
AcDbEntity
8
81
62
256
6
ByLayer
370
18
48
1
60
0
100
AcDbPoint
10
25
20
-8
30
0
39
0
210
0
220
0
230
1
50
360
0
SPLINE
5
197
100
AcDbEntity
8
1
62
256
6
ByLayer
370
18
48
1
60
0
100
AcDbSpline
70
4
71
3
72
12
73
8
40
0
40
0
40
0
40
0
40
0.281692595018195
40
0.281692595018195
40
0.848969977860217
40
0.848969977860217
40
1
40
1
40
1
40
1
41
1
10
23.8659989530459
20
-5.07516485494315
30
0
41
1
10
23.8420735947892
20
-5.03732002847977
30
0
41
1
10
23.8197547657453
20
-4.9955276932161
30
0
41
1
10
23.7590916560366
20
-4.85933592937033
30
0
41
1
10
23.7262507517981
20
-4.75151513155714
30
0
41
1
10
23.6997829633505
20
-4.60615585927215
30
0
41
1
10
23.6949798062705
20
-4.57469416883362
30
0
41
1
10
23.6910399369412
20
-4.54285233900174
30
0
0
SPLINE
5
198
100
AcDbEntity
8
1
62
256
6
ByLayer
370
18
48
1
60
0
100
AcDbSpline
70
4
71
3
72
18
73
14
40
0
40
0
40
0
40
0
40
0.168337478582055
40
0.168337478582055
40
0.336016707803001
40
0.336016707803001
40
0.514139541127745
40
0.514139541127745
40
0.721961373423502
40
0.721961373423502
40
0.99626205313737
40
0.99626205313737
40
1
40
1
40
1
40
1
41
1
10
9.17091285007248
20
-4.32499999999976
30
0
41
1
10
9.17091285007248
20
-4.42262870633633
30
0
41
1
10
9.18103818586118
20
-4.52161744069659
30
0
41
1
10
9.21875888808228
20
-4.70487822447637
30
0
41
1
10
9.24669228729894
20
-4.79164133353226
30
0
41
1
10
9.31700134550874
20
-4.94978008452415
30
0
41
1
10
9.36092578491665
20
-5.02184283668032
30
0
41
1
10
9.46511727369494
20
-5.15174355348714
30
0
41
1
10
9.52808083125552
20
-5.20690503274855
30
0
41
1
10
9.679730224775
20
-5.2981807528127
30
0
41
1
10
9.77259987168449
20
-5.32430199267557
30
0
41
1
10
9.86605702812858
20
-5.32499532977468
30
0
41
1
10
9.86731643984413
20
-5.32499999999976
30
0
41
1
10
9.8685757444978
20
-5.32499999999976
30
0
0
SPLINE
5
199
100
AcDbEntity
8
1
62
256
6
ByLayer
370
18
48
1
60
0
100
AcDbSpline
70
4
71
3
72
8
73
4
40
0
40
0
40
0
40
0
40
1
40
1
40
1
40
1
41
1
10
23.326454033771
20
-4.32499999999976
30
0
41
1
10
23.4475684098963
20
-4.39736991308806
30
0
41
1
10
23.5696320561714
20
-4.470307047017
30
0
41
1
10
23.6910399369413
20
-4.54285233900174
30
0
0
SPLINE
5
19A
100
AcDbEntity
8
1
62
256
6
ByLayer
370
13
48
1
60
0
100
AcDbSpline
70
4
71
3
72
10
73
6
40
0
40
0
40
0
40
0
40
0.664993946719532
40
0.664993946719532
40
1
40
1
40
1
40
1
41
1
10
22.031795236158
20
-7.14873631095736
30
0
41
1
10
22.0544008183665
20
-7.12790972923821
30
0
41
1
10
22.071972629713
20
-7.10206539777391
30
0
41
1
10
22.0836688596485
20
-7.05378934754316
30
0
41
1
10
22.0849134160383
20
-7.03560891555264
30
0
41
1
10
22.0838678419132
20
-7.01627328434716
30
0
0
SPLINE
5
19B
100
AcDbEntity
8
1
62
256
6
ByLayer
370
13
48
1
60
0
100
AcDbSpline
70
4
71
3
72
12
73
8
40
0
40
0
40
0
40
0
40
0.274450233641753
40
0.274450233641753
40
0.728710906931613
40
0.728710906931613
40
1
40
1
40
1
40
1
41
1
10
23.1146869282979
20
-7.31938421983543
30
0
41
1
10
23.0122143236957
20
-7.28890493442637
30
0
41
1
10
22.9094974627491
20
-7.2585576137447
30
0
41
1
10
22.6439453836002
20
-7.18042241402216
30
0
41
1
10
22.4820473482735
20
-7.13312922823658
30
0
41
1
10
22.246079380226
20
-7.06405193177506
30
0
41
1
10
22.1617198878049
20
-7.03948409520461
30
0
41
1
10
22.0838678419132
20
-7.01627328434716
30
0
0
SPLINE
5
19C
100
AcDbEntity
8
1
62
256
6
ByLayer
370
13
48
1
60
0
100
AcDbSpline
70
4
71
3
72
16
73
12
40
0
40
0
40
0
40
0
40
0.0442199247554627
40
0.0442199247554627
40
0.048439955548864
40
0.048439955548864
40
0.216895358525141
40
0.216895358525141
40
0.889245809546153
40
0.889245809546153
40
1
40
1
40
1
40
1
41
1
10
23.8219297662852
20
-7.39129551224909
30
0
41
1
10
23.8113300785451
20
-7.39166524527826
30
0
41
1
10
23.8007291289449
20
-7.39199656770478
30
0
41
1
10
23.7891179461187
20
-7.39240335750679
30
0
41
1
10
23.7881063966876
20
-7.39243892470987
30
0
41
1
10
23.7467182945273
20
-7.39389908341153
30
0
41
1
10
23.7063476610928
20
-7.39579527699601
30
0
41
1
10
23.5067119730518
20
-7.40253871303534
30
0
41
1
10
23.3453726295507
20
-7.38159252540535
30
0
41
1
10
23.1656324617667
20
-7.33411187239912
30
0
41
1
10
23.1400997197492
20
-7.32694295933166
30
0
41
1
10
23.1146869282979
20
-7.31938421983543
30
0
0
SPLINE
5
19D
100
AcDbEntity
8
1
62
256
6
ByLayer
370
13
48
1
60
0
100
AcDbSpline
70
4
71
3
72
12
73
8
40
0
40
0
40
0
40
0
40
0.609383607480292
40
0.609383607480292
40
0.614539779329414
40
0.614539779329414
40
1
40
1
40
1
40
1
41
1
10
24.3656057053218
20
-7.37029373551346
30
0
41
1
10
24.2600213620049
20
-7.37464674766346
30
0
41
1
10
24.1496097970342
20
-7.37897620064172
30
0
41
1
10
24.0373081383667
20
-7.38324771277232
30
0
41
1
10
24.0363601843113
20
-7.38328376790906
30
0
41
1
10
23.9647049543389
20
-7.38600906692429
30
0
41
1
10
23.8932165299023
20
-7.38880892286085
30
0
41
1
10
23.8219297662852
20
-7.39129551224909
30
0
0
SPLINE
5
19E
100
AcDbEntity
8
1
62
256
6
ByLayer
370
13
48
1
60
0
100
AcDbSpline
70
4
71
3
72
12
73
8
40
0
40
0
40
0
40
0
40
0.178891096392299
40
0.178891096392299
40
0.986291642516443
40
0.986291642516443
40
1
40
1
40
1
40
1
41
1
10
24.7213895076228
20
-7.35369877703789
30
0
41
1
10
24.7003115269679
20
-7.35453511808501
30
0
41
1
10
24.6792221384665
20
-7.35537813843496
30
0
41
1
10
24.5629014296376
20
-7.3600668305065
30
0
41
1
10
24.4679540502601
20
-7.36571049280036
30
0
41
1
10
24.3689156735317
20
-7.3701542689347
30
0
41
1
10
24.3672607449414
20
-7.37022550184028
30
0
41
1
10
24.3656057053219
20
-7.37029373551346
30
0
0
SPLINE
5
19F
100
AcDbEntity
8
1
62
256
6
ByLayer
370
13
48
1
60
0
100
AcDbSpline
70
4
71
3
72
8
73
4
40
0
40
0
40
0
40
0
40
1
40
1
40
1
40
1
41
1
10
24.5900286630425
20
-7.43502396633576
30
0
41
1
10
24.634090020669
20
-7.40836099842892
30
0
41
1
10
24.6778395366007
20
-7.38118417988136
30
0
41
1
10
24.7213895076228
20
-7.35369877703789
30
0
0
SPLINE
5
1A0
100
AcDbEntity
8
1
62
256
6
ByLayer
370
13
48
1
60
0
100
AcDbSpline
70
4
71
3
72
8
73
4
40
0
40
0
40
0
40
0
40
1
40
1
40
1
40
1
41
1
10
24.1158957172693
20
-7.5135442121622
30
0
41
1
10
24.2755545267195
20
-7.51302779994421
30
0
41
1
10
24.4354150796997
20
-7.4788350507722
30
0
41
1
10
24.5900286630425
20
-7.43502396633579
30
0
0
SPLINE
5
1A1
100
AcDbEntity
8
1
62
256
6
ByLayer
370
13
48
1
60
0
100
AcDbSpline
70
4
71
3
72
8
73
4
40
0
40
0
40
0
40
0
40
1
40
1
40
1
40
1
41
1
10
23.7528986418119
20
-7.51314053186934
30
0
41
1
10
23.8744062234275
20
-7.50909037630649
30
0
41
1
10
23.9966210532666
20
-7.51393000292617
30
0
41
1
10
24.1158957172706
20
-7.51354421216405
30
0
0
SPLINE
5
1A2
100
AcDbEntity
8
1
62
256
6
ByLayer
370
13
48
1
60
0
100
AcDbSpline
70
4
71
3
72
8
73
4
40
0
40
0
40
0
40
0
40
1
40
1
40
1
40
1
41
1
10
23.4823771357602
20
-7.49666327692205
30
0
41
1
10
23.5716495580756
20
-7.51036485825466
30
0
41
1
10
23.6625883571386
20
-7.5161508024799
30
0
41
1
10
23.7528986418104
20
-7.51314053186977
30
0
0
SPLINE
5
1A3
100
AcDbEntity
8
1
62
256
6
ByLayer
370
13
48
1
60
0
100
AcDbSpline
70
4
71
3
72
14
73
10
40
0
40
0
40
0
40
0
40
0.102691686735347
40
0.102691686735347
40
0.53816841361549
40
0.53816841361549
40
0.926474667639871
40
0.926474667639871
40
1
40
1
40
1
40
1
41
1
10
22.3509720530679
20
-7.39971618844981
30
0
41
1
10
22.380893999408
20
-7.39647330533111
30
0
41
1
10
22.4122711139629
20
-7.39426833866497
30
0
41
1
10
22.5807977171794
20
-7.38758561178835
30
0
41
1
10
22.742161843352
20
-7.3979002391703
30
0
41
1
10
23.0640413220708
20
-7.43246605465421
30
0
41
1
10
23.2272620626367
20
-7.45594504470958
30
0
41
1
10
23.4201021624027
20
-7.48704198800485
30
0
41
1
10
23.4512578164011
20
-7.49188706637278
30
0
41
1
10
23.4823771357602
20
-7.49666327692194
30
0
0
SPLINE
5
1A4
100
AcDbEntity
8
1
62
256
6
ByLayer
370
13
48
1
60
0
100
AcDbSpline
70
4
71
3
72
8
73
4
40
0
40
0
40
0
40
0
40
1
40
1
40
1
40
1
41
1
10
22.2573483090605
20
-7.40598072546752
30
0
41
1
10
22.2886707932501
20
-7.40531437730632
30
0
41
1
10
22.3198681643654
20
-7.40308716821338
30
0
41
1
10
22.3509720530679
20
-7.39971618844981
30
0
0
SPLINE
5
1A5
100
AcDbEntity
8
1
62
256
6
ByLayer
370
13
48
1
60
0
100
AcDbSpline
70
4
71
3
72
10
73
6
40
0
40
0
40
0
40
0
40
0.436659189793396
40
0.436659189793396
40
1
40
1
40
1
40
1
41
1
10
22.0305156049706
20
-7.19372882913754
30
0
41
1
10
22.0626760675876
20
-7.22551322201704
30
0
41
1
10
22.0951835994715
20
-7.25695131329471
30
0
41
1
10
22.1705662077347
20
-7.32796696046441
30
0
41
1
10
22.2138220700955
20
-7.36717453485724
30
0
41
1
10
22.2573483090634
20
-7.40598072546825
30
0
0
SPLINE
5
1A6
100
AcDbEntity
8
1
62
256
6
ByLayer
370
13
48
1
60
0
100
AcDbSpline
70
4
71
3
72
10
73
6
40
0
40
0
40
0
40
0
40
0.73561768390405
40
0.73561768390405
40
1
40
1
40
1
40
1
41
1
10
22.0305156049706
20
-7.19372882913754
30
0
41
1
10
22.0246851208416
20
-7.18796652402273
30
0
41
1
10
22.0191348692197
20
-7.1816539877762
30
0
41
1
10
22.0131625911601
20
-7.17287701107085
30
0
41
1
10
22.0117118978095
20
-7.17049524638622
30
0
41
1
10
22.0104895579181
20
-7.16814594589198
30
0
0
SPLINE
5
1A7
100
AcDbEntity
8
1
62
256
6
ByLayer
370
13
48
1
60
0
100
AcDbSpline
70
4
71
3
72
8
73
4
40
0
40
0
40
0
40
0
40
1
40
1
40
1
40
1
41
1
10
22.0104895579211
20
-7.1681459458886
30
0
41
1
10
22.0176603296031
20
-7.16168335254324
30
0
41
1
10
22.0247646325939
20
-7.1552136243179
30
0
41
1
10
22.031795236158
20
-7.14873631095736
30
0
0
SPLINE
5
1A8
100
AcDbEntity
8
1
62
256
6
ByLayer
370
13
48
1
60
0
100
AcDbSpline
70
4
71
3
72
12
73
8
40
0
40
0
40
0
40
0
40
0.233793069268613
40
0.233793069268613
40
0.849542984529965
40
0.849542984529965
40
1
40
1
40
1
40
1
41
1
10
22.010489557929
20
-5.83185405410364
30
0
41
1
10
22.0115678802707
20
-5.82978155100608
30
0
41
1
10
22.0128235703368
20
-5.827684184861
30
0
41
1
10
22.0177801949082
20
-5.82021082787648
30
0
41
1
10
22.0222297367628
20
-5.81487055525417
30
0
41
1
10
22.0281198492317
20
-5.80867441669031
30
0
41
1
10
22.0293089587678
20
-5.80746370709682
30
0
41
1
10
22.0305156049706
20
-5.80627117086274
30
0
0
SPLINE
5
1A9
100
AcDbEntity
8
1
62
256
6
ByLayer
370
13
48
1
60
0
100
AcDbSpline
70
4
71
3
72
10
73
6
40
0
40
0
40
0
40
0
40
0.436659189793399
40
0.436659189793399
40
1
40
1
40
1
40
1
41
1
10
22.0305156049706
20
-5.80627117086274
30
0
41
1
10
22.0626760675876
20
-5.77448677798324
30
0
41
1
10
22.0951835994715
20
-5.74304868670558
30
0
41
1
10
22.1705662077347
20
-5.67203303953588
30
0
41
1
10
22.2138220700955
20
-5.63282546514304
30
0
41
1
10
22.2573483090634
20
-5.59401927453203
30
0
0
SPLINE
5
1AA
100
AcDbEntity
8
1
62
256
6
ByLayer
370
13
48
1
60
0
100
AcDbSpline
70
4
71
3
72
8
73
4
40
0
40
0
40
0
40
0
40
1
40
1
40
1
40
1
41
1
10
22.2573483090605
20
-5.59401927453274
30
0
41
1
10
22.2886707932501
20
-5.59468562269393
30
0
41
1
10
22.3198681643654
20
-5.59691283178688
30
0
41
1
10
22.3509720530679
20
-5.60028381155047
30
0
0
SPLINE
5
1AB
100
AcDbEntity
8
1
62
256
6
ByLayer
370
13
48
1
60
0
100
AcDbSpline
70
4
71
3
72
14
73
10
40
0
40
0
40
0
40
0
40
0.102691686735347
40
0.102691686735347
40
0.53816841361549
40
0.53816841361549
40
0.926474667639871
40
0.926474667639871
40
1
40
1
40
1
40
1
41
1
10
22.3509720530679
20
-5.60028381155047
30
0
41
1
10
22.380893999408
20
-5.60352669466917
30
0
41
1
10
22.4122711139629
20
-5.60573166133531
30
0
41
1
10
22.5807977171794
20
-5.6124143882119
30
0
41
1
10
22.742161843352
20
-5.60209976082999
30
0
41
1
10
23.0640413220708
20
-5.56753394534607
30
0
41
1
10
23.2272620626367
20
-5.54405495529068
30
0
41
1
10
23.4201021624027
20
-5.51295801199541
30
0
41
1
10
23.4512578164011
20
-5.5081129336275
30
0
41
1
10
23.4823771357602
20
-5.50333672307832
30
0
0
SPLINE
5
1AC
100
AcDbEntity
8
1
62
256
6
ByLayer
370
13
48
1
60
0
100
AcDbSpline
70
4
71
3
72
8
73
4
40
0
40
0
40
0
40
0
40
1
40
1
40
1
40
1
41
1
10
23.4823771357602
20
-5.50333672307821
30
0
41
1
10
23.5716495580756
20
-5.48963514174562
30
0
41
1
10
23.6625883571386
20
-5.48384919752039
30
0
41
1
10
23.7528986418104
20
-5.48685946813052
30
0
0
SPLINE
5
1AD
100
AcDbEntity
8
1
62
256
6
ByLayer
370
13
48
1
60
0
100
AcDbSpline
70
4
71
3
72
8
73
4
40
0
40
0
40
0
40
0
40
1
40
1
40
1
40
1
41
1
10
23.7528986418119
20
-5.48685946813094
30
0
41
1
10
23.8744062234275
20
-5.49090962369377
30
0
41
1
10
23.9966210532666
20
-5.48606999707408
30
0
41
1
10
24.1158957172706
20
-5.48645578783623
30
0
0
SPLINE
5
1AE
100
AcDbEntity
8
1
62
256
6
ByLayer
370
13
48
1
60
0
100
AcDbSpline
70
4
71
3
72
8
73
4
40
0
40
0
40
0
40
0
40
1
40
1
40
1
40
1
41
1
10
24.1158957172693
20
-5.48645578783808
30
0
41
1
10
24.2755545267195
20
-5.48697220005604
30
0
41
1
10
24.4354150796997
20
-5.52116494922808
30
0
41
1
10
24.5900286630425
20
-5.56497603366449
30
0
0
SPLINE
5
1AF
100
AcDbEntity
8
1
62
256
6
ByLayer
370
13
48
1
60
0
100
AcDbSpline
70
4
71
3
72
8
73
4
40
0
40
0
40
0
40
0
40
1
40
1
40
1
40
1
41
1
10
24.5900286630425
20
-5.56497603366449
30
0
41
1
10
24.634090020669
20
-5.59163900157134
30
0
41
1
10
24.6778395366007
20
-5.61881582011893
30
0
41
1
10
24.7213895076228
20
-5.64630122296239
30
0
0
SPLINE
5
1B0
100
AcDbEntity
8
1
62
256
6
ByLayer
370
13
48
1
60
0
100
AcDbSpline
70
4
71
3
72
12
73
8
40
0
40
0
40
0
40
0
40
0.178891096392299
40
0.178891096392299
40
0.986291642516443
40
0.986291642516443
40
1
40
1
40
1
40
1
41
1
10
24.7213895076228
20
-5.64630122296239
30
0
41
1
10
24.7003115269679
20
-5.64546488191525
30
0
41
1
10
24.6792221384665
20
-5.64462186156533
30
0
41
1
10
24.5629014296376
20
-5.63993316949379
30
0
41
1
10
24.4679540502601
20
-5.6342895071999
30
0
41
1
10
24.3689156735317
20
-5.62984573106559
30
0
41
1
10
24.3672607449414
20
-5.62977449815997
30
0
41
1
10
24.3656057053219
20
-5.62970626448683
30
0
0
SPLINE
5
1B1
100
AcDbEntity
8
1
62
256
6
ByLayer
370
13
48
1
60
0
100
AcDbSpline
70
4
71
3
72
12
73
8
40
0
40
0
40
0
40
0
40
0.609383607480292
40
0.609383607480292
40
0.614539779329414
40
0.614539779329414
40
1
40
1
40
1
40
1
41
1
10
24.3656057053218
20
-5.62970626448683
30
0
41
1
10
24.2600213620049
20
-5.62535325233679
30
0
41
1
10
24.1496097970342
20
-5.62102379935857
30
0
41
1
10
24.0373081383667
20
-5.61675228722797
30
0
41
1
10
24.0363601843113
20
-5.61671623209119
30
0
41
1
10
23.9647049543389
20
-5.613990933076
30
0
41
1
10
23.8932165299023
20
-5.61119107713941
30
0
41
1
10
23.8219297662852
20
-5.6087044877512
30
0
0
SPLINE
5
1B2
100
AcDbEntity
8
1
62
256
6
ByLayer
370
13
48
1
60
0
100
AcDbSpline
70
4
71
3
72
16
73
12
40
0
40
0
40
0
40
0
40
0.0442199247554627
40
0.0442199247554627
40
0.048439955548864
40
0.048439955548864
40
0.216895358525141
40
0.216895358525141
40
0.889245809546153
40
0.889245809546153
40
1
40
1
40
1
40
1
41
1
10
23.8219297662852
20
-5.6087044877512
30
0
41
1
10
23.8113300785451
20
-5.60833475472202
30
0
41
1
10
23.8007291289449
20
-5.6080034322955
30
0
41
1
10
23.7891179461187
20
-5.60759664249349
30
0
41
1
10
23.7881063966876
20
-5.60756107529042
30
0
41
1
10
23.7467182945273
20
-5.60610091658873
30
0
41
1
10
23.7063476610928
20
-5.60420472300424
30
0
41
1
10
23.5067119730518
20
-5.59746128696494
30
0
41
1
10
23.3453726295507
20
-5.6184074745949
30
0
41
1
10
23.1656324617667
20
-5.66588812760116
30
0
41
1
10
23.1400997197492
20
-5.67305704066862
30
0
41
1
10
23.1146869282979
20
-5.68061578016483
30
0
0
SPLINE
5
1B3
100
AcDbEntity
8
1
62
256
6
ByLayer
370
13
48
1
60
0
100
AcDbSpline
70
4
71
3
72
12
73
8
40
0
40
0
40
0
40
0
40
0.274450233641753
40
0.274450233641753
40
0.728710906931611
40
0.728710906931611
40
1
40
1
40
1
40
1
41
1
10
23.1146869282979
20
-5.68061578016486
30
0
41
1
10
23.0122143236957
20
-5.71109506557392
30
0
41
1
10
22.9094974627491
20
-5.74144238625559
30
0
41
1
10
22.6439453836002
20
-5.81957758597812
30
0
41
1
10
22.4820473482735
20
-5.86687077176367
30
0
41
1
10
22.246079380226
20
-5.93594806822523
30
0
41
1
10
22.1617198878049
20
-5.96051590479564
30
0
41
1
10
22.0838678419132
20
-5.98372671565312
30
0
0
SPLINE
5
1B4
100
AcDbEntity
8
1
62
256
6
ByLayer
370
13
48
1
60
0
100
AcDbSpline
70
4
71
3
72
10
73
6
40
0
40
0
40
0
40
0
40
0.659159716151023
40
0.659159716151023
40
1
40
1
40
1
40
1
41
1
10
22.0838678419132
20
-5.98372671565309
30
0
41
1
10
22.0859020371366
20
-5.94610867624615
30
0
41
1
10
22.0777349617729
20
-5.91374083617444
30
0
41
1
10
22.0536893544428
20
-5.87422069365547
30
0
41
1
10
22.0434984870353
20
-5.86204592453362
30
0
41
1
10
22.031795236158
20
-5.85126368904292
30
0
0
SPLINE
5
1B5
100
AcDbEntity
8
1
62
256
6
ByLayer
370
13
48
1
60
0
100
AcDbSpline
70
4
71
3
72
8
73
4
40
0
40
0
40
0
40
0
40
1
40
1
40
1
40
1
41
1
10
22.031795236158
20
-5.85126368904292
30
0
41
1
10
22.0247646325939
20
-5.84478637568236
30
0
41
1
10
22.0176603296031
20
-5.83831664745705
30
0
41
1
10
22.0104895579211
20
-5.83185405411166
30
0
0
SPLINE
5
1B6
100
AcDbEntity
8
1
62
256
6
ByLayer
370
13
48
1
60
0
100
AcDbSpline
70
4
71
3
72
8
73
4
40
0
40
0
40
0
40
0
40
1
40
1
40
1
40
1
41
1
10
22.1169741247547
20
-7.5648446992162
30
0
41
1
10
22.0355486668608
20
-7.49544931961611
30
0
41
1
10
21.9571073551695
20
-7.42252054199451
30
0
41
1
10
21.8804455603129
20
-7.34789619534794
30
0
0
SPLINE
5
1B7
100
AcDbEntity
8
1
62
256
6
ByLayer
370
13
48
1
60
0
100
AcDbSpline
70
4
71
3
72
8
73
4
40
0
40
0
40
0
40
0
40
1
40
1
40
1
40
1
41
1
10
22.1169741247547
20
-5.43515530078409
30
0
41
1
10
22.0355486668608
20
-5.50455068038414
30
0
41
1
10
21.9571073551695
20
-5.57747945800577
30
0
41
1
10
21.8804455603128
20
-5.65210380465234
30
0
0
SPLINE
5
1B8
100
AcDbEntity
8
1
62
256
6
ByLayer
370
13
48
1
60
0
100
AcDbSpline
70
4
71
3
72
12
73
8
40
0
40
0
40
0
40
0
40
0.46817896742225
40
0.46817896742225
40
0.899165978787896
40
0.899165978787896
40
1
40
1
40
1
40
1
41
1
10
23.4587805434613
20
-7.66442418535129
30
0
41
1
10
23.277506035505
20
-7.63590048824673
30
0
41
1
10
23.0936117660435
20
-7.60111827020413
30
0
41
1
10
22.7658158689767
20
-7.55746536272923
30
0
41
1
10
22.6153724323278
20
-7.54339831986286
30
0
41
1
10
22.4560286247614
20
-7.54465252212793
30
0
41
1
10
22.4264524991725
20
-7.54575209600952
30
0
41
1
10
22.3981203716814
20
-7.5478480284315
30
0
0
SPLINE
5
1B9
100
AcDbEntity
8
1
62
256
6
ByLayer
370
13
48
1
60
0
100
AcDbSpline
70
4
71
3
72
12
73
8
40
0
40
0
40
0
40
0
40
0.46817896742225
40
0.46817896742225
40
0.899165978787896
40
0.899165978787896
40
1
40
1
40
1
40
1
41
1
10
23.4587805434613
20
-5.33557581464899
30
0
41
1
10
23.277506035505
20
-5.36409951175355
30
0
41
1
10
23.0936117660435
20
-5.39888172979616
30
0
41
1
10
22.7658158689767
20
-5.44253463727102
30
0
41
1
10
22.6153724323278
20
-5.4566016801374
30
0
41
1
10
22.4560286247614
20
-5.45534747787232
30
0
41
1
10
22.4264524991725
20
-5.45424790399076
30
0
41
1
10
22.3981203716814
20
-5.45215197156878
30
0
0
SPLINE
5
1BA
100
AcDbEntity
8
1
62
256
6
ByLayer
370
13
48
1
60
0
100
AcDbSpline
70
4
71
3
72
14
73
10
40
0
40
0
40
0
40
0
40
0.447953066725053
40
0.447953066725053
40
0.912809598186729
40
0.912809598186729
40
0.983423615312508
40
0.983423615312508
40
1
40
1
40
1
40
1
41
1
10
22.2339180002563
20
-5.56804139100439
30
0
41
1
10
22.2203040290404
20
-5.55254238135419
30
0
41
1
10
22.2040154112901
20
-5.53400924865832
30
0
41
1
10
22.1683740707567
20
-5.49349492029796
30
0
41
1
10
22.1483538761323
20
-5.47075682721569
30
0
41
1
10
22.1253006224607
20
-5.44460030707751
30
0
41
1
10
22.1222095971505
20
-5.44109370495664
30
0
41
1
10
22.1184037038145
20
-5.43677675969073
30
0
41
1
10
22.1176888999301
20
-5.43596602775054
30
0
41
1
10
22.1169741247485
20
-5.43515530078517
30
0
0
SPLINE
5
1BB
100
AcDbEntity
8
1
62
256
6
ByLayer
370
13
48
1
60
0
100
AcDbSpline
70
4
71
3
72
10
73
6
40
0
40
0
40
0
40
0
40
0.132191617121101
40
0.132191617121101
40
1
40
1
40
1
40
1
41
1
10
22.2573483090604
20
-5.59401927453274
30
0
41
1
10
22.2564468305523
20
-5.59305405934228
30
0
41
1
10
22.25552642843
20
-5.5920633630372
30
0
41
1
10
22.248454107713
20
-5.58441233951291
30
0
41
1
10
22.2414978788606
20
-5.57667080629338
30
0
41
1
10
22.2339180002563
20
-5.56804139100498
30
0
0
SPLINE
5
1BC
100
AcDbEntity
8
1
62
256
6
ByLayer
370
13
48
1
60
0
100
AcDbSpline
70
4
71
3
72
10
73
6
40
0
40
0
40
0
40
0
40
0.132191617121101
40
0.132191617121101
40
1
40
1
40
1
40
1
41
1
10
22.2573483090604
20
-7.40598072546752
30
0
41
1
10
22.2564468305523
20
-7.40694594065801
30
0
41
1
10
22.25552642843
20
-7.40793663696309
30
0
41
1
10
22.248454107713
20
-7.41558766048735
30
0
41
1
10
22.2414978788606
20
-7.42332919370688
30
0
41
1
10
22.2339180002563
20
-7.4319586089953
30
0
0
SPLINE
5
1BD
100
AcDbEntity
8
1
62
256
6
ByLayer
370
13
48
1
60
0
100
AcDbSpline
70
4
71
3
72
14
73
10
40
0
40
0
40
0
40
0
40
0.447953066725052
40
0.447953066725052
40
0.912809598186729
40
0.912809598186729
40
0.983423615312508
40
0.983423615312508
40
1
40
1
40
1
40
1
41
1
10
22.2339180002563
20
-7.43195860899587
30
0
41
1
10
22.2203040290404
20
-7.4474576186461
30
0
41
1
10
22.2040154112901
20
-7.46599075134193
30
0
41
1
10
22.1683740707567
20
-7.50650507970232
30
0
41
1
10
22.1483538761323
20
-7.52924317278456
30
0
41
1
10
22.1253006224607
20
-7.55539969292275
30
0
41
1
10
22.1222095971505
20
-7.55890629504364
30
0
41
1
10
22.1184037038145
20
-7.56322324030955
30
0
41
1
10
22.1176888999301
20
-7.56403397224972
30
0
41
1
10
22.1169741247485
20
-7.56484469921512
30
0
0
SPLINE
5
1BE
100
AcDbEntity
8
1
62
256
6
ByLayer
370
13
48
1
60
0
100
AcDbSpline
70
4
71
3
72
12
73
8
40
0
40
0
40
0
40
0
40
0.559278359968975
40
0.559278359968975
40
0.982064699130975
40
0.982064699130975
40
1
40
1
40
1
40
1
41
1
10
21.8655988415542
20
-7.19700762342248
30
0
41
1
10
21.8639058993619
20
-7.16480806215466
30
0
41
1
10
21.8615176185074
20
-7.13563308751822
30
0
41
1
10
21.8565061637906
20
-7.09463504613535
30
0
41
1
10
21.8540306406306
20
-7.07989245971598
30
0
41
1
10
21.8512781291035
20
-7.06851921291189
30
0
41
1
10
21.8511665651818
20
-7.06806610520658
30
0
41
1
10
21.8510546870628
20
-7.06761951385394
30
0
0
SPLINE
5
1BF
100
AcDbEntity
8
1
62
256
6
ByLayer
370
13
48
1
60
0
100
AcDbSpline
70
4
71
3
72
10
73
6
40
0
40
0
40
0
40
0
40
0.709641074204652
40
0.709641074204652
40
1
40
1
40
1
40
1
41
1
10
21.8804455603129
20
-7.34789619534794
30
0
41
1
10
21.8753414889782
20
-7.31103198859216
30
0
41
1
10
21.8711861437205
20
-7.27339417655369
30
0
41
1
10
21.8672412502849
20
-7.22439290248531
30
0
41
1
10
21.8663022439905
20
-7.21038625498701
30
0
41
1
10
21.8655988415525
20
-7.19700762342239
30
0
0
SPLINE
5
1C0
100
AcDbEntity
8
1
62
256
6
ByLayer
370
13
48
1
60
0
100
AcDbSpline
70
4
71
3
72
12
73
8
40
0
40
0
40
0
40
0
40
0.135507654329451
40
0.135507654329451
40
0.742115377580087
40
0.742115377580087
40
1
40
1
40
1
40
1
41
1
10
21.8804455603129
20
-5.65210380465231
30
0
41
1
10
21.8794577311546
20
-5.65923841072299
30
0
41
1
10
21.8785068164279
20
-5.66638267298231
30
0
41
1
10
21.8735694178172
20
-5.70503504544055
30
0
41
1
10
21.8702919601627
20
-5.73670564906067
30
0
41
1
10
21.8670296012879
20
-5.77879948938775
30
0
41
1
10
21.8662219824782
20
-5.7911403095506
30
0
41
1
10
21.8655988415537
20
-5.80299237657783
30
0
0
SPLINE
5
1C1
100
AcDbEntity
8
1
62
256
6
ByLayer
370
13
48
1
60
0
100
AcDbSpline
70
4
71
3
72
14
73
10
40
0
40
0
40
0
40
0
40
0.0177509856471946
40
0.0177509856471946
40
0.340726860481444
40
0.340726860481444
40
0.792711195890233
40
0.792711195890233
40
1
40
1
40
1
40
1
41
1
10
21.8510546870628
20
-5.93238048614634
30
0
41
1
10
21.8511665651505
20
-5.93193389479393
30
0
41
1
10
21.8512781289784
20
-5.93148078708921
30
0
41
1
10
21.8534062656342
20
-5.92268743004462
30
0
41
1
10
21.8553239640451
20
-5.91215262402409
30
0
41
1
10
21.8595178404373
20
-5.88254103823996
30
0
41
1
10
21.8616827821098
20
-5.86137062186296
30
0
41
1
10
21.8642384176628
20
-5.82665312227232
30
0
41
1
10
21.8649648606851
20
-5.81505061809898
30
0
41
1
10
21.8655988415542
20
-5.80299237657781
30
0
0
SPLINE
5
1C2
100
AcDbEntity
8
1
62
256
6
ByLayer
370
13
48
1
60
0
100
AcDbSpline
70
4
71
3
72
14
73
10
40
0
40
0
40
0
40
0
40
0.447954004797037
40
0.447954004797037
40
0.912810038934036
40
0.912810038934036
40
0.983423779130199
40
0.983423779130199
40
1
40
1
40
1
40
1
41
1
10
22.2933275812136
20
-5.45046954405092
30
0
41
1
10
22.2727755286919
20
-5.44868460397257
30
0
41
1
10
22.2481939779358
20
-5.44654978992477
30
0
41
1
10
22.1944355442363
20
-5.44188138166382
30
0
41
1
10
22.1642532997474
20
-5.43926049606563
30
0
41
1
10
22.1295181484127
20
-5.43624446974812
30
0
41
1
10
22.1248611889836
20
-5.43584011371513
30
0
41
1
10
22.1191276857055
20
-5.43534228830211
30
0
41
1
10
22.1180508939064
20
-5.43524879367098
30
0
41
1
10
22.1169741247543
20
-5.43515530078403
30
0
0
SPLINE
5
1C3
100
AcDbEntity
8
1
62
256
6
ByLayer
370
13
48
1
60
0
100
AcDbSpline
70
4
71
3
72
18
73
14
40
0
40
0
40
0
40
0
40
0.10212592206704
40
0.10212592206704
40
0.219798180864097
40
0.219798180864097
40
0.395678331134856
40
0.395678331134856
40
0.733655817510089
40
0.733655817510089
40
0.802063348489368
40
0.802063348489368
40
1
40
1
40
1
40
1
41
1
10
21.4559779585026
20
-7.32675567745125
30
0
41
1
10
21.4564416368178
20
-7.31347604721995
30
0
41
1
10
21.45608929913
20
-7.30011695257147
30
0
41
1
10
21.4536446728814
20
-7.27188463072216
30
0
41
1
10
21.4512850832915
20
-7.25695210644287
30
0
41
1
10
21.4431564052165
20
-7.22120155862473
30
0
41
1
10
21.436209646695
20
-7.20077334525465
30
0
41
1
10
21.4118798067115
20
-7.14653355932185
30
0
41
1
10
21.3902866995539
20
-7.11615181986522
30
0
41
1
10
21.3616240935598
20
-7.08719393333288
30
0
41
1
10
21.3566229893451
20
-7.08249458645599
30
0
41
1
10
21.3368310070576
20
-7.06516411549688
30
0
41
1
10
21.3212866355731
20
-7.05421914629349
30
0
41
1
10
21.3052940680713
20
-7.04517312237905
30
0
0
SPLINE
5
1C4
100
AcDbEntity
8
1
62
256
6
ByLayer
370
13
48
1
60
0
100
AcDbSpline
70
4
71
3
72
14
73
10
40
0
40
0
40
0
40
0
40
0.447954004797037
40
0.447954004797037
40
0.912810038934036
40
0.912810038934036
40
0.983423779130199
40
0.983423779130199
40
1
40
1
40
1
40
1
41
1
10
22.2933275812136
20
-7.54953045594937
30
0
41
1
10
22.2727755286919
20
-7.55131539602769
30
0
41
1
10
22.2481939779358
20
-7.55345021007551
30
0
41
1
10
22.1944355442363
20
-7.55811861833647
30
0
41
1
10
22.1642532997474
20
-7.56073950393463
30
0
41
1
10
22.1295181484127
20
-7.56375553025214
30
0
41
1
10
22.1248611889836
20
-7.56415988628515
30
0
41
1
10
22.1191276857055
20
-7.56465771169817
30
0
41
1
10
22.1180508939064
20
-7.56475120632931
30
0
41
1
10
22.1169741247543
20
-7.56484469921625
30
0
0
SPLINE
5
1C5
100
AcDbEntity
8
1
62
256
6
ByLayer
370
13
48
1
60
0
100
AcDbSpline
70
4
71
3
72
12
73
8
40
0
40
0
40
0
40
0
40
0.356479833160399
40
0.356479833160399
40
0.824168720346733
40
0.824168720346733
40
1
40
1
40
1
40
1
41
1
10
21.8643787537961
20
-5.94368968726008
30
0
41
1
10
21.8767763033464
20
-5.95020268645169
30
0
41
1
10
21.8880463981537
20
-5.95779876379075
30
0
41
1
10
21.9095864832785
20
-5.97831510883236
30
0
41
1
10
21.9185295226104
20
-5.99249489355708
30
0
41
1
10
21.92407326674
20
-6.01520044007529
30
0
41
1
10
21.9249217874922
20
-6.02181598235001
30
0
41
1
10
21.9250392603487
20
-6.02871104769545
30
0
0
SPLINE
5
1C6
100
AcDbEntity
8
1
62
256
6
ByLayer
370
13
48
1
60
0
100
AcDbSpline
70
4
71
3
72
12
73
8
40
0
40
0
40
0
40
0
40
0.443558069836982
40
0.443558069836982
40
0.507222026557664
40
0.507222026557664
40
1
40
1
40
1
40
1
41
1
10
21.9250392603487
20
-6.02871104769548
30
0
41
1
10
21.925625933741
20
-6.0631458226606
30
0
41
1
10
21.933457578199
20
-6.10407418505483
30
0
41
1
10
21.9513800260717
20
-6.15261593058685
30
0
41
1
10
21.9538277204397
20
-6.1588406550523
30
0
41
1
10
21.976282853545
20
-6.21260346183055
30
0
41
1
10
22.006340828125
20
-6.26250087339687
30
0
41
1
10
22.0439598709927
20
-6.30761851578532
30
0
0
SPLINE
5
1C7
100
AcDbEntity
8
1
62
256
6
ByLayer
370
13
48
1
60
0
100
AcDbSpline
70
4
71
3
72
18
73
14
40
0
40
0
40
0
40
0
40
0.262962488711577
40
0.262962488711577
40
0.43136352889061
40
0.43136352889061
40
0.488169625072958
40
0.488169625072958
40
0.652801403480982
40
0.652801403480982
40
0.712254155913291
40
0.712254155913291
40
1
40
1
40
1
40
1
41
1
10
22.0439598709927
20
-6.30761851578532
30
0
41
1
10
22.0671201854563
20
-6.33539537308624
30
0
41
1
10
22.0885389915202
20
-6.36615665508268
30
0
41
1
10
22.113950371308
20
-6.42208948386355
30
0
41
1
10
22.1214580237961
20
-6.44579242783939
30
0
41
1
10
22.1259784141927
20
-6.47828783334074
30
0
41
1
10
22.1266641796623
20
-6.48665630033747
30
0
41
1
10
22.1274106952605
20
-6.51892150576464
30
0
41
1
10
22.12374714007
20
-6.54322934241918
30
0
41
1
10
22.1143596854291
20
-6.57416578823188
30
0
41
1
10
22.1114227244078
20
-6.58230438156448
30
0
41
1
10
22.092527749329
20
-6.62811384248772
30
0
41
1
10
22.0692256559174
20
-6.66207947326518
30
0
41
1
10
22.0439598709999
20
-6.69238148420638
30
0
0
SPLINE
5
1C8
100
AcDbEntity
8
1
62
256
6
ByLayer
370
13
48
1
60
0
100
AcDbSpline
70
4
71
3
72
12
73
8
40
0
40
0
40
0
40
0
40
0.0695374380305743
40
0.0695374380305743
40
0.564718845075643
40
0.564718845075643
40
1
40
1
40
1
40
1
41
1
10
22.0439598709999
20
-6.69238148420638
30
0
41
1
10
22.0385610813286
20
-6.69885641400634
30
0
41
1
10
22.0333230650435
20
-6.70541096353043
30
0
41
1
10
21.9927993674551
20
-6.75832630815879
30
0
41
1
10
21.9653523725795
20
-6.80878885408765
30
0
41
1
10
21.9331669750443
20
-6.89741176718496
30
0
41
1
10
21.9256153955242
20
-6.93747271762228
30
0
41
1
10
21.9250392603487
20
-6.9712889523048
30
0
0
SPLINE
5
1C9
100
AcDbEntity
8
1
62
256
6
ByLayer
370
13
48
1
60
0
100
AcDbSpline
70
4
71
3
72
10
73
6
40
0
40
0
40
0
40
0
40
0.323499890762715
40
0.323499890762715
40
1
40
1
40
1
40
1
41
1
10
21.9250392603487
20
-6.9712889523048
30
0
41
1
10
21.9248229895013
20
-6.98398296239702
30
0
41
1
10
21.9221009308092
20
-6.99574652666698
30
0
41
1
10
21.9072698303883
20
-7.02768607451847
30
0
41
1
10
21.8876680100065
20
-7.04407540242536
30
0
41
1
10
21.8643787537961
20
-7.05631031274021
30
0
0
SPLINE
5
1CA
100
AcDbEntity
8
1
62
256
6
ByLayer
370
13
48
1
60
0
100
AcDbSpline
70
4
71
3
72
12
73
8
40
0
40
0
40
0
40
0
40
0.833271550695841
40
0.833271550695841
40
0.924873187913958
40
0.924873187913958
40
1
40
1
40
1
40
1
41
1
10
21.0610166945646
20
-6.99408820314841
30
0
41
1
10
21.0544754484441
20
-6.95957089979649
30
0
41
1
10
21.0449923927374
20
-6.91689667933014
30
0
41
1
10
21.040181068922
20
-6.86356693418904
30
0
41
1
10
21.0397613475273
20
-6.85814730555879
30
0
41
1
10
21.0391308505303
20
-6.84816316617958
30
0
41
1
10
21.0388959908553
20
-6.84361889189296
30
0
41
1
10
21.0387159227923
20
-6.83903296324317
30
0
0
SPLINE
5
1CB
100
AcDbEntity
8
1
62
256
6
ByLayer
370
13
48
1
60
0
100
AcDbSpline
70
4
71
3
72
8
73
4
40
0
40
0
40
0
40
0
40
1
40
1
40
1
40
1
41
1
10
21.0387159227923
20
-6.83903296324317
30
0
41
1
10
21.059987312203
20
-6.83289424152974
30
0
41
1
10
21.0815114137464
20
-6.82715221194962
30
0
41
1
10
21.1032105368037
20
-6.82177562535784
30
0
0
SPLINE
5
1CC
100
AcDbEntity
8
1
62
256
6
ByLayer
370
13
48
1
60
0
100
AcDbSpline
70
4
71
3
72
8
73
4
40
0
40
0
40
0
40
0
40
1
40
1
40
1
40
1
41
1
10
21.1032105368034
20
-6.82177562535617
30
0
41
1
10
21.1062783445423
20
-6.82101548708187
30
0
41
1
10
21.1093468504694
20
-6.8202554427518
30
0
41
1
10
21.1124160421628
20
-6.81949549106733
30
0
0
SPLINE
5
1CD
100
AcDbEntity
8
1
62
256
6
ByLayer
370
13
48
1
60
0
100
AcDbSpline
70
4
71
3
72
26
73
22
40
0
40
0
40
0
40
0
40
0.0783346115779722
40
0.0783346115779722
40
0.229067417424992
40
0.229067417424992
40
0.361148737487712
40
0.361148737487712
40
0.451044286208709
40
0.451044286208709
40
0.480076288213215
40
0.480076288213215
40
0.580804987892491
40
0.580804987892491
40
0.598553408472289
40
0.598553408472289
40
0.721865021031447
40
0.721865021031447
40
0.852573440596253
40
0.852573440596253
40
1
40
1
40
1
40
1
41
1
10
21.1124160421628
20
-6.81949549106733
30
0
41
1
10
21.1363716105935
20
-6.81356393761621
30
0
41
1
10
21.1598327503349
20
-6.8061586706431
30
0
41
1
10
21.2253859658397
20
-6.77990082960812
30
0
41
1
10
21.2659116446279
20
-6.75630104982389
30
0
41
1
10
21.3301656555828
20
-6.69934843260842
30
0
41
1
10
21.3562012292316
20
-6.66662924968665
30
0
41
1
10
21.3871009177855
20
-6.60422694671473
30
0
41
1
10
21.3963228169934
20
-6.57621811581507
30
0
41
1
10
21.4026526489823
20
-6.53814761159447
30
0
41
1
10
21.4037565534503
20
-6.52864706678463
30
0
41
1
10
21.406535622122
20
-6.48664874241013
30
0
41
1
10
21.4029896944569
20
-6.45309945024897
30
0
41
1
10
21.3928135335292
20
-6.41656062366462
30
0
41
1
10
21.3911033398723
20
-6.4110584618831
30
0
41
1
10
21.37655782445
20
-6.36867911819292
30
0
41
1
10
21.3563208175635
20
-6.33459999461087
30
0
41
1
10
21.3056247831178
20
-6.27569807805179
30
0
41
1
10
21.273851925294
20
-6.25041471414929
30
0
41
1
10
21.2004676930902
20
-6.20794412454606
30
0
41
1
10
21.1571805456305
20
-6.19158848908563
30
0
41
1
10
21.1124160421628
20
-6.18050450893293
30
0
0
SPLINE
5
1CE
100
AcDbEntity
8
1
62
256
6
ByLayer
370
13
48
1
60
0
100
AcDbSpline
70
4
71
3
72
8
73
4
40
0
40
0
40
0
40
0
40
1
40
1
40
1
40
1
41
1
10
21.1124160421628
20
-6.18050450893293
30
0
41
1
10
21.1093468504694
20
-6.17974455724848
30
0
41
1
10
21.1062783445423
20
-6.17898451291842
30
0
41
1
10
21.1032105368034
20
-6.17822437464409
30
0
0
SPLINE
5
1CF
100
AcDbEntity
8
1
62
256
6
ByLayer
370
13
48
1
60
0
100
AcDbSpline
70
4
71
3
72
10
73
6
40
0
40
0
40
0
40
0
40
0.0748872813144652
40
0.0748872813144652
40
1
40
1
40
1
40
1
41
1
10
21.0387159227923
20
-6.16096703675711
30
0
41
1
10
21.0388959908553
20
-6.15638110810733
30
0
41
1
10
21.0391308505303
20
-6.15183683382071
30
0
41
1
10
21.0428644178648
20
-6.09271449568746
30
0
41
1
10
21.0537561749332
20
-6.04422461278821
30
0
41
1
10
21.0610166945643
20
-6.0059117968533
30
0
0
SPLINE
5
1D0
100
AcDbEntity
8
1
62
256
6
ByLayer
370
13
48
1
60
0
100
AcDbSpline
70
4
71
3
72
8
73
4
40
0
40
0
40
0
40
0
40
1
40
1
40
1
40
1
41
1
10
21.1032105368034
20
-6.17822437464409
30
0
41
1
10
21.0815114137461
20
-6.17284778805234
30
0
41
1
10
21.0599873122031
20
-6.16710575846872
30
0
41
1
10
21.0387159227924
20
-6.16096703675532
30
0
0
SPLINE
5
1D1
100
AcDbEntity
8
1
62
256
6
ByLayer
370
13
48
1
60
0
100
AcDbSpline
70
4
71
3
72
20
73
16
40
0
40
0
40
0
40
0
40
0.114266316237489
40
0.114266316237489
40
0.331231960429442
40
0.331231960429442
40
0.599155656755157
40
0.599155656755157
40
0.722874848940947
40
0.722874848940947
40
0.871512516236653
40
0.871512516236653
40
0.967654963824484
40
0.967654963824484
40
1
40
1
40
1
40
1
41
1
10
21.305294068073
20
-5.95482687762168
30
0
41
1
10
21.3145383163395
20
-5.94959796794976
30
0
41
1
10
21.3236231348747
20
-5.94374091757913
30
0
41
1
10
21.3492280670811
20
-5.92496821515172
30
0
41
1
10
21.365276744252
20
-5.91031630553638
30
0
41
1
10
21.3980286906964
20
-5.87242711839531
30
0
41
1
10
21.4143711478299
20
-5.84753182776223
30
0
41
1
10
21.4331414661541
20
-5.80623036215468
30
0
41
1
10
21.4383907764822
20
-5.7922856633347
30
0
41
1
10
21.447858461063
20
-5.7603462150166
30
0
41
1
10
21.4517121178798
20
-5.74188231462625
30
0
41
1
10
21.4553663096762
20
-5.71082058117585
30
0
41
1
10
21.4561297476895
20
-5.69834535713184
30
0
41
1
10
21.4561906263781
20
-5.68166750333086
30
0
41
1
10
21.4561249332387
20
-5.67745364198888
30
0
41
1
10
21.4559779585028
20
-5.67324432254901
30
0
0
SPLINE
5
1D2
100
AcDbEntity
8
1
62
256
6
ByLayer
370
13
48
1
60
0
100
AcDbSpline
70
4
71
3
72
16
73
12
40
0
40
0
40
0
40
0
40
0.249954056036558
40
0.249954056036558
40
0.699484194384015
40
0.699484194384015
40
0.851133931227642
40
0.851133931227642
40
0.935108677236773
40
0.935108677236773
40
1
40
1
40
1
40
1
41
1
10
21.2267110292775
20
-7.22689749650473
30
0
41
1
10
21.2427048966235
20
-7.23044900069542
30
0
41
1
10
21.2585947536486
20
-7.23463190526925
30
0
41
1
10
21.3021970348682
20
-7.24856748659982
30
0
41
1
10
21.3302297071818
20
-7.25977140760477
30
0
41
1
10
21.3625570510524
20
-7.28321931948725
30
0
41
1
10
21.3704121947256
20
-7.29006506245148
30
0
41
1
10
21.3801629147231
20
-7.30282114922195
30
0
41
1
10
21.3831940821262
20
-7.3079077531612
30
0
41
1
10
21.3866841498694
20
-7.31762980670351
30
0
41
1
10
21.3875739298376
20
-7.3222200449417
30
0
41
1
10
21.3875739298376
20
-7.32675567745125
30
0
0
SPLINE
5
1D3
100
AcDbEntity
8
1
62
256
6
ByLayer
370
13
48
1
60
0
100
AcDbSpline
70
4
71
3
72
20
73
16
40
0
40
0
40
0
40
0
40
0.0199906994069362
40
0.0199906994069362
40
0.0825919577440876
40
0.0825919577440876
40
0.195169299288357
40
0.195169299288357
40
0.306011529795777
40
0.306011529795777
40
0.591177675589546
40
0.591177675589546
40
0.85412822131223
40
0.85412822131223
40
1
40
1
40
1
40
1
41
1
10
21.3875739298377
20
-5.67324432254901
30
0
41
1
10
21.3875739298377
20
-5.67465584735035
30
0
41
1
10
21.3874914943693
20
-5.67606987324555
30
0
41
1
10
21.3868329759386
20
-5.68180287022821
30
0
41
1
10
21.3855574593884
20
-5.68607184919043
30
0
41
1
10
21.3806296077618
20
-5.69703785888782
30
0
41
1
10
21.3758782533064
20
-5.70328635956278
30
0
41
1
10
21.3654630806491
20
-5.71414510416881
30
0
41
1
10
21.359676381482
20
-5.71891740982349
30
0
41
1
10
21.3382455610535
20
-5.73428307382179
30
0
41
1
10
21.3211325656859
20
-5.74266128671297
30
0
41
1
10
21.2877211729543
20
-5.75624756481477
30
0
41
1
10
21.2712362948113
20
-5.76161935064718
30
0
41
1
10
21.2453568251732
20
-5.76873580470465
30
0
41
1
10
21.2360536989462
20
-5.77102792517317
30
0
41
1
10
21.2267110292773
20
-5.77310250349561
30
0
0
SPLINE
5
1D4
100
AcDbEntity
8
1
62
256
6
ByLayer
370
13
48
1
60
0
100
AcDbSpline
70
4
71
3
72
12
73
8
40
0
40
0
40
0
40
0
40
0.559301985460886
40
0.559301985460886
40
0.982067221682947
40
0.982067221682947
40
1
40
1
40
1
40
1
41
1
10
22.010489557929
20
-7.16814594589664
30
0
41
1
10
21.9860762799805
20
-7.14045395441085
30
0
41
1
10
21.9571861880885
20
-7.1165461082719
30
0
41
1
10
21.9034740589433
20
-7.08525128859355
30
0
41
1
10
21.8788250511787
20
-7.07493421748597
30
0
41
1
10
21.8531321595028
20
-7.0681483436322
30
0
41
1
10
21.8520935591125
20
-7.06788068185881
30
0
41
1
10
21.8510546870628
20
-7.06761951385394
30
0
0
SPLINE
5
1D5
100
AcDbEntity
8
1
62
256
6
ByLayer
370
13
48
1
60
0
100
AcDbSpline
70
4
71
3
72
14
73
10
40
0
40
0
40
0
40
0
40
0.0177534078899156
40
0.0177534078899156
40
0.340744812432132
40
0.340744812432132
40
0.785966596962005
40
0.785966596962005
40
1
40
1
40
1
40
1
41
1
10
21.8510546870629
20
-5.93238048614634
30
0
41
1
10
21.8520935591131
20
-5.93211931814184
30
0
41
1
10
21.8531321595046
20
-5.93185165636925
30
0
41
1
10
21.8729966272014
20
-5.92660515575272
30
0
41
1
10
21.8917885884792
20
-5.9194399402451
30
0
41
1
10
21.9347600859257
20
-5.89782268969577
30
0
41
1
10
21.9587945413718
20
-5.88138510198016
30
0
41
1
10
21.9910000960522
20
-5.85267381370207
30
0
41
1
10
22.0010527060188
20
-5.84255827921024
30
0
41
1
10
22.010489557929
20
-5.83185405410364
30
0
0
SPLINE
5
1D6
100
AcDbEntity
8
1
62
256
6
ByLayer
370
13
48
1
60
0
100
AcDbSpline
70
4
71
3
72
8
73
4
40
0
40
0
40
0
40
0
40
1
40
1
40
1
40
1
41
1
10
20.6639115680548
20
-7.63391723752144
30
0
41
1
10
20.7472851478713
20
-7.49513446737862
30
0
41
1
10
20.816569163954
20
-7.34696592494379
30
0
41
1
10
20.8825621452742
20
-7.19796709438148
30
0
0
SPLINE
5
1D7
100
AcDbEntity
8
1
62
256
6
ByLayer
370
13
48
1
60
0
100
AcDbSpline
70
4
71
3
72
16
73
12
40
0
40
0
40
0
40
0
40
0.0745951303882249
40
0.0745951303882249
40
0.27553513169183
40
0.27553513169183
40
0.501427420118119
40
0.501427420118119
40
0.725494997757322
40
0.725494997757322
40
1
40
1
40
1
40
1
41
1
10
20.8825621452742
20
-7.19796709438148
30
0
41
1
10
20.8837736749443
20
-7.19523170494438
30
0
41
1
10
20.8851163296951
20
-7.19255720787515
30
0
41
1
10
20.8905147865576
20
-7.18307673582248
30
0
41
1
10
20.8954617830551
20
-7.17671054247785
30
0
41
1
10
20.9076198241713
20
-7.16556313295507
30
0
41
1
10
20.9152342937161
20
-7.16092416719442
30
0
41
1
10
20.931205119136
20
-7.15503101892457
30
0
41
1
10
20.9397662566659
20
-7.15364009913799
30
0
41
1
10
20.9585207140202
20
-7.15356420092246
30
0
41
1
10
20.9689309570329
20
-7.15550454585872
30
0
41
1
10
20.9787842780359
20
-7.15878427086335
30
0
0
SPLINE
5
1D8
100
AcDbEntity
8
1
62
256
6
ByLayer
370
13
48
1
60
0
100
AcDbSpline
70
4
71
3
72
10
73
6
40
0
40
0
40
0
40
0
40
0.140418403423082
40
0.140418403423082
40
1
40
1
40
1
40
1
41
1
10
22.2950622867786
20
-5.45083055006597
30
0
41
1
10
22.2949786281127
20
-5.45083314027949
30
0
41
1
10
22.2948949964083
20
-5.45083334436515
30
0
41
1
10
22.2943060068436
20
-5.45081682801859
30
0
41
1
10
22.2937967459171
20
-5.45070661526356
30
0
41
1
10
22.2933275812036
20
-5.45046954425538
30
0
0
SPLINE
5
1D9
100
AcDbEntity
8
1
62
256
6
ByLayer
370
13
48
1
60
0
100
AcDbSpline
70
4
71
3
72
8
73
4
40
0
40
0
40
0
40
0
40
1
40
1
40
1
40
1
41
1
10
20.8825621452735
20
-5.80203290562022
30
0
41
1
10
20.8165691639542
20
-5.65303407506005
30
0
41
1
10
20.7472851478721
20
-5.50486553262749
30
0
41
1
10
20.6639115680571
20
-5.36608276248643
30
0
0
SPLINE
5
1DA
100
AcDbEntity
8
1
62
256
6
ByLayer
370
13
48
1
60
0
100
AcDbSpline
70
4
71
3
72
16
73
12
40
0
40
0
40
0
40
0
40
0.108772443208259
40
0.108772443208259
40
0.369799377627614
40
0.369799377627614
40
0.571154122074464
40
0.571154122074464
40
0.786314444449857
40
0.786314444449857
40
1
40
1
40
1
40
1
41
1
10
20.9787842780346
20
-5.8412157291377
30
0
41
1
10
20.974842530994
20
-5.84252775848563
30
0
41
1
10
20.9708295616293
20
-5.84362271353106
30
0
41
1
10
20.9571495011343
20
-5.84645614102664
30
0
41
1
10
20.9470910912766
20
-5.84701608492108
30
0
41
1
10
20.9298590002818
20
-5.84450659509136
30
0
41
1
10
20.9223925092281
20
-5.84218599469676
30
0
41
1
10
20.9083165495633
20
-5.83486499514899
30
0
41
1
10
20.9016145563071
20
-5.82958017836918
30
0
41
1
10
20.8905405846473
20
-5.81710231391764
30
0
41
1
10
20.8859929686991
20
-5.80977901236551
30
0
41
1
10
20.882562145276
20
-5.80203290561772
30
0
0
SPLINE
5
1DB
100
AcDbEntity
8
1
62
256
6
ByLayer
370
13
48
1
60
0
100
AcDbSpline
70
4
71
3
72
8
73
4
40
0
40
0
40
0
40
0
40
1
40
1
40
1
40
1
41
1
10
22.3981203716814
20
-5.45215197156878
30
0
41
1
10
22.3638409048776
20
-5.450295581349
30
0
41
1
10
22.3294607622627
20
-5.44976551520284
30
0
41
1
10
22.2950622867788
20
-5.45083055006597
30
0
0
SPLINE
5
1DC
100
AcDbEntity
8
1
62
256
6
ByLayer
370
13
48
1
60
0
100
AcDbSpline
70
4
71
3
72
10
73
6
40
0
40
0
40
0
40
0
40
0.140418403423082
40
0.140418403423082
40
1
40
1
40
1
40
1
41
1
10
22.2950622867786
20
-7.54916944993431
30
0
41
1
10
22.2949786281127
20
-7.5491668597208
30
0
41
1
10
22.2948949964083
20
-7.54916665563513
30
0
41
1
10
22.2943060068436
20
-7.5491831719817
30
0
41
1
10
22.2937967459171
20
-7.5492933847367
30
0
41
1
10
22.2933275812036
20
-7.54953045574487
30
0
0
SPLINE
5
1DD
100
AcDbEntity
8
1
62
256
6
ByLayer
370
13
48
1
60
0
100
AcDbSpline
70
4
71
3
72
8
73
4
40
0
40
0
40
0
40
0
40
1
40
1
40
1
40
1
41
1
10
22.3981203716814
20
-7.5478480284315
30
0
41
1
10
22.3638409048776
20
-7.54970441865129
30
0
41
1
10
22.3294607622627
20
-7.55023448479744
30
0
41
1
10
22.2950622867788
20
-7.54916944993431
30
0
0
SPLINE
5
1DE
100
AcDbEntity
8
1
62
256
6
ByLayer
370
13
48
1
60
0
100
AcDbSpline
70
4
71
3
72
8
73
4
40
0
40
0
40
0
40
0
40
1
40
1
40
1
40
1
41
1
10
21.8643787537961
20
-7.05631031274021
30
0
41
1
10
21.859967111299
20
-7.06008591710207
30
0
41
1
10
21.8555251065502
20
-7.06385555773767
30
0
41
1
10
21.8510546870628
20
-7.06761951385394
30
0
0
SPLINE
5
1DF
100
AcDbEntity
8
1
62
256
6
ByLayer
370
13
48
1
60
0
100
AcDbSpline
70
4
71
3
72
8
73
4
40
0
40
0
40
0
40
0
40
1
40
1
40
1
40
1
41
1
10
21.8510546870628
20
-5.93238048614634
30
0
41
1
10
21.8555251065502
20
-5.93614444226262
30
0
41
1
10
21.859967111299
20
-5.93991408289821
30
0
41
1
10
21.8643787537961
20
-5.94368968726008
30
0
0
SPLINE
5
1E0
100
AcDbEntity
8
1
62
256
6
ByLayer
370
13
48
1
60
0
100
AcDbSpline
70
4
71
3
72
12
73
8
40
0
40
0
40
0
40
0
40
0.453713856043948
40
0.453713856043948
40
0.935255270278036
40
0.935255270278036
40
1
40
1
40
1
40
1
41
1
10
22.0838678419132
20
-7.01627328434716
30
0
41
1
10
22.0902549278144
20
-6.98995324483164
30
0
41
1
10
22.0997841086873
20
-6.95768553855845
30
0
41
1
10
22.1293410835708
20
-6.88545999860551
30
0
41
1
10
22.1503116579037
20
-6.84418126823763
30
0
41
1
10
22.1817069341032
20
-6.79925808900083
30
0
41
1
10
22.1855997151618
20
-6.79389471855774
30
0
41
1
10
22.1896201413555
20
-6.78857222631228
30
0
0
SPLINE
5
1E1
100
AcDbEntity
8
1
62
256
6
ByLayer
370
13
48
1
60
0
100
AcDbSpline
70
4
71
3
72
12
73
8
40
0
40
0
40
0
40
0
40
0.152393412053729
40
0.152393412053729
40
0.680490075193607
40
0.680490075193607
40
1
40
1
40
1
40
1
41
1
10
22.1896201413597
20
-6.7885722263174
30
0
41
1
10
22.2346105972902
20
-6.79752630455647
30
0
41
1
10
22.2812734171518
20
-6.80701657006472
30
0
41
1
10
22.4939294786755
20
-6.85108244482166
30
0
41
1
10
22.6774173301441
20
-6.89116809046371
30
0
41
1
10
22.978376870561
20
-6.96010066499545
30
0
41
1
10
23.0952214954585
20
-6.98760553347671
30
0
41
1
10
23.2112677608008
20
-7.01584107451089
30
0
0
SPLINE
5
1E2
100
AcDbEntity
8
1
62
256
6
ByLayer
370
13
48
1
60
0
100
AcDbSpline
70
4
71
3
72
12
73
8
40
0
40
0
40
0
40
0
40
0.473871515909109
40
0.473871515909109
40
0.928528687587425
40
0.928528687587425
40
1
40
1
40
1
40
1
41
1
10
22.18962014135
20
-6.2114277736807
30
0
41
1
10
22.1605769079864
20
-6.17297852056171
30
0
41
1
10
22.1380765039721
20
-6.13207086376394
30
0
41
1
10
22.1054858788087
20
-6.05852838351348
30
0
41
1
10
22.0944900899473
20
-6.02481334861861
30
0
41
1
10
22.0859581625813
20
-5.99225944767988
30
0
41
1
10
22.0848846310211
20
-5.98791672184862
30
0
41
1
10
22.0838678419132
20
-5.98372671565312
30
0
0
SPLINE
5
1E3
100
AcDbEntity
8
1
62
256
6
ByLayer
370
13
48
1
60
0
100
AcDbSpline
70
4
71
3
72
12
73
8
40
0
40
0
40
0
40
0
40
0.152393412067187
40
0.152393412067187
40
0.68049007519868
40
0.68049007519868
40
1
40
1
40
1
40
1
41
1
10
22.1896201413457
20
-6.21142777368567
30
0
41
1
10
22.2346105972806
20
-6.20247369544578
30
0
41
1
10
22.2812734171468
20
-6.19298342993659
30
0
41
1
10
22.4939294786755
20
-6.14891755517863
30
0
41
1
10
22.6774173301441
20
-6.10883190953658
30
0
41
1
10
22.978376870561
20
-6.0398993350048
30
0
41
1
10
23.0952214954585
20
-6.01239446652357
30
0
41
1
10
23.2112677608008
20
-5.98415892548937
30
0
0
SPLINE
5
1E4
100
AcDbEntity
8
1
62
256
6
ByLayer
370
13
48
1
60
0
100
AcDbSpline
70
4
71
3
72
16
73
12
40
0
40
0
40
0
40
0
40
0.257384746008501
40
0.257384746008501
40
0.483485531381172
40
0.483485531381172
40
0.71945910330869
40
0.71945910330869
40
0.925748185145375
40
0.925748185145375
40
1
40
1
40
1
40
1
41
1
10
21.0610166945645
20
-6.99408820314841
30
0
41
1
10
21.0316687367362
20
-6.99158615324544
30
0
41
1
10
21.0016686457385
20
-6.99303167351491
30
0
41
1
10
20.9476222628196
20
-7.00302558116547
30
0
41
1
10
20.9228412392242
20
-7.01077693620067
30
0
41
1
10
20.8759336807441
20
-7.03217801485539
30
0
41
1
10
20.8535298246702
20
-7.04627689981911
30
0
41
1
10
20.8168300974004
20
-7.0773137419919
30
0
41
1
10
20.8015959942175
20
-7.09390520913087
30
0
41
1
10
20.7843415664157
20
-7.11841502722544
30
0
41
1
10
20.7800684610182
20
-7.12513847809697
30
0
41
1
10
20.7761342837701
20
-7.13202896532891
30
0
0
SPLINE
5
1E5
100
AcDbEntity
8
1
62
256
6
ByLayer
370
13
48
1
60
0
100
AcDbSpline
70
4
71
3
72
16
73
12
40
0
40
0
40
0
40
0
40
0.215940694014332
40
0.215940694014332
40
0.440749342864023
40
0.440749342864023
40
0.6480631149087
40
0.6480631149087
40
0.900502256755734
40
0.900502256755734
40
1
40
1
40
1
40
1
41
1
10
20.7761342837701
20
-5.86797103467279
30
0
41
1
10
20.7874887091378
20
-5.88785766358865
30
0
41
1
10
20.8017703058924
20
-5.90643615981389
30
0
41
1
10
20.8355311178214
20
-5.93991939289694
30
0
41
1
10
20.8554935542142
20
-5.95493576148902
30
0
41
1
10
20.8971485157203
20
-5.97847508705604
30
0
41
1
10
20.9188925805651
20
-5.98758964772122
30
0
41
1
10
20.9687388690062
20
-6.00214645152354
30
0
41
1
10
20.9977360562636
20
-6.00652212054371
30
0
41
1
10
21.0380565109324
20
-6.00727070339769
30
0
41
1
10
21.0495709364866
20
-6.00688760096392
30
0
41
1
10
21.0610166945643
20
-6.0059117968533
30
0
0
SPLINE
5
1E6
100
AcDbEntity
8
1
62
256
6
ByLayer
370
13
48
1
60
0
100
AcDbSpline
70
4
71
3
72
14
73
10
40
0
40
0
40
0
40
0
40
0.0140696667047013
40
0.0140696667047013
40
0.158297294424887
40
0.158297294424887
40
0.557403345933072
40
0.557403345933072
40
1
40
1
40
1
40
1
41
1
10
21.0387159227632
20
-6.16096703675908
30
0
41
1
10
21.0375460584102
20
-6.16113020680086
30
0
41
1
10
21.036375468005
20
-6.16128933700367
30
0
41
1
10
21.0230171191251
20
-6.16306567628183
30
0
41
1
10
21.0107456069811
20
-6.16429692709212
30
0
41
1
10
20.9650925286651
20
-6.1674390259891
30
0
41
1
10
20.9314247709742
20
-6.16681456587509
30
0
41
1
10
20.8656728605842
20
-6.15970355425102
30
0
41
1
10
20.8330791217041
20
-6.15247101094508
30
0
41
1
10
20.8056329534176
20
-6.14230644342663
30
0
0
SPLINE
5
1E7
100
AcDbEntity
8
1
62
256
6
ByLayer
370
13
48
1
60
0
100
AcDbSpline
70
4
71
3
72
8
73
4
40
0
40
0
40
0
40
0
40
1
40
1
40
1
40
1
41
1
10
20.8056329534175
20
-6.1423064434052
30
0
41
1
10
20.796339183532
20
-6.13886453666996
30
0
41
1
10
20.787572294916
20
-6.135404826051
30
0
41
1
10
20.7794417210372
20
-6.13200211971886
30
0
0
SPLINE
5
1E8
100
AcDbEntity
8
1
62
256
6
ByLayer
370
13
48
1
60
0
100
AcDbSpline
70
4
71
3
72
10
73
6
40
0
40
0
40
0
40
0
40
0.782589980152529
40
0.782589980152529
40
1
40
1
40
1
40
1
41
1
10
20.7761342837701
20
-5.86797103467276
30
0
41
1
10
20.7750264075113
20
-5.92788680408708
30
0
41
1
10
20.7733409185196
20
-5.99722838836576
30
0
41
1
10
20.7768419616687
20
-6.0902982850528
30
0
41
1
10
20.7779402791545
20
-6.11102490278063
30
0
41
1
10
20.7794417210385
20
-6.13200211971679
30
0
0
SPLINE
5
1E9
100
AcDbEntity
8
1
62
256
6
ByLayer
370
13
48
1
60
0
100
AcDbSpline
70
4
71
3
72
10
73
6
40
0
40
0
40
0
40
0
40
0.217410019846355
40
0.217410019846355
40
1
40
1
40
1
40
1
41
1
10
20.7794417210371
20
-6.86799788028225
30
0
41
1
10
20.7779402791531
20
-6.88897509721841
30
0
41
1
10
20.7768419616687
20
-6.90970171494746
30
0
41
1
10
20.7733409185196
20
-7.0027716116351
30
0
41
1
10
20.7750264075114
20
-7.07211319591431
30
0
41
1
10
20.7761342837702
20
-7.13202896532894
30
0
0
SPLINE
5
1EA
100
AcDbEntity
8
1
62
256
6
ByLayer
370
13
48
1
60
0
100
AcDbSpline
70
4
71
3
72
8
73
4
40
0
40
0
40
0
40
0
40
1
40
1
40
1
40
1
41
1
10
20.7794417210371
20
-6.86799788028225
30
0
41
1
10
20.7875722949159
20
-6.86459517395011
30
0
41
1
10
20.796339183532
20
-6.86113546333041
30
0
41
1
10
20.8056329534175
20
-6.85769355659514
30
0
0
SPLINE
5
1EB
100
AcDbEntity
8
1
62
256
6
ByLayer
370
13
48
1
60
0
100
AcDbSpline
70
4
71
3
72
14
73
10
40
0
40
0
40
0
40
0
40
0.362290872375782
40
0.362290872375782
40
0.75921727113372
40
0.75921727113372
40
0.985981513552925
40
0.985981513552925
40
1
40
1
40
1
40
1
41
1
10
20.8056329534176
20
-6.85769355657362
30
0
41
1
10
20.8281812464505
20
-6.84934289557916
30
0
41
1
10
20.8541207849953
20
-6.84297362412985
30
0
41
1
10
20.9118571823039
20
-6.83448301339166
30
0
41
1
10
20.9447419197083
20
-6.83270660086581
30
0
41
1
10
20.9968158183066
20
-6.83443563829377
30
0
41
1
10
21.0161285437686
20
-6.83601830874375
30
0
41
1
10
21.0363754679909
20
-6.83871066300901
30
0
41
1
10
21.0375460583942
20
-6.83886979319999
30
0
41
1
10
21.0387159227443
20
-6.83903296323734
30
0
0
SPLINE
5
1EC
100
AcDbEntity
8
1
62
256
6
ByLayer
370
13
48
1
60
0
100
AcDbSpline
70
4
71
3
72
12
73
8
40
0
40
0
40
0
40
0
40
0.027753964396557
40
0.027753964396557
40
0.667826589987148
40
0.667826589987148
40
1
40
1
40
1
40
1
41
1
10
20.6639115680571
20
-5.36608276248637
30
0
41
1
10
20.66302249383
20
-5.36659468711522
30
0
41
1
10
20.6621362973346
20
-5.3671065367088
30
0
41
1
10
20.641139438886
20
-5.37928009283314
30
0
41
1
10
20.6223677783528
20
-5.39114742471966
30
0
41
1
10
20.5985834198732
20
-5.40777830836851
30
0
41
1
10
20.5911418620728
20
-5.41332047332114
30
0
41
1
10
20.5846560826642
20
-5.41852006093558
30
0
0
SPLINE
5
1ED
100
AcDbEntity
8
1
62
256
6
ByLayer
370
18
48
1
60
0
100
AcDbSpline
70
4
71
3
72
12
73
8
40
0
40
0
40
0
40
0
40
0.281692595018195
40
0.281692595018195
40
0.848969977860217
40
0.848969977860217
40
1
40
1
40
1
40
1
41
1
10
23.8659989530459
20
-5.07516485494315
30
0
41
1
10
23.8420735947892
20
-5.03732002847977
30
0
41
1
10
23.8197547657453
20
-4.9955276932161
30
0
41
1
10
23.7590916560366
20
-4.85933592937033
30
0
41
1
10
23.7262507517981
20
-4.75151513155714
30
0
41
1
10
23.6997829633505
20
-4.60615585927215
30
0
41
1
10
23.6949798062705
20
-4.57469416883362
30
0
41
1
10
23.6910399369412
20
-4.54285233900174
30
0
0
SPLINE
5
1EE
100
AcDbEntity
8
1
62
256
6
ByLayer
370
13
48
1
60
0
100
AcDbSpline
70
4
71
3
72
10
73
6
40
0
40
0
40
0
40
0
40
0.820434354426583
40
0.820434354426583
40
1
40
1
40
1
40
1
41
1
10
20.5772670677278
20
-5.42401566865422
30
0
41
1
10
20.6373176229179
20
-5.5427324181907
30
0
41
1
10
20.6907218307757
20
-5.66481625051574
30
0
41
1
10
20.7537878651403
20
-5.81418770936745
30
0
41
1
10
20.765006782063
20
-5.84106172250191
30
0
41
1
10
20.7761342837705
20
-5.86797103467245
30
0
0
SPLINE
5
1EF
100
AcDbEntity
8
1
62
256
6
ByLayer
370
13
48
1
60
0
100
AcDbSpline
70
4
71
3
72
8
73
4
40
0
40
0
40
0
40
0
40
1
40
1
40
1
40
1
41
1
10
20.5846560826642
20
-5.41852006093558
30
0
41
1
10
20.5821308679729
20
-5.42054450151568
30
0
41
1
10
20.5796628452491
20
-5.42238019853414
30
0
41
1
10
20.5772670677278
20
-5.42401566865422
30
0
0
SPLINE
5
1F0
100
AcDbEntity
8
1
62
256
6
ByLayer
370
13
48
1
60
0
100
AcDbSpline
70
4
71
3
72
12
73
8
40
0
40
0
40
0
40
0
40
0.0278313206712517
40
0.0278313206712517
40
0.611473023609022
40
0.611473023609022
40
1
40
1
40
1
40
1
41
1
10
20.6639115680655
20
-7.63391723750368
30
0
41
1
10
20.6630224938381
20
-7.63340531287781
30
0
41
1
10
20.6621362973421
20
-7.63289346328813
30
0
41
1
10
20.6428803330612
20
-7.62172924262254
30
0
41
1
10
20.6256423082254
20
-7.61091875298553
30
0
41
1
10
20.6010972420243
20
-7.59408229024353
30
0
41
1
10
20.5922210960019
20
-7.58754473824692
30
0
41
1
10
20.5846560826641
20
-7.58147993906456
30
0
0
SPLINE
5
1F1
100
AcDbEntity
8
1
62
256
6
ByLayer
370
13
48
1
60
0
100
AcDbSpline
70
4
71
3
72
8
73
4
40
0
40
0
40
0
40
0
40
1
40
1
40
1
40
1
41
1
10
20.5846560826641
20
-7.58147993906456
30
0
41
1
10
20.5821308679729
20
-7.57945549848452
30
0
41
1
10
20.5796628452491
20
-7.57761980146611
30
0
41
1
10
20.5772670677279
20
-7.57598433134604
30
0
0
SPLINE
5
1F2
100
AcDbEntity
8
1
62
256
6
ByLayer
370
13
48
1
60
0
100
AcDbSpline
70
4
71
3
72
10
73
6
40
0
40
0
40
0
40
0
40
0.819881036339605
40
0.819881036339605
40
1
40
1
40
1
40
1
41
1
10
20.7761342837701
20
-7.13202896532894
30
0
41
1
10
20.7253430321445
20
-7.25485596472583
30
0
41
1
10
20.6729973133249
20
-7.3771935301975
30
0
41
1
10
20.6032770273131
20
-7.52364220966484
30
0
41
1
10
20.5904566776893
20
-7.54990917488323
30
0
41
1
10
20.5772670677279
20
-7.57598433134606
30
0
0
SPLINE
5
1F3
100
AcDbEntity
8
1
62
256
6
ByLayer
370
13
48
1
60
0
100
AcDbSpline
70
4
71
3
72
12
73
8
40
0
40
0
40
0
40
0
40
0.0277499781510944
40
0.0277499781510944
40
0.667808133384293
40
0.667808133384293
40
1
40
1
40
1
40
1
41
1
10
20.663911568057
20
-5.36608276248637
30
0
41
1
10
20.6629034320478
20
-5.36616117993015
30
0
41
1
10
20.6618982158727
20
-5.36623959514085
30
0
41
1
10
20.6380665525594
20
-5.36810436775176
30
0
41
1
10
20.6165180885701
20
-5.36991934865961
30
0
41
1
10
20.5888224267559
20
-5.37245915286994
30
0
41
1
10
20.5800735548721
20
-5.37330487126766
30
0
41
1
10
20.5723583203581
20
-5.37409777686838
30
0
0
SPLINE
5
1F4
100
AcDbEntity
8
1
62
256
6
ByLayer
370
13
48
1
60
0
100
AcDbSpline
70
4
71
3
72
12
73
8
40
0
40
0
40
0
40
0
40
0.0278272716373759
40
0.0278272716373759
40
0.611453167879501
40
0.611453167879501
40
1
40
1
40
1
40
1
41
1
10
20.6639115680571
20
-7.63391723751391
30
0
41
1
10
20.6629034319402
20
-7.63383882164945
30
0
41
1
10
20.6618982154425
20
-7.63376041117641
30
0
41
1
10
20.6400426145075
20
-7.63205022625343
30
0
41
1
10
20.6202762805606
20
-7.63039665951547
30
0
41
1
10
20.5917749645618
20
-7.62782478317129
30
0
41
1
10
20.5813573467759
20
-7.62682706584852
30
0
41
1
10
20.5723583203581
20
-7.62590222313187
30
0
0
SPLINE
5
1F5
100
AcDbEntity
8
1
62
256
6
ByLayer
370
13
48
1
60
0
100
AcDbSpline
70
4
71
3
72
26
73
22
40
0
40
0
40
0
40
0
40
0.102035501666901
40
0.102035501666901
40
0.129284389714829
40
0.129284389714829
40
0.254161410871578
40
0.254161410871578
40
0.386333886983898
40
0.386333886983898
40
0.523125606178389
40
0.523125606178389
40
0.658908540792033
40
0.658908540792033
40
0.795133361230144
40
0.795133361230144
40
0.895568684120736
40
0.895568684120736
40
0.931575554525879
40
0.931575554525879
40
1
40
1
40
1
40
1
41
1
10
20.9964890019636
20
-6.3026645496351
30
0
41
1
10
21.0131393767336
20
-6.30798412346974
30
0
41
1
10
21.0291034127914
20
-6.31565509327103
30
0
41
1
10
21.0463800184523
20
-6.32787203732417
30
0
41
1
10
21.04992822141
20
-6.33063104782553
30
0
41
1
10
21.0686371526018
20
-6.34657003765861
30
0
41
1
10
21.0810099307052
20
-6.36259829058727
30
0
41
1
10
21.1005417637306
20
-6.39887392098419
30
0
41
1
10
21.1077186636935
20
-6.41988611040856
30
0
41
1
10
21.116817379671
20
-6.46426495271979
30
0
41
1
10
21.1186673668159
20
-6.48832553433772
30
0
41
1
10
21.1168386014334
20
-6.5351292011228
30
0
41
1
10
21.1131780830524
20
-6.55852186077462
30
0
41
1
10
21.100271409133
20
-6.60165924458991
30
0
41
1
10
21.0908281262292
20
-6.62202849752086
30
0
41
1
10
21.068731185536
20
-6.65250329662527
30
0
41
1
10
21.0572851116735
20
-6.66419679656679
30
0
41
1
10
21.0391386222023
20
-6.67731463733671
30
0
41
1
10
21.0340445533439
20
-6.68055662781103
30
0
41
1
10
21.0187059419969
20
-6.68910560254255
30
0
41
1
10
21.0077600338148
20
-6.69373450522411
30
0
41
1
10
20.9964890019636
20
-6.69733545036519
30
0
0
SPLINE
5
1F6
100
AcDbEntity
8
1
62
256
6
ByLayer
370
13
48
1
60
0
100
AcDbSpline
70
4
71
3
72
14
73
10
40
0
40
0
40
0
40
0
40
0.27475847941734
40
0.27475847941734
40
0.512436463803127
40
0.512436463803127
40
0.749993769781322
40
0.749993769781322
40
1
40
1
40
1
40
1
41
1
10
22.1896201413547
20
-6.78857222631172
30
0
41
1
10
22.2118015893238
20
-6.74043514272373
30
0
41
1
10
22.2306589366166
20
-6.68891044535948
30
0
41
1
10
22.253462576975
20
-6.58910401817838
30
0
41
1
10
22.2590594822314
20
-6.54055509005718
30
0
41
1
10
22.2578279543455
20
-6.44452522595432
30
0
41
1
10
22.2510126304754
20
-6.39624743598483
30
0
41
1
10
22.2272786525577
20
-6.30192459596199
30
0
41
1
10
22.2098376614737
20
-6.2553028379873
30
0
41
1
10
22.1896201413508
20
-6.21142777368013
30
0
0
SPLINE
5
1F7
100
AcDbEntity
8
1
62
256
6
ByLayer
370
13
48
1
60
0
100
AcDbSpline
70
4
71
3
72
8
73
4
40
0
40
0
40
0
40
0
40
1
40
1
40
1
40
1
41
1
10
20.5705951003268
20
-7.62543792813546
30
0
41
1
10
20.5711929686635
20
-7.62543792813546
30
0
41
1
10
20.5717967952489
20
-7.62558812698154
30
0
41
1
10
20.5723583203562
20
-7.62590222311724
30
0
0
SPLINE
5
1F8
100
AcDbEntity
8
1
62
256
6
ByLayer
370
13
48
1
60
0
100
AcDbSpline
70
4
71
3
72
8
73
4
40
0
40
0
40
0
40
0
40
1
40
1
40
1
40
1
41
1
10
20.5723583203562
20
-5.37409777686966
30
0
41
1
10
20.5717967952486
20
-5.3744118730061
30
0
41
1
10
20.5711929686639
20
-5.37456207186483
30
0
41
1
10
20.5705951003268
20
-5.37456207186483
30
0
0
SPLINE
5
1F9
100
AcDbEntity
8
1
62
256
6
ByLayer
370
13
48
1
60
0
100
AcDbSpline
70
4
71
3
72
10
73
6
40
0
40
0
40
0
40
0
40
0.84896187346875
40
0.84896187346875
40
1
40
1
40
1
40
1
41
1
10
24.9256851850747
20
-5.73523425288974
30
0
41
1
10
24.8912977154035
20
-5.68339144974649
30
0
41
1
10
24.843874742716
20
-5.63993580198138
30
0
41
1
10
24.7838155264513
20
-5.59793022786184
30
0
41
1
10
24.7744787017949
20
-5.59173629222232
30
0
41
1
10
24.7650107000385
20
-5.58575668076043
30
0
0
SPLINE
5
1FA
100
AcDbEntity
8
1
62
256
6
ByLayer
370
13
48
1
60
0
100
AcDbSpline
70
4
71
3
72
8
73
4
40
0
40
0
40
0
40
0
40
1
40
1
40
1
40
1
41
1
10
24.7650107000385
20
-5.58575668076043
30
0
41
1
10
24.7210937227593
20
-5.55802047332531
30
0
41
1
10
24.6769798114245
20
-5.53059082536652
30
0
41
1
10
24.632560747957
20
-5.50366733691772
30
0
0
SPLINE
5
1FB
100
AcDbEntity
8
1
62
256
6
ByLayer
370
13
48
1
60
0
100
AcDbSpline
70
4
71
3
72
10
73
6
40
0
40
0
40
0
40
0
40
0.657586553479613
40
0.657586553479613
40
1
40
1
40
1
40
1
41
1
10
24.632560747957
20
-5.50366733691772
30
0
41
1
10
24.6092305437702
20
-5.48952632551647
30
0
41
1
10
24.5864384919004
20
-5.47420290595673
30
0
41
1
10
24.5548281900598
20
-5.44729410541095
30
0
41
1
10
24.5444660370969
20
-5.43736466588948
30
0
41
1
10
24.535515563742
20
-5.42629438911945
30
0
0
SPLINE
5
1FC
100
AcDbEntity
8
1
62
256
6
ByLayer
370
13
48
1
60
0
100
AcDbSpline
70
4
71
3
72
10
73
6
40
0
40
0
40
0
40
0
40
0.657586553479614
40
0.657586553479614
40
1
40
1
40
1
40
1
41
1
10
24.632560747957
20
-7.49633266308254
30
0
41
1
10
24.6092305437702
20
-7.51047367448382
30
0
41
1
10
24.5864384919004
20
-7.52579709404355
30
0
41
1
10
24.5548281900598
20
-7.55270589458934
30
0
41
1
10
24.5444660370969
20
-7.56263533411081
30
0
41
1
10
24.535515563742
20
-7.57370561088081
30
0
0
SPLINE
5
1FD
100
AcDbEntity
8
1
62
256
6
ByLayer
370
13
48
1
60
0
100
AcDbSpline
70
4
71
3
72
8
73
4
40
0
40
0
40
0
40
0
40
1
40
1
40
1
40
1
41
1
10
24.7650107000385
20
-7.41424331923983
30
0
41
1
10
24.7210937227593
20
-7.44197952667494
30
0
41
1
10
24.6769798114245
20
-7.46940917463377
30
0
41
1
10
24.632560747957
20
-7.49633266308254
30
0
0
SPLINE
5
1FE
100
AcDbEntity
8
1
62
256
6
ByLayer
370
13
48
1
60
0
100
AcDbSpline
70
4
71
3
72
10
73
6
40
0
40
0
40
0
40
0
40
0.84896187346875
40
0.84896187346875
40
1
40
1
40
1
40
1
41
1
10
24.9256851850747
20
-7.26476574711054
30
0
41
1
10
24.8912977154035
20
-7.31660855025379
30
0
41
1
10
24.843874742716
20
-7.3600641980189
30
0
41
1
10
24.7838155264513
20
-7.40206977213842
30
0
41
1
10
24.7744787017949
20
-7.40826370777796
30
0
41
1
10
24.7650107000385
20
-7.41424331923986
30
0
0
SPLINE
5
1FF
100
AcDbEntity
8
1
62
256
6
ByLayer
370
13
48
1
60
0
100
AcDbSpline
70
4
71
3
72
14
73
10
40
0
40
0
40
0
40
0
40
0.0140322366304758
40
0.0140322366304758
40
0.158091565624719
40
0.158091565624719
40
0.557043656612004
40
0.557043656612004
40
1
40
1
40
1
40
1
41
1
10
21.0387159228241
20
-6.16096703674884
30
0
41
1
10
21.0379360645915
20
-6.16172776964112
30
0
41
1
10
21.0371559091054
20
-6.16248505377098
30
0
41
1
10
21.0282316685991
20
-6.17108356511363
30
0
41
1
10
21.0199670064645
20
-6.17850384598802
30
0
41
1
10
20.9889415558847
20
-6.20436739796122
30
0
41
1
10
20.9655368582111
20
-6.21980530701981
30
0
41
1
10
20.9187541033905
20
-6.24248914468211
30
0
41
1
10
20.8949133424734
20
-6.24900990703398
30
0
41
1
10
20.8743263124385
20
-6.24951413545256
30
0
0
SPLINE
5
200
100
AcDbEntity
8
1
62
256
6
ByLayer
370
13
48
1
60
0
100
AcDbSpline
70
4
71
3
72
14
73
10
40
0
40
0
40
0
40
0
40
0.362636115875106
40
0.362636115875106
40
0.759502173372961
40
0.759502173372961
40
0.986017775516147
40
0.986017775516147
40
1
40
1
40
1
40
1
41
1
10
20.8743263124385
20
-6.7504858645477
30
0
41
1
10
20.8912406290798
20
-6.75090013892913
30
0
41
1
10
20.9102969105352
20
-6.75533332875887
30
0
41
1
10
20.951756877543
20
-6.77241211056997
30
0
41
1
10
20.9748386743135
20
-6.78601259474499
30
0
41
1
10
21.0105592323138
20
-6.81322635850606
30
0
41
1
10
21.023626747303
20
-6.82447959032027
30
0
41
1
10
21.0371559091053
20
-6.83751494622933
30
0
41
1
10
21.0379360645915
20
-6.83827223035919
30
0
41
1
10
21.0387159228241
20
-6.83903296325144
30
0
0
SPLINE
5
201
100
AcDbEntity
8
1
62
256
6
ByLayer
370
13
48
1
60
0
100
AcDbSpline
70
4
71
3
72
8
73
4
40
0
40
0
40
0
40
0
40
1
40
1
40
1
40
1
41
1
10
20.8743263124398
20
-6.249514135455
30
0
41
1
10
20.9107270135585
20
-6.26752867936705
30
0
41
1
10
20.9486103280918
20
-6.28411988411128
30
0
41
1
10
20.9875073723823
20
-6.29924434820185
30
0
0
SPLINE
5
202
100
AcDbEntity
8
1
62
256
6
ByLayer
370
13
48
1
60
0
100
AcDbSpline
70
4
71
3
72
10
73
6
40
0
40
0
40
0
40
0
40
0.638823417468865
40
0.638823417468865
40
1
40
1
40
1
40
1
41
1
10
24.5900286630425
20
-5.56497603366449
30
0
41
1
10
24.566841990865
20
-5.54528934207454
30
0
41
1
10
24.5449724664755
20
-5.52349771230138
30
0
41
1
10
24.5161775948407
20
-5.48498012701046
30
0
41
1
10
24.5068123576004
20
-5.47000170436516
30
0
41
1
10
24.4995116901682
20
-5.4540020401827
30
0
0
SPLINE
5
203
100
AcDbEntity
8
1
62
256
6
ByLayer
370
13
48
1
60
0
100
AcDbSpline
70
4
71
3
72
8
73
4
40
0
40
0
40
0
40
0
40
1
40
1
40
1
40
1
41
1
10
20.9875073723823
20
-6.70075565179843
30
0
41
1
10
20.9486103280918
20
-6.71588011588901
30
0
41
1
10
20.9107270135585
20
-6.73247132063324
30
0
41
1
10
20.8743263124398
20
-6.75048586454525
30
0
0
SPLINE
5
204
100
AcDbEntity
8
1
62
256
6
ByLayer
370
13
48
1
60
0
100
AcDbSpline
70
4
71
3
72
16
73
12
40
0
40
0
40
0
40
0
40
0.0355702320992689
40
0.0355702320992689
40
0.09050817101665
40
0.09050817101665
40
0.198049233530909
40
0.198049233530909
40
0.436780146594192
40
0.436780146594192
40
1
40
1
40
1
40
1
41
1
10
24.4647600217563
20
-7.62632203558664
30
0
41
1
10
24.4651586810189
20
-7.625355259624
30
0
41
1
10
24.4655584542086
20
-7.62438892113218
30
0
41
1
10
24.4665771815565
20
-7.62192685495444
30
0
41
1
10
24.4671970808021
20
-7.62043150894067
30
0
41
1
10
24.4690334070428
20
-7.61601120095463
30
0
41
1
10
24.4702528942054
20
-7.61308779625514
30
0
41
1
10
24.4741930527674
20
-7.60368983859303
30
0
41
1
10
24.4769343827305
20
-7.5972280597345
30
0
41
1
10
24.4861946238307
20
-7.57565943605599
30
0
41
1
10
24.4928248586496
20
-7.56065238145109
30
0
41
1
10
24.4995116901683
20
-7.54599795981761
30
0
0
SPLINE
5
205
100
AcDbEntity
8
1
62
256
6
ByLayer
370
13
48
1
60
0
100
AcDbSpline
70
4
71
3
72
8
73
4
40
0
40
0
40
0
40
0
40
1
40
1
40
1
40
1
41
1
10
24.4647600217523
20
-7.62632203558854
30
0
41
1
10
24.3478492133728
20
-7.65707359087617
30
0
41
1
10
24.2265101800572
20
-7.67205728680293
30
0
41
1
10
24.1060768987951
20
-7.67486879813257
30
0
0
SPLINE
5
206
100
AcDbEntity
8
1
62
256
6
ByLayer
370
13
48
1
60
0
100
AcDbSpline
70
4
71
3
72
16
73
12
40
0
40
0
40
0
40
0
40
0.0355702320992689
40
0.0355702320992689
40
0.09050817101665
40
0.09050817101665
40
0.198049233530909
40
0.198049233530909
40
0.436780146594192
40
0.436780146594192
40
1
40
1
40
1
40
1
41
1
10
24.4647600217563
20
-5.37367796441364
30
0
41
1
10
24.4651586810189
20
-5.37464474037628
30
0
41
1
10
24.4655584542086
20
-5.3756110788681
30
0
41
1
10
24.4665771815565
20
-5.37807314504585
30
0
41
1
10
24.4671970808021
20
-5.37956849105962
30
0
41
1
10
24.4690334070428
20
-5.38398879904562
30
0
41
1
10
24.4702528942054
20
-5.38691220374514
30
0
41
1
10
24.4741930527674
20
-5.39631016140726
30
0
41
1
10
24.4769343827305
20
-5.40277194026578
30
0
41
1
10
24.4861946238307
20
-5.4243405639443
30
0
41
1
10
24.4928248586496
20
-5.43934761854919
30
0
41
1
10
24.4995116901683
20
-5.45400204018267
30
0
0
SPLINE
5
207
100
AcDbEntity
8
1
62
256
6
ByLayer
370
13
48
1
60
0
100
AcDbSpline
70
4
71
3
72
10
73
6
40
0
40
0
40
0
40
0
40
0.638823417468865
40
0.638823417468865
40
1
40
1
40
1
40
1
41
1
10
24.5900286630425
20
-7.43502396633579
30
0
41
1
10
24.566841990865
20
-7.45471065792574
30
0
41
1
10
24.5449724664755
20
-7.47650228769888
30
0
41
1
10
24.5161775948407
20
-7.5150198729898
30
0
41
1
10
24.5068123576004
20
-7.52999829563512
30
0
41
1
10
24.4995116901682
20
-7.54599795981756
30
0
0
SPLINE
5
208
100
AcDbEntity
8
1
62
256
6
ByLayer
370
13
48
1
60
0
100
AcDbSpline
70
4
71
3
72
8
73
4
40
0
40
0
40
0
40
0
40
1
40
1
40
1
40
1
41
1
10
20.9875073723823
20
-6.29924434820185
30
0
41
1
10
20.990499776207
20
-6.30038443203571
30
0
41
1
10
20.9934936621595
20
-6.30152449963111
30
0
41
1
10
20.9964890019636
20
-6.3026645496351
30
0
0
SPLINE
5
209
100
AcDbEntity
8
1
62
256
6
ByLayer
370
13
48
1
60
0
100
AcDbSpline
70
4
71
3
72
8
73
4
40
0
40
0
40
0
40
0
40
1
40
1
40
1
40
1
41
1
10
24.4647600217523
20
-5.37367796441171
30
0
41
1
10
24.3478492133728
20
-5.34292640912412
30
0
41
1
10
24.2265101800572
20
-5.32794271319733
30
0
41
1
10
24.1060768987951
20
-5.32513120186772
30
0
0
SPLINE
5
20A
100
AcDbEntity
8
1
62
256
6
ByLayer
370
13
48
1
60
0
100
AcDbSpline
70
4
71
3
72
8
73
4
40
0
40
0
40
0
40
0
40
1
40
1
40
1
40
1
41
1
10
20.9964890019636
20
-6.69733545036519
30
0
41
1
10
20.9934936621595
20
-6.69847550036914
30
0
41
1
10
20.990499776207
20
-6.69961556796454
30
0
41
1
10
20.9875073723823
20
-6.70075565179843
30
0
0
SPLINE
5
20B
100
AcDbEntity
8
1
62
256
6
ByLayer
370
13
48
1
60
0
100
AcDbSpline
70
4
71
3
72
8
73
4
40
0
40
0
40
0
40
0
40
1
40
1
40
1
40
1
41
1
10
20.8743263124385
20
-6.7504858645477
30
0
41
1
10
20.871342816915
20
-6.75084835990211
30
0
41
1
10
20.8686096513474
20
-6.75102435555306
30
0
41
1
10
20.8661840397669
20
-6.75102435555306
30
0
0
SPLINE
5
20C
100
AcDbEntity
8
1
62
256
6
ByLayer
370
13
48
1
60
0
100
AcDbSpline
70
4
71
3
72
16
73
12
40
0
40
0
40
0
40
0
40
0.0355303527441481
40
0.0355303527441481
40
0.0917680599187357
40
0.0917680599187357
40
0.200182520092063
40
0.200182520092063
40
0.439533504711995
40
0.439533504711995
40
1
40
1
40
1
40
1
41
1
10
24.4647600217524
20
-5.37367796441171
30
0
41
1
10
24.4655855998636
20
-5.37431169199368
30
0
41
1
10
24.4664120929672
20
-5.37494492601067
30
0
41
1
10
24.4685507889318
20
-5.37658284554419
30
0
41
1
10
24.4698640688781
20
-5.37758715931423
30
0
41
1
10
24.4737129338246
20
-5.38052602289974
30
0
41
1
10
24.4762525536656
20
-5.38245948159201
30
0
41
1
10
24.4844114693383
20
-5.38865073870969
30
0
41
1
10
24.4900517136001
20
-5.39289905948627
30
0
41
1
10
24.5089188273347
20
-5.40699552825618
30
0
41
1
10
24.5222466489562
20
-5.41676826106362
30
0
41
1
10
24.535515563742
20
-5.42629438911945
30
0
0
SPLINE
5
20D
100
AcDbEntity
8
1
62
256
6
ByLayer
370
13
48
1
60
0
100
AcDbSpline
70
4
71
3
72
8
73
4
40
0
40
0
40
0
40
0
40
1
40
1
40
1
40
1
41
1
10
20.8661840397672
20
-6.24897564444734
30
0
41
1
10
20.8686096513478
20
-6.24897564444737
30
0
41
1
10
20.8713428169147
20
-6.24915164009823
30
0
41
1
10
20.8743263124381
20
-6.24951413545264
30
0
0
SPLINE
5
20E
100
AcDbEntity
8
1
62
256
6
ByLayer
370
13
48
1
60
0
100
AcDbSpline
70
4
71
3
72
16
73
12
40
0
40
0
40
0
40
0
40
0.0355303527441481
40
0.0355303527441481
40
0.0917680599187357
40
0.0917680599187357
40
0.200182520092063
40
0.200182520092063
40
0.439533504711995
40
0.439533504711995
40
1
40
1
40
1
40
1
41
1
10
24.4647600217524
20
-7.62632203558854
30
0
41
1
10
24.4655855998636
20
-7.6256883080066
30
0
41
1
10
24.4664120929672
20
-7.62505507398959
30
0
41
1
10
24.4685507889318
20
-7.62341715445609
30
0
41
1
10
24.4698640688781
20
-7.62241284068603
30
0
41
1
10
24.4737129338246
20
-7.61947397710054
30
0
41
1
10
24.4762525536656
20
-7.61754051840825
30
0
41
1
10
24.4844114693383
20
-7.6113492612906
30
0
41
1
10
24.4900517136001
20
-7.60710094051399
30
0
41
1
10
24.5089188273347
20
-7.59300447174411
30
0
41
1
10
24.5222466489562
20
-7.58323173893666
30
0
41
1
10
24.535515563742
20
-7.57370561088081
30
0
0
SPLINE
5
20F
100
AcDbEntity
8
1
62
256
6
ByLayer
370
13
48
1
60
0
100
AcDbSpline
70
4
71
3
72
8
73
4
40
0
40
0
40
0
40
0
40
1
40
1
40
1
40
1
41
1
10
24.1060768987951
20
-7.67486879813257
30
0
41
1
10
23.9916360304015
20
-7.67769217136342
30
0
41
1
10
23.8749005955276
20
-7.6739389632709
30
0
41
1
10
23.7587805434613
20
-7.67840922738247
30
0
0
SPLINE
5
210
100
AcDbEntity
8
1
62
256
6
ByLayer
370
13
48
1
60
0
100
AcDbSpline
70
4
71
3
72
8
73
4
40
0
40
0
40
0
40
0
40
1
40
1
40
1
40
1
41
1
10
24.1060768987951
20
-5.32513120186772
30
0
41
1
10
23.9916360304015
20
-5.32230782863687
30
0
41
1
10
23.8749005955276
20
-5.32606103672936
30
0
41
1
10
23.7587805434613
20
-5.32159077261781
30
0
0
SPLINE
5
211
100
AcDbEntity
8
1
62
256
6
ByLayer
370
13
48
1
60
0
100
AcDbSpline
70
4
71
3
72
10
73
6
40
0
40
0
40
0
40
0
40
0.155061591761428
40
0.155061591761428
40
1
40
1
40
1
40
1
41
1
10
24.7213895076228
20
-5.64630122296239
30
0
41
1
10
24.7304066184319
20
-5.65110706801809
30
0
41
1
10
24.7393274149503
20
-5.65609803032996
30
0
41
1
10
24.7954797246053
20
-5.68921922372752
30
0
41
1
10
24.8409287471059
20
-5.72348206069955
30
0
41
1
10
24.8749811562301
20
-5.76658708906058
30
0
0
SPLINE
5
212
100
AcDbEntity
8
1
62
256
6
ByLayer
370
13
48
1
60
0
100
AcDbSpline
70
4
71
3
72
10
73
6
40
0
40
0
40
0
40
0
40
0.155061591761428
40
0.155061591761428
40
1
40
1
40
1
40
1
41
1
10
24.7213895076228
20
-7.35369877703789
30
0
41
1
10
24.7304066184319
20
-7.34889293198216
30
0
41
1
10
24.7393274149503
20
-7.34390196967033
30
0
41
1
10
24.7954797246053
20
-7.31078077627274
30
0
41
1
10
24.8409287471059
20
-7.27651793930073
30
0
41
1
10
24.8749811562301
20
-7.23341291093971
30
0
0
SPLINE
5
213
100
AcDbEntity
8
1
62
256
6
ByLayer
370
13
48
1
60
0
100
AcDbSpline
70
4
71
3
72
12
73
8
40
0
40
0
40
0
40
0
40
0.0075770979405842
40
0.0075770979405842
40
0.524912447401083
40
0.524912447401083
40
1
40
1
40
1
40
1
41
1
10
24.4213727254145
20
-5.91092437757715
30
0
41
1
10
24.4226938848631
20
-5.91087536409714
30
0
41
1
10
24.4240151186687
20
-5.91082869522631
30
0
41
1
10
24.515463818229
20
-5.90776220697916
30
0
41
1
10
24.6056735270381
20
-5.9125262603929
30
0
41
1
10
24.7786115881781
20
-5.91658258911065
30
0
41
1
10
24.8613940232688
20
-5.91890245012857
30
0
41
1
10
24.9441651422333
20
-5.92161038134455
30
0
0
SPLINE
5
214
100
AcDbEntity
8
1
62
256
6
ByLayer
370
13
48
1
60
0
100
AcDbSpline
70
4
71
3
72
12
73
8
40
0
40
0
40
0
40
0
40
0.0075770979405842
40
0.0075770979405842
40
0.524912447401083
40
0.524912447401083
40
1
40
1
40
1
40
1
41
1
10
24.4213727254145
20
-7.08907562242314
30
0
41
1
10
24.4226938848631
20
-7.08912463590315
30
0
41
1
10
24.4240151186687
20
-7.08917130477397
30
0
41
1
10
24.515463818229
20
-7.0922377930211
30
0
41
1
10
24.6056735270381
20
-7.08747373960736
30
0
41
1
10
24.7786115881781
20
-7.08341741088964
30
0
41
1
10
24.8613940232688
20
-7.08109754987171
30
0
41
1
10
24.9441651422333
20
-7.07838961865573
30
0
0
SPLINE
5
215
100
AcDbEntity
8
1
62
256
6
ByLayer
370
13
48
1
60
0
100
AcDbSpline
70
4
71
3
72
8
73
4
40
0
40
0
40
0
40
0
40
1
40
1
40
1
40
1
41
1
10
24.8749811562301
20
-5.76658708906058
30
0
41
1
10
24.8822263780105
20
-5.77575840757683
30
0
41
1
10
24.8893737130963
20
-5.78504466676219
30
0
41
1
10
24.8964383490931
20
-5.79439320953836
30
0
0
SPLINE
5
216
100
AcDbEntity
8
1
62
256
6
ByLayer
370
13
48
1
60
0
100
AcDbSpline
70
4
71
3
72
10
73
6
40
0
40
0
40
0
40
0
40
0.596085739020476
40
0.596085739020476
40
1
40
1
40
1
40
1
41
1
10
24.8964383490931
20
-5.79439320953836
30
0
41
1
10
24.9128939358857
20
-5.8161686778154
30
0
41
1
10
24.9267245821227
20
-5.84059709940934
30
0
41
1
10
24.94081187438
20
-5.8842694800442
30
0
41
1
10
24.944038381206
20
-5.90301901474086
30
0
41
1
10
24.9441651422481
20
-5.9216103813398
30
0
0
SPLINE
5
217
100
AcDbEntity
8
1
62
256
6
ByLayer
370
13
48
1
60
0
100
AcDbSpline
70
4
71
3
72
10
73
6
40
0
40
0
40
0
40
0
40
0.596085739020476
40
0.596085739020476
40
1
40
1
40
1
40
1
41
1
10
24.8964383490931
20
-7.20560679046193
30
0
41
1
10
24.9128939358857
20
-7.18383132218489
30
0
41
1
10
24.9267245821227
20
-7.15940290059095
30
0
41
1
10
24.94081187438
20
-7.11573051995606
30
0
41
1
10
24.944038381206
20
-7.09698098525939
30
0
41
1
10
24.9441651422481
20
-7.07838961866045
30
0
0
SPLINE
5
218
100
AcDbEntity
8
1
62
256
6
ByLayer
370
13
48
1
60
0
100
AcDbSpline
70
4
71
3
72
8
73
4
40
0
40
0
40
0
40
0
40
1
40
1
40
1
40
1
41
1
10
24.8749811562301
20
-7.23341291093971
30
0
41
1
10
24.8822263780105
20
-7.22424159242345
30
0
41
1
10
24.8893737130963
20
-7.21495533323809
30
0
41
1
10
24.8964383490931
20
-7.20560679046193
30
0
0
SPLINE
5
219
100
AcDbEntity
8
1
62
256
6
ByLayer
370
13
48
1
60
0
100
AcDbSpline
70
4
71
3
72
8
73
4
40
0
40
0
40
0
40
0
40
1
40
1
40
1
40
1
41
1
10
23.7587805434613
20
-7.67840922738247
30
0
41
1
10
23.6587308196864
20
-7.68184905909092
30
0
41
1
10
23.5579761895169
20
-7.67788432750561
30
0
41
1
10
23.4587805434613
20
-7.66442418535129
30
0
0
SPLINE
5
21A
100
AcDbEntity
8
1
62
256
6
ByLayer
370
13
48
1
60
0
100
AcDbSpline
70
4
71
3
72
8
73
4
40
0
40
0
40
0
40
0
40
1
40
1
40
1
40
1
41
1
10
23.7587805434613
20
-5.32159077261781
30
0
41
1
10
23.6587308196864
20
-5.31815094090933
30
0
41
1
10
23.5579761895169
20
-5.32211567249465
30
0
41
1
10
23.4587805434613
20
-5.33557581464899
30
0
0
SPLINE
5
21B
100
AcDbEntity
8
1
62
256
6
ByLayer
370
13
48
1
60
0
100
AcDbSpline
70
4
71
3
72
16
73
12
40
0
40
0
40
0
40
0
40
0.113631665737173
40
0.113631665737173
40
0.758132216188134
40
0.758132216188134
40
0.942823120099093
40
0.942823120099093
40
0.947778003019258
40
0.947778003019258
40
1
40
1
40
1
40
1
41
1
10
23.2112677608008
20
-7.01584107451089
30
0
41
1
10
23.2332807942052
20
-7.02284514337182
30
0
41
1
10
23.2554088133189
20
-7.02949779114326
30
0
41
1
10
23.4026697940168
20
-7.07118556927975
30
0
41
1
10
23.5333481685156
20
-7.09392795874919
30
0
41
1
10
23.7009734748332
20
-7.09244342598387
30
0
41
1
10
23.7386296238166
20
-7.09063719054663
30
0
41
1
10
23.77730048355
20
-7.08925903577924
30
0
41
1
10
23.7783108496888
20
-7.08922301844578
30
0
41
1
10
23.7899699703881
20
-7.08880737523904
30
0
41
1
10
23.80061882194
20
-7.08843046187306
30
0
41
1
10
23.8112677608007
20
-7.08805604147111
30
0
0
SPLINE
5
21C
100
AcDbEntity
8
1
62
256
6
ByLayer
370
13
48
1
60
0
100
AcDbSpline
70
4
71
3
72
16
73
12
40
0
40
0
40
0
40
0
40
0.113631665737173
40
0.113631665737173
40
0.758132216188134
40
0.758132216188134
40
0.942823120099093
40
0.942823120099093
40
0.947778003019258
40
0.947778003019258
40
1
40
1
40
1
40
1
41
1
10
23.2112677608008
20
-5.98415892548937
30
0
41
1
10
23.2332807942052
20
-5.97715485662843
30
0
41
1
10
23.2554088133189
20
-5.97050220885703
30
0
41
1
10
23.4026697940168
20
-5.92881443072051
30
0
41
1
10
23.5333481685156
20
-5.90607204125106
30
0
41
1
10
23.7009734748332
20
-5.90755657401641
30
0
41
1
10
23.7386296238166
20
-5.90936280945363
30
0
41
1
10
23.77730048355
20
-5.91074096422105
30
0
41
1
10
23.7783108496888
20
-5.91077698155448
30
0
41
1
10
23.7899699703881
20
-5.91119262476121
30
0
41
1
10
23.80061882194
20
-5.91156953812722
30
0
41
1
10
23.8112677608007
20
-5.91194395852918
30
0
0
SPLINE
5
21D
100
AcDbEntity
8
1
62
256
6
ByLayer
370
13
48
1
60
0
100
AcDbSpline
70
4
71
3
72
10
73
6
40
0
40
0
40
0
40
0
40
0.411878619131049
40
0.411878619131049
40
1
40
1
40
1
40
1
41
1
10
24.9970257408783
20
-7.07838961865588
30
0
41
1
10
24.9970257408783
20
-7.10149812455978
30
0
41
1
10
24.9938567437525
20
-7.12478014248885
30
0
41
1
10
24.9795589487909
20
-7.17884755364449
30
0
41
1
10
24.9654981180154
20
-7.20932626905594
30
0
41
1
10
24.9480487400853
20
-7.23707013848514
30
0
0
SPLINE
5
21E
100
AcDbEntity
8
1
62
256
6
ByLayer
370
13
48
1
60
0
100
AcDbSpline
70
4
71
3
72
10
73
6
40
0
40
0
40
0
40
0
40
0.411878619131049
40
0.411878619131049
40
1
40
1
40
1
40
1
41
1
10
24.9970257408783
20
-5.92161038134438
30
0
41
1
10
24.9970257408783
20
-5.8985018754405
30
0
41
1
10
24.9938567437525
20
-5.87521985751144
30
0
41
1
10
24.9795589487909
20
-5.8211524463558
30
0
41
1
10
24.9654981180154
20
-5.79067373094435
30
0
41
1
10
24.9480487400853
20
-5.76292986151512
30
0
0
SPLINE
5
21F
100
AcDbEntity
8
1
62
256
6
ByLayer
370
13
48
1
60
0
100
AcDbSpline
70
4
71
3
72
8
73
4
40
0
40
0
40
0
40
0
40
1
40
1
40
1
40
1
41
1
10
24.9480487400851
20
-7.23707013848508
30
0
41
1
10
24.9406964490065
20
-7.24642203650725
30
0
41
1
10
24.9332455329699
20
-7.25567051448994
30
0
41
1
10
24.9256851850748
20
-7.26476574711054
30
0
0
SPLINE
5
220
100
AcDbEntity
8
1
62
256
6
ByLayer
370
13
48
1
60
0
100
AcDbSpline
70
4
71
3
72
8
73
4
40
0
40
0
40
0
40
0
40
1
40
1
40
1
40
1
41
1
10
24.9480487400851
20
-5.76292986151518
30
0
41
1
10
24.9406964490065
20
-5.75357796349303
30
0
41
1
10
24.9332455329699
20
-5.74432948551032
30
0
41
1
10
24.9256851850748
20
-5.73523425288974
30
0
0
SPLINE
5
221
100
AcDbEntity
8
1
62
256
6
ByLayer
370
13
48
1
60
0
100
AcDbSpline
70
4
71
3
72
12
73
8
40
0
40
0
40
0
40
0
40
0.390105015408732
40
0.390105015408732
40
0.395238792462735
40
0.395238792462735
40
1
40
1
40
1
40
1
41
1
10
23.8112677608008
20
-5.91194395852918
30
0
41
1
10
23.8930131894969
20
-5.91405170355665
30
0
41
1
10
23.9750694911571
20
-5.91446245578183
30
0
41
1
10
24.0568134956408
20
-5.91474795757449
30
0
41
1
10
24.0578786372164
20
-5.91475156428359
30
0
41
1
10
24.1833815366521
20
-5.91516313616177
30
0
41
1
10
24.306145891386
20
-5.91405921742981
30
0
41
1
10
24.4213727254145
20
-5.91092437757715
30
0
0
SPLINE
5
222
100
AcDbEntity
8
1
62
256
6
ByLayer
370
13
48
1
60
0
100
AcDbSpline
70
4
71
3
72
12
73
8
40
0
40
0
40
0
40
0
40
0.390105015408732
40
0.390105015408732
40
0.395238792462735
40
0.395238792462735
40
1
40
1
40
1
40
1
41
1
10
23.8112677608008
20
-7.08805604147111
30
0
41
1
10
23.8930131894969
20
-7.08594829644363
30
0
41
1
10
23.9750694911571
20
-7.08553754421843
30
0
41
1
10
24.0568134956408
20
-7.08525204242576
30
0
41
1
10
24.0578786372164
20
-7.08524843571667
30
0
41
1
10
24.1833815366521
20
-7.08483686383849
30
0
41
1
10
24.306145891386
20
-7.08594078257045
30
0
41
1
10
24.4213727254145
20
-7.08907562242314
30
0
0
SPLINE
5
223
100
AcDbEntity
8
1
62
256
6
ByLayer
370
18
48
1
60
0
100
AcDbSpline
70
4
71
3
72
18
73
14
40
0
40
0
40
0
40
0
40
0.168337478582055
40
0.168337478582055
40
0.336016707803001
40
0.336016707803001
40
0.514139541127745
40
0.514139541127745
40
0.721961373423502
40
0.721961373423502
40
0.99626205313737
40
0.99626205313737
40
1
40
1
40
1
40
1
41
1
10
9.17091285007248
20
-4.32499999999976
30
0
41
1
10
9.17091285007248
20
-4.42262870633633
30
0
41
1
10
9.18103818586118
20
-4.52161744069659
30
0
41
1
10
9.21875888808228
20
-4.70487822447637
30
0
41
1
10
9.24669228729894
20
-4.79164133353226
30
0
41
1
10
9.31700134550874
20
-4.94978008452415
30
0
41
1
10
9.36092578491665
20
-5.02184283668032
30
0
41
1
10
9.46511727369494
20
-5.15174355348714
30
0
41
1
10
9.52808083125552
20
-5.20690503274855
30
0
41
1
10
9.679730224775
20
-5.2981807528127
30
0
41
1
10
9.77259987168449
20
-5.32430199267557
30
0
41
1
10
9.86605702812858
20
-5.32499532977468
30
0
41
1
10
9.86731643984413
20
-5.32499999999976
30
0
41
1
10
9.8685757444978
20
-5.32499999999976
30
0
0
SPLINE
5
224
100
AcDbEntity
8
1
62
256
6
ByLayer
370
18
48
1
60
0
100
AcDbSpline
70
4
71
3
72
8
73
4
40
0
40
0
40
0
40
0
40
1
40
1
40
1
40
1
41
1
10
23.326454033771
20
-4.32499999999976
30
0
41
1
10
23.4475684098963
20
-4.39736991308806
30
0
41
1
10
23.5696320561714
20
-4.470307047017
30
0
41
1
10
23.6910399369413
20
-4.54285233900174
30
0
0
SPLINE
5
225
100
AcDbEntity
8
1
62
256
6
ByLayer
370
18
48
1
60
0
100
AcDbSpline
70
4
71
3
72
16
73
12
40
0
40
0
40
0
40
0
40
0.210601603648632
40
0.210601603648632
40
0.421213120937357
40
0.421213120937357
40
0.631488126460197
40
0.631488126460197
40
0.839116239420829
40
0.839116239420829
40
1
40
1
40
1
40
1
41
1
10
25.0046912194302
20
-5.19444374614716
30
0
41
1
10
25.004885104101
20
-5.17152163764345
30
0
41
1
10
25.0011366843306
20
-5.14828471516034
30
0
41
1
10
24.9864049129777
20
-5.10502463529411
30
0
41
1
10
24.9752157349576
20
-5.08440026525321
30
0
41
1
10
24.9470242400575
20
-5.04865478777702
30
0
41
1
10
24.92963219728
20
-5.0330255938255
30
0
41
1
10
24.8913444393929
20
-5.00912365922056
30
0
41
1
10
24.869954321154
20
-5.00042996368634
30
0
41
1
10
24.8309045828753
20
-4.99205926946121
30
0
41
1
10
24.8131262908525
20
-4.99071814728021
30
0
41
1
10
24.7956316353028
20
-4.99179620233946
30
0
0
SPLINE
5
226
100
AcDbEntity
8
1
62
256
6
ByLayer
370
18
48
1
60
0
100
AcDbSpline
70
4
71
3
72
10
73
6
40
0
40
0
40
0
40
0
40
0.584711417492912
40
0.584711417492912
40
1
40
1
40
1
40
1
41
1
10
16.6351939284819
20
-7.75000000000014
30
0
41
1
10
16.6376165600087
20
-7.75000000000014
30
0
41
1
10
16.6400566535847
20
-7.75000000000014
30
0
41
1
10
16.6442589248979
20
-7.75000000000014
30
0
41
1
10
16.6460127381757
20
-7.75000000000014
30
0
41
1
10
16.6477750315741
20
-7.75000000000014
30
0
0
SPLINE
5
227
100
AcDbEntity
8
1
62
256
6
ByLayer
370
18
48
1
60
0
100
AcDbSpline
70
4
71
3
72
16
73
12
40
0
40
0
40
0
40
0
40
0.202092460849674
40
0.202092460849674
40
0.404032245588857
40
0.404032245588857
40
0.608298678109005
40
0.608298678109005
40
0.816163444624768
40
0.816163444624768
40
1
40
1
40
1
40
1
41
1
10
24.7956316353028
20
-8.00820379766083
30
0
41
1
10
24.8174897444444
20
-8.0095507373064
30
0
41
1
10
24.8398491383955
20
-8.00708591533771
30
0
41
1
10
24.8818390291393
20
-7.9950357473646
30
0
41
1
10
24.9020457535964
20
-7.98529603383042
30
0
41
1
10
24.9378824730738
20
-7.95992758209167
30
0
41
1
10
24.9539463831898
20
-7.94389225267108
30
0
41
1
10
24.9798894042432
20
-7.90759648746681
30
0
41
1
10
24.9900129368112
20
-7.88677139643912
30
0
41
1
10
25.0020260177163
20
-7.84591570340271
30
0
41
1
10
25.0048610089749
20
-7.82562970448089
30
0
41
1
10
25.0046912194302
20
-7.8055562538531
30
0
0
SPLINE
5
228
100
AcDbEntity
8
1
62
256
6
ByLayer
370
18
48
1
60
0
100
AcDbSpline
70
4
71
3
72
10
73
6
40
0
40
0
40
0
40
0
40
0.629562107774395
40
0.629562107774395
40
1
40
1
40
1
40
1
41
1
10
15.2
20
-7.75000000000014
30
0
41
1
10
15.1782969300919
20
-7.75000000000014
30
0
41
1
10
15.156172793229
20
-7.74635893680679
30
0
41
1
10
15.1231987911384
20
-7.73512178689515
30
0
41
1
10
15.1112516429095
20
-7.72970121981996
30
0
41
1
10
15.0999999999999
20
-7.72320508075728
30
0
0
SPLINE
5
229
100
AcDbEntity
8
1
62
256
6
ByLayer
370
18
48
1
60
0
100
AcDbSpline
70
4
71
3
72
10
73
6
40
0
40
0
40
0
40
0
40
0.62956174027551
40
0.62956174027551
40
1
40
1
40
1
40
1
41
1
10
15.1
20
-5.27679491924326
30
0
41
1
10
15.118944038489
20
-5.26585757352208
30
0
41
1
10
15.1400004695306
20
-5.25796915888748
30
0
41
1
10
15.1741148019193
20
-5.25125947135578
30
0
41
1
10
15.1871096425299
20
-5.25000000000006
30
0
41
1
10
15.2
20
-5.25000000000006
30
0
0
SPLINE
5
22A
100
AcDbEntity
8
1
62
256
6
ByLayer
370
18
48
1
60
0
100
AcDbSpline
70
4
71
3
72
10
73
6
40
0
40
0
40
0
40
0
40
0.76746257010027
40
0.76746257010027
40
1
40
1
40
1
40
1
41
1
10
16.6477750315741
20
-5.25000000000014
30
0
41
1
10
16.6445183560328
20
-5.25000000000014
30
0
41
1
10
16.6412905642182
20
-5.25000000000014
30
0
41
1
10
16.637123695827
20
-5.25000000000014
30
0
41
1
10
16.6361574346187
20
-5.25000000000014
30
0
41
1
10
16.6351939284819
20
-5.25000000000014
30
0
0
SPLINE
5
22B
100
AcDbEntity
8
1
62
256
6
ByLayer
370
18
48
1
60
0
100
AcDbSpline
70
4
71
3
72
14
73
10
40
0
40
0
40
0
40
0
40
0.209562190252725
40
0.209562190252725
40
0.419048660097219
40
0.419048660097219
40
0.628042586344193
40
0.628042586344193
40
1
40
1
40
1
40
1
41
1
10
23.4587805434613
20
-5.09021468839165
30
0
41
1
10
23.3766126081607
20
-5.09598873278068
30
0
41
1
10
23.2940966332411
20
-5.10130832428632
30
0
41
1
10
23.1317767669575
20
-5.11081490520499
30
0
41
1
10
23.051417699214
20
-5.115034723018
30
0
41
1
10
22.89577107806
20
-5.12222349082342
30
0
41
1
10
22.8199400027967
20
-5.12521990686093
30
0
41
1
10
22.6197346270461
20
-5.13169387031215
30
0
41
1
10
22.5007351939601
20
-5.13381787171608
30
0
41
1
10
22.3981203716825
20
-5.13380026349935
30
0
0
SPLINE
5
22C
100
AcDbEntity
8
1
62
256
6
ByLayer
370
18
48
1
60
0
100
AcDbSpline
70
4
71
3
72
8
73
4
40
0
40
0
40
0
40
0
40
1
40
1
40
1
40
1
41
1
10
24.1060768987951
20
-5.04258798703617
30
0
41
1
10
23.991741836253
20
-5.05204260908044
30
0
41
1
10
23.8750917668497
20
-5.06095997394988
30
0
41
1
10
23.7587805434613
20
-5.06913331023159
30
0
0
SPLINE
5
22D
100
AcDbEntity
8
1
62
256
6
ByLayer
370
18
48
1
60
0
100
AcDbSpline
70
4
71
3
72
14
73
10
40
0
40
0
40
0
40
0
40
0.208995027535852
40
0.208995027535852
40
0.417850725206471
40
0.417850725206471
40
0.626704295977397
40
0.626704295977397
40
1
40
1
40
1
40
1
41
1
10
22.3981203716814
20
-7.8661997365019
30
0
41
1
10
22.4562077150717
20
-7.86618976898933
30
0
41
1
10
22.5193237323135
20
-7.86685595359737
30
0
41
1
10
22.6529850333382
20
-7.86951445266942
30
0
41
1
10
22.7239830856551
20
-7.8715149962074
30
0
41
1
10
22.8714347232616
20
-7.87677698764713
30
0
41
1
10
22.9483929364638
20
-7.88005642122712
30
0
41
1
10
23.1664550970089
20
-7.89076278802241
30
0
41
1
10
23.3134966889726
20
-7.89957603201799
30
0
41
1
10
23.4587805434602
20
-7.909785311608
30
0
0
SPLINE
5
22E
100
AcDbEntity
8
1
62
256
6
ByLayer
370
18
48
1
60
0
100
AcDbSpline
70
4
71
3
72
8
73
4
40
0
40
0
40
0
40
0
40
1
40
1
40
1
40
1
41
1
10
23.7587805434613
20
-7.93086668976869
30
0
41
1
10
23.8750917668497
20
-7.93904002605041
30
0
41
1
10
23.991741836253
20
-7.94795739091984
30
0
41
1
10
24.1060768987951
20
-7.95741201296408
30
0
0
LINE
5
70
100
AcDbEntity
8
80
62
256
6
ByLayer
370
18
48
1
60
0
100
AcDbLine
10
0
20
0
30
0
11
-5
21
0
31
0
39
0
210
0
220
0
230
1
0
LINE
5
71
100
AcDbEntity
8
81
62
256
6
ByLayer
370
18
48
1
60
0
100
AcDbLine
10
25
20
-8
30
0
11
30
21
-8
31
0
39
0
210
0
220
0
230
1
0
LINE
5
72
100
AcDbEntity
8
1
62
256
6
ByLayer
370
13
48
1
60
0
100
AcDbLine
10
7.9
20
-5.325
30
0
11
7.9
21
-4.325
31
0
39
0
210
0
220
0
230
1
0
LINE
5
74
100
AcDbEntity
8
1
62
256
6
ByLayer
370
13
48
1
60
0
100
AcDbLine
10
11.290738
20
-5.325
30
0
11
11.290738
21
-7.675
31
0
39
0
210
0
220
0
230
1
0
LINE
5
75
100
AcDbEntity
8
1
62
256
6
ByLayer
370
13
48
1
60
0
100
AcDbLine
10
16.290738
20
-7.675
30
0
11
16.290738
21
-5.325
31
0
39
0
210
0
220
0
230
1
0
LINE
5
76
100
AcDbEntity
8
1
62
256
6
ByLayer
370
13
48
1
60
0
100
AcDbLine
10
7.9
20
-4.325
30
0
11
1.7
21
-4.325
31
0
39
0
210
0
220
0
230
1
0
LINE
5
77
100
AcDbEntity
8
1
62
256
6
ByLayer
370
13
48
1
60
0
100
AcDbLine
10
7.9
20
-4.325
30
0
11
7.9
21
4.892825
31
0
39
0
210
0
220
0
230
1
0
LINE
5
78
100
AcDbEntity
8
1
62
256
6
ByLayer
370
13
48
1
60
0
100
AcDbLine
10
9.170913
20
-4.325
30
0
11
7.9
21
-4.325
31
0
39
0
210
0
220
0
230
1
0
LINE
5
79
100
AcDbEntity
8
SK1
62
256
6
ByLayer
370
13
48
1
60
0
100
AcDbLine
10
-0.8
20
8
30
0
11
-0.8
21
-7.675
31
0
39
0
210
0
220
0
230
1
0
LINE
5
7B
100
AcDbEntity
8
1
62
256
6
ByLayer
370
13
48
1
60
0
100
AcDbLine
10
23.326454
20
-4.325
30
0
11
9.170913
21
-4.325
31
0
39
0
210
0
220
0
230
1
0
LINE
5
7C
100
AcDbEntity
8
1
62
256
6
ByLayer
370
18
48
1
60
0
100
AcDbLine
10
1.7
20
8
30
0
11
0
21
8
31
0
39
0
210
0
220
0
230
1
0
LINE
5
7D
100
AcDbEntity
8
1
62
256
6
ByLayer
370
18
48
1
60
0
100
AcDbLine
10
20.415611
20
-7.491569
30
0
11
20.415611
21
-7.021814
31
0
39
0
210
0
220
0
230
1
0
LINE
5
7E
100
AcDbEntity
8
1
62
256
6
ByLayer
370
18
48
1
60
0
100
AcDbLine
10
0
20
-7.675
30
0
11
-0.1
21
-7.675
31
0
39
0
210
0
220
0
230
1
0
LINE
5
7F
100
AcDbEntity
8
1
62
256
6
ByLayer
370
18
48
1
60
0
100
AcDbLine
10
9.170913
20
4.133412
30
0
11
9.170913
21
-4.325
31
0
39
0
210
0
220
0
230
1
0
LINE
5
80
100
AcDbEntity
8
1
62
256
6
ByLayer
370
18
48
1
60
0
100
AcDbLine
10
20.415611
20
-7.491569
30
0
11
20.35928
21
-7.675
31
0
39
0
210
0
220
0
230
1
0
LINE
5
81
100
AcDbEntity
8
1
62
256
6
ByLayer
370
18
48
1
60
0
100
AcDbLine
10
1.7
20
8
30
0
11
1.7
21
-4.325
31
0
39
0
210
0
220
0
230
1
0
LINE
5
82
100
AcDbEntity
8
1
62
256
6
ByLayer
370
18
48
1
60
0
100
AcDbLine
10
20.35928
20
-7.675
30
0
11
16.290738
21
-7.675
31
0
39
0
210
0
220
0
230
1
0
LINE
5
83
100
AcDbEntity
8
1
62
256
6
ByLayer
370
18
48
1
60
0
100
AcDbLine
10
-0.1
20
8
30
0
11
0
21
8
31
0
39
0
210
0
220
0
230
1
0
LINE
5
84
100
AcDbEntity
8
1
62
256
6
ByLayer
370
18
48
1
60
0
100
AcDbLine
10
7.9
20
4.892825
30
0
11
9.170913
21
4.133412
31
0
39
0
210
0
220
0
230
1
0
LINE
5
85
100
AcDbEntity
8
1
62
256
6
ByLayer
370
18
48
1
60
0
100
AcDbLine
10
11.290738
20
-7.675
30
0
11
0
21
-7.675
31
0
39
0
210
0
220
0
230
1
0
LINE
5
86
100
AcDbEntity
8
1
62
256
6
ByLayer
370
18
48
1
60
0
100
AcDbLine
10
20.35928
20
-5.325
30
0
11
16.290738
21
-5.325
31
0
39
0
210
0
220
0
230
1
0
LINE
5
87
100
AcDbEntity
8
1
62
256
6
ByLayer
370
18
48
1
60
0
100
AcDbLine
10
16.290738
20
-7.675
30
0
11
11.290738
21
-7.675
31
0
39
0
210
0
220
0
230
1
0
LINE
5
88
100
AcDbEntity
8
1
62
256
6
ByLayer
370
18
48
1
60
0
100
AcDbLine
10
1.7
20
8
30
0
11
2.7
21
8
31
0
39
0
210
0
220
0
230
1
0
LINE
5
89
100
AcDbEntity
8
1
62
256
6
ByLayer
370
18
48
1
60
0
100
AcDbLine
10
20.415611
20
-5.978186
30
0
11
20.415611
21
-5.508431
31
0
39
0
210
0
220
0
230
1
0
LINE
5
8A
100
AcDbEntity
8
1
62
256
6
ByLayer
370
18
48
1
60
0
100
AcDbLine
10
2.7
20
8
30
0
11
7.9
21
4.892825
31
0
39
0
210
0
220
0
230
1
0
LINE
5
8B
100
AcDbEntity
8
1
62
256
6
ByLayer
370
18
48
1
60
0
100
AcDbLine
10
-0.1
20
-7.675
30
0
11
-0.1
21
8
31
0
39
0
210
0
220
0
230
1
0
LINE
5
8C
100
AcDbEntity
8
1
62
256
6
ByLayer
370
18
48
1
60
0
100
AcDbLine
10
20.35928
20
-5.325
30
0
11
20.415611
21
-5.508431
31
0
39
0
210
0
220
0
230
1
0
LINE
5
8D
100
AcDbEntity
8
1
62
256
6
ByLayer
370
18
48
1
60
0
100
AcDbLine
10
9.170913
20
4.133412
30
0
11
23.326454
21
-4.325
31
0
39
0
210
0
220
0
230
1
0
LINE
5
8E
100
AcDbEntity
8
1
62
256
6
ByLayer
370
18
48
1
60
0
100
AcDbLine
10
0
20
-7.675
30
0
11
0
21
8
31
0
39
0
210
0
220
0
230
1
0
LINE
5
8F
100
AcDbEntity
8
1
62
256
6
ByLayer
370
18
48
1
60
0
100
AcDbLine
10
16.290738
20
-5.325
30
0
11
11.290738
21
-5.325
31
0
39
0
210
0
220
0
230
1
0
LINE
5
90
100
AcDbEntity
8
1
62
256
6
ByLayer
370
18
48
1
60
0
100
AcDbLine
10
11.290738
20
-5.325
30
0
11
2.7
21
-5.325
31
0
39
0
210
0
220
0
230
1
0
LINE
5
91
100
AcDbEntity
8
SK1
62
256
6
ByLayer
370
18
48
1
60
0
100
AcDbLine
10
-0.1
20
-7.675
30
0
11
-0.8
21
-7.675
31
0
39
0
210
0
220
0
230
1
0
LINE
5
92
100
AcDbEntity
8
SK1
62
256
6
ByLayer
370
18
48
1
60
0
100
AcDbLine
10
-45
20
8
30
0
11
-0.8
21
8
31
0
39
0
210
0
220
0
230
1
0
LINE
5
93
100
AcDbEntity
8
SK1
62
256
6
ByLayer
370
18
48
1
60
0
100
AcDbLine
10
-0.8
20
8
30
0
11
-0.1
21
8
31
0
39
0
210
0
220
0
230
1
0
LINE
5
94
100
AcDbEntity
8
SK1
62
256
6
ByLayer
370
18
48
1
60
0
100
AcDbLine
10
-0.1
20
-7.675
30
0
11
-0.1
21
8
31
0
39
0
210
0
220
0
230
1
0
LINE
5
95
100
AcDbEntity
8
SK1
62
256
6
ByLayer
370
18
48
1
60
0
100
AcDbLine
10
-45
20
-4.951066
30
0
11
-45
21
8
31
0
39
0
210
0
220
0
230
1
0
LINE
5
96
100
AcDbEntity
8
SK1
62
256
6
ByLayer
370
18
48
1
60
0
100
AcDbLine
10
-42
20
-7.925
30
0
11
-45
21
-4.951066
31
0
39
0
210
0
220
0
230
1
0
LINE
5
97
100
AcDbEntity
8
SK1
62
256
6
ByLayer
370
18
48
1
60
0
100
AcDbLine
10
-0.8
20
-7.675
30
0
11
-1
21
-7.675
31
0
39
0
210
0
220
0
230
1
0
LINE
5
98
100
AcDbEntity
8
SK1
62
256
6
ByLayer
370
18
48
1
60
0
100
AcDbLine
10
-42
20
-7.925
30
0
11
-1.661438
21
-7.925
31
0
39
0
210
0
220
0
230
1
0
LINE
5
99
100
AcDbEntity
8
1
62
256
6
ByLayer
370
13
48
1
60
0
100
AcDbLine
10
11.290738
20
-5.325
30
0
11
11.290738
21
-7.675
31
0
39
0
210
0
220
0
230
1
0
LINE
5
9A
100
AcDbEntity
8
1
62
256
6
ByLayer
370
13
48
1
60
0
100
AcDbLine
10
-0.8
20
8
30
0
11
-0.8
21
-7.675
31
0
39
0
210
0
220
0
230
1
0
LINE
5
9B
100
AcDbEntity
8
1
62
256
6
ByLayer
370
13
48
1
60
0
100
AcDbLine
10
7.9
20
-4.325
30
0
11
7.9
21
4.892825
31
0
39
0
210
0
220
0
230
1
0
LINE
5
9C
100
AcDbEntity
8
1
62
256
6
ByLayer
370
13
48
1
60
0
100
AcDbLine
10
16.290738
20
-7.675
30
0
11
16.290738
21
-5.325
31
0
39
0
210
0
220
0
230
1
0
LINE
5
9D
100
AcDbEntity
8
1
62
256
6
ByLayer
370
13
48
1
60
0
100
AcDbLine
10
7.9
20
-4.325
30
0
11
1.7
21
-4.325
31
0
39
0
210
0
220
0
230
1
0
LINE
5
9E
100
AcDbEntity
8
1
62
256
6
ByLayer
370
13
48
1
60
0
100
AcDbLine
10
23.326454
20
-4.325
30
0
11
9.170913
21
-4.325
31
0
39
0
210
0
220
0
230
1
0
LINE
5
9F
100
AcDbEntity
8
1
62
256
6
ByLayer
370
13
48
1
60
0
100
AcDbLine
10
9.170913
20
-4.325
30
0
11
7.9
21
-4.325
31
0
39
0
210
0
220
0
230
1
0
LINE
5
A0
100
AcDbEntity
8
1
62
256
6
ByLayer
370
13
48
1
60
0
100
AcDbLine
10
7.9
20
-5.325
30
0
11
7.9
21
-4.325
31
0
39
0
210
0
220
0
230
1
0
LINE
5
A1
100
AcDbEntity
8
1
62
256
6
ByLayer
370
13
48
1
60
0
100
AcDbLine
10
21.455978
20
-7.75
30
0
11
21.455978
21
-7.326756
31
0
39
0
210
0
220
0
230
1
0
LINE
5
A2
100
AcDbEntity
8
1
62
256
6
ByLayer
370
13
48
1
60
0
100
AcDbLine
10
21.607676
20
-7.334465
30
0
11
21.880446
21
-7.347896
31
0
39
0
210
0
220
0
230
1
0
LINE
5
A3
100
AcDbEntity
8
1
62
256
6
ByLayer
370
13
48
1
60
0
100
AcDbLine
10
22.137538
20
-7.858919
30
0
11
22.116974
21
-7.564845
31
0
39
0
210
0
220
0
230
1
0
LINE
5
A4
100
AcDbEntity
8
1
62
256
6
ByLayer
370
13
48
1
60
0
100
AcDbLine
10
22.137538
20
-5.141081
30
0
11
22.116974
21
-5.435155
31
0
39
0
210
0
220
0
230
1
0
LINE
5
A5
100
AcDbEntity
8
1
62
256
6
ByLayer
370
13
48
1
60
0
100
AcDbLine
10
21.880446
20
-5.652104
30
0
11
21.607676
21
-5.665535
31
0
39
0
210
0
220
0
230
1
0
LINE
5
A6
100
AcDbEntity
8
1
62
256
6
ByLayer
370
13
48
1
60
0
100
AcDbLine
10
21.455978
20
-5.673244
30
0
11
21.455978
21
-5.25
31
0
39
0
210
0
220
0
230
1
0
LINE
5
A7
100
AcDbEntity
8
1
62
256
6
ByLayer
370
13
48
1
60
0
100
AcDbLine
10
22.39812
20
-7.547848
30
0
11
22.39812
21
-7.8662
31
0
39
0
210
0
220
0
230
1
0
LINE
5
A8
100
AcDbEntity
8
1
62
256
6
ByLayer
370
13
48
1
60
0
100
AcDbLine
10
23.458781
20
-7.664424
30
0
11
23.458781
21
-7.909785
31
0
39
0
210
0
220
0
230
1
0
LINE
5
A9
100
AcDbEntity
8
1
62
256
6
ByLayer
370
13
48
1
60
0
100
AcDbLine
10
23.458781
20
-5.335576
30
0
11
23.458781
21
-5.090215
31
0
39
0
210
0
220
0
230
1
0
LINE
5
AA
100
AcDbEntity
8
1
62
256
6
ByLayer
370
13
48
1
60
0
100
AcDbLine
10
22.39812
20
-5.452152
30
0
11
22.39812
21
-5.1338
31
0
39
0
210
0
220
0
230
1
0
LINE
5
AB
100
AcDbEntity
8
1
62
256
6
ByLayer
370
13
48
1
60
0
100
AcDbLine
10
22.030516
20
-5.806271
30
0
11
21.880446
21
-5.652104
31
0
39
0
210
0
220
0
230
1
0
LINE
5
AC
100
AcDbEntity
8
1
62
256
6
ByLayer
370
13
48
1
60
0
100
AcDbLine
10
21.880446
20
-7.347896
30
0
11
22.030516
21
-7.193729
31
0
39
0
210
0
220
0
230
1
0
LINE
5
AD
100
AcDbEntity
8
1
62
256
6
ByLayer
370
13
48
1
60
0
100
AcDbLine
10
21.607676
20
-7.334465
30
0
11
21.621372
21
-7.05631
31
0
39
0
210
0
220
0
230
1
0
LINE
5
AE
100
AcDbEntity
8
1
62
256
6
ByLayer
370
13
48
1
60
0
100
AcDbLine
10
21.851055
20
-7.06762
30
0
11
21.621372
21
-7.05631
31
0
39
0
210
0
220
0
230
1
0
LINE
5
AF
100
AcDbEntity
8
1
62
256
6
ByLayer
370
13
48
1
60
0
100
AcDbLine
10
21.621372
20
-5.94369
30
0
11
21.851055
21
-5.93238
31
0
39
0
210
0
220
0
230
1
0
LINE
5
B0
100
AcDbEntity
8
1
62
256
6
ByLayer
370
13
48
1
60
0
100
AcDbLine
10
21.621372
20
-5.94369
30
0
11
21.607676
21
-5.665535
31
0
39
0
210
0
220
0
230
1
0
LINE
5
B1
100
AcDbEntity
8
1
62
256
6
ByLayer
370
13
48
1
60
0
100
AcDbLine
10
22.293328
20
-5.45047
30
0
11
22.315472
21
-5.133786
31
0
39
0
210
0
220
0
230
1
0
LINE
5
B2
100
AcDbEntity
8
1
62
256
6
ByLayer
370
13
48
1
60
0
100
AcDbLine
10
22.293328
20
-7.54953
30
0
11
22.315472
21
-7.866214
31
0
39
0
210
0
220
0
230
1
0
LINE
5
B3
100
AcDbEntity
8
1
62
256
6
ByLayer
370
13
48
1
60
0
100
AcDbLine
10
21.864379
20
-5.94369
30
0
11
21.621372
21
-5.94369
31
0
39
0
210
0
220
0
230
1
0
LINE
5
B4
100
AcDbEntity
8
1
62
256
6
ByLayer
370
13
48
1
60
0
100
AcDbLine
10
21.864379
20
-7.05631
30
0
11
21.621372
21
-7.05631
31
0
39
0
210
0
220
0
230
1
0
LINE
5
B5
100
AcDbEntity
8
1
62
256
6
ByLayer
370
13
48
1
60
0
100
AcDbLine
10
21.387574
20
-7.326756
30
0
11
21.455978
21
-7.326756
31
0
39
0
210
0
220
0
230
1
0
LINE
5
B6
100
AcDbEntity
8
1
62
256
6
ByLayer
370
13
48
1
60
0
100
AcDbLine
10
21.387574
20
-5.673244
30
0
11
21.455978
21
-5.673244
31
0
39
0
210
0
220
0
230
1
0
LINE
5
B7
100
AcDbEntity
8
1
62
256
6
ByLayer
370
13
48
1
60
0
100
AcDbLine
10
21.387574
20
-7.326756
30
0
11
21.387574
21
-7.75
31
0
39
0
210
0
220
0
230
1
0
LINE
5
B8
100
AcDbEntity
8
1
62
256
6
ByLayer
370
13
48
1
60
0
100
AcDbLine
10
21.387574
20
-5.25
30
0
11
21.387574
21
-5.673244
31
0
39
0
210
0
220
0
230
1
0
LINE
5
B9
100
AcDbEntity
8
1
62
256
6
ByLayer
370
13
48
1
60
0
100
AcDbLine
10
20.663912
20
-7.75
30
0
11
20.663912
21
-7.633917
31
0
39
0
210
0
220
0
230
1
0
LINE
5
BA
100
AcDbEntity
8
1
62
256
6
ByLayer
370
13
48
1
60
0
100
AcDbLine
10
20.663912
20
-5.366083
30
0
11
20.663912
21
-5.25
31
0
39
0
210
0
220
0
230
1
0
LINE
5
BB
100
AcDbEntity
8
1
62
256
6
ByLayer
370
13
48
1
60
0
100
AcDbLine
10
23.114687
20
-7.319384
30
0
11
23.211268
21
-7.015841
31
0
39
0
210
0
220
0
230
1
0
LINE
5
BC
100
AcDbEntity
8
1
62
256
6
ByLayer
370
13
48
1
60
0
100
AcDbLine
10
23.114687
20
-5.680616
30
0
11
23.211268
21
-5.984159
31
0
39
0
210
0
220
0
230
1
0
LINE
5
BD
100
AcDbEntity
8
1
62
256
6
ByLayer
370
13
48
1
60
0
100
AcDbLine
10
20.46942
20
-6.132002
30
0
11
20.779442
21
-6.132002
31
0
39
0
210
0
220
0
230
1
0
LINE
5
BE
100
AcDbEntity
8
1
62
256
6
ByLayer
370
13
48
1
60
0
100
AcDbLine
10
20.415611
20
-5.68149
30
0
11
20.46942
21
-6.132002
31
0
39
0
210
0
220
0
230
1
0
LINE
5
BF
100
AcDbEntity
8
1
62
256
6
ByLayer
370
13
48
1
60
0
100
AcDbLine
10
20.577267
20
-5.424016
30
0
11
20.384859
21
-5.424016
31
0
39
0
210
0
220
0
230
1
0
LINE
5
C0
100
AcDbEntity
8
1
62
256
6
ByLayer
370
13
48
1
60
0
100
AcDbLine
10
20.577267
20
-7.575984
30
0
11
20.384859
21
-7.575984
31
0
39
0
210
0
220
0
230
1
0
LINE
5
C1
100
AcDbEntity
8
1
62
256
6
ByLayer
370
13
48
1
60
0
100
AcDbLine
10
20.415611
20
-7.31851
30
0
11
20.46942
21
-6.867998
31
0
39
0
210
0
220
0
230
1
0
LINE
5
C2
100
AcDbEntity
8
1
62
256
6
ByLayer
370
13
48
1
60
0
100
AcDbLine
10
20.46942
20
-6.867998
30
0
11
20.779442
21
-6.867998
31
0
39
0
210
0
220
0
230
1
0
LINE
5
C3
100
AcDbEntity
8
1
62
256
6
ByLayer
370
13
48
1
60
0
100
AcDbLine
10
20.572358
20
-5.25
30
0
11
20.572358
21
-5.374098
31
0
39
0
210
0
220
0
230
1
0
LINE
5
C4
100
AcDbEntity
8
1
62
256
6
ByLayer
370
13
48
1
60
0
100
AcDbLine
10
20.572358
20
-7.625902
30
0
11
20.572358
21
-7.75
31
0
39
0
210
0
220
0
230
1
0
LINE
5
C5
100
AcDbEntity
8
1
62
256
6
ByLayer
370
13
48
1
60
0
100
AcDbLine
10
23.211268
20
-5.984159
30
0
11
23.211268
21
-7.015841
31
0
39
0
210
0
220
0
230
1
0
LINE
5
C6
100
AcDbEntity
8
1
62
256
6
ByLayer
370
13
48
1
60
0
100
AcDbLine
10
16.589581
20
-5.25
30
0
11
16.545758
21
-5.325002
31
0
39
0
210
0
220
0
230
1
0
LINE
5
C7
100
AcDbEntity
8
1
62
256
6
ByLayer
370
13
48
1
60
0
100
AcDbLine
10
20.38199
20
-5.374562
30
0
11
20.570595
21
-5.374562
31
0
39
0
210
0
220
0
230
1
0
LINE
5
C8
100
AcDbEntity
8
1
62
256
6
ByLayer
370
13
48
1
60
0
100
AcDbLine
10
20.38199
20
-5.25
30
0
11
20.38199
21
-5.374562
31
0
39
0
210
0
220
0
230
1
0
LINE
5
C9
100
AcDbEntity
8
1
62
256
6
ByLayer
370
13
48
1
60
0
100
AcDbLine
10
20.38199
20
-7.75
30
0
11
20.38199
21
-7.625438
31
0
39
0
210
0
220
0
230
1
0
LINE
5
CA
100
AcDbEntity
8
1
62
256
6
ByLayer
370
13
48
1
60
0
100
AcDbLine
10
20.38199
20
-7.625438
30
0
11
20.570595
21
-7.625438
31
0
39
0
210
0
220
0
230
1
0
LINE
5
CB
100
AcDbEntity
8
1
62
256
6
ByLayer
370
13
48
1
60
0
100
AcDbLine
10
25.000117
20
-5.735234
30
0
11
24.925685
21
-5.735234
31
0
39
0
210
0
220
0
230
1
0
LINE
5
CC
100
AcDbEntity
8
1
62
256
6
ByLayer
370
13
48
1
60
0
100
AcDbLine
10
24.535516
20
-5.426294
30
0
11
24.535516
21
-5.007825
31
0
39
0
210
0
220
0
230
1
0
LINE
5
CD
100
AcDbEntity
8
1
62
256
6
ByLayer
370
13
48
1
60
0
100
AcDbLine
10
24.535516
20
-7.573706
30
0
11
24.535516
21
-7.992175
31
0
39
0
210
0
220
0
230
1
0
LINE
5
CE
100
AcDbEntity
8
1
62
256
6
ByLayer
370
13
48
1
60
0
100
AcDbLine
10
25.000117
20
-7.264766
30
0
11
24.925685
21
-7.264766
31
0
39
0
210
0
220
0
230
1
0
LINE
5
CF
100
AcDbEntity
8
1
62
256
6
ByLayer
370
13
48
1
60
0
100
AcDbLine
10
24.46476
20
-7.987072
30
0
11
24.46476
21
-7.626322
31
0
39
0
210
0
220
0
230
1
0
LINE
5
D0
100
AcDbEntity
8
1
62
256
6
ByLayer
370
13
48
1
60
0
100
AcDbLine
10
24.106077
20
-7.674869
30
0
11
24.106077
21
-7.957412
31
0
39
0
210
0
220
0
230
1
0
LINE
5
D1
100
AcDbEntity
8
1
62
256
6
ByLayer
370
13
48
1
60
0
100
AcDbLine
10
24.46476
20
-5.012928
30
0
11
24.46476
21
-5.373678
31
0
39
0
210
0
220
0
230
1
0
LINE
5
D2
100
AcDbEntity
8
1
62
256
6
ByLayer
370
13
48
1
60
0
100
AcDbLine
10
24.106077
20
-5.325131
30
0
11
24.106077
21
-5.042588
31
0
39
0
210
0
220
0
230
1
0
LINE
5
D3
100
AcDbEntity
8
1
62
256
6
ByLayer
370
13
48
1
60
0
100
AcDbLine
10
20.506333
20
-6.751024
30
0
11
20.866184
21
-6.751024
31
0
39
0
210
0
220
0
230
1
0
LINE
5
D4
100
AcDbEntity
8
1
62
256
6
ByLayer
370
13
48
1
60
0
100
AcDbLine
10
20.506333
20
-6.248976
30
0
11
20.866184
21
-6.248976
31
0
39
0
210
0
220
0
230
1
0
LINE
5
D5
100
AcDbEntity
8
1
62
256
6
ByLayer
370
13
48
1
60
0
100
AcDbLine
10
23.758781
20
-7.678409
30
0
11
23.758781
21
-7.930867
31
0
39
0
210
0
220
0
230
1
0
LINE
5
D6
100
AcDbEntity
8
1
62
256
6
ByLayer
370
13
48
1
60
0
100
AcDbLine
10
23.758781
20
-5.321591
30
0
11
23.758781
21
-5.069133
31
0
39
0
210
0
220
0
230
1
0
LINE
5
D7
100
AcDbEntity
8
1
62
256
6
ByLayer
370
13
48
1
60
0
100
AcDbLine
10
15.665685
20
-5.325003
30
0
11
15.665685
21
-5.25
31
0
39
0
210
0
220
0
230
1
0
LINE
5
D8
100
AcDbEntity
8
1
62
256
6
ByLayer
370
13
48
1
60
0
100
AcDbLine
10
15.665685
20
-7.674997
30
0
11
15.665685
21
-7.75
31
0
39
0
210
0
220
0
230
1
0
LINE
5
D9
100
AcDbEntity
8
1
62
256
6
ByLayer
370
13
48
1
60
0
100
AcDbLine
10
20.374468
20
-5.374562
30
0
11
20.38199
21
-5.374562
31
0
39
0
210
0
220
0
230
1
0
LINE
5
DA
100
AcDbEntity
8
1
62
256
6
ByLayer
370
13
48
1
60
0
100
AcDbLine
10
16.966112
20
-5.324999
30
0
11
16.966112
21
-5.25
31
0
39
0
210
0
220
0
230
1
0
LINE
5
DB
100
AcDbEntity
8
1
62
256
6
ByLayer
370
13
48
1
60
0
100
AcDbLine
10
16.966112
20
-7.675001
30
0
11
16.966112
21
-7.75
31
0
39
0
210
0
220
0
230
1
0
LINE
5
DC
100
AcDbEntity
8
1
62
256
6
ByLayer
370
13
48
1
60
0
100
AcDbLine
10
20.374468
20
-7.625438
30
0
11
20.38199
21
-7.625438
31
0
39
0
210
0
220
0
230
1
0
LINE
5
DD
100
AcDbEntity
8
1
62
256
6
ByLayer
370
13
48
1
60
0
100
AcDbLine
10
20.400093
20
-6.132002
30
0
11
20.46942
21
-6.132002
31
0
39
0
210
0
220
0
230
1
0
LINE
5
DE
100
AcDbEntity
8
1
62
256
6
ByLayer
370
13
48
1
60
0
100
AcDbLine
10
20.400093
20
-6.867998
30
0
11
20.46942
21
-6.867998
31
0
39
0
210
0
220
0
230
1
0
LINE
5
DF
100
AcDbEntity
8
1
62
256
6
ByLayer
370
13
48
1
60
0
100
AcDbLine
10
20.54904
20
-6.299244
30
0
11
20.987507
21
-6.299244
31
0
39
0
210
0
220
0
230
1
0
LINE
5
E0
100
AcDbEntity
8
1
62
256
6
ByLayer
370
13
48
1
60
0
100
AcDbLine
10
23.82193
20
-7.391296
30
0
11
23.811268
21
-7.088056
31
0
39
0
210
0
220
0
230
1
0
LINE
5
E1
100
AcDbEntity
8
1
62
256
6
ByLayer
370
13
48
1
60
0
100
AcDbLine
10
20.54904
20
-6.700756
30
0
11
20.987507
21
-6.700756
31
0
39
0
210
0
220
0
230
1
0
LINE
5
E2
100
AcDbEntity
8
1
62
256
6
ByLayer
370
13
48
1
60
0
100
AcDbLine
10
23.82193
20
-5.608704
30
0
11
23.811268
21
-5.911944
31
0
39
0
210
0
220
0
230
1
0
LINE
5
E3
100
AcDbEntity
8
1
62
256
6
ByLayer
370
13
48
1
60
0
100
AcDbLine
10
24.944165
20
-7.07839
30
0
11
24.997026
21
-7.07839
31
0
39
0
210
0
220
0
230
1
0
LINE
5
E4
100
AcDbEntity
8
1
62
256
6
ByLayer
370
13
48
1
60
0
100
AcDbLine
10
24.944165
20
-5.92161
30
0
11
24.997026
21
-5.92161
31
0
39
0
210
0
220
0
230
1
0
LINE
5
E5
100
AcDbEntity
8
1
62
256
6
ByLayer
370
13
48
1
60
0
100
AcDbLine
10
24.948049
20
-7.23707
30
0
11
25
21
-7.23707
31
0
39
0
210
0
220
0
230
1
0
LINE
5
E6
100
AcDbEntity
8
1
62
256
6
ByLayer
370
13
48
1
60
0
100
AcDbLine
10
24.997026
20
-7.07839
30
0
11
24.997026
21
-5.92161
31
0
39
0
210
0
220
0
230
1
0
LINE
5
E7
100
AcDbEntity
8
1
62
256
6
ByLayer
370
13
48
1
60
0
100
AcDbLine
10
24.948049
20
-5.76293
30
0
11
25
21
-5.76293
31
0
39
0
210
0
220
0
230
1
0
LINE
5
E8
100
AcDbEntity
8
1
62
256
6
ByLayer
370
13
48
1
60
0
100
AcDbLine
10
20.552254
20
-6.302665
30
0
11
20.996489
21
-6.302665
31
0
39
0
210
0
220
0
230
1
0
LINE
5
E9
100
AcDbEntity
8
1
62
256
6
ByLayer
370
13
48
1
60
0
100
AcDbLine
10
20.552254
20
-6.697335
30
0
11
20.996489
21
-6.697335
31
0
39
0
210
0
220
0
230
1
0
LINE
5
EA
100
AcDbEntity
8
1
62
256
6
ByLayer
370
13
48
1
60
0
100
AcDbLine
10
24.944165
20
-5.92161
30
0
11
24.944165
21
-7.07839
31
0
39
0
210
0
220
0
230
1
0
LINE
5
EB
100
AcDbEntity
8
1
62
256
6
ByLayer
370
13
48
1
60
0
100
AcDbLine
10
24.421373
20
-5.910924
30
0
11
24.421373
21
-7.089076
31
0
39
0
210
0
220
0
230
1
0
LINE
5
EC
100
AcDbEntity
8
1
62
256
6
ByLayer
370
13
48
1
60
0
100
AcDbLine
10
20.54904
20
-6.299244
30
0
11
20.552254
21
-6.302665
31
0
39
0
210
0
220
0
230
1
0
LINE
5
ED
100
AcDbEntity
8
1
62
256
6
ByLayer
370
13
48
1
60
0
100
AcDbLine
10
20.54904
20
-6.700756
30
0
11
20.552254
21
-6.697335
31
0
39
0
210
0
220
0
230
1
0
LINE
5
EE
100
AcDbEntity
8
1
62
256
6
ByLayer
370
13
48
1
60
0
100
AcDbLine
10
20.393871
20
-6.248976
30
0
11
20.506333
21
-6.248976
31
0
39
0
210
0
220
0
230
1
0
LINE
5
EF
100
AcDbEntity
8
1
62
256
6
ByLayer
370
13
48
1
60
0
100
AcDbLine
10
23.811268
20
-5.911944
30
0
11
23.811268
21
-7.088056
31
0
39
0
210
0
220
0
230
1
0
LINE
5
F0
100
AcDbEntity
8
1
62
256
6
ByLayer
370
13
48
1
60
0
100
AcDbLine
10
20.393871
20
-6.751024
30
0
11
20.506333
21
-6.751024
31
0
39
0
210
0
220
0
230
1
0
LINE
5
F1
100
AcDbEntity
8
1
62
256
6
ByLayer
370
13
48
1
60
0
100
AcDbLine
10
20.392089
20
-6.700756
30
0
11
20.54904
21
-6.700756
31
0
39
0
210
0
220
0
230
1
0
LINE
5
F2
100
AcDbEntity
8
1
62
256
6
ByLayer
370
13
48
1
60
0
100
AcDbLine
10
20.391978
20
-6.697335
30
0
11
20.552254
21
-6.697335
31
0
39
0
210
0
220
0
230
1
0
LINE
5
F3
100
AcDbEntity
8
1
62
256
6
ByLayer
370
13
48
1
60
0
100
AcDbLine
10
16.589581
20
-7.75
30
0
11
16.545758
21
-7.674998
31
0
39
0
210
0
220
0
230
1
0
LINE
5
F4
100
AcDbEntity
8
1
62
256
6
ByLayer
370
13
48
1
60
0
100
AcDbLine
10
20.392089
20
-6.299244
30
0
11
20.54904
21
-6.299244
31
0
39
0
210
0
220
0
230
1
0
LINE
5
F5
100
AcDbEntity
8
1
62
256
6
ByLayer
370
13
48
1
60
0
100
AcDbLine
10
20.391978
20
-6.302665
30
0
11
20.552254
21
-6.302665
31
0
39
0
210
0
220
0
230
1
0
LINE
5
F6
100
AcDbEntity
8
1
62
256
6
ByLayer
370
13
48
1
60
0
100
AcDbLine
10
15.1
20
-5.276795
30
0
11
15.1
21
-5.325035
31
0
39
0
210
0
220
0
230
1
0
LINE
5
F7
100
AcDbEntity
8
1
62
256
6
ByLayer
370
13
48
1
60
0
100
AcDbLine
10
15.1
20
-7.674965
30
0
11
15.1
21
-7.723205
31
0
39
0
210
0
220
0
230
1
0
LINE
5
F8
100
AcDbEntity
8
1
62
256
6
ByLayer
370
18
48
1
60
0
100
AcDbLine
10
11.290738
20
-7.675
30
0
11
0
21
-7.675
31
0
39
0
210
0
220
0
230
1
0
LINE
5
F9
100
AcDbEntity
8
1
62
256
6
ByLayer
370
18
48
1
60
0
100
AcDbLine
10
11.290738
20
-5.325
30
0
11
2.7
21
-5.325
31
0
39
0
210
0
220
0
230
1
0
LINE
5
FA
100
AcDbEntity
8
1
62
256
6
ByLayer
370
18
48
1
60
0
100
AcDbLine
10
20.35928
20
-7.675
30
0
11
16.290738
21
-7.675
31
0
39
0
210
0
220
0
230
1
0
LINE
5
FB
100
AcDbEntity
8
1
62
256
6
ByLayer
370
18
48
1
60
0
100
AcDbLine
10
20.35928
20
-5.325
30
0
11
16.290738
21
-5.325
31
0
39
0
210
0
220
0
230
1
0
LINE
5
FC
100
AcDbEntity
8
1
62
256
6
ByLayer
370
18
48
1
60
0
100
AcDbLine
10
16.290738
20
-7.675
30
0
11
11.290738
21
-7.675
31
0
39
0
210
0
220
0
230
1
0
LINE
5
FD
100
AcDbEntity
8
1
62
256
6
ByLayer
370
18
48
1
60
0
100
AcDbLine
10
16.290738
20
-5.325
30
0
11
11.290738
21
-5.325
31
0
39
0
210
0
220
0
230
1
0
LINE
5
FE
100
AcDbEntity
8
1
62
256
6
ByLayer
370
18
48
1
60
0
100
AcDbLine
10
9.170913
20
4.133412
30
0
11
9.170913
21
-4.325
31
0
39
0
210
0
220
0
230
1
0
LINE
5
FF
100
AcDbEntity
8
1
62
256
6
ByLayer
370
18
48
1
60
0
100
AcDbLine
10
1.7
20
8
30
0
11
1.7
21
-4.325
31
0
39
0
210
0
220
0
230
1
0
LINE
5
100
100
AcDbEntity
8
1
62
256
6
ByLayer
370
18
48
1
60
0
100
AcDbLine
10
20.35928
20
-5.325
30
0
11
20.415611
21
-5.508431
31
0
39
0
210
0
220
0
230
1
0
LINE
5
101
100
AcDbEntity
8
1
62
256
6
ByLayer
370
18
48
1
60
0
100
AcDbLine
10
20.415611
20
-7.491569
30
0
11
20.415611
21
-7.021814
31
0
39
0
210
0
220
0
230
1
0
LINE
5
102
100
AcDbEntity
8
1
62
256
6
ByLayer
370
18
48
1
60
0
100
AcDbLine
10
20.415611
20
-7.491569
30
0
11
20.35928
21
-7.675
31
0
39
0
210
0
220
0
230
1
0
LINE
5
103
100
AcDbEntity
8
1
62
256
6
ByLayer
370
18
48
1
60
0
100
AcDbLine
10
-0.8
20
-7.675
30
0
11
-1
21
-7.675
31
0
39
0
210
0
220
0
230
1
0
LINE
5
104
100
AcDbEntity
8
1
62
256
6
ByLayer
370
18
48
1
60
0
100
AcDbLine
10
-45
20
-4.951066
30
0
11
-45
21
8
31
0
39
0
210
0
220
0
230
1
0
LINE
5
105
100
AcDbEntity
8
1
62
256
6
ByLayer
370
18
48
1
60
0
100
AcDbLine
10
0
20
-7.675
30
0
11
0
21
8
31
0
39
0
210
0
220
0
230
1
0
LINE
5
106
100
AcDbEntity
8
1
62
256
6
ByLayer
370
18
48
1
60
0
100
AcDbLine
10
0
20
-7.675
30
0
11
-0.8
21
-7.675
31
0
39
0
210
0
220
0
230
1
0
LINE
5
107
100
AcDbEntity
8
1
62
256
6
ByLayer
370
18
48
1
60
0
100
AcDbLine
10
-45
20
8
30
0
11
-0.8
21
8
31
0
39
0
210
0
220
0
230
1
0
LINE
5
108
100
AcDbEntity
8
1
62
256
6
ByLayer
370
18
48
1
60
0
100
AcDbLine
10
1.7
20
8
30
0
11
2.7
21
8
31
0
39
0
210
0
220
0
230
1
0
LINE
5
109
100
AcDbEntity
8
1
62
256
6
ByLayer
370
18
48
1
60
0
100
AcDbLine
10
-0.8
20
8
30
0
11
0
21
8
31
0
39
0
210
0
220
0
230
1
0
LINE
5
10A
100
AcDbEntity
8
1
62
256
6
ByLayer
370
18
48
1
60
0
100
AcDbLine
10
1.7
20
8
30
0
11
0
21
8
31
0
39
0
210
0
220
0
230
1
0
LINE
5
10B
100
AcDbEntity
8
1
62
256
6
ByLayer
370
18
48
1
60
0
100
AcDbLine
10
-42
20
-7.925
30
0
11
-1.661438
21
-7.925
31
0
39
0
210
0
220
0
230
1
0
LINE
5
10C
100
AcDbEntity
8
1
62
256
6
ByLayer
370
18
48
1
60
0
100
AcDbLine
10
20.415611
20
-5.978186
30
0
11
20.415611
21
-5.508431
31
0
39
0
210
0
220
0
230
1
0
LINE
5
10D
100
AcDbEntity
8
1
62
256
6
ByLayer
370
18
48
1
60
0
100
AcDbLine
10
-42
20
-7.925
30
0
11
-45
21
-4.951066
31
0
39
0
210
0
220
0
230
1
0
LINE
5
10E
100
AcDbEntity
8
1
62
256
6
ByLayer
370
18
48
1
60
0
100
AcDbLine
10
2.7
20
8
30
0
11
7.9
21
4.892825
31
0
39
0
210
0
220
0
230
1
0
LINE
5
10F
100
AcDbEntity
8
1
62
256
6
ByLayer
370
18
48
1
60
0
100
AcDbLine
10
7.9
20
4.892825
30
0
11
9.170913
21
4.133412
31
0
39
0
210
0
220
0
230
1
0
LINE
5
110
100
AcDbEntity
8
1
62
256
6
ByLayer
370
18
48
1
60
0
100
AcDbLine
10
9.170913
20
4.133412
30
0
11
23.326454
21
-4.325
31
0
39
0
210
0
220
0
230
1
0
LINE
5
111
100
AcDbEntity
8
1
62
256
6
ByLayer
370
18
48
1
60
0
100
AcDbLine
10
25.000117
20
-5.735234
30
0
11
25.004691
21
-5.194444
31
0
39
0
210
0
220
0
230
1
0
LINE
5
112
100
AcDbEntity
8
1
62
256
6
ByLayer
370
18
48
1
60
0
100
AcDbLine
10
25
20
-7.23707
30
0
11
25
21
-5.76293
31
0
39
0
210
0
220
0
230
1
0
LINE
5
113
100
AcDbEntity
8
1
62
256
6
ByLayer
370
18
48
1
60
0
100
AcDbLine
10
21.69752
20
-5.192091
30
0
11
21.64436
21
-5.222783
31
0
39
0
210
0
220
0
230
1
0
LINE
5
114
100
AcDbEntity
8
1
62
256
6
ByLayer
370
18
48
1
60
0
100
AcDbLine
10
15.2
20
-7.75
30
0
11
15.665685
21
-7.75
31
0
39
0
210
0
220
0
230
1
0
LINE
5
115
100
AcDbEntity
8
1
62
256
6
ByLayer
370
18
48
1
60
0
100
AcDbLine
10
16.589581
20
-5.25
30
0
11
15.665685
21
-5.25
31
0
39
0
210
0
220
0
230
1
0
LINE
5
116
100
AcDbEntity
8
1
62
256
6
ByLayer
370
18
48
1
60
0
100
AcDbLine
10
20.663912
20
-7.75
30
0
11
21.387574
21
-7.75
31
0
39
0
210
0
220
0
230
1
0
LINE
5
117
100
AcDbEntity
8
1
62
256
6
ByLayer
370
18
48
1
60
0
100
AcDbLine
10
15.665685
20
-7.75
30
0
11
16.589581
21
-7.75
31
0
39
0
210
0
220
0
230
1
0
LINE
5
118
100
AcDbEntity
8
1
62
256
6
ByLayer
370
18
48
1
60
0
100
AcDbLine
10
22.39812
20
-5.1338
30
0
11
22.315472
21
-5.133786
31
0
39
0
210
0
220
0
230
1
0
LINE
5
119
100
AcDbEntity
8
1
62
256
6
ByLayer
370
18
48
1
60
0
100
AcDbLine
10
21.795343
20
-7.834991
30
0
11
22.137538
21
-7.858919
31
0
39
0
210
0
220
0
230
1
0
LINE
5
11A
100
AcDbEntity
8
1
62
256
6
ByLayer
370
18
48
1
60
0
100
AcDbLine
10
16.966112
20
-5.25
30
0
11
16.647775
21
-5.25
31
0
39
0
210
0
220
0
230
1
0
LINE
5
11B
100
AcDbEntity
8
1
62
256
6
ByLayer
370
18
48
1
60
0
100
AcDbLine
10
24.535516
20
-7.992175
30
0
11
24.795632
21
-8.008204
31
0
39
0
210
0
220
0
230
1
0
LINE
5
11C
100
AcDbEntity
8
1
62
256
6
ByLayer
370
18
48
1
60
0
100
AcDbLine
10
16.966112
20
-7.75
30
0
11
20.38199
21
-7.75
31
0
39
0
210
0
220
0
230
1
0
LINE
5
11D
100
AcDbEntity
8
1
62
256
6
ByLayer
370
18
48
1
60
0
100
AcDbLine
10
21.387574
20
-5.25
30
0
11
20.663912
21
-5.25
31
0
39
0
210
0
220
0
230
1
0
LINE
5
11E
100
AcDbEntity
8
1
62
256
6
ByLayer
370
18
48
1
60
0
100
AcDbLine
10
24.46476
20
-5.012928
30
0
11
24.106077
21
-5.042588
31
0
39
0
210
0
220
0
230
1
0
LINE
5
11F
100
AcDbEntity
8
1
62
256
6
ByLayer
370
18
48
1
60
0
100
AcDbLine
10
20.38199
20
-5.25
30
0
11
16.966112
21
-5.25
31
0
39
0
210
0
220
0
230
1
0
LINE
5
120
100
AcDbEntity
8
1
62
256
6
ByLayer
370
18
48
1
60
0
100
AcDbLine
10
21.553398
20
-7.75
30
0
11
21.455978
21
-7.75
31
0
39
0
210
0
220
0
230
1
0
LINE
5
121
100
AcDbEntity
8
1
62
256
6
ByLayer
370
18
48
1
60
0
100
AcDbLine
10
16.647775
20
-7.75
30
0
11
16.966112
21
-7.75
31
0
39
0
210
0
220
0
230
1
0
LINE
5
122
100
AcDbEntity
8
1
62
256
6
ByLayer
370
18
48
1
60
0
100
AcDbLine
10
21.455978
20
-5.25
30
0
11
21.387574
21
-5.25
31
0
39
0
210
0
220
0
230
1
0
LINE
5
123
100
AcDbEntity
8
1
62
256
6
ByLayer
370
18
48
1
60
0
100
AcDbLine
10
24.795632
20
-4.991796
30
0
11
24.535516
21
-5.007825
31
0
39
0
210
0
220
0
230
1
0
LINE
5
124
100
AcDbEntity
8
1
62
256
6
ByLayer
370
18
48
1
60
0
100
AcDbLine
10
23.458781
20
-7.909785
30
0
11
23.758781
21
-7.930867
31
0
39
0
210
0
220
0
230
1
0
LINE
5
125
100
AcDbEntity
8
1
62
256
6
ByLayer
370
18
48
1
60
0
100
AcDbLine
10
21.654705
20
-7.777118
30
0
11
21.709449
21
-7.808724
31
0
39
0
210
0
220
0
230
1
0
LINE
5
126
100
AcDbEntity
8
1
62
256
6
ByLayer
370
18
48
1
60
0
100
AcDbLine
10
21.387574
20
-7.75
30
0
11
21.455978
21
-7.75
31
0
39
0
210
0
220
0
230
1
0
LINE
5
127
100
AcDbEntity
8
1
62
256
6
ByLayer
370
18
48
1
60
0
100
AcDbLine
10
24.106077
20
-7.957412
30
0
11
24.46476
21
-7.987072
31
0
39
0
210
0
220
0
230
1
0
LINE
5
128
100
AcDbEntity
8
1
62
256
6
ByLayer
370
18
48
1
60
0
100
AcDbLine
10
22.315472
20
-7.866214
30
0
11
22.39812
21
-7.8662
31
0
39
0
210
0
220
0
230
1
0
LINE
5
129
100
AcDbEntity
8
1
62
256
6
ByLayer
370
18
48
1
60
0
100
AcDbLine
10
20.572358
20
-5.25
30
0
11
20.38199
21
-5.25
31
0
39
0
210
0
220
0
230
1
0
LINE
5
12A
100
AcDbEntity
8
1
62
256
6
ByLayer
370
18
48
1
60
0
100
AcDbLine
10
16.589581
20
-7.75
30
0
11
16.635194
21
-7.75
31
0
39
0
210
0
220
0
230
1
0
LINE
5
12B
100
AcDbEntity
8
1
62
256
6
ByLayer
370
18
48
1
60
0
100
AcDbLine
10
23.758781
20
-5.069133
30
0
11
23.458781
21
-5.090215
31
0
39
0
210
0
220
0
230
1
0
LINE
5
12C
100
AcDbEntity
8
1
62
256
6
ByLayer
370
18
48
1
60
0
100
AcDbLine
10
22.137538
20
-5.141081
30
0
11
21.78336
21
-5.165847
31
0
39
0
210
0
220
0
230
1
0
LINE
5
12D
100
AcDbEntity
8
1
62
256
6
ByLayer
370
18
48
1
60
0
100
AcDbLine
10
20.663912
20
-5.25
30
0
11
20.572358
21
-5.25
31
0
39
0
210
0
220
0
230
1
0
LINE
5
12E
100
AcDbEntity
8
1
62
256
6
ByLayer
370
18
48
1
60
0
100
AcDbLine
10
20.572358
20
-7.75
30
0
11
20.663912
21
-7.75
31
0
39
0
210
0
220
0
230
1
0
LINE
5
12F
100
AcDbEntity
8
1
62
256
6
ByLayer
370
18
48
1
60
0
100
AcDbLine
10
16.635194
20
-5.25
30
0
11
16.589581
21
-5.25
31
0
39
0
210
0
220
0
230
1
0
LINE
5
130
100
AcDbEntity
8
1
62
256
6
ByLayer
370
18
48
1
60
0
100
AcDbLine
10
25.004691
20
-7.805556
30
0
11
25.000117
21
-7.264766
31
0
39
0
210
0
220
0
230
1
0
LINE
5
131
100
AcDbEntity
8
1
62
256
6
ByLayer
370
18
48
1
60
0
100
AcDbLine
10
21.455978
20
-5.25
30
0
11
21.542652
21
-5.25
31
0
39
0
210
0
220
0
230
1
0
LINE
5
132
100
AcDbEntity
8
1
62
256
6
ByLayer
370
18
48
1
60
0
100
AcDbLine
10
20.38199
20
-7.75
30
0
11
20.572358
21
-7.75
31
0
39
0
210
0
220
0
230
1
0
LINE
5
133
100
AcDbEntity
8
1
62
256
6
ByLayer
370
18
48
1
60
0
100
AcDbLine
10
15.665685
20
-5.25
30
0
11
15.2
21
-5.25
31
0
39
0
210
0
220
0
230
1
0
LINE
5
134
100
AcDbEntity
8
SK2
62
256
6
ByLayer
370
13
48
1
60
0
100
AcDbLine
10
-54.60005
20
-8
30
0
11
-54.60005
21
8
31
0
39
0
210
0
220
0
230
1
0
LINE
5
136
100
AcDbEntity
8
SK2
62
256
6
ByLayer
370
13
48
1
60
0
100
AcDbLine
10
-47
20
8
30
0
11
-56.60005
21
8
31
0
39
0
210
0
220
0
230
1
0
LINE
5
137
100
AcDbEntity
8
SK2
62
256
6
ByLayer
370
13
48
1
60
0
100
AcDbLine
10
-47
20
-8
30
0
11
-56.60005
21
-8
31
0
39
0
210
0
220
0
230
1
0
LINE
5
138
100
AcDbEntity
8
SK2
62
256
6
ByLayer
370
18
48
1
60
0
100
AcDbLine
10
-54.60005
20
8
30
0
11
-54.182053
21
4.825002
31
0
39
0
210
0
220
0
230
1
0
LINE
5
139
100
AcDbEntity
8
SK2
62
256
6
ByLayer
370
18
48
1
60
0
100
AcDbLine
10
-54.60005
20
8
30
0
11
-55.018047
21
4.824998
31
0
39
0
210
0
220
0
230
1
0
LINE
5
13A
100
AcDbEntity
8
SK2
62
256
6
ByLayer
370
18
48
1
60
0
100
AcDbLine
10
-54.182053
20
4.825002
30
0
11
-55.018047
21
4.824998
31
0
39
0
210
0
220
0
230
1
0
LINE
5
13B
100
AcDbEntity
8
SK2
62
256
6
ByLayer
370
18
48
1
60
0
100
AcDbLine
10
-54.60005
20
-8
30
0
11
-55.018047
21
-4.825002
31
0
39
0
210
0
220
0
230
1
0
LINE
5
13C
100
AcDbEntity
8
SK2
62
256
6
ByLayer
370
18
48
1
60
0
100
AcDbLine
10
-54.60005
20
-8
30
0
11
-54.182053
21
-4.824998
31
0
39
0
210
0
220
0
230
1
0
LINE
5
13D
100
AcDbEntity
8
SK2
62
256
6
ByLayer
370
18
48
1
60
0
100
AcDbLine
10
-55.018047
20
-4.825002
30
0
11
-54.182053
21
-4.824998
31
0
39
0
210
0
220
0
230
1
0
MTEXT
5
22F
100
AcDbEntity
8
SK6
62
256
6
ByLayer
370
18
48
1
60
0
100
AcDbMText
10
-41.625025
20
-50.879272
30
0
210
0
220
0
230
1
1
\W0.7469;QS-QD-LFG16C1616S
40
3.5
41
0
44
1.084337
50
0
71
7
72
5
7
iso_b_vert
0
MTEXT
5
233
100
AcDbEntity
8
SK2
62
256
6
ByLayer
370
18
48
1
60
0
100
AcDbMText
10
-55.47505
20
-0.732237
30
0
210
0
220
0
230
1
1
\W0.5321;16
40
3.5
41
0
44
1.084337
50
89.9999999999999
71
7
72
5
7
iso_b_vert
0
DIMENSION
5
242
100
AcDbEntity
8
2
62
256
6
ByLayer
370
13
48
1
60
0
100
AcDbDimension
2
DimnDraft3D1
10
25
20
24.600025
30
0
11
10.409211
21
24.600025
31
0
70
32
71
5
72
1
41
1
210
0
220
0
230
1
3
Standard
100
AcDbAlignedDimension
13
0
23
10
33
0
14
25
24
-6
34
0
50
0
100
AcDbRotatedDimension
1001
ACAD
1000
DSTYLE
1002
{
1070
   279
1070
     0
1070
   172
1070
     1
1070
   173
1070
     1
1070
   340
1005
230
1070
   271
1070
     1
1070
    77
1070
     1
1070
    73
1070
     0
1070
   171
1070
     3
1070
   274
1070
     4
1070
   177
1070
     2
1070
   176
1070
     2
1070
   178
1070
     7
1070
    78
1070
     8
1070
    41
1041
3.175
1070
   147
1041
1.75
1070
    42
1041
2.0
1070
    44
1041
2.0
1070
   140
1041
3.5
1070
   343
1005
243
1070
   344
1005
243
1002
}
0
DIMENSION
5
257
100
AcDbEntity
8
SK2
62
256
6
ByLayer
370
13
48
1
60
0
100
AcDbDimension
2
DimnDraft3D2
10
-42
20
-21.108569
30
0
11
-44.259868
21
-21.108569
31
0
70
32
71
5
72
1
41
1
210
0
220
0
230
1
3
Standard
100
AcDbAlignedDimension
13
-45
23
6
33
0
14
-42
24
-10
34
0
50
0
100
AcDbRotatedDimension
1001
ACAD
1000
DSTYLE
1002
{
1070
   279
1070
     0
1070
   172
1070
     1
1070
   173
1070
     1
1070
   340
1005
230
1070
    77
1070
     1
1070
    73
1070
     0
1070
   171
1070
     3
1070
   274
1070
     4
1070
   177
1070
     2
1070
   176
1070
     2
1070
   178
1070
     7
1070
    78
1070
     8
1070
    41
1041
3.175
1070
   147
1041
1.75
1070
    42
1041
2.0
1070
    44
1041
2.0
1070
   140
1041
3.5
1070
   343
1005
243
1070
   344
1005
243
1002
}
0
DIMENSION
5
265
100
AcDbEntity
8
SK2
62
256
6
ByLayer
370
13
48
1
60
0
100
AcDbDimension
2
DimnDraft3D3
10
25
20
30.600025
30
0
11
-12.090789
21
30.600025
31
0
70
32
71
5
72
1
41
1
210
0
220
0
230
1
3
Standard
100
AcDbAlignedDimension
13
-45
23
10
33
0
14
25
24
-6
34
0
50
0
100
AcDbRotatedDimension
1001
ACAD
1000
DSTYLE
1002
{
1070
   279
1070
     0
1070
   172
1070
     1
1070
   173
1070
     1
1070
   340
1005
230
1070
   271
1070
     1
1070
    77
1070
     1
1070
    73
1070
     0
1070
   171
1070
     3
1070
   274
1070
     4
1070
   177
1070
     2
1070
   176
1070
     2
1070
   178
1070
     7
1070
    78
1070
     8
1070
    41
1041
3.175
1070
   147
1041
1.75
1070
    42
1041
2.0
1070
    44
1041
2.0
1070
   140
1041
3.5
1070
   343
1005
243
1070
   344
1005
243
1002
}
0
DIMENSION
5
273
100
AcDbEntity
8
2
62
256
6
ByLayer
370
13
48
1
60
0
100
AcDbDimension
2
DimnDraft3D4
10
9
20
-21.108569
30
0
11
15.346711
21
-21.108569
31
0
70
32
71
5
72
1
41
1
210
0
220
0
230
1
3
Standard
100
AcDbAlignedDimension
13
25
23
-10
33
0
14
9
24
-10
34
0
50
0
100
AcDbRotatedDimension
1001
ACAD
1000
DSTYLE
1002
{
1070
   279
1070
     0
1070
   172
1070
     1
1070
   173
1070
     1
1070
   340
1005
230
1070
   271
1070
     1
1070
    77
1070
     1
1070
    73
1070
     0
1070
   171
1070
     3
1070
   274
1070
     4
1070
   177
1070
     2
1070
   176
1070
     2
1070
   178
1070
     7
1070
    78
1070
     8
1070
    41
1041
3.175
1070
   147
1041
1.75
1070
    42
1041
2.0
1070
    44
1041
2.0
1070
   140
1041
3.5
1070
   343
1005
243
1070
   344
1005
243
1002
}
0
DIMENSION
5
281
100
AcDbEntity
8
2
62
256
6
ByLayer
370
13
48
1
60
0
100
AcDbDimension
2
DimnDraft3D5
10
50.1
20
-8
30
0
11
50.1
21
-1.653289
31
0
70
32
71
5
72
1
41
1
210
0
220
0
230
1
3
Standard
100
AcDbAlignedDimension
13
2
23
8
33
0
14
27
24
-8
34
0
50
90
100
AcDbRotatedDimension
1001
ACAD
1000
DSTYLE
1002
{
1070
    74
1070
     0
1070
   279
1070
     0
1070
   172
1070
     1
1070
   173
1070
     1
1070
   340
1005
230
1070
   271
1070
     1
1070
    77
1070
     1
1070
    73
1070
     0
1070
   171
1070
     3
1070
   274
1070
     4
1070
   177
1070
     2
1070
   176
1070
     2
1070
   178
1070
     7
1070
    78
1070
     8
1070
    41
1041
3.175
1070
   147
1041
1.75
1070
    42
1041
2.0
1070
    44
1041
2.0
1070
   140
1041
3.5
1070
   343
1005
243
1070
   344
1005
243
1002
}
0
DIMENSION
5
28F
100
AcDbEntity
8
2
62
256
6
ByLayer
370
13
48
1
60
0
100
AcDbDimension
2
DimnDraft3D6
10
43.1
20
-5
30
0
11
43.1
21
-19.820789
31
0
70
32
71
5
72
1
41
1
210
0
220
0
230
1
3
Standard
100
AcDbAlignedDimension
13
27
23
-8
33
0
14
27
24
-5
34
0
50
90
100
AcDbRotatedDimension
1001
ACAD
1000
DSTYLE
1002
{
1070
    74
1070
     0
1070
   279
1070
     0
1070
   172
1070
     1
1070
   173
1070
     1
1070
   340
1005
230
1070
   271
1070
     1
1070
    77
1070
     1
1070
    73
1070
     0
1070
   171
1070
     3
1070
   274
1070
     4
1070
   177
1070
     2
1070
   176
1070
     2
1070
   178
1070
     7
1070
    78
1070
     8
1070
    41
1041
3.175
1070
   147
1041
1.75
1070
    42
1041
2.0
1070
    44
1041
2.0
1070
   140
1041
3.5
1070
   343
1005
243
1070
   344
1005
243
1002
}
0
ENDSEC
0
SECTION
2
OBJECTS
0
DICTIONARY
5
2f9
330
0
100
AcDbDictionary
280
0
281
1
3
ACAD_GROUP
350
2fa
3
ACAD_MLINESTYLE
350
2fb
0
DICTIONARY
5
2fa
330
0
100
AcDbDictionary
280
0
281
1
0
DICTIONARY
5
2fb
330
0
100
AcDbDictionary
280
0
281
1
3
Standard
350
18
0
MLINESTYLE
5
18
330
2fb
100
AcDbMlineStyle
2
Standard
70
0
3

62
256
51
90
52
90
71
2
49
-0.5
62
256
6
ByLayer
49
0.5
62
256
6
ByLayer
0
RASTERVARIABLES
5
2e8
330

100
AcDbRasterVariables
90
0
70
1
71
1
72
1
0
ENDSEC
0
EOF
