0
SECTION
2
HEADER
9
$ACADVER
1
AC1015
9
$DWGCODEPAGE
3
ANSI_1252
9
$HANDSEED
5
30e
9
$ANGBASE
50
0
9
$ANGDIR
70
0
9
$ATTMODE
70
1
9
$AUNITS
70
0
9
$AUPREC
70
0
9
$CECOLOR
62
256
9
$CELTSCALE
40
1
9
$CELTYPE
6
ByLayer
9
$CELWEIGHT
370
18
9
$CLAYER
8
0
9
$CMLJUST
70
0
9
$CMLSCALE
40
1
9
$CMLSTYLE
2
Standard
9
$DIMSTYLE
2
Standard
9
$TEXTSIZE
40
0.2
9
$TEXTSTYLE
7
Standard
9
$LUNITS
70
2
9
$LUPREC
70
4
9
$EXTNAMES
290
1
9
$INSUNITS
70
4
9
$LTSCALE
40
1
9
$LWDISPLAY
290
1
9
$PDMODE
70
0
9
$PDSIZE
40
0
9
$PLINEGEN
70
0
0
ENDSEC
0
SECTION
2
CLASSES
0
CLASS
1
RASTERVARIABLES
2
AcDbRasterVariables
3
ISM
90
0
280
0
281
0
0
ENDSEC
0
SECTION
2
TABLES
0
TABLE
2
VPORT
5
304
100
AcDbSymbolTable
0
VPORT
5
1
100
AcDbSymbolTableRecord
100
AcDbViewportTableRecord
2
*Active
70
0
10
0
20
0
11
1
21
1
12
-1
22
1
13
0
23
0
14
0.5
24
0.5
15
10
25
10
16
0
26
0
36
1
17
0
27
0
37
0
0
ENDTAB
0
TABLE
2
LTYPE
5
305
100
AcDbSymbolTable
0
LTYPE
5
14
100
AcDbSymbolTableRecord
100
AcDbLinetypeTableRecord
70
0
2
ByBlock
3

72
65
73
0
40
0
0
LTYPE
5
15
100
AcDbSymbolTableRecord
100
AcDbLinetypeTableRecord
70
0
2
ByLayer
3

72
65
73
0
40
0
0
LTYPE
5
16
100
AcDbSymbolTableRecord
100
AcDbLinetypeTableRecord
70
0
2
CONTINUOUS
3
Solid line
72
65
73
0
40
0
0
LTYPE
5
6A
100
AcDbSymbolTableRecord
100
AcDbLinetypeTableRecord
70
0
2
CENTER
3
____ _ ____ _ ____ _ ____
72
65
73
4
40
47.5
49
22
74
0
49
-8.5
74
0
49
8.5
74
0
49
-8.5
74
0
0
LTYPE
5
6B
100
AcDbSymbolTableRecord
100
AcDbLinetypeTableRecord
70
0
2
DASHED
3
__ __ __ __ __ __ __ __ __
72
65
73
2
40
25.72
49
12.86
74
0
49
-12.86
74
0
0
ENDTAB
0
TABLE
2
LAYER
5
306
100
AcDbSymbolTable
0
LAYER
5
10
100
AcDbSymbolTableRecord
100
AcDbLayerTableRecord
2
0
70
0
62
7
6
CONTINUOUS
290
1
370
-3
390
0
0
LAYER
5
6D
100
AcDbSymbolTableRecord
100
AcDbLayerTableRecord
2
80
70
0
62
-6
6
CONTINUOUS
290
1
370
-3
390
0
0
LAYER
5
6F
100
AcDbSymbolTableRecord
100
AcDbLayerTableRecord
2
81
70
0
62
-3
6
CONTINUOUS
290
1
370
-3
390
0
0
LAYER
5
75
100
AcDbSymbolTableRecord
100
AcDbLayerTableRecord
2
1
70
0
62
4
6
CONTINUOUS
290
1
370
-3
390
0
0
LAYER
5
23E
100
AcDbSymbolTableRecord
100
AcDbLayerTableRecord
2
2
70
0
62
7
6
CONTINUOUS
290
1
370
-3
390
0
0
LAYER
5
2f1
100
AcDbSymbolTableRecord
100
AcDbLayerTableRecord
2
SK1
70
0
62
4
6
CONTINUOUS
290
1
370
-3
390
0
0
LAYER
5
2f2
100
AcDbSymbolTableRecord
100
AcDbLayerTableRecord
2
SK2
70
0
62
7
6
CONTINUOUS
290
1
370
-3
390
0
0
LAYER
5
2f3
100
AcDbSymbolTableRecord
100
AcDbLayerTableRecord
2
SK6
70
0
62
5
6
CONTINUOUS
290
1
370
-3
390
0
0
ENDTAB
0
TABLE
2
STYLE
5
307
100
AcDbSymbolTable
0
STYLE
5
11
100
AcDbSymbolTableRecord
100
AcDbTextStyleTableRecord
2
Standard
3
txt
70
0
71
0
40
0
41
1
42
0
50
0
0
STYLE
5
238
100
AcDbSymbolTableRecord
100
AcDbTextStyleTableRecord
2
iso_b_vert
3
simplex.shx
70
0
71
0
40
0
41
1
42
0
50
0
0
STYLE
5
239
100
AcDbSymbolTableRecord
100
AcDbTextStyleTableRecord
2
DWGDirectTextStyle
3
simplex
70
0
71
0
40
0
41
1
42
0
50
0
0
ENDTAB
0
TABLE
2
DIMSTYLE
5
308
100
AcDbSymbolTable
100
AcDbDimStyleTable
0
DIMSTYLE
105
27
100
AcDbSymbolTableRecord
100
AcDbDimStyleTableRecord
2
Standard
70
0
3
<>
41
0.18
42
0.0625
44
0.18
140
0.18
147
0.09
73
0
74
0
77
1
271
2
275
0
278
52
280
0
340
11
0
ENDTAB
0
TABLE
2
VIEW
5
309
100
AcDbSymbolTable
0
ENDTAB
0
TABLE
2
UCS
5
30a
100
AcDbSymbolTable
0
ENDTAB
0
TABLE
2
APPID
5
30b
100
AcDbSymbolTable
0
APPID
5
12
100
AcDbSymbolTableRecord
100
AcDbRegAppTableRecord
2
ACAD
70
0
0
ENDTAB
0
TABLE
2
BLOCK_RECORD
5
30c
100
AcDbSymbolTable
0
BLOCK_RECORD
5
1F
100
AcDbSymbolTableRecord
100
AcDbBlockTableRecord
2
*Model_Space
340
0
70
0
0
BLOCK_RECORD
5
1B
100
AcDbSymbolTableRecord
100
AcDbBlockTableRecord
2
*Paper_Space
340
0
70
0
0
BLOCK_RECORD
5
23
100
AcDbSymbolTableRecord
100
AcDbBlockTableRecord
2
*Paper_Space0
340
0
70
0
0
BLOCK_RECORD
5
23C
100
AcDbSymbolTableRecord
100
AcDbBlockTableRecord
2
DimnDraft3D1
340
0
70
0
0
BLOCK_RECORD
5
24B
100
AcDbSymbolTableRecord
100
AcDbBlockTableRecord
2
_CLOSED
340
0
70
0
0
BLOCK_RECORD
5
252
100
AcDbSymbolTableRecord
100
AcDbBlockTableRecord
2
DimnDraft3D2
340
0
70
0
0
BLOCK_RECORD
5
260
100
AcDbSymbolTableRecord
100
AcDbBlockTableRecord
2
DimnDraft3D3
340
0
70
0
0
BLOCK_RECORD
5
26E
100
AcDbSymbolTableRecord
100
AcDbBlockTableRecord
2
DimnDraft3D4
340
0
70
0
0
BLOCK_RECORD
5
27C
100
AcDbSymbolTableRecord
100
AcDbBlockTableRecord
2
DimnDraft3D5
340
0
70
0
0
BLOCK_RECORD
5
28A
100
AcDbSymbolTableRecord
100
AcDbBlockTableRecord
2
DimnDraft3D6
340
0
70
0
0
ENDTAB
0
ENDSEC
0
SECTION
2
BLOCKS
0
BLOCK
5
20
100
AcDbEntity
8
0
100
AcDbBlockBegin
2
*Model_Space
70
0
10
0
20
0
30
0
3
*Model_Space
0
ENDBLK
5
21
100
AcDbEntity
8
0
100
AcDbBlockEnd
0
BLOCK
5
1C
100
AcDbEntity
8
0
100
AcDbBlockBegin
2
*Paper_Space
70
0
10
0
20
0
30
0
3
*Paper_Space
0
ENDBLK
5
1D
100
AcDbEntity
8
0
100
AcDbBlockEnd
0
BLOCK
5
24
100
AcDbEntity
8
0
100
AcDbBlockBegin
2
*Paper_Space0
70
0
10
0
20
0
30
0
3
*Paper_Space0
0
ENDBLK
5
25
100
AcDbEntity
8
0
100
AcDbBlockEnd
0
BLOCK
5
248
100
AcDbEntity
8
0
100
AcDbBlockBegin
2
DimnDraft3D1
70
0
10
0
20
0
30
0
3
DimnDraft3D1
0
MTEXT
5
23D
100
AcDbEntity
8
2
62
256
6
ByLayer
370
18
48
1
60
0
100
AcDbMText
10
11.284211
20
23.475025
30
0
210
0
220
0
230
1
1
\W0.6740;25
40
3.5
41
0
44
1.084337
50
0
71
7
72
5
7
iso_b_vert
0
LINE
5
23F
100
AcDbEntity
8
2
62
256
6
ByLayer
370
13
48
1
60
0
100
AcDbLine
10
0
20
8
30
0
11
0
21
24.600025
31
0
39
0
210
0
220
0
230
1
0
LINE
5
240
100
AcDbEntity
8
2
62
256
6
ByLayer
370
13
48
1
60
0
100
AcDbLine
10
25
20
-4
30
0
11
25
21
24.600025
31
0
39
0
210
0
220
0
230
1
0
LINE
5
241
100
AcDbEntity
8
2
62
256
6
ByLayer
370
13
48
1
60
0
100
AcDbLine
10
0
20
22.600025
30
0
11
25
21
22.600025
31
0
39
0
210
0
220
0
230
1
0
LINE
5
242
100
AcDbEntity
8
2
62
256
6
ByLayer
370
13
48
1
60
0
100
AcDbLine
10
0
20
22.600025
30
0
11
3.174998
21
23.018022
31
0
39
0
210
0
220
0
230
1
0
LINE
5
243
100
AcDbEntity
8
2
62
256
6
ByLayer
370
13
48
1
60
0
100
AcDbLine
10
0
20
22.600025
30
0
11
3.175002
21
22.182028
31
0
39
0
210
0
220
0
230
1
0
LINE
5
244
100
AcDbEntity
8
2
62
256
6
ByLayer
370
13
48
1
60
0
100
AcDbLine
10
3.174998
20
23.018022
30
0
11
3.175002
21
22.182028
31
0
39
0
210
0
220
0
230
1
0
LINE
5
245
100
AcDbEntity
8
2
62
256
6
ByLayer
370
13
48
1
60
0
100
AcDbLine
10
25
20
22.600025
30
0
11
21.825002
21
22.182028
31
0
39
0
210
0
220
0
230
1
0
LINE
5
246
100
AcDbEntity
8
2
62
256
6
ByLayer
370
13
48
1
60
0
100
AcDbLine
10
25
20
22.600025
30
0
11
21.824998
21
23.018022
31
0
39
0
210
0
220
0
230
1
0
LINE
5
247
100
AcDbEntity
8
2
62
256
6
ByLayer
370
13
48
1
60
0
100
AcDbLine
10
21.825002
20
22.182028
30
0
11
21.824998
21
23.018022
31
0
39
0
210
0
220
0
230
1
0
ENDBLK
5
249
100
AcDbEntity
8
0
100
AcDbBlockEnd
0
BLOCK
5
24C
100
AcDbEntity
8
0
100
AcDbBlockBegin
2
_CLOSED
70
0
10
0
20
0
30
0
3
_CLOSED
0
LINE
5
24E
100
AcDbEntity
8
0
62
256
6
ByLayer
370
-2
48
1
60
0
100
AcDbLine
10
-1
20
0.166667
30
0
11
0
21
0
31
0
39
0
210
0
220
0
230
1
0
LINE
5
24F
100
AcDbEntity
8
0
62
256
6
ByLayer
370
-2
48
1
60
0
100
AcDbLine
10
0
20
0
30
0
11
-1
21
-0.166667
31
0
39
0
210
0
220
0
230
1
0
LINE
5
250
100
AcDbEntity
8
0
62
256
6
ByLayer
370
-2
48
1
60
0
100
AcDbLine
10
-1
20
0.166667
30
0
11
-1
21
-0.166667
31
0
39
0
210
0
220
0
230
1
0
LINE
5
251
100
AcDbEntity
8
0
62
256
6
ByLayer
370
-2
48
1
60
0
100
AcDbLine
10
0
20
0
30
0
11
-1
21
0
31
0
39
0
210
0
220
0
230
1
0
ENDBLK
5
24D
100
AcDbEntity
8
0
100
AcDbBlockEnd
0
BLOCK
5
25D
100
AcDbEntity
8
0
100
AcDbBlockBegin
2
DimnDraft3D2
70
0
10
0
20
0
30
0
3
DimnDraft3D2
0
MTEXT
5
253
100
AcDbEntity
8
SK2
62
256
6
ByLayer
370
18
48
1
60
0
100
AcDbMText
10
-43.884868
20
-18.225049
30
0
210
0
220
0
230
1
1
\W0.5404;2
40
3.5
41
0
44
1.084337
50
0
71
7
72
5
7
iso_b_vert
0
LINE
5
254
100
AcDbEntity
8
SK2
62
256
6
ByLayer
370
13
48
1
60
0
100
AcDbLine
10
-45
20
4
30
0
11
-45
21
-21.100049
31
0
39
0
210
0
220
0
230
1
0
LINE
5
255
100
AcDbEntity
8
SK2
62
256
6
ByLayer
370
13
48
1
60
0
100
AcDbLine
10
-43
20
-8
30
0
11
-43
21
-21.100049
31
0
39
0
210
0
220
0
230
1
0
LINE
5
256
100
AcDbEntity
8
SK2
62
256
6
ByLayer
370
13
48
1
60
0
100
AcDbLine
10
-53.75
20
-19.100049
30
0
11
-34.25
21
-19.100049
31
0
39
0
210
0
220
0
230
1
0
LINE
5
257
100
AcDbEntity
8
SK2
62
256
6
ByLayer
370
13
48
1
60
0
100
AcDbLine
10
-45
20
-19.100049
30
0
11
-48.174998
21
-19.518045
31
0
39
0
210
0
220
0
230
1
0
LINE
5
258
100
AcDbEntity
8
SK2
62
256
6
ByLayer
370
13
48
1
60
0
100
AcDbLine
10
-45
20
-19.100049
30
0
11
-48.175002
21
-18.682052
31
0
39
0
210
0
220
0
230
1
0
LINE
5
259
100
AcDbEntity
8
SK2
62
256
6
ByLayer
370
13
48
1
60
0
100
AcDbLine
10
-48.174998
20
-19.518045
30
0
11
-48.175002
21
-18.682052
31
0
39
0
210
0
220
0
230
1
0
LINE
5
25A
100
AcDbEntity
8
SK2
62
256
6
ByLayer
370
13
48
1
60
0
100
AcDbLine
10
-43
20
-19.100049
30
0
11
-39.825002
21
-18.682052
31
0
39
0
210
0
220
0
230
1
0
LINE
5
25B
100
AcDbEntity
8
SK2
62
256
6
ByLayer
370
13
48
1
60
0
100
AcDbLine
10
-43
20
-19.100049
30
0
11
-39.824998
21
-19.518045
31
0
39
0
210
0
220
0
230
1
0
LINE
5
25C
100
AcDbEntity
8
SK2
62
256
6
ByLayer
370
13
48
1
60
0
100
AcDbLine
10
-39.825002
20
-18.682052
30
0
11
-39.824998
21
-19.518045
31
0
39
0
210
0
220
0
230
1
0
ENDBLK
5
25E
100
AcDbEntity
8
0
100
AcDbBlockEnd
0
BLOCK
5
26B
100
AcDbEntity
8
0
100
AcDbBlockBegin
2
DimnDraft3D3
70
0
10
0
20
0
30
0
3
DimnDraft3D3
0
MTEXT
5
261
100
AcDbEntity
8
SK2
62
256
6
ByLayer
370
18
48
1
60
0
100
AcDbMText
10
-11.215789
20
29.475025
30
0
210
0
220
0
230
1
1
\W0.6740;70
40
3.5
41
0
44
1.084337
50
0
71
7
72
5
7
iso_b_vert
0
LINE
5
262
100
AcDbEntity
8
SK2
62
256
6
ByLayer
370
13
48
1
60
0
100
AcDbLine
10
-45
20
8
30
0
11
-45
21
30.600025
31
0
39
0
210
0
220
0
230
1
0
LINE
5
263
100
AcDbEntity
8
SK2
62
256
6
ByLayer
370
13
48
1
60
0
100
AcDbLine
10
25
20
-4
30
0
11
25
21
30.600025
31
0
39
0
210
0
220
0
230
1
0
LINE
5
264
100
AcDbEntity
8
SK2
62
256
6
ByLayer
370
13
48
1
60
0
100
AcDbLine
10
-45
20
28.600025
30
0
11
25
21
28.600025
31
0
39
0
210
0
220
0
230
1
0
LINE
5
265
100
AcDbEntity
8
SK2
62
256
6
ByLayer
370
13
48
1
60
0
100
AcDbLine
10
-45
20
28.600025
30
0
11
-41.825002
21
29.018022
31
0
39
0
210
0
220
0
230
1
0
LINE
5
266
100
AcDbEntity
8
SK2
62
256
6
ByLayer
370
13
48
1
60
0
100
AcDbLine
10
-45
20
28.600025
30
0
11
-41.824998
21
28.182028
31
0
39
0
210
0
220
0
230
1
0
LINE
5
267
100
AcDbEntity
8
SK2
62
256
6
ByLayer
370
13
48
1
60
0
100
AcDbLine
10
-41.825002
20
29.018022
30
0
11
-41.824998
21
28.182028
31
0
39
0
210
0
220
0
230
1
0
LINE
5
268
100
AcDbEntity
8
SK2
62
256
6
ByLayer
370
13
48
1
60
0
100
AcDbLine
10
25
20
28.600025
30
0
11
21.825002
21
28.182028
31
0
39
0
210
0
220
0
230
1
0
LINE
5
269
100
AcDbEntity
8
SK2
62
256
6
ByLayer
370
13
48
1
60
0
100
AcDbLine
10
25
20
28.600025
30
0
11
21.824998
21
29.018022
31
0
39
0
210
0
220
0
230
1
0
LINE
5
26A
100
AcDbEntity
8
SK2
62
256
6
ByLayer
370
13
48
1
60
0
100
AcDbLine
10
21.825002
20
28.182028
30
0
11
21.824998
21
29.018022
31
0
39
0
210
0
220
0
230
1
0
ENDBLK
5
26C
100
AcDbEntity
8
0
100
AcDbBlockEnd
0
BLOCK
5
279
100
AcDbEntity
8
0
100
AcDbBlockBegin
2
DimnDraft3D4
70
0
10
0
20
0
30
0
3
DimnDraft3D4
0
MTEXT
5
26F
100
AcDbEntity
8
2
62
256
6
ByLayer
370
18
48
1
60
0
100
AcDbMText
10
16.221711
20
-18.225049
30
0
210
0
220
0
230
1
1
\W0.5321;16
40
3.5
41
0
44
1.084337
50
0
71
7
72
5
7
iso_b_vert
0
LINE
5
270
100
AcDbEntity
8
2
62
256
6
ByLayer
370
13
48
1
60
0
100
AcDbLine
10
25
20
-8
30
0
11
25
21
-21.100049
31
0
39
0
210
0
220
0
230
1
0
LINE
5
271
100
AcDbEntity
8
2
62
256
6
ByLayer
370
13
48
1
60
0
100
AcDbLine
10
9
20
-8
30
0
11
9
21
-21.100049
31
0
39
0
210
0
220
0
230
1
0
LINE
5
272
100
AcDbEntity
8
2
62
256
6
ByLayer
370
13
48
1
60
0
100
AcDbLine
10
25
20
-19.100049
30
0
11
9
21
-19.100049
31
0
39
0
210
0
220
0
230
1
0
LINE
5
273
100
AcDbEntity
8
2
62
256
6
ByLayer
370
13
48
1
60
0
100
AcDbLine
10
25
20
-19.100049
30
0
11
21.825002
21
-19.518045
31
0
39
0
210
0
220
0
230
1
0
LINE
5
274
100
AcDbEntity
8
2
62
256
6
ByLayer
370
13
48
1
60
0
100
AcDbLine
10
25
20
-19.100049
30
0
11
21.824998
21
-18.682052
31
0
39
0
210
0
220
0
230
1
0
LINE
5
275
100
AcDbEntity
8
2
62
256
6
ByLayer
370
13
48
1
60
0
100
AcDbLine
10
21.825002
20
-19.518045
30
0
11
21.824998
21
-18.682052
31
0
39
0
210
0
220
0
230
1
0
LINE
5
276
100
AcDbEntity
8
2
62
256
6
ByLayer
370
13
48
1
60
0
100
AcDbLine
10
9
20
-19.100049
30
0
11
12.174998
21
-18.682052
31
0
39
0
210
0
220
0
230
1
0
LINE
5
277
100
AcDbEntity
8
2
62
256
6
ByLayer
370
13
48
1
60
0
100
AcDbLine
10
9
20
-19.100049
30
0
11
12.175002
21
-19.518045
31
0
39
0
210
0
220
0
230
1
0
LINE
5
278
100
AcDbEntity
8
2
62
256
6
ByLayer
370
13
48
1
60
0
100
AcDbLine
10
12.174998
20
-18.682052
30
0
11
12.175002
21
-19.518045
31
0
39
0
210
0
220
0
230
1
0
ENDBLK
5
27A
100
AcDbEntity
8
0
100
AcDbBlockEnd
0
BLOCK
5
287
100
AcDbEntity
8
0
100
AcDbBlockBegin
2
DimnDraft3D5
70
0
10
0
20
0
30
0
3
DimnDraft3D5
0
MTEXT
5
27D
100
AcDbEntity
8
2
62
256
6
ByLayer
370
18
48
1
60
0
100
AcDbMText
10
49.225
20
-0.778289
30
0
210
0
220
0
230
1
1
\W0.5321;12
40
3.5
41
0
44
1.084337
50
90
71
7
72
5
7
iso_b_vert
0
LINE
5
27E
100
AcDbEntity
8
2
62
256
6
ByLayer
370
13
48
1
60
0
100
AcDbLine
10
2
20
6
30
0
11
52.1
21
6
31
0
39
0
210
0
220
0
230
1
0
LINE
5
27F
100
AcDbEntity
8
2
62
256
6
ByLayer
370
13
48
1
60
0
100
AcDbLine
10
27
20
-6
30
0
11
52.1
21
-6
31
0
39
0
210
0
220
0
230
1
0
LINE
5
280
100
AcDbEntity
8
2
62
256
6
ByLayer
370
13
48
1
60
0
100
AcDbLine
10
50.1
20
14.75
30
0
11
50.1
21
-14.75
31
0
39
0
210
0
220
0
230
1
0
LINE
5
281
100
AcDbEntity
8
2
62
256
6
ByLayer
370
13
48
1
60
0
100
AcDbLine
10
50.1
20
6
30
0
11
49.682003
21
9.174998
31
0
39
0
210
0
220
0
230
1
0
LINE
5
282
100
AcDbEntity
8
2
62
256
6
ByLayer
370
13
48
1
60
0
100
AcDbLine
10
50.1
20
6
30
0
11
50.517997
21
9.175002
31
0
39
0
210
0
220
0
230
1
0
LINE
5
283
100
AcDbEntity
8
2
62
256
6
ByLayer
370
13
48
1
60
0
100
AcDbLine
10
49.682003
20
9.174998
30
0
11
50.517997
21
9.175002
31
0
39
0
210
0
220
0
230
1
0
LINE
5
284
100
AcDbEntity
8
2
62
256
6
ByLayer
370
13
48
1
60
0
100
AcDbLine
10
50.1
20
-6
30
0
11
50.517997
21
-9.174998
31
0
39
0
210
0
220
0
230
1
0
LINE
5
285
100
AcDbEntity
8
2
62
256
6
ByLayer
370
13
48
1
60
0
100
AcDbLine
10
50.1
20
-6
30
0
11
49.682003
21
-9.175002
31
0
39
0
210
0
220
0
230
1
0
LINE
5
286
100
AcDbEntity
8
2
62
256
6
ByLayer
370
13
48
1
60
0
100
AcDbLine
10
50.517997
20
-9.174998
30
0
11
49.682003
21
-9.175002
31
0
39
0
210
0
220
0
230
1
0
ENDBLK
5
288
100
AcDbEntity
8
0
100
AcDbBlockEnd
0
BLOCK
5
295
100
AcDbEntity
8
0
100
AcDbBlockBegin
2
DimnDraft3D6
70
0
10
0
20
0
30
0
3
DimnDraft3D6
0
MTEXT
5
28B
100
AcDbEntity
8
2
62
256
6
ByLayer
370
18
48
1
60
0
100
AcDbMText
10
42.225
20
-16.945789
30
0
210
0
220
0
230
1
1
\W0.5404;2
40
3.5
41
0
44
1.084337
50
90
71
7
72
5
7
iso_b_vert
0
LINE
5
28C
100
AcDbEntity
8
2
62
256
6
ByLayer
370
13
48
1
60
0
100
AcDbLine
10
27
20
-6
30
0
11
45.1
21
-6
31
0
39
0
210
0
220
0
230
1
0
LINE
5
28D
100
AcDbEntity
8
2
62
256
6
ByLayer
370
13
48
1
60
0
100
AcDbLine
10
27
20
-4
30
0
11
45.1
21
-4
31
0
39
0
210
0
220
0
230
1
0
LINE
5
28E
100
AcDbEntity
8
2
62
256
6
ByLayer
370
13
48
1
60
0
100
AcDbLine
10
43.1
20
4.75
30
0
11
43.1
21
-17.820789
31
0
39
0
210
0
220
0
230
1
0
LINE
5
28F
100
AcDbEntity
8
2
62
256
6
ByLayer
370
13
48
1
60
0
100
AcDbLine
10
43.1
20
-6
30
0
11
43.517997
21
-9.174998
31
0
39
0
210
0
220
0
230
1
0
LINE
5
290
100
AcDbEntity
8
2
62
256
6
ByLayer
370
13
48
1
60
0
100
AcDbLine
10
43.1
20
-6
30
0
11
42.682003
21
-9.175002
31
0
39
0
210
0
220
0
230
1
0
LINE
5
291
100
AcDbEntity
8
2
62
256
6
ByLayer
370
13
48
1
60
0
100
AcDbLine
10
43.517997
20
-9.174998
30
0
11
42.682003
21
-9.175002
31
0
39
0
210
0
220
0
230
1
0
LINE
5
292
100
AcDbEntity
8
2
62
256
6
ByLayer
370
13
48
1
60
0
100
AcDbLine
10
43.1
20
-4
30
0
11
42.682003
21
-0.825002
31
0
39
0
210
0
220
0
230
1
0
LINE
5
293
100
AcDbEntity
8
2
62
256
6
ByLayer
370
13
48
1
60
0
100
AcDbLine
10
43.1
20
-4
30
0
11
43.517997
21
-0.824998
31
0
39
0
210
0
220
0
230
1
0
LINE
5
294
100
AcDbEntity
8
2
62
256
6
ByLayer
370
13
48
1
60
0
100
AcDbLine
10
42.682003
20
-0.825002
30
0
11
43.517997
21
-0.824998
31
0
39
0
210
0
220
0
230
1
0
ENDBLK
5
296
100
AcDbEntity
8
0
100
AcDbBlockEnd
0
ENDSEC
0
SECTION
2
ENTITIES
0
ARC
5
147
100
AcDbEntity
8
1
62
256
6
ByLayer
370
18
48
1
60
0
100
AcDbCircle
39
0
10
2.7
20
-3.25
30
0
40
1
210
0
220
0
230
1
100
AcDbArc
50
180
51
270
0
ARC
5
148
100
AcDbEntity
8
SK1
62
256
6
ByLayer
370
18
48
1
60
0
100
AcDbCircle
39
0
10
-1
20
-6.75
30
0
40
1
210
0
220
0
230
1
100
AcDbArc
50
90
51
124.411509
0
ARC
5
149
100
AcDbEntity
8
1
62
256
6
ByLayer
370
18
48
1
60
0
100
AcDbCircle
39
0
10
2.7
20
-3.25
30
0
40
1
210
0
220
0
230
1
100
AcDbArc
50
180
51
270
0
ARC
5
14A
100
AcDbEntity
8
1
62
256
6
ByLayer
370
18
48
1
60
0
100
AcDbCircle
39
0
10
-1
20
-6.75
30
0
40
1
210
0
220
0
230
1
100
AcDbArc
50
90
51
124.411509
0
ELLIPSE
5
14B
100
AcDbEntity
8
1
62
256
6
ByLayer
370
18
48
1
60
0
100
AcDbEllipse
10
19.895033
20
-5
30
0
11
0.836314415911312
21
8.45212011048367E-16
31
0
210
0
220
0
230
-1
40
0.478289
41
0.898905116459129
42
-0.898905116459167
0
ELLIPSE
5
14C
100
AcDbEntity
8
1
62
256
6
ByLayer
370
18
48
1
60
0
100
AcDbEllipse
10
20.437312
20
-5
30
0
11
-2.44921270764287E-17
21
0.399999999999693
31
0
210
0
220
0
230
-1
40
0.087159
41
-2.46970144325508
42
-0.671891210334745
0
ELLIPSE
5
14D
100
AcDbEntity
8
1
62
256
6
ByLayer
370
13
48
1
60
0
100
AcDbEllipse
10
17.074248
20
-5.869586
30
0
11
0.979582052413648
21
0.301726209245636
31
0
210
0
220
0
230
-1
40
0.270086
41
-2.11639244204244
42
-1.9880759026818
0
ELLIPSE
5
14E
100
AcDbEntity
8
1
62
256
6
ByLayer
370
13
48
1
60
0
100
AcDbEllipse
10
17.074248
20
-5.869586
30
0
11
0.998914192090016
21
0.226032306510644
31
0
210
0
220
0
230
-1
40
0.206112
41
-2.07998265391599
42
-1.8732573509018
0
ELLIPSE
5
14F
100
AcDbEntity
8
1
62
256
6
ByLayer
370
13
48
1
60
0
100
AcDbEllipse
10
17.074248
20
-4.130414
30
0
11
0.99891419333478
21
-0.226032306616364
31
0
210
0
220
0
230
-1
40
0.206112
41
1.87325735144977
42
2.07998265424952
0
ELLIPSE
5
150
100
AcDbEntity
8
1
62
256
6
ByLayer
370
13
48
1
60
0
100
AcDbEllipse
10
24.37413
20
-5
30
0
11
-6.1541317860938
21
7.53638888751072E-16
31
0
210
0
220
0
230
1
40
0.121869
41
-1.18682389135615
42
-1.12302990717099
0
ELLIPSE
5
151
100
AcDbEntity
8
1
62
256
6
ByLayer
370
13
48
1
60
0
100
AcDbEllipse
10
24.37413
20
-5
30
0
11
-6.1541317860938
21
7.53638888751072E-16
31
0
210
0
220
0
230
1
40
0.121869
41
1.12302990717099
42
1.18682389135614
0
ELLIPSE
5
152
100
AcDbEntity
8
1
62
256
6
ByLayer
370
13
48
1
60
0
100
AcDbEllipse
10
24.37413
20
-5
30
0
11
6.1175709701529
21
6.23670833521734E-10
31
0
210
0
220
0
230
-1
40
0.073559
41
-2.06016834703605
42
-1.95476876143812
0
ELLIPSE
5
153
100
AcDbEntity
8
1
62
256
6
ByLayer
370
13
48
1
60
0
100
AcDbEllipse
10
24.37413
20
-5
30
0
11
6.11757095278457
21
-1.45817258640194E-09
31
0
210
0
220
0
230
-1
40
0.073559
41
1.95476876038368
42
2.06016834623596
0
ELLIPSE
5
154
100
AcDbEntity
8
1
62
256
6
ByLayer
370
13
48
1
60
0
100
AcDbEllipse
10
22.073627
20
-5
30
0
11
1.22363010710133
21
1.23664837521122E-15
31
0
210
0
220
0
230
-1
40
0.367758
41
-2.41547853525777
42
-2.06016834763839
0
ELLIPSE
5
155
100
AcDbEntity
8
1
62
256
6
ByLayer
370
13
48
1
60
0
100
AcDbEllipse
10
21.786071
20
-5
30
0
11
0.899729538042643
21
0.039773577123444
31
0
210
0
220
0
230
-1
40
0.498193
41
-1.0983226750218
42
-1.00525797503589
0
ELLIPSE
5
156
100
AcDbEntity
8
1
62
256
6
ByLayer
370
13
48
1
60
0
100
AcDbEllipse
10
21.786071
20
-5
30
0
11
0.899729510222142
21
-0.0397735628209018
31
0
210
0
220
0
230
-1
40
0.498193
41
1.00525799213574
42
1.09832269447317
0
ELLIPSE
5
157
100
AcDbEntity
8
1
62
256
6
ByLayer
370
13
48
1
60
0
100
AcDbEllipse
10
22.073627
20
-5
30
0
11
1.22363010714932
21
1.23664837525972E-15
31
0
210
0
220
0
230
-1
40
0.367758
41
2.06016834764053
42
2.41547853523971
0
ELLIPSE
5
158
100
AcDbEntity
8
1
62
256
6
ByLayer
370
13
48
1
60
0
100
AcDbEllipse
10
22.308716
20
-4.352384
30
0
11
0.0309022559561243
21
-0.238002207083931
31
0
210
0
220
0
230
1
40
0.697921
41
0.776305432118433
42
1.43060367190731
0
ELLIPSE
5
159
100
AcDbEntity
8
1
62
256
6
ByLayer
370
13
48
1
60
0
100
AcDbEllipse
10
22.308716
20
-5.647616
30
0
11
-0.0309022559569112
21
-0.238002207083828
31
0
210
0
220
0
230
1
40
0.697921
41
1.71098898168884
42
2.36528722147377
0
ELLIPSE
5
15A
100
AcDbEntity
8
1
62
256
6
ByLayer
370
13
48
1
60
0
100
AcDbEllipse
10
23.533781
20
-4.11922
30
0
11
0.0220590948836999
21
-0.238984092217269
31
0
210
0
220
0
230
1
40
0.006427
41
-1.50127915029161
42
-0.704838524415445
0
ELLIPSE
5
15B
100
AcDbEntity
8
1
62
256
6
ByLayer
370
13
48
1
60
0
100
AcDbEllipse
10
22.152761
20
-4.300476
30
0
11
-0.102096483414469
21
-0.282092729566714
31
0
210
0
220
0
230
1
40
0.694069
41
0.542728458704472
42
1.76594516923875
0
ELLIPSE
5
15C
100
AcDbEntity
8
1
62
256
6
ByLayer
370
13
48
1
60
0
100
AcDbEllipse
10
23.533781
20
-5.88078
30
0
11
0.0220590948837
21
0.238984092217269
31
0
210
0
220
0
230
1
40
0.006427
41
0.704838524422298
42
1.50127915029228
0
ELLIPSE
5
15D
100
AcDbEntity
8
1
62
256
6
ByLayer
370
13
48
1
60
0
100
AcDbEllipse
10
22.152761
20
-5.699524
30
0
11
0.10209648341447
21
-0.282092729566714
31
0
210
0
220
0
230
1
40
0.694069
41
1.37564748435106
42
2.59886419488532
0
ELLIPSE
5
15E
100
AcDbEntity
8
1
62
256
6
ByLayer
370
13
48
1
60
0
100
AcDbEllipse
10
21.48984
20
-4.470423
30
0
11
0.0373781701033243
21
-0.145268277334479
31
0
210
0
220
0
230
1
40
0.332441
41
-1.6561270901124
42
-0.517494909403044
0
ELLIPSE
5
15F
100
AcDbEntity
8
1
62
256
6
ByLayer
370
13
48
1
60
0
100
AcDbEllipse
10
21.48984
20
-5.529577
30
0
11
0.0373781701033242
21
0.145268277334479
31
0
210
0
220
0
230
1
40
0.332441
41
0.517494909403288
42
1.65612709011242
0
ELLIPSE
5
160
100
AcDbEntity
8
1
62
256
6
ByLayer
370
13
48
1
60
0
100
AcDbEllipse
10
22.022324
20
-5
30
0
11
1.24191050868325
21
1.2551232629925E-15
31
0
210
0
220
0
230
-1
40
0.483127
41
2.06016834764294
42
2.41547853523705
0
ELLIPSE
5
161
100
AcDbEntity
8
1
62
256
6
ByLayer
370
13
48
1
60
0
100
AcDbEllipse
10
22.022324
20
-5
30
0
11
1.24191050866324
21
1.25512326297227E-15
31
0
210
0
220
0
230
-1
40
0.483127
41
-2.41547853524248
42
-2.06016834764123
0
ELLIPSE
5
162
100
AcDbEntity
8
1
62
256
6
ByLayer
370
13
48
1
60
0
100
AcDbEllipse
10
21.997945
20
-5.014816
30
0
11
0.847017706006339
21
0.196304052020567
31
0
210
0
220
0
230
-1
40
0.854591
41
-0.922000588465018
42
-0.792533384471632
0
ELLIPSE
5
163
100
AcDbEntity
8
1
62
256
6
ByLayer
370
13
48
1
60
0
100
AcDbEllipse
10
21.997945
20
-4.985184
30
0
11
0.847017709298603
21
-0.196304068416563
31
0
210
0
220
0
230
-1
40
0.854591
41
0.792533367133595
42
0.922000570403283
0
ELLIPSE
5
164
100
AcDbEntity
8
1
62
256
6
ByLayer
370
13
48
1
60
0
100
AcDbEllipse
10
22.16419
20
-4.304612
30
0
11
-0.102096483414469
21
-0.282092729566714
31
0
210
0
220
0
230
1
40
0.694069
41
0.542728458704468
42
1.76594516923873
0
ELLIPSE
5
165
100
AcDbEntity
8
1
62
256
6
ByLayer
370
13
48
1
60
0
100
AcDbEllipse
10
22.261247
20
-4.346705
30
0
11
0.136500727004937
21
0.267147059738871
31
0
210
0
220
0
230
1
40
0.677974
41
-1.35487317172658
42
-1.28974538225854
0
ELLIPSE
5
166
100
AcDbEntity
8
1
62
256
6
ByLayer
370
13
48
1
60
0
100
AcDbEllipse
10
22.261247
20
-5.653295
30
0
11
-0.136500727005176
21
0.267147059738748
31
0
210
0
220
0
230
1
40
0.677974
41
-1.85184727133188
42
-1.78671948186546
0
ELLIPSE
5
167
100
AcDbEntity
8
1
62
256
6
ByLayer
370
13
48
1
60
0
100
AcDbEllipse
10
22.16419
20
-5.695388
30
0
11
0.10209648341447
21
-0.282092729566714
31
0
210
0
220
0
230
1
40
0.694069
41
1.37564748435106
42
2.5988641948853
0
ELLIPSE
5
168
100
AcDbEntity
8
1
62
256
6
ByLayer
370
13
48
1
60
0
100
AcDbEllipse
10
21.144976
20
-4.601619
30
0
11
0.0716898187935411
21
-0.131759515335133
31
0
210
0
220
0
230
1
40
0.304525
41
-1.73499558697383
42
-0.893380334272901
0
ELLIPSE
5
169
100
AcDbEntity
8
1
62
256
6
ByLayer
370
13
48
1
60
0
100
AcDbEllipse
10
21.144976
20
-5.398381
30
0
11
0.0716898187946788
21
0.131759515334514
31
0
210
0
220
0
230
1
40
0.304525
41
0.893380334283896
42
1.73499558700912
0
ELLIPSE
5
16A
100
AcDbEntity
8
1
62
256
6
ByLayer
370
13
48
1
60
0
100
AcDbEllipse
10
22.268095
20
-5.63144
30
0
11
0.171518916221875
21
0.16787275353098
31
0
210
0
220
0
230
1
40
0.082052
41
0.518298817417708
42
0.779655640507155
0
ELLIPSE
5
16B
100
AcDbEntity
8
1
62
256
6
ByLayer
370
13
48
1
60
0
100
AcDbEllipse
10
22.302479
20
-5.646663
30
0
11
0.0417762271290194
21
0.236336088752574
31
0
210
0
220
0
230
1
40
0.675324
41
-1.34029986666137
42
-0.746155527792933
0
ELLIPSE
5
16C
100
AcDbEntity
8
1
62
256
6
ByLayer
370
13
48
1
60
0
100
AcDbEllipse
10
22.302479
20
-4.353337
30
0
11
-0.0417762271294201
21
0.236336088752503
31
0
210
0
220
0
230
1
40
0.675324
41
-2.39543712579808
42
-1.80129278693142
0
ELLIPSE
5
16D
100
AcDbEntity
8
1
62
256
6
ByLayer
370
13
48
1
60
0
100
AcDbEllipse
10
23.291288
20
-5.293452
30
0
11
-0.114657467550524
21
-0.383214907245139
31
0
210
0
220
0
230
1
40
0.149521
41
-1.52608952887373
42
-0.632305349725016
0
ELLIPSE
5
16E
100
AcDbEntity
8
1
62
256
6
ByLayer
370
13
48
1
60
0
100
AcDbEllipse
10
21.176259
20
-4.520757
30
0
11
0.111438992389702
21
0.278534290483538
31
0
210
0
220
0
230
1
40
0.391057
41
-2.99672437051146
42
-2.16330924043518
0
ELLIPSE
5
16F
100
AcDbEntity
8
1
62
256
6
ByLayer
370
13
48
1
60
0
100
AcDbEllipse
10
21.176259
20
-5.479243
30
0
11
-0.111438992389677
21
0.278534290483548
31
0
210
0
220
0
230
1
40
0.391057
41
-0.978283413154581
42
-0.14486828307823
0
ELLIPSE
5
170
100
AcDbEntity
8
1
62
256
6
ByLayer
370
13
48
1
60
0
100
AcDbEllipse
10
22.252499
20
-5.57058
30
0
11
0.29766898486033
21
0.0373252656014786
31
0
210
0
220
0
230
1
40
0.756445
41
0.856307358412499
42
1.39678515212246
0
ELLIPSE
5
171
100
AcDbEntity
8
1
62
256
6
ByLayer
370
13
48
1
60
0
100
AcDbEllipse
10
22.252499
20
-4.42942
30
0
11
-0.297668984860324
21
0.0373252656015258
31
0
210
0
220
0
230
1
40
0.756445
41
1.74480750146743
42
2.28528529517745
0
ELLIPSE
5
172
100
AcDbEntity
8
1
62
256
6
ByLayer
370
13
48
1
60
0
100
AcDbEllipse
10
23.291288
20
-4.706548
30
0
11
-0.114657467550524
21
0.383214907245139
31
0
210
0
220
0
230
1
40
0.149521
41
0.63230534972529
42
1.52608952887372
0
ELLIPSE
5
173
100
AcDbEntity
8
1
62
256
6
ByLayer
370
13
48
1
60
0
100
AcDbEllipse
10
21.048488
20
-5.383195
30
0
11
-0.0204696158072206
21
0.148596752416413
31
0
210
0
220
0
230
1
40
0.33919
41
0.367590503028908
42
1.52410589159645
0
ELLIPSE
5
174
100
AcDbEntity
8
1
62
256
6
ByLayer
370
13
48
1
60
0
100
AcDbEllipse
10
21.048488
20
-4.616805
30
0
11
0.0204696158039751
21
0.14859675241686
31
0
210
0
220
0
230
1
40
0.33919
41
1.61748676198874
42
2.77400215055198
0
ELLIPSE
5
175
100
AcDbEntity
8
1
62
256
6
ByLayer
370
13
48
1
60
0
100
AcDbEllipse
10
21.167717
20
-4.517337
30
0
11
0.111594752970791
21
0.278471921581671
31
0
210
0
220
0
230
1
40
0.394318
41
-2.99660724386033
42
-2.16841033890653
0
ELLIPSE
5
176
100
AcDbEntity
8
1
62
256
6
ByLayer
370
13
48
1
60
0
100
AcDbEllipse
10
21.167717
20
-5.482663
30
0
11
-0.111594752970814
21
0.278471921581661
31
0
210
0
220
0
230
1
40
0.394318
41
-0.973182314683395
42
-0.144985409729629
0
ELLIPSE
5
177
100
AcDbEntity
8
1
62
256
6
ByLayer
370
13
48
1
60
0
100
AcDbEllipse
10
21.014981
20
-4.606093
30
0
11
0.0722486702513559
21
0.131453906929048
31
0
210
0
220
0
230
1
40
0.303884
41
1.73628735495825
42
2.71919261109665
0
ELLIPSE
5
178
100
AcDbEntity
8
1
62
256
6
ByLayer
370
13
48
1
60
0
100
AcDbEllipse
10
21.014981
20
-5.393907
30
0
11
-0.0722486702265449
21
0.131453906942685
31
0
210
0
220
0
230
1
40
0.303884
41
0.422400042194936
42
1.40530529868881
0
ELLIPSE
5
179
100
AcDbEntity
8
1
62
256
6
ByLayer
370
13
48
1
60
0
100
AcDbEllipse
10
22.293937
20
-5.130996
30
0
11
0.288517367888856
21
-0.0822054038764276
31
0
210
0
220
0
230
1
40
0.201316
41
0.955679576570793
42
1.50320190071237
0
ELLIPSE
5
17A
100
AcDbEntity
8
1
62
256
6
ByLayer
370
13
48
1
60
0
100
AcDbEllipse
10
20.992833
20
-4.587446
30
0
11
0.122999586129777
21
0.0858551210581151
31
0
210
0
220
0
230
1
40
0.203946
41
1.85506502495941
42
2.61874247938673
0
ELLIPSE
5
17B
100
AcDbEntity
8
1
62
256
6
ByLayer
370
13
48
1
60
0
100
AcDbEllipse
10
20.992833
20
-5.412554
30
0
11
-0.122999586130244
21
0.0858551210574456
31
0
210
0
220
0
230
1
40
0.203946
41
0.52285017419776
42
1.28652762862999
0
ELLIPSE
5
17C
100
AcDbEntity
8
1
62
256
6
ByLayer
370
13
48
1
60
0
100
AcDbEllipse
10
22.293937
20
-4.869004
30
0
11
-0.288517367888757
21
-0.0822054038767749
31
0
210
0
220
0
230
1
40
0.201316
41
1.63839075288011
42
2.18591307702122
0
ELLIPSE
5
17D
100
AcDbEntity
8
1
62
256
6
ByLayer
370
13
48
1
60
0
100
AcDbEllipse
10
20.978252
20
-4.561581
30
0
11
0.136631968823999
21
0.0619007681315656
31
0
210
0
220
0
230
1
40
0.148534
41
1.88760878179951
42
2.74962710514653
0
ELLIPSE
5
17E
100
AcDbEntity
8
1
62
256
6
ByLayer
370
13
48
1
60
0
100
AcDbEllipse
10
20.978252
20
-5.438419
30
0
11
0.136631968824137
21
-0.0619007681312608
31
0
210
0
220
0
230
1
40
0.148534
41
-2.74962710515925
42
-1.88760878179978
0
ELLIPSE
5
17F
100
AcDbEntity
8
1
62
256
6
ByLayer
370
13
48
1
60
0
100
AcDbEllipse
10
20.838501
20
-5.725438
30
0
11
0.132407679423122
21
-0.0704855051041258
31
0
210
0
220
0
230
1
40
0.168583
41
-2.61018272665905
42
-1.87748899426516
0
ELLIPSE
5
180
100
AcDbEntity
8
1
62
256
6
ByLayer
370
13
48
1
60
0
100
AcDbEllipse
10
20.838501
20
-4.274562
30
0
11
0.132407679423122
21
0.0704855051041255
31
0
210
0
220
0
230
1
40
0.168583
41
1.87748899426519
42
2.61018272665905
0
ELLIPSE
5
181
100
AcDbEntity
8
1
62
256
6
ByLayer
370
13
48
1
60
0
100
AcDbEllipse
10
21.042406
20
-4.569126
30
0
11
-0.0486052519780795
21
-0.194003941919095
31
0
210
0
220
0
230
1
40
0.669878
41
-0.553928558803449
42
-0.205864067887519
0
ELLIPSE
5
182
100
AcDbEntity
8
1
62
256
6
ByLayer
370
13
48
1
60
0
100
AcDbEllipse
10
21.022373
20
-4.566064
30
0
11
5.665498452323E-17
21
0.2
31
0
210
0
220
0
230
1
40
0.909654
41
1.90677220782005
42
2.72521072930061
0
ELLIPSE
5
183
100
AcDbEntity
8
1
62
256
6
ByLayer
370
13
48
1
60
0
100
AcDbEllipse
10
21.022373
20
-5.433936
30
0
11
5.665498452323E-17
21
0.2
31
0
210
0
220
0
230
1
40
0.909654
41
0.416381924289194
42
1.23482044577494
0
ELLIPSE
5
184
100
AcDbEntity
8
1
62
256
6
ByLayer
370
13
48
1
60
0
100
AcDbEllipse
10
21.042406
20
-5.430874
30
0
11
-0.0486052519780804
21
0.194003941919095
31
0
210
0
220
0
230
1
40
0.669878
41
0.20586406788747
42
0.553928558476735
0
ELLIPSE
5
185
100
AcDbEntity
8
1
62
256
6
ByLayer
370
13
48
1
60
0
100
AcDbEllipse
10
20.838501
20
-4.274562
30
0
11
4.24912383924225E-17
21
0.15
31
0
210
0
220
0
230
1
40
0.848573
41
1.5707963267949
42
1.90677220780379
0
ELLIPSE
5
186
100
AcDbEntity
8
1
62
256
6
ByLayer
370
13
48
1
60
0
100
AcDbEllipse
10
20.838501
20
-5.725438
30
0
11
4.24912383924225E-17
21
0.15
31
0
210
0
220
0
230
1
40
0.848573
41
1.234820445786
42
1.5707963267949
0
ELLIPSE
5
187
100
AcDbEntity
8
1
62
256
6
ByLayer
370
13
48
1
60
0
100
AcDbEllipse
10
20.534034
20
-4.566064
30
0
11
5.665498452323E-17
21
0.2
31
0
210
0
220
0
230
1
40
0.34202
41
1.90677220780381
42
2.72521072930055
0
ELLIPSE
5
188
100
AcDbEntity
8
1
62
256
6
ByLayer
370
13
48
1
60
0
100
AcDbEllipse
10
20.534034
20
-5.433936
30
0
11
-3.67381906146713E-17
21
-0.2
31
0
210
0
220
0
230
1
40
0.34202
41
-2.72521072930055
42
-1.90677220780381
0
ELLIPSE
5
189
100
AcDbEntity
8
1
62
256
6
ByLayer
370
13
48
1
60
0
100
AcDbEllipse
10
20.78303
20
-7.080141
30
0
11
-3.67381906146715E-16
21
-2.00000000000001
31
0
210
0
220
0
230
1
40
0.34202
41
-2.79252680319092
42
-2.72521072930059
0
ELLIPSE
5
18A
100
AcDbEntity
8
1
62
256
6
ByLayer
370
13
48
1
60
0
100
AcDbEllipse
10
20.78303
20
-2.919859
30
0
11
5.66549845232303E-16
21
2.00000000000001
31
0
210
0
220
0
230
1
40
0.34202
41
2.72521072930059
42
2.79252680319092
0
ELLIPSE
5
18B
100
AcDbEntity
8
1
62
256
6
ByLayer
370
13
48
1
60
0
100
AcDbEllipse
10
20.481103
20
-5.725438
30
0
11
-2.75536429610035E-17
21
-0.15
31
0
210
0
220
0
230
1
40
0.34202
41
-1.90677220780379
42
-1.5707963267949
0
ELLIPSE
5
18C
100
AcDbEntity
8
1
62
256
6
ByLayer
370
13
48
1
60
0
100
AcDbEllipse
10
20.481103
20
-4.274562
30
0
11
4.24912383924225E-17
21
0.15
31
0
210
0
220
0
230
1
40
0.34202
41
1.5707963267949
42
1.90677220780379
0
ELLIPSE
5
18D
100
AcDbEntity
8
1
62
256
6
ByLayer
370
13
48
1
60
0
100
AcDbEllipse
10
24.222654
20
-4.108695
30
0
11
0.00588101291965487
21
-0.239927934361631
31
0
210
0
220
0
230
1
40
0.175234
41
-1.50631558565101
42
-0.750535400473072
0
ELLIPSE
5
18E
100
AcDbEntity
8
1
62
256
6
ByLayer
370
13
48
1
60
0
100
AcDbEllipse
10
24.222654
20
-5.891305
30
0
11
0.00588101291965508
21
0.239927934361631
31
0
210
0
220
0
230
1
40
0.175234
41
0.750535400472837
42
1.50631558565103
0
ELLIPSE
5
18F
100
AcDbEntity
8
1
62
256
6
ByLayer
370
13
48
1
60
0
100
AcDbEllipse
10
20.527723
20
-5
30
0
11
5.94877337493915E-17
21
0.21
31
0
210
0
220
0
230
1
40
0.34202
41
-2.7925268031909
42
-0.349065850398889
0
ELLIPSE
5
190
100
AcDbEntity
8
1
62
256
6
ByLayer
370
13
48
1
60
0
100
AcDbEllipse
10
24.75209
20
-5.687793
30
0
11
-0.0532002340369041
21
0.0846742882959086
31
0
210
0
220
0
230
1
40
0.139782
41
-1.57684789387814
42
-0.739654044676975
0
ELLIPSE
5
191
100
AcDbEntity
8
1
62
256
6
ByLayer
370
13
48
1
60
0
100
AcDbEllipse
10
24.913506
20
-5.538045
30
0
11
-0.0833195870797989
21
0.0552977975045282
31
0
210
0
220
0
230
1
40
0.125168
41
-1.63384778655086
42
-1.00901921834408
0
ELLIPSE
5
192
100
AcDbEntity
8
1
62
256
6
ByLayer
370
13
48
1
60
0
100
AcDbEllipse
10
24.441387
20
-4.647871
30
0
11
0.0115886927836045
21
-0.399832092508302
31
0
210
0
220
0
230
1
40
0.406594
41
1.55901218905987
42
2.32325251776611
0
ELLIPSE
5
193
100
AcDbEntity
8
1
62
256
6
ByLayer
370
13
48
1
60
0
100
AcDbEllipse
10
24.441387
20
-5.352129
30
0
11
0.0115886927836044
21
0.399832092508302
31
0
210
0
220
0
230
1
40
0.406594
41
-2.32325251776616
42
-1.55901218905987
0
ELLIPSE
5
194
100
AcDbEntity
8
1
62
256
6
ByLayer
370
13
48
1
60
0
100
AcDbEllipse
10
24.75209
20
-4.312207
30
0
11
-0.0532002340369042
21
-0.0846742882959085
31
0
210
0
220
0
230
1
40
0.139782
41
0.73965404467662
42
1.57684789387814
0
ELLIPSE
5
195
100
AcDbEntity
8
1
62
256
6
ByLayer
370
13
48
1
60
0
100
AcDbEllipse
10
24.913506
20
-4.461955
30
0
11
-0.0833195870797989
21
-0.0552977975045282
31
0
210
0
220
0
230
1
40
0.125168
41
1.0090192183443
42
1.63384778655093
0
ELLIPSE
5
196
100
AcDbEntity
8
1
62
256
6
ByLayer
370
13
48
1
60
0
100
AcDbEllipse
10
24.694545
20
-4.276324
30
0
11
-0.0526170259943807
21
-0.0850379243367726
31
0
210
0
220
0
230
1
40
0.13982
41
0.737799907002136
42
1.57588705481515
0
ELLIPSE
5
197
100
AcDbEntity
8
1
62
256
6
ByLayer
370
13
48
1
60
0
100
AcDbEllipse
10
24.598358
20
-4.199622
30
0
11
0.0768343605824262
21
0.0640037579669328
31
0
210
0
220
0
230
1
40
0.131171
41
-1.98237212656373
42
-1.52167934605466
0
ELLIPSE
5
198
100
AcDbEntity
8
1
62
256
6
ByLayer
370
13
48
1
60
0
100
AcDbEllipse
10
24.598358
20
-5.800378
30
0
11
0.0768343605824262
21
-0.0640037579669329
31
0
210
0
220
0
230
1
40
0.131171
41
1.52167934605469
42
1.98237212656351
0
ELLIPSE
5
199
100
AcDbEntity
8
1
62
256
6
ByLayer
370
13
48
1
60
0
100
AcDbEllipse
10
24.694545
20
-5.723676
30
0
11
-0.0526170259943807
21
0.0850379243367727
31
0
210
0
220
0
230
1
40
0.13982
41
-1.57588705481508
42
-0.737799907002136
0
ELLIPSE
5
19A
100
AcDbEntity
8
1
62
256
6
ByLayer
370
13
48
1
60
0
100
AcDbEllipse
10
23.833781
20
-4.116497
30
0
11
-0.00779618045171942
21
-0.239873340682878
31
0
210
0
220
0
230
1
40
0.002272
41
0.730980747429423
42
1.50102006034287
0
ELLIPSE
5
19B
100
AcDbEntity
8
1
62
256
6
ByLayer
370
13
48
1
60
0
100
AcDbEllipse
10
24.935851
20
-4.496575
30
0
11
-0.0846406472330468
21
-0.0532537401125116
31
0
210
0
220
0
230
1
40
0.065248
41
1.04586785899605
42
1.67413113259343
0
ELLIPSE
5
19C
100
AcDbEntity
8
1
62
256
6
ByLayer
370
13
48
1
60
0
100
AcDbEllipse
10
23.833781
20
-5.883503
30
0
11
-0.00779618045171957
21
0.239873340682878
31
0
210
0
220
0
230
1
40
0.002272
41
-1.50102006034467
42
-0.730980747429493
0
ELLIPSE
5
19D
100
AcDbEntity
8
1
62
256
6
ByLayer
370
13
48
1
60
0
100
AcDbEllipse
10
24.935851
20
-5.503425
30
0
11
-0.0846406472330468
21
0.0532537401125117
31
0
210
0
220
0
230
1
40
0.065248
41
-1.67413113259357
42
-1.04586785899545
0
ELLIPSE
5
19E
100
AcDbEntity
8
1
62
256
6
ByLayer
370
13
48
1
60
0
100
AcDbEllipse
10
17.074248
20
-4.130414
30
0
11
0.979582052511384
21
-0.301726209254835
31
0
210
0
220
0
230
-1
40
0.270086
41
1.98807590272852
42
2.11639244207958
0
ELLIPSE
5
19F
100
AcDbEntity
8
1
62
256
6
ByLayer
370
18
48
1
60
0
100
AcDbEllipse
10
19.895033
20
-5
30
0
11
0.836314415911312
21
8.45212011048367E-16
31
0
210
0
220
0
230
-1
40
0.478289
41
0.898905116459129
42
-0.898905116459167
0
ELLIPSE
5
1A0
100
AcDbEntity
8
1
62
256
6
ByLayer
370
18
48
1
60
0
100
AcDbEllipse
10
20.437312
20
-5
30
0
11
-2.44921270764287E-17
21
0.399999999999693
31
0
210
0
220
0
230
-1
40
0.087159
41
-2.46970144325508
42
-0.671891210334745
0
ELLIPSE
5
1A1
100
AcDbEntity
8
1
62
256
6
ByLayer
370
18
48
1
60
0
100
AcDbEllipse
10
24.581337
20
-5.976087
30
0
11
0.239998277993477
21
-0.0147981978572407
31
0
210
0
220
0
230
-1
40
0.061458
41
1.44512848082072
42
1.74112318421589
0
ELLIPSE
5
1A2
100
AcDbEntity
8
1
62
256
6
ByLayer
370
18
48
1
60
0
100
AcDbEllipse
10
22.048461
20
-5.666924
30
0
11
0.057752929499109
21
0.191891975732293
31
0
210
-1.59650527093405E-15
220
-7.67208394159938E-18
230
1
40
0.998032
41
2.91077570167875
42
-2.91077570167872
0
ELLIPSE
5
1A3
100
AcDbEntity
8
1
62
256
6
ByLayer
370
18
48
1
60
0
100
AcDbEllipse
10
21.82387
20
-4
30
0
11
0.201490790302156
21
0
31
0
210
0
220
0
230
1
40
0.992601
41
-1.5707963267949
42
-1.04397591016874
0
ELLIPSE
5
1A4
100
AcDbEntity
8
1
62
256
6
ByLayer
370
18
48
1
60
0
100
AcDbEllipse
10
24.581337
20
-4.023913
30
0
11
0.239998276863815
21
0.0147981977899536
31
0
210
0
220
0
230
-1
40
0.061458
41
-1.74112318486355
42
-1.44512848006544
0
ELLIPSE
5
1A5
100
AcDbEntity
8
1
62
256
6
ByLayer
370
18
48
1
60
0
100
AcDbEllipse
10
22.163726
20
-5.856339
30
0
11
0.302024948146549
21
-0.0186199320922832
31
0
210
0
220
0
230
-1
40
0.060635
41
0.776166089231907
42
1.56278371217661
0
ELLIPSE
5
1A6
100
AcDbEntity
8
1
62
256
6
ByLayer
370
18
48
1
60
0
100
AcDbEllipse
10
22.048461
20
-4.333076
30
0
11
0.0577529294991086
21
-0.191891975732293
31
0
210
-1.62972770132427E-15
220
-2.32673269882162E-18
230
1
40
0.998032
41
2.91077570167872
42
-2.91077570167875
0
ELLIPSE
5
1A7
100
AcDbEntity
8
1
62
256
6
ByLayer
370
18
48
1
60
0
100
AcDbEllipse
10
25.048748
20
-5.503425
30
0
11
1.1330996904646E-16
21
0.4
31
0
210
0
220
0
230
1
40
0.121869
41
1.5707963267949
42
1.64009079051253
0
ELLIPSE
5
1A8
100
AcDbEntity
8
1
62
256
6
ByLayer
370
18
48
1
60
0
100
AcDbEllipse
10
22.163726
20
-4.143661
30
0
11
0.302024948149042
21
0.0186199320925205
31
0
210
0
220
0
230
-1
40
0.060635
41
-1.56278371217202
42
-0.776166089233693
0
ELLIPSE
5
1A9
100
AcDbEntity
8
1
62
256
6
ByLayer
370
18
48
1
60
0
100
AcDbEllipse
10
21.82387
20
-6
30
0
11
-0.201490790302156
21
2.46746902040712E-17
31
0
210
0
220
0
230
1
40
0.992601
41
-2.09761674342106
42
-1.5707963267949
0
ELLIPSE
5
1AA
100
AcDbEntity
8
1
62
256
6
ByLayer
370
18
48
1
60
0
100
AcDbEllipse
10
25.048748
20
-4.496575
30
0
11
1.1330996904646E-16
21
0.4
31
0
210
0
220
0
230
1
40
0.121869
41
1.50150186307726
42
1.5707963267949
0
POINT
5
6C
100
AcDbEntity
8
80
62
256
6
ByLayer
370
18
48
1
60
0
100
AcDbPoint
10
0
20
0
30
0
39
0
210
0
220
0
230
1
50
360
0
POINT
5
6E
100
AcDbEntity
8
81
62
256
6
ByLayer
370
18
48
1
60
0
100
AcDbPoint
10
25
20
-6
30
0
39
0
210
0
220
0
230
1
50
360
0
SPLINE
5
1AB
100
AcDbEntity
8
1
62
256
6
ByLayer
370
18
48
1
60
0
100
AcDbSpline
70
4
71
3
72
16
73
12
40
0
40
0
40
0
40
0
40
0.0361739940099095
40
0.0361739940099095
40
0.357297366236032
40
0.357297366236032
40
0.656017159969402
40
0.656017159969402
40
0.921091235565928
40
0.921091235565928
40
1
40
1
40
1
40
1
41
1
10
15.210309296364
20
-4.19454662237595
30
0
41
1
10
15.1970476463619
20
-4.18994570113696
30
0
41
1
10
15.1838796213543
20
-4.1850617679157
30
0
41
1
10
15.0550960632086
20
-4.13412115070963
30
0
41
1
10
14.9444064182918
20
-4.06459927640657
30
0
41
1
10
14.7634654227521
20
-3.89306638443142
30
0
41
1
10
14.6882416751709
20
-3.79075836439367
30
0
41
1
10
14.5872786150006
20
-3.5774784775021
30
0
41
1
10
14.555591975099
20
-3.46553701765262
30
0
41
1
10
14.5404166407356
20
-3.3187040712173
30
0
41
1
10
14.5386425355021
20
-3.28432411358023
30
0
41
1
10
14.5386425355021
20
-3.24999999999957
30
0
0
SPLINE
5
1AC
100
AcDbEntity
8
1
62
256
6
ByLayer
370
18
48
1
60
0
100
AcDbSpline
70
4
71
3
72
18
73
14
40
0
40
0
40
0
40
0
40
0.168337478582058
40
0.168337478582058
40
0.336016707803002
40
0.336016707803002
40
0.514139541127746
40
0.514139541127746
40
0.721961373423504
40
0.721961373423504
40
0.996262053137367
40
0.996262053137367
40
1
40
1
40
1
40
1
41
1
10
9.17091285007245
20
-3.24999999999952
30
0
41
1
10
9.17091285007245
20
-3.34762870633608
30
0
41
1
10
9.18103818586118
20
-3.44661744069631
30
0
41
1
10
9.21875888808225
20
-3.6298782244761
30
0
41
1
10
9.24669228729891
20
-3.71664133353201
30
0
41
1
10
9.31700134550874
20
-3.87478008452388
30
0
41
1
10
9.36092578491662
20
-3.94684283668005
30
0
41
1
10
9.46511727369492
20
-4.07674355348686
30
0
41
1
10
9.52808083125549
20
-4.13190503274828
30
0
41
1
10
9.67973022477497
20
-4.22318075281245
30
0
41
1
10
9.77259987168446
20
-4.2493019926753
30
0
41
1
10
9.86605702812855
20
-4.24999532977441
30
0
41
1
10
9.8673164398441
20
-4.24999999999952
30
0
41
1
10
9.86857574449778
20
-4.24999999999952
30
0
0
SPLINE
5
1AD
100
AcDbEntity
8
1
62
256
6
ByLayer
370
18
48
1
60
0
100
AcDbSpline
70
4
71
3
72
16
73
12
40
0
40
0
40
0
40
0
40
0.0361739940099095
40
0.0361739940099095
40
0.357297366236032
40
0.357297366236032
40
0.656017159969402
40
0.656017159969402
40
0.921091235565928
40
0.921091235565928
40
1
40
1
40
1
40
1
41
1
10
15.210309296364
20
-4.19454662237595
30
0
41
1
10
15.1970476463619
20
-4.18994570113696
30
0
41
1
10
15.1838796213543
20
-4.1850617679157
30
0
41
1
10
15.0550960632086
20
-4.13412115070963
30
0
41
1
10
14.9444064182918
20
-4.06459927640657
30
0
41
1
10
14.7634654227521
20
-3.89306638443142
30
0
41
1
10
14.6882416751709
20
-3.79075836439367
30
0
41
1
10
14.5872786150006
20
-3.5774784775021
30
0
41
1
10
14.555591975099
20
-3.46553701765262
30
0
41
1
10
14.5404166407356
20
-3.3187040712173
30
0
41
1
10
14.5386425355021
20
-3.28432411358023
30
0
41
1
10
14.5386425355021
20
-3.24999999999957
30
0
0
SPLINE
5
1AE
100
AcDbEntity
8
1
62
256
6
ByLayer
370
13
48
1
60
0
100
AcDbSpline
70
4
71
3
72
10
73
6
40
0
40
0
40
0
40
0
40
0.807289382551453
40
0.807289382551453
40
1
40
1
40
1
40
1
41
1
10
22.4262120963125
20
-4.62397635271003
30
0
41
1
10
22.4302762008164
20
-4.59172661660733
30
0
41
1
10
22.4269568435098
20
-4.56258905616389
30
0
41
1
10
22.4156280417962
20
-4.53236877567267
30
0
41
1
10
22.4131204986914
20
-4.52671625365542
30
0
41
1
10
22.4102634152023
20
-4.52135698573585
30
0
0
SPLINE
5
1AF
100
AcDbEntity
8
1
62
256
6
ByLayer
370
13
48
1
60
0
100
AcDbSpline
70
4
71
3
72
14
73
10
40
0
40
0
40
0
40
0
40
0.140335064029798
40
0.140335064029798
40
0.313324577863399
40
0.313324577863399
40
0.854437087129479
40
0.854437087129479
40
1
40
1
40
1
40
1
41
1
10
22.4102634152023
20
-4.52135698573588
30
0
41
1
10
22.4115615907815
20
-4.51996288777369
30
0
41
1
10
22.4130492807412
20
-4.5186570101209
30
0
41
1
10
22.4164306495378
20
-4.51613672597216
30
0
41
1
10
22.418387975026
20
-4.51496507816813
30
0
41
1
10
22.4261757331449
20
-4.51097137354478
30
0
41
1
10
22.4318897349344
20
-4.50944809460952
30
0
41
1
10
22.4386571441608
20
-4.50815804907808
30
0
41
1
10
22.4400859075475
20
-4.50792528395002
30
0
41
1
10
22.441497419172
20
-4.5077279642513
30
0
0
SPLINE
5
1B0
100
AcDbEntity
8
1
62
256
6
ByLayer
370
13
48
1
60
0
100
AcDbSpline
70
4
71
3
72
8
73
4
40
0
40
0
40
0
40
0
40
1
40
1
40
1
40
1
41
1
10
22.4414974191718
20
-4.50772796425159
30
0
41
1
10
22.4434065060311
20
-4.50746108692843
30
0
41
1
10
22.4452888609443
20
-4.50725234549114
30
0
41
1
10
22.4471477503402
20
-4.50708946419823
30
0
0
SPLINE
5
1B1
100
AcDbEntity
8
1
62
256
6
ByLayer
370
13
48
1
60
0
100
AcDbSpline
70
4
71
3
72
12
73
8
40
0
40
0
40
0
40
0
40
0.271863792020762
40
0.271863792020762
40
0.680333498425164
40
0.680333498425164
40
1
40
1
40
1
40
1
41
1
10
22.4471477503394
20
-4.50708946419888
30
0
41
1
10
22.5254708389114
20
-4.50022656748104
30
0
41
1
10
22.6132950984392
20
-4.48780264782923
30
0
41
1
10
22.846593161407
20
-4.44799551026165
30
0
41
1
10
23.0026236458243
20
-4.41567608259695
30
0
41
1
10
23.2875983266003
20
-4.35152508985135
30
0
41
1
10
23.4183646565651
20
-4.3173841140852
30
0
41
1
10
23.5495881472218
20
-4.30134968170154
30
0
0
SPLINE
5
1B2
100
AcDbEntity
8
1
62
256
6
ByLayer
370
13
48
1
60
0
100
AcDbSpline
70
4
71
3
72
8
73
4
40
0
40
0
40
0
40
0
40
1
40
1
40
1
40
1
41
1
10
23.5495881472218
20
-4.30134968170154
30
0
41
1
10
23.6417788954044
20
-4.29008472974257
30
0
41
1
10
23.7354245830992
20
-4.29238352941039
30
0
41
1
10
23.8283398883331
20
-4.29509899962821
30
0
0
SPLINE
5
1B3
100
AcDbEntity
8
1
62
256
6
ByLayer
370
13
48
1
60
0
100
AcDbSpline
70
4
71
3
72
8
73
4
40
0
40
0
40
0
40
0
40
1
40
1
40
1
40
1
41
1
10
23.8283398883331
20
-4.29509899962821
30
0
41
1
10
23.9522136636575
20
-4.29871923793894
30
0
41
1
10
24.0768571353025
20
-4.29020434150411
30
0
41
1
10
24.1982800289245
20
-4.28486329371066
30
0
0
SPLINE
5
1B4
100
AcDbEntity
8
1
62
256
6
ByLayer
370
13
48
1
60
0
100
AcDbSpline
70
4
71
3
72
10
73
6
40
0
40
0
40
0
40
0
40
0.860053459941695
40
0.860053459941695
40
1
40
1
40
1
40
1
41
1
10
24.1982800289245
20
-4.28486329371066
30
0
41
1
10
24.3321716826563
20
-4.27897378061809
30
0
41
1
10
24.4692183325878
20
-4.29041633590765
30
0
41
1
10
24.6209193574704
20
-4.33158634511898
30
0
41
1
10
24.6422592203893
20
-4.33791259968933
30
0
41
1
10
24.6636089363249
20
-4.34419694560239
30
0
0
SPLINE
5
1B5
100
AcDbEntity
8
1
62
256
6
ByLayer
370
13
48
1
60
0
100
AcDbSpline
70
4
71
3
72
8
73
4
40
0
40
0
40
0
40
0
40
1
40
1
40
1
40
1
41
1
10
24.6636089363249
20
-4.34419694560239
30
0
41
1
10
24.6827084170632
20
-4.3559815247944
30
0
41
1
10
24.7017609506473
20
-4.36784016915985
30
0
41
1
10
24.7207683583679
20
-4.379768231866
30
0
0
SPLINE
5
1B6
100
AcDbEntity
8
1
62
256
6
ByLayer
370
13
48
1
60
0
100
AcDbSpline
70
4
71
3
72
10
73
6
40
0
40
0
40
0
40
0
40
0.776503433583243
40
0.776503433583243
40
1
40
1
40
1
40
1
41
1
10
24.7207683583679
20
-4.379768231866
30
0
41
1
10
24.6774725026343
20
-4.37806168534962
30
0
41
1
10
24.6344378625007
20
-4.37677950263642
30
0
41
1
10
24.5776224808541
20
-4.37254378130453
30
0
41
1
10
24.5648810790715
20
-4.37174126270057
30
0
41
1
10
24.5521447262338
20
-4.37117242395237
30
0
0
SPLINE
5
1B7
100
AcDbEntity
8
1
62
256
6
ByLayer
370
13
48
1
60
0
100
AcDbSpline
70
4
71
3
72
10
73
6
40
0
40
0
40
0
40
0
40
0.802218039223748
40
0.802218039223748
40
1
40
1
40
1
40
1
41
1
10
24.5521447262338
20
-4.37117242395237
30
0
41
1
10
24.4127836505348
20
-4.36494819470426
30
0
41
1
10
24.2644549248778
20
-4.35928368762043
30
0
41
1
10
24.0792703339537
20
-4.3520793322657
30
0
41
1
10
24.0422443273126
20
-4.3506438011772
30
0
41
1
10
24.0052430294063
20
-4.34933367076317
30
0
0
SPLINE
5
1B8
100
AcDbEntity
8
1
62
256
6
ByLayer
370
13
48
1
60
0
100
AcDbSpline
70
4
71
3
72
16
73
12
40
0
40
0
40
0
40
0
40
0.0308303102605419
40
0.0308303102605419
40
0.572662020821238
40
0.572662020821238
40
0.596525876635503
40
0.596525876635503
40
0.811742896024901
40
0.811742896024901
40
1
40
1
40
1
40
1
41
1
10
24.0052430294063
20
-4.34933367076317
30
0
41
1
10
23.9993536372725
20
-4.34912514100364
30
0
41
1
10
23.9934642432982
20
-4.34891647784562
30
0
41
1
10
23.884075321957
20
-4.3450379089563
30
0
41
1
10
23.7804680881193
20
-4.341888831049
30
0
41
1
10
23.6725520075115
20
-4.33683115994123
30
0
41
1
10
23.6679952849823
20
-4.33664527759964
30
0
41
1
10
23.6223626957531
20
-4.33504634337427
30
0
41
1
10
23.5811924961802
20
-4.33545440704737
30
0
41
1
10
23.5042684809455
20
-4.33810380569295
30
0
41
1
10
23.4684207998394
20
-4.34021707713211
30
0
41
1
10
23.4328798390933
20
-4.34478511127568
30
0
0
SPLINE
5
1B9
100
AcDbEntity
8
1
62
256
6
ByLayer
370
13
48
1
60
0
100
AcDbSpline
70
4
71
3
72
12
73
8
40
0
40
0
40
0
40
0
40
0.491351269778757
40
0.491351269778757
40
0.753050934981407
40
0.753050934981407
40
1
40
1
40
1
40
1
41
1
10
23.4328798390933
20
-4.34478511127568
30
0
41
1
10
23.3879752829179
20
-4.35055663634159
30
0
41
1
10
23.3433932389101
20
-4.35841513629509
30
0
41
1
10
23.2762335559799
20
-4.37438040276612
30
0
41
1
10
23.2531371669221
20
-4.38147274097514
30
0
41
1
10
23.2083199167815
20
-4.39481960075304
30
0
41
1
10
23.1865899596689
20
-4.40119167591095
30
0
41
1
10
23.1649336450021
20
-4.40755326988309
30
0
0
SPLINE
5
1BA
100
AcDbEntity
8
1
62
256
6
ByLayer
370
13
48
1
60
0
100
AcDbSpline
70
4
71
3
72
12
73
8
40
0
40
0
40
0
40
0
40
0.244915547318589
40
0.244915547318589
40
0.864563982028735
40
0.864563982028735
40
1
40
1
40
1
40
1
41
1
10
23.1649336450021
20
-4.40755326988309
30
0
41
1
10
23.0994204230127
20
-4.42679793475421
30
0
41
1
10
23.0343929566216
20
-4.4458728799882
30
0
41
1
10
22.8105405998204
20
-4.51144066263149
30
0
41
1
10
22.6555221571248
20
-4.556636014421
30
0
41
1
10
22.4855701545793
20
-4.60650366181517
30
0
41
1
10
22.455505723763
20
-4.61534184997439
30
0
41
1
10
22.4262120963125
20
-4.62397635271
30
0
0
SPLINE
5
1BB
100
AcDbEntity
8
1
62
256
6
ByLayer
370
13
48
1
60
0
100
AcDbSpline
70
4
71
3
72
8
73
4
40
0
40
0
40
0
40
0
40
1
40
1
40
1
40
1
41
1
10
22.4471477503394
20
-5.49291053580083
30
0
41
1
10
22.4452888609435
20
-5.49274765450789
30
0
41
1
10
22.4434065060323
20
-5.49253891307222
30
0
41
1
10
22.4414974191728
20
-5.4922720357491
30
0
0
SPLINE
5
1BC
100
AcDbEntity
8
1
62
256
6
ByLayer
370
13
48
1
60
0
100
AcDbSpline
70
4
71
3
72
14
73
10
40
0
40
0
40
0
40
0
40
0.538704325353333
40
0.538704325353333
40
0.684467013462083
40
0.684467013462083
40
0.858675811811913
40
0.858675811811913
40
1
40
1
40
1
40
1
41
1
10
22.4414974191717
20
-5.49227203574813
30
0
41
1
10
22.436304109803
20
-5.49154604651625
30
0
41
1
10
22.4308274196763
20
-5.49039589809962
30
0
41
1
10
22.4235066860402
20
-5.48754282511564
30
0
41
1
10
22.4219066564685
20
-5.48683936595148
30
0
41
1
10
22.4183879750259
20
-5.48503492183153
30
0
41
1
10
22.4164306495377
20
-5.48386327402747
30
0
41
1
10
22.4130492807491
20
-5.48134298988467
30
0
41
1
10
22.4115615907703
20
-5.48003711228111
30
0
41
1
10
22.4102634151937
20
-5.47864301432881
30
0
0
SPLINE
5
1BD
100
AcDbEntity
8
1
62
256
6
ByLayer
370
13
48
1
60
0
100
AcDbSpline
70
4
71
3
72
10
73
6
40
0
40
0
40
0
40
0
40
0.429405505457208
40
0.429405505457208
40
1
40
1
40
1
40
1
41
1
10
22.4102634152023
20
-5.47864301426387
30
0
41
1
10
22.4165911437521
20
-5.46677357021349
30
0
41
1
10
22.4213513498927
20
-5.45354921053445
30
0
41
1
10
22.4283387413341
20
-5.42019863544857
30
0
41
1
10
22.4290939581086
20
-5.39889197715655
30
0
41
1
10
22.4262120963125
20
-5.37602364728969
30
0
0
SPLINE
5
1BE
100
AcDbEntity
8
1
62
256
6
ByLayer
370
13
48
1
60
0
100
AcDbSpline
70
4
71
3
72
12
73
8
40
0
40
0
40
0
40
0
40
0.244915547318584
40
0.244915547318584
40
0.864563982028716
40
0.864563982028716
40
1
40
1
40
1
40
1
41
1
10
23.1649336450021
20
-5.59244673011662
30
0
41
1
10
23.0994204230127
20
-5.57320206524551
30
0
41
1
10
23.0343929566216
20
-5.55412712001151
30
0
41
1
10
22.8105405998204
20
-5.48855933736823
30
0
41
1
10
22.6555221571248
20
-5.44336398557871
30
0
41
1
10
22.4855701545792
20
-5.39349633818455
30
0
41
1
10
22.455505723763
20
-5.38465815002533
30
0
41
1
10
22.4262120963125
20
-5.37602364728969
30
0
0
SPLINE
5
1BF
100
AcDbEntity
8
1
62
256
6
ByLayer
370
13
48
1
60
0
100
AcDbSpline
70
4
71
3
72
12
73
8
40
0
40
0
40
0
40
0
40
0.491351269778757
40
0.491351269778757
40
0.753050934981407
40
0.753050934981407
40
1
40
1
40
1
40
1
41
1
10
23.4328798390933
20
-5.65521488872403
30
0
41
1
10
23.3879752829179
20
-5.64944336365812
30
0
41
1
10
23.3433932389101
20
-5.64158486370462
30
0
41
1
10
23.2762335559799
20
-5.6256195972336
30
0
41
1
10
23.2531371669221
20
-5.61852725902458
30
0
41
1
10
23.2083199167815
20
-5.60518039924665
30
0
41
1
10
23.1865899596689
20
-5.59880832408876
30
0
41
1
10
23.1649336450021
20
-5.59244673011662
30
0
0
SPLINE
5
1C0
100
AcDbEntity
8
1
62
256
6
ByLayer
370
13
48
1
60
0
100
AcDbSpline
70
4
71
3
72
16
73
12
40
0
40
0
40
0
40
0
40
0.0308303102605419
40
0.0308303102605419
40
0.572662020821238
40
0.572662020821238
40
0.596525876635503
40
0.596525876635503
40
0.811742896024901
40
0.811742896024901
40
1
40
1
40
1
40
1
41
1
10
24.0052430294063
20
-5.65066632923654
30
0
41
1
10
23.9993536372725
20
-5.65087485899608
30
0
41
1
10
23.9934642432982
20
-5.6510835221541
30
0
41
1
10
23.884075321957
20
-5.65496209104342
30
0
41
1
10
23.7804680881193
20
-5.65811116895071
30
0
41
1
10
23.6725520075115
20
-5.66316884005849
30
0
41
1
10
23.6679952849823
20
-5.66335472240007
30
0
41
1
10
23.6223626957531
20
-5.66495365662544
30
0
41
1
10
23.5811924961802
20
-5.66454559295235
30
0
41
1
10
23.5042684809455
20
-5.66189619430676
30
0
41
1
10
23.4684207998394
20
-5.65978292286761
30
0
41
1
10
23.4328798390933
20
-5.65521488872403
30
0
0
SPLINE
5
1C1
100
AcDbEntity
8
1
62
256
6
ByLayer
370
13
48
1
60
0
100
AcDbSpline
70
4
71
3
72
10
73
6
40
0
40
0
40
0
40
0
40
0.802218039223748
40
0.802218039223748
40
1
40
1
40
1
40
1
41
1
10
24.5521447262338
20
-5.62882757604734
30
0
41
1
10
24.4127836505348
20
-5.63505180529546
30
0
41
1
10
24.2644549248778
20
-5.64071631237928
30
0
41
1
10
24.0792703339537
20
-5.64792066773401
30
0
41
1
10
24.0422443273126
20
-5.64935619882252
30
0
41
1
10
24.0052430294063
20
-5.65066632923654
30
0
0
SPLINE
5
1C2
100
AcDbEntity
8
1
62
256
6
ByLayer
370
13
48
1
60
0
100
AcDbSpline
70
4
71
3
72
10
73
6
40
0
40
0
40
0
40
0
40
0.776503433583243
40
0.776503433583243
40
1
40
1
40
1
40
1
41
1
10
24.7207683583679
20
-5.62023176813372
30
0
41
1
10
24.6774725026343
20
-5.6219383146501
30
0
41
1
10
24.6344378625007
20
-5.62322049736329
30
0
41
1
10
24.5776224808541
20
-5.62745621869519
30
0
41
1
10
24.5648810790715
20
-5.62825873729915
30
0
41
1
10
24.5521447262338
20
-5.62882757604734
30
0
0
SPLINE
5
1C3
100
AcDbEntity
8
1
62
256
6
ByLayer
370
13
48
1
60
0
100
AcDbSpline
70
4
71
3
72
8
73
4
40
0
40
0
40
0
40
0
40
1
40
1
40
1
40
1
41
1
10
24.6636089363249
20
-5.65580305439732
30
0
41
1
10
24.6827084170632
20
-5.64401847520529
30
0
41
1
10
24.7017609506473
20
-5.63215983083987
30
0
41
1
10
24.7207683583679
20
-5.62023176813372
30
0
0
SPLINE
5
1C4
100
AcDbEntity
8
1
62
256
6
ByLayer
370
13
48
1
60
0
100
AcDbSpline
70
4
71
3
72
10
73
6
40
0
40
0
40
0
40
0
40
0.860053459941695
40
0.860053459941695
40
1
40
1
40
1
40
1
41
1
10
24.1982800289245
20
-5.71513670628906
30
0
41
1
10
24.3321716826563
20
-5.7210262193816
30
0
41
1
10
24.4692183325878
20
-5.70958366409207
30
0
41
1
10
24.6209193574704
20
-5.66841365488074
30
0
41
1
10
24.6422592203893
20
-5.66208740031038
30
0
41
1
10
24.6636089363249
20
-5.65580305439732
30
0
0
SPLINE
5
1C5
100
AcDbEntity
8
1
62
256
6
ByLayer
370
13
48
1
60
0
100
AcDbSpline
70
4
71
3
72
8
73
4
40
0
40
0
40
0
40
0
40
1
40
1
40
1
40
1
41
1
10
23.8283398883331
20
-5.70490100037151
30
0
41
1
10
23.9522136636575
20
-5.70128076206078
30
0
41
1
10
24.0768571353025
20
-5.70979565849561
30
0
41
1
10
24.1982800289245
20
-5.71513670628906
30
0
0
SPLINE
5
1C6
100
AcDbEntity
8
1
62
256
6
ByLayer
370
13
48
1
60
0
100
AcDbSpline
70
4
71
3
72
8
73
4
40
0
40
0
40
0
40
0
40
1
40
1
40
1
40
1
41
1
10
23.5495881472218
20
-5.69865031829818
30
0
41
1
10
23.6417788954044
20
-5.70991527025711
30
0
41
1
10
23.7354245830992
20
-5.70761647058933
30
0
41
1
10
23.8283398883331
20
-5.70490100037151
30
0
0
SPLINE
5
1C7
100
AcDbEntity
8
1
62
256
6
ByLayer
370
13
48
1
60
0
100
AcDbSpline
70
4
71
3
72
12
73
8
40
0
40
0
40
0
40
0
40
0.271863792020766
40
0.271863792020766
40
0.680333498425166
40
0.680333498425166
40
1
40
1
40
1
40
1
41
1
10
22.4471477503394
20
-5.49291053580083
30
0
41
1
10
22.5254708389114
20
-5.49977343251865
30
0
41
1
10
22.6132950984392
20
-5.51219735217049
30
0
41
1
10
22.846593161407
20
-5.55200448973804
30
0
41
1
10
23.0026236458243
20
-5.58432391740277
30
0
41
1
10
23.2875983266003
20
-5.64847491014837
30
0
41
1
10
23.4183646565651
20
-5.68261588591452
30
0
41
1
10
23.5495881472218
20
-5.69865031829818
30
0
0
SPLINE
5
1C8
100
AcDbEntity
8
1
62
256
6
ByLayer
370
13
48
1
60
0
100
AcDbSpline
70
4
71
3
72
18
73
14
40
0
40
0
40
0
40
0
40
0.447407316387175
40
0.447407316387175
40
0.605547053795674
40
0.605547053795674
40
0.784635535666972
40
0.784635535666972
40
0.885678387143329
40
0.885678387143329
40
0.977084410920521
40
0.977084410920521
40
1
40
1
40
1
40
1
41
1
10
21.4984332400776
20
-4.60281729746313
30
0
41
1
10
21.5440476624861
20
-4.58201359569526
30
0
41
1
10
21.5884120317077
20
-4.5537503383589
30
0
41
1
10
21.6394879059807
20
-4.50222254813497
30
0
41
1
10
21.6521556621418
20
-4.48727145983068
30
0
41
1
10
21.676132722513
20
-4.45247255411903
30
0
41
1
10
21.687234858325
20
-4.43192397336054
30
0
41
1
10
21.6999368895843
20
-4.39727078300086
30
0
41
1
10
21.703608600295
20
-4.38410431233066
30
0
41
1
10
21.7083103046788
20
-4.35846181251847
30
0
41
1
10
21.7095747514646
20
-4.34592347882813
30
0
41
1
10
21.7097949440652
20
-4.33025049776953
30
0
41
1
10
21.7097712271323
20
-4.32709254419342
30
0
41
1
10
21.7096790521406
20
-4.32393771056346
30
0
0
SPLINE
5
1C9
100
AcDbEntity
8
1
62
256
6
ByLayer
370
13
48
1
60
0
100
AcDbSpline
70
4
71
3
72
18
73
14
40
0
40
0
40
0
40
0
40
0.0976852199958056
40
0.0976852199958056
40
0.212989397473362
40
0.212989397473362
40
0.394159987615223
40
0.394159987615223
40
0.774111539176557
40
0.774111539176557
40
0.851520792185893
40
0.851520792185893
40
1
40
1
40
1
40
1
41
1
10
21.7096790521406
20
-5.67606228943626
30
0
41
1
10
21.7100703037074
20
-5.66267109103671
30
0
41
1
10
21.7092072189939
20
-5.64916689540161
30
0
41
1
10
21.7048326306339
20
-5.62055413163208
30
0
41
1
10
21.7008494527307
20
-5.6053858827473
30
0
41
1
10
21.68752177695
20
-5.56861001498402
30
0
41
1
10
21.6762967783069
20
-5.54776605249376
30
0
41
1
10
21.6367316649357
20
-5.49034200243707
30
0
41
1
10
21.6023540549561
20
-5.45936555437021
30
0
41
1
10
21.5587483922282
20
-5.42994514423887
30
0
41
1
10
21.5511702800925
20
-5.42516911926791
30
0
41
1
10
21.5287968496802
20
-5.41195563680859
30
0
41
1
10
21.5137301176241
20
-5.40415926083861
30
0
41
1
10
21.498433240088
20
-5.39718270251777
30
0
0
SPLINE
5
1CA
100
AcDbEntity
8
1
62
256
6
ByLayer
370
13
48
1
60
0
100
AcDbSpline
70
4
71
3
72
12
73
8
40
0
40
0
40
0
40
0
40
0.167536140690989
40
0.167536140690989
40
0.701521703333122
40
0.701521703333122
40
1
40
1
40
1
40
1
41
1
10
22.2514801084146
20
-4.6002383523381
30
0
41
1
10
22.2542826384416
20
-4.6026143658807
30
0
41
1
10
22.256923133606
20
-4.60511930696796
30
0
41
1
10
22.2670778771217
20
-4.61610946849314
30
0
41
1
10
22.272872622145
20
-4.62601261738746
30
0
41
1
10
22.2767050040373
20
-4.64364843734106
30
0
41
1
10
22.2770407186254
20
-4.65050488624908
30
0
41
1
10
22.2762277573114
20
-4.65765179240526
30
0
0
SPLINE
5
1CB
100
AcDbEntity
8
1
62
256
6
ByLayer
370
13
48
1
60
0
100
AcDbSpline
70
4
71
3
72
14
73
10
40
0
40
0
40
0
40
0
40
0.418540706662839
40
0.418540706662839
40
0.495635548088754
40
0.495635548088754
40
0.9192675759406
40
0.9192675759406
40
1
40
1
40
1
40
1
41
1
10
22.2762277573115
20
-4.65765179240537
30
0
41
1
10
22.2729405983399
20
-4.68654986699502
30
0
41
1
10
22.2733660154213
20
-4.72104010817151
30
0
41
1
10
22.2796751136804
20
-4.76482491657771
30
0
41
1
10
22.2808357853226
20
-4.7718179974982
30
0
41
1
10
22.2893735192745
20
-4.81717895909989
30
0
41
1
10
22.3018447500133
20
-4.85838932033658
30
0
41
1
10
22.3226367698616
20
-4.90605765750234
30
0
41
1
10
22.326193922031
20
-4.91375489910686
30
0
41
1
10
22.3299358617497
20
-4.92140267488597
30
0
0
SPLINE
5
1CC
100
AcDbEntity
8
1
62
256
6
ByLayer
370
13
48
1
60
0
100
AcDbSpline
70
4
71
3
72
14
73
10
40
0
40
0
40
0
40
0
40
0.335733568867722
40
0.335733568867722
40
0.507284823780995
40
0.507284823780995
40
0.847453801813234
40
0.847453801813234
40
1
40
1
40
1
40
1
41
1
10
22.3299358617497
20
-4.92140267488594
30
0
41
1
10
22.337814020394
20
-4.93750405422219
30
0
41
1
10
22.3439375481741
20
-4.95501758722699
30
0
41
1
10
22.3485739754979
20
-4.98232452901891
30
0
41
1
10
22.3493588445425
20
-4.99182820532334
30
0
41
1
10
22.3491329115973
20
-5.01978779486276
30
0
41
1
10
22.3455495425812
20
-5.0384819718119
30
0
41
1
10
22.3367872446761
20
-5.06357621447614
30
0
41
1
10
22.3335488022128
20
-5.07121319799228
30
0
41
1
10
22.3299358617498
20
-5.0785973251138
30
0
0
SPLINE
5
1CD
100
AcDbEntity
8
1
62
256
6
ByLayer
370
13
48
1
60
0
100
AcDbSpline
70
4
71
3
72
12
73
8
40
0
40
0
40
0
40
0
40
0.060976756616879
40
0.060976756616879
40
0.525861690105106
40
0.525861690105106
40
1
40
1
40
1
40
1
41
1
10
22.3299358617497
20
-5.07859732511378
30
0
41
1
10
22.3271003220153
20
-5.08439260075482
30
0
41
1
10
22.3243711082765
20
-5.0902157294687
30
0
41
1
10
22.3021069872871
20
-5.13982526010344
30
0
41
1
10
22.2884144324718
20
-5.18535005722461
30
0
41
1
10
22.2735997997306
20
-5.2696415491381
30
0
41
1
10
22.272507675642
20
-5.30964422263446
30
0
41
1
10
22.2762277573115
20
-5.34234820759434
30
0
0
SPLINE
5
1CE
100
AcDbEntity
8
1
62
256
6
ByLayer
370
13
48
1
60
0
100
AcDbSpline
70
4
71
3
72
10
73
6
40
0
40
0
40
0
40
0
40
0.579743919086243
40
0.579743919086243
40
1
40
1
40
1
40
1
41
1
10
22.2762277573115
20
-5.34234820759434
30
0
41
1
10
22.2777925092618
20
-5.35610425619655
30
0
41
1
10
22.274921505156
20
-5.36877754964749
30
0
41
1
10
22.2645276574485
20
-5.38702363328622
30
0
41
1
10
22.2584959094318
20
-5.39381357999861
30
0
41
1
10
22.2514801084147
20
-5.39976164766182
30
0
0
SPLINE
5
1CF
100
AcDbEntity
8
1
62
256
6
ByLayer
370
13
48
1
60
0
100
AcDbSpline
70
4
71
3
72
8
73
4
40
0
40
0
40
0
40
0
40
1
40
1
40
1
40
1
41
1
10
21.1586453076088
20
-5.29878602654469
30
0
41
1
10
21.1709068417096
20
-5.29560162786194
30
0
41
1
10
21.1832654919602
20
-5.29253977670427
30
0
41
1
10
21.1957009625836
20
-5.2895980628216
30
0
0
SPLINE
5
1D0
100
AcDbEntity
8
1
62
256
6
ByLayer
370
13
48
1
60
0
100
AcDbSpline
70
4
71
3
72
10
73
6
40
0
40
0
40
0
40
0
40
0.333728436493078
40
0.333728436493078
40
1
40
1
40
1
40
1
41
1
10
21.1957009625833
20
-5.28959806282029
30
0
41
1
10
21.1966662675297
20
-5.28936971191601
30
0
41
1
10
21.1976317049565
20
-5.28914138342256
30
0
41
1
10
21.2005249812794
20
-5.28845727625716
30
0
41
1
10
21.2024532131263
20
-5.28800156439317
30
0
41
1
10
21.204381960042
20
-5.28754594197091
30
0
0
SPLINE
5
1D1
100
AcDbEntity
8
1
62
256
6
ByLayer
370
13
48
1
60
0
100
AcDbSpline
70
4
71
3
72
28
73
24
40
0
40
0
40
0
40
0
40
0.120400997037726
40
0.120400997037726
40
0.267193145137956
40
0.267193145137956
40
0.387937930337117
40
0.387937930337117
40
0.465259875154669
40
0.465259875154669
40
0.495901986784595
40
0.495901986784595
40
0.581704825079178
40
0.581704825079178
40
0.603681926078793
40
0.603681926078793
40
0.705282320663386
40
0.705282320663386
40
0.836662945425109
40
0.836662945425109
40
0.962212936191202
40
0.962212936191202
40
1
40
1
40
1
40
1
41
1
10
21.2043819600418
20
-5.28754594196033
30
0
41
1
10
21.2386117615899
20
-5.27945993286932
30
0
41
1
10
21.2717745161216
20
-5.26843240376468
30
0
41
1
10
21.3403563386755
20
-5.23653532118527
30
0
41
1
10
21.3755506139921
20
-5.2136690286404
30
0
41
1
10
21.4293957511653
20
-5.16089247614201
30
0
41
1
10
21.4505128568283
20
-5.13210787891629
30
0
41
1
10
21.4742896735613
20
-5.0787401636243
30
0
41
1
10
21.4810059815832
20
-5.05580649130081
30
0
41
1
10
21.4854587789871
20
-5.02306797227075
30
0
41
1
10
21.4861866916511
20
-5.01356884332662
30
0
41
1
10
21.4867918153238
20
-4.97793710588314
30
0
41
1
10
21.4827627697972
20
-4.95128064513406
30
0
41
1
10
21.473008547855
20
-4.92044163345494
30
0
41
1
10
21.4707421946394
20
-4.9141744455803
30
0
41
1
10
21.4568990508134
20
-4.88012037159007
30
0
41
1
10
21.4406033083254
20
-4.85465649123606
30
0
41
1
10
21.3970837039401
20
-4.80459137894997
30
0
41
1
10
21.3674044337148
20
-4.78139704617206
30
0
41
1
10
21.304685404423
20
-4.74518143318377
30
0
41
1
10
21.2712334060984
20
-4.73139017249346
30
0
41
1
10
21.2258807591637
20
-4.71785063253748
30
0
41
1
10
21.215191249574
20
-4.71500750589573
30
0
41
1
10
21.204381960042
20
-4.7124540580383
30
0
0
SPLINE
5
1D2
100
AcDbEntity
8
1
62
256
6
ByLayer
370
13
48
1
60
0
100
AcDbSpline
70
4
71
3
72
10
73
6
40
0
40
0
40
0
40
0
40
0.666271563875835
40
0.666271563875835
40
1
40
1
40
1
40
1
41
1
10
21.2043819600418
20
-4.71245405803938
30
0
41
1
10
21.202453213125
20
-4.71199843561686
30
0
41
1
10
21.2005249812773
20
-4.71154272374204
30
0
41
1
10
21.1976317049544
20
-4.71085861657664
30
0
41
1
10
21.1966662675287
20
-4.71063028808277
30
0
41
1
10
21.1957009625833
20
-4.71040193717874
30
0
0
SPLINE
5
1D3
100
AcDbEntity
8
1
62
256
6
ByLayer
370
13
48
1
60
0
100
AcDbSpline
70
4
71
3
72
8
73
4
40
0
40
0
40
0
40
0
40
1
40
1
40
1
40
1
41
1
10
21.1957009625833
20
-4.71040193717943
30
0
41
1
10
21.1832654919591
20
-4.70746022329655
30
0
41
1
10
21.170906841708
20
-4.70439837213738
30
0
41
1
10
21.1586453076064
20
-4.7012139734544
30
0
0
SPLINE
5
1D4
100
AcDbEntity
8
1
62
256
6
ByLayer
370
13
48
1
60
0
100
AcDbSpline
70
4
71
3
72
8
73
4
40
0
40
0
40
0
40
0
40
1
40
1
40
1
40
1
41
1
10
22.4731203716814
20
-5.63847952906673
30
0
41
1
10
22.4745825957789
20
-5.63756241163159
30
0
41
1
10
22.4760463384843
20
-5.63664069155095
30
0
41
1
10
22.4775115598652
20
-5.63571442768674
30
0
0
SPLINE
5
1D5
100
AcDbEntity
8
1
62
256
6
ByLayer
370
13
48
1
60
0
100
AcDbSpline
70
4
71
3
72
12
73
8
40
0
40
0
40
0
40
0
40
0.334418366090769
40
0.334418366090769
40
0.734677033774883
40
0.734677033774883
40
1
40
1
40
1
40
1
41
1
10
23.5337805434613
20
-5.86403867263226
30
0
41
1
10
23.402267961703
20
-5.84996206375843
30
0
41
1
10
23.2723193598528
20
-5.81579271998902
30
0
41
1
10
22.9995089617335
20
-5.74441503502402
30
0
41
1
10
22.8541870739038
20
-5.7085496328173
30
0
41
1
10
22.6350503526795
20
-5.66171384015834
30
0
41
1
10
22.5522182729485
20
-5.64614228590472
30
0
41
1
10
22.4775115598653
20
-5.63571442768711
30
0
0
SPLINE
5
1D6
100
AcDbEntity
8
1
62
256
6
ByLayer
370
13
48
1
60
0
100
AcDbSpline
70
4
71
3
72
12
73
8
40
0
40
0
40
0
40
0
40
0.334418366090769
40
0.334418366090769
40
0.734677033774883
40
0.734677033774883
40
1
40
1
40
1
40
1
41
1
10
23.5337805434613
20
-4.13596132736745
30
0
41
1
10
23.402267961703
20
-4.15003793624129
30
0
41
1
10
23.2723193598528
20
-4.1842072800107
30
0
41
1
10
22.9995089617335
20
-4.2555849649757
30
0
41
1
10
22.8541870739038
20
-4.29145036718239
30
0
41
1
10
22.6350503526795
20
-4.33828615984137
30
0
41
1
10
22.5522182729485
20
-4.353857714095
30
0
41
1
10
22.4775115598653
20
-4.36428557231261
30
0
0
SPLINE
5
1D7
100
AcDbEntity
8
1
62
256
6
ByLayer
370
13
48
1
60
0
100
AcDbSpline
70
4
71
3
72
8
73
4
40
0
40
0
40
0
40
0
40
1
40
1
40
1
40
1
41
1
10
22.4775115598653
20
-4.36428557231261
30
0
41
1
10
22.4760463384844
20
-4.36335930844839
30
0
41
1
10
22.4745825957789
20
-4.36243758836812
30
0
41
1
10
22.4731203716814
20
-4.36152047093299
30
0
0
SPLINE
5
1D8
100
AcDbEntity
8
1
62
256
6
ByLayer
370
13
48
1
60
0
100
AcDbSpline
70
4
71
3
72
18
73
14
40
0
40
0
40
0
40
0
40
0.0161194639884916
40
0.0161194639884916
40
0.0830400526233481
40
0.0830400526233481
40
0.164187348294867
40
0.164187348294867
40
0.329246171114526
40
0.329246171114526
40
0.49267383795864
40
0.49267383795864
40
1
40
1
40
1
40
1
41
1
10
21.6583760306418
20
-4.32393771056346
30
0
41
1
10
21.6583760306418
20
-4.32552191894018
30
0
41
1
10
21.6583070506514
20
-4.32710773160937
30
0
41
1
10
21.6576154305964
20
-4.33514501773482
30
0
41
1
10
21.6558959531471
20
-4.34155079359942
30
0
41
1
10
21.6503990140808
20
-4.35467162383836
30
0
41
1
10
21.6462332916851
20
-4.36135931486947
30
0
41
1
10
21.6320214661551
20
-4.37976219500899
30
0
41
1
10
21.6201790807021
20
-4.39006561577935
30
0
41
1
10
21.5955030409141
20
-4.40799347032004
30
0
41
1
10
21.5824167868289
20
-4.41574701491737
30
0
41
1
10
21.5277159291732
20
-4.44421764052115
30
0
41
1
10
21.4832430916057
20
-4.45892001885395
30
0
41
1
10
21.4385371190036
20
-4.47042306328421
30
0
0
SPLINE
5
1D9
100
AcDbEntity
8
1
62
256
6
ByLayer
370
13
48
1
60
0
100
AcDbSpline
70
4
71
3
72
16
73
12
40
0
40
0
40
0
40
0
40
0.17415962102223
40
0.17415962102223
40
0.671976092746537
40
0.671976092746537
40
0.83822694518602
40
0.83822694518602
40
0.929660782988591
40
0.929660782988591
40
1
40
1
40
1
40
1
41
1
10
21.4385371190036
20
-5.5295769367155
30
0
41
1
10
21.4539422148971
20
-5.53354073600693
30
0
41
1
10
21.4692599827102
20
-5.53792309107206
30
0
41
1
10
21.5274830378249
20
-5.55666163281802
30
0
41
1
10
21.5706632046932
20
-5.57395900042275
30
0
41
1
10
21.6203257985212
20
-5.61004120535429
30
0
41
1
10
21.6323080918469
20
-5.62048301011967
30
0
41
1
10
21.6471462242706
20
-5.63989582191087
30
0
41
1
10
21.6517437069761
20
-5.64759890774223
30
0
41
1
10
21.6570278864055
20
-5.66229788874958
30
0
41
1
10
21.6583760306418
20
-5.66922094041743
30
0
41
1
10
21.6583760306418
20
-5.67606228943626
30
0
0
SPLINE
5
1DA
100
AcDbEntity
8
1
62
256
6
ByLayer
370
13
48
1
60
0
100
AcDbSpline
70
4
71
3
72
8
73
4
40
0
40
0
40
0
40
0
40
1
40
1
40
1
40
1
41
1
10
20.7871982348828
20
-5.72543792813516
30
0
41
1
10
20.8371072022262
20
-5.6316834670076
30
0
41
1
10
20.8829751479405
20
-5.53548099644081
30
0
41
1
10
20.9269486592887
20
-5.43841939909714
30
0
0
SPLINE
5
1DB
100
AcDbEntity
8
1
62
256
6
ByLayer
370
13
48
1
60
0
100
AcDbSpline
70
4
71
3
72
8
73
4
40
0
40
0
40
0
40
0
40
1
40
1
40
1
40
1
41
1
10
20.9269486592887
20
-5.43841939909714
30
0
41
1
10
20.9310517239117
20
-5.42936281038959
30
0
41
1
10
20.9358959391856
20
-5.42062525694027
30
0
41
1
10
20.9415296908639
20
-5.41255411201308
30
0
0
SPLINE
5
1DC
100
AcDbEntity
8
1
62
256
6
ByLayer
370
13
48
1
60
0
100
AcDbSpline
70
4
71
3
72
10
73
6
40
0
40
0
40
0
40
0
40
0.607627674029775
40
0.607627674029775
40
1
40
1
40
1
40
1
41
1
10
20.941529690864
20
-5.41255411201314
30
0
41
1
10
20.9449483939528
20
-5.40765633701906
30
0
41
1
10
20.9493450872493
20
-5.40348920478277
30
0
41
1
10
20.9571218081436
20
-5.39774324512035
30
0
41
1
10
20.9603603656148
20
-5.39573090816035
30
0
41
1
10
20.9636781743631
20
-5.39390740001403
30
0
0
SPLINE
5
1DD
100
AcDbEntity
8
1
62
256
6
ByLayer
370
13
48
1
60
0
100
AcDbSpline
70
4
71
3
72
8
73
4
40
0
40
0
40
0
40
0
40
1
40
1
40
1
40
1
41
1
10
20.963678174367
20
-5.39390740002
30
0
41
1
10
20.9740398294939
20
-5.38821250800899
30
0
41
1
10
20.9856192161749
20
-5.3847883053545
30
0
41
1
10
20.9971847075066
20
-5.38319512676603
30
0
0
SPLINE
5
1DE
100
AcDbEntity
8
1
62
256
6
ByLayer
370
13
48
1
60
0
100
AcDbSpline
70
4
71
3
72
10
73
6
40
0
40
0
40
0
40
0
40
0.468522557911306
40
0.468522557911306
40
1
40
1
40
1
40
1
41
1
10
20.9971847075066
20
-5.38319512676611
30
0
41
1
10
21.0125073622826
20
-5.38108438846683
30
0
41
1
10
21.0281890938236
20
-5.38080881184354
30
0
41
1
10
21.0608326130716
20
-5.38488902104044
30
0
41
1
10
21.0781649337055
20
-5.38994353051217
30
0
41
1
10
21.0936729304055
20
-5.39838136872402
30
0
0
SPLINE
5
1DF
100
AcDbEntity
8
1
62
256
6
ByLayer
370
13
48
1
60
0
100
AcDbSpline
70
4
71
3
72
10
73
6
40
0
40
0
40
0
40
0
40
0.39285874077214
40
0.39285874077214
40
1
40
1
40
1
40
1
41
1
10
21.0936729304044
20
-4.60161863127598
30
0
41
1
10
21.0821344359051
20
-4.60789667941302
30
0
41
1
10
21.069596920594
20
-4.61230369270808
30
0
41
1
10
21.037371840694
20
-4.61919540497533
30
0
41
1
10
21.0169301631213
20
-4.61952486464529
30
0
41
1
10
20.9971847075166
20
-4.61680487323684
30
0
0
SPLINE
5
1E0
100
AcDbEntity
8
1
62
256
6
ByLayer
370
13
48
1
60
0
100
AcDbSpline
70
4
71
3
72
10
73
6
40
0
40
0
40
0
40
0
40
0.0840681653027228
40
0.0840681653027228
40
1
40
1
40
1
40
1
41
1
10
20.9971847075162
20
-4.61680487323534
30
0
41
1
10
20.9962010455789
20
-4.61666937106853
30
0
41
1
10
20.9952188661862
20
-4.61652102893476
30
0
41
1
10
20.9836819996079
20
-4.61462053934079
30
0
41
1
10
20.9731694732705
20
-4.61130913359628
30
0
41
1
10
20.9636781743698
20
-4.60609259998128
30
0
0
SPLINE
5
1E1
100
AcDbEntity
8
1
62
256
6
ByLayer
370
13
48
1
60
0
100
AcDbSpline
70
4
71
3
72
10
73
6
40
0
40
0
40
0
40
0
40
0.300964641608717
40
0.300964641608717
40
1
40
1
40
1
40
1
41
1
10
20.9636781743711
20
-4.6060925999725
30
0
41
1
10
20.9611279033247
20
-4.60469093990659
30
0
41
1
10
20.9586265623859
20
-4.60317859008759
30
0
41
1
10
20.9506729861664
20
-4.59773100304326
30
0
41
1
10
20.9454582450927
20
-4.59307409674395
30
0
41
1
10
20.9415296908643
20
-4.58744588798689
30
0
0
SPLINE
5
1E2
100
AcDbEntity
8
1
62
256
6
ByLayer
370
13
48
1
60
0
100
AcDbSpline
70
4
71
3
72
8
73
4
40
0
40
0
40
0
40
0
40
1
40
1
40
1
40
1
41
1
10
20.9415296908642
20
-4.58744588798703
30
0
41
1
10
20.9358959391855
20
-4.57937474305936
30
0
41
1
10
20.9310517239113
20
-4.57063718960944
30
0
41
1
10
20.9269486592881
20
-4.56158060090129
30
0
0
SPLINE
5
1E3
100
AcDbEntity
8
1
62
256
6
ByLayer
370
13
48
1
60
0
100
AcDbSpline
70
4
71
3
72
8
73
4
40
0
40
0
40
0
40
0
40
1
40
1
40
1
40
1
41
1
10
20.9269486592881
20
-4.56158060090127
30
0
41
1
10
20.8829751479401
20
-4.46451900355802
30
0
41
1
10
20.837107202226
20
-4.36831653299168
30
0
41
1
10
20.7871982348829
20
-4.27456207186452
30
0
0
SPLINE
5
1E4
100
AcDbEntity
8
1
62
256
6
ByLayer
370
13
48
1
60
0
100
AcDbSpline
70
4
71
3
72
12
73
8
40
0
40
0
40
0
40
0
40
0.597224160982647
40
0.597224160982647
40
0.806459478729557
40
0.806459478729557
40
1
40
1
40
1
40
1
41
1
10
22.4674054923344
20
-4.37986384875884
30
0
41
1
10
22.4517404047312
20
-4.40209443356386
30
0
41
1
10
22.4345712719748
20
-4.42614001963957
30
0
41
1
10
22.4107775882302
20
-4.45826468990015
30
0
41
1
10
22.404453368985
20
-4.46669277258616
30
0
41
1
10
22.3922252793236
20
-4.48271533539804
30
0
41
1
10
22.3863036863561
20
-4.49035319734784
30
0
41
1
10
22.3803879305322
20
-4.49783784445128
30
0
0
SPLINE
5
1E5
100
AcDbEntity
8
1
62
256
6
ByLayer
370
13
48
1
60
0
100
AcDbSpline
70
4
71
3
72
12
73
8
40
0
40
0
40
0
40
0
40
0.0216552127699091
40
0.0216552127699091
40
0.549266071356395
40
0.549266071356395
40
1
40
1
40
1
40
1
41
1
10
22.2514801084141
20
-4.60023835233861
30
0
41
1
10
22.2524880633972
20
-4.5998121336732
30
0
41
1
10
22.2534955429719
20
-4.59937836848414
30
0
41
1
10
22.2789531871476
20
-4.58822336112888
30
0
41
1
10
22.3033813442808
20
-4.57286061496234
30
0
41
1
10
22.3454052205908
20
-4.53780363914942
30
0
41
1
10
22.3638645140883
20
-4.51874336264848
30
0
41
1
10
22.380387930535
20
-4.49783784444764
30
0
0
SPLINE
5
1E6
100
AcDbEntity
8
1
62
256
6
ByLayer
370
13
48
1
60
0
100
AcDbSpline
70
4
71
3
72
12
73
8
40
0
40
0
40
0
40
0
40
0.365727906004492
40
0.365727906004492
40
0.978437105133119
40
0.978437105133119
40
1
40
1
40
1
40
1
41
1
10
22.3803879305322
20
-5.50216215554846
30
0
41
1
10
22.3669233419134
20
-5.48512668329386
30
0
41
1
10
22.3521983132535
20
-5.46933106684446
30
0
41
1
10
22.3111353907575
20
-5.43217260964823
30
0
41
1
10
22.2828055733672
20
-5.41346464638787
30
0
41
1
10
22.2534955383431
20
-5.40062163388299
30
0
41
1
10
22.2524880622417
20
-5.4001878669207
30
0
41
1
10
22.2514801084146
20
-5.39976164766165
30
0
0
SPLINE
5
1E7
100
AcDbEntity
8
1
62
256
6
ByLayer
370
13
48
1
60
0
100
AcDbSpline
70
4
71
3
72
12
73
8
40
0
40
0
40
0
40
0
40
0.597224160967102
40
0.597224160967102
40
0.806459478710096
40
0.806459478710096
40
1
40
1
40
1
40
1
41
1
10
22.4674054923344
20
-5.62013615124084
30
0
41
1
10
22.4517404047311
20
-5.5979055664358
30
0
41
1
10
22.4345712719747
20
-5.57385998036
30
0
41
1
10
22.4107775882299
20
-5.54173531009926
30
0
41
1
10
22.4044533689847
20
-5.53330722741313
30
0
41
1
10
22.3922252793233
20
-5.51728466460133
30
0
41
1
10
22.386303686356
20
-5.50964680265173
30
0
41
1
10
22.3803879305322
20
-5.50216215554849
30
0
0
SPLINE
5
1E8
100
AcDbEntity
8
1
62
256
6
ByLayer
370
13
48
1
60
0
100
AcDbSpline
70
4
71
3
72
8
73
4
40
0
40
0
40
0
40
0
40
1
40
1
40
1
40
1
41
1
10
22.3803879305321
20
-4.49783784445128
30
0
41
1
10
22.3917464413887
20
-4.50724773267285
30
0
41
1
10
22.4018184386868
20
-4.51517679994404
30
0
41
1
10
22.4102634151926
20
-4.52135698575162
30
0
0
SPLINE
5
1E9
100
AcDbEntity
8
1
62
256
6
ByLayer
370
13
48
1
60
0
100
AcDbSpline
70
4
71
3
72
12
73
8
40
0
40
0
40
0
40
0
40
0.488366722420296
40
0.488366722420296
40
0.942436355362905
40
0.942436355362905
40
1
40
1
40
1
40
1
41
1
10
22.4262120963125
20
-5.37602364728969
30
0
41
1
10
22.4283429607195
20
-5.34714786496855
30
0
41
1
10
22.4319548858697
20
-5.31053841001994
30
0
41
1
10
22.4453657154376
20
-5.23210541536429
30
0
41
1
10
22.4548755278662
20
-5.18977616239778
30
0
41
1
10
22.4702301431231
20
-5.14192379777674
30
0
41
1
10
22.4720501662501
20
-5.13646011931482
30
0
41
1
10
22.4739430174867
20
-5.13099554185641
30
0
0
SPLINE
5
1EA
100
AcDbEntity
8
1
62
256
6
ByLayer
370
13
48
1
60
0
100
AcDbSpline
70
4
71
3
72
12
73
8
40
0
40
0
40
0
40
0
40
0.037828268420456
40
0.037828268420456
40
0.727108891322556
40
0.727108891322556
40
1
40
1
40
1
40
1
41
1
10
22.4739430174867
20
-5.13099554185641
30
0
41
1
10
22.4824023364264
20
-5.13267351030336
30
0
41
1
10
22.4909189581297
20
-5.13436944621395
30
0
41
1
10
22.6536057521077
20
-5.16688953191155
30
0
41
1
10
22.8281123770015
20
-5.20386866301087
30
0
41
1
10
23.0808681739289
20
-5.25984673513054
30
0
41
1
10
23.1546315555727
20
-5.27645425971946
30
0
41
1
10
23.2289221872925
20
-5.29345189211085
30
0
0
SPLINE
5
1EB
100
AcDbEntity
8
1
62
256
6
ByLayer
370
13
48
1
60
0
100
AcDbSpline
70
4
71
3
72
24
73
20
40
0
40
0
40
0
40
0
40
0.0291918203657016
40
0.0291918203657016
40
0.136396538158131
40
0.136396538158131
40
0.265987867368488
40
0.265987867368488
40
0.377753358158994
40
0.377753358158994
40
0.50483938938664
40
0.50483938938664
40
0.632110922025969
40
0.632110922025969
40
0.762713398901978
40
0.762713398901978
40
0.901999958850298
40
0.901999958850298
40
1
40
1
40
1
40
1
41
1
10
21.0817115471212
20
-4.80266454963481
30
0
41
1
10
21.0860998093753
20
-4.80444748191189
30
0
41
1
10
21.090300333935
20
-4.80641035590034
30
0
41
1
10
21.1087793745321
20
-4.81619810588444
30
0
41
1
10
21.1208255768154
20
-4.82601276939636
30
0
41
1
10
21.1430843368215
20
-4.85092338462914
30
0
41
1
10
21.1527903934534
20
-4.86711077030665
30
0
41
1
10
21.166954912446
20
-4.90094403369338
30
0
41
1
10
21.17204803846
20
-4.91843200650683
30
0
41
1
10
21.1794867440361
20
-4.95774984409329
30
0
41
1
10
21.181458605176
20
-4.98048690472802
30
0
41
1
10
21.1811100662915
20
-5.02514733185578
30
0
41
1
10
21.1787796342844
20
-5.04776299569798
30
0
41
1
10
21.1700744334302
20
-5.08964655595557
30
0
41
1
10
21.1634978563533
20
-5.10947475450976
30
0
41
1
10
21.1457369932044
20
-5.14516671323452
30
0
41
1
10
21.1340799608659
20
-5.16127455367681
30
0
41
1
10
21.108701419119
20
-5.18352046023168
30
0
41
1
10
21.0962344198634
20
-5.19143486898011
30
0
41
1
10
21.0817115471212
20
-5.1973354503649
30
0
0
SPLINE
5
1EC
100
AcDbEntity
8
1
62
256
6
ByLayer
370
13
48
1
60
0
100
AcDbSpline
70
4
71
3
72
12
73
8
40
0
40
0
40
0
40
0
40
0.365724954919257
40
0.365724954919257
40
0.979118069631435
40
0.979118069631435
40
1
40
1
40
1
40
1
41
1
10
22.4102634152023
20
-5.47864301426384
30
0
41
1
10
22.3937361056157
20
-5.46397564506401
30
0
41
1
10
22.3756371518841
20
-5.45080314607085
30
0
41
1
10
22.3250623637126
20
-5.42104498684779
30
0
41
1
10
22.2900751797186
20
-5.40755567663322
30
0
41
1
10
22.2538899332389
20
-5.40022767574544
30
0
41
1
10
22.2526851799038
20
-5.39999119774635
30
0
41
1
10
22.2514801084145
20
-5.39976164766171
30
0
0
SPLINE
5
1ED
100
AcDbEntity
8
1
62
256
6
ByLayer
370
13
48
1
60
0
100
AcDbSpline
70
4
71
3
72
12
73
8
40
0
40
0
40
0
40
0
40
0.0209717280275962
40
0.0209717280275962
40
0.549261945584352
40
0.549261945584352
40
1
40
1
40
1
40
1
41
1
10
22.2514801084148
20
-4.60023835233821
30
0
41
1
10
22.2526851798996
20
-4.60000880224766
30
0
41
1
10
22.2538899332219
20
-4.59977232423037
30
0
41
1
10
22.2853191773472
20
-4.59340747819758
30
0
41
1
10
22.3154975045281
20
-4.58255586393386
30
0
41
1
10
22.3672856302101
20
-4.55511913838964
30
0
41
1
10
22.3899815347171
20
-4.53935639620181
30
0
41
1
10
22.4102634152025
20
-4.52135698573613
30
0
0
SPLINE
5
1EE
100
AcDbEntity
8
1
62
256
6
ByLayer
370
13
48
1
60
0
100
AcDbSpline
70
4
71
3
72
12
73
8
40
0
40
0
40
0
40
0
40
0.49164663932398
40
0.49164663932398
40
0.875373657848572
40
0.875373657848572
40
1
40
1
40
1
40
1
41
1
10
22.4739430174867
20
-4.86900445814331
30
0
41
1
10
22.4580682635103
20
-4.82317474841233
30
0
41
1
10
22.4471504774152
20
-4.77683298783819
30
0
41
1
10
22.4341440987431
20
-4.70327405793049
30
0
41
1
10
22.430526825236
20
-4.67331336119463
30
0
41
1
10
22.4274054244723
20
-4.6393950355195
30
0
41
1
10
22.4267634910172
20
-4.63144841588331
30
0
41
1
10
22.4262120963126
20
-4.62397635270995
30
0
0
SPLINE
5
1EF
100
AcDbEntity
8
1
62
256
6
ByLayer
370
13
48
1
60
0
100
AcDbSpline
70
4
71
3
72
12
73
8
40
0
40
0
40
0
40
0
40
0.0378282684204534
40
0.0378282684204534
40
0.727108891322555
40
0.727108891322555
40
1
40
1
40
1
40
1
41
1
10
22.4739430174867
20
-4.86900445814331
30
0
41
1
10
22.4824023364264
20
-4.86732648969635
30
0
41
1
10
22.4909189581297
20
-4.86563055378576
30
0
41
1
10
22.6536057521077
20
-4.83311046808814
30
0
41
1
10
22.8281123770015
20
-4.79613133698885
30
0
41
1
10
23.0808681739289
20
-4.74015326486918
30
0
41
1
10
23.1546315555727
20
-4.72354574028026
30
0
41
1
10
23.2289221872925
20
-4.70654810788886
30
0
0
SPLINE
5
1F0
100
AcDbEntity
8
1
62
256
6
ByLayer
370
13
48
1
60
0
100
AcDbSpline
70
4
71
3
72
8
73
4
40
0
40
0
40
0
40
0
40
1
40
1
40
1
40
1
41
1
10
22.4775115598657
20
-4.36428557231108
30
0
41
1
10
22.4742211632921
20
-4.36941750341001
30
0
41
1
10
22.4708498814567
20
-4.3746157947329
30
0
41
1
10
22.4674054923343
20
-4.37986384875938
30
0
0
SPLINE
5
1F1
100
AcDbEntity
8
1
62
256
6
ByLayer
370
13
48
1
60
0
100
AcDbSpline
70
4
71
3
72
8
73
4
40
0
40
0
40
0
40
0
40
1
40
1
40
1
40
1
41
1
10
22.4775115598653
20
-5.63571442768762
30
0
41
1
10
22.474221163292
20
-5.63058249658906
30
0
41
1
10
22.4708498814566
20
-5.6253842052669
30
0
41
1
10
22.4674054923344
20
-5.62013615124084
30
0
0
SPLINE
5
1F2
100
AcDbEntity
8
1
62
256
6
ByLayer
370
13
48
1
60
0
100
AcDbSpline
70
4
71
3
72
10
73
6
40
0
40
0
40
0
40
0
40
0.543977242056965
40
0.543977242056965
40
1
40
1
40
1
40
1
41
1
10
21.1586453076065
20
-5.29878602654756
30
0
41
1
10
21.1348598955802
20
-5.27979292431311
30
0
41
1
10
21.1082267241209
20
-5.26563032199672
30
0
41
1
10
21.0582400099704
20
-5.24998177524404
30
0
41
1
10
21.0345424108346
20
-5.24663354430416
30
0
41
1
10
21.0112725012788
20
-5.2470203643673
30
0
0
SPLINE
5
1F3
100
AcDbEntity
8
1
62
256
6
ByLayer
370
13
48
1
60
0
100
AcDbSpline
70
4
71
3
72
10
73
6
40
0
40
0
40
0
40
0
40
0.594671969867266
40
0.594671969867266
40
1
40
1
40
1
40
1
41
1
10
21.0112725012887
20
-4.75297963563227
30
0
41
1
10
21.0414272134588
20
-4.75348090305593
30
0
41
1
10
21.0724285425085
20
-4.74762956990312
30
0
41
1
10
21.121404499001
20
-4.72700262909493
30
0
41
1
10
21.1407983096893
20
-4.7154651394923
30
0
41
1
10
21.1586453076066
20
-4.70121397345662
30
0
0
SPLINE
5
1F4
100
AcDbEntity
8
1
62
256
6
ByLayer
370
13
48
1
60
0
100
AcDbSpline
70
4
71
3
72
10
73
6
40
0
40
0
40
0
40
0
40
0.441584000439074
40
0.441584000439074
40
1
40
1
40
1
40
1
41
1
10
20.9682618588517
20
-4.75237796968457
30
0
41
1
10
20.9831578146863
20
-4.7597891362449
30
0
41
1
10
20.9983157146139
20
-4.76698520910486
30
0
41
1
10
21.0331615279672
20
-4.78275449548715
30
0
41
1
10
21.0530007239138
20
-4.79119450516578
30
0
41
1
10
21.0731579439907
20
-4.79924434820055
30
0
0
SPLINE
5
1F5
100
AcDbEntity
8
1
62
256
6
ByLayer
370
13
48
1
60
0
100
AcDbSpline
70
4
71
3
72
10
73
6
40
0
40
0
40
0
40
0
40
0.317001517206847
40
0.317001517206847
40
1
40
1
40
1
40
1
41
1
10
21.0112725012775
20
-4.75297963563088
30
0
41
1
10
21.0064777423953
20
-4.75362120522826
30
0
41
1
10
21.0017490867121
20
-4.7540404904654
30
0
41
1
10
20.9870718822178
20
-4.75465916266188
30
0
41
1
10
20.9773952454518
20
-4.75403530705032
30
0
41
1
10
20.9682618588517
20
-4.75237796968457
30
0
0
SPLINE
5
1F6
100
AcDbEntity
8
1
62
256
6
ByLayer
370
13
48
1
60
0
100
AcDbSpline
70
4
71
3
72
10
73
6
40
0
40
0
40
0
40
0
40
0.357650901073067
40
0.357650901073067
40
1
40
1
40
1
40
1
41
1
10
20.9682618588517
20
-5.24762203031514
30
0
41
1
10
20.9730683572599
20
-5.24674984678026
30
0
41
1
10
20.9780213367012
20
-5.24616330605298
30
0
41
1
10
20.9921229263446
20
-5.24533571372714
30
0
41
1
10
21.0015680505855
20
-5.24572184640689
30
0
41
1
10
21.0112725012795
20
-5.24702036436719
30
0
0
SPLINE
5
1F7
100
AcDbEntity
8
1
62
256
6
ByLayer
370
13
48
1
60
0
100
AcDbSpline
70
4
71
3
72
10
73
6
40
0
40
0
40
0
40
0
40
0.558477308496816
40
0.558477308496816
40
1
40
1
40
1
40
1
41
1
10
21.0731579439905
20
-5.20075565179815
30
0
41
1
10
21.0529985124188
20
-5.20880637799965
30
0
41
1
10
21.0331571738854
20
-5.21724735702472
30
0
41
1
10
20.9983115077506
20
-5.23301678794101
30
0
41
1
10
20.9831557478674
20
-5.24021189205664
30
0
41
1
10
20.9682618588517
20
-5.24762203031514
30
0
0
SPLINE
5
1F8
100
AcDbEntity
8
1
62
256
6
ByLayer
370
13
48
1
60
0
100
AcDbSpline
70
4
71
3
72
12
73
8
40
0
40
0
40
0
40
0
40
0.709988165001255
40
0.709988165001255
40
0.92220788847233
40
0.92220788847233
40
1
40
1
40
1
40
1
41
1
10
20.9327064157301
20
-4.71699214973566
30
0
41
1
10
20.949201252382
20
-4.72917739938916
30
0
41
1
10
20.9677573595242
20
-4.73890732880599
30
0
41
1
10
20.9928332682202
20
-4.74789205430946
30
0
41
1
10
20.998736568945
20
-4.7497319513144
30
0
41
1
10
21.0068788977593
20
-4.75190951721473
30
0
41
1
10
21.0090724396469
20
-4.7524610612231
30
0
41
1
10
21.0112725012799
20
-4.75297963562466
30
0
0
SPLINE
5
1F9
100
AcDbEntity
8
1
62
256
6
ByLayer
370
13
48
1
60
0
100
AcDbSpline
70
4
71
3
72
10
73
6
40
0
40
0
40
0
40
0
40
0.735193443551149
40
0.735193443551149
40
1
40
1
40
1
40
1
41
1
10
21.0112725012795
20
-5.24702036436821
30
0
41
1
10
20.9906991613073
20
-5.25186968645249
30
0
41
1
10
20.9704915627688
20
-5.25971465021539
30
0
41
1
10
20.9454099006125
20
-5.27417894743508
30
0
41
1
10
20.9389206110604
20
-5.2784172305679
30
0
41
1
10
20.9327064157473
20
-5.28300785021722
30
0
0
SPLINE
5
1FA
100
AcDbEntity
8
1
62
256
6
ByLayer
370
13
48
1
60
0
100
AcDbSpline
70
4
71
3
72
10
73
6
40
0
40
0
40
0
40
0
40
0.333804371559252
40
0.333804371559252
40
1
40
1
40
1
40
1
41
1
10
21.0731579439905
20
-4.79924434820157
30
0
41
1
10
21.0741089610472
20
-4.79962488934692
30
0
41
1
10
21.075060222121
20
-4.80000543695266
30
0
41
1
10
21.0779107035582
20
-4.80114548659628
30
0
41
1
10
21.0798106484521
20
-4.80190500732112
30
0
41
1
10
21.0817115471212
20
-4.80266454963481
30
0
0
SPLINE
5
1FB
100
AcDbEntity
8
1
62
256
6
ByLayer
370
13
48
1
60
0
100
AcDbSpline
70
4
71
3
72
10
73
6
40
0
40
0
40
0
40
0
40
0.666195628071545
40
0.666195628071545
40
1
40
1
40
1
40
1
41
1
10
21.0817115471212
20
-5.1973354503649
30
0
41
1
10
21.0798106484531
20
-5.19809499267816
30
0
41
1
10
21.0779107035603
20
-5.19885451340258
30
0
41
1
10
21.0750602221231
20
-5.1999945630462
30
0
41
1
10
21.0741089610481
20
-5.20037511065291
30
0
41
1
10
21.0731579439904
20
-5.20075565179871
30
0
0
SPLINE
5
1FC
100
AcDbEntity
8
1
62
256
6
ByLayer
370
13
48
1
60
0
100
AcDbSpline
70
4
71
3
72
10
73
6
40
0
40
0
40
0
40
0
40
0.741839809293022
40
0.741839809293022
40
1
40
1
40
1
40
1
41
1
10
20.8775223795399
20
-4.64930433755848
30
0
41
1
10
20.8872637205793
20
-4.66865584861083
30
0
41
1
10
20.9004639767516
20
-4.68650731229584
30
0
41
1
10
20.9211300943468
20
-4.70713145528106
30
0
41
1
10
20.926795657145
20
-4.71221997476843
30
0
41
1
10
20.932706415723
20
-4.7169921497451
30
0
0
SPLINE
5
1FD
100
AcDbEntity
8
1
62
256
6
ByLayer
370
13
48
1
60
0
100
AcDbSpline
70
4
71
3
72
10
73
6
40
0
40
0
40
0
40
0
40
0.344098564729953
40
0.344098564729953
40
1
40
1
40
1
40
1
41
1
10
20.9327064157477
20
-5.2830078502181
30
0
41
1
10
20.9248480305402
20
-5.28935248242291
30
0
41
1
10
20.9174164333952
20
-5.29626032464571
30
0
41
1
10
20.8974612534848
20
-5.31762204716304
30
0
41
1
10
20.8861446779715
20
-5.33356716825071
30
0
41
1
10
20.8775223795393
20
-5.35069566244209
30
0
0
SPLINE
5
1FE
100
AcDbEntity
8
1
62
256
6
ByLayer
370
13
48
1
60
0
100
AcDbSpline
70
4
71
3
72
8
73
4
40
0
40
0
40
0
40
0
40
1
40
1
40
1
40
1
41
1
10
20.8484695777327
20
-4.61103419769103
30
0
41
1
10
20.856844178597
20
-4.62474357051849
30
0
41
1
10
20.8665807416807
20
-4.63762943342925
30
0
41
1
10
20.8775223795412
20
-4.64930433755734
30
0
0
SPLINE
5
1FF
100
AcDbEntity
8
1
62
256
6
ByLayer
370
13
48
1
60
0
100
AcDbSpline
70
4
71
3
72
8
73
4
40
0
40
0
40
0
40
0
40
1
40
1
40
1
40
1
41
1
10
20.877522379539
20
-5.35069566244192
30
0
41
1
10
20.866580741679
20
-5.36237056656958
30
0
41
1
10
20.8568441785981
20
-5.37525642948356
30
0
41
1
10
20.8484695777341
20
-5.38896580231037
30
0
0
SPLINE
5
200
100
AcDbEntity
8
1
62
256
6
ByLayer
370
13
48
1
60
0
100
AcDbSpline
70
4
71
3
72
8
73
4
40
0
40
0
40
0
40
0
40
1
40
1
40
1
40
1
41
1
10
20.8484695777333
20
-5.38896580230772
30
0
41
1
10
20.806994641852
20
-5.48549280893286
30
0
41
1
10
20.7641587550012
20
-5.58148984445222
30
0
41
1
10
20.7183319361238
20
-5.67598433134575
30
0
0
SPLINE
5
201
100
AcDbEntity
8
1
62
256
6
ByLayer
370
13
48
1
60
0
100
AcDbSpline
70
4
71
3
72
8
73
4
40
0
40
0
40
0
40
0
40
1
40
1
40
1
40
1
41
1
10
20.7183319361238
20
-4.32401566865394
30
0
41
1
10
20.7641587550011
20
-4.41851015554715
30
0
41
1
10
20.8069946418517
20
-4.51450719106614
30
0
41
1
10
20.8484695777328
20
-4.61103419769094
30
0
0
SPLINE
5
202
100
AcDbEntity
8
1
62
256
6
ByLayer
370
13
48
1
60
0
100
AcDbSpline
70
4
71
3
72
10
73
6
40
0
40
0
40
0
40
0
40
0.779724613001554
40
0.779724613001554
40
1
40
1
40
1
40
1
41
1
10
20.9487905068831
20
-4.74897564444692
30
0
41
1
10
20.9522814951948
20
-4.74897564444711
30
0
41
1
10
20.9570719807736
20
-4.74963590935295
30
0
41
1
10
20.964621012228
20
-4.75141237073862
30
0
41
1
10
20.9664035390181
20
-4.75186857537454
30
0
41
1
10
20.9682618588517
20
-4.75237796968457
30
0
0
SPLINE
5
203
100
AcDbEntity
8
1
62
256
6
ByLayer
370
13
48
1
60
0
100
AcDbSpline
70
4
71
3
72
8
73
4
40
0
40
0
40
0
40
0
40
1
40
1
40
1
40
1
41
1
10
20.8775223795398
20
-4.64930433755833
30
0
41
1
10
20.8675268649006
20
-4.64351228094529
30
0
41
1
10
20.8585032631411
20
-4.63768150062728
30
0
41
1
10
20.8506142807835
20
-4.63200211972213
30
0
0
SPLINE
5
204
100
AcDbEntity
8
1
62
256
6
ByLayer
370
13
48
1
60
0
100
AcDbSpline
70
4
71
3
72
8
73
4
40
0
40
0
40
0
40
0
40
1
40
1
40
1
40
1
41
1
10
20.8506142807802
20
-5.36799788027963
30
0
41
1
10
20.8585032631378
20
-5.36231849937451
30
0
41
1
10
20.8675268648999
20
-5.35648771905485
30
0
41
1
10
20.877522379539
20
-5.35069566244184
30
0
0
SPLINE
5
205
100
AcDbEntity
8
1
62
256
6
ByLayer
370
13
48
1
60
0
100
AcDbSpline
70
4
71
3
72
10
73
6
40
0
40
0
40
0
40
0
40
0.220275387008479
40
0.220275387008479
40
1
40
1
40
1
40
1
41
1
10
20.9682618588517
20
-5.24762203031514
30
0
41
1
10
20.966403539018
20
-5.2481314246252
30
0
41
1
10
20.9646210122277
20
-5.24858762926118
30
0
41
1
10
20.9570719807735
20
-5.25036409064671
30
0
41
1
10
20.9522814951945
20
-5.25102435555266
30
0
41
1
10
20.9487905068828
20
-5.2510243555528
30
0
0
SPLINE
5
206
100
AcDbEntity
8
1
62
256
6
ByLayer
370
13
48
1
60
0
100
AcDbSpline
70
4
71
3
72
10
73
6
40
0
40
0
40
0
40
0
40
0.491839191976824
40
0.491839191976824
40
1
40
1
40
1
40
1
41
1
10
22.4739430174867
20
-5.13099554185641
30
0
41
1
10
22.4840171195627
20
-5.0893988286916
30
0
41
1
10
22.489736079367
20
-5.0455961447976
30
0
41
1
10
22.4900896741381
20
-4.9572674285981
30
0
41
1
10
22.4843433987005
20
-4.91194840201936
30
0
41
1
10
22.4739430174867
20
-4.86900445814331
30
0
0
SPLINE
5
207
100
AcDbEntity
8
1
62
256
6
ByLayer
370
13
48
1
60
0
100
AcDbSpline
70
4
71
3
72
8
73
4
40
0
40
0
40
0
40
0
40
1
40
1
40
1
40
1
41
1
10
20.8484695777331
20
-4.61103419768978
30
0
41
1
10
20.8491523507354
20
-4.61796360355231
30
0
41
1
10
20.8498660198604
20
-4.62495526892241
30
0
41
1
10
20.8506142807769
20
-4.63200211971775
30
0
0
SPLINE
5
208
100
AcDbEntity
8
1
62
256
6
ByLayer
370
13
48
1
60
0
100
AcDbSpline
70
4
71
3
72
8
73
4
40
0
40
0
40
0
40
0
40
1
40
1
40
1
40
1
41
1
10
20.8506142807768
20
-5.36799788028313
30
0
41
1
10
20.8498660198604
20
-5.37504473107734
30
0
41
1
10
20.8491523507355
20
-5.38203639644627
30
0
41
1
10
20.8484695777333
20
-5.38896580230772
30
0
0
SPLINE
5
209
100
AcDbEntity
8
1
62
256
6
ByLayer
370
13
48
1
60
0
100
AcDbSpline
70
4
71
3
72
8
73
4
40
0
40
0
40
0
40
0
40
1
40
1
40
1
40
1
41
1
10
24.5397600217523
20
-4.15614709968273
30
0
41
1
10
24.422055648593
20
-4.13167380944549
30
0
41
1
10
24.300878108611
20
-4.12224731931357
30
0
41
1
10
24.1810768987951
20
-4.12518383633312
30
0
0
SPLINE
5
20A
100
AcDbEntity
8
1
62
256
6
ByLayer
370
13
48
1
60
0
100
AcDbSpline
70
4
71
3
72
16
73
12
40
0
40
0
40
0
40
0
40
0.565035752121982
40
0.565035752121982
40
0.802127499925977
40
0.802127499925977
40
0.909039374754918
40
0.909039374754918
40
0.963879000672096
40
0.963879000672096
40
1
40
1
40
1
40
1
41
1
10
24.5753143467793
20
-4.23446411403972
30
0
41
1
10
24.5686286509489
20
-4.22007154087308
30
0
41
1
10
24.5618879302625
20
-4.2053661699027
30
0
41
1
10
24.5523712685777
20
-4.18434379942954
30
0
41
1
10
24.5495577546969
20
-4.17809558287331
30
0
41
1
10
24.5454904861867
20
-4.16901395895292
30
0
41
1
10
24.5442279534699
20
-4.16618800063725
30
0
41
1
10
24.5423215351283
20
-4.16191019761894
30
0
41
1
10
24.5416757755847
20
-4.16045933015332
30
0
41
1
10
24.5406068513424
20
-4.15805461258017
30
0
41
1
10
24.5401828059207
20
-4.1571011122235
30
0
41
1
10
24.5397600217523
20
-4.15614709968273
30
0
0
SPLINE
5
20B
100
AcDbEntity
8
1
62
256
6
ByLayer
370
13
48
1
60
0
100
AcDbSpline
70
4
71
3
72
10
73
6
40
0
40
0
40
0
40
0
40
0.484066971714713
40
0.484066971714713
40
1
40
1
40
1
40
1
41
1
10
24.6636089363249
20
-4.34419694560239
30
0
41
1
10
24.6463854867531
20
-4.32933247646409
30
0
41
1
10
24.6300210449058
20
-4.31327144162353
30
0
41
1
10
24.5997771424429
20
-4.27717888705953
30
0
41
1
10
24.585689560494
20
-4.25679926452895
30
0
41
1
10
24.5753143467793
20
-4.23446411403972
30
0
0
SPLINE
5
20C
100
AcDbEntity
8
1
62
256
6
ByLayer
370
13
48
1
60
0
100
AcDbSpline
70
4
71
3
72
16
73
12
40
0
40
0
40
0
40
0
40
0.565035752121982
40
0.565035752121982
40
0.802127499925978
40
0.802127499925978
40
0.909039374754918
40
0.909039374754918
40
0.963879000672096
40
0.963879000672096
40
1
40
1
40
1
40
1
41
1
10
24.5753143467793
20
-5.76553588595999
30
0
41
1
10
24.5686286509486
20
-5.7799284591265
30
0
41
1
10
24.5618879302625
20
-5.79463383009701
30
0
41
1
10
24.5523712685777
20
-5.81565620057017
30
0
41
1
10
24.5495577546969
20
-5.82190441712638
30
0
41
1
10
24.5454904861867
20
-5.8309860410468
30
0
41
1
10
24.5442279534699
20
-5.83381199936247
30
0
41
1
10
24.5423215351283
20
-5.83808980238078
30
0
41
1
10
24.5416757755847
20
-5.8395406698464
30
0
41
1
10
24.5406068513424
20
-5.84194538741954
30
0
41
1
10
24.5401828059207
20
-5.84289888777622
30
0
41
1
10
24.5397600217523
20
-5.84385290031699
30
0
0
SPLINE
5
20D
100
AcDbEntity
8
1
62
256
6
ByLayer
370
13
48
1
60
0
100
AcDbSpline
70
4
71
3
72
8
73
4
40
0
40
0
40
0
40
0
40
1
40
1
40
1
40
1
41
1
10
24.5397600217523
20
-5.84385290031699
30
0
41
1
10
24.422055648593
20
-5.86832619055423
30
0
41
1
10
24.300878108611
20
-5.87775268068614
30
0
41
1
10
24.1810768987951
20
-5.87481616366659
30
0
0
SPLINE
5
20E
100
AcDbEntity
8
1
62
256
6
ByLayer
370
13
48
1
60
0
100
AcDbSpline
70
4
71
3
72
10
73
6
40
0
40
0
40
0
40
0
40
0.484066971714709
40
0.484066971714709
40
1
40
1
40
1
40
1
41
1
10
24.6636089363249
20
-5.65580305439732
30
0
41
1
10
24.6463854867531
20
-5.67066752353563
30
0
41
1
10
24.6300210449058
20
-5.68672855837619
30
0
41
1
10
24.5997771424429
20
-5.72282111294018
30
0
41
1
10
24.585689560494
20
-5.74320073547077
30
0
41
1
10
24.5753143467793
20
-5.76553588595999
30
0
0
SPLINE
5
20F
100
AcDbEntity
8
1
62
256
6
ByLayer
370
13
48
1
60
0
100
AcDbSpline
70
4
71
3
72
10
73
6
40
0
40
0
40
0
40
0
40
0.176628710800224
40
0.176628710800224
40
1
40
1
40
1
40
1
41
1
10
24.9256635776615
20
-4.46887911270255
30
0
41
1
10
24.9183722025778
20
-4.45789288199114
30
0
41
1
10
24.9104894309625
20
-4.44728913007344
30
0
41
1
10
24.8638040682909
20
-4.39023442467717
30
0
41
1
10
24.8154493527108
20
-4.35130053320151
30
0
41
1
10
24.7642473322786
20
-4.31913067945985
30
0
0
SPLINE
5
210
100
AcDbEntity
8
1
62
256
6
ByLayer
370
13
48
1
60
0
100
AcDbSpline
70
4
71
3
72
8
73
4
40
0
40
0
40
0
40
0
40
1
40
1
40
1
40
1
41
1
10
24.7642473322786
20
-4.31913067945985
30
0
41
1
10
24.7451065349848
20
-4.3071046569662
30
0
41
1
10
24.725925565824
20
-4.29514243207061
30
0
41
1
10
24.7067026707552
20
-4.28324830862616
30
0
0
SPLINE
5
211
100
AcDbEntity
8
1
62
256
6
ByLayer
370
13
48
1
60
0
100
AcDbSpline
70
4
71
3
72
10
73
6
40
0
40
0
40
0
40
0
40
0.502273026272322
40
0.502273026272322
40
1
40
1
40
1
40
1
41
1
10
24.7067026707552
20
-4.28324830862613
30
0
41
1
10
24.6891255877275
20
-4.27237252771087
30
0
41
1
10
24.6719685584501
20
-4.26074793609618
30
0
41
1
10
24.6393998135679
20
-4.23566227550248
30
0
41
1
10
24.6236090237987
20
-4.22226448622274
30
0
41
1
10
24.610515563742
20
-4.20654622743123
30
0
0
SPLINE
5
212
100
AcDbEntity
8
1
62
256
6
ByLayer
370
13
48
1
60
0
100
AcDbSpline
70
4
71
3
72
10
73
6
40
0
40
0
40
0
40
0
40
0.502273026272322
40
0.502273026272322
40
1
40
1
40
1
40
1
41
1
10
24.7067026707552
20
-5.71675169137359
30
0
41
1
10
24.6891255877275
20
-5.72762747228882
30
0
41
1
10
24.6719685584501
20
-5.73925206390354
30
0
41
1
10
24.6393998135679
20
-5.76433772449724
30
0
41
1
10
24.6236090237987
20
-5.77773551377697
30
0
41
1
10
24.610515563742
20
-5.79345377256848
30
0
0
SPLINE
5
213
100
AcDbEntity
8
1
62
256
6
ByLayer
370
13
48
1
60
0
100
AcDbSpline
70
4
71
3
72
8
73
4
40
0
40
0
40
0
40
0
40
1
40
1
40
1
40
1
41
1
10
24.7642473322786
20
-5.68086932053984
30
0
41
1
10
24.7451065349848
20
-5.69289534303351
30
0
41
1
10
24.725925565824
20
-5.70485756792911
30
0
41
1
10
24.7067026707552
20
-5.71675169137356
30
0
0
SPLINE
5
214
100
AcDbEntity
8
1
62
256
6
ByLayer
370
13
48
1
60
0
100
AcDbSpline
70
4
71
3
72
10
73
6
40
0
40
0
40
0
40
0
40
0.176628710800224
40
0.176628710800224
40
1
40
1
40
1
40
1
41
1
10
24.9256635776615
20
-5.53112088729716
30
0
41
1
10
24.9183722025778
20
-5.54210711800857
30
0
41
1
10
24.9104894309625
20
-5.55271086992624
30
0
41
1
10
24.8638040682909
20
-5.60976557532254
30
0
41
1
10
24.8154493527108
20
-5.64869946679821
30
0
41
1
10
24.7642473322786
20
-5.68086932053987
30
0
0
SPLINE
5
215
100
AcDbEntity
8
1
62
256
6
ByLayer
370
13
48
1
60
0
100
AcDbSpline
70
4
71
3
72
10
73
6
40
0
40
0
40
0
40
0
40
0.828685679108716
40
0.828685679108716
40
1
40
1
40
1
40
1
41
1
10
24.7207683583679
20
-5.62023176813372
30
0
41
1
10
24.7686097493867
20
-5.59487894144917
30
0
41
1
10
24.8147633392972
20
-5.56407320760223
30
0
41
1
10
24.8604070337688
20
-5.51717105504832
30
0
41
1
10
24.8679488590384
20
-5.50866004142725
30
0
41
1
10
24.8749800271743
20
-5.4997620498896
30
0
0
SPLINE
5
216
100
AcDbEntity
8
1
62
256
6
ByLayer
370
13
48
1
60
0
100
AcDbSpline
70
4
71
3
72
10
73
6
40
0
40
0
40
0
40
0
40
0.828685679108716
40
0.828685679108716
40
1
40
1
40
1
40
1
41
1
10
24.7207683583679
20
-4.379768231866
30
0
41
1
10
24.7686097493867
20
-4.40512105855055
30
0
41
1
10
24.8147633392972
20
-4.43592679239748
30
0
41
1
10
24.8604070337688
20
-4.48282894495136
30
0
41
1
10
24.8679488590384
20
-4.49133995857247
30
0
41
1
10
24.8749800271743
20
-4.50023795011012
30
0
0
SPLINE
5
217
100
AcDbEntity
8
1
62
256
6
ByLayer
370
13
48
1
60
0
100
AcDbSpline
70
4
71
3
72
12
73
8
40
0
40
0
40
0
40
0
40
0.0880792633922689
40
0.0880792633922689
40
0.576107189837383
40
0.576107189837383
40
1
40
1
40
1
40
1
41
1
10
24.6040818169429
20
-4.64787095975097
30
0
41
1
10
24.6140661440235
20
-4.64758157502834
30
0
41
1
10
24.6240551161812
20
-4.64743922028342
30
0
41
1
10
24.6893799480028
20
-4.64756539366192
30
0
41
1
10
24.7447000295703
20
-4.64962439636591
30
0
41
1
10
24.8480735369366
20
-4.65228068976293
30
0
41
1
10
24.8961214732615
20
-4.6536967461075
30
0
41
1
10
24.9441651422481
20
-4.65525959326084
30
0
0
SPLINE
5
218
100
AcDbEntity
8
1
62
256
6
ByLayer
370
13
48
1
60
0
100
AcDbSpline
70
4
71
3
72
12
73
8
40
0
40
0
40
0
40
0
40
0.0880792633922689
40
0.0880792633922689
40
0.576107189837383
40
0.576107189837383
40
1
40
1
40
1
40
1
41
1
10
24.6040818169429
20
-5.35212904024874
30
0
41
1
10
24.6140661440235
20
-5.35241842497138
30
0
41
1
10
24.6240551161812
20
-5.3525607797163
30
0
41
1
10
24.6893799480028
20
-5.35243460633777
30
0
41
1
10
24.7447000295703
20
-5.35037560363381
30
0
41
1
10
24.8480735369366
20
-5.34771931023678
30
0
41
1
10
24.8961214732615
20
-5.34630325389219
30
0
41
1
10
24.9441651422481
20
-5.34474040673888
30
0
0
SPLINE
5
219
100
AcDbEntity
8
1
62
256
6
ByLayer
370
13
48
1
60
0
100
AcDbSpline
70
4
71
3
72
8
73
4
40
0
40
0
40
0
40
0
40
1
40
1
40
1
40
1
41
1
10
24.8749800271743
20
-4.50023795011012
30
0
41
1
10
24.882226373284
20
-4.50940825085056
30
0
41
1
10
24.8893744966751
20
-4.51869385692007
30
0
41
1
10
24.896439687712
20
-4.52804195912509
30
0
0
SPLINE
5
21A
100
AcDbEntity
8
1
62
256
6
ByLayer
370
13
48
1
60
0
100
AcDbSpline
70
4
71
3
72
10
73
6
40
0
40
0
40
0
40
0
40
0.595894712070617
40
0.595894712070617
40
1
40
1
40
1
40
1
41
1
10
24.896439687712
20
-4.52804195912509
30
0
41
1
10
24.9128914645872
20
-4.54980964960663
30
0
41
1
10
24.9267183907984
20
-4.57422990134262
30
0
41
1
10
24.940810212682
20
-4.61790101891339
30
0
41
1
10
24.9440390421828
20
-4.63665955692326
30
0
41
1
10
24.9441651422481
20
-4.65525959326084
30
0
0
SPLINE
5
21B
100
AcDbEntity
8
1
62
256
6
ByLayer
370
13
48
1
60
0
100
AcDbSpline
70
4
71
3
72
10
73
6
40
0
40
0
40
0
40
0
40
0.595894712070617
40
0.595894712070617
40
1
40
1
40
1
40
1
41
1
10
24.896439687712
20
-5.4719580408746
30
0
41
1
10
24.9128914645872
20
-5.45019035039309
30
0
41
1
10
24.9267183907984
20
-5.4257700986571
30
0
41
1
10
24.940810212682
20
-5.3820989810863
30
0
41
1
10
24.9440390421828
20
-5.36334044307645
30
0
41
1
10
24.9441651422481
20
-5.34474040673888
30
0
0
SPLINE
5
21C
100
AcDbEntity
8
1
62
256
6
ByLayer
370
13
48
1
60
0
100
AcDbSpline
70
4
71
3
72
16
73
12
40
0
40
0
40
0
40
0
40
0.550547840515593
40
0.550547840515593
40
0.792876062772848
40
0.792876062772848
40
0.904227776395907
40
0.904227776395907
40
0.964015152759446
40
0.964015152759446
40
1
40
1
40
1
40
1
41
1
10
24.610515563742
20
-4.20654622743118
30
0
41
1
10
24.5975450008677
20
-4.19750948063611
30
0
41
1
10
24.5844768135886
20
-4.18829171730596
30
0
41
1
10
24.5657548110492
20
-4.17492749176398
30
0
41
1
10
24.560032266874
20
-4.1708210094462
30
0
41
1
10
24.5517104802333
20
-4.16481730321766
30
0
41
1
10
24.5490936305623
20
-4.16292473926447
30
0
41
1
10
24.5450796636703
20
-4.16001450173661
30
0
41
1
10
24.5436787273479
20
-4.15899742095542
30
0
41
1
10
24.5414390369606
20
-4.15736920549134
30
0
41
1
10
24.5405990425508
20
-4.15675843302529
30
0
41
1
10
24.5397600217523
20
-4.15614709968267
30
0
0
SPLINE
5
21D
100
AcDbEntity
8
1
62
256
6
ByLayer
370
13
48
1
60
0
100
AcDbSpline
70
4
71
3
72
8
73
4
40
0
40
0
40
0
40
0
40
1
40
1
40
1
40
1
41
1
10
24.8749800271743
20
-5.4997620498896
30
0
41
1
10
24.882226373284
20
-5.49059174914916
30
0
41
1
10
24.8893744966751
20
-5.48130614307965
30
0
41
1
10
24.896439687712
20
-5.4719580408746
30
0
0
SPLINE
5
21E
100
AcDbEntity
8
1
62
256
6
ByLayer
370
13
48
1
60
0
100
AcDbSpline
70
4
71
3
72
16
73
12
40
0
40
0
40
0
40
0
40
0.550547840515593
40
0.550547840515593
40
0.792876062772848
40
0.792876062772848
40
0.904227776395907
40
0.904227776395907
40
0.964015152759446
40
0.964015152759446
40
1
40
1
40
1
40
1
41
1
10
24.610515563742
20
-5.79345377256854
30
0
41
1
10
24.5975450008677
20
-5.8024905193636
30
0
41
1
10
24.5844768135886
20
-5.81170828269376
30
0
41
1
10
24.5657548110492
20
-5.82507250823571
30
0
41
1
10
24.560032266874
20
-5.82917899055352
30
0
41
1
10
24.5517104802333
20
-5.83518269678203
30
0
41
1
10
24.5490936305623
20
-5.83707526073525
30
0
41
1
10
24.5450796636703
20
-5.8399854982631
30
0
41
1
10
24.5436787273479
20
-5.84100257904427
30
0
41
1
10
24.5414390369606
20
-5.84263079450838
30
0
41
1
10
24.5405990425508
20
-5.84324156697443
30
0
41
1
10
24.5397600217523
20
-5.84385290031705
30
0
0
SPLINE
5
21F
100
AcDbEntity
8
1
62
256
6
ByLayer
370
13
48
1
60
0
100
AcDbSpline
70
4
71
3
72
8
73
4
40
0
40
0
40
0
40
0
40
1
40
1
40
1
40
1
41
1
10
24.1810768987951
20
-5.87481616366659
30
0
41
1
10
24.0666740375912
20
-5.87150813787238
30
0
41
1
10
23.9499584372937
20
-5.86253383942787
30
0
41
1
10
23.8337805434613
20
-5.8667617720499
30
0
0
SPLINE
5
220
100
AcDbEntity
8
1
62
256
6
ByLayer
370
13
48
1
60
0
100
AcDbSpline
70
4
71
3
72
8
73
4
40
0
40
0
40
0
40
0
40
1
40
1
40
1
40
1
41
1
10
24.1810768987951
20
-4.12518383633312
30
0
41
1
10
24.0666740375912
20
-4.12849186212733
30
0
41
1
10
23.9499584372937
20
-4.13746616057185
30
0
41
1
10
23.8337805434613
20
-4.13323822794982
30
0
0
SPLINE
5
221
100
AcDbEntity
8
1
62
256
6
ByLayer
370
13
48
1
60
0
100
AcDbSpline
70
4
71
3
72
10
73
6
40
0
40
0
40
0
40
0
40
0.202374079532489
40
0.202374079532489
40
1
40
1
40
1
40
1
41
1
10
23.9939768523292
20
-4.64666737987656
30
0
41
1
10
24.0366335743464
20
-4.64785266089459
30
0
41
1
10
24.0793460209675
20
-4.64834690148553
30
0
41
1
10
24.2872289032592
20
-4.65117888890518
30
0
41
1
10
24.4524723046481
20
-4.65109339854195
30
0
41
1
10
24.6040818169429
20
-4.64787095975097
30
0
0
SPLINE
5
222
100
AcDbEntity
8
1
62
256
6
ByLayer
370
13
48
1
60
0
100
AcDbSpline
70
4
71
3
72
10
73
6
40
0
40
0
40
0
40
0
40
0.202374079532489
40
0.202374079532489
40
1
40
1
40
1
40
1
41
1
10
23.9939768523292
20
-5.35333262012315
30
0
41
1
10
24.0366335743464
20
-5.35214733910513
30
0
41
1
10
24.0793460209675
20
-5.35165309851419
30
0
41
1
10
24.2872289032592
20
-5.34882111109454
30
0
41
1
10
24.4524723046481
20
-5.34890660145777
30
0
41
1
10
24.6040818169429
20
-5.35212904024874
30
0
0
SPLINE
5
223
100
AcDbEntity
8
1
62
256
6
ByLayer
370
13
48
1
60
0
100
AcDbSpline
70
4
71
3
72
10
73
6
40
0
40
0
40
0
40
0
40
0.412056726398416
40
0.412056726398416
40
1
40
1
40
1
40
1
41
1
10
24.9970257408962
20
-4.65525959326084
30
0
41
1
10
24.9970257408962
20
-4.63214005529485
30
0
41
1
10
24.99385361432
20
-4.60884672723603
30
0
41
1
10
24.9795476699584
20
-4.55477853640986
30
0
41
1
10
24.9654870839336
20
-4.52430879873776
30
0
41
1
10
24.9480375085945
20
-4.49657472132799
30
0
0
SPLINE
5
224
100
AcDbEntity
8
1
62
256
6
ByLayer
370
13
48
1
60
0
100
AcDbSpline
70
4
71
3
72
8
73
4
40
0
40
0
40
0
40
0
40
1
40
1
40
1
40
1
41
1
10
23.8337805434613
20
-5.8667617720499
30
0
41
1
10
23.7338294385697
20
-5.87001030666349
30
0
41
1
10
23.6333593139737
20
-5.87323015281316
30
0
41
1
10
23.5337805434613
20
-5.86403867263226
30
0
0
SPLINE
5
225
100
AcDbEntity
8
1
62
256
6
ByLayer
370
13
48
1
60
0
100
AcDbSpline
70
4
71
3
72
8
73
4
40
0
40
0
40
0
40
0
40
1
40
1
40
1
40
1
41
1
10
23.8337805434613
20
-4.13323822794982
30
0
41
1
10
23.7338294385697
20
-4.12998969333623
30
0
41
1
10
23.6333593139737
20
-4.12676984718655
30
0
41
1
10
23.5337805434613
20
-4.13596132736745
30
0
0
SPLINE
5
226
100
AcDbEntity
8
1
62
256
6
ByLayer
370
13
48
1
60
0
100
AcDbSpline
70
4
71
3
72
16
73
12
40
0
40
0
40
0
40
0
40
0.144623406732697
40
0.144623406732697
40
0.340113210683642
40
0.340113210683642
40
0.361421053906806
40
0.361421053906806
40
0.96509055241744
40
0.96509055241744
40
1
40
1
40
1
40
1
41
1
10
23.4939768523292
20
-4.65030289028772
30
0
41
1
10
23.5176378728546
20
-4.64557119287591
30
0
41
1
10
23.5416309953235
20
-4.64235596523557
30
0
41
1
10
23.598193352456
20
-4.63759890599061
30
0
41
1
10
23.6308631318152
20
-4.63644376415763
30
0
41
1
10
23.6670552818254
20
-4.63643675022669
30
0
41
1
10
23.6706149406199
20
-4.63645287929245
30
0
41
1
10
23.7749938211816
20
-4.63747518965047
30
0
41
1
10
23.8757429102796
20
-4.64225645257679
30
0
41
1
10
23.9823238693043
20
-4.64622768379164
30
0
41
1
10
23.9881503958337
20
-4.64644661146517
30
0
41
1
10
23.9939768523292
20
-4.64666737987656
30
0
0
SPLINE
5
227
100
AcDbEntity
8
1
62
256
6
ByLayer
370
13
48
1
60
0
100
AcDbSpline
70
4
71
3
72
10
73
6
40
0
40
0
40
0
40
0
40
0.412056726398416
40
0.412056726398416
40
1
40
1
40
1
40
1
41
1
10
24.9970257408962
20
-5.34474040673888
30
0
41
1
10
24.9970257408962
20
-5.36785994470486
30
0
41
1
10
24.99385361432
20
-5.39115327276369
30
0
41
1
10
24.9795476699584
20
-5.44522146358986
30
0
41
1
10
24.9654870839336
20
-5.47569120126195
30
0
41
1
10
24.9480375085945
20
-5.50342527867173
30
0
0
SPLINE
5
228
100
AcDbEntity
8
1
62
256
6
ByLayer
370
13
48
1
60
0
100
AcDbSpline
70
4
71
3
72
16
73
12
40
0
40
0
40
0
40
0
40
0.144623406732697
40
0.144623406732697
40
0.340113210683642
40
0.340113210683642
40
0.361421053906806
40
0.361421053906806
40
0.96509055241744
40
0.96509055241744
40
1
40
1
40
1
40
1
41
1
10
23.4939768523292
20
-5.349697109712
30
0
41
1
10
23.5176378728546
20
-5.35442880712381
30
0
41
1
10
23.5416309953235
20
-5.35764403476415
30
0
41
1
10
23.598193352456
20
-5.3624010940091
30
0
41
1
10
23.6308631318152
20
-5.36355623584208
30
0
41
1
10
23.6670552818254
20
-5.36356324977302
30
0
41
1
10
23.6706149406199
20
-5.36354712070727
30
0
41
1
10
23.7749938211816
20
-5.36252481034924
30
0
41
1
10
23.8757429102796
20
-5.35774354742293
30
0
41
1
10
23.9823238693043
20
-5.35377231620805
30
0
41
1
10
23.9881503958337
20
-5.35355338853452
30
0
41
1
10
23.9939768523292
20
-5.35333262012315
30
0
0
SPLINE
5
229
100
AcDbEntity
8
1
62
256
6
ByLayer
370
13
48
1
60
0
100
AcDbSpline
70
4
71
3
72
8
73
4
40
0
40
0
40
0
40
0
40
1
40
1
40
1
40
1
41
1
10
23.2289221872925
20
-4.99999999999986
30
0
41
1
10
23.3172737423047
20
-4.99999999999986
30
0
41
1
10
23.405625297317
20
-4.99999999999986
30
0
41
1
10
23.4939768523292
20
-4.99999999999986
30
0
0
SPLINE
5
22A
100
AcDbEntity
8
1
62
256
6
ByLayer
370
13
48
1
60
0
100
AcDbSpline
70
4
71
3
72
8
73
4
40
0
40
0
40
0
40
0
40
1
40
1
40
1
40
1
41
1
10
24.9480375085945
20
-5.50342527867173
30
0
41
1
10
24.9406822121479
20
-5.51277759158757
30
0
41
1
10
24.9332278664848
20
-5.52202611591463
30
0
41
1
10
24.9256635776615
20
-5.53112088729719
30
0
0
SPLINE
5
22B
100
AcDbEntity
8
1
62
256
6
ByLayer
370
13
48
1
60
0
100
AcDbSpline
70
4
71
3
72
8
73
4
40
0
40
0
40
0
40
0
40
1
40
1
40
1
40
1
41
1
10
24.9480375085945
20
-4.49657472132799
30
0
41
1
10
24.9406822121479
20
-4.48722240841215
30
0
41
1
10
24.9332278664848
20
-4.47797388408509
30
0
41
1
10
24.9256635776615
20
-4.46887911270252
30
0
0
SPLINE
5
22C
100
AcDbEntity
8
1
62
256
6
ByLayer
370
13
48
1
60
0
100
AcDbSpline
70
4
71
3
72
16
73
12
40
0
40
0
40
0
40
0
40
0.0002204728141812
40
0.0002204728141812
40
0.28207049074326
40
0.28207049074326
40
0.563941110555105
40
0.563941110555105
40
0.999779527185927
40
0.999779527185927
40
1
40
1
40
1
40
1
41
1
10
23.2289221872925
20
-4.70654810788878
30
0
41
1
10
23.2289414547825
20
-4.70654369022256
30
0
41
1
10
23.2289607223292
20
-4.70653927287094
30
0
41
1
10
23.2536114636835
20
-4.70088751905013
30
0
41
1
10
23.2783272225084
20
-4.69520974468415
30
0
41
1
10
23.327843685161
20
-4.68372948708819
30
0
41
1
10
23.352629159667
20
-4.6778065022055
30
0
41
1
10
23.4159850762818
20
-4.66361412495715
30
0
41
1
10
23.4548717009099
20
-4.65629674530007
30
0
41
1
10
23.4939373139163
20
-4.65030894948731
30
0
41
1
10
23.4939570830919
20
-4.65030591968616
30
0
41
1
10
23.4939768523292
20
-4.65030289028772
30
0
0
SPLINE
5
22D
100
AcDbEntity
8
1
62
256
6
ByLayer
370
13
48
1
60
0
100
AcDbSpline
70
4
71
3
72
16
73
12
40
0
40
0
40
0
40
0
40
0.0002204728141812
40
0.0002204728141812
40
0.28207049074326
40
0.28207049074326
40
0.563941110555105
40
0.563941110555105
40
0.999779527185927
40
0.999779527185927
40
1
40
1
40
1
40
1
41
1
10
23.2289221872925
20
-5.29345189211094
30
0
41
1
10
23.2289414547824
20
-5.2934563096307
30
0
41
1
10
23.2289607223292
20
-5.29346072712877
30
0
41
1
10
23.2536114636835
20
-5.29911248094959
30
0
41
1
10
23.2783272225084
20
-5.30479025531557
30
0
41
1
10
23.327843685161
20
-5.31627051291153
30
0
41
1
10
23.352629159667
20
-5.32219349779422
30
0
41
1
10
23.4159850762818
20
-5.33638587504257
30
0
41
1
10
23.4548717009099
20
-5.34370325469965
30
0
41
1
10
23.4939373139163
20
-5.3496910505124
30
0
41
1
10
23.4939570831494
20
-5.34969407993881
30
0
41
1
10
23.4939768523292
20
-5.349697109712
30
0
0
SPLINE
5
22E
100
AcDbEntity
8
1
62
256
6
ByLayer
370
18
48
1
60
0
100
AcDbSpline
70
4
71
3
72
18
73
14
40
0
40
0
40
0
40
0
40
0.168337478582058
40
0.168337478582058
40
0.336016707803002
40
0.336016707803002
40
0.514139541127746
40
0.514139541127746
40
0.721961373423504
40
0.721961373423504
40
0.996262053137367
40
0.996262053137367
40
1
40
1
40
1
40
1
41
1
10
9.17091285007245
20
-3.24999999999952
30
0
41
1
10
9.17091285007245
20
-3.34762870633608
30
0
41
1
10
9.18103818586118
20
-3.44661744069631
30
0
41
1
10
9.21875888808225
20
-3.6298782244761
30
0
41
1
10
9.24669228729891
20
-3.71664133353201
30
0
41
1
10
9.31700134550874
20
-3.87478008452388
30
0
41
1
10
9.36092578491662
20
-3.94684283668005
30
0
41
1
10
9.46511727369492
20
-4.07674355348686
30
0
41
1
10
9.52808083125549
20
-4.13190503274828
30
0
41
1
10
9.67973022477497
20
-4.22318075281245
30
0
41
1
10
9.77259987168446
20
-4.2493019926753
30
0
41
1
10
9.86605702812855
20
-4.24999532977441
30
0
41
1
10
9.8673164398441
20
-4.24999999999952
30
0
41
1
10
9.86857574449778
20
-4.24999999999952
30
0
0
SPLINE
5
22F
100
AcDbEntity
8
1
62
256
6
ByLayer
370
18
48
1
60
0
100
AcDbSpline
70
4
71
3
72
10
73
6
40
0
40
0
40
0
40
0
40
0.756102769204547
40
0.756102769204547
40
1
40
1
40
1
40
1
41
1
10
16.5466320131342
20
-4.19999999999985
30
0
41
1
10
16.5335358577321
20
-4.19999999999985
30
0
41
1
10
16.5207202080259
20
-4.19999999999985
30
0
41
1
10
16.5042092102192
20
-4.19999999999985
30
0
41
1
10
16.5002140960562
20
-4.19999999999985
30
0
41
1
10
16.4962544185031
20
-4.19999999999985
30
0
0
SPLINE
5
230
100
AcDbEntity
8
1
62
256
6
ByLayer
370
18
48
1
60
0
100
AcDbSpline
70
4
71
3
72
14
73
10
40
0
40
0
40
0
40
0
40
0.209394252568555
40
0.209394252568555
40
0.418674140634421
40
0.418674140634421
40
0.627952529466336
40
0.627952529466336
40
1
40
1
40
1
40
1
41
1
10
22.4731203716814
20
-5.88244511361015
30
0
41
1
10
22.5313095888796
20
-5.88243843432352
30
0
41
1
10
22.5945415508062
20
-5.88302469360488
30
0
41
1
10
22.7284652768354
20
-5.88536000986755
30
0
41
1
10
22.7996116692105
20
-5.88711643831837
30
0
41
1
10
22.9473813033078
20
-5.89173514557623
30
0
41
1
10
23.0245105149097
20
-5.89461322492036
30
0
41
1
10
23.2423341909035
20
-5.90397718389937
30
0
41
1
10
23.3889070981155
20
-5.91166082683742
30
0
41
1
10
23.5337805434602
20
-5.92055979753769
30
0
0
SPLINE
5
231
100
AcDbEntity
8
1
62
256
6
ByLayer
370
18
48
1
60
0
100
AcDbSpline
70
4
71
3
72
14
73
10
40
0
40
0
40
0
40
0
40
0.209828521639199
40
0.209828521639199
40
0.4195901540272
40
0.4195901540272
40
0.628965113592846
40
0.628965113592846
40
1
40
1
40
1
40
1
41
1
10
23.5337805434613
20
-4.07944020246148
30
0
41
1
10
23.4514732695809
20
-4.08449599454911
30
0
41
1
10
23.3688292147962
20
-4.08915266772723
30
0
41
1
10
23.2062811533078
20
-4.09747259763728
30
0
41
1
10
23.1258208334326
20
-4.10116457373579
30
0
41
1
10
22.9699639724299
20
-4.10745366402747
30
0
41
1
10
22.8940252483449
20
-4.11007427929545
30
0
41
1
10
22.6941103545506
20
-4.1157168354371
30
0
41
1
10
22.5754747567342
20
-4.11756663520413
30
0
41
1
10
22.4731203716825
20
-4.11755488639037
30
0
0
SPLINE
5
232
100
AcDbEntity
8
1
62
256
6
ByLayer
370
18
48
1
60
0
100
AcDbSpline
70
4
71
3
72
8
73
4
40
0
40
0
40
0
40
0
40
1
40
1
40
1
40
1
41
1
10
24.1810768987951
20
-4.03780961044072
30
0
41
1
10
24.0667232362904
20
-4.04607476079039
30
0
41
1
10
23.9500733165824
20
-4.05386907600743
30
0
41
1
10
23.8337805434613
20
-4.0610124553769
30
0
0
SPLINE
5
233
100
AcDbEntity
8
1
62
256
6
ByLayer
370
18
48
1
60
0
100
AcDbSpline
70
4
71
3
72
10
73
6
40
0
40
0
40
0
40
0
40
0.575849552148122
40
0.575849552148122
40
1
40
1
40
1
40
1
41
1
10
16.4962544185031
20
-5.79999999999987
30
0
41
1
10
16.5055992325651
20
-5.79999999999987
30
0
41
1
10
16.5151434423376
20
-5.79999999999987
30
0
41
1
10
16.5320239080445
20
-5.79999999999987
30
0
41
1
10
16.5392832271312
20
-5.79999999999987
30
0
41
1
10
16.5466320131342
20
-5.79999999999987
30
0
0
SPLINE
5
234
100
AcDbEntity
8
1
62
256
6
ByLayer
370
18
48
1
60
0
100
AcDbSpline
70
4
71
3
72
8
73
4
40
0
40
0
40
0
40
0
40
1
40
1
40
1
40
1
41
1
10
23.8337805434613
20
-5.93898754462282
30
0
41
1
10
23.9500733165824
20
-5.94613092399228
30
0
41
1
10
24.0667232362904
20
-5.95392523920933
30
0
41
1
10
24.1810768987951
20
-5.962190389559
30
0
0
SPLINE
5
235
100
AcDbEntity
8
1
62
256
6
ByLayer
370
18
48
1
60
0
100
AcDbSpline
70
4
71
3
72
16
73
12
40
0
40
0
40
0
40
0
40
0.211440290976243
40
0.211440290976243
40
0.422896736694443
40
0.422896736694443
40
0.633935131411306
40
0.633935131411306
40
0.842399597812144
40
0.842399597812144
40
1
40
1
40
1
40
1
41
1
10
25.0019409516835
20
-4.25324033365621
30
0
41
1
10
25.002182812152
20
-4.22464626339405
30
0
41
1
10
24.997509865013
20
-4.19565922963528
30
0
41
1
10
24.9791355265766
20
-4.1416931201706
30
0
41
1
10
24.9651770288146
20
-4.1159643957908
30
0
41
1
10
24.9300123990849
20
-4.07138342313874
30
0
41
1
10
24.9083234948748
20
-4.05189541000308
30
0
41
1
10
24.8605708510196
20
-4.02207904630097
30
0
41
1
10
24.8338898983738
20
-4.01122939815545
30
0
41
1
10
24.7856899076455
20
-4.0008716424995
30
0
41
1
10
24.7640691721776
20
-3.99915291544173
30
0
41
1
10
24.7427579923014
20
-4.00030093989866
30
0
0
SPLINE
5
236
100
AcDbEntity
8
1
62
256
6
ByLayer
370
18
48
1
60
0
100
AcDbSpline
70
4
71
3
72
16
73
12
40
0
40
0
40
0
40
0
40
0.203363754276493
40
0.203363754276493
40
0.40658604208921
40
0.40658604208921
40
0.611967971554986
40
0.611967971554986
40
0.82073821984358
40
0.82073821984358
40
1
40
1
40
1
40
1
41
1
10
24.7427579923014
20
-5.99969906010105
30
0
41
1
10
24.7700970081209
20
-6.00117180159032
30
0
41
1
10
24.7980262240332
20
-5.99787801301378
30
0
41
1
10
24.8504076479783
20
-5.98241107536435
30
0
41
1
10
24.8755789022368
20
-5.97003831328385
30
0
41
1
10
24.9201132665787
20
-5.937977331881
30
0
41
1
10
24.9400202557989
20
-5.91778225268516
30
0
41
1
10
24.9720355922843
20
-5.87219500835997
30
0
41
1
10
24.9844520380369
20
-5.84610043277851
30
0
41
1
10
24.9988187436013
20
-5.7956736887767
30
0
41
1
10
25.0021467885115
20
-5.77109482437768
30
0
41
1
10
25.0019409516835
20
-5.74675966634351
30
0
0
LINE
5
70
100
AcDbEntity
8
80
62
256
6
ByLayer
370
18
48
1
60
0
100
AcDbLine
10
0
20
0
30
0
11
-5
21
0
31
0
39
0
210
0
220
0
230
1
0
LINE
5
71
100
AcDbEntity
8
81
62
256
6
ByLayer
370
18
48
1
60
0
100
AcDbLine
10
25
20
-6
30
0
11
30
21
-6
31
0
39
0
210
0
220
0
230
1
0
LINE
5
72
100
AcDbEntity
8
SK1
62
256
6
ByLayer
370
13
48
1
60
0
100
AcDbLine
10
-0.8
20
6
30
0
11
-0.8
21
-5.75
31
0
39
0
210
0
220
0
230
1
0
LINE
5
74
100
AcDbEntity
8
1
62
256
6
ByLayer
370
13
48
1
60
0
100
AcDbLine
10
16.290738
20
-5.75
30
0
11
16.290738
21
-4.25
31
0
39
0
210
0
220
0
230
1
0
LINE
5
76
100
AcDbEntity
8
1
62
256
6
ByLayer
370
13
48
1
60
0
100
AcDbLine
10
7.9
20
-3.25
30
0
11
7.9
21
3.609865
31
0
39
0
210
0
220
0
230
1
0
LINE
5
77
100
AcDbEntity
8
1
62
256
6
ByLayer
370
13
48
1
60
0
100
AcDbLine
10
11.290738
20
-4.25
30
0
11
11.290738
21
-5.75
31
0
39
0
210
0
220
0
230
1
0
LINE
5
78
100
AcDbEntity
8
1
62
256
6
ByLayer
370
13
48
1
60
0
100
AcDbLine
10
7.9
20
-4.25
30
0
11
7.9
21
-3.25
31
0
39
0
210
0
220
0
230
1
0
LINE
5
79
100
AcDbEntity
8
1
62
256
6
ByLayer
370
13
48
1
60
0
100
AcDbLine
10
1.7
20
-3.25
30
0
11
7.9
21
-3.25
31
0
39
0
210
0
220
0
230
1
0
LINE
5
7A
100
AcDbEntity
8
1
62
256
6
ByLayer
370
13
48
1
60
0
100
AcDbLine
10
9.170913
20
-3.25
30
0
11
7.9
21
-3.25
31
0
39
0
210
0
220
0
230
1
0
LINE
5
7B
100
AcDbEntity
8
1
62
256
6
ByLayer
370
13
48
1
60
0
100
AcDbLine
10
14.538643
20
-3.25
30
0
11
9.170913
21
-3.25
31
0
39
0
210
0
220
0
230
1
0
LINE
5
7C
100
AcDbEntity
8
1
62
256
6
ByLayer
370
18
48
1
60
0
100
AcDbLine
10
11.290738
20
-5.75
30
0
11
0
21
-5.75
31
0
39
0
210
0
220
0
230
1
0
LINE
5
7D
100
AcDbEntity
8
1
62
256
6
ByLayer
370
18
48
1
60
0
100
AcDbLine
10
1.7
20
6
30
0
11
0
21
6
31
0
39
0
210
0
220
0
230
1
0
LINE
5
7E
100
AcDbEntity
8
1
62
256
6
ByLayer
370
18
48
1
60
0
100
AcDbLine
10
20.415611
20
-4.25
30
0
11
16.290738
21
-4.25
31
0
39
0
210
0
220
0
230
1
0
LINE
5
7F
100
AcDbEntity
8
1
62
256
6
ByLayer
370
18
48
1
60
0
100
AcDbLine
10
20.415611
20
-5.75
30
0
11
20.415611
21
-5.313058
31
0
39
0
210
0
220
0
230
1
0
LINE
5
80
100
AcDbEntity
8
1
62
256
6
ByLayer
370
18
48
1
60
0
100
AcDbLine
10
20.415611
20
-5.75
30
0
11
16.290738
21
-5.75
31
0
39
0
210
0
220
0
230
1
0
LINE
5
81
100
AcDbEntity
8
1
62
256
6
ByLayer
370
18
48
1
60
0
100
AcDbLine
10
2.7
20
6
30
0
11
7.9
21
3.609865
31
0
39
0
210
0
220
0
230
1
0
LINE
5
82
100
AcDbEntity
8
1
62
256
6
ByLayer
370
18
48
1
60
0
100
AcDbLine
10
0
20
-5.75
30
0
11
0
21
6
31
0
39
0
210
0
220
0
230
1
0
LINE
5
83
100
AcDbEntity
8
1
62
256
6
ByLayer
370
18
48
1
60
0
100
AcDbLine
10
20.415611
20
-4.686942
30
0
11
20.415611
21
-4.25
31
0
39
0
210
0
220
0
230
1
0
LINE
5
84
100
AcDbEntity
8
1
62
256
6
ByLayer
370
18
48
1
60
0
100
AcDbLine
10
-0.1
20
-5.75
30
0
11
-0.1
21
6
31
0
39
0
210
0
220
0
230
1
0
LINE
5
85
100
AcDbEntity
8
1
62
256
6
ByLayer
370
18
48
1
60
0
100
AcDbLine
10
16.290738
20
-4.25
30
0
11
11.290738
21
-4.25
31
0
39
0
210
0
220
0
230
1
0
LINE
5
86
100
AcDbEntity
8
1
62
256
6
ByLayer
370
18
48
1
60
0
100
AcDbLine
10
16.290738
20
-5.75
30
0
11
11.290738
21
-5.75
31
0
39
0
210
0
220
0
230
1
0
LINE
5
87
100
AcDbEntity
8
1
62
256
6
ByLayer
370
18
48
1
60
0
100
AcDbLine
10
-0.1
20
6
30
0
11
0
21
6
31
0
39
0
210
0
220
0
230
1
0
LINE
5
88
100
AcDbEntity
8
1
62
256
6
ByLayer
370
18
48
1
60
0
100
AcDbLine
10
9.170913
20
3.025701
30
0
11
14.538643
21
0.558471
31
0
39
0
210
0
220
0
230
1
0
LINE
5
89
100
AcDbEntity
8
1
62
256
6
ByLayer
370
18
48
1
60
0
100
AcDbLine
10
1.7
20
6
30
0
11
1.7
21
-3.25
31
0
39
0
210
0
220
0
230
1
0
LINE
5
8A
100
AcDbEntity
8
1
62
256
6
ByLayer
370
18
48
1
60
0
100
AcDbLine
10
0
20
-5.75
30
0
11
-0.1
21
-5.75
31
0
39
0
210
0
220
0
230
1
0
LINE
5
8B
100
AcDbEntity
8
1
62
256
6
ByLayer
370
18
48
1
60
0
100
AcDbLine
10
7.9
20
3.609865
30
0
11
9.170913
21
3.025701
31
0
39
0
210
0
220
0
230
1
0
LINE
5
8C
100
AcDbEntity
8
1
62
256
6
ByLayer
370
18
48
1
60
0
100
AcDbLine
10
9.170913
20
3.025701
30
0
11
9.170913
21
-3.25
31
0
39
0
210
0
220
0
230
1
0
LINE
5
8D
100
AcDbEntity
8
1
62
256
6
ByLayer
370
18
48
1
60
0
100
AcDbLine
10
14.538643
20
-3.25
30
0
11
14.538643
21
0.558471
31
0
39
0
210
0
220
0
230
1
0
LINE
5
8E
100
AcDbEntity
8
1
62
256
6
ByLayer
370
18
48
1
60
0
100
AcDbLine
10
1.7
20
6
30
0
11
2.7
21
6
31
0
39
0
210
0
220
0
230
1
0
LINE
5
8F
100
AcDbEntity
8
1
62
256
6
ByLayer
370
18
48
1
60
0
100
AcDbLine
10
11.290738
20
-4.25
30
0
11
2.7
21
-4.25
31
0
39
0
210
0
220
0
230
1
0
LINE
5
90
100
AcDbEntity
8
SK1
62
256
6
ByLayer
370
18
48
1
60
0
100
AcDbLine
10
-45
20
-3.942378
30
0
11
-45
21
6
31
0
39
0
210
0
220
0
230
1
0
LINE
5
91
100
AcDbEntity
8
SK1
62
256
6
ByLayer
370
18
48
1
60
0
100
AcDbLine
10
-0.1
20
-5.75
30
0
11
-0.8
21
-5.75
31
0
39
0
210
0
220
0
230
1
0
LINE
5
92
100
AcDbEntity
8
SK1
62
256
6
ByLayer
370
18
48
1
60
0
100
AcDbLine
10
-0.8
20
-5.75
30
0
11
-1
21
-5.75
31
0
39
0
210
0
220
0
230
1
0
LINE
5
93
100
AcDbEntity
8
SK1
62
256
6
ByLayer
370
18
48
1
60
0
100
AcDbLine
10
-0.8
20
6
30
0
11
-0.1
21
6
31
0
39
0
210
0
220
0
230
1
0
LINE
5
94
100
AcDbEntity
8
SK1
62
256
6
ByLayer
370
18
48
1
60
0
100
AcDbLine
10
-43
20
-5.925
30
0
11
-45
21
-3.942378
31
0
39
0
210
0
220
0
230
1
0
LINE
5
95
100
AcDbEntity
8
SK1
62
256
6
ByLayer
370
18
48
1
60
0
100
AcDbLine
10
-45
20
6
30
0
11
-0.8
21
6
31
0
39
0
210
0
220
0
230
1
0
LINE
5
96
100
AcDbEntity
8
SK1
62
256
6
ByLayer
370
18
48
1
60
0
100
AcDbLine
10
-43
20
-5.925
30
0
11
-1.565133
21
-5.925
31
0
39
0
210
0
220
0
230
1
0
LINE
5
97
100
AcDbEntity
8
SK1
62
256
6
ByLayer
370
18
48
1
60
0
100
AcDbLine
10
-0.1
20
-5.75
30
0
11
-0.1
21
6
31
0
39
0
210
0
220
0
230
1
0
LINE
5
98
100
AcDbEntity
8
1
62
256
6
ByLayer
370
13
48
1
60
0
100
AcDbLine
10
20.40692
20
-5.197335
30
0
11
20.552289
21
-5.197335
31
0
39
0
210
0
220
0
230
1
0
LINE
5
99
100
AcDbEntity
8
1
62
256
6
ByLayer
370
13
48
1
60
0
100
AcDbLine
10
16.326482
20
-4.2
30
0
11
16.297265
21
-4.250004
31
0
39
0
210
0
220
0
230
1
0
LINE
5
9A
100
AcDbEntity
8
1
62
256
6
ByLayer
370
13
48
1
60
0
100
AcDbLine
10
16.326482
20
-5.8
30
0
11
16.297265
21
-5.749996
31
0
39
0
210
0
220
0
230
1
0
LINE
5
9B
100
AcDbEntity
8
1
62
256
6
ByLayer
370
13
48
1
60
0
100
AcDbLine
10
15.665685
20
-4.250008
30
0
11
15.665685
21
-4.2
31
0
39
0
210
0
220
0
230
1
0
LINE
5
9C
100
AcDbEntity
8
1
62
256
6
ByLayer
370
13
48
1
60
0
100
AcDbLine
10
11.290738
20
-4.25
30
0
11
11.290738
21
-5.75
31
0
39
0
210
0
220
0
230
1
0
LINE
5
9D
100
AcDbEntity
8
1
62
256
6
ByLayer
370
13
48
1
60
0
100
AcDbLine
10
16.290738
20
-5.75
30
0
11
16.290738
21
-4.25
31
0
39
0
210
0
220
0
230
1
0
LINE
5
9E
100
AcDbEntity
8
1
62
256
6
ByLayer
370
13
48
1
60
0
100
AcDbLine
10
-0.8
20
6
30
0
11
-0.8
21
-5.75
31
0
39
0
210
0
220
0
230
1
0
LINE
5
9F
100
AcDbEntity
8
1
62
256
6
ByLayer
370
13
48
1
60
0
100
AcDbLine
10
7.9
20
-3.25
30
0
11
7.9
21
3.609865
31
0
39
0
210
0
220
0
230
1
0
LINE
5
A0
100
AcDbEntity
8
1
62
256
6
ByLayer
370
13
48
1
60
0
100
AcDbLine
10
1.7
20
-3.25
30
0
11
7.9
21
-3.25
31
0
39
0
210
0
220
0
230
1
0
LINE
5
A1
100
AcDbEntity
8
1
62
256
6
ByLayer
370
13
48
1
60
0
100
AcDbLine
10
7.9
20
-4.25
30
0
11
7.9
21
-3.25
31
0
39
0
210
0
220
0
230
1
0
LINE
5
A2
100
AcDbEntity
8
1
62
256
6
ByLayer
370
13
48
1
60
0
100
AcDbLine
10
9.170913
20
-3.25
30
0
11
7.9
21
-3.25
31
0
39
0
210
0
220
0
230
1
0
LINE
5
A3
100
AcDbEntity
8
1
62
256
6
ByLayer
370
13
48
1
60
0
100
AcDbLine
10
14.538643
20
-3.25
30
0
11
9.170913
21
-3.25
31
0
39
0
210
0
220
0
230
1
0
LINE
5
A4
100
AcDbEntity
8
1
62
256
6
ByLayer
370
13
48
1
60
0
100
AcDbLine
10
22.165017
20
-4.125199
30
0
11
22.152761
21
-4.300476
31
0
39
0
210
0
220
0
230
1
0
LINE
5
A5
100
AcDbEntity
8
1
62
256
6
ByLayer
370
13
48
1
60
0
100
AcDbLine
10
22.152761
20
-4.300476
30
0
11
22.068752
21
-4.304612
31
0
39
0
210
0
220
0
230
1
0
LINE
5
A6
100
AcDbEntity
8
1
62
256
6
ByLayer
370
13
48
1
60
0
100
AcDbLine
10
21.709679
20
-4.323938
30
0
11
21.709679
21
-4.2
31
0
39
0
210
0
220
0
230
1
0
LINE
5
A7
100
AcDbEntity
8
1
62
256
6
ByLayer
370
13
48
1
60
0
100
AcDbLine
10
21.709679
20
-5.8
30
0
11
21.709679
21
-5.676062
31
0
39
0
210
0
220
0
230
1
0
LINE
5
A8
100
AcDbEntity
8
1
62
256
6
ByLayer
370
13
48
1
60
0
100
AcDbLine
10
22.068752
20
-5.695388
30
0
11
22.152761
21
-5.699524
31
0
39
0
210
0
220
0
230
1
0
LINE
5
A9
100
AcDbEntity
8
1
62
256
6
ByLayer
370
13
48
1
60
0
100
AcDbLine
10
22.165017
20
-5.874801
30
0
11
22.152761
21
-5.699524
31
0
39
0
210
0
220
0
230
1
0
LINE
5
AA
100
AcDbEntity
8
1
62
256
6
ByLayer
370
13
48
1
60
0
100
AcDbLine
10
22.082448
20
-4.582767
30
0
11
22.068752
21
-4.304612
31
0
39
0
210
0
220
0
230
1
0
LINE
5
AB
100
AcDbEntity
8
1
62
256
6
ByLayer
370
13
48
1
60
0
100
AcDbLine
10
22.068752
20
-5.695388
30
0
11
22.082448
21
-5.417233
31
0
39
0
210
0
220
0
230
1
0
LINE
5
AC
100
AcDbEntity
8
1
62
256
6
ByLayer
370
13
48
1
60
0
100
AcDbLine
10
22.177886
20
-4.582767
30
0
11
22.082448
21
-4.582767
31
0
39
0
210
0
220
0
230
1
0
LINE
5
AD
100
AcDbEntity
8
1
62
256
6
ByLayer
370
13
48
1
60
0
100
AcDbLine
10
22.177886
20
-5.417233
30
0
11
22.082448
21
-5.417233
31
0
39
0
210
0
220
0
230
1
0
LINE
5
AE
100
AcDbEntity
8
1
62
256
6
ByLayer
370
13
48
1
60
0
100
AcDbLine
10
22.47312
20
-5.63848
30
0
11
22.47312
21
-5.882445
31
0
39
0
210
0
220
0
230
1
0
LINE
5
AF
100
AcDbEntity
8
1
62
256
6
ByLayer
370
13
48
1
60
0
100
AcDbLine
10
23.533781
20
-5.864039
30
0
11
23.533781
21
-5.92056
31
0
39
0
210
0
220
0
230
1
0
LINE
5
B0
100
AcDbEntity
8
1
62
256
6
ByLayer
370
13
48
1
60
0
100
AcDbLine
10
23.533781
20
-4.135961
30
0
11
23.533781
21
-4.07944
31
0
39
0
210
0
220
0
230
1
0
LINE
5
B1
100
AcDbEntity
8
1
62
256
6
ByLayer
370
13
48
1
60
0
100
AcDbLine
10
22.47312
20
-4.36152
30
0
11
22.47312
21
-4.117555
31
0
39
0
210
0
220
0
230
1
0
LINE
5
B2
100
AcDbEntity
8
1
62
256
6
ByLayer
370
13
48
1
60
0
100
AcDbLine
10
22.364634
20
-4.315291
30
0
11
22.152761
21
-4.300476
31
0
39
0
210
0
220
0
230
1
0
LINE
5
B3
100
AcDbEntity
8
1
62
256
6
ByLayer
370
13
48
1
60
0
100
AcDbLine
10
22.364634
20
-4.315291
30
0
11
22.378462
21
-4.117544
31
0
39
0
210
0
220
0
230
1
0
LINE
5
B4
100
AcDbEntity
8
1
62
256
6
ByLayer
370
13
48
1
60
0
100
AcDbLine
10
22.364634
20
-5.684709
30
0
11
22.378462
21
-5.882456
31
0
39
0
210
0
220
0
230
1
0
LINE
5
B5
100
AcDbEntity
8
1
62
256
6
ByLayer
370
13
48
1
60
0
100
AcDbLine
10
22.152761
20
-5.699524
30
0
11
22.364634
21
-5.684709
31
0
39
0
210
0
220
0
230
1
0
LINE
5
B6
100
AcDbEntity
8
1
62
256
6
ByLayer
370
13
48
1
60
0
100
AcDbLine
10
22.166456
20
-4.578631
30
0
11
22.152761
21
-4.300476
31
0
39
0
210
0
220
0
230
1
0
LINE
5
B7
100
AcDbEntity
8
1
62
256
6
ByLayer
370
13
48
1
60
0
100
AcDbLine
10
22.152761
20
-5.699524
30
0
11
22.166456
21
-5.421369
31
0
39
0
210
0
220
0
230
1
0
LINE
5
B8
100
AcDbEntity
8
1
62
256
6
ByLayer
370
13
48
1
60
0
100
AcDbLine
10
21.709679
20
-4.323938
30
0
11
21.658376
21
-4.323938
31
0
39
0
210
0
220
0
230
1
0
LINE
5
B9
100
AcDbEntity
8
1
62
256
6
ByLayer
370
13
48
1
60
0
100
AcDbLine
10
21.709679
20
-5.676062
30
0
11
21.658376
21
-5.676062
31
0
39
0
210
0
220
0
230
1
0
LINE
5
BA
100
AcDbEntity
8
1
62
256
6
ByLayer
370
13
48
1
60
0
100
AcDbLine
10
22.166456
20
-5.421369
30
0
11
22.082448
21
-5.417233
31
0
39
0
210
0
220
0
230
1
0
LINE
5
BB
100
AcDbEntity
8
1
62
256
6
ByLayer
370
13
48
1
60
0
100
AcDbLine
10
22.082448
20
-4.582767
30
0
11
22.166456
21
-4.578631
31
0
39
0
210
0
220
0
230
1
0
LINE
5
BC
100
AcDbEntity
8
1
62
256
6
ByLayer
370
13
48
1
60
0
100
AcDbLine
10
21.658376
20
-5.676062
30
0
11
21.658376
21
-5.8
31
0
39
0
210
0
220
0
230
1
0
LINE
5
BD
100
AcDbEntity
8
1
62
256
6
ByLayer
370
13
48
1
60
0
100
AcDbLine
10
21.658376
20
-4.2
30
0
11
21.658376
21
-4.323938
31
0
39
0
210
0
220
0
230
1
0
LINE
5
BE
100
AcDbEntity
8
1
62
256
6
ByLayer
370
13
48
1
60
0
100
AcDbLine
10
20.787198
20
-5.8
30
0
11
20.787198
21
-5.725438
31
0
39
0
210
0
220
0
230
1
0
LINE
5
BF
100
AcDbEntity
8
1
62
256
6
ByLayer
370
13
48
1
60
0
100
AcDbLine
10
20.787198
20
-4.274562
30
0
11
20.787198
21
-4.2
31
0
39
0
210
0
220
0
230
1
0
LINE
5
C0
100
AcDbEntity
8
1
62
256
6
ByLayer
370
13
48
1
60
0
100
AcDbLine
10
22.376063
20
-4.319428
30
0
11
22.364634
21
-4.315291
31
0
39
0
210
0
220
0
230
1
0
LINE
5
C1
100
AcDbEntity
8
1
62
256
6
ByLayer
370
13
48
1
60
0
100
AcDbLine
10
22.364634
20
-5.684709
30
0
11
22.376063
21
-5.680572
31
0
39
0
210
0
220
0
230
1
0
LINE
5
C2
100
AcDbEntity
8
1
62
256
6
ByLayer
370
13
48
1
60
0
100
AcDbLine
10
22.166456
20
-4.578631
30
0
11
22.177886
21
-4.582767
31
0
39
0
210
0
220
0
230
1
0
LINE
5
C3
100
AcDbEntity
8
1
62
256
6
ByLayer
370
13
48
1
60
0
100
AcDbLine
10
22.177886
20
-5.417233
30
0
11
22.166456
21
-5.421369
31
0
39
0
210
0
220
0
230
1
0
LINE
5
C4
100
AcDbEntity
8
1
62
256
6
ByLayer
370
13
48
1
60
0
100
AcDbLine
10
20.787198
20
-4.274562
30
0
11
20.711215
21
-4.274562
31
0
39
0
210
0
220
0
230
1
0
LINE
5
C5
100
AcDbEntity
8
1
62
256
6
ByLayer
370
13
48
1
60
0
100
AcDbLine
10
23.228922
20
-4.706548
30
0
11
23.228922
21
-5
31
0
39
0
210
0
220
0
230
1
0
LINE
5
C6
100
AcDbEntity
8
1
62
256
6
ByLayer
370
13
48
1
60
0
100
AcDbLine
10
23.228922
20
-5.293452
30
0
11
23.228922
21
-5
31
0
39
0
210
0
220
0
230
1
0
LINE
5
C7
100
AcDbEntity
8
1
62
256
6
ByLayer
370
13
48
1
60
0
100
AcDbLine
10
20.787198
20
-5.725438
30
0
11
20.711215
21
-5.725438
31
0
39
0
210
0
220
0
230
1
0
LINE
5
C8
100
AcDbEntity
8
1
62
256
6
ByLayer
370
13
48
1
60
0
100
AcDbLine
10
20.711215
20
-5.725438
30
0
11
20.711215
21
-5.8
31
0
39
0
210
0
220
0
230
1
0
LINE
5
C9
100
AcDbEntity
8
1
62
256
6
ByLayer
370
13
48
1
60
0
100
AcDbLine
10
20.711215
20
-4.2
30
0
11
20.711215
21
-4.274562
31
0
39
0
210
0
220
0
230
1
0
LINE
5
CA
100
AcDbEntity
8
1
62
256
6
ByLayer
370
13
48
1
60
0
100
AcDbLine
10
20.718332
20
-5.675984
30
0
11
20.432668
21
-5.675984
31
0
39
0
210
0
220
0
230
1
0
LINE
5
CB
100
AcDbEntity
8
1
62
256
6
ByLayer
370
13
48
1
60
0
100
AcDbLine
10
20.432668
20
-5.675984
30
0
11
20.469454
21
-5.367998
31
0
39
0
210
0
220
0
230
1
0
LINE
5
CC
100
AcDbEntity
8
1
62
256
6
ByLayer
370
13
48
1
60
0
100
AcDbLine
10
20.469454
20
-5.367998
30
0
11
20.850614
21
-5.367998
31
0
39
0
210
0
220
0
230
1
0
LINE
5
CD
100
AcDbEntity
8
1
62
256
6
ByLayer
370
13
48
1
60
0
100
AcDbLine
10
20.469454
20
-4.632002
30
0
11
20.850614
21
-4.632002
31
0
39
0
210
0
220
0
230
1
0
LINE
5
CE
100
AcDbEntity
8
1
62
256
6
ByLayer
370
13
48
1
60
0
100
AcDbLine
10
20.432668
20
-4.324016
30
0
11
20.469454
21
-4.632002
31
0
39
0
210
0
220
0
230
1
0
LINE
5
CF
100
AcDbEntity
8
1
62
256
6
ByLayer
370
13
48
1
60
0
100
AcDbLine
10
20.718332
20
-4.324016
30
0
11
20.432668
21
-4.324016
31
0
39
0
210
0
220
0
230
1
0
LINE
5
D0
100
AcDbEntity
8
1
62
256
6
ByLayer
370
13
48
1
60
0
100
AcDbLine
10
20.506367
20
-4.748976
30
0
11
20.948791
21
-4.748976
31
0
39
0
210
0
220
0
230
1
0
LINE
5
D1
100
AcDbEntity
8
1
62
256
6
ByLayer
370
13
48
1
60
0
100
AcDbLine
10
20.506367
20
-5.251024
30
0
11
20.948791
21
-5.251024
31
0
39
0
210
0
220
0
230
1
0
LINE
5
D2
100
AcDbEntity
8
1
62
256
6
ByLayer
370
13
48
1
60
0
100
AcDbLine
10
20.4298
20
-5.725438
30
0
11
20.711215
21
-5.725438
31
0
39
0
210
0
220
0
230
1
0
LINE
5
D3
100
AcDbEntity
8
1
62
256
6
ByLayer
370
13
48
1
60
0
100
AcDbLine
10
20.549075
20
-5.200756
30
0
11
21.073158
21
-5.200756
31
0
39
0
210
0
220
0
230
1
0
LINE
5
D4
100
AcDbEntity
8
1
62
256
6
ByLayer
370
13
48
1
60
0
100
AcDbLine
10
20.549075
20
-4.799244
30
0
11
21.073158
21
-4.799244
31
0
39
0
210
0
220
0
230
1
0
LINE
5
D5
100
AcDbEntity
8
1
62
256
6
ByLayer
370
13
48
1
60
0
100
AcDbLine
10
20.4298
20
-4.274562
30
0
11
20.711215
21
-4.274562
31
0
39
0
210
0
220
0
230
1
0
LINE
5
D6
100
AcDbEntity
8
1
62
256
6
ByLayer
370
13
48
1
60
0
100
AcDbLine
10
20.4298
20
-4.2
30
0
11
20.4298
21
-4.274562
31
0
39
0
210
0
220
0
230
1
0
LINE
5
D7
100
AcDbEntity
8
1
62
256
6
ByLayer
370
13
48
1
60
0
100
AcDbLine
10
20.4298
20
-5.8
30
0
11
20.4298
21
-5.725438
31
0
39
0
210
0
220
0
230
1
0
LINE
5
D8
100
AcDbEntity
8
1
62
256
6
ByLayer
370
13
48
1
60
0
100
AcDbLine
10
25.000117
20
-4.468879
30
0
11
24.925664
21
-4.468879
31
0
39
0
210
0
220
0
230
1
0
LINE
5
D9
100
AcDbEntity
8
1
62
256
6
ByLayer
370
13
48
1
60
0
100
AcDbLine
10
24.610516
20
-4.206546
30
0
11
24.610516
21
-4.007425
31
0
39
0
210
0
220
0
230
1
0
LINE
5
DA
100
AcDbEntity
8
1
62
256
6
ByLayer
370
13
48
1
60
0
100
AcDbLine
10
24.610516
20
-5.793454
30
0
11
24.610516
21
-5.992575
31
0
39
0
210
0
220
0
230
1
0
LINE
5
DB
100
AcDbEntity
8
1
62
256
6
ByLayer
370
13
48
1
60
0
100
AcDbLine
10
25.000117
20
-5.531121
30
0
11
24.925664
21
-5.531121
31
0
39
0
210
0
220
0
230
1
0
LINE
5
DC
100
AcDbEntity
8
1
62
256
6
ByLayer
370
13
48
1
60
0
100
AcDbLine
10
24.53976
20
-5.988115
30
0
11
24.53976
21
-5.843853
31
0
39
0
210
0
220
0
230
1
0
LINE
5
DD
100
AcDbEntity
8
1
62
256
6
ByLayer
370
13
48
1
60
0
100
AcDbLine
10
20.552289
20
-5.197335
30
0
11
21.081712
21
-5.197335
31
0
39
0
210
0
220
0
230
1
0
LINE
5
DE
100
AcDbEntity
8
1
62
256
6
ByLayer
370
13
48
1
60
0
100
AcDbLine
10
24.181077
20
-5.874816
30
0
11
24.181077
21
-5.96219
31
0
39
0
210
0
220
0
230
1
0
LINE
5
DF
100
AcDbEntity
8
1
62
256
6
ByLayer
370
13
48
1
60
0
100
AcDbLine
10
20.552289
20
-4.802665
30
0
11
21.081712
21
-4.802665
31
0
39
0
210
0
220
0
230
1
0
LINE
5
E0
100
AcDbEntity
8
1
62
256
6
ByLayer
370
13
48
1
60
0
100
AcDbLine
10
24.53976
20
-4.011885
30
0
11
24.53976
21
-4.156147
31
0
39
0
210
0
220
0
230
1
0
LINE
5
E1
100
AcDbEntity
8
1
62
256
6
ByLayer
370
13
48
1
60
0
100
AcDbLine
10
24.181077
20
-4.125184
30
0
11
24.181077
21
-4.03781
31
0
39
0
210
0
220
0
230
1
0
LINE
5
E2
100
AcDbEntity
8
1
62
256
6
ByLayer
370
13
48
1
60
0
100
AcDbLine
10
20.549075
20
-5.200756
30
0
11
20.552289
21
-5.197335
31
0
39
0
210
0
220
0
230
1
0
LINE
5
E3
100
AcDbEntity
8
1
62
256
6
ByLayer
370
13
48
1
60
0
100
AcDbLine
10
20.549075
20
-4.799244
30
0
11
20.552289
21
-4.802665
31
0
39
0
210
0
220
0
230
1
0
LINE
5
E4
100
AcDbEntity
8
1
62
256
6
ByLayer
370
13
48
1
60
0
100
AcDbLine
10
23.833781
20
-5.866762
30
0
11
23.833781
21
-5.938988
31
0
39
0
210
0
220
0
230
1
0
LINE
5
E5
100
AcDbEntity
8
1
62
256
6
ByLayer
370
13
48
1
60
0
100
AcDbLine
10
23.833781
20
-4.133238
30
0
11
23.833781
21
-4.061012
31
0
39
0
210
0
220
0
230
1
0
LINE
5
E6
100
AcDbEntity
8
1
62
256
6
ByLayer
370
13
48
1
60
0
100
AcDbLine
10
24.005243
20
-4.349334
30
0
11
23.993977
21
-4.646667
31
0
39
0
210
0
220
0
230
1
0
LINE
5
E7
100
AcDbEntity
8
1
62
256
6
ByLayer
370
13
48
1
60
0
100
AcDbLine
10
24.005243
20
-5.650666
30
0
11
23.993977
21
-5.353333
31
0
39
0
210
0
220
0
230
1
0
LINE
5
E8
100
AcDbEntity
8
1
62
256
6
ByLayer
370
13
48
1
60
0
100
AcDbLine
10
24.944165
20
-4.65526
30
0
11
24.997026
21
-4.65526
31
0
39
0
210
0
220
0
230
1
0
LINE
5
E9
100
AcDbEntity
8
1
62
256
6
ByLayer
370
13
48
1
60
0
100
AcDbLine
10
24.944165
20
-5.34474
30
0
11
24.997026
21
-5.34474
31
0
39
0
210
0
220
0
230
1
0
LINE
5
EA
100
AcDbEntity
8
1
62
256
6
ByLayer
370
13
48
1
60
0
100
AcDbLine
10
23.493977
20
-4.650303
30
0
11
23.43288
21
-4.344785
31
0
39
0
210
0
220
0
230
1
0
LINE
5
EB
100
AcDbEntity
8
1
62
256
6
ByLayer
370
13
48
1
60
0
100
AcDbLine
10
23.493977
20
-5.349697
30
0
11
23.43288
21
-5.655215
31
0
39
0
210
0
220
0
230
1
0
LINE
5
EC
100
AcDbEntity
8
1
62
256
6
ByLayer
370
13
48
1
60
0
100
AcDbLine
10
24.948038
20
-5.503425
30
0
11
25
21
-5.503425
31
0
39
0
210
0
220
0
230
1
0
LINE
5
ED
100
AcDbEntity
8
1
62
256
6
ByLayer
370
13
48
1
60
0
100
AcDbLine
10
24.997026
20
-5.34474
30
0
11
24.997026
21
-4.65526
31
0
39
0
210
0
220
0
230
1
0
LINE
5
EE
100
AcDbEntity
8
1
62
256
6
ByLayer
370
13
48
1
60
0
100
AcDbLine
10
24.948038
20
-4.496575
30
0
11
25
21
-4.496575
31
0
39
0
210
0
220
0
230
1
0
LINE
5
EF
100
AcDbEntity
8
1
62
256
6
ByLayer
370
13
48
1
60
0
100
AcDbLine
10
16.732227
20
-5.75
30
0
11
16.732227
21
-5.8
31
0
39
0
210
0
220
0
230
1
0
LINE
5
F0
100
AcDbEntity
8
1
62
256
6
ByLayer
370
13
48
1
60
0
100
AcDbLine
10
23.993977
20
-4.646667
30
0
11
23.993977
21
-5.353333
31
0
39
0
210
0
220
0
230
1
0
LINE
5
F1
100
AcDbEntity
8
1
62
256
6
ByLayer
370
13
48
1
60
0
100
AcDbLine
10
24.944165
20
-4.65526
30
0
11
24.944165
21
-5.34474
31
0
39
0
210
0
220
0
230
1
0
LINE
5
F2
100
AcDbEntity
8
1
62
256
6
ByLayer
370
13
48
1
60
0
100
AcDbLine
10
24.604082
20
-4.647871
30
0
11
24.604082
21
-5.352129
31
0
39
0
210
0
220
0
230
1
0
LINE
5
F3
100
AcDbEntity
8
1
62
256
6
ByLayer
370
13
48
1
60
0
100
AcDbLine
10
20.415562
20
-4.274562
30
0
11
20.4298
21
-4.274562
31
0
39
0
210
0
220
0
230
1
0
LINE
5
F4
100
AcDbEntity
8
1
62
256
6
ByLayer
370
13
48
1
60
0
100
AcDbLine
10
20.432668
20
-4.324016
30
0
11
20.41556
21
-4.324016
31
0
39
0
210
0
220
0
230
1
0
LINE
5
F5
100
AcDbEntity
8
1
62
256
6
ByLayer
370
13
48
1
60
0
100
AcDbLine
10
20.432668
20
-5.675984
30
0
11
20.41556
21
-5.675984
31
0
39
0
210
0
220
0
230
1
0
LINE
5
F6
100
AcDbEntity
8
1
62
256
6
ByLayer
370
13
48
1
60
0
100
AcDbLine
10
20.415562
20
-5.725438
30
0
11
20.4298
21
-5.725438
31
0
39
0
210
0
220
0
230
1
0
LINE
5
F7
100
AcDbEntity
8
1
62
256
6
ByLayer
370
13
48
1
60
0
100
AcDbLine
10
16.732227
20
-4.25
30
0
11
16.732227
21
-4.2
31
0
39
0
210
0
220
0
230
1
0
LINE
5
F8
100
AcDbEntity
8
1
62
256
6
ByLayer
370
13
48
1
60
0
100
AcDbLine
10
20.415577
20
-5.367998
30
0
11
20.469454
21
-5.367998
31
0
39
0
210
0
220
0
230
1
0
LINE
5
F9
100
AcDbEntity
8
1
62
256
6
ByLayer
370
13
48
1
60
0
100
AcDbLine
10
23.493977
20
-4.650303
30
0
11
23.493977
21
-5
31
0
39
0
210
0
220
0
230
1
0
LINE
5
FA
100
AcDbEntity
8
1
62
256
6
ByLayer
370
13
48
1
60
0
100
AcDbLine
10
20.415577
20
-4.632002
30
0
11
20.469454
21
-4.632002
31
0
39
0
210
0
220
0
230
1
0
LINE
5
FB
100
AcDbEntity
8
1
62
256
6
ByLayer
370
13
48
1
60
0
100
AcDbLine
10
20.410128
20
-4.748976
30
0
11
20.506367
21
-4.748976
31
0
39
0
210
0
220
0
230
1
0
LINE
5
FC
100
AcDbEntity
8
1
62
256
6
ByLayer
370
13
48
1
60
0
100
AcDbLine
10
23.493977
20
-5.349697
30
0
11
23.493977
21
-5
31
0
39
0
210
0
220
0
230
1
0
LINE
5
FD
100
AcDbEntity
8
1
62
256
6
ByLayer
370
13
48
1
60
0
100
AcDbLine
10
20.410128
20
-5.251024
30
0
11
20.506367
21
-5.251024
31
0
39
0
210
0
220
0
230
1
0
LINE
5
FE
100
AcDbEntity
8
1
62
256
6
ByLayer
370
13
48
1
60
0
100
AcDbLine
10
20.407093
20
-5.200756
30
0
11
20.549075
21
-5.200756
31
0
39
0
210
0
220
0
230
1
0
LINE
5
FF
100
AcDbEntity
8
1
62
256
6
ByLayer
370
13
48
1
60
0
100
AcDbLine
10
20.407093
20
-4.799244
30
0
11
20.549075
21
-4.799244
31
0
39
0
210
0
220
0
230
1
0
LINE
5
100
100
AcDbEntity
8
1
62
256
6
ByLayer
370
13
48
1
60
0
100
AcDbLine
10
20.40692
20
-4.802665
30
0
11
20.552289
21
-4.802665
31
0
39
0
210
0
220
0
230
1
0
LINE
5
101
100
AcDbEntity
8
1
62
256
6
ByLayer
370
13
48
1
60
0
100
AcDbLine
10
15.665685
20
-5.749992
30
0
11
15.665685
21
-5.8
31
0
39
0
210
0
220
0
230
1
0
LINE
5
102
100
AcDbEntity
8
1
62
256
6
ByLayer
370
18
48
1
60
0
100
AcDbLine
10
20.415611
20
-5.75
30
0
11
16.290738
21
-5.75
31
0
39
0
210
0
220
0
230
1
0
LINE
5
103
100
AcDbEntity
8
1
62
256
6
ByLayer
370
18
48
1
60
0
100
AcDbLine
10
20.415611
20
-4.25
30
0
11
16.290738
21
-4.25
31
0
39
0
210
0
220
0
230
1
0
LINE
5
104
100
AcDbEntity
8
1
62
256
6
ByLayer
370
18
48
1
60
0
100
AcDbLine
10
16.290738
20
-5.75
30
0
11
11.290738
21
-5.75
31
0
39
0
210
0
220
0
230
1
0
LINE
5
105
100
AcDbEntity
8
1
62
256
6
ByLayer
370
18
48
1
60
0
100
AcDbLine
10
16.290738
20
-4.25
30
0
11
11.290738
21
-4.25
31
0
39
0
210
0
220
0
230
1
0
LINE
5
106
100
AcDbEntity
8
1
62
256
6
ByLayer
370
18
48
1
60
0
100
AcDbLine
10
11.290738
20
-5.75
30
0
11
0
21
-5.75
31
0
39
0
210
0
220
0
230
1
0
LINE
5
107
100
AcDbEntity
8
1
62
256
6
ByLayer
370
18
48
1
60
0
100
AcDbLine
10
11.290738
20
-4.25
30
0
11
2.7
21
-4.25
31
0
39
0
210
0
220
0
230
1
0
LINE
5
108
100
AcDbEntity
8
1
62
256
6
ByLayer
370
18
48
1
60
0
100
AcDbLine
10
9.170913
20
3.025701
30
0
11
9.170913
21
-3.25
31
0
39
0
210
0
220
0
230
1
0
LINE
5
109
100
AcDbEntity
8
1
62
256
6
ByLayer
370
18
48
1
60
0
100
AcDbLine
10
1.7
20
6
30
0
11
1.7
21
-3.25
31
0
39
0
210
0
220
0
230
1
0
LINE
5
10A
100
AcDbEntity
8
1
62
256
6
ByLayer
370
18
48
1
60
0
100
AcDbLine
10
20.415611
20
-5.75
30
0
11
20.415611
21
-5.313058
31
0
39
0
210
0
220
0
230
1
0
LINE
5
10B
100
AcDbEntity
8
1
62
256
6
ByLayer
370
18
48
1
60
0
100
AcDbLine
10
-0.8
20
-5.75
30
0
11
-1
21
-5.75
31
0
39
0
210
0
220
0
230
1
0
LINE
5
10C
100
AcDbEntity
8
1
62
256
6
ByLayer
370
18
48
1
60
0
100
AcDbLine
10
0
20
-5.75
30
0
11
0
21
6
31
0
39
0
210
0
220
0
230
1
0
LINE
5
10D
100
AcDbEntity
8
1
62
256
6
ByLayer
370
18
48
1
60
0
100
AcDbLine
10
-45
20
-3.942378
30
0
11
-45
21
6
31
0
39
0
210
0
220
0
230
1
0
LINE
5
10E
100
AcDbEntity
8
1
62
256
6
ByLayer
370
18
48
1
60
0
100
AcDbLine
10
0
20
-5.75
30
0
11
-0.8
21
-5.75
31
0
39
0
210
0
220
0
230
1
0
LINE
5
10F
100
AcDbEntity
8
1
62
256
6
ByLayer
370
18
48
1
60
0
100
AcDbLine
10
-45
20
6
30
0
11
-0.8
21
6
31
0
39
0
210
0
220
0
230
1
0
LINE
5
110
100
AcDbEntity
8
1
62
256
6
ByLayer
370
18
48
1
60
0
100
AcDbLine
10
1.7
20
6
30
0
11
2.7
21
6
31
0
39
0
210
0
220
0
230
1
0
LINE
5
111
100
AcDbEntity
8
1
62
256
6
ByLayer
370
18
48
1
60
0
100
AcDbLine
10
1.7
20
6
30
0
11
0
21
6
31
0
39
0
210
0
220
0
230
1
0
LINE
5
112
100
AcDbEntity
8
1
62
256
6
ByLayer
370
18
48
1
60
0
100
AcDbLine
10
-0.8
20
6
30
0
11
0
21
6
31
0
39
0
210
0
220
0
230
1
0
LINE
5
113
100
AcDbEntity
8
1
62
256
6
ByLayer
370
18
48
1
60
0
100
AcDbLine
10
-43
20
-5.925
30
0
11
-1.565133
21
-5.925
31
0
39
0
210
0
220
0
230
1
0
LINE
5
114
100
AcDbEntity
8
1
62
256
6
ByLayer
370
18
48
1
60
0
100
AcDbLine
10
14.538643
20
-3.25
30
0
11
14.538643
21
0.558471
31
0
39
0
210
0
220
0
230
1
0
LINE
5
115
100
AcDbEntity
8
1
62
256
6
ByLayer
370
18
48
1
60
0
100
AcDbLine
10
20.415611
20
-4.686942
30
0
11
20.415611
21
-4.25
31
0
39
0
210
0
220
0
230
1
0
LINE
5
116
100
AcDbEntity
8
1
62
256
6
ByLayer
370
18
48
1
60
0
100
AcDbLine
10
-43
20
-5.925
30
0
11
-45
21
-3.942378
31
0
39
0
210
0
220
0
230
1
0
LINE
5
117
100
AcDbEntity
8
1
62
256
6
ByLayer
370
18
48
1
60
0
100
AcDbLine
10
7.9
20
3.609865
30
0
11
9.170913
21
3.025701
31
0
39
0
210
0
220
0
230
1
0
LINE
5
118
100
AcDbEntity
8
1
62
256
6
ByLayer
370
18
48
1
60
0
100
AcDbLine
10
9.170913
20
3.025701
30
0
11
14.538643
21
0.558471
31
0
39
0
210
0
220
0
230
1
0
LINE
5
119
100
AcDbEntity
8
1
62
256
6
ByLayer
370
18
48
1
60
0
100
AcDbLine
10
2.7
20
6
30
0
11
7.9
21
3.609865
31
0
39
0
210
0
220
0
230
1
0
LINE
5
11A
100
AcDbEntity
8
1
62
256
6
ByLayer
370
18
48
1
60
0
100
AcDbLine
10
21.948426
20
-4.159459
30
0
11
21.925177
21
-4.172882
31
0
39
0
210
0
220
0
230
1
0
LINE
5
11B
100
AcDbEntity
8
1
62
256
6
ByLayer
370
18
48
1
60
0
100
AcDbLine
10
21.709679
20
-4.2
30
0
11
21.82387
21
-4.2
31
0
39
0
210
0
220
0
230
1
0
LINE
5
11C
100
AcDbEntity
8
1
62
256
6
ByLayer
370
18
48
1
60
0
100
AcDbLine
10
16.326482
20
-5.8
30
0
11
16.496254
21
-5.8
31
0
39
0
210
0
220
0
230
1
0
LINE
5
11D
100
AcDbEntity
8
1
62
256
6
ByLayer
370
18
48
1
60
0
100
AcDbLine
10
24.742758
20
-4.000301
30
0
11
24.610516
21
-4.007425
31
0
39
0
210
0
220
0
230
1
0
LINE
5
11E
100
AcDbEntity
8
1
62
256
6
ByLayer
370
18
48
1
60
0
100
AcDbLine
10
21.709679
20
-4.2
30
0
11
21.658376
21
-4.2
31
0
39
0
210
0
220
0
230
1
0
LINE
5
11F
100
AcDbEntity
8
1
62
256
6
ByLayer
370
18
48
1
60
0
100
AcDbLine
10
23.533781
20
-5.92056
30
0
11
23.833781
21
-5.938988
31
0
39
0
210
0
220
0
230
1
0
LINE
5
120
100
AcDbEntity
8
1
62
256
6
ByLayer
370
18
48
1
60
0
100
AcDbLine
10
25.000117
20
-4.468879
30
0
11
25.001941
21
-4.25324
31
0
39
0
210
0
220
0
230
1
0
LINE
5
121
100
AcDbEntity
8
1
62
256
6
ByLayer
370
18
48
1
60
0
100
AcDbLine
10
15.25
20
-5.8
30
0
11
15.665685
21
-5.8
31
0
39
0
210
0
220
0
230
1
0
LINE
5
122
100
AcDbEntity
8
1
62
256
6
ByLayer
370
18
48
1
60
0
100
AcDbLine
10
15.665685
20
-5.8
30
0
11
16.326482
21
-5.8
31
0
39
0
210
0
220
0
230
1
0
LINE
5
123
100
AcDbEntity
8
1
62
256
6
ByLayer
370
18
48
1
60
0
100
AcDbLine
10
22.036053
20
-5.866914
30
0
11
22.165017
21
-5.874801
31
0
39
0
210
0
220
0
230
1
0
LINE
5
124
100
AcDbEntity
8
1
62
256
6
ByLayer
370
18
48
1
60
0
100
AcDbLine
10
24.181077
20
-5.96219
30
0
11
24.53976
21
-5.988115
31
0
39
0
210
0
220
0
230
1
0
LINE
5
125
100
AcDbEntity
8
1
62
256
6
ByLayer
370
18
48
1
60
0
100
AcDbLine
10
20.711215
20
-4.2
30
0
11
20.4298
21
-4.2
31
0
39
0
210
0
220
0
230
1
0
LINE
5
126
100
AcDbEntity
8
1
62
256
6
ByLayer
370
18
48
1
60
0
100
AcDbLine
10
21.658376
20
-5.8
30
0
11
20.787198
21
-5.8
31
0
39
0
210
0
220
0
230
1
0
LINE
5
127
100
AcDbEntity
8
1
62
256
6
ByLayer
370
18
48
1
60
0
100
AcDbLine
10
24.53976
20
-4.011885
30
0
11
24.181077
21
-4.03781
31
0
39
0
210
0
220
0
230
1
0
LINE
5
128
100
AcDbEntity
8
1
62
256
6
ByLayer
370
18
48
1
60
0
100
AcDbLine
10
24.610516
20
-5.992575
30
0
11
24.742758
21
-5.999699
31
0
39
0
210
0
220
0
230
1
0
LINE
5
129
100
AcDbEntity
8
1
62
256
6
ByLayer
370
18
48
1
60
0
100
AcDbLine
10
20.4298
20
-5.8
30
0
11
20.711215
21
-5.8
31
0
39
0
210
0
220
0
230
1
0
LINE
5
12A
100
AcDbEntity
8
1
62
256
6
ByLayer
370
18
48
1
60
0
100
AcDbLine
10
23.833781
20
-4.061012
30
0
11
23.533781
21
-4.07944
31
0
39
0
210
0
220
0
230
1
0
LINE
5
12B
100
AcDbEntity
8
1
62
256
6
ByLayer
370
18
48
1
60
0
100
AcDbLine
10
20.787198
20
-4.2
30
0
11
20.711215
21
-4.2
31
0
39
0
210
0
220
0
230
1
0
LINE
5
12C
100
AcDbEntity
8
1
62
256
6
ByLayer
370
18
48
1
60
0
100
AcDbLine
10
21.82387
20
-5.8
30
0
11
21.709679
21
-5.8
31
0
39
0
210
0
220
0
230
1
0
LINE
5
12D
100
AcDbEntity
8
1
62
256
6
ByLayer
370
18
48
1
60
0
100
AcDbLine
10
16.326482
20
-4.2
30
0
11
15.665685
21
-4.2
31
0
39
0
210
0
220
0
230
1
0
LINE
5
12E
100
AcDbEntity
8
1
62
256
6
ByLayer
370
18
48
1
60
0
100
AcDbLine
10
21.658376
20
-5.8
30
0
11
21.709679
21
-5.8
31
0
39
0
210
0
220
0
230
1
0
LINE
5
12F
100
AcDbEntity
8
1
62
256
6
ByLayer
370
18
48
1
60
0
100
AcDbLine
10
22.378462
20
-5.882456
30
0
11
22.47312
21
-5.882445
31
0
39
0
210
0
220
0
230
1
0
LINE
5
130
100
AcDbEntity
8
1
62
256
6
ByLayer
370
18
48
1
60
0
100
AcDbLine
10
16.732227
20
-4.2
30
0
11
16.546632
21
-4.2
31
0
39
0
210
0
220
0
230
1
0
LINE
5
131
100
AcDbEntity
8
1
62
256
6
ByLayer
370
18
48
1
60
0
100
AcDbLine
10
20.787198
20
-4.2
30
0
11
21.658376
21
-4.2
31
0
39
0
210
0
220
0
230
1
0
LINE
5
132
100
AcDbEntity
8
1
62
256
6
ByLayer
370
18
48
1
60
0
100
AcDbLine
10
15.665685
20
-4.2
30
0
11
15.25
21
-4.2
31
0
39
0
210
0
220
0
230
1
0
LINE
5
133
100
AcDbEntity
8
1
62
256
6
ByLayer
370
18
48
1
60
0
100
AcDbLine
10
21.925177
20
-5.827118
30
0
11
21.948426
21
-5.840541
31
0
39
0
210
0
220
0
230
1
0
LINE
5
134
100
AcDbEntity
8
1
62
256
6
ByLayer
370
18
48
1
60
0
100
AcDbLine
10
22.47312
20
-4.117555
30
0
11
22.378462
21
-4.117544
31
0
39
0
210
0
220
0
230
1
0
LINE
5
135
100
AcDbEntity
8
1
62
256
6
ByLayer
370
18
48
1
60
0
100
AcDbLine
10
16.496254
20
-4.2
30
0
11
16.326482
21
-4.2
31
0
39
0
210
0
220
0
230
1
0
LINE
5
136
100
AcDbEntity
8
1
62
256
6
ByLayer
370
18
48
1
60
0
100
AcDbLine
10
25.001941
20
-5.74676
30
0
11
25.000117
21
-5.531121
31
0
39
0
210
0
220
0
230
1
0
LINE
5
137
100
AcDbEntity
8
1
62
256
6
ByLayer
370
18
48
1
60
0
100
AcDbLine
10
20.711215
20
-5.8
30
0
11
20.787198
21
-5.8
31
0
39
0
210
0
220
0
230
1
0
LINE
5
138
100
AcDbEntity
8
1
62
256
6
ByLayer
370
18
48
1
60
0
100
AcDbLine
10
20.4298
20
-4.2
30
0
11
16.732227
21
-4.2
31
0
39
0
210
0
220
0
230
1
0
LINE
5
139
100
AcDbEntity
8
1
62
256
6
ByLayer
370
18
48
1
60
0
100
AcDbLine
10
16.732227
20
-5.8
30
0
11
20.4298
21
-5.8
31
0
39
0
210
0
220
0
230
1
0
LINE
5
13A
100
AcDbEntity
8
1
62
256
6
ByLayer
370
18
48
1
60
0
100
AcDbLine
10
22.165017
20
-4.125199
30
0
11
22.036053
21
-4.133086
31
0
39
0
210
0
220
0
230
1
0
LINE
5
13B
100
AcDbEntity
8
1
62
256
6
ByLayer
370
18
48
1
60
0
100
AcDbLine
10
25
20
-5.503425
30
0
11
25
21
-4.496575
31
0
39
0
210
0
220
0
230
1
0
LINE
5
13C
100
AcDbEntity
8
1
62
256
6
ByLayer
370
18
48
1
60
0
100
AcDbLine
10
16.546632
20
-5.8
30
0
11
16.732227
21
-5.8
31
0
39
0
210
0
220
0
230
1
0
LINE
5
13D
100
AcDbEntity
8
SK2
62
256
6
ByLayer
370
13
48
1
60
0
100
AcDbLine
10
-54.817433
20
-14.75
30
0
11
-54.817433
21
14.75
31
0
39
0
210
0
220
0
230
1
0
LINE
5
13F
100
AcDbEntity
8
SK2
62
256
6
ByLayer
370
13
48
1
60
0
100
AcDbLine
10
-47
20
6
30
0
11
-56.817433
21
6
31
0
39
0
210
0
220
0
230
1
0
LINE
5
140
100
AcDbEntity
8
SK2
62
256
6
ByLayer
370
13
48
1
60
0
100
AcDbLine
10
-47
20
-6
30
0
11
-56.817433
21
-6
31
0
39
0
210
0
220
0
230
1
0
LINE
5
141
100
AcDbEntity
8
SK2
62
256
6
ByLayer
370
18
48
1
60
0
100
AcDbLine
10
-54.817433
20
6
30
0
11
-55.235429
21
9.174998
31
0
39
0
210
0
220
0
230
1
0
LINE
5
142
100
AcDbEntity
8
SK2
62
256
6
ByLayer
370
18
48
1
60
0
100
AcDbLine
10
-54.817433
20
6
30
0
11
-54.399436
21
9.175002
31
0
39
0
210
0
220
0
230
1
0
LINE
5
143
100
AcDbEntity
8
SK2
62
256
6
ByLayer
370
18
48
1
60
0
100
AcDbLine
10
-55.235429
20
9.174998
30
0
11
-54.399436
21
9.175002
31
0
39
0
210
0
220
0
230
1
0
LINE
5
144
100
AcDbEntity
8
SK2
62
256
6
ByLayer
370
18
48
1
60
0
100
AcDbLine
10
-54.817433
20
-6
30
0
11
-54.399436
21
-9.174998
31
0
39
0
210
0
220
0
230
1
0
LINE
5
145
100
AcDbEntity
8
SK2
62
256
6
ByLayer
370
18
48
1
60
0
100
AcDbLine
10
-54.817433
20
-6
30
0
11
-55.235429
21
-9.175002
31
0
39
0
210
0
220
0
230
1
0
LINE
5
146
100
AcDbEntity
8
SK2
62
256
6
ByLayer
370
18
48
1
60
0
100
AcDbLine
10
-54.399436
20
-9.174998
30
0
11
-55.235429
21
-9.175002
31
0
39
0
210
0
220
0
230
1
0
MTEXT
5
237
100
AcDbEntity
8
SK6
62
256
6
ByLayer
370
18
48
1
60
0
100
AcDbMText
10
-41.733716
20
-50.875012
30
0
210
0
220
0
230
1
1
\W0.7456;QS-QD-LFE16C1212S
40
3.5
41
0
44
1.084337
50
0
71
7
72
5
7
iso_b_vert
0
MTEXT
5
23B
100
AcDbEntity
8
SK2
62
256
6
ByLayer
370
18
48
1
60
0
100
AcDbMText
10
-55.692433
20
-0.732237
30
0
210
0
220
0
230
1
1
\W0.5321;12
40
3.5
41
0
44
1.084337
50
89.9999999999999
71
7
72
5
7
iso_b_vert
0
DIMENSION
5
24A
100
AcDbEntity
8
2
62
256
6
ByLayer
370
13
48
1
60
0
100
AcDbDimension
2
DimnDraft3D1
10
25
20
22.600025
30
0
11
10.409211
21
22.600025
31
0
70
32
71
5
72
1
41
1
210
0
220
0
230
1
3
Standard
100
AcDbAlignedDimension
13
0
23
8
33
0
14
25
24
-4
34
0
50
0
100
AcDbRotatedDimension
1001
ACAD
1000
DSTYLE
1002
{
1070
   279
1070
     0
1070
   172
1070
     1
1070
   173
1070
     1
1070
   340
1005
238
1070
   271
1070
     1
1070
    77
1070
     1
1070
    73
1070
     0
1070
   171
1070
     3
1070
   274
1070
     4
1070
   177
1070
     2
1070
   176
1070
     2
1070
   178
1070
     7
1070
    78
1070
     8
1070
    41
1041
3.175
1070
   147
1041
1.75
1070
    42
1041
2.0
1070
    44
1041
2.0
1070
   140
1041
3.5
1070
   343
1005
24B
1070
   344
1005
24B
1002
}
0
DIMENSION
5
25F
100
AcDbEntity
8
SK2
62
256
6
ByLayer
370
13
48
1
60
0
100
AcDbDimension
2
DimnDraft3D2
10
-43
20
-19.100049
30
0
11
-44.759868
21
-19.100049
31
0
70
32
71
5
72
1
41
1
210
0
220
0
230
1
3
Standard
100
AcDbAlignedDimension
13
-45
23
4
33
0
14
-43
24
-8
34
0
50
0
100
AcDbRotatedDimension
1001
ACAD
1000
DSTYLE
1002
{
1070
   279
1070
     0
1070
   172
1070
     1
1070
   173
1070
     1
1070
   340
1005
238
1070
    77
1070
     1
1070
    73
1070
     0
1070
   171
1070
     3
1070
   274
1070
     4
1070
   177
1070
     2
1070
   176
1070
     2
1070
   178
1070
     7
1070
    78
1070
     8
1070
    41
1041
3.175
1070
   147
1041
1.75
1070
    42
1041
2.0
1070
    44
1041
2.0
1070
   140
1041
3.5
1070
   343
1005
24B
1070
   344
1005
24B
1002
}
0
DIMENSION
5
26D
100
AcDbEntity
8
SK2
62
256
6
ByLayer
370
13
48
1
60
0
100
AcDbDimension
2
DimnDraft3D3
10
25
20
28.600025
30
0
11
-12.090789
21
28.600025
31
0
70
32
71
5
72
1
41
1
210
0
220
0
230
1
3
Standard
100
AcDbAlignedDimension
13
-45
23
8
33
0
14
25
24
-4
34
0
50
0
100
AcDbRotatedDimension
1001
ACAD
1000
DSTYLE
1002
{
1070
   279
1070
     0
1070
   172
1070
     1
1070
   173
1070
     1
1070
   340
1005
238
1070
   271
1070
     1
1070
    77
1070
     1
1070
    73
1070
     0
1070
   171
1070
     3
1070
   274
1070
     4
1070
   177
1070
     2
1070
   176
1070
     2
1070
   178
1070
     7
1070
    78
1070
     8
1070
    41
1041
3.175
1070
   147
1041
1.75
1070
    42
1041
2.0
1070
    44
1041
2.0
1070
   140
1041
3.5
1070
   343
1005
24B
1070
   344
1005
24B
1002
}
0
DIMENSION
5
27B
100
AcDbEntity
8
2
62
256
6
ByLayer
370
13
48
1
60
0
100
AcDbDimension
2
DimnDraft3D4
10
9
20
-19.100049
30
0
11
15.346711
21
-19.100049
31
0
70
32
71
5
72
1
41
1
210
0
220
0
230
1
3
Standard
100
AcDbAlignedDimension
13
25
23
-8
33
0
14
9
24
-8
34
0
50
0
100
AcDbRotatedDimension
1001
ACAD
1000
DSTYLE
1002
{
1070
   279
1070
     0
1070
   172
1070
     1
1070
   173
1070
     1
1070
   340
1005
238
1070
   271
1070
     1
1070
    77
1070
     1
1070
    73
1070
     0
1070
   171
1070
     3
1070
   274
1070
     4
1070
   177
1070
     2
1070
   176
1070
     2
1070
   178
1070
     7
1070
    78
1070
     8
1070
    41
1041
3.175
1070
   147
1041
1.75
1070
    42
1041
2.0
1070
    44
1041
2.0
1070
   140
1041
3.5
1070
   343
1005
24B
1070
   344
1005
24B
1002
}
0
DIMENSION
5
289
100
AcDbEntity
8
2
62
256
6
ByLayer
370
13
48
1
60
0
100
AcDbDimension
2
DimnDraft3D5
10
50.1
20
-6
30
0
11
50.1
21
-1.653289
31
0
70
32
71
5
72
1
41
1
210
0
220
0
230
1
3
Standard
100
AcDbAlignedDimension
13
2
23
6
33
0
14
27
24
-6
34
0
50
90
100
AcDbRotatedDimension
1001
ACAD
1000
DSTYLE
1002
{
1070
    74
1070
     0
1070
   279
1070
     0
1070
   172
1070
     1
1070
   173
1070
     1
1070
   340
1005
238
1070
   271
1070
     1
1070
    77
1070
     1
1070
    73
1070
     0
1070
   171
1070
     3
1070
   274
1070
     4
1070
   177
1070
     2
1070
   176
1070
     2
1070
   178
1070
     7
1070
    78
1070
     8
1070
    41
1041
3.175
1070
   147
1041
1.75
1070
    42
1041
2.0
1070
    44
1041
2.0
1070
   140
1041
3.5
1070
   343
1005
24B
1070
   344
1005
24B
1002
}
0
DIMENSION
5
297
100
AcDbEntity
8
2
62
256
6
ByLayer
370
13
48
1
60
0
100
AcDbDimension
2
DimnDraft3D6
10
43.1
20
-4
30
0
11
43.1
21
-17.820789
31
0
70
32
71
5
72
1
41
1
210
0
220
0
230
1
3
Standard
100
AcDbAlignedDimension
13
27
23
-6
33
0
14
27
24
-4
34
0
50
90
100
AcDbRotatedDimension
1001
ACAD
1000
DSTYLE
1002
{
1070
    74
1070
     0
1070
   279
1070
     0
1070
   172
1070
     1
1070
   173
1070
     1
1070
   340
1005
238
1070
   271
1070
     1
1070
    77
1070
     1
1070
    73
1070
     0
1070
   171
1070
     3
1070
   274
1070
     4
1070
   177
1070
     2
1070
   176
1070
     2
1070
   178
1070
     7
1070
    78
1070
     8
1070
    41
1041
3.175
1070
   147
1041
1.75
1070
    42
1041
2.0
1070
    44
1041
2.0
1070
   140
1041
3.5
1070
   343
1005
24B
1070
   344
1005
24B
1002
}
0
ENDSEC
0
SECTION
2
OBJECTS
0
DICTIONARY
5
301
330
0
100
AcDbDictionary
280
0
281
1
3
ACAD_GROUP
350
302
3
ACAD_MLINESTYLE
350
303
0
DICTIONARY
5
302
330
0
100
AcDbDictionary
280
0
281
1
0
DICTIONARY
5
303
330
0
100
AcDbDictionary
280
0
281
1
3
Standard
350
18
0
MLINESTYLE
5
18
330
303
100
AcDbMlineStyle
2
Standard
70
0
3

62
256
51
90
52
90
71
2
49
-0.5
62
256
6
ByLayer
49
0.5
62
256
6
ByLayer
0
RASTERVARIABLES
5
2f0
330

100
AcDbRasterVariables
90
0
70
1
71
1
72
1
0
ENDSEC
0
EOF
