0
SECTION
2
HEADER
9
$ACADVER
1
AC1015
9
$DWGCODEPAGE
3
ANSI_1252
9
$HANDSEED
5
216
9
$ANGBASE
50
0
9
$ANGDIR
70
0
9
$ATTMODE
70
1
9
$AUNITS
70
0
9
$AUPREC
70
0
9
$CECOLOR
62
256
9
$CELTSCALE
40
1
9
$CELTYPE
6
ByLayer
9
$CELWEIGHT
370
18
9
$CLAYER
8
0
9
$CMLJUST
70
0
9
$CMLSCALE
40
1
9
$CMLSTYLE
2
Standard
9
$DIMSTYLE
2
Standard
9
$TEXTSIZE
40
0.2
9
$TEXTSTYLE
7
Standard
9
$LUNITS
70
2
9
$LUPREC
70
4
9
$EXTNAMES
290
1
9
$INSUNITS
70
4
9
$LTSCALE
40
1
9
$LWDISPLAY
290
1
9
$PDMODE
70
0
9
$PDSIZE
40
0
9
$PLINEGEN
70
0
0
ENDSEC
0
SECTION
2
CLASSES
0
CLASS
1
RASTERVARIABLES
2
AcDbRasterVariables
3
ISM
90
0
280
0
281
0
0
ENDSEC
0
SECTION
2
TABLES
0
TABLE
2
VPORT
5
20c
100
AcDbSymbolTable
0
VPORT
5
1
100
AcDbSymbolTableRecord
100
AcDbViewportTableRecord
2
*Active
70
0
10
0
20
0
11
1
21
1
12
-1
22
1
13
0
23
0
14
0.5
24
0.5
15
10
25
10
16
0
26
0
36
1
17
0
27
0
37
0
0
ENDTAB
0
TABLE
2
LTYPE
5
20d
100
AcDbSymbolTable
0
LTYPE
5
14
100
AcDbSymbolTableRecord
100
AcDbLinetypeTableRecord
70
0
2
ByBlock
3

72
65
73
0
40
0
0
LTYPE
5
15
100
AcDbSymbolTableRecord
100
AcDbLinetypeTableRecord
70
0
2
ByLayer
3

72
65
73
0
40
0
0
LTYPE
5
16
100
AcDbSymbolTableRecord
100
AcDbLinetypeTableRecord
70
0
2
CONTINUOUS
3
Solid line
72
65
73
0
40
0
0
LTYPE
5
6A
100
AcDbSymbolTableRecord
100
AcDbLinetypeTableRecord
70
0
2
CENTER
3
____ _ ____ _ ____ _ ____
72
65
73
4
40
47.5
49
22
74
0
49
-8.5
74
0
49
8.5
74
0
49
-8.5
74
0
0
LTYPE
5
6B
100
AcDbSymbolTableRecord
100
AcDbLinetypeTableRecord
70
0
2
DASHED
3
__ __ __ __ __ __ __ __ __
72
65
73
2
40
25.72
49
12.86
74
0
49
-12.86
74
0
0
ENDTAB
0
TABLE
2
LAYER
5
20e
100
AcDbSymbolTable
0
LAYER
5
10
100
AcDbSymbolTableRecord
100
AcDbLayerTableRecord
2
0
70
0
62
7
6
CONTINUOUS
290
1
370
-3
390
0
0
LAYER
5
6D
100
AcDbSymbolTableRecord
100
AcDbLayerTableRecord
2
80
70
0
62
-6
6
CONTINUOUS
290
1
370
-3
390
0
0
LAYER
5
6F
100
AcDbSymbolTableRecord
100
AcDbLayerTableRecord
2
81
70
0
62
-3
6
CONTINUOUS
290
1
370
-3
390
0
0
LAYER
5
79
100
AcDbSymbolTableRecord
100
AcDbLayerTableRecord
2
1
70
0
62
4
6
CONTINUOUS
290
1
370
-3
390
0
0
LAYER
5
146
100
AcDbSymbolTableRecord
100
AcDbLayerTableRecord
2
2
70
0
62
7
6
CONTINUOUS
290
1
370
-3
390
0
0
LAYER
5
1f9
100
AcDbSymbolTableRecord
100
AcDbLayerTableRecord
2
SK1
70
0
62
4
6
CONTINUOUS
290
1
370
-3
390
0
0
LAYER
5
1fa
100
AcDbSymbolTableRecord
100
AcDbLayerTableRecord
2
SK2
70
0
62
7
6
CONTINUOUS
290
1
370
-3
390
0
0
LAYER
5
1fb
100
AcDbSymbolTableRecord
100
AcDbLayerTableRecord
2
SK6
70
0
62
5
6
CONTINUOUS
290
1
370
-3
390
0
0
ENDTAB
0
TABLE
2
STYLE
5
20f
100
AcDbSymbolTable
0
STYLE
5
11
100
AcDbSymbolTableRecord
100
AcDbTextStyleTableRecord
2
Standard
3
txt
70
0
71
0
40
0
41
1
42
0
50
0
0
STYLE
5
140
100
AcDbSymbolTableRecord
100
AcDbTextStyleTableRecord
2
iso_b_vert
3
simplex.shx
70
0
71
0
40
0
41
1
42
0
50
0
0
STYLE
5
141
100
AcDbSymbolTableRecord
100
AcDbTextStyleTableRecord
2
DWGDirectTextStyle
3
simplex
70
0
71
0
40
0
41
1
42
0
50
0
0
ENDTAB
0
TABLE
2
DIMSTYLE
5
210
100
AcDbSymbolTable
100
AcDbDimStyleTable
0
DIMSTYLE
105
27
100
AcDbSymbolTableRecord
100
AcDbDimStyleTableRecord
2
Standard
70
0
3
<>
41
0.18
42
0.0625
44
0.18
140
0.18
147
0.09
73
0
74
0
77
1
271
2
275
0
278
52
280
0
340
11
0
ENDTAB
0
TABLE
2
VIEW
5
211
100
AcDbSymbolTable
0
ENDTAB
0
TABLE
2
UCS
5
212
100
AcDbSymbolTable
0
ENDTAB
0
TABLE
2
APPID
5
213
100
AcDbSymbolTable
0
APPID
5
12
100
AcDbSymbolTableRecord
100
AcDbRegAppTableRecord
2
ACAD
70
0
0
ENDTAB
0
TABLE
2
BLOCK_RECORD
5
214
100
AcDbSymbolTable
0
BLOCK_RECORD
5
1F
100
AcDbSymbolTableRecord
100
AcDbBlockTableRecord
2
*Model_Space
340
0
70
0
0
BLOCK_RECORD
5
1B
100
AcDbSymbolTableRecord
100
AcDbBlockTableRecord
2
*Paper_Space
340
0
70
0
0
BLOCK_RECORD
5
23
100
AcDbSymbolTableRecord
100
AcDbBlockTableRecord
2
*Paper_Space0
340
0
70
0
0
BLOCK_RECORD
5
144
100
AcDbSymbolTableRecord
100
AcDbBlockTableRecord
2
DimnDraft3D1
340
0
70
0
0
BLOCK_RECORD
5
153
100
AcDbSymbolTableRecord
100
AcDbBlockTableRecord
2
_CLOSED
340
0
70
0
0
BLOCK_RECORD
5
15A
100
AcDbSymbolTableRecord
100
AcDbBlockTableRecord
2
DimnDraft3D2
340
0
70
0
0
BLOCK_RECORD
5
168
100
AcDbSymbolTableRecord
100
AcDbBlockTableRecord
2
DimnDraft3D3
340
0
70
0
0
BLOCK_RECORD
5
176
100
AcDbSymbolTableRecord
100
AcDbBlockTableRecord
2
DimnDraft3D4
340
0
70
0
0
BLOCK_RECORD
5
184
100
AcDbSymbolTableRecord
100
AcDbBlockTableRecord
2
DimnDraft3D5
340
0
70
0
0
BLOCK_RECORD
5
192
100
AcDbSymbolTableRecord
100
AcDbBlockTableRecord
2
DimnDraft3D6
340
0
70
0
0
ENDTAB
0
ENDSEC
0
SECTION
2
BLOCKS
0
BLOCK
5
20
100
AcDbEntity
8
0
100
AcDbBlockBegin
2
*Model_Space
70
0
10
0
20
0
30
0
3
*Model_Space
0
ENDBLK
5
21
100
AcDbEntity
8
0
100
AcDbBlockEnd
0
BLOCK
5
1C
100
AcDbEntity
8
0
100
AcDbBlockBegin
2
*Paper_Space
70
0
10
0
20
0
30
0
3
*Paper_Space
0
ENDBLK
5
1D
100
AcDbEntity
8
0
100
AcDbBlockEnd
0
BLOCK
5
24
100
AcDbEntity
8
0
100
AcDbBlockBegin
2
*Paper_Space0
70
0
10
0
20
0
30
0
3
*Paper_Space0
0
ENDBLK
5
25
100
AcDbEntity
8
0
100
AcDbBlockEnd
0
BLOCK
5
150
100
AcDbEntity
8
0
100
AcDbBlockBegin
2
DimnDraft3D1
70
0
10
0
20
0
30
0
3
DimnDraft3D1
0
MTEXT
5
145
100
AcDbEntity
8
2
62
256
6
ByLayer
370
18
48
1
60
0
100
AcDbMText
10
11.284211
20
23.475025
30
0
210
0
220
0
230
1
1
\W0.6740;25
40
3.5
41
0
44
1.084337
50
0
71
7
72
5
7
iso_b_vert
0
LINE
5
147
100
AcDbEntity
8
2
62
256
6
ByLayer
370
13
48
1
60
0
100
AcDbLine
10
0
20
8
30
0
11
0
21
24.600025
31
0
39
0
210
0
220
0
230
1
0
LINE
5
148
100
AcDbEntity
8
2
62
256
6
ByLayer
370
13
48
1
60
0
100
AcDbLine
10
25
20
-3.95
30
0
11
25
21
24.600025
31
0
39
0
210
0
220
0
230
1
0
LINE
5
149
100
AcDbEntity
8
2
62
256
6
ByLayer
370
13
48
1
60
0
100
AcDbLine
10
0
20
22.600025
30
0
11
25
21
22.600025
31
0
39
0
210
0
220
0
230
1
0
LINE
5
14A
100
AcDbEntity
8
2
62
256
6
ByLayer
370
13
48
1
60
0
100
AcDbLine
10
0
20
22.600025
30
0
11
3.174998
21
23.018022
31
0
39
0
210
0
220
0
230
1
0
LINE
5
14B
100
AcDbEntity
8
2
62
256
6
ByLayer
370
13
48
1
60
0
100
AcDbLine
10
0
20
22.600025
30
0
11
3.175002
21
22.182028
31
0
39
0
210
0
220
0
230
1
0
LINE
5
14C
100
AcDbEntity
8
2
62
256
6
ByLayer
370
13
48
1
60
0
100
AcDbLine
10
3.174998
20
23.018022
30
0
11
3.175002
21
22.182028
31
0
39
0
210
0
220
0
230
1
0
LINE
5
14D
100
AcDbEntity
8
2
62
256
6
ByLayer
370
13
48
1
60
0
100
AcDbLine
10
25
20
22.600025
30
0
11
21.825002
21
22.182028
31
0
39
0
210
0
220
0
230
1
0
LINE
5
14E
100
AcDbEntity
8
2
62
256
6
ByLayer
370
13
48
1
60
0
100
AcDbLine
10
25
20
22.600025
30
0
11
21.824998
21
23.018022
31
0
39
0
210
0
220
0
230
1
0
LINE
5
14F
100
AcDbEntity
8
2
62
256
6
ByLayer
370
13
48
1
60
0
100
AcDbLine
10
21.825002
20
22.182028
30
0
11
21.824998
21
23.018022
31
0
39
0
210
0
220
0
230
1
0
ENDBLK
5
151
100
AcDbEntity
8
0
100
AcDbBlockEnd
0
BLOCK
5
154
100
AcDbEntity
8
0
100
AcDbBlockBegin
2
_CLOSED
70
0
10
0
20
0
30
0
3
_CLOSED
0
LINE
5
156
100
AcDbEntity
8
0
62
256
6
ByLayer
370
-2
48
1
60
0
100
AcDbLine
10
-1
20
0.166667
30
0
11
0
21
0
31
0
39
0
210
0
220
0
230
1
0
LINE
5
157
100
AcDbEntity
8
0
62
256
6
ByLayer
370
-2
48
1
60
0
100
AcDbLine
10
0
20
0
30
0
11
-1
21
-0.166667
31
0
39
0
210
0
220
0
230
1
0
LINE
5
158
100
AcDbEntity
8
0
62
256
6
ByLayer
370
-2
48
1
60
0
100
AcDbLine
10
-1
20
0.166667
30
0
11
-1
21
-0.166667
31
0
39
0
210
0
220
0
230
1
0
LINE
5
159
100
AcDbEntity
8
0
62
256
6
ByLayer
370
-2
48
1
60
0
100
AcDbLine
10
0
20
0
30
0
11
-1
21
0
31
0
39
0
210
0
220
0
230
1
0
ENDBLK
5
155
100
AcDbEntity
8
0
100
AcDbBlockEnd
0
BLOCK
5
165
100
AcDbEntity
8
0
100
AcDbBlockBegin
2
DimnDraft3D2
70
0
10
0
20
0
30
0
3
DimnDraft3D2
0
MTEXT
5
15B
100
AcDbEntity
8
SK2
62
256
6
ByLayer
370
18
48
1
60
0
100
AcDbMText
10
-43.884868
20
-18.175
30
0
210
0
220
0
230
1
1
\W0.5404;2
40
3.5
41
0
44
1.084337
50
0
71
7
72
5
7
iso_b_vert
0
LINE
5
15C
100
AcDbEntity
8
SK2
62
256
6
ByLayer
370
13
48
1
60
0
100
AcDbLine
10
-45
20
4
30
0
11
-45
21
-21.05
31
0
39
0
210
0
220
0
230
1
0
LINE
5
15D
100
AcDbEntity
8
SK2
62
256
6
ByLayer
370
13
48
1
60
0
100
AcDbLine
10
-43
20
-8
30
0
11
-43
21
-21.05
31
0
39
0
210
0
220
0
230
1
0
LINE
5
15E
100
AcDbEntity
8
SK2
62
256
6
ByLayer
370
13
48
1
60
0
100
AcDbLine
10
-53.75
20
-19.05
30
0
11
-34.25
21
-19.05
31
0
39
0
210
0
220
0
230
1
0
LINE
5
15F
100
AcDbEntity
8
SK2
62
256
6
ByLayer
370
13
48
1
60
0
100
AcDbLine
10
-45
20
-19.05
30
0
11
-48.174998
21
-19.467997
31
0
39
0
210
0
220
0
230
1
0
LINE
5
160
100
AcDbEntity
8
SK2
62
256
6
ByLayer
370
13
48
1
60
0
100
AcDbLine
10
-45
20
-19.05
30
0
11
-48.175002
21
-18.632003
31
0
39
0
210
0
220
0
230
1
0
LINE
5
161
100
AcDbEntity
8
SK2
62
256
6
ByLayer
370
13
48
1
60
0
100
AcDbLine
10
-48.174998
20
-19.467997
30
0
11
-48.175002
21
-18.632003
31
0
39
0
210
0
220
0
230
1
0
LINE
5
162
100
AcDbEntity
8
SK2
62
256
6
ByLayer
370
13
48
1
60
0
100
AcDbLine
10
-43
20
-19.05
30
0
11
-39.825002
21
-18.632003
31
0
39
0
210
0
220
0
230
1
0
LINE
5
163
100
AcDbEntity
8
SK2
62
256
6
ByLayer
370
13
48
1
60
0
100
AcDbLine
10
-43
20
-19.05
30
0
11
-39.824998
21
-19.467997
31
0
39
0
210
0
220
0
230
1
0
LINE
5
164
100
AcDbEntity
8
SK2
62
256
6
ByLayer
370
13
48
1
60
0
100
AcDbLine
10
-39.825002
20
-18.632003
30
0
11
-39.824998
21
-19.467997
31
0
39
0
210
0
220
0
230
1
0
ENDBLK
5
166
100
AcDbEntity
8
0
100
AcDbBlockEnd
0
BLOCK
5
173
100
AcDbEntity
8
0
100
AcDbBlockBegin
2
DimnDraft3D3
70
0
10
0
20
0
30
0
3
DimnDraft3D3
0
MTEXT
5
169
100
AcDbEntity
8
SK2
62
256
6
ByLayer
370
18
48
1
60
0
100
AcDbMText
10
-11.215789
20
29.475025
30
0
210
0
220
0
230
1
1
\W0.6740;70
40
3.5
41
0
44
1.084337
50
0
71
7
72
5
7
iso_b_vert
0
LINE
5
16A
100
AcDbEntity
8
SK2
62
256
6
ByLayer
370
13
48
1
60
0
100
AcDbLine
10
-45
20
8
30
0
11
-45
21
30.600025
31
0
39
0
210
0
220
0
230
1
0
LINE
5
16B
100
AcDbEntity
8
SK2
62
256
6
ByLayer
370
13
48
1
60
0
100
AcDbLine
10
25
20
-3.95
30
0
11
25
21
30.600025
31
0
39
0
210
0
220
0
230
1
0
LINE
5
16C
100
AcDbEntity
8
SK2
62
256
6
ByLayer
370
13
48
1
60
0
100
AcDbLine
10
-45
20
28.600025
30
0
11
25
21
28.600025
31
0
39
0
210
0
220
0
230
1
0
LINE
5
16D
100
AcDbEntity
8
SK2
62
256
6
ByLayer
370
13
48
1
60
0
100
AcDbLine
10
-45
20
28.600025
30
0
11
-41.825002
21
29.018022
31
0
39
0
210
0
220
0
230
1
0
LINE
5
16E
100
AcDbEntity
8
SK2
62
256
6
ByLayer
370
13
48
1
60
0
100
AcDbLine
10
-45
20
28.600025
30
0
11
-41.824998
21
28.182028
31
0
39
0
210
0
220
0
230
1
0
LINE
5
16F
100
AcDbEntity
8
SK2
62
256
6
ByLayer
370
13
48
1
60
0
100
AcDbLine
10
-41.825002
20
29.018022
30
0
11
-41.824998
21
28.182028
31
0
39
0
210
0
220
0
230
1
0
LINE
5
170
100
AcDbEntity
8
SK2
62
256
6
ByLayer
370
13
48
1
60
0
100
AcDbLine
10
25
20
28.600025
30
0
11
21.825002
21
28.182028
31
0
39
0
210
0
220
0
230
1
0
LINE
5
171
100
AcDbEntity
8
SK2
62
256
6
ByLayer
370
13
48
1
60
0
100
AcDbLine
10
25
20
28.600025
30
0
11
21.824998
21
29.018022
31
0
39
0
210
0
220
0
230
1
0
LINE
5
172
100
AcDbEntity
8
SK2
62
256
6
ByLayer
370
13
48
1
60
0
100
AcDbLine
10
21.825002
20
28.182028
30
0
11
21.824998
21
29.018022
31
0
39
0
210
0
220
0
230
1
0
ENDBLK
5
174
100
AcDbEntity
8
0
100
AcDbBlockEnd
0
BLOCK
5
181
100
AcDbEntity
8
0
100
AcDbBlockBegin
2
DimnDraft3D4
70
0
10
0
20
0
30
0
3
DimnDraft3D4
0
MTEXT
5
177
100
AcDbEntity
8
2
62
256
6
ByLayer
370
18
48
1
60
0
100
AcDbMText
10
19.221711
20
-18.175
30
0
210
0
220
0
230
1
1
\W0.5321;10
40
3.5
41
0
44
1.084337
50
0
71
7
72
5
7
iso_b_vert
0
LINE
5
178
100
AcDbEntity
8
2
62
256
6
ByLayer
370
13
48
1
60
0
100
AcDbLine
10
25
20
-7.95
30
0
11
25
21
-21.05
31
0
39
0
210
0
220
0
230
1
0
LINE
5
179
100
AcDbEntity
8
2
62
256
6
ByLayer
370
13
48
1
60
0
100
AcDbLine
10
15
20
-8
30
0
11
15
21
-21.05
31
0
39
0
210
0
220
0
230
1
0
LINE
5
17A
100
AcDbEntity
8
2
62
256
6
ByLayer
370
13
48
1
60
0
100
AcDbLine
10
33.75
20
-19.05
30
0
11
6.25
21
-19.05
31
0
39
0
210
0
220
0
230
1
0
LINE
5
17B
100
AcDbEntity
8
2
62
256
6
ByLayer
370
13
48
1
60
0
100
AcDbLine
10
25
20
-19.05
30
0
11
28.174998
21
-18.632003
31
0
39
0
210
0
220
0
230
1
0
LINE
5
17C
100
AcDbEntity
8
2
62
256
6
ByLayer
370
13
48
1
60
0
100
AcDbLine
10
25
20
-19.05
30
0
11
28.175002
21
-19.467997
31
0
39
0
210
0
220
0
230
1
0
LINE
5
17D
100
AcDbEntity
8
2
62
256
6
ByLayer
370
13
48
1
60
0
100
AcDbLine
10
28.174998
20
-18.632003
30
0
11
28.175002
21
-19.467997
31
0
39
0
210
0
220
0
230
1
0
LINE
5
17E
100
AcDbEntity
8
2
62
256
6
ByLayer
370
13
48
1
60
0
100
AcDbLine
10
15
20
-19.05
30
0
11
11.825002
21
-19.467997
31
0
39
0
210
0
220
0
230
1
0
LINE
5
17F
100
AcDbEntity
8
2
62
256
6
ByLayer
370
13
48
1
60
0
100
AcDbLine
10
15
20
-19.05
30
0
11
11.824998
21
-18.632003
31
0
39
0
210
0
220
0
230
1
0
LINE
5
180
100
AcDbEntity
8
2
62
256
6
ByLayer
370
13
48
1
60
0
100
AcDbLine
10
11.825002
20
-19.467997
30
0
11
11.824998
21
-18.632003
31
0
39
0
210
0
220
0
230
1
0
ENDBLK
5
182
100
AcDbEntity
8
0
100
AcDbBlockEnd
0
BLOCK
5
18F
100
AcDbEntity
8
0
100
AcDbBlockBegin
2
DimnDraft3D5
70
0
10
0
20
0
30
0
3
DimnDraft3D5
0
MTEXT
5
185
100
AcDbEntity
8
2
62
256
6
ByLayer
370
18
48
1
60
0
100
AcDbMText
10
49.225
20
-0.753289
30
0
210
0
220
0
230
1
1
\W0.5321;12
40
3.5
41
0
44
1.084337
50
90
71
7
72
5
7
iso_b_vert
0
LINE
5
186
100
AcDbEntity
8
2
62
256
6
ByLayer
370
13
48
1
60
0
100
AcDbLine
10
2
20
6
30
0
11
52.1
21
6
31
0
39
0
210
0
220
0
230
1
0
LINE
5
187
100
AcDbEntity
8
2
62
256
6
ByLayer
370
13
48
1
60
0
100
AcDbLine
10
27
20
-5.95
30
0
11
52.1
21
-5.95
31
0
39
0
210
0
220
0
230
1
0
LINE
5
188
100
AcDbEntity
8
2
62
256
6
ByLayer
370
13
48
1
60
0
100
AcDbLine
10
50.1
20
14.75
30
0
11
50.1
21
-14.7
31
0
39
0
210
0
220
0
230
1
0
LINE
5
189
100
AcDbEntity
8
2
62
256
6
ByLayer
370
13
48
1
60
0
100
AcDbLine
10
50.1
20
6
30
0
11
49.682003
21
9.174998
31
0
39
0
210
0
220
0
230
1
0
LINE
5
18A
100
AcDbEntity
8
2
62
256
6
ByLayer
370
13
48
1
60
0
100
AcDbLine
10
50.1
20
6
30
0
11
50.517997
21
9.175002
31
0
39
0
210
0
220
0
230
1
0
LINE
5
18B
100
AcDbEntity
8
2
62
256
6
ByLayer
370
13
48
1
60
0
100
AcDbLine
10
49.682003
20
9.174998
30
0
11
50.517997
21
9.175002
31
0
39
0
210
0
220
0
230
1
0
LINE
5
18C
100
AcDbEntity
8
2
62
256
6
ByLayer
370
13
48
1
60
0
100
AcDbLine
10
50.1
20
-5.95
30
0
11
50.517997
21
-9.124998
31
0
39
0
210
0
220
0
230
1
0
LINE
5
18D
100
AcDbEntity
8
2
62
256
6
ByLayer
370
13
48
1
60
0
100
AcDbLine
10
50.1
20
-5.95
30
0
11
49.682003
21
-9.125002
31
0
39
0
210
0
220
0
230
1
0
LINE
5
18E
100
AcDbEntity
8
2
62
256
6
ByLayer
370
13
48
1
60
0
100
AcDbLine
10
50.517997
20
-9.124998
30
0
11
49.682003
21
-9.125002
31
0
39
0
210
0
220
0
230
1
0
ENDBLK
5
190
100
AcDbEntity
8
0
100
AcDbBlockEnd
0
BLOCK
5
19D
100
AcDbEntity
8
0
100
AcDbBlockBegin
2
DimnDraft3D6
70
0
10
0
20
0
30
0
3
DimnDraft3D6
0
MTEXT
5
193
100
AcDbEntity
8
2
62
256
6
ByLayer
370
18
48
1
60
0
100
AcDbMText
10
42.225
20
-20.055
30
0
210
0
220
0
230
1
1
\W0.6004;1.2
40
3.5
41
0
44
1.084337
50
90
71
7
72
5
7
iso_b_vert
0
LINE
5
194
100
AcDbEntity
8
2
62
256
6
ByLayer
370
13
48
1
60
0
100
AcDbLine
10
27
20
-5.95
30
0
11
45.1
21
-5.95
31
0
39
0
210
0
220
0
230
1
0
LINE
5
195
100
AcDbEntity
8
2
62
256
6
ByLayer
370
13
48
1
60
0
100
AcDbLine
10
27
20
-4.75
30
0
11
45.1
21
-4.75
31
0
39
0
210
0
220
0
230
1
0
LINE
5
196
100
AcDbEntity
8
2
62
256
6
ByLayer
370
13
48
1
60
0
100
AcDbLine
10
43.1
20
4
30
0
11
43.1
21
-20.93
31
0
39
0
210
0
220
0
230
1
0
LINE
5
197
100
AcDbEntity
8
2
62
256
6
ByLayer
370
13
48
1
60
0
100
AcDbLine
10
43.1
20
-5.95
30
0
11
43.517997
21
-9.124998
31
0
39
0
210
0
220
0
230
1
0
LINE
5
198
100
AcDbEntity
8
2
62
256
6
ByLayer
370
13
48
1
60
0
100
AcDbLine
10
43.1
20
-5.95
30
0
11
42.682003
21
-9.125002
31
0
39
0
210
0
220
0
230
1
0
LINE
5
199
100
AcDbEntity
8
2
62
256
6
ByLayer
370
13
48
1
60
0
100
AcDbLine
10
43.517997
20
-9.124998
30
0
11
42.682003
21
-9.125002
31
0
39
0
210
0
220
0
230
1
0
LINE
5
19A
100
AcDbEntity
8
2
62
256
6
ByLayer
370
13
48
1
60
0
100
AcDbLine
10
43.1
20
-4.75
30
0
11
42.682003
21
-1.575002
31
0
39
0
210
0
220
0
230
1
0
LINE
5
19B
100
AcDbEntity
8
2
62
256
6
ByLayer
370
13
48
1
60
0
100
AcDbLine
10
43.1
20
-4.75
30
0
11
43.517997
21
-1.574998
31
0
39
0
210
0
220
0
230
1
0
LINE
5
19C
100
AcDbEntity
8
2
62
256
6
ByLayer
370
13
48
1
60
0
100
AcDbLine
10
42.682003
20
-1.575002
30
0
11
43.517997
21
-1.574998
31
0
39
0
210
0
220
0
230
1
0
ENDBLK
5
19E
100
AcDbEntity
8
0
100
AcDbBlockEnd
0
ENDSEC
0
SECTION
2
ENTITIES
0
ARC
5
DB
100
AcDbEntity
8
1
62
256
6
ByLayer
370
18
48
1
60
0
100
AcDbCircle
39
0
10
6.5
20
-3.85
30
0
40
1
210
0
220
0
230
1
100
AcDbArc
50
180
51
270
0
ARC
5
DC
100
AcDbEntity
8
1
62
256
6
ByLayer
370
18
48
1
60
0
100
AcDbCircle
39
0
10
-21.429916
20
-5.35
30
0
40
0.324999999999157
210
0
220
0
230
-1
100
AcDbArc
50
150.75
51
209.25
0
ARC
5
DD
100
AcDbEntity
8
1
62
256
6
ByLayer
370
18
48
1
60
0
100
AcDbCircle
39
0
10
2.1
20
-6.85
30
0
40
1
210
0
220
0
230
1
100
AcDbArc
50
90
51
112.331645
0
ARC
5
DE
100
AcDbEntity
8
1
62
256
6
ByLayer
370
18
48
1
60
0
100
AcDbCircle
39
0
10
6.5
20
-3.85
30
0
40
1
210
0
220
0
230
1
100
AcDbArc
50
180
51
270
0
ARC
5
DF
100
AcDbEntity
8
1
62
256
6
ByLayer
370
18
48
1
60
0
100
AcDbCircle
39
0
10
-21.429916
20
-5.35
30
0
40
0.324999999999157
210
0
220
0
230
-1
100
AcDbArc
50
150.75
51
209.25
0
ARC
5
E0
100
AcDbEntity
8
1
62
256
6
ByLayer
370
18
48
1
60
0
100
AcDbCircle
39
0
10
2.1
20
-6.85
30
0
40
1
210
0
220
0
230
1
100
AcDbArc
50
90
51
112.331645
0
ELLIPSE
5
E1
100
AcDbEntity
8
1
62
256
6
ByLayer
370
13
48
1
60
0
100
AcDbEllipse
10
23.640217
20
-4.958344
30
0
11
-0.0120291637107271
21
-0.174586079686843
31
0
210
0
220
0
230
1
40
0.469268
41
0.597443237325644
42
1.60311810105689
0
ELLIPSE
5
E2
100
AcDbEntity
8
1
62
256
6
ByLayer
370
13
48
1
60
0
100
AcDbEllipse
10
23.640217
20
-5.741656
30
0
11
0.0120291636444667
21
-0.174586079691408
31
0
210
0
220
0
230
1
40
0.469268
41
1.53847455271124
42
2.54414941668294
0
ELLIPSE
5
E3
100
AcDbEntity
8
1
62
256
6
ByLayer
370
13
48
1
60
0
100
AcDbEllipse
10
22.381083
20
-5.531095
30
0
11
-0.232872814784797
21
0.0909409266183586
31
0
210
0
220
0
230
1
40
0.09701
41
0.332331314364614
42
1.32730989530201
0
ELLIPSE
5
E4
100
AcDbEntity
8
1
62
256
6
ByLayer
370
13
48
1
60
0
100
AcDbEllipse
10
22.381083
20
-5.168905
30
0
11
-0.232872814784793
21
-0.0909409266183696
31
0
210
0
220
0
230
1
40
0.09701
41
-1.32730989530198
42
-0.332331314364462
0
ELLIPSE
5
E5
100
AcDbEntity
8
1
62
256
6
ByLayer
370
18
48
1
60
0
100
AcDbEllipse
10
22.087032
20
-5.770956
30
0
11
-0.0155047509584437
21
-0.0475352784541822
31
0
210
0
220
0
230
1
40
0.933874
41
-1.58920274235307
42
-1.28278057694171
0
ELLIPSE
5
E6
100
AcDbEntity
8
1
62
256
6
ByLayer
370
18
48
1
60
0
100
AcDbEllipse
10
24.474706
20
-4.652916
30
0
11
1.59998893098974
21
0.0783377665849347
31
0
210
0
220
0
230
-1
40
0.075973
41
1.43216828769922
42
2.06768997916083
0
ELLIPSE
5
E7
100
AcDbEntity
8
1
62
256
6
ByLayer
370
18
48
1
60
0
100
AcDbEllipse
10
22.696512
20
-4.6025
30
0
11
0.340159485189729
21
1.64427240889655E-10
31
0
210
0
220
0
230
-1
40
0.764347
41
1.48065885078714
42
1.57079632742757
0
ELLIPSE
5
E8
100
AcDbEntity
8
1
62
256
6
ByLayer
370
18
48
1
60
0
100
AcDbEllipse
10
23.627277
20
-4.814239
30
0
11
0.18999868554001
21
0.00930260978079898
31
0
210
0
220
0
230
-1
40
0.075973
41
-1.82887599394647
42
-1.07390267441866
0
ELLIPSE
5
E9
100
AcDbEntity
8
1
62
256
6
ByLayer
370
18
48
1
60
0
100
AcDbEllipse
10
22.087032
20
-4.929044
30
0
11
-0.0155047337469593
21
0.0475352840681099
31
0
210
0
220
0
230
1
40
0.933874
41
1.28278090944116
42
1.58920308515414
0
ELLIPSE
5
EA
100
AcDbEntity
8
1
62
256
6
ByLayer
370
18
48
1
60
0
100
AcDbEllipse
10
24.474706
20
-6.047084
30
0
11
1.59998893094121
21
-0.078337766581393
31
0
210
0
220
0
230
-1
40
0.075973
41
-2.06768997916658
42
-1.43216828768546
0
ELLIPSE
5
EB
100
AcDbEntity
8
1
62
256
6
ByLayer
370
18
48
1
60
0
100
AcDbEllipse
10
22.696512
20
-6.0975
30
0
11
0.340159485189729
21
-1.64427157577362E-10
31
0
210
0
220
0
230
-1
40
0.764347
41
-1.57079632742756
42
-1.48065885078714
0
ELLIPSE
5
EC
100
AcDbEntity
8
1
62
256
6
ByLayer
370
18
48
1
60
0
100
AcDbEllipse
10
23.627277
20
-5.885761
30
0
11
0.189998685541888
21
-0.00930260978102951
31
0
210
0
220
0
230
-1
40
0.075973
41
1.07390267441336
42
1.82887599393418
0
POINT
5
6C
100
AcDbEntity
8
80
62
256
6
ByLayer
370
18
48
1
60
0
100
AcDbPoint
10
0
20
0
30
0
39
0
210
0
220
0
230
1
50
360
0
POINT
5
6E
100
AcDbEntity
8
81
62
256
6
ByLayer
370
18
48
1
60
0
100
AcDbPoint
10
25
20
-5.95
30
0
39
0
210
0
220
0
230
1
50
360
0
SPLINE
5
ED
100
AcDbEntity
8
1
62
256
6
ByLayer
370
18
48
1
60
0
100
AcDbSpline
70
4
71
3
72
24
73
20
40
0
40
0
40
0
40
0
40
0.113296116299436
40
0.113296116299436
40
0.226581695910389
40
0.226581695910389
40
0.340168248489011
40
0.340168248489011
40
0.443339469291559
40
0.443339469291559
40
0.604413890746703
40
0.604413890746703
40
0.779029435553977
40
0.779029435553977
40
0.873950867617413
40
0.873950867617413
40
0.97057839307849
40
0.97057839307849
40
1
40
1
40
1
40
1
41
1
10
8.99101673004867
20
-3.85000000000014
30
0
41
1
10
8.95329284471424
20
-3.95834942199269
30
0
41
1
10
8.91602865252227
20
-4.06505821395226
30
0
41
1
10
8.8370148871079
20
-4.25389515688357
30
0
41
1
10
8.79413130693121
20
-4.33863407920163
30
0
41
1
10
8.69190051073122
20
-4.47255360000918
30
0
41
1
10
8.63002926082316
20
-4.52339404045637
30
0
41
1
10
8.48772677152084
20
-4.58341839013249
30
0
41
1
10
8.40780456807093
20
-4.59708136030625
30
0
41
1
10
8.1905074530473
20
-4.60343332256093
30
0
41
1
10
8.04365969051071
20
-4.58227648271389
30
0
41
1
10
7.74466529110299
20
-4.50317149496314
30
0
41
1
10
7.58791460487134
20
-4.44077303754241
30
0
41
1
10
7.37052465387805
20
-4.3026827612992
30
0
41
1
10
7.29752361091664
20
-4.24492733269739
30
0
41
1
10
7.17158532341247
20
-4.10832175375469
30
0
41
1
10
7.11732770841388
20
-4.02665134269512
30
0
41
1
10
7.07503063127041
20
-3.90847479976747
30
0
41
1
10
7.06703459554311
20
-3.87949403286496
30
0
41
1
10
7.06142988770111
20
-3.85000000000062
30
0
0
SPLINE
5
EE
100
AcDbEntity
8
1
62
256
6
ByLayer
370
18
48
1
60
0
100
AcDbSpline
70
4
71
3
72
14
73
10
40
0
40
0
40
0
40
0
40
0.249494809557848
40
0.249494809557848
40
0.614083599461115
40
0.614083599461115
40
0.928531828703427
40
0.928531828703427
40
1
40
1
40
1
40
1
41
1
10
21.7510495503374
20
-4.71256090039324
30
0
41
1
10
21.6812112776721
20
-4.67159579155708
30
0
41
1
10
21.6148877308804
20
-4.62114763479889
30
0
41
1
10
21.4685927720755
20
-4.47708652347964
30
0
41
1
10
21.3940414022655
20
-4.3711532209802
30
0
41
1
10
21.2977532171732
20
-4.15337374138403
30
0
41
1
10
21.2689298009432
20
-4.04097931338734
30
0
41
1
10
21.2580307305354
20
-3.90231818733656
30
0
41
1
10
21.2570028022421
20
-3.87614616665826
30
0
41
1
10
21.2570028022421
20
-3.85000000000014
30
0
0
SPLINE
5
EF
100
AcDbEntity
8
1
62
256
6
ByLayer
370
18
48
1
60
0
100
AcDbSpline
70
4
71
3
72
18
73
14
40
0
40
0
40
0
40
0
40
0.170069669445255
40
0.170069669445255
40
0.339505848081996
40
0.339505848081996
40
0.519155754364721
40
0.519155754364721
40
0.727568430002722
40
0.727568430002722
40
0.996228840704801
40
0.996228840704801
40
1
40
1
40
1
40
1
41
1
10
15.250084746006
20
-3.85000000000014
30
0
41
1
10
15.250084746006
20
-3.94816644255505
30
0
41
1
10
15.2600490186811
20
-4.04769861962552
30
0
41
1
10
15.2972241765673
20
-4.23202581952847
30
0
41
1
10
15.3247759728996
20
-4.31932217586285
30
0
41
1
10
15.3941514282768
20
-4.47819751553493
30
0
41
1
10
15.4374894112767
20
-4.55050850302862
30
0
41
1
10
15.5400579639483
20
-4.68019066590895
30
0
41
1
10
15.60190411282
20
-4.73501662256726
30
0
41
1
10
15.74895352121
20
-4.82403296094779
30
0
41
1
10
15.8379902268298
20
-4.84930494091253
30
0
41
1
10
15.9276859916654
20
-4.8499952143099
30
0
41
1
10
15.928930118091
20
-4.85000000000014
30
0
41
1
10
15.9301741304306
20
-4.85000000000014
30
0
0
SPLINE
5
F0
100
AcDbEntity
8
1
62
256
6
ByLayer
370
18
48
1
60
0
100
AcDbSpline
70
4
71
3
72
30
73
26
40
0
40
0
40
0
40
0
40
0.0753532267987904
40
0.0753532267987904
40
0.150695647982323
40
0.150695647982323
40
0.226332094268198
40
0.226332094268198
40
0.305509534816089
40
0.305509534816089
40
0.392053346608792
40
0.392053346608792
40
0.490697130593379
40
0.490697130593379
40
0.606067953870684
40
0.606067953870684
40
0.737989866722533
40
0.737989866722533
40
0.823296689629337
40
0.823296689629337
40
0.888426019949405
40
0.888426019949405
40
0.954352970847592
40
0.954352970847592
40
1
40
1
40
1
40
1
41
1
10
7.06142988770253
20
-3.85000000000014
30
0
41
1
10
7.04285705585409
20
-3.7522629317416
30
0
41
1
10
7.03525619702873
20
-3.64834916401279
30
0
41
1
10
7.04313706824766
20
-3.4453689593002
30
0
41
1
10
7.05872468028574
20
-3.34357250277881
30
0
41
1
10
7.11099195855036
20
-3.15539954458376
30
0
41
1
10
7.14843779380965
20
-3.06664535563974
30
0
41
1
10
7.2426308673937
20
-2.90878396187929
30
0
41
1
10
7.30135800661168
20
-2.8387773255327
30
0
41
1
10
7.43787621375941
20
-2.72182312596806
30
0
41
1
10
7.5185374964359
20
-2.67608994560283
30
0
41
1
10
7.69999537592693
20
-2.6120515654386
30
0
41
1
10
7.80415668430391
20
-2.59749946264029
30
0
41
1
10
8.03257865940137
20
-2.60368877672846
30
0
41
1
10
8.16015636118721
20
-2.63063018562792
30
0
41
1
10
8.42473845886315
20
-2.73152329579506
30
0
41
1
10
8.5650542693634
20
-2.81292265378886
30
0
41
1
10
8.76825605874214
20
-2.99036197013461
30
0
41
1
10
8.84276640837086
20
-3.07310501296252
30
0
41
1
10
8.94755410849908
20
-3.23916233511909
30
0
41
1
10
8.98482907242845
20
-3.31952013939804
30
0
41
1
10
9.03072233872081
20
-3.48888347771279
30
0
41
1
10
9.03917451122925
20
-3.58063731897815
30
0
41
1
10
9.02503460186409
20
-3.73071215480016
30
0
41
1
10
9.01119190055056
20
-3.79205347505706
30
0
41
1
10
8.99101673004867
20
-3.85000000000014
30
0
0
SPLINE
5
F1
100
AcDbEntity
8
1
62
256
6
ByLayer
370
18
48
1
60
0
100
AcDbSpline
70
4
71
3
72
12
73
8
40
0
40
0
40
0
40
0
40
0.189246157678278
40
0.189246157678278
40
0.839362023773437
40
0.839362023773437
40
1
40
1
40
1
40
1
41
1
10
21.9393513725705
20
-4.85000000000014
30
0
41
1
10
21.926899281112
20
-4.85000000000014
30
0
41
1
10
21.9144320956294
20
-4.84831902613294
30
0
41
1
10
21.8597819726571
20
-4.83353632335499
30
0
41
1
10
21.8176488120671
20
-4.8019641660735
30
0
41
1
10
21.7696126611443
20
-4.74041251379094
30
0
41
1
10
21.7602145102802
20
-4.72701426452667
30
0
41
1
10
21.7510495503374
20
-4.71256090039324
30
0
0
SPLINE
5
F2
100
AcDbEntity
8
1
62
256
6
ByLayer
370
13
48
1
60
0
100
AcDbSpline
70
4
71
3
72
10
73
6
40
0
40
0
40
0
40
0
40
0.957280310804285
40
0.957280310804285
40
1
40
1
40
1
40
1
41
1
10
23.5975019317202
20
-5.12805044556865
30
0
41
1
10
23.5979293454044
20
-5.12793868435685
30
0
41
1
10
23.5983566868851
20
-5.12782669038
30
0
41
1
10
23.5988030223135
20
-5.12770945248778
30
0
41
1
10
23.5988218148893
20
-5.12770396861643
30
0
41
1
10
23.5988411564978
20
-5.12769943434873
30
0
0
SPLINE
5
F3
100
AcDbEntity
8
1
62
256
6
ByLayer
370
13
48
1
60
0
100
AcDbSpline
70
4
71
3
72
10
73
6
40
0
40
0
40
0
40
0
40
0.000741747746054
40
0.000741747746054
40
1
40
1
40
1
40
1
41
1
10
23.5988411564979
20
-5.12769943434873
30
0
41
1
10
23.5988607721014
20
-5.12769558005712
30
0
41
1
10
23.5988803879297
20
-5.12769172750441
30
0
41
1
10
23.6253242002731
20
-5.12249008370085
30
0
41
1
10
23.6518509747949
20
-5.11536076091997
30
0
41
1
10
23.67635808892
20
-5.1058632903613
30
0
0
SPLINE
5
F4
100
AcDbEntity
8
1
62
256
6
ByLayer
370
13
48
1
60
0
100
AcDbSpline
70
4
71
3
72
12
73
8
40
0
40
0
40
0
40
0
40
0.408823369818383
40
0.408823369818383
40
0.862401238579022
40
0.862401238579022
40
1
40
1
40
1
40
1
41
1
10
23.6763580888926
20
-5.10586329032483
30
0
41
1
10
23.8295999215801
20
-5.10093316188417
30
0
41
1
10
23.9887406269257
20
-5.09085719992302
30
0
41
1
10
24.328540750374
20
-5.07861385029767
30
0
41
1
10
24.5126660383623
20
-5.07297122321449
30
0
41
1
10
24.7442847568548
20
-5.06096635397697
30
0
41
1
10
24.8003778206787
20
-5.06093226125347
30
0
41
1
10
24.8497773565141
20
-5.04027603086129
30
0
0
SPLINE
5
F5
100
AcDbEntity
8
1
62
256
6
ByLayer
370
13
48
1
60
0
100
AcDbSpline
70
4
71
3
72
10
73
6
40
0
40
0
40
0
40
0
40
0.999258252254026
40
0.999258252254026
40
1
40
1
40
1
40
1
41
1
10
23.6763580888987
20
-5.59413670967592
30
0
41
1
10
23.6518509747829
20
-5.58463923910611
30
0
41
1
10
23.6253242002731
20
-5.57750991629914
30
0
41
1
10
23.5988803879292
20
-5.57230827249552
30
0
41
1
10
23.598860772101
20
-5.57230441994235
30
0
41
1
10
23.5988411564975
20
-5.57230056565058
30
0
0
SPLINE
5
F6
100
AcDbEntity
8
1
62
256
6
ByLayer
370
13
48
1
60
0
100
AcDbSpline
70
4
71
3
72
10
73
6
40
0
40
0
40
0
40
0
40
0.0427196892235164
40
0.0427196892235164
40
1
40
1
40
1
40
1
41
1
10
23.5988411564979
20
-5.5723005656512
30
0
41
1
10
23.5988218148894
20
-5.57229603138333
30
0
41
1
10
23.5988030223142
20
-5.5722905475109
30
0
41
1
10
23.5983566868855
20
-5.57217330961862
30
0
41
1
10
23.5979293454034
20
-5.57206131564357
30
0
41
1
10
23.5975019317189
20
-5.57194955443171
30
0
0
SPLINE
5
F7
100
AcDbEntity
8
1
62
256
6
ByLayer
370
13
48
1
60
0
100
AcDbSpline
70
4
71
3
72
12
73
8
40
0
40
0
40
0
40
0
40
0.137598761402204
40
0.137598761402204
40
0.591176630175501
40
0.591176630175501
40
1
40
1
40
1
40
1
41
1
10
24.8497773564897
20
-5.65972396912849
30
0
41
1
10
24.800377820659
20
-5.63906773874737
30
0
41
1
10
24.7442847568461
20
-5.63903364602263
30
0
41
1
10
24.5126660383623
20
-5.62702877678552
30
0
41
1
10
24.328540750374
20
-5.62138614970232
30
0
41
1
10
23.9887406269276
20
-5.60914280007708
30
0
41
1
10
23.8295999215839
20
-5.59906683811593
30
0
41
1
10
23.6763580888983
20
-5.59413670967538
30
0
0
SPLINE
5
F8
100
AcDbEntity
8
1
62
256
6
ByLayer
370
13
48
1
60
0
100
AcDbSpline
70
4
71
3
72
12
73
8
40
0
40
0
40
0
40
0
40
0.0811239151353546
40
0.0811239151353546
40
0.570421616363209
40
0.570421616363209
40
1
40
1
40
1
40
1
41
1
10
24.7799999999999
20
-5.02425125488358
30
0
41
1
10
24.7507812005022
20
-5.0230859402574
30
0
41
1
10
24.7214306560261
20
-5.02105103691324
30
0
41
1
10
24.5167487180875
20
-5.00727798911666
30
0
41
1
10
24.3350596417738
20
-4.99542049484111
30
0
41
1
10
24.009134766685
20
-4.97586992146674
30
0
41
1
10
23.8595657198708
20
-4.96882183058179
30
0
41
1
10
23.7224902975933
20
-4.95834418292299
30
0
0
SPLINE
5
F9
100
AcDbEntity
8
1
62
256
6
ByLayer
370
13
48
1
60
0
100
AcDbSpline
70
4
71
3
72
12
73
8
40
0
40
0
40
0
40
0
40
0.429578383634092
40
0.429578383634092
40
0.918876084864297
40
0.918876084864297
40
1
40
1
40
1
40
1
41
1
10
23.7224902975979
20
-5.74165581707669
30
0
41
1
10
23.8595657198742
20
-5.73117816941812
30
0
41
1
10
24.0091347666867
20
-5.72413007853316
30
0
41
1
10
24.3350596417738
20
-5.7045795051589
30
0
41
1
10
24.5167487180875
20
-5.69272201088336
30
0
41
1
10
24.7214306560261
20
-5.67894896308678
30
0
41
1
10
24.7507812005021
20
-5.67691405974062
30
0
41
1
10
24.7799999999997
20
-5.67574874511411
30
0
0
SPLINE
5
FA
100
AcDbEntity
8
1
62
256
6
ByLayer
370
13
48
1
60
0
100
AcDbSpline
70
4
71
3
72
10
73
6
40
0
40
0
40
0
40
0
40
0.837932166747692
40
0.837932166747692
40
1
40
1
40
1
40
1
41
1
10
23.7224902975917
20
-4.95834418292395
30
0
41
1
10
23.7209653985701
20
-4.95822762406618
30
0
41
1
10
23.7194256857613
20
-4.95785189514592
30
0
41
1
10
23.7177587848617
20
-4.95700614544677
30
0
41
1
10
23.7174896626704
20
-4.95685411944083
30
0
41
1
10
23.7172272439063
20
-4.95668903915586
30
0
0
SPLINE
5
FB
100
AcDbEntity
8
1
62
256
6
ByLayer
370
13
48
1
60
0
100
AcDbSpline
70
4
71
3
72
10
73
6
40
0
40
0
40
0
40
0
40
0.162067833383207
40
0.162067833383207
40
1
40
1
40
1
40
1
41
1
10
23.7172272439064
20
-5.74331096084444
30
0
41
1
10
23.717489662671
20
-5.74314588055915
30
0
41
1
10
23.7177587848627
20
-5.74299385455268
30
0
41
1
10
23.7194256857642
20
-5.74214810485293
30
0
41
1
10
23.7209653985745
20
-5.74177237593267
30
0
41
1
10
23.7224902975975
20
-5.74165581707558
30
0
0
SPLINE
5
FC
100
AcDbEntity
8
1
62
256
6
ByLayer
370
13
48
1
60
0
100
AcDbSpline
70
4
71
3
72
12
73
8
40
0
40
0
40
0
40
0
40
0.0114286314612157
40
0.0114286314612157
40
0.899984611169169
40
0.899984611169169
40
1
40
1
40
1
40
1
41
1
10
23.5781010696722
20
-4.94962790524568
30
0
41
1
10
23.5778651141675
20
-4.94972150080255
30
0
41
1
10
23.5776291519024
20
-4.94981507809425
30
0
41
1
10
23.5590475059243
20
-4.95718278119588
30
0
41
1
10
23.5408030676214
20
-4.96476336069429
30
0
41
1
10
23.5201244422285
20
-4.97209399496543
30
0
41
1
10
23.5180302510424
20
-4.97283200521213
30
0
41
1
10
23.5159349673001
20
-4.97356666407606
30
0
0
SPLINE
5
FD
100
AcDbEntity
8
1
62
256
6
ByLayer
370
13
48
1
60
0
100
AcDbSpline
70
4
71
3
72
14
73
10
40
0
40
0
40
0
40
0
40
0.301043646539296
40
0.301043646539296
40
0.591702264887698
40
0.591702264887698
40
0.795143627133059
40
0.795143627133059
40
1
40
1
40
1
40
1
41
1
10
23.5159349673002
20
-4.97356666407623
30
0
41
1
10
23.4684724487671
20
-4.99417652952454
30
0
41
1
10
23.4218099548814
20
-5.0177526082538
30
0
41
1
10
23.3373358227353
20
-5.07514285494435
30
0
41
1
10
23.298581743313
20
-5.10923114988302
30
0
41
1
10
23.2461263737567
20
-5.17767218828033
30
0
41
1
10
23.2280707308743
20
-5.20950686219356
30
0
41
1
10
23.203443473142
20
-5.27709910080489
30
0
41
1
10
23.1967065257328
20
-5.31380853224749
30
0
41
1
10
23.1967065257328
20
-5.35000000000002
30
0
0
SPLINE
5
FE
100
AcDbEntity
8
1
62
256
6
ByLayer
370
13
48
1
60
0
100
AcDbSpline
70
4
71
3
72
14
73
10
40
0
40
0
40
0
40
0
40
0.204856372866955
40
0.204856372866955
40
0.40829773511231
40
0.40829773511231
40
0.698956353460734
40
0.698956353460734
40
1
40
1
40
1
40
1
41
1
10
23.1967065257328
20
-5.35000000000002
30
0
41
1
10
23.1967065257328
20
-5.38619146775255
30
0
41
1
10
23.203443473142
20
-5.42290089919516
30
0
41
1
10
23.2280707308743
20
-5.49049313780648
30
0
41
1
10
23.2461263737567
20
-5.52232781171972
30
0
41
1
10
23.298581743313
20
-5.59076885011703
30
0
41
1
10
23.3373358227353
20
-5.62485714505567
30
0
41
1
10
23.4218099548814
20
-5.68224739174624
30
0
41
1
10
23.4684724487671
20
-5.70582347047548
30
0
41
1
10
23.5159349673002
20
-5.72643333592379
30
0
0
SPLINE
5
FF
100
AcDbEntity
8
1
62
256
6
ByLayer
370
13
48
1
60
0
100
AcDbSpline
70
4
71
3
72
10
73
6
40
0
40
0
40
0
40
0
40
0.0520251319341228
40
0.0520251319341228
40
1
40
1
40
1
40
1
41
1
10
23.5159349673002
20
-5.72643333592382
30
0
41
1
10
23.5170248817396
20
-5.72681548717509
30
0
41
1
10
23.5181144998311
20
-5.72719854572702
30
0
41
1
10
23.5390437281818
20
-5.73457743590942
30
0
41
1
10
23.5585296274594
20
-5.74260876651542
30
0
41
1
10
23.5781010696722
20
-5.7503720947544
30
0
0
SPLINE
5
100
100
AcDbEntity
8
1
62
256
6
ByLayer
370
13
48
1
60
0
100
AcDbSpline
70
4
71
3
72
12
73
8
40
0
40
0
40
0
40
0
40
0.269778587602853
40
0.269778587602853
40
0.634889293801962
40
0.634889293801962
40
1
40
1
40
1
40
1
41
1
10
22.2102613456769
20
-5.80282132583292
30
0
41
1
10
22.2198043370963
20
-5.77838610289856
30
0
41
1
10
22.2293472458896
20
-5.7539508453782
30
0
41
1
10
22.2518050793757
20
-5.69644552729079
30
0
41
1
10
22.2647199412156
20
-5.66337544041463
30
0
41
1
10
22.290549419468
20
-5.59723516393595
30
0
41
1
10
22.303464035865
20
-5.56416497432642
30
0
41
1
10
22.3163785438023
20
-5.53109473932071
30
0
0
SPLINE
5
101
100
AcDbEntity
8
1
62
256
6
ByLayer
370
13
48
1
60
0
100
AcDbSpline
70
4
71
3
72
12
73
8
40
0
40
0
40
0
40
0
40
0.380170769442459
40
0.380170769442459
40
0.687947934323516
40
0.687947934323516
40
1
40
1
40
1
40
1
41
1
10
22.3163785438023
20
-5.53109473932071
30
0
41
1
10
22.3248788620167
20
-5.50932793857711
30
0
41
1
10
22.3317792066155
20
-5.48682384421446
30
0
41
1
10
22.3413006536214
20
-5.44547678797684
30
0
41
1
10
22.3445049528828
20
-5.42667437563938
30
0
41
1
10
22.348816864827
20
-5.38861629899691
30
0
41
1
10
22.3499026485121
20
-5.36929164901079
30
0
41
1
10
22.3499026545658
20
-5.35000006652851
30
0
0
SPLINE
5
102
100
AcDbEntity
8
1
62
256
6
ByLayer
370
13
48
1
60
0
100
AcDbSpline
70
4
71
3
72
12
73
8
40
0
40
0
40
0
40
0
40
0.312052560071194
40
0.312052560071194
40
0.619829503767847
40
0.619829503767847
40
1
40
1
40
1
40
1
41
1
10
22.3499026545659
20
-5.35000006652851
30
0
41
1
10
22.3499026485121
20
-5.33070843976921
30
0
41
1
10
22.3488168698094
20
-5.31138374497863
30
0
41
1
10
22.3445049528828
20
-5.27332562436067
30
0
41
1
10
22.3413006536214
20
-5.25452321202317
30
0
41
1
10
22.3317792066155
20
-5.21317615578559
30
0
41
1
10
22.3248788620167
20
-5.19067206142293
30
0
41
1
10
22.3163785438023
20
-5.16890526067937
30
0
0
SPLINE
5
103
100
AcDbEntity
8
1
62
256
6
ByLayer
370
13
48
1
60
0
100
AcDbSpline
70
4
71
3
72
12
73
8
40
0
40
0
40
0
40
0
40
0.365110706198115
40
0.365110706198115
40
0.730221412397182
40
0.730221412397182
40
1
40
1
40
1
40
1
41
1
10
22.3163785438023
20
-5.16890526067937
30
0
41
1
10
22.3034640358651
20
-5.13583502567363
30
0
41
1
10
22.290549419468
20
-5.1027648360641
30
0
41
1
10
22.2647199412156
20
-5.03662455958539
30
0
41
1
10
22.2518050793757
20
-5.00355447270923
30
0
41
1
10
22.2293472458896
20
-4.94604915462182
30
0
41
1
10
22.2198043370963
20
-4.92161389710145
30
0
41
1
10
22.2102613456769
20
-4.89717867416709
30
0
0
SPLINE
5
104
100
AcDbEntity
8
1
62
256
6
ByLayer
370
13
48
1
60
0
100
AcDbSpline
70
4
71
3
72
20
73
16
40
0
40
0
40
0
40
0
40
0.000165484337836
40
0.000165484337836
40
0.136106971468227
40
0.136106971468227
40
0.169493941610355
40
0.169493941610355
40
0.353754143604411
40
0.353754143604411
40
0.655858628752808
40
0.655858628752808
40
0.999834515647636
40
0.999834515647636
40
1
40
1
40
1
40
1
41
1
10
23.3360661026023
20
-5.35000000000002
30
0
41
1
10
23.3360661069979
20
-5.34998000000235
30
0
41
1
10
23.3360661074965
20
-5.34996000000302
30
0
41
1
10
23.3360741579009
20
-5.33351047436744
30
0
41
1
10
23.3395339470045
20
-5.31684232204762
30
0
41
1
10
23.3471633860259
20
-5.29778519825089
30
0
41
1
10
23.3488541953586
20
-5.2940411879905
30
0
41
1
10
23.3606500028934
20
-5.27048632939392
30
0
41
1
10
23.3750731248798
20
-5.25264627754075
30
0
41
1
10
23.4178566940811
20
-5.21253631102198
30
0
41
1
10
23.4497220916692
20
-5.19326641318662
30
0
41
1
10
23.5196813478819
20
-5.1588446116948
30
0
41
1
10
23.5585910808526
20
-5.14382421152726
30
0
41
1
10
23.5978595268691
20
-5.13052697709659
30
0
41
1
10
23.5978783480879
20
-5.13052060503767
30
0
41
1
10
23.5978971691686
20
-5.13051423246264
30
0
0
SPLINE
5
105
100
AcDbEntity
8
1
62
256
6
ByLayer
370
13
48
1
60
0
100
AcDbSpline
70
4
71
3
72
8
73
4
40
0
40
0
40
0
40
0
40
1
40
1
40
1
40
1
41
1
10
23.3360661026023
20
-5.35000000000002
30
0
41
1
10
23.2939028635983
20
-5.35000000000002
30
0
41
1
10
23.2429775954971
20
-5.35000000000002
30
0
41
1
10
23.1967065257328
20
-5.35000000000002
30
0
0
SPLINE
5
106
100
AcDbEntity
8
1
62
256
6
ByLayer
370
13
48
1
60
0
100
AcDbSpline
70
4
71
3
72
20
73
16
40
0
40
0
40
0
40
0
40
0.000165030801543
40
0.000165030801543
40
0.344325679665235
40
0.344325679665235
40
0.646592436128664
40
0.646592436128664
40
0.830951610983977
40
0.830951610983977
40
0.95394668931842
40
0.95394668931842
40
0.999834969212901
40
0.999834969212901
40
1
40
1
40
1
40
1
41
1
10
23.5978971691686
20
-5.56948576753737
30
0
41
1
10
23.5978783480879
20
-5.56947939496234
30
0
41
1
10
23.5978595268691
20
-5.56947302290345
30
0
41
1
10
23.5585910808526
20
-5.55617578847276
30
0
41
1
10
23.5196813478819
20
-5.54115538830524
30
0
41
1
10
23.4497220916692
20
-5.5067335868134
30
0
41
1
10
23.4178566940811
20
-5.48746368897804
30
0
41
1
10
23.3750731248798
20
-5.4473537224593
30
0
41
1
10
23.3606500028934
20
-5.42951367060613
30
0
41
1
10
23.3440092344374
20
-5.39628398736801
30
0
41
1
10
23.3392601790045
20
-5.38171351300443
30
0
41
1
10
23.336462741476
20
-5.36134433104831
30
0
41
1
10
23.3360688755355
20
-5.35569598104655
30
0
41
1
10
23.3360661074962
20
-5.35003999999705
30
0
41
1
10
23.3360661069978
20
-5.3500199999977
30
0
41
1
10
23.3360661026023
20
-5.35000000000002
30
0
0
SPLINE
5
107
100
AcDbEntity
8
1
62
256
6
ByLayer
370
13
48
1
60
0
100
AcDbSpline
70
4
71
2
72
6
73
3
40
0
40
0
40
0
40
1
40
1
40
1
41
0.505283630845527
10
23.3360661025961
20
-5.35000000000003
30
0
41
0.512247996302356
10
23.4496138160129
20
-5.35000000000001
30
0
41
0.52839210720967
10
23.5712869567194
20
-5.35000000000002
30
0
0
SPLINE
5
108
100
AcDbEntity
8
1
62
256
6
ByLayer
370
13
48
1
60
0
100
AcDbSpline
70
4
71
3
72
16
73
12
40
0
40
0
40
0
40
0
40
0.376846309868159
40
0.376846309868159
40
0.825289585032469
40
0.825289585032469
40
0.941856158020066
40
0.941856158020066
40
0.980304838575353
40
0.980304838575353
40
1
40
1
40
1
40
1
41
1
10
23.7172272439063
20
-5.74331096084453
30
0
41
1
10
23.7013967434049
20
-5.74401964749717
30
0
41
1
10
23.6841815111634
20
-5.74483220224644
30
0
41
1
10
23.6457765604721
20
-5.74672928977898
30
0
41
1
10
23.6239034433425
20
-5.74786330369929
30
0
41
1
10
23.5972369363234
20
-5.74931005118339
30
0
41
1
10
23.5917037731525
20
-5.74961380338147
30
0
41
1
10
23.5844225364923
20
-5.75001826897477
30
0
41
1
10
23.5826210316038
20
-5.75011873371167
30
0
41
1
10
23.5799161857354
20
-5.75027016883021
30
0
41
1
10
23.5790077151561
20
-5.75032113271507
30
0
41
1
10
23.5781010696722
20
-5.75037209475434
30
0
0
SPLINE
5
109
100
AcDbEntity
8
1
62
256
6
ByLayer
370
13
48
1
60
0
100
AcDbSpline
70
4
71
3
72
16
73
12
40
0
40
0
40
0
40
0
40
0.376860358305092
40
0.376860358305092
40
0.825366989266399
40
0.825366989266399
40
0.94185963092701
40
0.94185963092701
40
0.980306166819099
40
0.980306166819099
40
1
40
1
40
1
40
1
41
1
10
23.6431174554434
20
-5.63143940368062
30
0
41
1
10
23.6346933671857
20
-5.64337674525203
30
0
41
1
10
23.6259846915038
20
-5.65706378780709
30
0
41
1
10
23.6074731457185
20
-5.68902099694978
30
0
41
1
10
23.5975118415572
20
-5.70812495321104
30
0
41
1
10
23.5860603104531
20
-5.73249184144507
30
0
41
1
10
23.5837238068054
20
-5.73760455915695
30
0
41
1
10
23.5806993925724
20
-5.74441331816962
30
0
41
1
10
23.5799549718819
20
-5.74610525857074
30
0
41
1
10
23.578843606628
20
-5.74865556829997
30
0
41
1
10
23.57847144458
20
-5.74951384865852
30
0
41
1
10
23.5781010696722
20
-5.75037209475434
30
0
0
SPLINE
5
10A
100
AcDbEntity
8
1
62
256
6
ByLayer
370
13
48
1
60
0
100
AcDbSpline
70
4
71
3
72
8
73
4
40
0
40
0
40
0
40
0
40
1
40
1
40
1
40
1
41
1
10
23.7172272439063
20
-5.74331096084418
30
0
41
1
10
23.6989511716949
20
-5.70177042416907
30
0
41
1
10
23.6716111263306
20
-5.66049958112319
30
0
41
1
10
23.6431174554447
20
-5.63143940368309
30
0
0
SPLINE
5
10B
100
AcDbEntity
8
1
62
256
6
ByLayer
370
13
48
1
60
0
100
AcDbSpline
70
4
71
3
72
8
73
4
40
0
40
0
40
0
40
0
40
1
40
1
40
1
40
1
41
1
10
23.7172272439064
20
-4.95668903915583
30
0
41
1
10
23.6989511717393
20
-4.99822957554207
30
0
41
1
10
23.6716111265305
20
-5.03950041830731
30
0
41
1
10
23.6431174557802
20
-5.06856059568625
30
0
0
SPLINE
5
10C
100
AcDbEntity
8
1
62
256
6
ByLayer
370
13
48
1
60
0
100
AcDbSpline
70
4
71
3
72
16
73
12
40
0
40
0
40
0
40
0
40
0.0196938331976387
40
0.0196938331976387
40
0.0581403695686109
40
0.0581403695686109
40
0.174633012630874
40
0.174633012630874
40
0.62313964369059
40
0.62313964369059
40
1
40
1
40
1
40
1
41
1
10
23.5781010696967
20
-4.94962790528317
30
0
41
1
10
23.5784714446024
20
-4.95048615138063
30
0
41
1
10
23.578843606646
20
-4.95134443174189
30
0
41
1
10
23.5799549719093
20
-4.95389474149212
30
0
41
1
10
23.5806993926497
20
-4.95558668189494
30
0
41
1
10
23.5837238068899
20
-4.96239544100143
30
0
41
1
10
23.5860603105555
20
-4.96750815877783
30
0
41
1
10
23.5975118416956
20
-4.99187504706367
30
0
41
1
10
23.6074731456442
20
-5.01097900341259
30
0
41
1
10
23.6259846914539
20
-5.04293621241334
30
0
41
1
10
23.6346933672312
20
-5.05662325481714
30
0
41
1
10
23.6431174554433
20
-5.06856059631951
30
0
0
SPLINE
5
10D
100
AcDbEntity
8
1
62
256
6
ByLayer
370
13
48
1
60
0
100
AcDbSpline
70
4
71
3
72
16
73
12
40
0
40
0
40
0
40
0
40
0.0196951615900289
40
0.0196951615900289
40
0.0581438438028573
40
0.0581438438028573
40
0.174710416708302
40
0.174710416708302
40
0.623153691432622
40
0.623153691432622
40
1
40
1
40
1
40
1
41
1
10
23.5781010695323
20
-4.94962790525446
30
0
41
1
10
23.5790077150248
20
-4.94967886728898
30
0
41
1
10
23.579916185613
20
-4.94972983116418
30
0
41
1
10
23.5826210315687
20
-4.9498812662867
30
0
41
1
10
23.5844225365366
20
-4.94998173102772
30
0
41
1
10
23.5917037732791
20
-4.95038619662554
30
0
41
1
10
23.5972369364522
20
-4.95068994882377
30
0
41
1
10
23.6239034434752
20
-4.95213669630772
30
0
41
1
10
23.6457765606042
20
-4.95327071022783
30
0
41
1
10
23.6841815112473
20
-4.95516779775758
30
0
41
1
10
23.7013967434432
20
-4.9559803525047
30
0
41
1
10
23.7172272439063
20
-4.95668903915563
30
0
0
SPLINE
5
10E
100
AcDbEntity
8
1
62
256
6
ByLayer
370
13
48
1
60
0
100
AcDbSpline
70
4
71
3
72
10
73
6
40
0
40
0
40
0
40
0
40
0.827073648700203
40
0.827073648700203
40
1
40
1
40
1
40
1
41
1
10
23.676358088916
20
-5.59413670965799
30
0
41
1
10
23.6675081210619
20
-5.60135068007966
30
0
41
1
10
23.6581608165256
20
-5.61136345358062
30
0
41
1
10
23.6470054743037
20
-5.62602946009116
30
0
41
1
10
23.6450582617638
20
-5.62868918700161
30
0
41
1
10
23.643117455441
20
-5.63143940367567
30
0
0
SPLINE
5
10F
100
AcDbEntity
8
1
62
256
6
ByLayer
370
13
48
1
60
0
100
AcDbSpline
70
4
71
3
72
10
73
6
40
0
40
0
40
0
40
0
40
0.172926350998603
40
0.172926350998603
40
1
40
1
40
1
40
1
41
1
10
23.6431174554409
20
-5.06856059632426
30
0
41
1
10
23.6450582617601
20
-5.07131081299329
30
0
41
1
10
23.6470054742965
20
-5.07397053989897
30
0
41
1
10
23.6581608165074
20
-5.0886365463972
30
0
41
1
10
23.6675081210362
20
-5.09864931989381
30
0
41
1
10
23.6763580888841
20
-5.10586329031608
30
0
0
SPLINE
5
110
100
AcDbEntity
8
1
62
256
6
ByLayer
370
13
48
1
60
0
100
AcDbSpline
70
4
71
3
72
12
73
8
40
0
40
0
40
0
40
0
40
0.27543267913481
40
0.27543267913481
40
0.550865358269976
40
0.550865358269976
40
1
40
1
40
1
40
1
41
1
10
22.1580740539783
20
-5.45250000000001
30
0
41
1
10
22.1472340055749
20
-5.48025864162085
30
0
41
1
10
22.1363938883783
20
-5.50801725701666
30
0
41
1
10
22.1147135009636
20
-5.56353442933579
30
0
41
1
10
22.1038732307506
20
-5.59129298626124
30
0
41
1
10
22.075356037142
20
-5.66431598319932
30
0
41
1
10
22.0576789732651
20
-5.7095803694358
30
0
41
1
10
22.0400016435187
20
-5.7548446537387
30
0
0
SPLINE
5
111
100
AcDbEntity
8
1
62
256
6
ByLayer
370
13
48
1
60
0
100
AcDbSpline
70
4
71
3
72
14
73
10
40
0
40
0
40
0
40
0
40
0.352416861230633
40
0.352416861230633
40
0.703822786100484
40
0.703822786100484
40
0.977379856784876
40
0.977379856784876
40
1
40
1
40
1
40
1
41
1
10
22.0429331018649
20
-5.75560386110502
30
0
41
1
10
22.0523406453972
20
-5.75932930262255
30
0
41
1
10
22.0664026317255
20
-5.76402332915552
30
0
41
1
10
22.101346396939
20
-5.77453228415666
30
0
41
1
10
22.1226845470768
20
-5.78048761840739
30
0
41
1
10
22.1645150035476
20
-5.79149488358945
30
0
41
1
10
22.184516237018
20
-5.79655168298646
30
0
41
1
10
22.206852064168
20
-5.80199424061118
30
0
41
1
10
22.208554255419
20
-5.80240779488591
30
0
41
1
10
22.2102613456769
20
-5.80282132583292
30
0
0
SPLINE
5
112
100
AcDbEntity
8
1
62
256
6
ByLayer
370
13
48
1
60
0
100
AcDbSpline
70
4
71
3
72
8
73
4
40
0
40
0
40
0
40
0
40
1
40
1
40
1
40
1
41
1
10
22.0400016435187
20
-5.75484465373873
30
0
41
1
10
22.0409727518754
20
-5.7549632274908
30
0
41
1
10
22.0419519210318
20
-5.75521530715383
30
0
41
1
10
22.0429331018649
20
-5.75560386110502
30
0
0
SPLINE
5
113
100
AcDbEntity
8
1
62
256
6
ByLayer
370
13
48
1
60
0
100
AcDbSpline
70
4
71
3
72
12
73
8
40
0
40
0
40
0
40
0
40
0.275432679136166
40
0.275432679136166
40
0.550865358271829
40
0.550865358271829
40
1
40
1
40
1
40
1
41
1
10
22.0400016435187
20
-4.94515534626132
30
0
41
1
10
22.0508422998379
20
-4.97291375529164
30
0
41
1
10
22.0616828560572
20
-5.00067220269821
30
0
41
1
10
22.0833637875002
20
-5.05618916684546
30
0
41
1
10
22.0942041627171
20
-5.08394768358886
30
0
41
1
10
22.1227211943908
20
-5.15697074249292
30
0
41
1
10
22.1403977155307
20
-5.202235336423
30
0
41
1
10
22.1580740539783
20
-5.2475
30
0
0
SPLINE
5
114
100
AcDbEntity
8
1
62
256
6
ByLayer
370
13
48
1
60
0
100
AcDbSpline
70
4
71
3
72
8
73
4
40
0
40
0
40
0
40
0
40
1
40
1
40
1
40
1
41
1
10
22.0400016435187
20
-4.94515534626129
30
0
41
1
10
22.0409727507176
20
-4.94503677265058
30
0
41
1
10
22.0419519186955
20
-4.9447846934487
30
0
41
1
10
22.0429330983517
20
-4.94439614028627
30
0
0
SPLINE
5
115
100
AcDbEntity
8
1
62
256
6
ByLayer
370
13
48
1
60
0
100
AcDbSpline
70
4
71
3
72
14
73
10
40
0
40
0
40
0
40
0
40
0.352191095930693
40
0.352191095930693
40
0.703372741082424
40
0.703372741082424
40
0.977380144712563
40
0.977380144712563
40
1
40
1
40
1
40
1
41
1
10
22.0429330983517
20
-4.94439614028627
30
0
41
1
10
22.0523347338001
20
-4.94067303819241
30
0
41
1
10
22.0663847373003
20
-4.93598262844193
30
0
41
1
10
22.101297497577
20
-4.92548184833026
30
0
41
1
10
22.1226156638942
20
-4.91953135240331
30
0
41
1
10
22.1644502426497
20
-4.90852149761784
30
0
41
1
10
22.1844829415289
20
-4.90345643014271
30
0
41
1
10
22.2068520641674
20
-4.89800575938608
30
0
41
1
10
22.208554255419
20
-4.89759220511414
30
0
41
1
10
22.2102613456769
20
-4.89717867416709
30
0
0
SPLINE
5
116
100
AcDbEntity
8
1
62
256
6
ByLayer
370
18
48
1
60
0
100
AcDbSpline
70
4
71
3
72
13
73
9
40
0
40
0
40
0
40
0
40
0.609011183373674
40
0.78079926362181
40
0.815966713205256
40
0.834946843491185
40
0.981145129701417
40
1
40
1
40
1
40
1
41
1.00380040771819
10
22.1796866723461
20
-5.35000000000002
30
0
41
1.00380040771819
10
22.1276574108237
20
-5.35000000000002
30
0
41
1.00380040771819
10
22.0640666685622
20
-5.35000000000005
30
0
41
1.00380040771819
10
22.0024796142266
20
-5.35000000000005
30
0
41
1.00380040771819
10
21.9864599762008
20
-5.35000000000002
30
0
41
1.00380040771819
10
21.970016536519
20
-5.35000000000002
30
0
41
1.00380040771819
10
21.9459198517025
20
-5.35000000000004
30
0
41
1.00380040771819
10
21.9185263071561
20
-5.35000000000007
30
0
41
1.00380040771819
10
21.9153166723465
20
-5.35000000000004
30
0
0
SPLINE
5
117
100
AcDbEntity
8
1
62
256
6
ByLayer
370
13
48
1
60
0
100
AcDbSpline
70
4
71
3
72
16
73
12
40
0
40
0
40
0
40
0
40
0.0005636319606827
40
0.0005636319606827
40
0.371929105158353
40
0.371929105158353
40
0.681632557368945
40
0.681632557368945
40
0.999436368030379
40
0.999436368030379
40
1
40
1
40
1
40
1
41
1
10
22.1580740539783
20
-5.2475
30
0
41
1
10
22.1580821578281
20
-5.24751748764578
30
0
41
1
10
22.1580902646998
20
-5.24753497410015
30
0
41
1
10
22.16343662662
20
-5.25907590294759
30
0
41
1
10
22.167822519591
20
-5.27135126771185
30
0
41
1
10
22.1739818584076
20
-5.29444241476671
30
0
41
1
10
22.1760930918708
20
-5.30524445208857
30
0
41
1
10
22.1789579504988
20
-5.32730796701983
30
0
41
1
10
22.1796841069796
20
-5.33863989802813
30
0
41
1
10
22.1796866700719
20
-5.34996000000086
30
0
41
1
10
22.1796866699042
20
-5.34998000000067
30
0
41
1
10
22.179686672346
20
-5.35000000000002
30
0
0
SPLINE
5
118
100
AcDbEntity
8
1
62
256
6
ByLayer
370
13
48
1
60
0
100
AcDbSpline
70
4
71
3
72
13
73
9
40
0
40
0
40
0
40
0
40
0.0515804141227213
40
0.201592970882091
40
0.221068287218727
40
0.257153245281318
40
0.433423226324386
40
1
40
1
40
1
40
1
41
1.00380040771819
10
21.8914740539766
20
-5.45250000000002
30
0
41
1.00380040771819
10
21.9007809747852
20
-5.45250000000002
30
0
41
1.00380040771819
10
21.9346982590847
20
-5.45249999999999
30
0
41
1.00380040771819
10
21.9629080867753
20
-5.45250000000002
30
0
41
1.00380040771819
10
21.9793515681963
20
-5.45249999999999
30
0
41
1.00380040771819
10
21.9953711997234
20
-5.45250000000002
30
0
41
1.00380040771819
10
22.0526680905313
20
-5.45250000000002
30
0
41
1.00380040771819
10
22.1113151653494
20
-5.45250000000002
30
0
41
1.00380040771819
10
22.1580740539783
20
-5.45250000000002
30
0
0
SPLINE
5
119
100
AcDbEntity
8
1
62
256
6
ByLayer
370
13
48
1
60
0
100
AcDbSpline
70
4
71
3
72
16
73
12
40
0
40
0
40
0
40
0
40
0.0005624808075945
40
0.0005624808075945
40
0.318367023982146
40
0.318367023982146
40
0.628071190035099
40
0.628071190035099
40
0.99943751920128
40
0.99943751920128
40
1
40
1
40
1
40
1
41
1
10
22.179686672346
20
-5.35000000000002
30
0
41
1
10
22.1796866699041
20
-5.35001999999935
30
0
41
1
10
22.1796866700719
20
-5.35003999999915
30
0
41
1
10
22.1796841069796
20
-5.36136010197188
30
0
41
1
10
22.1789579504988
20
-5.37269203298021
30
0
41
1
10
22.1760930918708
20
-5.39475554791147
30
0
41
1
10
22.1739818584076
20
-5.40555758523334
30
0
41
1
10
22.167822519591
20
-5.42864873228817
30
0
41
1
10
22.16343662662
20
-5.44092409705243
30
0
41
1
10
22.1580902646998
20
-5.45246502589987
30
0
41
1
10
22.1580821578281
20
-5.45248251235424
30
0
41
1
10
22.1580740539783
20
-5.45250000000001
30
0
0
SPLINE
5
11A
100
AcDbEntity
8
1
62
256
6
ByLayer
370
13
48
1
60
0
100
AcDbSpline
70
4
71
3
72
10
73
6
40
0
40
0
40
0
40
0
40
0.257135165903375
40
0.257135165903375
40
1
40
1
40
1
40
1
41
1
10
21.6102680862601
20
-4.9491049170114
30
0
41
1
10
21.6704934422549
20
-4.94910494479834
30
0
41
1
10
21.7314902074259
20
-4.94910435344781
30
0
41
1
10
21.9749132816954
20
-4.94909706730454
30
0
41
1
10
21.9778544201782
20
-4.94515566461337
30
0
41
1
10
22.0400016437835
20
-4.94515534626129
30
0
0
SPLINE
5
11B
100
AcDbEntity
8
1
62
256
6
ByLayer
370
13
48
1
60
0
100
AcDbSpline
70
4
71
3
72
14
73
10
40
0
40
0
40
0
40
0
40
0.352191081913761
40
0.352191081913761
40
0.703372738470868
40
0.703372738470868
40
0.977380145821401
40
0.977380145821401
40
1
40
1
40
1
40
1
41
1
10
22.0400486791249
20
-4.92904412142548
30
0
41
1
10
22.0496777512748
20
-4.9265315222051
30
0
41
1
10
22.0640143045092
20
-4.92336617874642
30
0
41
1
10
22.099568533312
20
-4.91627955462826
30
0
41
1
10
22.1212502010439
20
-4.91226376314137
30
0
41
1
10
22.1637573427354
20
-4.9048335754392
30
0
41
1
10
22.1840994522336
20
-4.90141532742615
30
0
41
1
10
22.2068015401327
20
-4.89773684707174
30
0
41
1
10
22.208528994112
20
-4.8974577527454
30
0
41
1
10
22.2102613456769
20
-4.89717867416709
30
0
0
SPLINE
5
11C
100
AcDbEntity
8
1
62
256
6
ByLayer
370
13
48
1
60
0
100
AcDbSpline
70
4
71
3
72
13
73
9
40
0
40
0
40
0
40
0
40
0.0383628199058338
40
0.190466017909027
40
0.210212750855374
40
0.246800604830394
40
0.425527162178654
40
1
40
1
40
1
40
1
41
1.00380040771819
10
21.8987820539793
20
-5.24749999999999
30
0
41
1.00380040771819
10
21.905367944113
20
-5.24749999999999
30
0
41
1.00380040771819
10
21.9364522007926
20
-5.24750000000002
30
0
41
1.00380040771819
10
21.9629080867753
20
-5.24750000000002
30
0
41
1.00380040771819
10
21.9793515681963
20
-5.24749999999999
30
0
41
1.00380040771819
10
21.9953711997234
20
-5.24750000000002
30
0
41
1.00380040771819
10
22.0526680905313
20
-5.24749999999999
30
0
41
1.00380040771819
10
22.1113151653494
20
-5.24749999999999
30
0
41
1.00380040771819
10
22.1580740539783
20
-5.24750000000002
30
0
0
SPLINE
5
11D
100
AcDbEntity
8
1
62
256
6
ByLayer
370
13
48
1
60
0
100
AcDbSpline
70
4
71
3
72
14
73
10
40
0
40
0
40
0
40
0
40
0.3524168529346
40
0.3524168529346
40
0.703822786102938
40
0.703822786102938
40
0.977379858077661
40
0.977379858077661
40
1
40
1
40
1
40
1
41
1
10
22.0400486820092
20
-5.77095587932718
30
0
41
1
10
22.0496838051684
20
-5.77347005737926
30
0
41
1
10
22.0640325624386
20
-5.77663784174817
30
0
41
1
10
22.0996182959949
20
-5.78372998291479
30
0
41
1
10
22.1213202431062
20
-5.78774903962821
30
0
41
1
10
22.1638231043156
20
-5.79517747970067
30
0
41
1
10
22.1841332433359
20
-5.79859014783702
30
0
41
1
10
22.2068015401326
20
-5.8022631529283
30
0
41
1
10
22.208528994112
20
-5.80254224725462
30
0
41
1
10
22.2102613456769
20
-5.80282132583292
30
0
0
SPLINE
5
11E
100
AcDbEntity
8
1
62
256
6
ByLayer
370
13
48
1
60
0
100
AcDbSpline
70
4
71
3
72
8
73
4
40
0
40
0
40
0
40
0
40
1
40
1
40
1
40
1
41
1
10
21.9508424899312
20
-5.75578545480553
30
0
41
1
10
21.9815588536371
20
-5.75742410497591
30
0
41
1
10
22.0107851311363
20
-5.75612187777205
30
0
41
1
10
22.0400114086355
20
-5.75481965056821
30
0
0
SPLINE
5
11F
100
AcDbEntity
8
1
62
256
6
ByLayer
370
18
48
1
60
0
100
AcDbSpline
70
4
71
3
72
16
73
12
40
0
40
0
40
0
40
0
40
0.106709216991046
40
0.134548641378379
40
0.179854615167962
40
0.284726601045726
40
0.44932022545257
40
0.470688522690903
40
0.510280901904985
40
0.703684145478405
40
1
40
1
40
1
40
1
41
1
10
21.7122836848621
20
-5.83750000000001
30
0
41
1
10
21.7343918427403
20
-5.83750000000001
30
0
41
1
10
21.7617998041098
20
-5.83750000000001
30
0
41
1
10
21.7973072506581
20
-5.83750000000001
30
0
41
1
10
21.8319478715027
20
-5.83750000000001
30
0
41
1
10
21.8827591957796
20
-5.83750000000001
30
0
41
1
10
21.916585896206
20
-5.83750000000001
30
0
41
1
10
21.9330288048836
20
-5.83750000000001
30
0
41
1
10
21.9490483103203
20
-5.83750000000001
30
0
41
1
10
21.9845343391735
20
-5.83750000000001
30
0
41
1
10
22.0188117164761
20
-5.83750000000001
30
0
41
1
10
22.0400486848845
20
-5.83750000000001
30
0
0
SPLINE
5
120
100
AcDbEntity
8
1
62
256
6
ByLayer
370
13
48
1
60
0
100
AcDbSpline
70
4
71
3
72
8
73
4
40
0
40
0
40
0
40
0
40
1
40
1
40
1
40
1
41
1
10
22.0376192657295
20
-4.929435731788
30
0
41
1
10
22.0376192637758
20
-4.93476600569687
30
0
41
1
10
22.0384269503772
20
-4.94009535440338
30
0
41
1
10
22.0400016435187
20
-4.94515534626129
30
0
0
SPLINE
5
121
100
AcDbEntity
8
1
62
256
6
ByLayer
370
13
48
1
60
0
100
AcDbSpline
70
4
71
3
72
8
73
4
40
0
40
0
40
0
40
0
40
1
40
1
40
1
40
1
41
1
10
22.0376192658198
20
-5.77057663603983
30
0
41
1
10
22.0094302165231
20
-5.76889202116365
30
0
41
1
10
21.9812411672263
20
-5.76720740628741
30
0
41
1
10
21.9494773271622
20
-5.76943817884518
30
0
0
SPLINE
5
122
100
AcDbEntity
8
1
62
256
6
ByLayer
370
13
48
1
60
0
100
AcDbSpline
70
4
71
3
72
8
73
4
40
0
40
0
40
0
40
0
40
1
40
1
40
1
40
1
41
1
10
22.0400016435187
20
-5.75484465373873
30
0
41
1
10
22.0384269503772
20
-5.75990464559664
30
0
41
1
10
22.0376192637758
20
-5.76523399430315
30
0
41
1
10
22.0376192657295
20
-5.77056426821201
30
0
0
SPLINE
5
123
100
AcDbEntity
8
1
62
256
6
ByLayer
370
18
48
1
60
0
100
AcDbSpline
70
4
71
3
72
16
73
12
40
0
40
0
40
0
40
0
40
0.106709216922622
40
0.134548641312086
40
0.179854615105139
40
0.284726600990935
40
0.449320225410382
40
0.470688522650353
40
0.510280901867466
40
0.703684145455697
40
1
40
1
40
1
40
1
41
1
10
21.7122836849097
20
-4.86250000000001
30
0
41
1
10
21.7343918427715
20
-4.86250000000001
30
0
41
1
10
21.7617998041249
20
-4.86250000000001
30
0
41
1
10
21.7973072506581
20
-4.86250000000001
30
0
41
1
10
21.8319478715027
20
-4.86250000000001
30
0
41
1
10
21.8827591957796
20
-4.86250000000001
30
0
41
1
10
21.916585896206
20
-4.86250000000001
30
0
41
1
10
21.9330288048836
20
-4.86250000000001
30
0
41
1
10
21.9490483103203
20
-4.86250000000001
30
0
41
1
10
21.9845343391735
20
-4.86250000000001
30
0
41
1
10
22.0188117164761
20
-4.86250000000001
30
0
41
1
10
22.0400486848845
20
-4.86250000000001
30
0
0
SPLINE
5
124
100
AcDbEntity
8
1
62
256
6
ByLayer
370
13
48
1
60
0
100
AcDbSpline
70
4
71
3
72
10
73
6
40
0
40
0
40
0
40
0
40
0.734933978890812
40
0.734933978890812
40
1
40
1
40
1
40
1
41
1
10
22.0376192657882
20
-4.929435731788
30
0
41
1
10
21.9754715202433
20
-4.92943535464829
30
0
41
1
10
21.9742818228764
20
-4.92411151604816
30
0
41
1
10
21.726773031485
20
-4.9240994339479
30
0
41
1
10
21.6631739204688
20
-4.92409851786593
30
0
41
1
10
21.6005014809356
20
-4.9240986556739
30
0
0
SPLINE
5
125
100
AcDbEntity
8
1
62
256
6
ByLayer
370
18
48
1
60
0
100
AcDbSpline
70
4
71
3
72
18
73
14
40
0
40
0
40
0
40
0
40
0.170069669445255
40
0.170069669445255
40
0.339505848081996
40
0.339505848081996
40
0.519155754364721
40
0.519155754364721
40
0.727568430002722
40
0.727568430002722
40
0.996228840704801
40
0.996228840704801
40
1
40
1
40
1
40
1
41
1
10
15.250084746006
20
-3.85000000000014
30
0
41
1
10
15.250084746006
20
-3.94816644255505
30
0
41
1
10
15.2600490186811
20
-4.04769861962552
30
0
41
1
10
15.2972241765673
20
-4.23202581952847
30
0
41
1
10
15.3247759728996
20
-4.31932217586285
30
0
41
1
10
15.3941514282768
20
-4.47819751553493
30
0
41
1
10
15.4374894112767
20
-4.55050850302862
30
0
41
1
10
15.5400579639483
20
-4.68019066590895
30
0
41
1
10
15.60190411282
20
-4.73501662256726
30
0
41
1
10
15.74895352121
20
-4.82403296094779
30
0
41
1
10
15.8379902268298
20
-4.84930494091253
30
0
41
1
10
15.9276859916654
20
-4.8499952143099
30
0
41
1
10
15.928930118091
20
-4.85000000000014
30
0
41
1
10
15.9301741304306
20
-4.85000000000014
30
0
0
SPLINE
5
126
100
AcDbEntity
8
1
62
256
6
ByLayer
370
18
48
1
60
0
100
AcDbSpline
70
4
71
3
72
14
73
10
40
0
40
0
40
0
40
0
40
0.249494809557848
40
0.249494809557848
40
0.614083599461115
40
0.614083599461115
40
0.928531828703427
40
0.928531828703427
40
1
40
1
40
1
40
1
41
1
10
21.7510495503374
20
-4.71256090039324
30
0
41
1
10
21.6812112776721
20
-4.67159579155708
30
0
41
1
10
21.6148877308804
20
-4.62114763479889
30
0
41
1
10
21.4685927720755
20
-4.47708652347964
30
0
41
1
10
21.3940414022655
20
-4.3711532209802
30
0
41
1
10
21.2977532171732
20
-4.15337374138403
30
0
41
1
10
21.2689298009432
20
-4.04097931338734
30
0
41
1
10
21.2580307305354
20
-3.90231818733656
30
0
41
1
10
21.2570028022421
20
-3.87614616665826
30
0
41
1
10
21.2570028022421
20
-3.85000000000014
30
0
0
SPLINE
5
127
100
AcDbEntity
8
1
62
256
6
ByLayer
370
18
48
1
60
0
100
AcDbSpline
70
4
71
3
72
12
73
8
40
0
40
0
40
0
40
0
40
0.189246157678278
40
0.189246157678278
40
0.839362023773437
40
0.839362023773437
40
1
40
1
40
1
40
1
41
1
10
21.9393513725705
20
-4.85000000000014
30
0
41
1
10
21.926899281112
20
-4.85000000000014
30
0
41
1
10
21.9144320956294
20
-4.84831902613294
30
0
41
1
10
21.8597819726571
20
-4.83353632335499
30
0
41
1
10
21.8176488120671
20
-4.8019641660735
30
0
41
1
10
21.7696126611443
20
-4.74041251379094
30
0
41
1
10
21.7602145102802
20
-4.72701426452667
30
0
41
1
10
21.7510495503374
20
-4.71256090039324
30
0
0
SPLINE
5
128
100
AcDbEntity
8
1
62
256
6
ByLayer
370
18
48
1
60
0
100
AcDbSpline
70
4
71
3
72
24
73
20
40
0
40
0
40
0
40
0
40
0.113296116299436
40
0.113296116299436
40
0.226581695910389
40
0.226581695910389
40
0.340168248489011
40
0.340168248489011
40
0.443339469291559
40
0.443339469291559
40
0.604413890746703
40
0.604413890746703
40
0.779029435553977
40
0.779029435553977
40
0.873950867617413
40
0.873950867617413
40
0.97057839307849
40
0.97057839307849
40
1
40
1
40
1
40
1
41
1
10
8.99101673004867
20
-3.85000000000014
30
0
41
1
10
8.95329284471424
20
-3.95834942199269
30
0
41
1
10
8.91602865252227
20
-4.06505821395226
30
0
41
1
10
8.8370148871079
20
-4.25389515688357
30
0
41
1
10
8.79413130693121
20
-4.33863407920163
30
0
41
1
10
8.69190051073122
20
-4.47255360000918
30
0
41
1
10
8.63002926082316
20
-4.52339404045637
30
0
41
1
10
8.48772677152084
20
-4.58341839013249
30
0
41
1
10
8.40780456807093
20
-4.59708136030625
30
0
41
1
10
8.1905074530473
20
-4.60343332256093
30
0
41
1
10
8.04365969051071
20
-4.58227648271389
30
0
41
1
10
7.74466529110299
20
-4.50317149496314
30
0
41
1
10
7.58791460487134
20
-4.44077303754241
30
0
41
1
10
7.37052465387805
20
-4.3026827612992
30
0
41
1
10
7.29752361091664
20
-4.24492733269739
30
0
41
1
10
7.17158532341247
20
-4.10832175375469
30
0
41
1
10
7.11732770841388
20
-4.02665134269512
30
0
41
1
10
7.07503063127041
20
-3.90847479976747
30
0
41
1
10
7.06703459554311
20
-3.87949403286496
30
0
41
1
10
7.06142988770111
20
-3.85000000000062
30
0
0
SPLINE
5
129
100
AcDbEntity
8
1
62
256
6
ByLayer
370
18
48
1
60
0
100
AcDbSpline
70
4
71
3
72
30
73
26
40
0
40
0
40
0
40
0
40
0.0753532267987904
40
0.0753532267987904
40
0.150695647982323
40
0.150695647982323
40
0.226332094268198
40
0.226332094268198
40
0.305509534816089
40
0.305509534816089
40
0.392053346608792
40
0.392053346608792
40
0.490697130593379
40
0.490697130593379
40
0.606067953870684
40
0.606067953870684
40
0.737989866722533
40
0.737989866722533
40
0.823296689629337
40
0.823296689629337
40
0.888426019949405
40
0.888426019949405
40
0.954352970847592
40
0.954352970847592
40
1
40
1
40
1
40
1
41
1
10
7.06142988770253
20
-3.85000000000014
30
0
41
1
10
7.04285705585409
20
-3.7522629317416
30
0
41
1
10
7.03525619702873
20
-3.64834916401279
30
0
41
1
10
7.04313706824766
20
-3.4453689593002
30
0
41
1
10
7.05872468028574
20
-3.34357250277881
30
0
41
1
10
7.11099195855036
20
-3.15539954458376
30
0
41
1
10
7.14843779380965
20
-3.06664535563974
30
0
41
1
10
7.2426308673937
20
-2.90878396187929
30
0
41
1
10
7.30135800661168
20
-2.8387773255327
30
0
41
1
10
7.43787621375941
20
-2.72182312596806
30
0
41
1
10
7.5185374964359
20
-2.67608994560283
30
0
41
1
10
7.69999537592693
20
-2.6120515654386
30
0
41
1
10
7.80415668430391
20
-2.59749946264029
30
0
41
1
10
8.03257865940137
20
-2.60368877672846
30
0
41
1
10
8.16015636118721
20
-2.63063018562792
30
0
41
1
10
8.42473845886315
20
-2.73152329579506
30
0
41
1
10
8.5650542693634
20
-2.81292265378886
30
0
41
1
10
8.76825605874214
20
-2.99036197013461
30
0
41
1
10
8.84276640837086
20
-3.07310501296252
30
0
41
1
10
8.94755410849908
20
-3.23916233511909
30
0
41
1
10
8.98482907242845
20
-3.31952013939804
30
0
41
1
10
9.03072233872081
20
-3.48888347771279
30
0
41
1
10
9.03917451122925
20
-3.58063731897815
30
0
41
1
10
9.02503460186409
20
-3.73071215480016
30
0
41
1
10
9.01119190055056
20
-3.79205347505706
30
0
41
1
10
8.99101673004867
20
-3.85000000000014
30
0
0
SPLINE
5
12A
100
AcDbEntity
8
1
62
256
6
ByLayer
370
18
48
1
60
0
100
AcDbSpline
70
4
71
3
72
14
73
10
40
0
40
0
40
0
40
0
40
0.0520897699563969
40
0.0520897699563969
40
0.359754441989844
40
0.359754441989844
40
0.679872352854195
40
0.679872352854195
40
1
40
1
40
1
40
1
41
1
10
23.5159349673002
20
-4.97356666407615
30
0
41
1
10
23.5171187689284
20
-4.97680367259736
30
0
41
1
10
23.5183272293422
20
-4.9800419835162
30
0
41
1
10
23.5268381617941
20
-5.00238509511968
30
0
41
1
10
23.5350326394257
20
-5.0215636225897
30
0
41
1
10
23.5523256339375
20
-5.05781622746139
30
0
41
1
10
23.561686215046
20
-5.07527495376181
30
0
41
1
10
23.5799450304337
20
-5.10527039718463
30
0
41
1
10
23.5890947624155
20
-5.11822050988138
30
0
41
1
10
23.5975019317192
20
-5.12805044556899
30
0
0
SPLINE
5
12B
100
AcDbEntity
8
1
62
256
6
ByLayer
370
18
48
1
60
0
100
AcDbSpline
70
4
71
3
72
8
73
4
40
0
40
0
40
0
40
0
40
1
40
1
40
1
40
1
41
1
10
24.7016936349651
20
-4.76248075925599
30
0
41
1
10
24.7137493440195
20
-4.76176233158196
30
0
41
1
10
24.7257692352604
20
-4.76065496481471
30
0
41
1
10
24.7377138478577
20
-4.75916986655625
30
0
0
SPLINE
5
12C
100
AcDbEntity
8
1
62
256
6
ByLayer
370
18
48
1
60
0
100
AcDbSpline
70
4
71
3
72
16
73
12
40
0
40
0
40
0
40
0
40
0.21876390073742
40
0.21876390073742
40
0.437576384829319
40
0.437576384829319
40
0.655570269959637
40
0.655570269959637
40
0.872329727015886
40
0.872329727015886
40
1
40
1
40
1
40
1
41
1
10
24.9030182173173
20
-4.75016221085349
30
0
41
1
10
24.9140993890396
20
-4.75034137825037
30
0
41
1
10
24.925303375487
20
-4.75246713754436
30
0
41
1
10
24.9461034304845
20
-4.76027302352676
30
0
41
1
10
24.9559870018095
20
-4.76606274108616
30
0
41
1
10
24.9730284663234
20
-4.78043963113484
30
0
41
1
10
24.9804321715154
20
-4.78921632322823
30
0
41
1
10
24.9917514749656
20
-4.8084617951051
30
0
41
1
10
24.9958425424049
20
-4.81918717450219
30
0
41
1
10
24.9993384189928
20
-4.83666522596525
30
0
41
1
10
24.9999999999972
20
-4.84334922798718
30
0
41
1
10
24.9999999999999
20
-4.84999999998718
30
0
0
SPLINE
5
12D
100
AcDbEntity
8
1
62
256
6
ByLayer
370
18
48
1
60
0
100
AcDbSpline
70
4
71
3
72
8
73
4
40
0
40
0
40
0
40
0
40
1
40
1
40
1
40
1
41
1
10
24.7799999999999
20
-4.75465412340739
30
0
41
1
10
24.8208753552331
20
-4.75100040721384
30
0
41
1
10
24.8619909793563
20
-4.74949885650707
30
0
41
1
10
24.9030182173173
20
-4.75016221085349
30
0
0
SPLINE
5
12E
100
AcDbEntity
8
1
62
256
6
ByLayer
370
18
48
1
60
0
100
AcDbSpline
70
4
71
3
72
8
73
4
40
0
40
0
40
0
40
0
40
1
40
1
40
1
40
1
41
1
10
22.0400487062983
20
-5.77057652608545
30
0
41
1
10
22.0392388928054
20
-5.77057656273689
30
0
41
1
10
22.0384290793126
20
-5.77057659938836
30
0
41
1
10
22.0376192658198
20
-5.77057663603983
30
0
0
SPLINE
5
12F
100
AcDbEntity
8
1
62
256
6
ByLayer
370
18
48
1
60
0
100
AcDbSpline
70
4
71
3
72
20
73
16
40
0
40
0
40
0
40
0
40
0.379995067321824
40
0.379995067321824
40
0.570368613247089
40
0.570368613247089
40
0.638691220474324
40
0.638691220474324
40
0.686936442212487
40
0.686936442212487
40
0.735525454996809
40
0.735525454996809
40
0.833860456035632
40
0.833860456035632
40
1
40
1
40
1
40
1
41
1
10
24.9999999999999
20
-5.34999999999985
30
0
41
1
10
24.9988128540771
20
-5.40241257363829
30
0
41
1
10
24.9980275967071
20
-5.45484851218393
30
0
41
1
10
24.9943084867605
20
-5.53342517474417
30
0
41
1
10
24.9931020795569
20
-5.55981694857175
30
0
41
1
10
24.9864800777768
20
-5.59482994905321
30
0
41
1
10
24.9841196436288
20
-5.6040702830993
30
0
41
1
10
24.9776907577132
20
-5.61872129827049
30
0
41
1
10
24.974213474966
20
-5.62453289068444
30
0
41
1
10
24.9653924988247
20
-5.63433985460483
30
0
41
1
10
24.9599451761783
20
-5.63838710818933
30
0
41
1
10
24.9424707260021
20
-5.64774279491758
30
0
41
1
10
24.9292884744673
20
-5.65091431568572
30
0
41
1
10
24.8943852291188
20
-5.65734523991242
30
0
41
1
10
24.8720406882782
20
-5.6589923198971
30
0
41
1
10
24.8497773564895
20
-5.65972396912872
30
0
0
SPLINE
5
130
100
AcDbEntity
8
1
62
256
6
ByLayer
370
18
48
1
60
0
100
AcDbSpline
70
4
71
3
72
10
73
6
40
0
40
0
40
0
40
0
40
0.445965343952844
40
0.445965343952844
40
1
40
1
40
1
40
1
41
1
10
23.5978971691686
20
-5.13051423246264
30
0
41
1
10
23.598026806015
20
-5.13012028074402
30
0
41
1
10
23.5980890874829
20
-5.12972499251222
30
0
41
1
10
23.5980196388686
20
-5.12888265842673
30
0
41
1
10
23.5978310790461
20
-5.12843529532455
30
0
41
1
10
23.5975019317192
20
-5.12805044556899
30
0
0
SPLINE
5
131
100
AcDbEntity
8
1
62
256
6
ByLayer
370
18
48
1
60
0
100
AcDbSpline
70
4
71
3
72
8
73
4
40
0
40
0
40
0
40
0
40
1
40
1
40
1
40
1
41
1
10
24.7377138478577
20
-4.75916986655625
30
0
41
1
10
24.7518142807602
20
-4.757416730724
30
0
41
1
10
24.7659167282668
20
-4.7559129816533
30
0
41
1
10
24.7799999999999
20
-4.75465412340739
30
0
0
SPLINE
5
132
100
AcDbEntity
8
1
62
256
6
ByLayer
370
18
48
1
60
0
100
AcDbSpline
70
4
71
3
72
8
73
4
40
0
40
0
40
0
40
0
40
1
40
1
40
1
40
1
41
1
10
22.0400500399921
20
-4.9294234632689
30
0
41
1
10
22.0392428045765
20
-4.92956004232022
30
0
41
1
10
22.0384325134393
20
-4.92956366310403
30
0
41
1
10
22.0376192657295
20
-4.929435731788
30
0
0
SPLINE
5
133
100
AcDbEntity
8
1
62
256
6
ByLayer
370
18
48
1
60
0
100
AcDbSpline
70
4
71
3
72
20
73
16
40
0
40
0
40
0
40
0
40
0.109883270232599
40
0.109883270232599
40
0.212512860057296
40
0.212512860057296
40
0.270792773018665
40
0.270792773018665
40
0.316317250668369
40
0.316317250668369
40
0.361658473656393
40
0.361658473656393
40
0.483779208825463
40
0.483779208825463
40
1
40
1
40
1
40
1
41
1
10
24.8497773565189
20
-5.04027603087334
30
0
41
1
10
24.8646637292098
20
-5.04076524799771
30
0
41
1
10
24.8795554735948
20
-5.04170158167952
30
0
41
1
10
24.9081823381711
20
-5.04505952590784
30
0
41
1
10
24.9220468578637
20
-5.04721755238853
30
0
41
1
10
24.9430185889954
20
-5.05333845936624
30
0
41
1
10
24.9505436932947
20
-5.05620058329109
30
0
41
1
10
24.962604637762
20
-5.06352907559724
30
0
41
1
10
24.96747905078
20
-5.067635422329
30
0
41
1
10
24.9753547048251
20
-5.07725083739939
30
0
41
1
10
24.97845803451
20
-5.08280700960108
30
0
41
1
10
24.9873295082452
20
-5.10393083100658
30
0
41
1
10
24.9897282839563
20
-5.12090386778235
30
0
41
1
10
24.9993890514818
20
-5.20795299135622
30
0
41
1
10
24.998394861597
20
-5.27913302979169
30
0
41
1
10
24.9999999999999
20
-5.35000000000002
30
0
0
SPLINE
5
134
100
AcDbEntity
8
1
62
256
6
ByLayer
370
18
48
1
60
0
100
AcDbSpline
70
4
71
3
72
10
73
6
40
0
40
0
40
0
40
0
40
0.890235870443385
40
0.890235870443385
40
1
40
1
40
1
40
1
41
1
10
24.8497773565141
20
-5.04027603086129
30
0
41
1
10
24.828542485564
20
-5.03957818036906
30
0
41
1
10
24.8074528776493
20
-5.03409662860284
30
0
41
1
10
24.784919789968
20
-5.02608678821062
30
0
41
1
10
24.7824643719387
20
-5.02515616372577
30
0
41
1
10
24.7800000005466
20
-5.02425125490413
30
0
0
SPLINE
5
135
100
AcDbEntity
8
1
62
256
6
ByLayer
370
18
48
1
60
0
100
AcDbSpline
70
4
71
3
72
10
73
6
40
0
40
0
40
0
40
0
40
0.444676445735328
40
0.444676445735328
40
1
40
1
40
1
40
1
41
1
10
23.5975019317198
20
-5.57194955443038
30
0
41
1
10
23.5977675525089
20
-5.57163898196782
30
0
41
1
10
23.5979432670079
20
-5.571288995136
30
0
41
1
10
23.5981138094058
20
-5.57046559165366
30
0
41
1
10
23.5980577236646
20
-5.56997367449748
30
0
41
1
10
23.5978971691686
20
-5.56948576753737
30
0
0
SPLINE
5
136
100
AcDbEntity
8
1
62
256
6
ByLayer
370
18
48
1
60
0
100
AcDbSpline
70
4
71
3
72
8
73
4
40
0
40
0
40
0
40
0
40
1
40
1
40
1
40
1
41
1
10
24.903018217318
20
-5.9498377891465
30
0
41
1
10
24.8619909793568
20
-5.95050114349297
30
0
41
1
10
24.8208753552333
20
-5.94899959278621
30
0
41
1
10
24.7799999999999
20
-5.94534587659263
30
0
0
SPLINE
5
137
100
AcDbEntity
8
1
62
256
6
ByLayer
370
18
48
1
60
0
100
AcDbSpline
70
4
71
3
72
8
73
4
40
0
40
0
40
0
40
0
40
1
40
1
40
1
40
1
41
1
10
24.7377138478599
20
-5.94083013344405
30
0
41
1
10
24.7257692352619
20
-5.93934503518545
30
0
41
1
10
24.7137493440202
20
-5.93823766841808
30
0
41
1
10
24.7016936349651
20
-5.93751924074402
30
0
0
SPLINE
5
138
100
AcDbEntity
8
1
62
256
6
ByLayer
370
18
48
1
60
0
100
AcDbSpline
70
4
71
3
72
8
73
4
40
0
40
0
40
0
40
0
40
1
40
1
40
1
40
1
41
1
10
24.7799999999999
20
-5.94534587659263
30
0
41
1
10
24.7659167282668
20
-5.94408701834675
30
0
41
1
10
24.7518142807602
20
-5.94258326927601
30
0
41
1
10
24.7377138478577
20
-5.94083013344377
30
0
0
SPLINE
5
139
100
AcDbEntity
8
1
62
256
6
ByLayer
370
18
48
1
60
0
100
AcDbSpline
70
4
71
3
72
16
73
12
40
0
40
0
40
0
40
0
40
0.215740588346229
40
0.215740588346229
40
0.431461044420382
40
0.431461044420382
40
0.647545334328952
40
0.647545334328952
40
0.864687531462954
40
0.864687531462954
40
1
40
1
40
1
40
1
41
1
10
24.9999999999999
20
-5.85000000000002
30
0
41
1
10
24.9999999999997
20
-5.86113388655821
30
0
41
1
10
24.99811190731
20
-5.87242136573951
30
0
41
1
10
24.990874079569
20
-5.89343241325292
30
0
41
1
10
24.9854255040331
20
-5.90344503875372
30
0
41
1
10
24.9717680454127
20
-5.92085454583622
30
0
41
1
10
24.963367878152
20
-5.92848613470389
30
0
41
1
10
24.9447822326942
20
-5.94038021835686
30
0
41
1
10
24.9343336714131
20
-5.944789952353
30
0
41
1
10
24.9168714990423
20
-5.94886953829217
30
0
41
1
10
24.9099318702283
20
-5.94972600482984
30
0
41
1
10
24.9030182173271
20
-5.94983778914636
30
0
0
SPLINE
5
13A
100
AcDbEntity
8
1
62
256
6
ByLayer
370
18
48
1
60
0
100
AcDbSpline
70
4
71
3
72
11
73
7
40
0
40
0
40
0
40
0
40
0.181006004746262
40
0.385754503559697
40
0.590503002373131
40
1
40
1
40
1
40
1
41
1
10
23.5978971692024
20
-5.13051423235987
30
0
41
1
10
23.5949314952978
20
-5.13952658002623
30
0
41
1
10
23.588997256292
20
-5.16100412893004
30
0
41
1
10
23.5814827015027
20
-5.2004370831296
30
0
41
1
10
23.573724097036
20
-5.26255951456864
30
0
41
1
10
23.5712869567194
20
-5.31501954745997
30
0
41
1
10
23.5712869567194
20
-5.35000000000002
30
0
0
SPLINE
5
13B
100
AcDbEntity
8
1
62
256
6
ByLayer
370
18
48
1
60
0
100
AcDbSpline
70
4
71
3
72
12
73
8
40
0
40
0
40
0
40
0
40
0.10972419188786
40
0.10972419188786
40
0.352333382216465
40
0.352333382216465
40
1
40
1
40
1
40
1
41
1
10
24.7800000005479
20
-5.67574874509586
30
0
41
1
10
24.78246437194
20
-5.67484383627416
30
0
41
1
10
24.7849197899692
20
-5.67391321178974
30
0
41
1
10
24.7928931358318
20
-5.67107892521992
30
0
41
1
10
24.7984426335345
20
-5.66925889457423
30
0
41
1
10
24.8189083069987
20
-5.66329051962504
30
0
41
1
10
24.8343228871809
20
-5.66023185585178
30
0
41
1
10
24.8497773564897
20
-5.65972396912849
30
0
0
SPLINE
5
13C
100
AcDbEntity
8
1
62
256
6
ByLayer
370
18
48
1
60
0
100
AcDbSpline
70
4
71
3
72
12
73
8
40
0
40
0
40
0
40
0
40
0.291910965113087
40
0.291910965113087
40
0.756154260682681
40
0.756154260682681
40
1
40
1
40
1
40
1
41
1
10
24.9999999999999
20
-5.35000000000002
30
0
41
1
10
24.8664494196856
20
-5.35000000000002
30
0
41
1
10
24.7315637596484
20
-5.35000000000002
30
0
41
1
10
24.3728129670663
20
-5.35000000000002
30
0
41
1
10
24.142697188067
20
-5.35000000000002
30
0
41
1
10
23.8030549134239
20
-5.35000000000002
30
0
41
1
10
23.6869404591386
20
-5.35000000000002
30
0
41
1
10
23.5712869567194
20
-5.35000000000002
30
0
0
SPLINE
5
13D
100
AcDbEntity
8
1
62
256
6
ByLayer
370
18
48
1
60
0
100
AcDbSpline
70
4
71
3
72
15
73
11
40
0
40
0
40
0
40
0
40
0.0786317553395471
40
0.129818880042906
40
0.181006004746264
40
0.283380254152981
40
0.385754503559698
40
0.590503002373132
40
0.795251501186566
40
1
40
1
40
1
40
1
41
0.52839210720967
10
23.5978971692024
20
-5.56948576764016
30
0
41
0.52839210720967
10
23.5966088354523
20
-5.56557066704596
30
0
41
0.52839210720967
10
23.5945382796496
20
-5.55877497741065
30
0
41
0.52839210720967
10
23.5917951336821
20
-5.54857379172125
30
0
41
0.52839210720967
10
23.5888285260325
20
-5.53640909731808
30
0
41
0.52839210720967
10
23.5853910486394
20
-5.52007213903449
30
0
41
0.52839210720967
10
23.5805128759443
20
-5.49179761294056
30
0
41
0.52839210720967
10
23.5756637481527
20
-5.45297109329116
30
0
41
0.52839210720967
10
23.5720993368249
20
-5.4024671301705
30
0
41
0.52839210720967
10
23.5712869567194
20
-5.36749022627003
30
0
41
0.52839210720967
10
23.5712869567194
20
-5.35000000000002
30
0
0
SPLINE
5
13E
100
AcDbEntity
8
1
62
256
6
ByLayer
370
18
48
1
60
0
100
AcDbSpline
70
4
71
3
72
14
73
10
40
0
40
0
40
0
40
0
40
0.32012764721635
40
0.32012764721635
40
0.640245558149758
40
0.640245558149758
40
0.947910229941013
40
0.947910229941013
40
1
40
1
40
1
40
1
41
1
10
23.5975019317198
20
-5.57194955443038
30
0
41
1
10
23.5890947624145
20
-5.58177949011719
30
0
41
1
10
23.5799450304344
20
-5.59472960281454
30
0
41
1
10
23.5616862150467
20
-5.62472504623713
30
0
41
1
10
23.5523256340403
20
-5.64218377257714
30
0
41
1
10
23.535032639615
20
-5.67843637746211
30
0
41
1
10
23.5268381618077
20
-5.69761490483978
30
0
41
1
10
23.5183272293666
20
-5.71995801643294
30
0
41
1
10
23.5171187689478
20
-5.72319632735642
30
0
41
1
10
23.5159349673166
20
-5.726433335883
30
0
0
LINE
5
70
100
AcDbEntity
8
80
62
256
6
ByLayer
370
18
48
1
60
0
100
AcDbLine
10
0
20
0
30
0
11
-5
21
0
31
0
39
0
210
0
220
0
230
1
0
LINE
5
71
100
AcDbEntity
8
81
62
256
6
ByLayer
370
18
48
1
60
0
100
AcDbLine
10
25
20
-5.95
30
0
11
30
21
-5.95
31
0
39
0
210
0
220
0
230
1
0
LINE
5
72
100
AcDbEntity
8
SK1
62
256
6
ByLayer
370
18
48
1
60
0
100
AcDbLine
10
-0.1
20
-5.925
30
0
11
-0.1
21
6
31
0
39
0
210
0
220
0
230
1
0
LINE
5
74
100
AcDbEntity
8
SK1
62
256
6
ByLayer
370
18
48
1
60
0
100
AcDbLine
10
-43
20
-5.925
30
0
11
-0.1
21
-5.925
31
0
39
0
210
0
220
0
230
1
0
LINE
5
75
100
AcDbEntity
8
SK1
62
256
6
ByLayer
370
18
48
1
60
0
100
AcDbLine
10
-45
20
-3.942378
30
0
11
-45
21
6
31
0
39
0
210
0
220
0
230
1
0
LINE
5
76
100
AcDbEntity
8
SK1
62
256
6
ByLayer
370
18
48
1
60
0
100
AcDbLine
10
-43
20
-5.925
30
0
11
-45
21
-3.942378
31
0
39
0
210
0
220
0
230
1
0
LINE
5
77
100
AcDbEntity
8
SK1
62
256
6
ByLayer
370
18
48
1
60
0
100
AcDbLine
10
-45
20
6
30
0
11
-0.1
21
6
31
0
39
0
210
0
220
0
230
1
0
LINE
5
78
100
AcDbEntity
8
1
62
256
6
ByLayer
370
18
48
1
60
0
100
AcDbLine
10
22.076754
20
-4.85
30
0
11
22.892781
21
-4.85
31
0
39
0
210
0
220
0
230
1
0
LINE
5
7A
100
AcDbEntity
8
1
62
256
6
ByLayer
370
13
48
1
60
0
100
AcDbLine
10
11.7
20
-3.85
30
0
11
11.7
21
2.95027
31
0
39
0
210
0
220
0
230
1
0
LINE
5
7B
100
AcDbEntity
8
1
62
256
6
ByLayer
370
13
48
1
60
0
100
AcDbLine
10
16.256235
20
-4.85
30
0
11
16.256235
21
-5.85
31
0
39
0
210
0
220
0
230
1
0
LINE
5
7C
100
AcDbEntity
8
1
62
256
6
ByLayer
370
18
48
1
60
0
100
AcDbLine
10
2.3
20
6
30
0
11
3.1
21
6
31
0
39
0
210
0
220
0
230
1
0
LINE
5
7D
100
AcDbEntity
8
1
62
256
6
ByLayer
370
13
48
1
60
0
100
AcDbLine
10
11.7
20
-4.85
30
0
11
11.7
21
-3.85
31
0
39
0
210
0
220
0
230
1
0
LINE
5
7E
100
AcDbEntity
8
1
62
256
6
ByLayer
370
18
48
1
60
0
100
AcDbLine
10
19.256235
20
-4.85
30
0
11
16.256235
21
-4.85
31
0
39
0
210
0
220
0
230
1
0
LINE
5
7F
100
AcDbEntity
8
1
62
256
6
ByLayer
370
18
48
1
60
0
100
AcDbLine
10
15.250085
20
0.868194
30
0
11
21.257003
21
-2.654783
31
0
39
0
210
0
220
0
230
1
0
LINE
5
80
100
AcDbEntity
8
1
62
256
6
ByLayer
370
18
48
1
60
0
100
AcDbLine
10
5.5
20
6
30
0
11
3.1
21
6
31
0
39
0
210
0
220
0
230
1
0
LINE
5
81
100
AcDbEntity
8
1
62
256
6
ByLayer
370
18
48
1
60
0
100
AcDbLine
10
16.256235
20
-5.85
30
0
11
3.1
21
-5.85
31
0
39
0
210
0
220
0
230
1
0
LINE
5
82
100
AcDbEntity
8
1
62
256
6
ByLayer
370
18
48
1
60
0
100
AcDbLine
10
21.713477
20
-5.191198
30
0
11
21.522397
21
-4.85
31
0
39
0
210
0
220
0
230
1
0
LINE
5
83
100
AcDbEntity
8
1
62
256
6
ByLayer
370
18
48
1
60
0
100
AcDbLine
10
2.3
20
-5.85
30
0
11
2.1
21
-5.85
31
0
39
0
210
0
220
0
230
1
0
LINE
5
84
100
AcDbEntity
8
1
62
256
6
ByLayer
370
18
48
1
60
0
100
AcDbLine
10
3.1
20
-5.85
30
0
11
3.1
21
6
31
0
39
0
210
0
220
0
230
1
0
LINE
5
85
100
AcDbEntity
8
1
62
256
6
ByLayer
370
18
48
1
60
0
100
AcDbLine
10
22.076754
20
-5.85
30
0
11
22.892781
21
-5.85
31
0
39
0
210
0
220
0
230
1
0
LINE
5
86
100
AcDbEntity
8
1
62
256
6
ByLayer
370
18
48
1
60
0
100
AcDbLine
10
21.522397
20
-4.85
30
0
11
19.256235
21
-4.85
31
0
39
0
210
0
220
0
230
1
0
LINE
5
87
100
AcDbEntity
8
1
62
256
6
ByLayer
370
18
48
1
60
0
100
AcDbLine
10
21.522397
20
-5.85
30
0
11
19.256235
21
-5.85
31
0
39
0
210
0
220
0
230
1
0
LINE
5
88
100
AcDbEntity
8
1
62
256
6
ByLayer
370
18
48
1
60
0
100
AcDbLine
10
21.522397
20
-5.85
30
0
11
21.713477
21
-5.508802
31
0
39
0
210
0
220
0
230
1
0
LINE
5
89
100
AcDbEntity
8
1
62
256
6
ByLayer
370
18
48
1
60
0
100
AcDbLine
10
6.5
20
6
30
0
11
11.7
21
2.95027
31
0
39
0
210
0
220
0
230
1
0
LINE
5
8A
100
AcDbEntity
8
1
62
256
6
ByLayer
370
18
48
1
60
0
100
AcDbLine
10
16.256235
20
-4.85
30
0
11
6.5
21
-4.85
31
0
39
0
210
0
220
0
230
1
0
LINE
5
8B
100
AcDbEntity
8
1
62
256
6
ByLayer
370
18
48
1
60
0
100
AcDbLine
10
-0.1
20
6
30
0
11
2.3
21
6
31
0
39
0
210
0
220
0
230
1
0
LINE
5
8C
100
AcDbEntity
8
1
62
256
6
ByLayer
370
18
48
1
60
0
100
AcDbLine
10
5.5
20
6
30
0
11
6.5
21
6
31
0
39
0
210
0
220
0
230
1
0
LINE
5
8D
100
AcDbEntity
8
1
62
256
6
ByLayer
370
18
48
1
60
0
100
AcDbLine
10
-0.1
20
-5.925
30
0
11
-0.1
21
6
31
0
39
0
210
0
220
0
230
1
0
LINE
5
8E
100
AcDbEntity
8
1
62
256
6
ByLayer
370
18
48
1
60
0
100
AcDbLine
10
-0.1
20
-5.925
30
0
11
1.720033
21
-5.925
31
0
39
0
210
0
220
0
230
1
0
LINE
5
8F
100
AcDbEntity
8
1
62
256
6
ByLayer
370
18
48
1
60
0
100
AcDbLine
10
19.256235
20
-5.85
30
0
11
16.256235
21
-5.85
31
0
39
0
210
0
220
0
230
1
0
LINE
5
90
100
AcDbEntity
8
1
62
256
6
ByLayer
370
18
48
1
60
0
100
AcDbLine
10
5.5
20
6
30
0
11
5.5
21
-3.85
31
0
39
0
210
0
220
0
230
1
0
LINE
5
91
100
AcDbEntity
8
1
62
256
6
ByLayer
370
18
48
1
60
0
100
AcDbLine
10
15.250085
20
0.868194
30
0
11
15.250085
21
-3.85
31
0
39
0
210
0
220
0
230
1
0
LINE
5
92
100
AcDbEntity
8
1
62
256
6
ByLayer
370
13
48
1
60
0
100
AcDbLine
10
5.5
20
-3.85
30
0
11
7.06143
21
-3.85
31
0
39
0
210
0
220
0
230
1
0
LINE
5
93
100
AcDbEntity
8
1
62
256
6
ByLayer
370
13
48
1
60
0
100
AcDbLine
10
11.7
20
-3.85
30
0
11
8.991017
21
-3.85
31
0
39
0
210
0
220
0
230
1
0
LINE
5
94
100
AcDbEntity
8
1
62
256
6
ByLayer
370
13
48
1
60
0
100
AcDbLine
10
2.3
20
6
30
0
11
2.3
21
-5.85
31
0
39
0
210
0
220
0
230
1
0
LINE
5
95
100
AcDbEntity
8
1
62
256
6
ByLayer
370
18
48
1
60
0
100
AcDbLine
10
11.7
20
2.95027
30
0
11
15.250085
21
0.868194
31
0
39
0
210
0
220
0
230
1
0
LINE
5
96
100
AcDbEntity
8
1
62
256
6
ByLayer
370
18
48
1
60
0
100
AcDbLine
10
3.1
20
-5.85
30
0
11
2.3
21
-5.85
31
0
39
0
210
0
220
0
230
1
0
LINE
5
97
100
AcDbEntity
8
1
62
256
6
ByLayer
370
18
48
1
60
0
100
AcDbLine
10
21.257003
20
-3.85
30
0
11
21.257003
21
-2.654783
31
0
39
0
210
0
220
0
230
1
0
LINE
5
98
100
AcDbEntity
8
1
62
256
6
ByLayer
370
13
48
1
60
0
100
AcDbLine
10
19.256235
20
-5.85
30
0
11
19.256235
21
-4.85
31
0
39
0
210
0
220
0
230
1
0
LINE
5
99
100
AcDbEntity
8
1
62
256
6
ByLayer
370
13
48
1
60
0
100
AcDbLine
10
21.257003
20
-3.85
30
0
11
15.250085
21
-3.85
31
0
39
0
210
0
220
0
230
1
0
LINE
5
9A
100
AcDbEntity
8
1
62
256
6
ByLayer
370
13
48
1
60
0
100
AcDbLine
10
15.250085
20
-3.85
30
0
11
11.7
21
-3.85
31
0
39
0
210
0
220
0
230
1
0
LINE
5
9B
100
AcDbEntity
8
1
62
256
6
ByLayer
370
13
48
1
60
0
100
AcDbLine
10
2.3
20
6
30
0
11
2.3
21
-5.85
31
0
39
0
210
0
220
0
230
1
0
LINE
5
9C
100
AcDbEntity
8
1
62
256
6
ByLayer
370
13
48
1
60
0
100
AcDbLine
10
19.256235
20
-5.85
30
0
11
19.256235
21
-4.85
31
0
39
0
210
0
220
0
230
1
0
LINE
5
9D
100
AcDbEntity
8
1
62
256
6
ByLayer
370
13
48
1
60
0
100
AcDbLine
10
16.256235
20
-4.85
30
0
11
16.256235
21
-5.85
31
0
39
0
210
0
220
0
230
1
0
LINE
5
9E
100
AcDbEntity
8
1
62
256
6
ByLayer
370
13
48
1
60
0
100
AcDbLine
10
11.7
20
-3.85
30
0
11
8.991017
21
-3.85
31
0
39
0
210
0
220
0
230
1
0
LINE
5
9F
100
AcDbEntity
8
1
62
256
6
ByLayer
370
13
48
1
60
0
100
AcDbLine
10
24.78
20
-4.754654
30
0
11
24.78
21
-5.024251
31
0
39
0
210
0
220
0
230
1
0
LINE
5
A0
100
AcDbEntity
8
1
62
256
6
ByLayer
370
13
48
1
60
0
100
AcDbLine
10
23.717227
20
-4.956689
30
0
11
23.717227
21
-4.797115
31
0
39
0
210
0
220
0
230
1
0
LINE
5
A1
100
AcDbEntity
8
1
62
256
6
ByLayer
370
13
48
1
60
0
100
AcDbLine
10
23.717227
20
-5.902885
30
0
11
23.717227
21
-5.743311
31
0
39
0
210
0
220
0
230
1
0
LINE
5
A2
100
AcDbEntity
8
1
62
256
6
ByLayer
370
13
48
1
60
0
100
AcDbLine
10
24.78
20
-5.675749
30
0
11
24.78
21
-5.945346
31
0
39
0
210
0
220
0
230
1
0
LINE
5
A3
100
AcDbEntity
8
1
62
256
6
ByLayer
370
13
48
1
60
0
100
AcDbLine
10
23.578101
20
-4.802657
30
0
11
23.578101
21
-4.949628
31
0
39
0
210
0
220
0
230
1
0
LINE
5
A4
100
AcDbEntity
8
1
62
256
6
ByLayer
370
13
48
1
60
0
100
AcDbLine
10
23.578101
20
-5.750372
30
0
11
23.578101
21
-5.897343
31
0
39
0
210
0
220
0
230
1
0
LINE
5
A5
100
AcDbEntity
8
1
62
256
6
ByLayer
370
13
48
1
60
0
100
AcDbLine
10
22.210261
20
-5.8375
30
0
11
22.210261
21
-5.802821
31
0
39
0
210
0
220
0
230
1
0
LINE
5
A6
100
AcDbEntity
8
1
62
256
6
ByLayer
370
13
48
1
60
0
100
AcDbLine
10
22.210261
20
-4.897179
30
0
11
22.210261
21
-4.8625
31
0
39
0
210
0
220
0
230
1
0
LINE
5
A7
100
AcDbEntity
8
1
62
256
6
ByLayer
370
13
48
1
60
0
100
AcDbLine
10
22.179687
20
-5.35
30
0
11
22.349903
21
-5.35
31
0
39
0
210
0
220
0
230
1
0
LINE
5
A8
100
AcDbEntity
8
1
62
256
6
ByLayer
370
13
48
1
60
0
100
AcDbLine
10
11.7
20
-4.85
30
0
11
11.7
21
-3.85
31
0
39
0
210
0
220
0
230
1
0
LINE
5
A9
100
AcDbEntity
8
1
62
256
6
ByLayer
370
13
48
1
60
0
100
AcDbLine
10
22.040049
20
-5.770956
30
0
11
22.040049
21
-5.8375
31
0
39
0
210
0
220
0
230
1
0
LINE
5
AA
100
AcDbEntity
8
1
62
256
6
ByLayer
370
13
48
1
60
0
100
AcDbLine
10
22.040049
20
-4.8625
30
0
11
22.040049
21
-4.929044
31
0
39
0
210
0
220
0
230
1
0
LINE
5
AB
100
AcDbEntity
8
1
62
256
6
ByLayer
370
13
48
1
60
0
100
AcDbLine
10
11.7
20
-3.85
30
0
11
11.7
21
2.95027
31
0
39
0
210
0
220
0
230
1
0
LINE
5
AC
100
AcDbEntity
8
1
62
256
6
ByLayer
370
13
48
1
60
0
100
AcDbLine
10
21.257003
20
-3.85
30
0
11
15.250085
21
-3.85
31
0
39
0
210
0
220
0
230
1
0
LINE
5
AD
100
AcDbEntity
8
1
62
256
6
ByLayer
370
13
48
1
60
0
100
AcDbLine
10
15.250085
20
-3.85
30
0
11
11.7
21
-3.85
31
0
39
0
210
0
220
0
230
1
0
LINE
5
AE
100
AcDbEntity
8
1
62
256
6
ByLayer
370
13
48
1
60
0
100
AcDbLine
10
5.5
20
-3.85
30
0
11
7.06143
21
-3.85
31
0
39
0
210
0
220
0
230
1
0
LINE
5
AF
100
AcDbEntity
8
1
62
256
6
ByLayer
370
18
48
1
60
0
100
AcDbLine
10
22.076754
20
-5.85
30
0
11
22.892781
21
-5.85
31
0
39
0
210
0
220
0
230
1
0
LINE
5
B0
100
AcDbEntity
8
1
62
256
6
ByLayer
370
18
48
1
60
0
100
AcDbLine
10
22.076754
20
-4.85
30
0
11
22.892781
21
-4.85
31
0
39
0
210
0
220
0
230
1
0
LINE
5
B1
100
AcDbEntity
8
1
62
256
6
ByLayer
370
18
48
1
60
0
100
AcDbLine
10
21.522397
20
-4.85
30
0
11
19.256235
21
-4.85
31
0
39
0
210
0
220
0
230
1
0
LINE
5
B2
100
AcDbEntity
8
1
62
256
6
ByLayer
370
18
48
1
60
0
100
AcDbLine
10
19.256235
20
-4.85
30
0
11
16.256235
21
-4.85
31
0
39
0
210
0
220
0
230
1
0
LINE
5
B3
100
AcDbEntity
8
1
62
256
6
ByLayer
370
18
48
1
60
0
100
AcDbLine
10
19.256235
20
-5.85
30
0
11
16.256235
21
-5.85
31
0
39
0
210
0
220
0
230
1
0
LINE
5
B4
100
AcDbEntity
8
1
62
256
6
ByLayer
370
18
48
1
60
0
100
AcDbLine
10
21.522397
20
-5.85
30
0
11
19.256235
21
-5.85
31
0
39
0
210
0
220
0
230
1
0
LINE
5
B5
100
AcDbEntity
8
1
62
256
6
ByLayer
370
18
48
1
60
0
100
AcDbLine
10
16.256235
20
-5.85
30
0
11
3.1
21
-5.85
31
0
39
0
210
0
220
0
230
1
0
LINE
5
B6
100
AcDbEntity
8
1
62
256
6
ByLayer
370
18
48
1
60
0
100
AcDbLine
10
16.256235
20
-4.85
30
0
11
6.5
21
-4.85
31
0
39
0
210
0
220
0
230
1
0
LINE
5
B7
100
AcDbEntity
8
1
62
256
6
ByLayer
370
18
48
1
60
0
100
AcDbLine
10
5.5
20
6
30
0
11
5.5
21
-3.85
31
0
39
0
210
0
220
0
230
1
0
LINE
5
B8
100
AcDbEntity
8
1
62
256
6
ByLayer
370
18
48
1
60
0
100
AcDbLine
10
15.250085
20
0.868194
30
0
11
15.250085
21
-3.85
31
0
39
0
210
0
220
0
230
1
0
LINE
5
B9
100
AcDbEntity
8
1
62
256
6
ByLayer
370
18
48
1
60
0
100
AcDbLine
10
21.713477
20
-5.191198
30
0
11
21.522397
21
-4.85
31
0
39
0
210
0
220
0
230
1
0
LINE
5
BA
100
AcDbEntity
8
1
62
256
6
ByLayer
370
18
48
1
60
0
100
AcDbLine
10
21.522397
20
-5.85
30
0
11
21.713477
21
-5.508802
31
0
39
0
210
0
220
0
230
1
0
LINE
5
BB
100
AcDbEntity
8
1
62
256
6
ByLayer
370
18
48
1
60
0
100
AcDbLine
10
3.1
20
-5.85
30
0
11
2.3
21
-5.85
31
0
39
0
210
0
220
0
230
1
0
LINE
5
BC
100
AcDbEntity
8
1
62
256
6
ByLayer
370
18
48
1
60
0
100
AcDbLine
10
3.1
20
-5.85
30
0
11
3.1
21
6
31
0
39
0
210
0
220
0
230
1
0
LINE
5
BD
100
AcDbEntity
8
1
62
256
6
ByLayer
370
18
48
1
60
0
100
AcDbLine
10
-45
20
-3.942378
30
0
11
-45
21
6
31
0
39
0
210
0
220
0
230
1
0
LINE
5
BE
100
AcDbEntity
8
1
62
256
6
ByLayer
370
18
48
1
60
0
100
AcDbLine
10
2.3
20
-5.85
30
0
11
2.1
21
-5.85
31
0
39
0
210
0
220
0
230
1
0
LINE
5
BF
100
AcDbEntity
8
1
62
256
6
ByLayer
370
18
48
1
60
0
100
AcDbLine
10
5.5
20
6
30
0
11
6.5
21
6
31
0
39
0
210
0
220
0
230
1
0
LINE
5
C0
100
AcDbEntity
8
1
62
256
6
ByLayer
370
18
48
1
60
0
100
AcDbLine
10
-45
20
6
30
0
11
2.3
21
6
31
0
39
0
210
0
220
0
230
1
0
LINE
5
C1
100
AcDbEntity
8
1
62
256
6
ByLayer
370
18
48
1
60
0
100
AcDbLine
10
5.5
20
6
30
0
11
3.1
21
6
31
0
39
0
210
0
220
0
230
1
0
LINE
5
C2
100
AcDbEntity
8
1
62
256
6
ByLayer
370
18
48
1
60
0
100
AcDbLine
10
2.3
20
6
30
0
11
3.1
21
6
31
0
39
0
210
0
220
0
230
1
0
LINE
5
C3
100
AcDbEntity
8
1
62
256
6
ByLayer
370
18
48
1
60
0
100
AcDbLine
10
-43
20
-5.925
30
0
11
1.720033
21
-5.925
31
0
39
0
210
0
220
0
230
1
0
LINE
5
C4
100
AcDbEntity
8
1
62
256
6
ByLayer
370
18
48
1
60
0
100
AcDbLine
10
21.257003
20
-3.85
30
0
11
21.257003
21
-2.654783
31
0
39
0
210
0
220
0
230
1
0
LINE
5
C5
100
AcDbEntity
8
1
62
256
6
ByLayer
370
18
48
1
60
0
100
AcDbLine
10
-43
20
-5.925
30
0
11
-45
21
-3.942378
31
0
39
0
210
0
220
0
230
1
0
LINE
5
C6
100
AcDbEntity
8
1
62
256
6
ByLayer
370
18
48
1
60
0
100
AcDbLine
10
6.5
20
6
30
0
11
11.7
21
2.95027
31
0
39
0
210
0
220
0
230
1
0
LINE
5
C7
100
AcDbEntity
8
1
62
256
6
ByLayer
370
18
48
1
60
0
100
AcDbLine
10
11.7
20
2.95027
30
0
11
15.250085
21
0.868194
31
0
39
0
210
0
220
0
230
1
0
LINE
5
C8
100
AcDbEntity
8
1
62
256
6
ByLayer
370
18
48
1
60
0
100
AcDbLine
10
15.250085
20
0.868194
30
0
11
21.257003
21
-2.654783
31
0
39
0
210
0
220
0
230
1
0
LINE
5
C9
100
AcDbEntity
8
1
62
256
6
ByLayer
370
18
48
1
60
0
100
AcDbLine
10
22.040049
20
-4.8625
30
0
11
22.210261
21
-4.8625
31
0
39
0
210
0
220
0
230
1
0
LINE
5
CA
100
AcDbEntity
8
1
62
256
6
ByLayer
370
18
48
1
60
0
100
AcDbLine
10
25
20
-5.85
30
0
11
25
21
-5.35
31
0
39
0
210
0
220
0
230
1
0
LINE
5
CB
100
AcDbEntity
8
1
62
256
6
ByLayer
370
18
48
1
60
0
100
AcDbLine
10
23.578101
20
-5.897343
30
0
11
22.727132
21
-5.838556
31
0
39
0
210
0
220
0
230
1
0
LINE
5
CC
100
AcDbEntity
8
1
62
256
6
ByLayer
370
18
48
1
60
0
100
AcDbLine
10
25
20
-5.35
30
0
11
25
21
-4.85
31
0
39
0
210
0
220
0
230
1
0
LINE
5
CD
100
AcDbEntity
8
1
62
256
6
ByLayer
370
18
48
1
60
0
100
AcDbLine
10
22.727132
20
-4.861444
30
0
11
23.578101
21
-4.802657
31
0
39
0
210
0
220
0
230
1
0
LINE
5
CE
100
AcDbEntity
8
1
62
256
6
ByLayer
370
18
48
1
60
0
100
AcDbLine
10
22.040049
20
-5.8375
30
0
11
22.210261
21
-5.8375
31
0
39
0
210
0
220
0
230
1
0
LINE
5
CF
100
AcDbEntity
8
1
62
256
6
ByLayer
370
18
48
1
60
0
100
AcDbLine
10
22.696512
20
-5.8375
30
0
11
22.210261
21
-5.8375
31
0
39
0
210
0
220
0
230
1
0
LINE
5
D0
100
AcDbEntity
8
1
62
256
6
ByLayer
370
18
48
1
60
0
100
AcDbLine
10
22.210261
20
-4.8625
30
0
11
22.696512
21
-4.8625
31
0
39
0
210
0
220
0
230
1
0
LINE
5
D1
100
AcDbEntity
8
SK2
62
256
6
ByLayer
370
13
48
1
60
0
100
AcDbLine
10
-54.817433
20
-14.75
30
0
11
-54.817433
21
14.75
31
0
39
0
210
0
220
0
230
1
0
LINE
5
D3
100
AcDbEntity
8
SK2
62
256
6
ByLayer
370
13
48
1
60
0
100
AcDbLine
10
-47
20
6
30
0
11
-56.817433
21
6
31
0
39
0
210
0
220
0
230
1
0
LINE
5
D4
100
AcDbEntity
8
SK2
62
256
6
ByLayer
370
13
48
1
60
0
100
AcDbLine
10
-47
20
-6
30
0
11
-56.817433
21
-6
31
0
39
0
210
0
220
0
230
1
0
LINE
5
D5
100
AcDbEntity
8
SK2
62
256
6
ByLayer
370
18
48
1
60
0
100
AcDbLine
10
-54.817433
20
6
30
0
11
-55.235429
21
9.174998
31
0
39
0
210
0
220
0
230
1
0
LINE
5
D6
100
AcDbEntity
8
SK2
62
256
6
ByLayer
370
18
48
1
60
0
100
AcDbLine
10
-54.817433
20
6
30
0
11
-54.399436
21
9.175002
31
0
39
0
210
0
220
0
230
1
0
LINE
5
D7
100
AcDbEntity
8
SK2
62
256
6
ByLayer
370
18
48
1
60
0
100
AcDbLine
10
-55.235429
20
9.174998
30
0
11
-54.399436
21
9.175002
31
0
39
0
210
0
220
0
230
1
0
LINE
5
D8
100
AcDbEntity
8
SK2
62
256
6
ByLayer
370
18
48
1
60
0
100
AcDbLine
10
-54.817433
20
-6
30
0
11
-54.399436
21
-9.174998
31
0
39
0
210
0
220
0
230
1
0
LINE
5
D9
100
AcDbEntity
8
SK2
62
256
6
ByLayer
370
18
48
1
60
0
100
AcDbLine
10
-54.817433
20
-6
30
0
11
-55.235429
21
-9.175002
31
0
39
0
210
0
220
0
230
1
0
LINE
5
DA
100
AcDbEntity
8
SK2
62
256
6
ByLayer
370
18
48
1
60
0
100
AcDbLine
10
-54.399436
20
-9.174998
30
0
11
-55.235429
21
-9.175002
31
0
39
0
210
0
220
0
230
1
0
MTEXT
5
13F
100
AcDbEntity
8
SK6
62
256
6
ByLayer
370
18
48
1
60
0
100
AcDbMText
10
-41.733716
20
-50.849987
30
0
210
0
220
0
230
1
1
\W0.7413;QS-QD-LFC10C1212S
40
3.5
41
0
44
1.084337
50
0
71
7
72
5
7
iso_b_vert
0
MTEXT
5
143
100
AcDbEntity
8
SK2
62
256
6
ByLayer
370
18
48
1
60
0
100
AcDbMText
10
-55.692433
20
-0.732237
30
0
210
0
220
0
230
1
1
\W0.5321;12
40
3.5
41
0
44
1.084337
50
89.9999999999999
71
7
72
5
7
iso_b_vert
0
DIMENSION
5
152
100
AcDbEntity
8
2
62
256
6
ByLayer
370
13
48
1
60
0
100
AcDbDimension
2
DimnDraft3D1
10
25
20
22.600025
30
0
11
10.409211
21
22.600025
31
0
70
32
71
5
72
1
41
1
210
0
220
0
230
1
3
Standard
100
AcDbAlignedDimension
13
0
23
8
33
0
14
25
24
-3.95
34
0
50
0
100
AcDbRotatedDimension
1001
ACAD
1000
DSTYLE
1002
{
1070
   279
1070
     0
1070
   172
1070
     1
1070
   173
1070
     1
1070
   340
1005
140
1070
   271
1070
     1
1070
    77
1070
     1
1070
    73
1070
     0
1070
   171
1070
     3
1070
   274
1070
     4
1070
   177
1070
     2
1070
   176
1070
     2
1070
   178
1070
     7
1070
    78
1070
     8
1070
    41
1041
3.175
1070
   147
1041
1.75
1070
    42
1041
2.0
1070
    44
1041
2.0
1070
   140
1041
3.5
1070
   343
1005
153
1070
   344
1005
153
1002
}
0
DIMENSION
5
167
100
AcDbEntity
8
SK2
62
256
6
ByLayer
370
13
48
1
60
0
100
AcDbDimension
2
DimnDraft3D2
10
-43
20
-19.05
30
0
11
-44.759868
21
-19.05
31
0
70
32
71
5
72
1
41
1
210
0
220
0
230
1
3
Standard
100
AcDbAlignedDimension
13
-45
23
4
33
0
14
-43
24
-8
34
0
50
0
100
AcDbRotatedDimension
1001
ACAD
1000
DSTYLE
1002
{
1070
   279
1070
     0
1070
   172
1070
     1
1070
   173
1070
     1
1070
   340
1005
140
1070
    77
1070
     1
1070
    73
1070
     0
1070
   171
1070
     3
1070
   274
1070
     4
1070
   177
1070
     2
1070
   176
1070
     2
1070
   178
1070
     7
1070
    78
1070
     8
1070
    41
1041
3.175
1070
   147
1041
1.75
1070
    42
1041
2.0
1070
    44
1041
2.0
1070
   140
1041
3.5
1070
   343
1005
153
1070
   344
1005
153
1002
}
0
DIMENSION
5
175
100
AcDbEntity
8
SK2
62
256
6
ByLayer
370
13
48
1
60
0
100
AcDbDimension
2
DimnDraft3D3
10
25
20
28.600025
30
0
11
-12.090789
21
28.600025
31
0
70
32
71
5
72
1
41
1
210
0
220
0
230
1
3
Standard
100
AcDbAlignedDimension
13
-45
23
8
33
0
14
25
24
-3.95
34
0
50
0
100
AcDbRotatedDimension
1001
ACAD
1000
DSTYLE
1002
{
1070
   279
1070
     0
1070
   172
1070
     1
1070
   173
1070
     1
1070
   340
1005
140
1070
   271
1070
     1
1070
    77
1070
     1
1070
    73
1070
     0
1070
   171
1070
     3
1070
   274
1070
     4
1070
   177
1070
     2
1070
   176
1070
     2
1070
   178
1070
     7
1070
    78
1070
     8
1070
    41
1041
3.175
1070
   147
1041
1.75
1070
    42
1041
2.0
1070
    44
1041
2.0
1070
   140
1041
3.5
1070
   343
1005
153
1070
   344
1005
153
1002
}
0
DIMENSION
5
183
100
AcDbEntity
8
2
62
256
6
ByLayer
370
13
48
1
60
0
100
AcDbDimension
2
DimnDraft3D4
10
15
20
-19.05
30
0
11
18.346711
21
-19.05
31
0
70
32
71
5
72
1
41
1
210
0
220
0
230
1
3
Standard
100
AcDbAlignedDimension
13
25
23
-7.95
33
0
14
15
24
-8
34
0
50
0
100
AcDbRotatedDimension
1001
ACAD
1000
DSTYLE
1002
{
1070
   279
1070
     0
1070
   172
1070
     1
1070
   173
1070
     1
1070
   340
1005
140
1070
   271
1070
     1
1070
    77
1070
     1
1070
    73
1070
     0
1070
   171
1070
     3
1070
   274
1070
     4
1070
   177
1070
     2
1070
   176
1070
     2
1070
   178
1070
     7
1070
    78
1070
     8
1070
    41
1041
3.175
1070
   147
1041
1.75
1070
    42
1041
2.0
1070
    44
1041
2.0
1070
   140
1041
3.5
1070
   343
1005
153
1070
   344
1005
153
1002
}
0
DIMENSION
5
191
100
AcDbEntity
8
2
62
256
6
ByLayer
370
13
48
1
60
0
100
AcDbDimension
2
DimnDraft3D5
10
50.1
20
-5.95
30
0
11
50.1
21
-1.628289
31
0
70
32
71
5
72
1
41
1
210
0
220
0
230
1
3
Standard
100
AcDbAlignedDimension
13
2
23
6
33
0
14
27
24
-5.95
34
0
50
90
100
AcDbRotatedDimension
1001
ACAD
1000
DSTYLE
1002
{
1070
    74
1070
     0
1070
   279
1070
     0
1070
   172
1070
     1
1070
   173
1070
     1
1070
   340
1005
140
1070
   271
1070
     1
1070
    77
1070
     1
1070
    73
1070
     0
1070
   171
1070
     3
1070
   274
1070
     4
1070
   177
1070
     2
1070
   176
1070
     2
1070
   178
1070
     7
1070
    78
1070
     8
1070
    41
1041
3.175
1070
   147
1041
1.75
1070
    42
1041
2.0
1070
    44
1041
2.0
1070
   140
1041
3.5
1070
   343
1005
153
1070
   344
1005
153
1002
}
0
DIMENSION
5
19F
100
AcDbEntity
8
2
62
256
6
ByLayer
370
13
48
1
60
0
100
AcDbDimension
2
DimnDraft3D6
10
43.1
20
-4.75
30
0
11
43.1
21
-20.93
31
0
70
32
71
5
72
1
41
1
210
0
220
0
230
1
3
Standard
100
AcDbAlignedDimension
13
27
23
-5.95
33
0
14
27
24
-4.75
34
0
50
90
100
AcDbRotatedDimension
1001
ACAD
1000
DSTYLE
1002
{
1070
    74
1070
     0
1070
   279
1070
     0
1070
   172
1070
     1
1070
   173
1070
     1
1070
   340
1005
140
1070
   271
1070
     1
1070
    77
1070
     1
1070
    73
1070
     0
1070
   171
1070
     3
1070
   274
1070
     4
1070
   177
1070
     2
1070
   176
1070
     2
1070
   178
1070
     7
1070
    78
1070
     8
1070
    41
1041
3.175
1070
   147
1041
1.75
1070
    42
1041
2.0
1070
    44
1041
2.0
1070
   140
1041
3.5
1070
   343
1005
153
1070
   344
1005
153
1002
}
0
ENDSEC
0
SECTION
2
OBJECTS
0
DICTIONARY
5
209
330
0
100
AcDbDictionary
280
0
281
1
3
ACAD_GROUP
350
20a
3
ACAD_MLINESTYLE
350
20b
0
DICTIONARY
5
20a
330
0
100
AcDbDictionary
280
0
281
1
0
DICTIONARY
5
20b
330
0
100
AcDbDictionary
280
0
281
1
3
Standard
350
18
0
MLINESTYLE
5
18
330
20b
100
AcDbMlineStyle
2
Standard
70
0
3

62
256
51
90
52
90
71
2
49
-0.5
62
256
6
ByLayer
49
0.5
62
256
6
ByLayer
0
RASTERVARIABLES
5
1f8
330

100
AcDbRasterVariables
90
0
70
1
71
1
72
1
0
ENDSEC
0
EOF
