0
SECTION
2
HEADER
9
$ACADVER
1
AC1015
9
$DWGCODEPAGE
3
ANSI_1252
9
$HANDSEED
5
1fe
9
$ANGBASE
50
0
9
$ANGDIR
70
0
9
$ATTMODE
70
1
9
$AUNITS
70
0
9
$AUPREC
70
0
9
$CECOLOR
62
256
9
$CELTSCALE
40
1
9
$CELTYPE
6
ByLayer
9
$CELWEIGHT
370
18
9
$CLAYER
8
0
9
$CMLJUST
70
0
9
$CMLSCALE
40
1
9
$CMLSTYLE
2
Standard
9
$DIMSTYLE
2
Standard
9
$TEXTSIZE
40
0.2
9
$TEXTSTYLE
7
Standard
9
$LUNITS
70
2
9
$LUPREC
70
4
9
$EXTNAMES
290
1
9
$INSUNITS
70
4
9
$LTSCALE
40
1
9
$LWDISPLAY
290
1
9
$PDMODE
70
0
9
$PDSIZE
40
0
9
$PLINEGEN
70
0
0
ENDSEC
0
SECTION
2
CLASSES
0
CLASS
1
RASTERVARIABLES
2
AcDbRasterVariables
3
ISM
90
0
280
0
281
0
0
ENDSEC
0
SECTION
2
TABLES
0
TABLE
2
VPORT
5
1f4
100
AcDbSymbolTable
0
VPORT
5
1
100
AcDbSymbolTableRecord
100
AcDbViewportTableRecord
2
*Active
70
0
10
0
20
0
11
1
21
1
12
-1
22
1
13
0
23
0
14
0.5
24
0.5
15
10
25
10
16
0
26
0
36
1
17
0
27
0
37
0
0
ENDTAB
0
TABLE
2
LTYPE
5
1f5
100
AcDbSymbolTable
0
LTYPE
5
14
100
AcDbSymbolTableRecord
100
AcDbLinetypeTableRecord
70
0
2
ByBlock
3

72
65
73
0
40
0
0
LTYPE
5
15
100
AcDbSymbolTableRecord
100
AcDbLinetypeTableRecord
70
0
2
ByLayer
3

72
65
73
0
40
0
0
LTYPE
5
16
100
AcDbSymbolTableRecord
100
AcDbLinetypeTableRecord
70
0
2
CONTINUOUS
3
Solid line
72
65
73
0
40
0
0
LTYPE
5
6A
100
AcDbSymbolTableRecord
100
AcDbLinetypeTableRecord
70
0
2
CENTER
3
____ _ ____ _ ____ _ ____
72
65
73
4
40
47.5
49
22
74
0
49
-8.5
74
0
49
8.5
74
0
49
-8.5
74
0
0
LTYPE
5
6B
100
AcDbSymbolTableRecord
100
AcDbLinetypeTableRecord
70
0
2
DASHED
3
__ __ __ __ __ __ __ __ __
72
65
73
2
40
25.72
49
12.86
74
0
49
-12.86
74
0
0
ENDTAB
0
TABLE
2
LAYER
5
1f6
100
AcDbSymbolTable
0
LAYER
5
10
100
AcDbSymbolTableRecord
100
AcDbLayerTableRecord
2
0
70
0
62
7
6
CONTINUOUS
290
1
370
-3
390
0
0
LAYER
5
6D
100
AcDbSymbolTableRecord
100
AcDbLayerTableRecord
2
80
70
0
62
-6
6
CONTINUOUS
290
1
370
-3
390
0
0
LAYER
5
6F
100
AcDbSymbolTableRecord
100
AcDbLayerTableRecord
2
81
70
0
62
-3
6
CONTINUOUS
290
1
370
-3
390
0
0
LAYER
5
83
100
AcDbSymbolTableRecord
100
AcDbLayerTableRecord
2
1
70
0
62
4
6
CONTINUOUS
290
1
370
-3
390
0
0
LAYER
5
12E
100
AcDbSymbolTableRecord
100
AcDbLayerTableRecord
2
2
70
0
62
7
6
CONTINUOUS
290
1
370
-3
390
0
0
LAYER
5
1e1
100
AcDbSymbolTableRecord
100
AcDbLayerTableRecord
2
SK1
70
0
62
4
6
CONTINUOUS
290
1
370
-3
390
0
0
LAYER
5
1e2
100
AcDbSymbolTableRecord
100
AcDbLayerTableRecord
2
SK2
70
0
62
7
6
CONTINUOUS
290
1
370
-3
390
0
0
LAYER
5
1e3
100
AcDbSymbolTableRecord
100
AcDbLayerTableRecord
2
SK6
70
0
62
5
6
CONTINUOUS
290
1
370
-3
390
0
0
ENDTAB
0
TABLE
2
STYLE
5
1f7
100
AcDbSymbolTable
0
STYLE
5
11
100
AcDbSymbolTableRecord
100
AcDbTextStyleTableRecord
2
Standard
3
txt
70
0
71
0
40
0
41
1
42
0
50
0
0
STYLE
5
128
100
AcDbSymbolTableRecord
100
AcDbTextStyleTableRecord
2
iso_b_vert
3
simplex.shx
70
0
71
0
40
0
41
1
42
0
50
0
0
STYLE
5
129
100
AcDbSymbolTableRecord
100
AcDbTextStyleTableRecord
2
DWGDirectTextStyle
3
simplex
70
0
71
0
40
0
41
1
42
0
50
0
0
ENDTAB
0
TABLE
2
DIMSTYLE
5
1f8
100
AcDbSymbolTable
100
AcDbDimStyleTable
0
DIMSTYLE
105
27
100
AcDbSymbolTableRecord
100
AcDbDimStyleTableRecord
2
Standard
70
0
3
<>
41
0.18
42
0.0625
44
0.18
140
0.18
147
0.09
73
0
74
0
77
1
271
2
275
0
278
52
280
0
340
11
0
ENDTAB
0
TABLE
2
VIEW
5
1f9
100
AcDbSymbolTable
0
ENDTAB
0
TABLE
2
UCS
5
1fa
100
AcDbSymbolTable
0
ENDTAB
0
TABLE
2
APPID
5
1fb
100
AcDbSymbolTable
0
APPID
5
12
100
AcDbSymbolTableRecord
100
AcDbRegAppTableRecord
2
ACAD
70
0
0
ENDTAB
0
TABLE
2
BLOCK_RECORD
5
1fc
100
AcDbSymbolTable
0
BLOCK_RECORD
5
1F
100
AcDbSymbolTableRecord
100
AcDbBlockTableRecord
2
*Model_Space
340
0
70
0
0
BLOCK_RECORD
5
1B
100
AcDbSymbolTableRecord
100
AcDbBlockTableRecord
2
*Paper_Space
340
0
70
0
0
BLOCK_RECORD
5
23
100
AcDbSymbolTableRecord
100
AcDbBlockTableRecord
2
*Paper_Space0
340
0
70
0
0
BLOCK_RECORD
5
12C
100
AcDbSymbolTableRecord
100
AcDbBlockTableRecord
2
DimnDraft3D1
340
0
70
0
0
BLOCK_RECORD
5
13B
100
AcDbSymbolTableRecord
100
AcDbBlockTableRecord
2
_CLOSED
340
0
70
0
0
BLOCK_RECORD
5
142
100
AcDbSymbolTableRecord
100
AcDbBlockTableRecord
2
DimnDraft3D2
340
0
70
0
0
BLOCK_RECORD
5
150
100
AcDbSymbolTableRecord
100
AcDbBlockTableRecord
2
DimnDraft3D3
340
0
70
0
0
BLOCK_RECORD
5
15E
100
AcDbSymbolTableRecord
100
AcDbBlockTableRecord
2
DimnDraft3D4
340
0
70
0
0
BLOCK_RECORD
5
16C
100
AcDbSymbolTableRecord
100
AcDbBlockTableRecord
2
DimnDraft3D5
340
0
70
0
0
BLOCK_RECORD
5
17A
100
AcDbSymbolTableRecord
100
AcDbBlockTableRecord
2
DimnDraft3D6
340
0
70
0
0
ENDTAB
0
ENDSEC
0
SECTION
2
BLOCKS
0
BLOCK
5
20
100
AcDbEntity
8
0
100
AcDbBlockBegin
2
*Model_Space
70
0
10
0
20
0
30
0
3
*Model_Space
0
ENDBLK
5
21
100
AcDbEntity
8
0
100
AcDbBlockEnd
0
BLOCK
5
1C
100
AcDbEntity
8
0
100
AcDbBlockBegin
2
*Paper_Space
70
0
10
0
20
0
30
0
3
*Paper_Space
0
ENDBLK
5
1D
100
AcDbEntity
8
0
100
AcDbBlockEnd
0
BLOCK
5
24
100
AcDbEntity
8
0
100
AcDbBlockBegin
2
*Paper_Space0
70
0
10
0
20
0
30
0
3
*Paper_Space0
0
ENDBLK
5
25
100
AcDbEntity
8
0
100
AcDbBlockEnd
0
BLOCK
5
138
100
AcDbEntity
8
0
100
AcDbBlockBegin
2
DimnDraft3D1
70
0
10
0
20
0
30
0
3
DimnDraft3D1
0
MTEXT
5
12D
100
AcDbEntity
8
2
62
256
6
ByLayer
370
18
48
1
60
0
100
AcDbMText
10
13.393295
20
31.7675
30
0
210
0
220
0
230
1
1
\W0.7640;43.8
40
3.5
41
0
44
1.084337
50
0
71
7
72
5
7
iso_b_vert
0
LINE
5
12F
100
AcDbEntity
8
2
62
256
6
ByLayer
370
13
48
1
60
0
100
AcDbLine
10
-5.1
20
12
30
0
11
-5.1
21
32.8925
31
0
39
0
210
0
220
0
230
1
0
LINE
5
130
100
AcDbEntity
8
2
62
256
6
ByLayer
370
13
48
1
60
0
100
AcDbLine
10
38.7208
20
-8.5
30
0
11
38.7208
21
32.8925
31
0
39
0
210
0
220
0
230
1
0
LINE
5
131
100
AcDbEntity
8
2
62
256
6
ByLayer
370
13
48
1
60
0
100
AcDbLine
10
-5.1
20
30.8925
30
0
11
38.7208
21
30.8925
31
0
39
0
210
0
220
0
230
1
0
LINE
5
132
100
AcDbEntity
8
2
62
256
6
ByLayer
370
13
48
1
60
0
100
AcDbLine
10
-5.1
20
30.8925
30
0
11
-1.925002
21
31.310497
31
0
39
0
210
0
220
0
230
1
0
LINE
5
133
100
AcDbEntity
8
2
62
256
6
ByLayer
370
13
48
1
60
0
100
AcDbLine
10
-5.1
20
30.8925
30
0
11
-1.924998
21
30.474503
31
0
39
0
210
0
220
0
230
1
0
LINE
5
134
100
AcDbEntity
8
2
62
256
6
ByLayer
370
13
48
1
60
0
100
AcDbLine
10
-1.925002
20
31.310497
30
0
11
-1.924998
21
30.474503
31
0
39
0
210
0
220
0
230
1
0
LINE
5
135
100
AcDbEntity
8
2
62
256
6
ByLayer
370
13
48
1
60
0
100
AcDbLine
10
38.7208
20
30.8925
30
0
11
35.545802
21
30.474503
31
0
39
0
210
0
220
0
230
1
0
LINE
5
136
100
AcDbEntity
8
2
62
256
6
ByLayer
370
13
48
1
60
0
100
AcDbLine
10
38.7208
20
30.8925
30
0
11
35.545798
21
31.310497
31
0
39
0
210
0
220
0
230
1
0
LINE
5
137
100
AcDbEntity
8
2
62
256
6
ByLayer
370
13
48
1
60
0
100
AcDbLine
10
35.545802
20
30.474503
30
0
11
35.545798
21
31.310497
31
0
39
0
210
0
220
0
230
1
0
ENDBLK
5
139
100
AcDbEntity
8
0
100
AcDbBlockEnd
0
BLOCK
5
13C
100
AcDbEntity
8
0
100
AcDbBlockBegin
2
_CLOSED
70
0
10
0
20
0
30
0
3
_CLOSED
0
LINE
5
13E
100
AcDbEntity
8
0
62
256
6
ByLayer
370
-2
48
1
60
0
100
AcDbLine
10
-1
20
0.166667
30
0
11
0
21
0
31
0
39
0
210
0
220
0
230
1
0
LINE
5
13F
100
AcDbEntity
8
0
62
256
6
ByLayer
370
-2
48
1
60
0
100
AcDbLine
10
0
20
0
30
0
11
-1
21
-0.166667
31
0
39
0
210
0
220
0
230
1
0
LINE
5
140
100
AcDbEntity
8
0
62
256
6
ByLayer
370
-2
48
1
60
0
100
AcDbLine
10
-1
20
0.166667
30
0
11
-1
21
-0.166667
31
0
39
0
210
0
220
0
230
1
0
LINE
5
141
100
AcDbEntity
8
0
62
256
6
ByLayer
370
-2
48
1
60
0
100
AcDbLine
10
0
20
0
30
0
11
-1
21
0
31
0
39
0
210
0
220
0
230
1
0
ENDBLK
5
13D
100
AcDbEntity
8
0
100
AcDbBlockEnd
0
BLOCK
5
14D
100
AcDbEntity
8
0
100
AcDbBlockBegin
2
DimnDraft3D2
70
0
10
0
20
0
30
0
3
DimnDraft3D2
0
MTEXT
5
143
100
AcDbEntity
8
SK2
62
256
6
ByLayer
370
18
48
1
60
0
100
AcDbMText
10
-67.384868
20
-22.725
30
0
210
0
220
0
230
1
1
\W0.5404;3
40
3.5
41
0
44
1.084337
50
0
71
7
72
5
7
iso_b_vert
0
LINE
5
144
100
AcDbEntity
8
SK2
62
256
6
ByLayer
370
13
48
1
60
0
100
AcDbLine
10
-69
20
8
30
0
11
-69
21
-25.6
31
0
39
0
210
0
220
0
230
1
0
LINE
5
145
100
AcDbEntity
8
SK2
62
256
6
ByLayer
370
13
48
1
60
0
100
AcDbLine
10
-66
20
-12
30
0
11
-66
21
-25.6
31
0
39
0
210
0
220
0
230
1
0
LINE
5
146
100
AcDbEntity
8
SK2
62
256
6
ByLayer
370
13
48
1
60
0
100
AcDbLine
10
-77.75
20
-23.6
30
0
11
-57.25
21
-23.6
31
0
39
0
210
0
220
0
230
1
0
LINE
5
147
100
AcDbEntity
8
SK2
62
256
6
ByLayer
370
13
48
1
60
0
100
AcDbLine
10
-69
20
-23.6
30
0
11
-72.174998
21
-24.017997
31
0
39
0
210
0
220
0
230
1
0
LINE
5
148
100
AcDbEntity
8
SK2
62
256
6
ByLayer
370
13
48
1
60
0
100
AcDbLine
10
-69
20
-23.6
30
0
11
-72.175002
21
-23.182003
31
0
39
0
210
0
220
0
230
1
0
LINE
5
149
100
AcDbEntity
8
SK2
62
256
6
ByLayer
370
13
48
1
60
0
100
AcDbLine
10
-72.174998
20
-24.017997
30
0
11
-72.175002
21
-23.182003
31
0
39
0
210
0
220
0
230
1
0
LINE
5
14A
100
AcDbEntity
8
SK2
62
256
6
ByLayer
370
13
48
1
60
0
100
AcDbLine
10
-66
20
-23.6
30
0
11
-62.825002
21
-23.182003
31
0
39
0
210
0
220
0
230
1
0
LINE
5
14B
100
AcDbEntity
8
SK2
62
256
6
ByLayer
370
13
48
1
60
0
100
AcDbLine
10
-66
20
-23.6
30
0
11
-62.824998
21
-24.017997
31
0
39
0
210
0
220
0
230
1
0
LINE
5
14C
100
AcDbEntity
8
SK2
62
256
6
ByLayer
370
13
48
1
60
0
100
AcDbLine
10
-62.825002
20
-23.182003
30
0
11
-62.824998
21
-24.017997
31
0
39
0
210
0
220
0
230
1
0
ENDBLK
5
14E
100
AcDbEntity
8
0
100
AcDbBlockEnd
0
BLOCK
5
15B
100
AcDbEntity
8
0
100
AcDbBlockBegin
2
DimnDraft3D3
70
0
10
0
20
0
30
0
3
DimnDraft3D3
0
MTEXT
5
151
100
AcDbEntity
8
SK2
62
256
6
ByLayer
370
18
48
1
60
0
100
AcDbMText
10
-19.242889
20
37.7675
30
0
210
0
220
0
230
1
1
\W0.6864;107.7
40
3.5
41
0
44
1.084337
50
0
71
7
72
5
7
iso_b_vert
0
LINE
5
152
100
AcDbEntity
8
SK2
62
256
6
ByLayer
370
13
48
1
60
0
100
AcDbLine
10
-69
20
12
30
0
11
-69
21
38.8925
31
0
39
0
210
0
220
0
230
1
0
LINE
5
153
100
AcDbEntity
8
SK2
62
256
6
ByLayer
370
13
48
1
60
0
100
AcDbLine
10
38.7208
20
-8.5
30
0
11
38.7208
21
38.8925
31
0
39
0
210
0
220
0
230
1
0
LINE
5
154
100
AcDbEntity
8
SK2
62
256
6
ByLayer
370
13
48
1
60
0
100
AcDbLine
10
-69
20
36.8925
30
0
11
38.7208
21
36.8925
31
0
39
0
210
0
220
0
230
1
0
LINE
5
155
100
AcDbEntity
8
SK2
62
256
6
ByLayer
370
13
48
1
60
0
100
AcDbLine
10
-69
20
36.8925
30
0
11
-65.825002
21
37.310497
31
0
39
0
210
0
220
0
230
1
0
LINE
5
156
100
AcDbEntity
8
SK2
62
256
6
ByLayer
370
13
48
1
60
0
100
AcDbLine
10
-69
20
36.8925
30
0
11
-65.824998
21
36.474503
31
0
39
0
210
0
220
0
230
1
0
LINE
5
157
100
AcDbEntity
8
SK2
62
256
6
ByLayer
370
13
48
1
60
0
100
AcDbLine
10
-65.825002
20
37.310497
30
0
11
-65.824998
21
36.474503
31
0
39
0
210
0
220
0
230
1
0
LINE
5
158
100
AcDbEntity
8
SK2
62
256
6
ByLayer
370
13
48
1
60
0
100
AcDbLine
10
38.7208
20
36.8925
30
0
11
35.545802
21
36.474503
31
0
39
0
210
0
220
0
230
1
0
LINE
5
159
100
AcDbEntity
8
SK2
62
256
6
ByLayer
370
13
48
1
60
0
100
AcDbLine
10
38.7208
20
36.8925
30
0
11
35.545798
21
37.310497
31
0
39
0
210
0
220
0
230
1
0
LINE
5
15A
100
AcDbEntity
8
SK2
62
256
6
ByLayer
370
13
48
1
60
0
100
AcDbLine
10
35.545802
20
36.474503
30
0
11
35.545798
21
37.310497
31
0
39
0
210
0
220
0
230
1
0
ENDBLK
5
15C
100
AcDbEntity
8
0
100
AcDbBlockEnd
0
BLOCK
5
169
100
AcDbEntity
8
0
100
AcDbBlockBegin
2
DimnDraft3D4
70
0
10
0
20
0
30
0
3
DimnDraft3D4
0
MTEXT
5
15F
100
AcDbEntity
8
2
62
256
6
ByLayer
370
18
48
1
60
0
100
AcDbMText
10
27.505011
20
-22.725
30
0
210
0
220
0
230
1
1
\W0.6740;20
40
3.5
41
0
44
1.084337
50
0
71
7
72
5
7
iso_b_vert
0
LINE
5
160
100
AcDbEntity
8
2
62
256
6
ByLayer
370
13
48
1
60
0
100
AcDbLine
10
38.7208
20
-12.5
30
0
11
38.7208
21
-25.6
31
0
39
0
210
0
220
0
230
1
0
LINE
5
161
100
AcDbEntity
8
2
62
256
6
ByLayer
370
13
48
1
60
0
100
AcDbLine
10
18.7208
20
-12
30
0
11
18.7208
21
-25.6
31
0
39
0
210
0
220
0
230
1
0
LINE
5
162
100
AcDbEntity
8
2
62
256
6
ByLayer
370
13
48
1
60
0
100
AcDbLine
10
38.7208
20
-23.6
30
0
11
18.7208
21
-23.6
31
0
39
0
210
0
220
0
230
1
0
LINE
5
163
100
AcDbEntity
8
2
62
256
6
ByLayer
370
13
48
1
60
0
100
AcDbLine
10
38.7208
20
-23.6
30
0
11
35.545802
21
-24.017997
31
0
39
0
210
0
220
0
230
1
0
LINE
5
164
100
AcDbEntity
8
2
62
256
6
ByLayer
370
13
48
1
60
0
100
AcDbLine
10
38.7208
20
-23.6
30
0
11
35.545798
21
-23.182003
31
0
39
0
210
0
220
0
230
1
0
LINE
5
165
100
AcDbEntity
8
2
62
256
6
ByLayer
370
13
48
1
60
0
100
AcDbLine
10
35.545802
20
-24.017997
30
0
11
35.545798
21
-23.182003
31
0
39
0
210
0
220
0
230
1
0
LINE
5
166
100
AcDbEntity
8
2
62
256
6
ByLayer
370
13
48
1
60
0
100
AcDbLine
10
18.7208
20
-23.6
30
0
11
21.895798
21
-23.182003
31
0
39
0
210
0
220
0
230
1
0
LINE
5
167
100
AcDbEntity
8
2
62
256
6
ByLayer
370
13
48
1
60
0
100
AcDbLine
10
18.7208
20
-23.6
30
0
11
21.895802
21
-24.017997
31
0
39
0
210
0
220
0
230
1
0
LINE
5
168
100
AcDbEntity
8
2
62
256
6
ByLayer
370
13
48
1
60
0
100
AcDbLine
10
21.895798
20
-23.182003
30
0
11
21.895802
21
-24.017997
31
0
39
0
210
0
220
0
230
1
0
ENDBLK
5
16A
100
AcDbEntity
8
0
100
AcDbBlockEnd
0
BLOCK
5
177
100
AcDbEntity
8
0
100
AcDbBlockBegin
2
DimnDraft3D5
70
0
10
0
20
0
30
0
3
DimnDraft3D5
0
MTEXT
5
16D
100
AcDbEntity
8
2
62
256
6
ByLayer
370
18
48
1
60
0
100
AcDbMText
10
62.9458
20
-3.482895
30
0
210
0
220
0
230
1
1
\W0.7346;20.5
40
3.5
41
0
44
1.084337
50
90
71
7
72
5
7
iso_b_vert
0
LINE
5
16E
100
AcDbEntity
8
2
62
256
6
ByLayer
370
13
48
1
60
0
100
AcDbLine
10
-3.1
20
10
30
0
11
65.8208
21
10
31
0
39
0
210
0
220
0
230
1
0
LINE
5
16F
100
AcDbEntity
8
2
62
256
6
ByLayer
370
13
48
1
60
0
100
AcDbLine
10
40.7208
20
-10.5
30
0
11
65.8208
21
-10.5
31
0
39
0
210
0
220
0
230
1
0
LINE
5
170
100
AcDbEntity
8
2
62
256
6
ByLayer
370
13
48
1
60
0
100
AcDbLine
10
63.8208
20
10
30
0
11
63.8208
21
-10.5
31
0
39
0
210
0
220
0
230
1
0
LINE
5
171
100
AcDbEntity
8
2
62
256
6
ByLayer
370
13
48
1
60
0
100
AcDbLine
10
63.8208
20
10
30
0
11
64.238797
21
6.825002
31
0
39
0
210
0
220
0
230
1
0
LINE
5
172
100
AcDbEntity
8
2
62
256
6
ByLayer
370
13
48
1
60
0
100
AcDbLine
10
63.8208
20
10
30
0
11
63.402803
21
6.824998
31
0
39
0
210
0
220
0
230
1
0
LINE
5
173
100
AcDbEntity
8
2
62
256
6
ByLayer
370
13
48
1
60
0
100
AcDbLine
10
64.238797
20
6.825002
30
0
11
63.402803
21
6.824998
31
0
39
0
210
0
220
0
230
1
0
LINE
5
174
100
AcDbEntity
8
2
62
256
6
ByLayer
370
13
48
1
60
0
100
AcDbLine
10
63.8208
20
-10.5
30
0
11
63.402803
21
-7.325002
31
0
39
0
210
0
220
0
230
1
0
LINE
5
175
100
AcDbEntity
8
2
62
256
6
ByLayer
370
13
48
1
60
0
100
AcDbLine
10
63.8208
20
-10.5
30
0
11
64.238797
21
-7.324998
31
0
39
0
210
0
220
0
230
1
0
LINE
5
176
100
AcDbEntity
8
2
62
256
6
ByLayer
370
13
48
1
60
0
100
AcDbLine
10
63.402803
20
-7.325002
30
0
11
64.238797
21
-7.324998
31
0
39
0
210
0
220
0
230
1
0
ENDBLK
5
178
100
AcDbEntity
8
0
100
AcDbBlockEnd
0
BLOCK
5
185
100
AcDbEntity
8
0
100
AcDbBlockBegin
2
DimnDraft3D6
70
0
10
0
20
0
30
0
3
DimnDraft3D6
0
MTEXT
5
17B
100
AcDbEntity
8
2
62
256
6
ByLayer
370
18
48
1
60
0
100
AcDbMText
10
55.9458
20
-21.445789
30
0
210
0
220
0
230
1
1
\W0.5404;5
40
3.5
41
0
44
1.084337
50
90
71
7
72
5
7
iso_b_vert
0
LINE
5
17C
100
AcDbEntity
8
2
62
256
6
ByLayer
370
13
48
1
60
0
100
AcDbLine
10
40.7208
20
-10.5
30
0
11
58.8208
21
-10.5
31
0
39
0
210
0
220
0
230
1
0
LINE
5
17D
100
AcDbEntity
8
2
62
256
6
ByLayer
370
13
48
1
60
0
100
AcDbLine
10
40.7208
20
-5.5
30
0
11
58.8208
21
-5.5
31
0
39
0
210
0
220
0
230
1
0
LINE
5
17E
100
AcDbEntity
8
2
62
256
6
ByLayer
370
13
48
1
60
0
100
AcDbLine
10
56.8208
20
3.25
30
0
11
56.8208
21
-22.320789
31
0
39
0
210
0
220
0
230
1
0
LINE
5
17F
100
AcDbEntity
8
2
62
256
6
ByLayer
370
13
48
1
60
0
100
AcDbLine
10
56.8208
20
-10.5
30
0
11
57.238797
21
-13.674998
31
0
39
0
210
0
220
0
230
1
0
LINE
5
180
100
AcDbEntity
8
2
62
256
6
ByLayer
370
13
48
1
60
0
100
AcDbLine
10
56.8208
20
-10.5
30
0
11
56.402803
21
-13.675002
31
0
39
0
210
0
220
0
230
1
0
LINE
5
181
100
AcDbEntity
8
2
62
256
6
ByLayer
370
13
48
1
60
0
100
AcDbLine
10
57.238797
20
-13.674998
30
0
11
56.402803
21
-13.675002
31
0
39
0
210
0
220
0
230
1
0
LINE
5
182
100
AcDbEntity
8
2
62
256
6
ByLayer
370
13
48
1
60
0
100
AcDbLine
10
56.8208
20
-5.5
30
0
11
56.402803
21
-2.325002
31
0
39
0
210
0
220
0
230
1
0
LINE
5
183
100
AcDbEntity
8
2
62
256
6
ByLayer
370
13
48
1
60
0
100
AcDbLine
10
56.8208
20
-5.5
30
0
11
57.238797
21
-2.324998
31
0
39
0
210
0
220
0
230
1
0
LINE
5
184
100
AcDbEntity
8
2
62
256
6
ByLayer
370
13
48
1
60
0
100
AcDbLine
10
56.402803
20
-2.325002
30
0
11
57.238797
21
-2.324998
31
0
39
0
210
0
220
0
230
1
0
ENDBLK
5
186
100
AcDbEntity
8
0
100
AcDbBlockEnd
0
ENDSEC
0
SECTION
2
ENTITIES
0
ARC
5
F8
100
AcDbEntity
8
1
62
256
6
ByLayer
370
18
48
1
60
0
100
AcDbCircle
39
0
10
0.372277
20
11.6
30
0
40
1.6
210
0
220
0
230
1
100
AcDbArc
50
270
51
345
0
ARC
5
F9
100
AcDbEntity
8
1
62
256
6
ByLayer
370
18
48
1
60
0
100
AcDbCircle
39
0
10
-18.720814
20
-4.225
30
0
40
1.6
210
0
220
0
230
-1
100
AcDbArc
50
278.081945
51
0
0
ARC
5
FA
100
AcDbEntity
8
1
62
256
6
ByLayer
370
18
48
1
60
0
100
AcDbCircle
39
0
10
0.372277
20
-11.525
30
0
40
1.6
210
0
220
0
230
1
100
AcDbArc
50
57.538255
51
90
0
ARC
5
FB
100
AcDbEntity
8
1
62
256
6
ByLayer
370
18
48
1
60
0
100
AcDbCircle
39
0
10
-18.720814
20
-4.225
30
0
40
1.6
210
0
220
0
230
-1
100
AcDbArc
50
278.081945
51
0
0
ARC
5
FC
100
AcDbEntity
8
1
62
256
6
ByLayer
370
18
48
1
60
0
100
AcDbCircle
39
0
10
0.372277
20
11.6
30
0
40
1.6
210
0
220
0
230
1
100
AcDbArc
50
270
51
345
0
ARC
5
FD
100
AcDbEntity
8
1
62
256
6
ByLayer
370
18
48
1
60
0
100
AcDbCircle
39
0
10
0.372277
20
-11.525
30
0
40
1.6
210
0
220
0
230
1
100
AcDbArc
50
57.538255
51
90
0
ARC
5
FE
100
AcDbEntity
8
1
62
256
6
ByLayer
370
18
48
1
60
0
100
AcDbCircle
39
0
10
38.420814
20
-5.8
30
0
40
0.3
210
0
220
0
230
1
100
AcDbArc
50
0
51
92.5
0
ARC
5
FF
100
AcDbEntity
8
1
62
256
6
ByLayer
370
18
48
1
60
0
100
AcDbCircle
39
0
10
-31.277253
20
-7.332701
30
0
40
0.0999999999963503
210
0
220
0
230
-1
100
AcDbArc
50
321.950819
51
349.999999
0
ARC
5
100
100
AcDbEntity
8
1
62
256
6
ByLayer
370
18
48
1
60
0
100
AcDbCircle
39
0
10
-38.420814
20
-10.2
30
0
40
0.3
210
0
220
0
230
-1
100
AcDbArc
50
180
51
272.5
0
ARC
5
101
100
AcDbEntity
8
1
62
256
6
ByLayer
370
18
48
1
60
0
100
AcDbCircle
39
0
10
-31.277253
20
-8.667299
30
0
40
0.0999999999963503
210
0
220
0
230
-1
100
AcDbArc
50
10.000001
51
38.049181
0
ARC
5
102
100
AcDbEntity
8
1
62
256
6
ByLayer
370
18
48
1
60
0
100
AcDbCircle
39
0
10
14.020814
20
-10.2
30
0
40
0.3
210
0
220
0
230
1
100
AcDbArc
50
180
51
272.5
0
ELLIPSE
5
103
100
AcDbEntity
8
1
62
256
6
ByLayer
370
18
48
1
60
0
100
AcDbEllipse
10
33.049935
20
-8
30
0
11
3.64906232246826
21
-1.12392580781179
31
0
210
0
220
0
230
-1
40
0.066728
41
2.16772713125966
42
2.20553246827717
0
ELLIPSE
5
104
100
AcDbEntity
8
1
62
256
6
ByLayer
370
18
48
1
60
0
100
AcDbEllipse
10
29.736343
20
-8
30
0
11
1.29447093754133
21
1.30824288514835E-15
31
0
210
0
220
0
230
-1
40
0.888394
41
-0.383581385246897
42
0
0
ELLIPSE
5
105
100
AcDbEntity
8
1
62
256
6
ByLayer
370
18
48
1
60
0
100
AcDbEllipse
10
29.736343
20
-8
30
0
11
1.29447093750404
21
1.30824288511066E-15
31
0
210
0
220
0
230
-1
40
0.888394
41
0
42
0.383581385252517
0
ELLIPSE
5
106
100
AcDbEntity
8
1
62
256
6
ByLayer
370
18
48
1
60
0
100
AcDbEllipse
10
31.605332
20
-8
30
0
11
0.441246000922465
21
1.10994269114985
31
0
210
0
220
0
230
-1
40
0.681881
41
-2.46061972721029
42
-2.3694684294631
0
ELLIPSE
5
107
100
AcDbEntity
8
1
62
256
6
ByLayer
370
18
48
1
60
0
100
AcDbEllipse
10
29.736343
20
-8
30
0
11
1.29447093755547
21
1.30824288516264E-15
31
0
210
0
220
0
230
-1
40
0.888394
41
0.625110141859576
42
-0.625110141859566
0
ELLIPSE
5
108
100
AcDbEntity
8
1
62
256
6
ByLayer
370
18
48
1
60
0
100
AcDbEllipse
10
31.605332
20
-8
30
0
11
0.441246016885666
21
-1.10994270007307
31
0
210
0
220
0
230
-1
40
0.681881
41
2.36946844017527
42
2.46061973722659
0
ELLIPSE
5
109
100
AcDbEntity
8
1
62
256
6
ByLayer
370
18
48
1
60
0
100
AcDbEllipse
10
30.928875
20
-8.274969
30
0
11
-9.18454765364168E-18
21
0.149999999999573
31
0
210
0
220
0
230
-1
40
0.679592
41
1.5707963267949
42
2.79252680319358
0
ELLIPSE
5
10A
100
AcDbEntity
8
1
62
256
6
ByLayer
370
18
48
1
60
0
100
AcDbEllipse
10
30.928875
20
-7.725031
30
0
11
-9.18454765365185E-18
21
0.149999999999739
31
0
210
0
220
0
230
-1
40
0.679592
41
0.349065850397408
42
1.5707963267949
0
ELLIPSE
5
10B
100
AcDbEntity
8
1
62
256
6
ByLayer
370
18
48
1
60
0
100
AcDbEllipse
10
21.285248
20
-5.825
30
0
11
2.78951487299375
21
0
31
0
210
0
220
0
230
1
40
0.573576
41
3.1316605002134
42
3.14159265358979
0
ELLIPSE
5
10C
100
AcDbEntity
8
1
62
256
6
ByLayer
370
18
48
1
60
0
100
AcDbEllipse
10
33.049937
20
-8
30
0
11
3.64906413556103
21
1.12392627350854
31
0
210
0
220
0
230
-1
40
0.066728
41
-2.20553263643498
42
-2.16772731329021
0
ELLIPSE
5
10D
100
AcDbEntity
8
1
62
256
6
ByLayer
370
18
48
1
60
0
100
AcDbEllipse
10
21.285248
20
-5.825
30
0
11
2.78951487299375
21
0
31
0
210
0
220
0
230
1
40
0.573576
41
3.1316605002134
42
3.14159265358979
0
ELLIPSE
5
10E
100
AcDbEntity
8
1
62
256
6
ByLayer
370
18
48
1
60
0
100
AcDbEllipse
10
30.928875
20
-7.725031
30
0
11
-9.18454765365185E-18
21
0.149999999999739
31
0
210
0
220
0
230
-1
40
0.679592
41
0.349065850397408
42
1.5707963267949
0
ELLIPSE
5
10F
100
AcDbEntity
8
1
62
256
6
ByLayer
370
18
48
1
60
0
100
AcDbEllipse
10
30.928875
20
-8.274969
30
0
11
-9.18454765364168E-18
21
0.149999999999573
31
0
210
0
220
0
230
-1
40
0.679592
41
1.5707963267949
42
2.79252680319358
0
ELLIPSE
5
110
100
AcDbEntity
8
1
62
256
6
ByLayer
370
18
48
1
60
0
100
AcDbEllipse
10
33.049937
20
-8
30
0
11
3.64906413556103
21
1.12392627350854
31
0
210
0
220
0
230
-1
40
0.066728
41
-2.20553263643498
42
-2.16772731329021
0
ELLIPSE
5
111
100
AcDbEntity
8
1
62
256
6
ByLayer
370
18
48
1
60
0
100
AcDbEllipse
10
31.605332
20
-8
30
0
11
0.441246016885666
21
-1.10994270007307
31
0
210
0
220
0
230
-1
40
0.681881
41
2.36946844017527
42
2.46061973722659
0
ELLIPSE
5
112
100
AcDbEntity
8
1
62
256
6
ByLayer
370
18
48
1
60
0
100
AcDbEllipse
10
29.736343
20
-8
30
0
11
1.29447093750404
21
1.30824288511066E-15
31
0
210
0
220
0
230
-1
40
0.888394
41
0
42
0.383581385252517
0
ELLIPSE
5
113
100
AcDbEntity
8
1
62
256
6
ByLayer
370
18
48
1
60
0
100
AcDbEllipse
10
29.736343
20
-8
30
0
11
1.29447093754133
21
1.30824288514835E-15
31
0
210
0
220
0
230
-1
40
0.888394
41
-0.383581385246897
42
0
0
ELLIPSE
5
114
100
AcDbEntity
8
1
62
256
6
ByLayer
370
18
48
1
60
0
100
AcDbEllipse
10
31.605332
20
-8
30
0
11
0.441246000922465
21
1.10994269114985
31
0
210
0
220
0
230
-1
40
0.681881
41
-2.46061972721029
42
-2.3694684294631
0
ELLIPSE
5
115
100
AcDbEntity
8
1
62
256
6
ByLayer
370
18
48
1
60
0
100
AcDbEllipse
10
33.049935
20
-8
30
0
11
3.64906232246826
21
-1.12392580781179
31
0
210
0
220
0
230
-1
40
0.066728
41
2.16772713125966
42
2.20553246827717
0
ELLIPSE
5
116
100
AcDbEntity
8
1
62
256
6
ByLayer
370
18
48
1
60
0
100
AcDbEllipse
10
29.736343
20
-8
30
0
11
1.29447093755547
21
1.30824288516264E-15
31
0
210
0
220
0
230
-1
40
0.888394
41
0.625110141859576
42
-0.625110141859566
0
ELLIPSE
5
117
100
AcDbEntity
8
1
62
256
6
ByLayer
370
18
48
1
60
0
100
AcDbEllipse
10
31.067169
20
-6.141251
30
0
11
0.0994676874986063
21
0.0103043304393632
31
0
210
0
220
0
230
-1
40
1
41
3.07028626037091
42
-3.03836612203044
0
ELLIPSE
5
118
100
AcDbEntity
8
1
62
256
6
ByLayer
370
18
48
1
60
0
100
AcDbEllipse
10
31.067169
20
-9.858749
30
0
11
0.0994676874986063
21
-0.0103043304393632
31
0
210
0
220
0
230
-1
40
1
41
3.03836612203043
42
-3.07028626037091
0
POINT
5
6C
100
AcDbEntity
8
80
62
256
6
ByLayer
370
18
48
1
60
0
100
AcDbPoint
10
0
20
0
30
0
39
0
210
0
220
0
230
1
50
360
0
POINT
5
6E
100
AcDbEntity
8
81
62
256
6
ByLayer
370
18
48
1
60
0
100
AcDbPoint
10
38.7208
20
-10.5
30
0
39
0
210
0
220
0
230
1
50
360
0
SPLINE
5
119
100
AcDbEntity
8
1
62
256
6
ByLayer
370
18
48
1
60
0
100
AcDbSpline
70
4
71
3
72
14
73
10
40
0
40
0
40
0
40
0
40
0.249633481034762
40
0.249633481034762
40
0.500960062335138
40
0.500960062335138
40
0.73543572607973
40
0.73543572607973
40
1
40
1
40
1
40
1
41
1
10
30.8257786408834
20
-7.5296198132726
30
0
41
1
10
30.8137247767071
20
-7.52524871517844
30
0
41
1
10
30.8023472109968
20
-7.51910911424105
30
0
41
1
10
30.7830006229039
20
-7.50368983069012
30
0
41
1
10
30.7748206633779
20
-7.49415789118689
30
0
41
1
10
30.7636707337872
20
-7.47390123254633
30
0
41
1
10
30.7602456625104
20
-7.4630528056623
30
0
41
1
10
30.7573133499317
20
-7.43975869359644
30
0
41
1
10
30.7582832931142
20
-7.42698046305887
30
0
41
1
10
30.7611879186616
20
-7.41471314680481
30
0
0
SPLINE
5
11A
100
AcDbEntity
8
1
62
256
6
ByLayer
370
18
48
1
60
0
100
AcDbSpline
70
4
71
3
72
8
73
4
40
0
40
0
40
0
40
0
40
1
40
1
40
1
40
1
41
1
10
18.4958711199355
20
-5.80910881587215
30
0
41
1
10
18.5704298984805
20
-5.81969613134782
30
0
41
1
10
18.6456924691798
20
-5.82500000000002
30
0
41
1
10
18.7208139114986
20
-5.82500000000002
30
0
0
SPLINE
5
11B
100
AcDbEntity
8
1
62
256
6
ByLayer
370
18
48
1
60
0
100
AcDbSpline
70
4
71
3
72
14
73
10
40
0
40
0
40
0
40
0
40
0.262888355259458
40
0.262888355259458
40
0.528369794323054
40
0.528369794323054
40
0.767131092079255
40
0.767131092079255
40
1
40
1
40
1
40
1
41
1
10
30.761187918662
20
-8.58528685319524
30
0
41
1
10
30.758301466606
20
-8.57309629036845
30
0
41
1
10
30.7573250259044
20
-8.56040289596945
30
0
41
1
10
30.760361108332
20
-8.53577909225442
30
0
41
1
10
30.7645184359592
20
-8.52352470733703
30
0
41
1
10
30.7770984491988
20
-8.50302057727455
30
0
41
1
10
30.7852047597441
20
-8.4942318450473
30
0
41
1
10
30.8038441939882
20
-8.48008607122642
30
0
41
1
10
30.8145114221189
20
-8.47446602324817
30
0
41
1
10
30.8257786408834
20
-8.4703801867274
30
0
0
SPLINE
5
11C
100
AcDbEntity
8
1
62
256
6
ByLayer
370
18
48
1
60
0
100
AcDbSpline
70
4
71
3
72
8
73
4
40
0
40
0
40
0
40
0
40
1
40
1
40
1
40
1
41
1
10
18.4958711199355
20
-5.80910881587215
30
0
41
1
10
18.5704298984805
20
-5.81969613134782
30
0
41
1
10
18.6456924691798
20
-5.82500000000002
30
0
41
1
10
18.7208139114986
20
-5.82500000000002
30
0
0
SPLINE
5
11D
100
AcDbEntity
8
1
62
256
6
ByLayer
370
18
48
1
60
0
100
AcDbSpline
70
4
71
3
72
14
73
10
40
0
40
0
40
0
40
0
40
0.249633481034762
40
0.249633481034762
40
0.500960062335138
40
0.500960062335138
40
0.73543572607973
40
0.73543572607973
40
1
40
1
40
1
40
1
41
1
10
30.8257786408834
20
-7.5296198132726
30
0
41
1
10
30.8137247767071
20
-7.52524871517844
30
0
41
1
10
30.8023472109968
20
-7.51910911424105
30
0
41
1
10
30.7830006229039
20
-7.50368983069012
30
0
41
1
10
30.7748206633779
20
-7.49415789118689
30
0
41
1
10
30.7636707337872
20
-7.47390123254633
30
0
41
1
10
30.7602456625104
20
-7.4630528056623
30
0
41
1
10
30.7573133499317
20
-7.43975869359644
30
0
41
1
10
30.7582832931142
20
-7.42698046305887
30
0
41
1
10
30.7611879186616
20
-7.41471314680481
30
0
0
SPLINE
5
11E
100
AcDbEntity
8
1
62
256
6
ByLayer
370
18
48
1
60
0
100
AcDbSpline
70
4
71
3
72
14
73
10
40
0
40
0
40
0
40
0
40
0.262888355259458
40
0.262888355259458
40
0.528369794323054
40
0.528369794323054
40
0.767131092079255
40
0.767131092079255
40
1
40
1
40
1
40
1
41
1
10
30.761187918662
20
-8.58528685319524
30
0
41
1
10
30.758301466606
20
-8.57309629036845
30
0
41
1
10
30.7573250259044
20
-8.56040289596945
30
0
41
1
10
30.760361108332
20
-8.53577909225442
30
0
41
1
10
30.7645184359592
20
-8.52352470733703
30
0
41
1
10
30.7770984491988
20
-8.50302057727455
30
0
41
1
10
30.7852047597441
20
-8.4942318450473
30
0
41
1
10
30.8038441939882
20
-8.48008607122642
30
0
41
1
10
30.8145114221189
20
-8.47446602324817
30
0
41
1
10
30.8257786408834
20
-8.4703801867274
30
0
0
SPLINE
5
11F
100
AcDbEntity
8
1
62
256
6
ByLayer
370
18
48
1
60
0
100
AcDbSpline
70
4
71
2
72
10
73
7
40
0
40
0
40
0
40
0.5
40
0.5
40
0.75
40
0.75
40
1
40
1
40
1
41
1
10
31.4697593269391
20
-7.572267476262
30
0
41
1
10
31.5373531531616
20
-7.59176216351489
30
0
41
1
10
31.5850493942647
20
-7.64348571100984
30
0
41
1
10
31.6110363842164
20
-7.67166695292605
30
0
41
1
10
31.627673286226
20
-7.70752235389625
30
0
41
1
10
31.6456391476479
20
-7.74624189222666
30
0
41
1
10
31.6497601085786
20
-7.78926441302801
30
0
0
SPLINE
5
120
100
AcDbEntity
8
1
62
256
6
ByLayer
370
18
48
1
60
0
100
AcDbSpline
70
4
71
2
72
6
73
3
40
0
40
0
40
0
40
1
40
1
40
1
41
1
10
31.6497601086166
20
-7.789264412942
30
0
41
1
10
31.6586514007886
20
-7.88448344596685
30
0
41
1
10
31.6586748710271
20
-7.97999999930241
30
0
0
SPLINE
5
121
100
AcDbEntity
8
1
62
256
6
ByLayer
370
18
48
1
60
0
100
AcDbSpline
70
4
71
3
72
8
73
4
40
0
40
0
40
0
40
0
40
1
40
1
40
1
40
1
41
1
10
31.4697593269486
20
-7.57226747629801
30
0
41
1
10
31.4168170679352
20
-7.55381653358867
30
0
41
1
10
31.3638748089219
20
-7.53536559087934
30
0
41
1
10
31.3109325499086
20
-7.51691464817
30
0
0
SPLINE
5
122
100
AcDbEntity
8
1
62
256
6
ByLayer
370
18
48
1
60
0
100
AcDbSpline
70
4
71
3
72
8
73
4
40
0
40
0
40
0
40
0
40
1
40
1
40
1
40
1
41
1
10
31.3109325499086
20
-7.51691464817702
30
0
41
1
10
31.2974005453552
20
-7.50664724273491
30
0
41
1
10
31.2838685408019
20
-7.49637983729278
30
0
41
1
10
31.2703365362486
20
-7.48611243185067
30
0
0
SPLINE
5
123
100
AcDbEntity
8
1
62
256
6
ByLayer
370
18
48
1
60
0
100
AcDbSpline
70
4
71
2
72
6
73
3
40
0
40
0
40
0
40
1
40
1
40
1
41
1
10
31.4697593269476
20
-8.42773252370199
30
0
41
1
10
31.3887606305082
20
-8.45098475667322
30
0
41
1
10
31.3109325499081
20
-8.48308535183
30
0
0
SPLINE
5
124
100
AcDbEntity
8
1
62
256
6
ByLayer
370
18
48
1
60
0
100
AcDbSpline
70
4
71
2
72
6
73
3
40
0
40
0
40
0
40
1
40
1
40
1
41
1
10
31.3109325499071
20
-8.48308535182301
30
0
41
1
10
31.2866336709138
20
-8.49325467086351
30
0
41
1
10
31.2703365362466
20
-8.51388756814899
30
0
0
SPLINE
5
125
100
AcDbEntity
8
1
62
256
6
ByLayer
370
18
48
1
60
0
100
AcDbSpline
70
4
71
3
72
8
73
4
40
0
40
0
40
0
40
0
40
1
40
1
40
1
40
1
41
1
10
31.6497601086186
20
-8.210735587058
30
0
41
1
10
31.6527316960886
20
-8.1471570582712
30
0
41
1
10
31.6557032835586
20
-8.08357852948438
30
0
41
1
10
31.6586748710286
20
-8.02000000069759
30
0
0
SPLINE
5
126
100
AcDbEntity
8
1
62
256
6
ByLayer
370
18
48
1
60
0
100
AcDbSpline
70
4
71
3
72
9
73
5
40
0
40
0
40
0
40
0
40
0.508287091434109
40
1
40
1
40
1
40
1
41
1
10
31.4697593269386
20
-8.427732523738
30
0
41
1
10
31.5122893749327
20
-8.4107098141082
30
0
41
1
10
31.5959626546812
20
-8.37721946993724
30
0
41
1
10
31.6320268689066
20
-8.26561362272008
30
0
41
1
10
31.6497601085786
20
-8.21073558697199
30
0
0
LINE
5
70
100
AcDbEntity
8
80
62
256
6
ByLayer
370
18
48
1
60
0
100
AcDbLine
10
0
20
0
30
0
11
-5
21
0
31
0
39
0
210
0
220
0
230
1
0
LINE
5
71
100
AcDbEntity
8
81
62
256
6
ByLayer
370
18
48
1
60
0
100
AcDbLine
10
38.7208
20
-10.5
30
0
11
43.7208
21
-10.5
31
0
39
0
210
0
220
0
230
1
0
LINE
5
72
100
AcDbEntity
8
SK1
62
256
6
ByLayer
370
13
48
1
60
0
100
AcDbLine
10
-5.557971
20
10
30
0
11
-5.557971
21
-9.925
31
0
39
0
210
0
220
0
230
1
0
LINE
5
74
100
AcDbEntity
8
SK1
62
256
6
ByLayer
370
18
48
1
60
0
100
AcDbLine
10
-66
20
-9.925
30
0
11
-10.983367
21
-9.925
31
0
39
0
210
0
220
0
230
1
0
LINE
5
75
100
AcDbEntity
8
SK1
62
256
6
ByLayer
370
18
48
1
60
0
100
AcDbLine
10
-0.1
20
10
30
0
11
-0.1
21
-9.925
31
0
39
0
210
0
220
0
230
1
0
LINE
5
76
100
AcDbEntity
8
SK1
62
256
6
ByLayer
370
18
48
1
60
0
100
AcDbLine
10
-10.983367
20
-9.925
30
0
11
-5.557971
21
-9.925
31
0
39
0
210
0
220
0
230
1
0
LINE
5
77
100
AcDbEntity
8
SK1
62
256
6
ByLayer
370
18
48
1
60
0
100
AcDbLine
10
-10.983367
20
10
30
0
11
-10.983367
21
-9.925
31
0
39
0
210
0
220
0
230
1
0
LINE
5
78
100
AcDbEntity
8
SK1
62
256
6
ByLayer
370
18
48
1
60
0
100
AcDbLine
10
-0.1
20
-9.925
30
0
11
-2.788567
21
-9.925
31
0
39
0
210
0
220
0
230
1
0
LINE
5
79
100
AcDbEntity
8
SK1
62
256
6
ByLayer
370
18
48
1
60
0
100
AcDbLine
10
-10.983367
20
10
30
0
11
-5.557971
21
10
31
0
39
0
210
0
220
0
230
1
0
LINE
5
7A
100
AcDbEntity
8
SK1
62
256
6
ByLayer
370
18
48
1
60
0
100
AcDbLine
10
-0.1
20
10
30
0
11
-2.788567
21
10
31
0
39
0
210
0
220
0
230
1
0
LINE
5
7B
100
AcDbEntity
8
SK1
62
256
6
ByLayer
370
18
48
1
60
0
100
AcDbLine
10
-5.557971
20
10
30
0
11
-2.788567
21
10
31
0
39
0
210
0
220
0
230
1
0
LINE
5
7C
100
AcDbEntity
8
SK1
62
256
6
ByLayer
370
18
48
1
60
0
100
AcDbLine
10
-66
20
-9.925
30
0
11
-69
21
-6.925
31
0
39
0
210
0
220
0
230
1
0
LINE
5
7D
100
AcDbEntity
8
SK1
62
256
6
ByLayer
370
18
48
1
60
0
100
AcDbLine
10
-66
20
10
30
0
11
-10.983367
21
10
31
0
39
0
210
0
220
0
230
1
0
LINE
5
7E
100
AcDbEntity
8
SK1
62
256
6
ByLayer
370
18
48
1
60
0
100
AcDbLine
10
-66
20
10
30
0
11
-69
21
7
31
0
39
0
210
0
220
0
230
1
0
LINE
5
7F
100
AcDbEntity
8
SK1
62
256
6
ByLayer
370
18
48
1
60
0
100
AcDbLine
10
-2.788567
20
10
30
0
11
-2.788567
21
-9.925
31
0
39
0
210
0
220
0
230
1
0
LINE
5
80
100
AcDbEntity
8
SK1
62
256
6
ByLayer
370
18
48
1
60
0
100
AcDbLine
10
-5.557971
20
-9.925
30
0
11
-2.788567
21
-9.925
31
0
39
0
210
0
220
0
230
1
0
LINE
5
81
100
AcDbEntity
8
SK1
62
256
6
ByLayer
370
18
48
1
60
0
100
AcDbLine
10
-69
20
7
30
0
11
-69
21
-6.925
31
0
39
0
210
0
220
0
230
1
0
LINE
5
82
100
AcDbEntity
8
1
62
256
6
ByLayer
370
18
48
1
60
0
100
AcDbLine
10
18.495734
20
-10.175
30
0
11
18.495734
21
-5.825
31
0
39
0
210
0
220
0
230
1
0
LINE
5
84
100
AcDbEntity
8
1
62
256
6
ByLayer
370
18
48
1
60
0
100
AcDbLine
10
28.220814
20
-10.175
30
0
11
28.220814
21
-5.825
31
0
39
0
210
0
220
0
230
1
0
LINE
5
85
100
AcDbEntity
8
1
62
256
6
ByLayer
370
18
48
1
60
0
100
AcDbLine
10
30.96374
20
-7.584077
30
0
11
30.936745
21
-7.569619
31
0
39
0
210
0
220
0
230
1
0
LINE
5
86
100
AcDbEntity
8
1
62
256
6
ByLayer
370
18
48
1
60
0
100
AcDbLine
10
-0.1
20
10
30
0
11
-0.1
21
-9.925
31
0
39
0
210
0
220
0
230
1
0
LINE
5
87
100
AcDbEntity
8
1
62
256
6
ByLayer
370
18
48
1
60
0
100
AcDbLine
10
31.030814
20
-8.274969
30
0
11
31.030814
21
-8
31
0
39
0
210
0
220
0
230
1
0
LINE
5
88
100
AcDbEntity
8
1
62
256
6
ByLayer
370
18
48
1
60
0
100
AcDbLine
10
30.606038
20
-10.175
30
0
11
30.786028
21
-8.672965
31
0
39
0
210
0
220
0
230
1
0
LINE
5
89
100
AcDbEntity
8
1
62
256
6
ByLayer
370
18
48
1
60
0
100
AcDbLine
10
17.120814
20
7.15176
30
0
11
12.120814
21
14.2925
31
0
39
0
210
0
220
0
230
1
0
LINE
5
8A
100
AcDbEntity
8
1
62
256
6
ByLayer
370
18
48
1
60
0
100
AcDbLine
10
30.606038
20
-10.175
30
0
11
28.220814
21
-10.175
31
0
39
0
210
0
220
0
230
1
0
LINE
5
8B
100
AcDbEntity
8
1
62
256
6
ByLayer
370
18
48
1
60
0
100
AcDbLine
10
0.372277
20
10
30
0
11
-0.1
21
10
31
0
39
0
210
0
220
0
230
1
0
LINE
5
8C
100
AcDbEntity
8
1
62
256
6
ByLayer
370
18
48
1
60
0
100
AcDbLine
10
17.120814
20
-4.225
30
0
11
17.120814
21
7.15176
31
0
39
0
210
0
220
0
230
1
0
LINE
5
8D
100
AcDbEntity
8
1
62
256
6
ByLayer
370
18
48
1
60
0
100
AcDbLine
10
30.786028
20
-7.327035
30
0
11
30.606038
21
-5.825
31
0
39
0
210
0
220
0
230
1
0
LINE
5
8E
100
AcDbEntity
8
1
62
256
6
ByLayer
370
18
48
1
60
0
100
AcDbLine
10
18.720814
20
-5.825
30
0
11
28.220814
21
-5.825
31
0
39
0
210
0
220
0
230
1
0
LINE
5
8F
100
AcDbEntity
8
1
62
256
6
ByLayer
370
18
48
1
60
0
100
AcDbLine
10
28.220814
20
-10.175
30
0
11
18.495734
21
-10.175
31
0
39
0
210
0
220
0
230
1
0
LINE
5
90
100
AcDbEntity
8
1
62
256
6
ByLayer
370
18
48
1
60
0
100
AcDbLine
10
31.030814
20
-8
30
0
11
31.030814
21
-7.725031
31
0
39
0
210
0
220
0
230
1
0
LINE
5
91
100
AcDbEntity
8
1
62
256
6
ByLayer
370
18
48
1
60
0
100
AcDbLine
10
28.220814
20
-5.825
30
0
11
30.606038
21
-5.825
31
0
39
0
210
0
220
0
230
1
0
LINE
5
92
100
AcDbEntity
8
1
62
256
6
ByLayer
370
18
48
1
60
0
100
AcDbLine
10
30.936745
20
-8.430381
30
0
11
30.96374
21
-8.415923
31
0
39
0
210
0
220
0
230
1
0
LINE
5
93
100
AcDbEntity
8
1
62
256
6
ByLayer
370
18
48
1
60
0
100
AcDbLine
10
2.750172
20
14.2925
30
0
11
1.917758
21
11.18589
31
0
39
0
210
0
220
0
230
1
0
LINE
5
94
100
AcDbEntity
8
1
62
256
6
ByLayer
370
13
48
1
60
0
100
AcDbLine
10
18.495734
20
-5.825
30
0
11
18.720814
21
-5.825
31
0
39
0
210
0
220
0
230
1
0
LINE
5
95
100
AcDbEntity
8
1
62
256
6
ByLayer
370
18
48
1
60
0
100
AcDbLine
10
18.495734
20
-10.175
30
0
11
1.231055
21
-10.175
31
0
39
0
210
0
220
0
230
1
0
LINE
5
96
100
AcDbEntity
8
1
62
256
6
ByLayer
370
18
48
1
60
0
100
AcDbLine
10
12.120814
20
14.2925
30
0
11
2.750172
21
14.2925
31
0
39
0
210
0
220
0
230
1
0
LINE
5
97
100
AcDbEntity
8
1
62
256
6
ByLayer
370
18
48
1
60
0
100
AcDbLine
10
0.372277
20
-9.925
30
0
11
-0.1
21
-9.925
31
0
39
0
210
0
220
0
230
1
0
LINE
5
98
100
AcDbEntity
8
1
62
256
6
ByLayer
370
18
48
1
60
0
100
AcDbLine
10
31.68331
20
-5.825
30
0
11
30.606005
21
-5.825
31
0
39
0
210
0
220
0
230
1
0
LINE
5
99
100
AcDbEntity
8
1
62
256
6
ByLayer
370
18
48
1
60
0
100
AcDbLine
10
33.975109
20
-5.825
30
0
11
31.68331
21
-5.825
31
0
39
0
210
0
220
0
230
1
0
LINE
5
9A
100
AcDbEntity
8
1
62
256
6
ByLayer
370
18
48
1
60
0
100
AcDbLine
10
31.68331
20
-10.175
30
0
11
30.606005
21
-10.175
31
0
39
0
210
0
220
0
230
1
0
LINE
5
9B
100
AcDbEntity
8
1
62
256
6
ByLayer
370
18
48
1
60
0
100
AcDbLine
10
31.68331
20
-5.825
30
0
11
31.683045
21
-5.900015
31
0
39
0
210
0
220
0
230
1
0
LINE
5
9C
100
AcDbEntity
8
1
62
256
6
ByLayer
370
18
48
1
60
0
100
AcDbLine
10
31.683045
20
-10.099985
30
0
11
31.68331
21
-10.175
31
0
39
0
210
0
220
0
230
1
0
LINE
5
9D
100
AcDbEntity
8
1
62
256
6
ByLayer
370
18
48
1
60
0
100
AcDbLine
10
33.975109
20
-10.175
30
0
11
31.68331
21
-10.175
31
0
39
0
210
0
220
0
230
1
0
LINE
5
9E
100
AcDbEntity
8
1
62
256
6
ByLayer
370
18
48
1
60
0
100
AcDbLine
10
31.68331
20
-10.175
30
0
11
30.606005
21
-10.175
31
0
39
0
210
0
220
0
230
1
0
LINE
5
9F
100
AcDbEntity
8
1
62
256
6
ByLayer
370
18
48
1
60
0
100
AcDbLine
10
31.68331
20
-5.825
30
0
11
30.606005
21
-5.825
31
0
39
0
210
0
220
0
230
1
0
LINE
5
A0
100
AcDbEntity
8
1
62
256
6
ByLayer
370
13
48
1
60
0
100
AcDbLine
10
18.495734
20
-5.825
30
0
11
18.720814
21
-5.825
31
0
39
0
210
0
220
0
230
1
0
LINE
5
A1
100
AcDbEntity
8
1
62
256
6
ByLayer
370
13
48
1
60
0
100
AcDbLine
10
31.310933
20
-7.516915
30
0
11
30.802636
21
-7.516915
31
0
39
0
210
0
220
0
230
1
0
LINE
5
A2
100
AcDbEntity
8
1
62
256
6
ByLayer
370
18
48
1
60
0
100
AcDbLine
10
30.6149
20
-10.1
30
0
11
30.967169
21
-10.1
31
0
39
0
210
0
220
0
230
1
0
LINE
5
A3
100
AcDbEntity
8
1
62
256
6
ByLayer
370
18
48
1
60
0
100
AcDbLine
10
30.6149
20
-5.9
30
0
11
30.967169
21
-5.9
31
0
39
0
210
0
220
0
230
1
0
LINE
5
A4
100
AcDbEntity
8
1
62
256
6
ByLayer
370
13
48
1
60
0
100
AcDbLine
10
31.030775
20
-8.210736
30
0
11
31.64976
21
-8.210736
31
0
39
0
210
0
220
0
230
1
0
LINE
5
A5
100
AcDbEntity
8
1
62
256
6
ByLayer
370
13
48
1
60
0
100
AcDbLine
10
30.941666
20
-7.572267
30
0
11
31.469759
21
-7.572267
31
0
39
0
210
0
220
0
230
1
0
LINE
5
A6
100
AcDbEntity
8
1
62
256
6
ByLayer
370
13
48
1
60
0
100
AcDbLine
10
31.030772
20
-8.02
30
0
11
31.658675
21
-8.02
31
0
39
0
210
0
220
0
230
1
0
LINE
5
A7
100
AcDbEntity
8
1
62
256
6
ByLayer
370
13
48
1
60
0
100
AcDbLine
10
31.030775
20
-7.789264
30
0
11
31.64976
21
-7.789264
31
0
39
0
210
0
220
0
230
1
0
LINE
5
A8
100
AcDbEntity
8
1
62
256
6
ByLayer
370
13
48
1
60
0
100
AcDbLine
10
-5.557971
20
10
30
0
11
-5.557971
21
-9.925
31
0
39
0
210
0
220
0
230
1
0
LINE
5
A9
100
AcDbEntity
8
1
62
256
6
ByLayer
370
13
48
1
60
0
100
AcDbLine
10
31.030772
20
-7.98
30
0
11
31.658675
21
-7.98
31
0
39
0
210
0
220
0
230
1
0
LINE
5
AA
100
AcDbEntity
8
1
62
256
6
ByLayer
370
13
48
1
60
0
100
AcDbLine
10
30.941666
20
-8.427733
30
0
11
31.469759
21
-8.427733
31
0
39
0
210
0
220
0
230
1
0
LINE
5
AB
100
AcDbEntity
8
1
62
256
6
ByLayer
370
13
48
1
60
0
100
AcDbLine
10
30.643823
20
-6.141251
30
0
11
30.967169
21
-6.141251
31
0
39
0
210
0
220
0
230
1
0
LINE
5
AC
100
AcDbEntity
8
1
62
256
6
ByLayer
370
13
48
1
60
0
100
AcDbLine
10
30.645981
20
-9.841384
30
0
11
30.968688
21
-9.841384
31
0
39
0
210
0
220
0
230
1
0
LINE
5
AD
100
AcDbEntity
8
1
62
256
6
ByLayer
370
13
48
1
60
0
100
AcDbLine
10
30.645981
20
-6.158616
30
0
11
30.968688
21
-6.158616
31
0
39
0
210
0
220
0
230
1
0
LINE
5
AE
100
AcDbEntity
8
1
62
256
6
ByLayer
370
13
48
1
60
0
100
AcDbLine
10
30.778572
20
-8.649934
30
0
11
31.178773
21
-8.649934
31
0
39
0
210
0
220
0
230
1
0
LINE
5
AF
100
AcDbEntity
8
1
62
256
6
ByLayer
370
13
48
1
60
0
100
AcDbLine
10
30.643823
20
-9.858749
30
0
11
30.967169
21
-9.858749
31
0
39
0
210
0
220
0
230
1
0
LINE
5
B0
100
AcDbEntity
8
1
62
256
6
ByLayer
370
13
48
1
60
0
100
AcDbLine
10
30.778572
20
-7.350066
30
0
11
31.178773
21
-7.350066
31
0
39
0
210
0
220
0
230
1
0
LINE
5
B1
100
AcDbEntity
8
1
62
256
6
ByLayer
370
13
48
1
60
0
100
AcDbLine
10
30.766068
20
-8.605665
30
0
11
31.198505
21
-8.605665
31
0
39
0
210
0
220
0
230
1
0
LINE
5
B2
100
AcDbEntity
8
1
62
256
6
ByLayer
370
13
48
1
60
0
100
AcDbLine
10
30.77067
20
-8.513888
30
0
11
31.270337
21
-8.513888
31
0
39
0
210
0
220
0
230
1
0
LINE
5
B3
100
AcDbEntity
8
1
62
256
6
ByLayer
370
13
48
1
60
0
100
AcDbLine
10
30.766068
20
-7.394335
30
0
11
31.198505
21
-7.394335
31
0
39
0
210
0
220
0
230
1
0
LINE
5
B4
100
AcDbEntity
8
1
62
256
6
ByLayer
370
13
48
1
60
0
100
AcDbLine
10
31.310933
20
-8.483085
30
0
11
30.80208
21
-8.483085
31
0
39
0
210
0
220
0
230
1
0
LINE
5
B5
100
AcDbEntity
8
1
62
256
6
ByLayer
370
13
48
1
60
0
100
AcDbLine
10
30.771065
20
-7.486112
30
0
11
31.270337
21
-7.486112
31
0
39
0
210
0
220
0
230
1
0
LINE
5
B6
100
AcDbEntity
8
1
62
256
6
ByLayer
370
18
48
1
60
0
100
AcDbLine
10
18.220814
20
-10.31691
30
0
11
18.466603
21
-10.175003
31
0
39
0
210
0
220
0
230
1
0
LINE
5
B7
100
AcDbEntity
8
1
62
256
6
ByLayer
370
18
48
1
60
0
100
AcDbLine
10
18.045291
20
-5.675427
30
0
11
18.220814
21
-5.68309
31
0
39
0
210
0
220
0
230
1
0
LINE
5
B8
100
AcDbEntity
8
1
62
256
6
ByLayer
370
18
48
1
60
0
100
AcDbLine
10
18.220814
20
-5.68309
30
0
11
18.415778
21
-5.795653
31
0
39
0
210
0
220
0
230
1
0
LINE
5
B9
100
AcDbEntity
8
1
62
256
6
ByLayer
370
18
48
1
60
0
100
AcDbLine
10
13.720814
20
-10.2
30
0
11
13.720814
21
-10.174975
31
0
39
0
210
0
220
0
230
1
0
LINE
5
BA
100
AcDbEntity
8
1
62
256
6
ByLayer
370
18
48
1
60
0
100
AcDbLine
10
31.68331
20
-5.825
30
0
11
31.683045
21
-5.900015
31
0
39
0
210
0
220
0
230
1
0
LINE
5
BB
100
AcDbEntity
8
1
62
256
6
ByLayer
370
18
48
1
60
0
100
AcDbLine
10
33.975109
20
-5.825
30
0
11
31.68331
21
-5.825
31
0
39
0
210
0
220
0
230
1
0
LINE
5
BC
100
AcDbEntity
8
1
62
256
6
ByLayer
370
18
48
1
60
0
100
AcDbLine
10
31.683045
20
-10.099985
30
0
11
31.68331
21
-10.175
31
0
39
0
210
0
220
0
230
1
0
LINE
5
BD
100
AcDbEntity
8
1
62
256
6
ByLayer
370
18
48
1
60
0
100
AcDbLine
10
33.975109
20
-10.175
30
0
11
31.68331
21
-10.175
31
0
39
0
210
0
220
0
230
1
0
LINE
5
BE
100
AcDbEntity
8
1
62
256
6
ByLayer
370
18
48
1
60
0
100
AcDbLine
10
18.495734
20
-10.175
30
0
11
1.231055
21
-10.175
31
0
39
0
210
0
220
0
230
1
0
LINE
5
BF
100
AcDbEntity
8
1
62
256
6
ByLayer
370
18
48
1
60
0
100
AcDbLine
10
17.120814
20
-4.225
30
0
11
17.120814
21
7.15176
31
0
39
0
210
0
220
0
230
1
0
LINE
5
C0
100
AcDbEntity
8
1
62
256
6
ByLayer
370
18
48
1
60
0
100
AcDbLine
10
28.220814
20
-10.175
30
0
11
28.220814
21
-5.825
31
0
39
0
210
0
220
0
230
1
0
LINE
5
C1
100
AcDbEntity
8
1
62
256
6
ByLayer
370
18
48
1
60
0
100
AcDbLine
10
18.495734
20
-10.175
30
0
11
18.495734
21
-5.825
31
0
39
0
210
0
220
0
230
1
0
LINE
5
C2
100
AcDbEntity
8
1
62
256
6
ByLayer
370
18
48
1
60
0
100
AcDbLine
10
30.606038
20
-10.175
30
0
11
28.220814
21
-10.175
31
0
39
0
210
0
220
0
230
1
0
LINE
5
C3
100
AcDbEntity
8
1
62
256
6
ByLayer
370
18
48
1
60
0
100
AcDbLine
10
18.720814
20
-5.825
30
0
11
28.220814
21
-5.825
31
0
39
0
210
0
220
0
230
1
0
LINE
5
C4
100
AcDbEntity
8
1
62
256
6
ByLayer
370
18
48
1
60
0
100
AcDbLine
10
28.220814
20
-5.825
30
0
11
30.606038
21
-5.825
31
0
39
0
210
0
220
0
230
1
0
LINE
5
C5
100
AcDbEntity
8
1
62
256
6
ByLayer
370
18
48
1
60
0
100
AcDbLine
10
28.220814
20
-10.175
30
0
11
18.495734
21
-10.175
31
0
39
0
210
0
220
0
230
1
0
LINE
5
C6
100
AcDbEntity
8
1
62
256
6
ByLayer
370
18
48
1
60
0
100
AcDbLine
10
30.606038
20
-10.175
30
0
11
30.786028
21
-8.672965
31
0
39
0
210
0
220
0
230
1
0
LINE
5
C7
100
AcDbEntity
8
1
62
256
6
ByLayer
370
18
48
1
60
0
100
AcDbLine
10
30.936745
20
-8.430381
30
0
11
30.96374
21
-8.415923
31
0
39
0
210
0
220
0
230
1
0
LINE
5
C8
100
AcDbEntity
8
1
62
256
6
ByLayer
370
18
48
1
60
0
100
AcDbLine
10
30.96374
20
-7.584077
30
0
11
30.936745
21
-7.569619
31
0
39
0
210
0
220
0
230
1
0
LINE
5
C9
100
AcDbEntity
8
1
62
256
6
ByLayer
370
18
48
1
60
0
100
AcDbLine
10
30.786028
20
-7.327035
30
0
11
30.606038
21
-5.825
31
0
39
0
210
0
220
0
230
1
0
LINE
5
CA
100
AcDbEntity
8
1
62
256
6
ByLayer
370
18
48
1
60
0
100
AcDbLine
10
31.030814
20
-8.274969
30
0
11
31.030814
21
-8
31
0
39
0
210
0
220
0
230
1
0
LINE
5
CB
100
AcDbEntity
8
1
62
256
6
ByLayer
370
18
48
1
60
0
100
AcDbLine
10
-69
20
7
30
0
11
-69
21
-6.925
31
0
39
0
210
0
220
0
230
1
0
LINE
5
CC
100
AcDbEntity
8
1
62
256
6
ByLayer
370
18
48
1
60
0
100
AcDbLine
10
2.750172
20
14.2925
30
0
11
1.917758
21
11.18589
31
0
39
0
210
0
220
0
230
1
0
LINE
5
CD
100
AcDbEntity
8
1
62
256
6
ByLayer
370
18
48
1
60
0
100
AcDbLine
10
0.372277
20
10
30
0
11
-2.788567
21
10
31
0
39
0
210
0
220
0
230
1
0
LINE
5
CE
100
AcDbEntity
8
1
62
256
6
ByLayer
370
18
48
1
60
0
100
AcDbLine
10
-66
20
10
30
0
11
-10.983367
21
10
31
0
39
0
210
0
220
0
230
1
0
LINE
5
CF
100
AcDbEntity
8
1
62
256
6
ByLayer
370
18
48
1
60
0
100
AcDbLine
10
0.372277
20
-9.925
30
0
11
-2.788567
21
-9.925
31
0
39
0
210
0
220
0
230
1
0
LINE
5
D0
100
AcDbEntity
8
1
62
256
6
ByLayer
370
18
48
1
60
0
100
AcDbLine
10
-66
20
-9.925
30
0
11
-10.983367
21
-9.925
31
0
39
0
210
0
220
0
230
1
0
LINE
5
D1
100
AcDbEntity
8
1
62
256
6
ByLayer
370
18
48
1
60
0
100
AcDbLine
10
31.030814
20
-8
30
0
11
31.030814
21
-7.725031
31
0
39
0
210
0
220
0
230
1
0
LINE
5
D2
100
AcDbEntity
8
1
62
256
6
ByLayer
370
18
48
1
60
0
100
AcDbLine
10
-66
20
-9.925
30
0
11
-69
21
-6.925
31
0
39
0
210
0
220
0
230
1
0
LINE
5
D3
100
AcDbEntity
8
1
62
256
6
ByLayer
370
18
48
1
60
0
100
AcDbLine
10
-66
20
10
30
0
11
-69
21
7
31
0
39
0
210
0
220
0
230
1
0
LINE
5
D4
100
AcDbEntity
8
1
62
256
6
ByLayer
370
18
48
1
60
0
100
AcDbLine
10
-5.557971
20
10
30
0
11
-2.788567
21
10
31
0
39
0
210
0
220
0
230
1
0
LINE
5
D5
100
AcDbEntity
8
1
62
256
6
ByLayer
370
18
48
1
60
0
100
AcDbLine
10
-10.983367
20
-9.925
30
0
11
-5.557971
21
-9.925
31
0
39
0
210
0
220
0
230
1
0
LINE
5
D6
100
AcDbEntity
8
1
62
256
6
ByLayer
370
18
48
1
60
0
100
AcDbLine
10
-5.557971
20
-9.925
30
0
11
-2.788567
21
-9.925
31
0
39
0
210
0
220
0
230
1
0
LINE
5
D7
100
AcDbEntity
8
1
62
256
6
ByLayer
370
18
48
1
60
0
100
AcDbLine
10
-10.983367
20
10
30
0
11
-10.983367
21
-9.925
31
0
39
0
210
0
220
0
230
1
0
LINE
5
D8
100
AcDbEntity
8
1
62
256
6
ByLayer
370
18
48
1
60
0
100
AcDbLine
10
-10.983367
20
10
30
0
11
-5.557971
21
10
31
0
39
0
210
0
220
0
230
1
0
LINE
5
D9
100
AcDbEntity
8
1
62
256
6
ByLayer
370
18
48
1
60
0
100
AcDbLine
10
-2.788567
20
10
30
0
11
-2.788567
21
-9.925
31
0
39
0
210
0
220
0
230
1
0
LINE
5
DA
100
AcDbEntity
8
1
62
256
6
ByLayer
370
18
48
1
60
0
100
AcDbLine
10
12.120814
20
14.2925
30
0
11
2.750172
21
14.2925
31
0
39
0
210
0
220
0
230
1
0
LINE
5
DB
100
AcDbEntity
8
1
62
256
6
ByLayer
370
18
48
1
60
0
100
AcDbLine
10
17.120814
20
7.15176
30
0
11
12.120814
21
14.2925
31
0
39
0
210
0
220
0
230
1
0
LINE
5
DC
100
AcDbEntity
8
1
62
256
6
ByLayer
370
18
48
1
60
0
100
AcDbLine
10
38.720814
20
-10.2
30
0
11
38.720814
21
-5.8
31
0
39
0
210
0
220
0
230
1
0
LINE
5
DD
100
AcDbEntity
8
1
62
256
6
ByLayer
370
18
48
1
60
0
100
AcDbLine
10
38.407728
20
-5.500286
30
0
11
34.220814
21
-5.68309
31
0
39
0
210
0
220
0
230
1
0
LINE
5
DE
100
AcDbEntity
8
1
62
256
6
ByLayer
370
18
48
1
60
0
100
AcDbLine
10
34.220814
20
-5.68309
30
0
11
33.845115
21
-5.9
31
0
39
0
210
0
220
0
230
1
0
LINE
5
DF
100
AcDbEntity
8
1
62
256
6
ByLayer
370
18
48
1
60
0
100
AcDbLine
10
32.350814
20
-5.9
30
0
11
33.845115
21
-5.9
31
0
39
0
210
0
220
0
230
1
0
LINE
5
E0
100
AcDbEntity
8
1
62
256
6
ByLayer
370
18
48
1
60
0
100
AcDbLine
10
30.967169
20
-5.9
30
0
11
32.350814
21
-5.9
31
0
39
0
210
0
220
0
230
1
0
LINE
5
E1
100
AcDbEntity
8
1
62
256
6
ByLayer
370
18
48
1
60
0
100
AcDbLine
10
32.350814
20
-10.1
30
0
11
32.350814
21
-5.9
31
0
39
0
210
0
220
0
230
1
0
LINE
5
E2
100
AcDbEntity
8
1
62
256
6
ByLayer
370
18
48
1
60
0
100
AcDbLine
10
30.967169
20
-6.141251
30
0
11
30.967169
21
-5.9
31
0
39
0
210
0
220
0
230
1
0
LINE
5
E3
100
AcDbEntity
8
1
62
256
6
ByLayer
370
18
48
1
60
0
100
AcDbLine
10
31.658675
20
-8.02
30
0
11
31.658675
21
-7.98
31
0
39
0
210
0
220
0
230
1
0
LINE
5
E4
100
AcDbEntity
8
1
62
256
6
ByLayer
370
18
48
1
60
0
100
AcDbLine
10
31.270337
20
-7.486112
30
0
11
31.198505
21
-7.394335
31
0
39
0
210
0
220
0
230
1
0
LINE
5
E5
100
AcDbEntity
8
1
62
256
6
ByLayer
370
18
48
1
60
0
100
AcDbLine
10
31.178773
20
-7.350066
30
0
11
30.968688
21
-6.158616
31
0
39
0
210
0
220
0
230
1
0
LINE
5
E6
100
AcDbEntity
8
1
62
256
6
ByLayer
370
18
48
1
60
0
100
AcDbLine
10
38.407728
20
-10.499714
30
0
11
34.220814
21
-10.31691
31
0
39
0
210
0
220
0
230
1
0
LINE
5
E7
100
AcDbEntity
8
1
62
256
6
ByLayer
370
18
48
1
60
0
100
AcDbLine
10
32.350814
20
-10.1
30
0
11
33.845115
21
-10.1
31
0
39
0
210
0
220
0
230
1
0
LINE
5
E8
100
AcDbEntity
8
1
62
256
6
ByLayer
370
18
48
1
60
0
100
AcDbLine
10
34.220814
20
-10.31691
30
0
11
33.845115
21
-10.1
31
0
39
0
210
0
220
0
230
1
0
LINE
5
E9
100
AcDbEntity
8
1
62
256
6
ByLayer
370
18
48
1
60
0
100
AcDbLine
10
31.270337
20
-8.513888
30
0
11
31.198505
21
-8.605665
31
0
39
0
210
0
220
0
230
1
0
LINE
5
EA
100
AcDbEntity
8
1
62
256
6
ByLayer
370
18
48
1
60
0
100
AcDbLine
10
31.178773
20
-8.649934
30
0
11
30.968688
21
-9.841384
31
0
39
0
210
0
220
0
230
1
0
LINE
5
EB
100
AcDbEntity
8
1
62
256
6
ByLayer
370
18
48
1
60
0
100
AcDbLine
10
30.967169
20
-9.858749
30
0
11
30.967169
21
-10.1
31
0
39
0
210
0
220
0
230
1
0
LINE
5
EC
100
AcDbEntity
8
1
62
256
6
ByLayer
370
18
48
1
60
0
100
AcDbLine
10
30.967169
20
-10.1
30
0
11
32.350814
21
-10.1
31
0
39
0
210
0
220
0
230
1
0
LINE
5
ED
100
AcDbEntity
8
1
62
256
6
ByLayer
370
18
48
1
60
0
100
AcDbLine
10
14.0339
20
-10.499714
30
0
11
18.220814
21
-10.31691
31
0
39
0
210
0
220
0
230
1
0
LINE
5
EE
100
AcDbEntity
8
SK2
62
256
6
ByLayer
370
13
48
1
60
0
100
AcDbLine
10
-78.60005
20
-10
30
0
11
-78.60005
21
10
31
0
39
0
210
0
220
0
230
1
0
LINE
5
F0
100
AcDbEntity
8
SK2
62
256
6
ByLayer
370
13
48
1
60
0
100
AcDbLine
10
-2
20
10
30
0
11
-80.60005
21
10
31
0
39
0
210
0
220
0
230
1
0
LINE
5
F1
100
AcDbEntity
8
SK2
62
256
6
ByLayer
370
13
48
1
60
0
100
AcDbLine
10
-2
20
-10
30
0
11
-80.60005
21
-10
31
0
39
0
210
0
220
0
230
1
0
LINE
5
F2
100
AcDbEntity
8
SK2
62
256
6
ByLayer
370
18
48
1
60
0
100
AcDbLine
10
-78.60005
20
10
30
0
11
-78.182053
21
6.825002
31
0
39
0
210
0
220
0
230
1
0
LINE
5
F3
100
AcDbEntity
8
SK2
62
256
6
ByLayer
370
18
48
1
60
0
100
AcDbLine
10
-78.60005
20
10
30
0
11
-79.018047
21
6.824998
31
0
39
0
210
0
220
0
230
1
0
LINE
5
F4
100
AcDbEntity
8
SK2
62
256
6
ByLayer
370
18
48
1
60
0
100
AcDbLine
10
-78.182053
20
6.825002
30
0
11
-79.018047
21
6.824998
31
0
39
0
210
0
220
0
230
1
0
LINE
5
F5
100
AcDbEntity
8
SK2
62
256
6
ByLayer
370
18
48
1
60
0
100
AcDbLine
10
-78.60005
20
-10
30
0
11
-79.018047
21
-6.825002
31
0
39
0
210
0
220
0
230
1
0
LINE
5
F6
100
AcDbEntity
8
SK2
62
256
6
ByLayer
370
18
48
1
60
0
100
AcDbLine
10
-78.60005
20
-10
30
0
11
-78.182053
21
-6.824998
31
0
39
0
210
0
220
0
230
1
0
LINE
5
F7
100
AcDbEntity
8
SK2
62
256
6
ByLayer
370
18
48
1
60
0
100
AcDbLine
10
-79.018047
20
-6.825002
30
0
11
-78.182053
21
-6.824998
31
0
39
0
210
0
220
0
230
1
0
MTEXT
5
127
100
AcDbEntity
8
SK6
62
256
6
ByLayer
370
18
48
1
60
0
100
AcDbMText
10
-46.764625
20
-48.97875
30
0
210
0
220
0
230
1
1
\W0.7692;QS-LF123J20C2020E
40
3.5
41
0
44
1.084337
50
0
71
7
72
5
7
iso_b_vert
0
MTEXT
5
12B
100
AcDbEntity
8
SK2
62
256
6
ByLayer
370
18
48
1
60
0
100
AcDbMText
10
-79.47505
20
-1.169737
30
0
210
0
220
0
230
1
1
\W0.6740;20
40
3.5
41
0
44
1.084337
50
89.9999999999999
71
7
72
5
7
iso_b_vert
0
DIMENSION
5
13A
100
AcDbEntity
8
2
62
256
6
ByLayer
370
13
48
1
60
0
100
AcDbDimension
2
DimnDraft3D1
10
38.7208
20
30.8925
30
0
11
12.518295
21
30.8925
31
0
70
32
71
5
72
1
41
1
210
0
220
0
230
1
3
Standard
100
AcDbAlignedDimension
13
-5.1
23
12
33
0
14
38.7208
24
-8.5
34
0
50
0
100
AcDbRotatedDimension
1001
ACAD
1000
DSTYLE
1002
{
1070
   279
1070
     0
1070
   172
1070
     1
1070
   173
1070
     1
1070
   340
1005
128
1070
   271
1070
     1
1070
    77
1070
     1
1070
    73
1070
     0
1070
   171
1070
     3
1070
   274
1070
     4
1070
   177
1070
     2
1070
   176
1070
     2
1070
   178
1070
     7
1070
    78
1070
     8
1070
    41
1041
3.175
1070
   147
1041
1.75
1070
    42
1041
2.0
1070
    44
1041
2.0
1070
   140
1041
3.5
1070
   343
1005
13B
1070
   344
1005
13B
1002
}
0
DIMENSION
5
14F
100
AcDbEntity
8
SK2
62
256
6
ByLayer
370
13
48
1
60
0
100
AcDbDimension
2
DimnDraft3D2
10
-66
20
-23.6
30
0
11
-68.259868
21
-23.6
31
0
70
32
71
5
72
1
41
1
210
0
220
0
230
1
3
Standard
100
AcDbAlignedDimension
13
-69
23
8
33
0
14
-66
24
-12
34
0
50
0
100
AcDbRotatedDimension
1001
ACAD
1000
DSTYLE
1002
{
1070
   279
1070
     0
1070
   172
1070
     1
1070
   173
1070
     1
1070
   340
1005
128
1070
    77
1070
     1
1070
    73
1070
     0
1070
   171
1070
     3
1070
   274
1070
     4
1070
   177
1070
     2
1070
   176
1070
     2
1070
   178
1070
     7
1070
    78
1070
     8
1070
    41
1041
3.175
1070
   147
1041
1.75
1070
    42
1041
2.0
1070
    44
1041
2.0
1070
   140
1041
3.5
1070
   343
1005
13B
1070
   344
1005
13B
1002
}
0
DIMENSION
5
15D
100
AcDbEntity
8
SK2
62
256
6
ByLayer
370
13
48
1
60
0
100
AcDbDimension
2
DimnDraft3D3
10
38.7208
20
36.8925
30
0
11
-20.117889
21
36.8925
31
0
70
32
71
5
72
1
41
1
210
0
220
0
230
1
3
Standard
100
AcDbAlignedDimension
13
-69
23
12
33
0
14
38.7208
24
-8.5
34
0
50
0
100
AcDbRotatedDimension
1001
ACAD
1000
DSTYLE
1002
{
1070
   279
1070
     0
1070
   172
1070
     1
1070
   173
1070
     1
1070
   340
1005
128
1070
   271
1070
     1
1070
    77
1070
     1
1070
    73
1070
     0
1070
   171
1070
     3
1070
   274
1070
     4
1070
   177
1070
     2
1070
   176
1070
     2
1070
   178
1070
     7
1070
    78
1070
     8
1070
    41
1041
3.175
1070
   147
1041
1.75
1070
    42
1041
2.0
1070
    44
1041
2.0
1070
   140
1041
3.5
1070
   343
1005
13B
1070
   344
1005
13B
1002
}
0
DIMENSION
5
16B
100
AcDbEntity
8
2
62
256
6
ByLayer
370
13
48
1
60
0
100
AcDbDimension
2
DimnDraft3D4
10
18.7208
20
-23.6
30
0
11
26.630011
21
-23.6
31
0
70
32
71
5
72
1
41
1
210
0
220
0
230
1
3
Standard
100
AcDbAlignedDimension
13
38.7208
23
-12.5
33
0
14
18.7208
24
-12
34
0
50
0
100
AcDbRotatedDimension
1001
ACAD
1000
DSTYLE
1002
{
1070
   279
1070
     0
1070
   172
1070
     1
1070
   173
1070
     1
1070
   340
1005
128
1070
   271
1070
     1
1070
    77
1070
     1
1070
    73
1070
     0
1070
   171
1070
     3
1070
   274
1070
     4
1070
   177
1070
     2
1070
   176
1070
     2
1070
   178
1070
     7
1070
    78
1070
     8
1070
    41
1041
3.175
1070
   147
1041
1.75
1070
    42
1041
2.0
1070
    44
1041
2.0
1070
   140
1041
3.5
1070
   343
1005
13B
1070
   344
1005
13B
1002
}
0
DIMENSION
5
179
100
AcDbEntity
8
2
62
256
6
ByLayer
370
13
48
1
60
0
100
AcDbDimension
2
DimnDraft3D5
10
63.8208
20
-10.5
30
0
11
63.8208
21
-4.357895
31
0
70
32
71
5
72
1
41
1
210
0
220
0
230
1
3
Standard
100
AcDbAlignedDimension
13
-3.1
23
10
33
0
14
40.7208
24
-10.5
34
0
50
90
100
AcDbRotatedDimension
1001
ACAD
1000
DSTYLE
1002
{
1070
    74
1070
     0
1070
   279
1070
     0
1070
   172
1070
     1
1070
   173
1070
     1
1070
   340
1005
128
1070
   271
1070
     1
1070
    77
1070
     1
1070
    73
1070
     0
1070
   171
1070
     3
1070
   274
1070
     4
1070
   177
1070
     2
1070
   176
1070
     2
1070
   178
1070
     7
1070
    78
1070
     8
1070
    41
1041
3.175
1070
   147
1041
1.75
1070
    42
1041
2.0
1070
    44
1041
2.0
1070
   140
1041
3.5
1070
   343
1005
13B
1070
   344
1005
13B
1002
}
0
DIMENSION
5
187
100
AcDbEntity
8
2
62
256
6
ByLayer
370
13
48
1
60
0
100
AcDbDimension
2
DimnDraft3D6
10
56.8208
20
-5.5
30
0
11
56.8208
21
-22.320789
31
0
70
32
71
5
72
1
41
1
210
0
220
0
230
1
3
Standard
100
AcDbAlignedDimension
13
40.7208
23
-10.5
33
0
14
40.7208
24
-5.5
34
0
50
90
100
AcDbRotatedDimension
1001
ACAD
1000
DSTYLE
1002
{
1070
    74
1070
     0
1070
   279
1070
     0
1070
   172
1070
     1
1070
   173
1070
     1
1070
   340
1005
128
1070
   271
1070
     1
1070
    77
1070
     1
1070
    73
1070
     0
1070
   171
1070
     3
1070
   274
1070
     4
1070
   177
1070
     2
1070
   176
1070
     2
1070
   178
1070
     7
1070
    78
1070
     8
1070
    41
1041
3.175
1070
   147
1041
1.75
1070
    42
1041
2.0
1070
    44
1041
2.0
1070
   140
1041
3.5
1070
   343
1005
13B
1070
   344
1005
13B
1002
}
0
ENDSEC
0
SECTION
2
OBJECTS
0
DICTIONARY
5
1f1
330
0
100
AcDbDictionary
280
0
281
1
3
ACAD_GROUP
350
1f2
3
ACAD_MLINESTYLE
350
1f3
0
DICTIONARY
5
1f2
330
0
100
AcDbDictionary
280
0
281
1
0
DICTIONARY
5
1f3
330
0
100
AcDbDictionary
280
0
281
1
3
Standard
350
18
0
MLINESTYLE
5
18
330
1f3
100
AcDbMlineStyle
2
Standard
70
0
3

62
256
51
90
52
90
71
2
49
-0.5
62
256
6
ByLayer
49
0.5
62
256
6
ByLayer
0
RASTERVARIABLES
5
1e0
330

100
AcDbRasterVariables
90
0
70
1
71
1
72
1
0
ENDSEC
0
EOF
