0
SECTION
2
HEADER
9
$ACADVER
1
AC1015
9
$DWGCODEPAGE
3
ANSI_1252
9
$HANDSEED
5
1b2
9
$ANGBASE
50
0
9
$ANGDIR
70
0
9
$ATTMODE
70
1
9
$AUNITS
70
0
9
$AUPREC
70
0
9
$CECOLOR
62
256
9
$CELTSCALE
40
1
9
$CELTYPE
6
ByLayer
9
$CELWEIGHT
370
18
9
$CLAYER
8
0
9
$CMLJUST
70
0
9
$CMLSCALE
40
1
9
$CMLSTYLE
2
Standard
9
$DIMSTYLE
2
Standard
9
$TEXTSIZE
40
0.2
9
$TEXTSTYLE
7
Standard
9
$LUNITS
70
2
9
$LUPREC
70
4
9
$EXTNAMES
290
1
9
$INSUNITS
70
4
9
$LTSCALE
40
1
9
$LWDISPLAY
290
1
9
$PDMODE
70
0
9
$PDSIZE
40
0
9
$PLINEGEN
70
0
0
ENDSEC
0
SECTION
2
CLASSES
0
CLASS
1
RASTERVARIABLES
2
AcDbRasterVariables
3
ISM
90
0
280
0
281
0
0
ENDSEC
0
SECTION
2
TABLES
0
TABLE
2
VPORT
5
1a8
100
AcDbSymbolTable
0
VPORT
5
1
100
AcDbSymbolTableRecord
100
AcDbViewportTableRecord
2
*Active
70
0
10
0
20
0
11
1
21
1
12
-1
22
1
13
0
23
0
14
0.5
24
0.5
15
10
25
10
16
0
26
0
36
1
17
0
27
0
37
0
0
ENDTAB
0
TABLE
2
LTYPE
5
1a9
100
AcDbSymbolTable
0
LTYPE
5
14
100
AcDbSymbolTableRecord
100
AcDbLinetypeTableRecord
70
0
2
ByBlock
3

72
65
73
0
40
0
0
LTYPE
5
15
100
AcDbSymbolTableRecord
100
AcDbLinetypeTableRecord
70
0
2
ByLayer
3

72
65
73
0
40
0
0
LTYPE
5
16
100
AcDbSymbolTableRecord
100
AcDbLinetypeTableRecord
70
0
2
CONTINUOUS
3
Solid line
72
65
73
0
40
0
0
LTYPE
5
6A
100
AcDbSymbolTableRecord
100
AcDbLinetypeTableRecord
70
0
2
CENTER
3
____ _ ____ _ ____ _ ____
72
65
73
4
40
47.5
49
22
74
0
49
-8.5
74
0
49
8.5
74
0
49
-8.5
74
0
0
LTYPE
5
6B
100
AcDbSymbolTableRecord
100
AcDbLinetypeTableRecord
70
0
2
DASHED
3
__ __ __ __ __ __ __ __ __
72
65
73
2
40
25.72
49
12.86
74
0
49
-12.86
74
0
0
ENDTAB
0
TABLE
2
LAYER
5
1aa
100
AcDbSymbolTable
0
LAYER
5
10
100
AcDbSymbolTableRecord
100
AcDbLayerTableRecord
2
0
70
0
62
7
6
CONTINUOUS
290
1
370
-3
390
0
0
LAYER
5
6D
100
AcDbSymbolTableRecord
100
AcDbLayerTableRecord
2
80
70
0
62
-6
6
CONTINUOUS
290
1
370
-3
390
0
0
LAYER
5
6F
100
AcDbSymbolTableRecord
100
AcDbLayerTableRecord
2
81
70
0
62
-3
6
CONTINUOUS
290
1
370
-3
390
0
0
LAYER
5
71
100
AcDbSymbolTableRecord
100
AcDbLayerTableRecord
2
1
70
0
62
4
6
CONTINUOUS
290
1
370
-3
390
0
0
LAYER
5
E2
100
AcDbSymbolTableRecord
100
AcDbLayerTableRecord
2
2
70
0
62
7
6
CONTINUOUS
290
1
370
-3
390
0
0
LAYER
5
195
100
AcDbSymbolTableRecord
100
AcDbLayerTableRecord
2
SK1
70
0
62
4
6
CONTINUOUS
290
1
370
-3
390
0
0
LAYER
5
196
100
AcDbSymbolTableRecord
100
AcDbLayerTableRecord
2
SK2
70
0
62
7
6
CONTINUOUS
290
1
370
-3
390
0
0
LAYER
5
197
100
AcDbSymbolTableRecord
100
AcDbLayerTableRecord
2
SK6
70
0
62
5
6
CONTINUOUS
290
1
370
-3
390
0
0
ENDTAB
0
TABLE
2
STYLE
5
1ab
100
AcDbSymbolTable
0
STYLE
5
11
100
AcDbSymbolTableRecord
100
AcDbTextStyleTableRecord
2
Standard
3
txt
70
0
71
0
40
0
41
1
42
0
50
0
0
STYLE
5
DC
100
AcDbSymbolTableRecord
100
AcDbTextStyleTableRecord
2
iso_b_vert
3
simplex.shx
70
0
71
0
40
0
41
1
42
0
50
0
0
STYLE
5
DD
100
AcDbSymbolTableRecord
100
AcDbTextStyleTableRecord
2
DWGDirectTextStyle
3
simplex
70
0
71
0
40
0
41
1
42
0
50
0
0
ENDTAB
0
TABLE
2
DIMSTYLE
5
1ac
100
AcDbSymbolTable
100
AcDbDimStyleTable
0
DIMSTYLE
105
27
100
AcDbSymbolTableRecord
100
AcDbDimStyleTableRecord
2
Standard
70
0
3
<>
41
0.18
42
0.0625
44
0.18
140
0.18
147
0.09
73
0
74
0
77
1
271
2
275
0
278
52
280
0
340
11
0
ENDTAB
0
TABLE
2
VIEW
5
1ad
100
AcDbSymbolTable
0
ENDTAB
0
TABLE
2
UCS
5
1ae
100
AcDbSymbolTable
0
ENDTAB
0
TABLE
2
APPID
5
1af
100
AcDbSymbolTable
0
APPID
5
12
100
AcDbSymbolTableRecord
100
AcDbRegAppTableRecord
2
ACAD
70
0
0
ENDTAB
0
TABLE
2
BLOCK_RECORD
5
1b0
100
AcDbSymbolTable
0
BLOCK_RECORD
5
1F
100
AcDbSymbolTableRecord
100
AcDbBlockTableRecord
2
*Model_Space
340
0
70
0
0
BLOCK_RECORD
5
1B
100
AcDbSymbolTableRecord
100
AcDbBlockTableRecord
2
*Paper_Space
340
0
70
0
0
BLOCK_RECORD
5
23
100
AcDbSymbolTableRecord
100
AcDbBlockTableRecord
2
*Paper_Space0
340
0
70
0
0
BLOCK_RECORD
5
E0
100
AcDbSymbolTableRecord
100
AcDbBlockTableRecord
2
DimnDraft3D1
340
0
70
0
0
BLOCK_RECORD
5
EF
100
AcDbSymbolTableRecord
100
AcDbBlockTableRecord
2
_CLOSED
340
0
70
0
0
BLOCK_RECORD
5
F6
100
AcDbSymbolTableRecord
100
AcDbBlockTableRecord
2
DimnDraft3D2
340
0
70
0
0
BLOCK_RECORD
5
104
100
AcDbSymbolTableRecord
100
AcDbBlockTableRecord
2
DimnDraft3D3
340
0
70
0
0
BLOCK_RECORD
5
112
100
AcDbSymbolTableRecord
100
AcDbBlockTableRecord
2
DimnDraft3D4
340
0
70
0
0
BLOCK_RECORD
5
120
100
AcDbSymbolTableRecord
100
AcDbBlockTableRecord
2
DimnDraft3D5
340
0
70
0
0
BLOCK_RECORD
5
12E
100
AcDbSymbolTableRecord
100
AcDbBlockTableRecord
2
DimnDraft3D6
340
0
70
0
0
ENDTAB
0
ENDSEC
0
SECTION
2
BLOCKS
0
BLOCK
5
20
100
AcDbEntity
8
0
100
AcDbBlockBegin
2
*Model_Space
70
0
10
0
20
0
30
0
3
*Model_Space
0
ENDBLK
5
21
100
AcDbEntity
8
0
100
AcDbBlockEnd
0
BLOCK
5
1C
100
AcDbEntity
8
0
100
AcDbBlockBegin
2
*Paper_Space
70
0
10
0
20
0
30
0
3
*Paper_Space
0
ENDBLK
5
1D
100
AcDbEntity
8
0
100
AcDbBlockEnd
0
BLOCK
5
24
100
AcDbEntity
8
0
100
AcDbBlockBegin
2
*Paper_Space0
70
0
10
0
20
0
30
0
3
*Paper_Space0
0
ENDBLK
5
25
100
AcDbEntity
8
0
100
AcDbBlockEnd
0
BLOCK
5
EC
100
AcDbEntity
8
0
100
AcDbBlockBegin
2
DimnDraft3D1
70
0
10
0
20
0
30
0
3
DimnDraft3D1
0
MTEXT
5
E1
100
AcDbEntity
8
2
62
256
6
ByLayer
370
18
48
1
60
0
100
AcDbMText
10
10.317705
20
29.8675
30
0
210
0
220
0
230
1
1
\W0.7457;37.9
40
3.5
41
0
44
1.084337
50
0
71
7
72
5
7
iso_b_vert
0
LINE
5
E3
100
AcDbEntity
8
2
62
256
6
ByLayer
370
13
48
1
60
0
100
AcDbLine
10
-5.4
20
12
30
0
11
-5.4
21
30.9925
31
0
39
0
210
0
220
0
230
1
0
LINE
5
E4
100
AcDbEntity
8
2
62
256
6
ByLayer
370
13
48
1
60
0
100
AcDbLine
10
32.5012
20
-8.5
30
0
11
32.5012
21
30.9925
31
0
39
0
210
0
220
0
230
1
0
LINE
5
E5
100
AcDbEntity
8
2
62
256
6
ByLayer
370
13
48
1
60
0
100
AcDbLine
10
-5.4
20
28.9925
30
0
11
32.5012
21
28.9925
31
0
39
0
210
0
220
0
230
1
0
LINE
5
E6
100
AcDbEntity
8
2
62
256
6
ByLayer
370
13
48
1
60
0
100
AcDbLine
10
-5.4
20
28.9925
30
0
11
-2.225002
21
29.410497
31
0
39
0
210
0
220
0
230
1
0
LINE
5
E7
100
AcDbEntity
8
2
62
256
6
ByLayer
370
13
48
1
60
0
100
AcDbLine
10
-5.4
20
28.9925
30
0
11
-2.224998
21
28.574503
31
0
39
0
210
0
220
0
230
1
0
LINE
5
E8
100
AcDbEntity
8
2
62
256
6
ByLayer
370
13
48
1
60
0
100
AcDbLine
10
-2.225002
20
29.410497
30
0
11
-2.224998
21
28.574503
31
0
39
0
210
0
220
0
230
1
0
LINE
5
E9
100
AcDbEntity
8
2
62
256
6
ByLayer
370
13
48
1
60
0
100
AcDbLine
10
32.5012
20
28.9925
30
0
11
29.326202
21
28.574503
31
0
39
0
210
0
220
0
230
1
0
LINE
5
EA
100
AcDbEntity
8
2
62
256
6
ByLayer
370
13
48
1
60
0
100
AcDbLine
10
32.5012
20
28.9925
30
0
11
29.326198
21
29.410497
31
0
39
0
210
0
220
0
230
1
0
LINE
5
EB
100
AcDbEntity
8
2
62
256
6
ByLayer
370
13
48
1
60
0
100
AcDbLine
10
29.326202
20
28.574503
30
0
11
29.326198
21
29.410497
31
0
39
0
210
0
220
0
230
1
0
ENDBLK
5
ED
100
AcDbEntity
8
0
100
AcDbBlockEnd
0
BLOCK
5
F0
100
AcDbEntity
8
0
100
AcDbBlockBegin
2
_CLOSED
70
0
10
0
20
0
30
0
3
_CLOSED
0
LINE
5
F2
100
AcDbEntity
8
0
62
256
6
ByLayer
370
-2
48
1
60
0
100
AcDbLine
10
-1
20
0.166667
30
0
11
0
21
0
31
0
39
0
210
0
220
0
230
1
0
LINE
5
F3
100
AcDbEntity
8
0
62
256
6
ByLayer
370
-2
48
1
60
0
100
AcDbLine
10
0
20
0
30
0
11
-1
21
-0.166667
31
0
39
0
210
0
220
0
230
1
0
LINE
5
F4
100
AcDbEntity
8
0
62
256
6
ByLayer
370
-2
48
1
60
0
100
AcDbLine
10
-1
20
0.166667
30
0
11
-1
21
-0.166667
31
0
39
0
210
0
220
0
230
1
0
LINE
5
F5
100
AcDbEntity
8
0
62
256
6
ByLayer
370
-2
48
1
60
0
100
AcDbLine
10
0
20
0
30
0
11
-1
21
0
31
0
39
0
210
0
220
0
230
1
0
ENDBLK
5
F1
100
AcDbEntity
8
0
100
AcDbBlockEnd
0
BLOCK
5
101
100
AcDbEntity
8
0
100
AcDbBlockBegin
2
DimnDraft3D2
70
0
10
0
20
0
30
0
3
DimnDraft3D2
0
MTEXT
5
F7
100
AcDbEntity
8
SK2
62
256
6
ByLayer
370
18
48
1
60
0
100
AcDbMText
10
-67.384868
20
-24.400219
30
0
210
0
220
0
230
1
1
\W0.5404;3
40
3.5
41
0
44
1.084337
50
0
71
7
72
5
7
iso_b_vert
0
LINE
5
F8
100
AcDbEntity
8
SK2
62
256
6
ByLayer
370
13
48
1
60
0
100
AcDbLine
10
-69
20
8
30
0
11
-69
21
-27.275219
31
0
39
0
210
0
220
0
230
1
0
LINE
5
F9
100
AcDbEntity
8
SK2
62
256
6
ByLayer
370
13
48
1
60
0
100
AcDbLine
10
-66
20
-12
30
0
11
-66
21
-27.275219
31
0
39
0
210
0
220
0
230
1
0
LINE
5
FA
100
AcDbEntity
8
SK2
62
256
6
ByLayer
370
13
48
1
60
0
100
AcDbLine
10
-77.75
20
-25.275219
30
0
11
-57.25
21
-25.275219
31
0
39
0
210
0
220
0
230
1
0
LINE
5
FB
100
AcDbEntity
8
SK2
62
256
6
ByLayer
370
13
48
1
60
0
100
AcDbLine
10
-69
20
-25.275219
30
0
11
-72.174998
21
-25.693216
31
0
39
0
210
0
220
0
230
1
0
LINE
5
FC
100
AcDbEntity
8
SK2
62
256
6
ByLayer
370
13
48
1
60
0
100
AcDbLine
10
-69
20
-25.275219
30
0
11
-72.175002
21
-24.857222
31
0
39
0
210
0
220
0
230
1
0
LINE
5
FD
100
AcDbEntity
8
SK2
62
256
6
ByLayer
370
13
48
1
60
0
100
AcDbLine
10
-72.174998
20
-25.693216
30
0
11
-72.175002
21
-24.857222
31
0
39
0
210
0
220
0
230
1
0
LINE
5
FE
100
AcDbEntity
8
SK2
62
256
6
ByLayer
370
13
48
1
60
0
100
AcDbLine
10
-66
20
-25.275219
30
0
11
-62.825002
21
-24.857222
31
0
39
0
210
0
220
0
230
1
0
LINE
5
FF
100
AcDbEntity
8
SK2
62
256
6
ByLayer
370
13
48
1
60
0
100
AcDbLine
10
-66
20
-25.275219
30
0
11
-62.824998
21
-25.693216
31
0
39
0
210
0
220
0
230
1
0
LINE
5
100
100
AcDbEntity
8
SK2
62
256
6
ByLayer
370
13
48
1
60
0
100
AcDbLine
10
-62.825002
20
-24.857222
30
0
11
-62.824998
21
-25.693216
31
0
39
0
210
0
220
0
230
1
0
ENDBLK
5
102
100
AcDbEntity
8
0
100
AcDbBlockEnd
0
BLOCK
5
10F
100
AcDbEntity
8
0
100
AcDbBlockBegin
2
DimnDraft3D3
70
0
10
0
20
0
30
0
3
DimnDraft3D3
0
MTEXT
5
105
100
AcDbEntity
8
SK2
62
256
6
ByLayer
370
18
48
1
60
0
100
AcDbMText
10
-21.915189
20
35.8675
30
0
210
0
220
0
230
1
1
\W0.6261;101.5
40
3.5
41
0
44
1.084337
50
0
71
7
72
5
7
iso_b_vert
0
LINE
5
106
100
AcDbEntity
8
SK2
62
256
6
ByLayer
370
13
48
1
60
0
100
AcDbLine
10
-69
20
12
30
0
11
-69
21
36.9925
31
0
39
0
210
0
220
0
230
1
0
LINE
5
107
100
AcDbEntity
8
SK2
62
256
6
ByLayer
370
13
48
1
60
0
100
AcDbLine
10
32.5012
20
-8.5
30
0
11
32.5012
21
36.9925
31
0
39
0
210
0
220
0
230
1
0
LINE
5
108
100
AcDbEntity
8
SK2
62
256
6
ByLayer
370
13
48
1
60
0
100
AcDbLine
10
-69
20
34.9925
30
0
11
32.5012
21
34.9925
31
0
39
0
210
0
220
0
230
1
0
LINE
5
109
100
AcDbEntity
8
SK2
62
256
6
ByLayer
370
13
48
1
60
0
100
AcDbLine
10
-69
20
34.9925
30
0
11
-65.825002
21
35.410497
31
0
39
0
210
0
220
0
230
1
0
LINE
5
10A
100
AcDbEntity
8
SK2
62
256
6
ByLayer
370
13
48
1
60
0
100
AcDbLine
10
-69
20
34.9925
30
0
11
-65.824998
21
34.574503
31
0
39
0
210
0
220
0
230
1
0
LINE
5
10B
100
AcDbEntity
8
SK2
62
256
6
ByLayer
370
13
48
1
60
0
100
AcDbLine
10
-65.825002
20
35.410497
30
0
11
-65.824998
21
34.574503
31
0
39
0
210
0
220
0
230
1
0
LINE
5
10C
100
AcDbEntity
8
SK2
62
256
6
ByLayer
370
13
48
1
60
0
100
AcDbLine
10
32.5012
20
34.9925
30
0
11
29.326202
21
34.574503
31
0
39
0
210
0
220
0
230
1
0
LINE
5
10D
100
AcDbEntity
8
SK2
62
256
6
ByLayer
370
13
48
1
60
0
100
AcDbLine
10
32.5012
20
34.9925
30
0
11
29.326198
21
35.410497
31
0
39
0
210
0
220
0
230
1
0
LINE
5
10E
100
AcDbEntity
8
SK2
62
256
6
ByLayer
370
13
48
1
60
0
100
AcDbLine
10
29.326202
20
34.574503
30
0
11
29.326198
21
35.410497
31
0
39
0
210
0
220
0
230
1
0
ENDBLK
5
110
100
AcDbEntity
8
0
100
AcDbBlockEnd
0
BLOCK
5
11D
100
AcDbEntity
8
0
100
AcDbBlockBegin
2
DimnDraft3D4
70
0
10
0
20
0
30
0
3
DimnDraft3D4
0
MTEXT
5
113
100
AcDbEntity
8
2
62
256
6
ByLayer
370
18
48
1
60
0
100
AcDbMText
10
24.5387
20
-24.400219
30
0
210
0
220
0
230
1
1
\W0.5785;14
40
3.5
41
0
44
1.084337
50
0
71
7
72
5
7
iso_b_vert
0
LINE
5
114
100
AcDbEntity
8
2
62
256
6
ByLayer
370
13
48
1
60
0
100
AcDbLine
10
32.5012
20
-12.5
30
0
11
32.5012
21
-27.275219
31
0
39
0
210
0
220
0
230
1
0
LINE
5
115
100
AcDbEntity
8
2
62
256
6
ByLayer
370
13
48
1
60
0
100
AcDbLine
10
18.5012
20
-12
30
0
11
18.5012
21
-27.275219
31
0
39
0
210
0
220
0
230
1
0
LINE
5
116
100
AcDbEntity
8
2
62
256
6
ByLayer
370
13
48
1
60
0
100
AcDbLine
10
41.2512
20
-25.275219
30
0
11
9.7512
21
-25.275219
31
0
39
0
210
0
220
0
230
1
0
LINE
5
117
100
AcDbEntity
8
2
62
256
6
ByLayer
370
13
48
1
60
0
100
AcDbLine
10
32.5012
20
-25.275219
30
0
11
35.676198
21
-24.857222
31
0
39
0
210
0
220
0
230
1
0
LINE
5
118
100
AcDbEntity
8
2
62
256
6
ByLayer
370
13
48
1
60
0
100
AcDbLine
10
32.5012
20
-25.275219
30
0
11
35.676202
21
-25.693216
31
0
39
0
210
0
220
0
230
1
0
LINE
5
119
100
AcDbEntity
8
2
62
256
6
ByLayer
370
13
48
1
60
0
100
AcDbLine
10
35.676198
20
-24.857222
30
0
11
35.676202
21
-25.693216
31
0
39
0
210
0
220
0
230
1
0
LINE
5
11A
100
AcDbEntity
8
2
62
256
6
ByLayer
370
13
48
1
60
0
100
AcDbLine
10
18.5012
20
-25.275219
30
0
11
15.326202
21
-25.693216
31
0
39
0
210
0
220
0
230
1
0
LINE
5
11B
100
AcDbEntity
8
2
62
256
6
ByLayer
370
13
48
1
60
0
100
AcDbLine
10
18.5012
20
-25.275219
30
0
11
15.326198
21
-24.857222
31
0
39
0
210
0
220
0
230
1
0
LINE
5
11C
100
AcDbEntity
8
2
62
256
6
ByLayer
370
13
48
1
60
0
100
AcDbLine
10
15.326202
20
-25.693216
30
0
11
15.326198
21
-24.857222
31
0
39
0
210
0
220
0
230
1
0
ENDBLK
5
11E
100
AcDbEntity
8
0
100
AcDbBlockEnd
0
BLOCK
5
12B
100
AcDbEntity
8
0
100
AcDbBlockBegin
2
DimnDraft3D5
70
0
10
0
20
0
30
0
3
DimnDraft3D5
0
MTEXT
5
121
100
AcDbEntity
8
2
62
256
6
ByLayer
370
18
48
1
60
0
100
AcDbMText
10
56.7262
20
-3.482895
30
0
210
0
220
0
230
1
1
\W0.7346;20.5
40
3.5
41
0
44
1.084337
50
90
71
7
72
5
7
iso_b_vert
0
LINE
5
122
100
AcDbEntity
8
2
62
256
6
ByLayer
370
13
48
1
60
0
100
AcDbLine
10
-3.4
20
10
30
0
11
59.6012
21
10
31
0
39
0
210
0
220
0
230
1
0
LINE
5
123
100
AcDbEntity
8
2
62
256
6
ByLayer
370
13
48
1
60
0
100
AcDbLine
10
34.5012
20
-10.5
30
0
11
59.6012
21
-10.5
31
0
39
0
210
0
220
0
230
1
0
LINE
5
124
100
AcDbEntity
8
2
62
256
6
ByLayer
370
13
48
1
60
0
100
AcDbLine
10
57.6012
20
10
30
0
11
57.6012
21
-10.5
31
0
39
0
210
0
220
0
230
1
0
LINE
5
125
100
AcDbEntity
8
2
62
256
6
ByLayer
370
13
48
1
60
0
100
AcDbLine
10
57.6012
20
10
30
0
11
58.019197
21
6.825002
31
0
39
0
210
0
220
0
230
1
0
LINE
5
126
100
AcDbEntity
8
2
62
256
6
ByLayer
370
13
48
1
60
0
100
AcDbLine
10
57.6012
20
10
30
0
11
57.183203
21
6.824998
31
0
39
0
210
0
220
0
230
1
0
LINE
5
127
100
AcDbEntity
8
2
62
256
6
ByLayer
370
13
48
1
60
0
100
AcDbLine
10
58.019197
20
6.825002
30
0
11
57.183203
21
6.824998
31
0
39
0
210
0
220
0
230
1
0
LINE
5
128
100
AcDbEntity
8
2
62
256
6
ByLayer
370
13
48
1
60
0
100
AcDbLine
10
57.6012
20
-10.5
30
0
11
57.183203
21
-7.325002
31
0
39
0
210
0
220
0
230
1
0
LINE
5
129
100
AcDbEntity
8
2
62
256
6
ByLayer
370
13
48
1
60
0
100
AcDbLine
10
57.6012
20
-10.5
30
0
11
58.019197
21
-7.324998
31
0
39
0
210
0
220
0
230
1
0
LINE
5
12A
100
AcDbEntity
8
2
62
256
6
ByLayer
370
13
48
1
60
0
100
AcDbLine
10
57.183203
20
-7.325002
30
0
11
58.019197
21
-7.324998
31
0
39
0
210
0
220
0
230
1
0
ENDBLK
5
12C
100
AcDbEntity
8
0
100
AcDbBlockEnd
0
BLOCK
5
139
100
AcDbEntity
8
0
100
AcDbBlockBegin
2
DimnDraft3D6
70
0
10
0
20
0
30
0
3
DimnDraft3D6
0
MTEXT
5
12F
100
AcDbEntity
8
2
62
256
6
ByLayer
370
18
48
1
60
0
100
AcDbMText
10
49.7262
20
-21.445789
30
0
210
0
220
0
230
1
1
\W0.5404;3
40
3.5
41
0
44
1.084337
50
90
71
7
72
5
7
iso_b_vert
0
LINE
5
130
100
AcDbEntity
8
2
62
256
6
ByLayer
370
13
48
1
60
0
100
AcDbLine
10
34.5012
20
-10.5
30
0
11
52.6012
21
-10.5
31
0
39
0
210
0
220
0
230
1
0
LINE
5
131
100
AcDbEntity
8
2
62
256
6
ByLayer
370
13
48
1
60
0
100
AcDbLine
10
34.5012
20
-7.5
30
0
11
52.6012
21
-7.5
31
0
39
0
210
0
220
0
230
1
0
LINE
5
132
100
AcDbEntity
8
2
62
256
6
ByLayer
370
13
48
1
60
0
100
AcDbLine
10
50.6012
20
1.25
30
0
11
50.6012
21
-22.320789
31
0
39
0
210
0
220
0
230
1
0
LINE
5
133
100
AcDbEntity
8
2
62
256
6
ByLayer
370
13
48
1
60
0
100
AcDbLine
10
50.6012
20
-10.5
30
0
11
51.019197
21
-13.674998
31
0
39
0
210
0
220
0
230
1
0
LINE
5
134
100
AcDbEntity
8
2
62
256
6
ByLayer
370
13
48
1
60
0
100
AcDbLine
10
50.6012
20
-10.5
30
0
11
50.183203
21
-13.675002
31
0
39
0
210
0
220
0
230
1
0
LINE
5
135
100
AcDbEntity
8
2
62
256
6
ByLayer
370
13
48
1
60
0
100
AcDbLine
10
51.019197
20
-13.674998
30
0
11
50.183203
21
-13.675002
31
0
39
0
210
0
220
0
230
1
0
LINE
5
136
100
AcDbEntity
8
2
62
256
6
ByLayer
370
13
48
1
60
0
100
AcDbLine
10
50.6012
20
-7.5
30
0
11
50.183203
21
-4.325002
31
0
39
0
210
0
220
0
230
1
0
LINE
5
137
100
AcDbEntity
8
2
62
256
6
ByLayer
370
13
48
1
60
0
100
AcDbLine
10
50.6012
20
-7.5
30
0
11
51.019197
21
-4.324998
31
0
39
0
210
0
220
0
230
1
0
LINE
5
138
100
AcDbEntity
8
2
62
256
6
ByLayer
370
13
48
1
60
0
100
AcDbLine
10
50.183203
20
-4.325002
30
0
11
51.019197
21
-4.324998
31
0
39
0
210
0
220
0
230
1
0
ENDBLK
5
13A
100
AcDbEntity
8
0
100
AcDbBlockEnd
0
ENDSEC
0
SECTION
2
ENTITIES
0
ARC
5
BB
100
AcDbEntity
8
1
62
256
6
ByLayer
370
18
48
1
60
0
100
AcDbCircle
39
0
10
-18.501199
20
-6.225
30
0
40
1.6
210
0
220
0
230
-1
100
AcDbArc
50
350.108699
51
0
0
ARC
5
BC
100
AcDbEntity
8
1
62
256
6
ByLayer
370
18
48
1
60
0
100
AcDbCircle
39
0
10
0.372277
20
11.6
30
0
40
1.6
210
0
220
0
230
1
100
AcDbArc
50
270
51
345
0
ARC
5
BD
100
AcDbEntity
8
1
62
256
6
ByLayer
370
18
48
1
60
0
100
AcDbCircle
39
0
10
12.701199
20
-10.3
30
0
40
0.2
210
0
220
0
230
1
100
AcDbArc
50
226.550504
51
272.5
0
ARC
5
BE
100
AcDbEntity
8
1
62
256
6
ByLayer
370
18
48
1
60
0
100
AcDbCircle
39
0
10
-26.669605
20
-8.023551
30
0
40
0.149999999982669
210
0
220
0
230
-1
100
AcDbArc
50
340
51
0
0
ARC
5
BF
100
AcDbEntity
8
1
62
256
6
ByLayer
370
18
48
1
60
0
100
AcDbCircle
39
0
10
32.301199
20
-7.7
30
0
40
0.2
210
0
220
0
230
1
100
AcDbArc
50
0
51
92.5
0
ARC
5
C0
100
AcDbEntity
8
1
62
256
6
ByLayer
370
18
48
1
60
0
100
AcDbCircle
39
0
10
-26.333288
20
-9
30
0
40
0.500000000000889
210
0
220
0
230
-1
100
AcDbArc
50
160
51
200
0
ARC
5
C1
100
AcDbEntity
8
1
62
256
6
ByLayer
370
18
48
1
60
0
100
AcDbCircle
39
0
10
-32.301199
20
-10.3
30
0
40
0.2
210
0
220
0
230
-1
100
AcDbArc
50
180
51
272.5
0
ELLIPSE
5
C2
100
AcDbEntity
8
1
62
256
6
ByLayer
370
18
48
1
60
0
100
AcDbEllipse
10
36.360017
20
-157.7
30
0
11
-9.03300261173939E-15
21
147.524999907841
31
0
210
0
220
0
230
-1
40
0.57735
41
-0.164859078888168
42
-0.0611043762945949
0
ELLIPSE
5
C3
100
AcDbEntity
8
1
62
256
6
ByLayer
370
18
48
1
60
0
100
AcDbEllipse
10
24.609055
20
-9.011633
30
0
11
0.976096143707758
21
0.0113368278044498
31
0
210
0
220
0
230
-1
40
0.409759
41
0
42
6.28318530717959
0
ELLIPSE
5
C4
100
AcDbEntity
8
1
62
256
6
ByLayer
370
18
48
1
60
0
100
AcDbEllipse
10
27.627144
20
-157.699997
30
0
11
210.687532842048
21
2.12929049109122E-13
31
0
210
0
220
0
230
-1
40
0.700208
41
-1.63082236939066
42
-1.59607790022242
0
ELLIPSE
5
C5
100
AcDbEntity
8
1
62
256
6
ByLayer
370
18
48
1
60
0
100
AcDbEllipse
10
27.48571
20
-157.699967
30
0
11
205.09256475849
21
2.07274555851939E-13
31
0
210
0
220
0
230
-1
40
0.719309
41
-1.59607790283845
42
-1.58003841027737
0
ELLIPSE
5
C6
100
AcDbEntity
8
1
62
256
6
ByLayer
370
18
48
1
60
0
100
AcDbEllipse
10
14.773812
20
-7.945198
30
0
11
3.57037001685533
21
3.60835538012907E-15
31
0
210
0
220
0
230
-1
40
0.700208
41
1.51077028471605
42
2.85779854438143
0
ELLIPSE
5
C7
100
AcDbEntity
8
1
62
256
6
ByLayer
370
18
48
1
60
0
100
AcDbEllipse
10
25.044667
20
-9
30
0
11
3.16331050501959E-16
21
1.11669274350346
31
0
210
0
220
0
230
1
40
0.8118
41
-1.94715393053229
42
-1.1944387230575
0
ELLIPSE
5
C8
100
AcDbEntity
8
1
62
256
6
ByLayer
370
18
48
1
60
0
100
AcDbEllipse
10
14.135771
20
-7.825
30
0
11
2.78951487299376
21
0
31
0
210
0
220
0
230
1
40
0.573576
41
1.5707963267949
42
3.14159265358979
0
ELLIPSE
5
C9
100
AcDbEntity
8
1
62
256
6
ByLayer
370
18
48
1
60
0
100
AcDbEllipse
10
27.48571
20
-90.500013
30
0
11
114.936661476051
21
1.16159478948478E-13
31
0
210
0
220
0
230
-1
40
0.719309
41
-1.61591918520869
42
-1.58721985462079
0
ELLIPSE
5
CA
100
AcDbEntity
8
1
62
256
6
ByLayer
370
18
48
1
60
0
100
AcDbEllipse
10
-1567.714275
20
-90.243024
30
0
11
3905.74864455617
21
34.8105360557992
31
0
210
0
220
0
230
-1
40
0.019127
41
-1.15241814198659
42
-1.15051741348872
0
ELLIPSE
5
CB
100
AcDbEntity
8
1
62
256
6
ByLayer
370
18
48
1
60
0
100
AcDbEllipse
10
27.627144
20
-90.500003
30
0
11
118.072138494669
21
1.19328314479806E-13
31
0
210
0
220
0
230
-1
40
0.700208
41
-1.64816475490104
42
-1.6159191878681
0
ELLIPSE
5
CC
100
AcDbEntity
8
SK1
62
256
6
ByLayer
370
18
48
1
60
0
100
AcDbEllipse
10
-3.351261
20
-7.945198
30
0
11
-1.53075794227905E-16
21
2.50000000000176
31
0
210
0
220
0
230
-1
40
0.267949
41
1.85459043600335
42
2.48474436222396
0
ELLIPSE
5
CD
100
AcDbEntity
8
1
62
256
6
ByLayer
370
18
48
1
60
0
100
AcDbEllipse
10
26.669605
20
-9.976449
30
0
11
0.0255849191290575
21
0.147801934681985
31
0
210
0
220
0
230
-1
40
1
41
-1.74220051432429
42
-1.39313466380317
0
POINT
5
6C
100
AcDbEntity
8
80
62
256
6
ByLayer
370
18
48
1
60
0
100
AcDbPoint
10
0
20
0
30
0
39
0
210
0
220
0
230
1
50
360
0
POINT
5
6E
100
AcDbEntity
8
81
62
256
6
ByLayer
370
18
48
1
60
0
100
AcDbPoint
10
32.5012
20
-10.5
30
0
39
0
210
0
220
0
230
1
50
360
0
SPLINE
5
CE
100
AcDbEntity
8
1
62
256
6
ByLayer
370
18
48
1
60
0
100
AcDbSpline
70
4
71
3
72
16
73
12
40
0
40
0
40
0
40
0
40
0.202462449609968
40
0.202462449609968
40
0.471389342630962
40
0.471389342630962
40
0.651522628187483
40
0.651522628187483
40
0.833342249093007
40
0.833342249093007
40
1
40
1
40
1
40
1
41
1
10
1.55301010130251
20
-10.4450950547301
30
0
41
1
10
1.55333944986856
20
-10.4452405800026
30
0
41
1
10
1.5409302008496
20
-10.4315440244087
30
0
41
1
10
1.48012383747539
20
-10.3695245423445
30
0
41
1
10
1.41945894293065
20
-10.3095487742589
30
0
41
1
10
1.26071591723402
20
-10.1919534834172
30
0
41
1
10
1.17922661075863
20
-10.1391267186175
30
0
41
1
10
0.983854970819579
20
-10.0424627738175
30
0
41
1
10
0.866379376265911
20
-9.99768456873261
30
0
41
1
10
0.624224715221033
20
-9.94047965187534
30
0
41
1
10
0.497189119778625
20
-9.92499999999995
30
0
41
1
10
0.372276819233775
20
-9.92499999999995
30
0
0
SPLINE
5
CF
100
AcDbEntity
8
1
62
256
6
ByLayer
370
18
48
1
60
0
100
AcDbSpline
70
4
71
3
72
10
73
6
40
0
40
0
40
0
40
0
40
0.888420424867375
40
0.888420424867375
40
1
40
1
40
1
40
1
41
1
10
25.2823041810076
20
-7.83525417112983
30
0
41
1
10
25.3773023003654
20
-7.83521953881834
30
0
41
1
10
25.4741083556247
20
-7.8354489431571
30
0
41
1
10
25.5755152783597
20
-7.83600995016579
30
0
41
1
10
25.5868722703992
20
-7.83607766259564
30
0
41
1
10
25.5981290152625
20
-7.8361498086212
30
0
0
SPLINE
5
D0
100
AcDbEntity
8
1
62
256
6
ByLayer
370
18
48
1
60
0
100
AcDbSpline
70
4
71
3
72
8
73
4
40
0
40
0
40
0
40
0
40
1
40
1
40
1
40
1
41
1
10
25.7692411535693
20
-9.76978512627372
30
0
41
1
10
25.7747782571648
20
-9.75666148118106
30
0
41
1
10
25.7798162474322
20
-9.743199183775
30
0
41
1
10
25.7843144861323
20
-9.7294860670662
30
0
0
SPLINE
5
D1
100
AcDbEntity
8
1
62
256
6
ByLayer
370
18
48
1
60
0
100
AcDbSpline
70
4
71
3
72
10
73
6
40
0
40
0
40
0
40
0
40
0.694831437544392
40
0.694831437544392
40
1
40
1
40
1
40
1
41
1
10
18.5011986692279
20
-8.07231765661564
30
0
41
1
10
18.2796554649376
20
-8.08434353345982
30
0
41
1
10
18.052513307759
20
-8.05015690378602
30
0
41
1
10
17.7477209885679
20
-7.92947753103411
30
0
41
1
10
17.6560784245172
20
-7.88224632531868
30
0
41
1
10
17.5692746799207
20
-7.82499999999624
30
0
0
SPLINE
5
D2
100
AcDbEntity
8
1
62
256
6
ByLayer
370
18
48
1
60
0
100
AcDbSpline
70
4
71
3
72
8
73
4
40
0
40
0
40
0
40
0
40
1
40
1
40
1
40
1
41
1
10
25.7692411535691
20
-8.23021487372625
30
0
41
1
10
25.7134724209979
20
-8.0980358308552
30
0
41
1
10
25.6567913566076
20
-7.96641437724469
30
0
41
1
10
25.5981290152625
20
-7.8361498086212
30
0
0
SPLINE
5
D3
100
AcDbEntity
8
1
62
256
6
ByLayer
370
18
48
1
60
0
100
AcDbSpline
70
4
71
3
72
12
73
8
40
0
40
0
40
0
40
0
40
0.370074878428973
40
0.370074878428973
40
0.754344288575996
40
0.754344288575996
40
1
40
1
40
1
40
1
41
1
10
17.2614606926664
20
-7.25505634982869
30
0
41
1
10
17.3676890545735
20
-7.38396535600455
30
0
41
1
10
17.4977594649236
20
-7.49935056589564
30
0
41
1
10
17.7947818133653
20
-7.68615392173604
30
0
41
1
10
17.9674729217705
20
-7.75822948034119
30
0
41
1
10
18.2619390038736
20
-7.82451716412018
30
0
41
1
10
18.3819236706948
20
-7.83792276772897
30
0
41
1
10
18.5011986692275
20
-7.83787408750186
30
0
0
SPLINE
5
D4
100
AcDbEntity
8
1
62
256
6
ByLayer
370
18
48
1
60
0
100
AcDbSpline
70
4
71
3
72
8
73
4
40
0
40
0
40
0
40
0
40
1
40
1
40
1
40
1
41
1
10
25.7843144861323
20
-8.27051393293365
30
0
41
1
10
25.7798162474322
20
-8.25680081622485
30
0
41
1
10
25.7747782571648
20
-8.2433385188188
30
0
41
1
10
25.7692411535693
20
-8.23021487372614
30
0
0
SPLINE
5
D5
100
AcDbEntity
8
1
62
256
6
ByLayer
370
18
48
1
60
0
100
AcDbSpline
70
4
71
3
72
8
73
4
40
0
40
0
40
0
40
0
40
1
40
1
40
1
40
1
41
1
10
25.8877500984072
20
-8.58957582800912
30
0
41
1
10
25.853581064163
20
-8.48307040253863
30
0
41
1
10
25.8191441947276
20
-8.37669412717111
30
0
41
1
10
25.7843144861321
20
-8.27051393293377
30
0
0
SPLINE
5
D6
100
AcDbEntity
8
1
62
256
6
ByLayer
370
18
48
1
60
0
100
AcDbSpline
70
4
71
3
72
8
73
4
40
0
40
0
40
0
40
0
40
1
40
1
40
1
40
1
41
1
10
25.5902539918105
20
-10.18130045934
30
0
41
1
10
25.6517359430652
20
-10.0453533556064
30
0
41
1
10
25.7109812311187
20
-9.90786860840058
30
0
41
1
10
25.7692411535691
20
-9.7697851262736
30
0
0
SPLINE
5
D7
100
AcDbEntity
8
1
62
256
6
ByLayer
370
18
48
1
60
0
100
AcDbSpline
70
4
71
3
72
8
73
4
40
0
40
0
40
0
40
0
40
1
40
1
40
1
40
1
41
1
10
25.7843144861321
20
-9.72948606706609
30
0
41
1
10
25.8191441947276
20
-9.62330587282875
30
0
41
1
10
25.853581064163
20
-9.51692959746123
30
0
41
1
10
25.8877500984072
20
-9.41042417199074
30
0
0
SPLINE
5
D8
100
AcDbEntity
8
1
62
256
6
ByLayer
370
18
48
1
60
0
100
AcDbSpline
70
4
71
3
72
10
73
6
40
0
40
0
40
0
40
0
40
0.682703605900556
40
0.682703605900556
40
1
40
1
40
1
40
1
41
1
10
16.9206357185935
20
-6.49999999999994
30
0
41
1
10
16.9499694753245
20
-6.68441783444601
30
0
41
1
10
17.0139490996278
20
-6.8678616377475
30
0
41
1
10
17.1527794386426
20
-7.1109930682112
30
0
41
1
10
17.2041404024898
20
-7.18549769799861
30
0
41
1
10
17.2614606926664
20
-7.25505634982869
30
0
0
SPLINE
5
D9
100
AcDbEntity
8
1
62
256
6
ByLayer
370
18
48
1
60
0
100
AcDbSpline
70
4
71
3
72
12
73
8
40
0
40
0
40
0
40
0
40
0.36241384775572
40
0.36241384775572
40
0.731235598519373
40
0.731235598519373
40
1
40
1
40
1
40
1
41
1
10
16.9011986692279
20
-6.622460351521
30
0
41
1
10
16.9011986692279
20
-6.7514792556795
30
0
41
1
10
16.9226180778133
20
-6.9082298959874
30
0
41
1
10
17.0337861681059
20
-7.22954968793226
30
0
41
1
10
17.1266324614587
20
-7.39774095674639
30
0
41
1
10
17.3416077635798
20
-7.65006081400065
30
0
41
1
10
17.4503117678947
20
-7.74654497947671
30
0
41
1
10
17.569274679923
20
-7.82499999999379
30
0
0
SPLINE
5
DA
100
AcDbEntity
8
1
62
256
6
ByLayer
370
18
48
1
60
0
100
AcDbSpline
70
4
71
3
72
8
73
4
40
0
40
0
40
0
40
0
40
1
40
1
40
1
40
1
41
1
10
1.91775814129622
20
-11.1108895278359
30
0
41
1
10
1.7803459556385
20
-10.5980602693825
30
0
41
1
10
1.40981288925008
20
-10.2962729691965
30
0
41
1
10
1.27611884296036
20
-10.2047463894593
30
0
0
LINE
5
70
100
AcDbEntity
8
1
62
256
6
ByLayer
370
18
48
1
60
0
100
AcDbLine
10
1.540325
20
-10.445198
30
0
11
14.773812
21
-10.445198
31
0
39
0
210
0
220
0
230
1
0
LINE
5
72
100
AcDbEntity
8
80
62
256
6
ByLayer
370
18
48
1
60
0
100
AcDbLine
10
0
20
0
30
0
11
-5
21
0
31
0
39
0
210
0
220
0
230
1
0
LINE
5
73
100
AcDbEntity
8
81
62
256
6
ByLayer
370
18
48
1
60
0
100
AcDbLine
10
32.5012
20
-10.5
30
0
11
37.5012
21
-10.5
31
0
39
0
210
0
220
0
230
1
0
LINE
5
74
100
AcDbEntity
8
1
62
256
6
ByLayer
370
18
48
1
60
0
100
AcDbLine
10
20.854152
20
-10.251249
30
0
11
28.81957
21
-10.251249
31
0
39
0
210
0
220
0
230
1
0
LINE
5
75
100
AcDbEntity
8
1
62
256
6
ByLayer
370
13
48
1
60
0
100
AcDbLine
10
18.501199
20
-8.072318
30
0
11
18.501199
21
-7.837874
31
0
39
0
210
0
220
0
230
1
0
LINE
5
76
100
AcDbEntity
8
1
62
256
6
ByLayer
370
13
48
1
60
0
100
AcDbLine
10
11.346256
20
-7.825
30
0
11
17.569275
21
-7.825
31
0
39
0
210
0
220
0
230
1
0
LINE
5
77
100
AcDbEntity
8
SK1
62
256
6
ByLayer
370
13
48
1
60
0
100
AcDbLine
10
-5.477586
20
10
30
0
11
-5.477586
21
-9.925
31
0
39
0
210
0
220
0
230
1
0
LINE
5
79
100
AcDbEntity
8
1
62
256
6
ByLayer
370
18
48
1
60
0
100
AcDbLine
10
16.920636
20
-6.5
30
0
11
16.925005
21
-6.5
31
0
39
0
210
0
220
0
230
1
0
LINE
5
7A
100
AcDbEntity
8
1
62
256
6
ByLayer
370
18
48
1
60
0
100
AcDbLine
10
2.241068
20
12.3925
30
0
11
1.917758
21
11.18589
31
0
39
0
210
0
220
0
230
1
0
LINE
5
7B
100
AcDbEntity
8
1
62
256
6
ByLayer
370
18
48
1
60
0
100
AcDbLine
10
11.346256
20
-8.645198
30
0
11
11.346256
21
-7.825
31
0
39
0
210
0
220
0
230
1
0
LINE
5
7C
100
AcDbEntity
8
1
62
256
6
ByLayer
370
18
48
1
60
0
100
AcDbLine
10
16.901199
20
-6.225
30
0
11
16.901199
21
3.732246
31
0
39
0
210
0
220
0
230
1
0
LINE
5
7D
100
AcDbEntity
8
1
62
256
6
ByLayer
370
18
48
1
60
0
100
AcDbLine
10
16.901199
20
-6.225
30
0
11
16.901199
21
-6.62246
31
0
39
0
210
0
220
0
230
1
0
LINE
5
7E
100
AcDbEntity
8
1
62
256
6
ByLayer
370
18
48
1
60
0
100
AcDbLine
10
-0.1
20
-8.645198
30
0
11
-0.1
21
-9.925
31
0
39
0
210
0
220
0
230
1
0
LINE
5
7F
100
AcDbEntity
8
1
62
256
6
ByLayer
370
18
48
1
60
0
100
AcDbLine
10
22.301199
20
-10.222143
30
0
11
22.301199
21
-7.909152
31
0
39
0
210
0
220
0
230
1
0
LINE
5
80
100
AcDbEntity
8
1
62
256
6
ByLayer
370
18
48
1
60
0
100
AcDbLine
10
0.372277
20
10
30
0
11
-0.1
21
10
31
0
39
0
210
0
220
0
230
1
0
LINE
5
81
100
AcDbEntity
8
1
62
256
6
ByLayer
370
18
48
1
60
0
100
AcDbLine
10
-0.1
20
10
30
0
11
-0.1
21
-8.645198
31
0
39
0
210
0
220
0
230
1
0
LINE
5
82
100
AcDbEntity
8
1
62
256
6
ByLayer
370
18
48
1
60
0
100
AcDbLine
10
16.901199
20
-6.225
30
0
11
14.135771
21
-6.225
31
0
39
0
210
0
220
0
230
1
0
LINE
5
83
100
AcDbEntity
8
1
62
256
6
ByLayer
370
18
48
1
60
0
100
AcDbLine
10
11.901199
20
12.3925
30
0
11
2.241068
21
12.3925
31
0
39
0
210
0
220
0
230
1
0
LINE
5
84
100
AcDbEntity
8
1
62
256
6
ByLayer
370
18
48
1
60
0
100
AcDbLine
10
11.346256
20
-8.645198
30
0
11
-0.1
21
-8.645198
31
0
39
0
210
0
220
0
230
1
0
LINE
5
85
100
AcDbEntity
8
1
62
256
6
ByLayer
370
18
48
1
60
0
100
AcDbLine
10
16.901199
20
3.732246
30
0
11
11.901199
21
12.3925
31
0
39
0
210
0
220
0
230
1
0
LINE
5
86
100
AcDbEntity
8
1
62
256
6
ByLayer
370
18
48
1
60
0
100
AcDbLine
10
0.372277
20
-9.925
30
0
11
-0.1
21
-9.925
31
0
39
0
210
0
220
0
230
1
0
LINE
5
87
100
AcDbEntity
8
1
62
256
6
ByLayer
370
18
48
1
60
0
100
AcDbLine
10
18.501199
20
-12.175219
30
0
11
22.381894
21
-12.175219
31
0
39
0
210
0
220
0
230
1
0
LINE
5
88
100
AcDbEntity
8
1
62
256
6
ByLayer
370
18
48
1
60
0
100
AcDbLine
10
2.202944
20
-12.175219
30
0
11
1.917758
21
-11.11089
31
0
39
0
210
0
220
0
230
1
0
LINE
5
89
100
AcDbEntity
8
1
62
256
6
ByLayer
370
18
48
1
60
0
100
AcDbLine
10
2.202944
20
-12.175219
30
0
11
18.501199
21
-12.175219
31
0
39
0
210
0
220
0
230
1
0
LINE
5
8A
100
AcDbEntity
8
SK1
62
256
6
ByLayer
370
18
48
1
60
0
100
AcDbLine
10
-69
20
7
30
0
11
-69
21
-6.925
31
0
39
0
210
0
220
0
230
1
0
LINE
5
8B
100
AcDbEntity
8
SK1
62
256
6
ByLayer
370
18
48
1
60
0
100
AcDbLine
10
-10.683894
20
-9.925
30
0
11
-5.477586
21
-9.925
31
0
39
0
210
0
220
0
230
1
0
LINE
5
8C
100
AcDbEntity
8
SK1
62
256
6
ByLayer
370
18
48
1
60
0
100
AcDbLine
10
-66
20
-9.925
30
0
11
-10.683894
21
-9.925
31
0
39
0
210
0
220
0
230
1
0
LINE
5
8D
100
AcDbEntity
8
SK1
62
256
6
ByLayer
370
18
48
1
60
0
100
AcDbLine
10
-0.1
20
-8.645198
30
0
11
-2.708183
21
-8.645198
31
0
39
0
210
0
220
0
230
1
0
LINE
5
8E
100
AcDbEntity
8
SK1
62
256
6
ByLayer
370
18
48
1
60
0
100
AcDbLine
10
-0.1
20
-8.645198
30
0
11
-0.1
21
-9.925
31
0
39
0
210
0
220
0
230
1
0
LINE
5
8F
100
AcDbEntity
8
SK1
62
256
6
ByLayer
370
18
48
1
60
0
100
AcDbLine
10
-0.1
20
10
30
0
11
-0.1
21
-8.645198
31
0
39
0
210
0
220
0
230
1
0
LINE
5
90
100
AcDbEntity
8
SK1
62
256
6
ByLayer
370
18
48
1
60
0
100
AcDbLine
10
-5.477586
20
-9.925
30
0
11
-2.94222
21
-9.925
31
0
39
0
210
0
220
0
230
1
0
LINE
5
91
100
AcDbEntity
8
SK1
62
256
6
ByLayer
370
18
48
1
60
0
100
AcDbLine
10
-66
20
-9.925
30
0
11
-69
21
-6.925
31
0
39
0
210
0
220
0
230
1
0
LINE
5
92
100
AcDbEntity
8
SK1
62
256
6
ByLayer
370
18
48
1
60
0
100
AcDbLine
10
-66
20
10
30
0
11
-10.683894
21
10
31
0
39
0
210
0
220
0
230
1
0
LINE
5
93
100
AcDbEntity
8
SK1
62
256
6
ByLayer
370
18
48
1
60
0
100
AcDbLine
10
-66
20
10
30
0
11
-69
21
7
31
0
39
0
210
0
220
0
230
1
0
LINE
5
94
100
AcDbEntity
8
SK1
62
256
6
ByLayer
370
18
48
1
60
0
100
AcDbLine
10
-10.683894
20
10
30
0
11
-10.683894
21
-9.925
31
0
39
0
210
0
220
0
230
1
0
LINE
5
95
100
AcDbEntity
8
SK1
62
256
6
ByLayer
370
18
48
1
60
0
100
AcDbLine
10
-2.708183
20
10
30
0
11
-2.708183
21
-8.645198
31
0
39
0
210
0
220
0
230
1
0
LINE
5
96
100
AcDbEntity
8
SK1
62
256
6
ByLayer
370
18
48
1
60
0
100
AcDbLine
10
-5.477586
20
10
30
0
11
-2.708183
21
10
31
0
39
0
210
0
220
0
230
1
0
LINE
5
97
100
AcDbEntity
8
SK1
62
256
6
ByLayer
370
18
48
1
60
0
100
AcDbLine
10
-0.1
20
-9.925
30
0
11
-2.94222
21
-9.925
31
0
39
0
210
0
220
0
230
1
0
LINE
5
98
100
AcDbEntity
8
SK1
62
256
6
ByLayer
370
18
48
1
60
0
100
AcDbLine
10
-0.1
20
10
30
0
11
-2.708183
21
10
31
0
39
0
210
0
220
0
230
1
0
LINE
5
99
100
AcDbEntity
8
SK1
62
256
6
ByLayer
370
18
48
1
60
0
100
AcDbLine
10
-10.683894
20
10
30
0
11
-5.477586
21
10
31
0
39
0
210
0
220
0
230
1
0
LINE
5
9A
100
AcDbEntity
8
1
62
256
6
ByLayer
370
18
48
1
60
0
100
AcDbLine
10
26.519605
20
-7.85
30
0
11
25.604036
21
-7.85
31
0
39
0
210
0
220
0
230
1
0
LINE
5
9B
100
AcDbEntity
8
1
62
256
6
ByLayer
370
13
48
1
60
0
100
AcDbLine
10
25.701765
20
-8.074854
30
0
11
26.528651
21
-8.074854
31
0
39
0
210
0
220
0
230
1
0
LINE
5
9C
100
AcDbEntity
8
1
62
256
6
ByLayer
370
13
48
1
60
0
100
AcDbLine
10
25.679381
20
-8.023551
30
0
11
26.519605
21
-8.023551
31
0
39
0
210
0
220
0
230
1
0
LINE
5
9D
100
AcDbEntity
8
1
62
256
6
ByLayer
370
13
48
1
60
0
100
AcDbLine
10
25.701639
20
-9.925146
30
0
11
26.528651
21
-9.925146
31
0
39
0
210
0
220
0
230
1
0
LINE
5
9E
100
AcDbEntity
8
1
62
256
6
ByLayer
370
13
48
1
60
0
100
AcDbLine
10
25.679256
20
-9.976449
30
0
11
26.519605
21
-9.976449
31
0
39
0
210
0
220
0
230
1
0
LINE
5
9F
100
AcDbEntity
8
1
62
256
6
ByLayer
370
18
48
1
60
0
100
AcDbLine
10
26.519605
20
-10.15
30
0
11
25.603785
21
-10.15
31
0
39
0
210
0
220
0
230
1
0
LINE
5
A0
100
AcDbEntity
8
1
62
256
6
ByLayer
370
13
48
1
60
0
100
AcDbLine
10
25.940461
20
-9.17101
30
0
11
26.803134
21
-9.17101
31
0
39
0
210
0
220
0
230
1
0
LINE
5
A1
100
AcDbEntity
8
1
62
256
6
ByLayer
370
18
48
1
60
0
100
AcDbLine
10
12.709923
20
-10.49981
30
0
11
13.960762
21
-10.445197
31
0
39
0
210
0
220
0
230
1
0
LINE
5
A2
100
AcDbEntity
8
1
62
256
6
ByLayer
370
13
48
1
60
0
100
AcDbLine
10
25.940461
20
-8.82899
30
0
11
26.803134
21
-8.82899
31
0
39
0
210
0
220
0
230
1
0
LINE
5
A3
100
AcDbEntity
8
1
62
256
6
ByLayer
370
18
48
1
60
0
100
AcDbLine
10
26.519605
20
-7.85
30
0
11
27.701199
21
-7.85
31
0
39
0
210
0
220
0
230
1
0
LINE
5
A4
100
AcDbEntity
8
1
62
256
6
ByLayer
370
18
48
1
60
0
100
AcDbLine
10
27.701199
20
-7.85
30
0
11
28.644207
21
-7.85
31
0
39
0
210
0
220
0
230
1
0
LINE
5
A5
100
AcDbEntity
8
1
62
256
6
ByLayer
370
18
48
1
60
0
100
AcDbLine
10
26.519605
20
-8.023551
30
0
11
26.519605
21
-7.85
31
0
39
0
210
0
220
0
230
1
0
LINE
5
A6
100
AcDbEntity
8
1
62
256
6
ByLayer
370
18
48
1
60
0
100
AcDbLine
10
26.528651
20
-8.074854
30
0
11
26.803134
21
-8.82899
31
0
39
0
210
0
220
0
230
1
0
LINE
5
A7
100
AcDbEntity
8
1
62
256
6
ByLayer
370
18
48
1
60
0
100
AcDbLine
10
27.701199
20
-7.85
30
0
11
27.701199
21
-10.15
31
0
39
0
210
0
220
0
230
1
0
LINE
5
A8
100
AcDbEntity
8
1
62
256
6
ByLayer
370
18
48
1
60
0
100
AcDbLine
10
32.501199
20
-10.3
30
0
11
32.501199
21
-7.7
31
0
39
0
210
0
220
0
230
1
0
LINE
5
A9
100
AcDbEntity
8
1
62
256
6
ByLayer
370
18
48
1
60
0
100
AcDbLine
10
32.292475
20
-7.50019
30
0
11
29.001199
21
-7.643891
31
0
39
0
210
0
220
0
230
1
0
LINE
5
AA
100
AcDbEntity
8
1
62
256
6
ByLayer
370
18
48
1
60
0
100
AcDbLine
10
28.644207
20
-7.85
30
0
11
29.001199
21
-7.643891
31
0
39
0
210
0
220
0
230
1
0
LINE
5
AB
100
AcDbEntity
8
1
62
256
6
ByLayer
370
18
48
1
60
0
100
AcDbLine
10
32.292475
20
-10.49981
30
0
11
29.001199
21
-10.356109
31
0
39
0
210
0
220
0
230
1
0
LINE
5
AC
100
AcDbEntity
8
1
62
256
6
ByLayer
370
18
48
1
60
0
100
AcDbLine
10
26.519605
20
-10.15
30
0
11
27.701199
21
-10.15
31
0
39
0
210
0
220
0
230
1
0
LINE
5
AD
100
AcDbEntity
8
1
62
256
6
ByLayer
370
18
48
1
60
0
100
AcDbLine
10
26.519605
20
-9.976449
30
0
11
26.519605
21
-10.15
31
0
39
0
210
0
220
0
230
1
0
LINE
5
AE
100
AcDbEntity
8
1
62
256
6
ByLayer
370
18
48
1
60
0
100
AcDbLine
10
27.701199
20
-10.15
30
0
11
28.644207
21
-10.15
31
0
39
0
210
0
220
0
230
1
0
LINE
5
AF
100
AcDbEntity
8
1
62
256
6
ByLayer
370
18
48
1
60
0
100
AcDbLine
10
28.644207
20
-10.15
30
0
11
29.001199
21
-10.356109
31
0
39
0
210
0
220
0
230
1
0
LINE
5
B0
100
AcDbEntity
8
1
62
256
6
ByLayer
370
18
48
1
60
0
100
AcDbLine
10
26.528651
20
-9.925146
30
0
11
26.803134
21
-9.17101
31
0
39
0
210
0
220
0
230
1
0
LINE
5
B1
100
AcDbEntity
8
SK2
62
256
6
ByLayer
370
13
48
1
60
0
100
AcDbLine
10
-78.60005
20
-10
30
0
11
-78.60005
21
10
31
0
39
0
210
0
220
0
230
1
0
LINE
5
B3
100
AcDbEntity
8
SK2
62
256
6
ByLayer
370
13
48
1
60
0
100
AcDbLine
10
-2
20
10
30
0
11
-80.60005
21
10
31
0
39
0
210
0
220
0
230
1
0
LINE
5
B4
100
AcDbEntity
8
SK2
62
256
6
ByLayer
370
13
48
1
60
0
100
AcDbLine
10
-2
20
-10
30
0
11
-80.60005
21
-10
31
0
39
0
210
0
220
0
230
1
0
LINE
5
B5
100
AcDbEntity
8
SK2
62
256
6
ByLayer
370
18
48
1
60
0
100
AcDbLine
10
-78.60005
20
10
30
0
11
-78.182053
21
6.825002
31
0
39
0
210
0
220
0
230
1
0
LINE
5
B6
100
AcDbEntity
8
SK2
62
256
6
ByLayer
370
18
48
1
60
0
100
AcDbLine
10
-78.60005
20
10
30
0
11
-79.018047
21
6.824998
31
0
39
0
210
0
220
0
230
1
0
LINE
5
B7
100
AcDbEntity
8
SK2
62
256
6
ByLayer
370
18
48
1
60
0
100
AcDbLine
10
-78.182053
20
6.825002
30
0
11
-79.018047
21
6.824998
31
0
39
0
210
0
220
0
230
1
0
LINE
5
B8
100
AcDbEntity
8
SK2
62
256
6
ByLayer
370
18
48
1
60
0
100
AcDbLine
10
-78.60005
20
-10
30
0
11
-79.018047
21
-6.825002
31
0
39
0
210
0
220
0
230
1
0
LINE
5
B9
100
AcDbEntity
8
SK2
62
256
6
ByLayer
370
18
48
1
60
0
100
AcDbLine
10
-78.60005
20
-10
30
0
11
-78.182053
21
-6.824998
31
0
39
0
210
0
220
0
230
1
0
LINE
5
BA
100
AcDbEntity
8
SK2
62
256
6
ByLayer
370
18
48
1
60
0
100
AcDbLine
10
-79.018047
20
-6.825002
30
0
11
-78.182053
21
-6.824998
31
0
39
0
210
0
220
0
230
1
0
MTEXT
5
DB
100
AcDbEntity
8
SK6
62
256
6
ByLayer
370
18
48
1
60
0
100
AcDbMText
10
-49.874425
20
-50.766359
30
0
210
0
220
0
230
1
1
\W0.7507;QS-LF123G14C2020E-130B
40
3.5
41
0
44
1.084337
50
0
71
7
72
5
7
iso_b_vert
0
MTEXT
5
DF
100
AcDbEntity
8
SK2
62
256
6
ByLayer
370
18
48
1
60
0
100
AcDbMText
10
-79.47505
20
-1.169737
30
0
210
0
220
0
230
1
1
\W0.6740;20
40
3.5
41
0
44
1.084337
50
89.9999999999999
71
7
72
5
7
iso_b_vert
0
DIMENSION
5
EE
100
AcDbEntity
8
2
62
256
6
ByLayer
370
13
48
1
60
0
100
AcDbDimension
2
DimnDraft3D1
10
32.5012
20
28.9925
30
0
11
9.442705
21
28.9925
31
0
70
32
71
5
72
1
41
1
210
0
220
0
230
1
3
Standard
100
AcDbAlignedDimension
13
-5.4
23
12
33
0
14
32.5012
24
-8.5
34
0
50
0
100
AcDbRotatedDimension
1001
ACAD
1000
DSTYLE
1002
{
1070
   279
1070
     0
1070
   172
1070
     1
1070
   173
1070
     1
1070
   340
1005
DC
1070
   271
1070
     1
1070
    77
1070
     1
1070
    73
1070
     0
1070
   171
1070
     3
1070
   274
1070
     4
1070
   177
1070
     2
1070
   176
1070
     2
1070
   178
1070
     7
1070
    78
1070
     8
1070
    41
1041
3.175
1070
   147
1041
1.75
1070
    42
1041
2.0
1070
    44
1041
2.0
1070
   140
1041
3.5
1070
   343
1005
EF
1070
   344
1005
EF
1002
}
0
DIMENSION
5
103
100
AcDbEntity
8
SK2
62
256
6
ByLayer
370
13
48
1
60
0
100
AcDbDimension
2
DimnDraft3D2
10
-66
20
-25.275219
30
0
11
-68.259868
21
-25.275219
31
0
70
32
71
5
72
1
41
1
210
0
220
0
230
1
3
Standard
100
AcDbAlignedDimension
13
-69
23
8
33
0
14
-66
24
-12
34
0
50
0
100
AcDbRotatedDimension
1001
ACAD
1000
DSTYLE
1002
{
1070
   279
1070
     0
1070
   172
1070
     1
1070
   173
1070
     1
1070
   340
1005
DC
1070
    77
1070
     1
1070
    73
1070
     0
1070
   171
1070
     3
1070
   274
1070
     4
1070
   177
1070
     2
1070
   176
1070
     2
1070
   178
1070
     7
1070
    78
1070
     8
1070
    41
1041
3.175
1070
   147
1041
1.75
1070
    42
1041
2.0
1070
    44
1041
2.0
1070
   140
1041
3.5
1070
   343
1005
EF
1070
   344
1005
EF
1002
}
0
DIMENSION
5
111
100
AcDbEntity
8
SK2
62
256
6
ByLayer
370
13
48
1
60
0
100
AcDbDimension
2
DimnDraft3D3
10
32.5012
20
34.9925
30
0
11
-22.790189
21
34.9925
31
0
70
32
71
5
72
1
41
1
210
0
220
0
230
1
3
Standard
100
AcDbAlignedDimension
13
-69
23
12
33
0
14
32.5012
24
-8.5
34
0
50
0
100
AcDbRotatedDimension
1001
ACAD
1000
DSTYLE
1002
{
1070
   279
1070
     0
1070
   172
1070
     1
1070
   173
1070
     1
1070
   340
1005
DC
1070
   271
1070
     1
1070
    77
1070
     1
1070
    73
1070
     0
1070
   171
1070
     3
1070
   274
1070
     4
1070
   177
1070
     2
1070
   176
1070
     2
1070
   178
1070
     7
1070
    78
1070
     8
1070
    41
1041
3.175
1070
   147
1041
1.75
1070
    42
1041
2.0
1070
    44
1041
2.0
1070
   140
1041
3.5
1070
   343
1005
EF
1070
   344
1005
EF
1002
}
0
DIMENSION
5
11F
100
AcDbEntity
8
2
62
256
6
ByLayer
370
13
48
1
60
0
100
AcDbDimension
2
DimnDraft3D4
10
18.5012
20
-25.275219
30
0
11
23.6637
21
-25.275219
31
0
70
32
71
5
72
1
41
1
210
0
220
0
230
1
3
Standard
100
AcDbAlignedDimension
13
32.5012
23
-12.5
33
0
14
18.5012
24
-12
34
0
50
0
100
AcDbRotatedDimension
1001
ACAD
1000
DSTYLE
1002
{
1070
   279
1070
     0
1070
   172
1070
     1
1070
   173
1070
     1
1070
   340
1005
DC
1070
   271
1070
     1
1070
    77
1070
     1
1070
    73
1070
     0
1070
   171
1070
     3
1070
   274
1070
     4
1070
   177
1070
     2
1070
   176
1070
     2
1070
   178
1070
     7
1070
    78
1070
     8
1070
    41
1041
3.175
1070
   147
1041
1.75
1070
    42
1041
2.0
1070
    44
1041
2.0
1070
   140
1041
3.5
1070
   343
1005
EF
1070
   344
1005
EF
1002
}
0
DIMENSION
5
12D
100
AcDbEntity
8
2
62
256
6
ByLayer
370
13
48
1
60
0
100
AcDbDimension
2
DimnDraft3D5
10
57.6012
20
-10.5
30
0
11
57.6012
21
-4.357895
31
0
70
32
71
5
72
1
41
1
210
0
220
0
230
1
3
Standard
100
AcDbAlignedDimension
13
-3.4
23
10
33
0
14
34.5012
24
-10.5
34
0
50
90
100
AcDbRotatedDimension
1001
ACAD
1000
DSTYLE
1002
{
1070
    74
1070
     0
1070
   279
1070
     0
1070
   172
1070
     1
1070
   173
1070
     1
1070
   340
1005
DC
1070
   271
1070
     1
1070
    77
1070
     1
1070
    73
1070
     0
1070
   171
1070
     3
1070
   274
1070
     4
1070
   177
1070
     2
1070
   176
1070
     2
1070
   178
1070
     7
1070
    78
1070
     8
1070
    41
1041
3.175
1070
   147
1041
1.75
1070
    42
1041
2.0
1070
    44
1041
2.0
1070
   140
1041
3.5
1070
   343
1005
EF
1070
   344
1005
EF
1002
}
0
DIMENSION
5
13B
100
AcDbEntity
8
2
62
256
6
ByLayer
370
13
48
1
60
0
100
AcDbDimension
2
DimnDraft3D6
10
50.6012
20
-7.5
30
0
11
50.6012
21
-22.320789
31
0
70
32
71
5
72
1
41
1
210
0
220
0
230
1
3
Standard
100
AcDbAlignedDimension
13
34.5012
23
-10.5
33
0
14
34.5012
24
-7.5
34
0
50
90
100
AcDbRotatedDimension
1001
ACAD
1000
DSTYLE
1002
{
1070
    74
1070
     0
1070
   279
1070
     0
1070
   172
1070
     1
1070
   173
1070
     1
1070
   340
1005
DC
1070
   271
1070
     1
1070
    77
1070
     1
1070
    73
1070
     0
1070
   171
1070
     3
1070
   274
1070
     4
1070
   177
1070
     2
1070
   176
1070
     2
1070
   178
1070
     7
1070
    78
1070
     8
1070
    41
1041
3.175
1070
   147
1041
1.75
1070
    42
1041
2.0
1070
    44
1041
2.0
1070
   140
1041
3.5
1070
   343
1005
EF
1070
   344
1005
EF
1002
}
0
ENDSEC
0
SECTION
2
OBJECTS
0
DICTIONARY
5
1a5
330
0
100
AcDbDictionary
280
0
281
1
3
ACAD_GROUP
350
1a6
3
ACAD_MLINESTYLE
350
1a7
0
DICTIONARY
5
1a6
330
0
100
AcDbDictionary
280
0
281
1
0
DICTIONARY
5
1a7
330
0
100
AcDbDictionary
280
0
281
1
3
Standard
350
18
0
MLINESTYLE
5
18
330
1a7
100
AcDbMlineStyle
2
Standard
70
0
3

62
256
51
90
52
90
71
2
49
-0.5
62
256
6
ByLayer
49
0.5
62
256
6
ByLayer
0
RASTERVARIABLES
5
194
330

100
AcDbRasterVariables
90
0
70
1
71
1
72
1
0
ENDSEC
0
EOF
