0
SECTION
2
HEADER
9
$ACADVER
1
AC1015
9
$DWGCODEPAGE
3
ANSI_1252
9
$HANDSEED
5
2ae
9
$ANGBASE
50
0
9
$ANGDIR
70
0
9
$ATTMODE
70
1
9
$AUNITS
70
0
9
$AUPREC
70
0
9
$CECOLOR
62
256
9
$CELTSCALE
40
1
9
$CELTYPE
6
ByLayer
9
$CELWEIGHT
370
18
9
$CLAYER
8
0
9
$CMLJUST
70
0
9
$CMLSCALE
40
1
9
$CMLSTYLE
2
Standard
9
$DIMSTYLE
2
Standard
9
$TEXTSIZE
40
0.2
9
$TEXTSTYLE
7
Standard
9
$LUNITS
70
2
9
$LUPREC
70
4
9
$EXTNAMES
290
1
9
$INSUNITS
70
4
9
$LTSCALE
40
1
9
$LWDISPLAY
290
1
9
$PDMODE
70
0
9
$PDSIZE
40
0
9
$PLINEGEN
70
0
0
ENDSEC
0
SECTION
2
CLASSES
0
CLASS
1
RASTERVARIABLES
2
AcDbRasterVariables
3
ISM
90
0
280
0
281
0
0
ENDSEC
0
SECTION
2
TABLES
0
TABLE
2
VPORT
5
2a4
100
AcDbSymbolTable
0
VPORT
5
1
100
AcDbSymbolTableRecord
100
AcDbViewportTableRecord
2
*Active
70
0
10
0
20
0
11
1
21
1
12
-1
22
1
13
0
23
0
14
0.5
24
0.5
15
10
25
10
16
0
26
0
36
1
17
0
27
0
37
0
0
ENDTAB
0
TABLE
2
LTYPE
5
2a5
100
AcDbSymbolTable
0
LTYPE
5
14
100
AcDbSymbolTableRecord
100
AcDbLinetypeTableRecord
70
0
2
ByBlock
3

72
65
73
0
40
0
0
LTYPE
5
15
100
AcDbSymbolTableRecord
100
AcDbLinetypeTableRecord
70
0
2
ByLayer
3

72
65
73
0
40
0
0
LTYPE
5
16
100
AcDbSymbolTableRecord
100
AcDbLinetypeTableRecord
70
0
2
CONTINUOUS
3
Solid line
72
65
73
0
40
0
0
LTYPE
5
6A
100
AcDbSymbolTableRecord
100
AcDbLinetypeTableRecord
70
0
2
CENTER
3
____ _ ____ _ ____ _ ____
72
65
73
4
40
47.5
49
22
74
0
49
-8.5
74
0
49
8.5
74
0
49
-8.5
74
0
0
LTYPE
5
6B
100
AcDbSymbolTableRecord
100
AcDbLinetypeTableRecord
70
0
2
DASHED
3
__ __ __ __ __ __ __ __ __
72
65
73
2
40
25.72
49
12.86
74
0
49
-12.86
74
0
0
ENDTAB
0
TABLE
2
LAYER
5
2a6
100
AcDbSymbolTable
0
LAYER
5
10
100
AcDbSymbolTableRecord
100
AcDbLayerTableRecord
2
0
70
0
62
7
6
CONTINUOUS
290
1
370
-3
390
0
0
LAYER
5
6D
100
AcDbSymbolTableRecord
100
AcDbLayerTableRecord
2
81
70
0
62
-3
6
CONTINUOUS
290
1
370
-3
390
0
0
LAYER
5
6F
100
AcDbSymbolTableRecord
100
AcDbLayerTableRecord
2
80
70
0
62
-6
6
CONTINUOUS
290
1
370
-3
390
0
0
LAYER
5
7B
100
AcDbSymbolTableRecord
100
AcDbLayerTableRecord
2
1
70
0
62
4
6
CONTINUOUS
290
1
370
-3
390
0
0
LAYER
5
216
100
AcDbSymbolTableRecord
100
AcDbLayerTableRecord
2
2
70
0
62
7
6
CONTINUOUS
290
1
370
-3
390
0
0
LAYER
5
291
100
AcDbSymbolTableRecord
100
AcDbLayerTableRecord
2
SK1
70
0
62
4
6
CONTINUOUS
290
1
370
-3
390
0
0
LAYER
5
292
100
AcDbSymbolTableRecord
100
AcDbLayerTableRecord
2
SK2
70
0
62
7
6
CONTINUOUS
290
1
370
-3
390
0
0
LAYER
5
293
100
AcDbSymbolTableRecord
100
AcDbLayerTableRecord
2
SK6
70
0
62
5
6
CONTINUOUS
290
1
370
-3
390
0
0
ENDTAB
0
TABLE
2
STYLE
5
2a7
100
AcDbSymbolTable
0
STYLE
5
11
100
AcDbSymbolTableRecord
100
AcDbTextStyleTableRecord
2
Standard
3
txt
70
0
71
0
40
0
41
1
42
0
50
0
0
STYLE
5
20F
100
AcDbSymbolTableRecord
100
AcDbTextStyleTableRecord
2
iso_b_vert
3
simplex.shx
70
0
71
0
40
0
41
1
42
0
50
0
0
STYLE
5
210
100
AcDbSymbolTableRecord
100
AcDbTextStyleTableRecord
2
DWGDirectTextStyle
3
simplex
70
0
71
0
40
0
41
1
42
0
50
0
0
ENDTAB
0
TABLE
2
DIMSTYLE
5
2a8
100
AcDbSymbolTable
100
AcDbDimStyleTable
0
DIMSTYLE
105
27
100
AcDbSymbolTableRecord
100
AcDbDimStyleTableRecord
2
Standard
70
0
3
<>
41
0.18
42
0.0625
44
0.18
140
0.18
147
0.09
73
0
74
0
77
1
271
2
275
0
278
52
280
0
340
11
0
ENDTAB
0
TABLE
2
VIEW
5
2a9
100
AcDbSymbolTable
0
ENDTAB
0
TABLE
2
UCS
5
2aa
100
AcDbSymbolTable
0
ENDTAB
0
TABLE
2
APPID
5
2ab
100
AcDbSymbolTable
0
APPID
5
12
100
AcDbSymbolTableRecord
100
AcDbRegAppTableRecord
2
ACAD
70
0
0
ENDTAB
0
TABLE
2
BLOCK_RECORD
5
2ac
100
AcDbSymbolTable
0
BLOCK_RECORD
5
1F
100
AcDbSymbolTableRecord
100
AcDbBlockTableRecord
2
*Model_Space
340
0
70
0
0
BLOCK_RECORD
5
1B
100
AcDbSymbolTableRecord
100
AcDbBlockTableRecord
2
*Paper_Space
340
0
70
0
0
BLOCK_RECORD
5
23
100
AcDbSymbolTableRecord
100
AcDbBlockTableRecord
2
*Paper_Space0
340
0
70
0
0
BLOCK_RECORD
5
214
100
AcDbSymbolTableRecord
100
AcDbBlockTableRecord
2
DimnDraft3D1
340
0
70
0
0
BLOCK_RECORD
5
223
100
AcDbSymbolTableRecord
100
AcDbBlockTableRecord
2
_CLOSED
340
0
70
0
0
BLOCK_RECORD
5
22A
100
AcDbSymbolTableRecord
100
AcDbBlockTableRecord
2
DimnDraft3D2
340
0
70
0
0
ENDTAB
0
ENDSEC
0
SECTION
2
BLOCKS
0
BLOCK
5
20
100
AcDbEntity
8
0
100
AcDbBlockBegin
2
*Model_Space
70
0
10
0
20
0
30
0
3
*Model_Space
0
ENDBLK
5
21
100
AcDbEntity
8
0
100
AcDbBlockEnd
0
BLOCK
5
1C
100
AcDbEntity
8
0
100
AcDbBlockBegin
2
*Paper_Space
70
0
10
0
20
0
30
0
3
*Paper_Space
0
ENDBLK
5
1D
100
AcDbEntity
8
0
100
AcDbBlockEnd
0
BLOCK
5
24
100
AcDbEntity
8
0
100
AcDbBlockBegin
2
*Paper_Space0
70
0
10
0
20
0
30
0
3
*Paper_Space0
0
ENDBLK
5
25
100
AcDbEntity
8
0
100
AcDbBlockEnd
0
BLOCK
5
220
100
AcDbEntity
8
0
100
AcDbBlockBegin
2
DimnDraft3D1
70
0
10
0
20
0
30
0
3
DimnDraft3D1
0
MTEXT
5
215
100
AcDbEntity
8
2
62
256
6
ByLayer
370
18
48
1
60
0
100
AcDbMText
10
35.284211
20
-20.22505
30
0
210
0
220
0
230
1
1
\W0.6740;33
40
3.5
41
0
44
1.084337
50
0
71
7
72
5
7
iso_b_vert
0
LINE
5
217
100
AcDbEntity
8
2
62
256
6
ByLayer
370
13
48
1
60
0
100
AcDbLine
10
53
20
-5
30
0
11
53
21
-23.10005
31
0
39
0
210
0
220
0
230
1
0
LINE
5
218
100
AcDbEntity
8
2
62
256
6
ByLayer
370
13
48
1
60
0
100
AcDbLine
10
20
20
-10
30
0
11
20
21
-23.10005
31
0
39
0
210
0
220
0
230
1
0
LINE
5
219
100
AcDbEntity
8
2
62
256
6
ByLayer
370
13
48
1
60
0
100
AcDbLine
10
53
20
-21.10005
30
0
11
20
21
-21.10005
31
0
39
0
210
0
220
0
230
1
0
LINE
5
21A
100
AcDbEntity
8
2
62
256
6
ByLayer
370
13
48
1
60
0
100
AcDbLine
10
53
20
-21.10005
30
0
11
49.825002
21
-21.518047
31
0
39
0
210
0
220
0
230
1
0
LINE
5
21B
100
AcDbEntity
8
2
62
256
6
ByLayer
370
13
48
1
60
0
100
AcDbLine
10
53
20
-21.10005
30
0
11
49.824998
21
-20.682053
31
0
39
0
210
0
220
0
230
1
0
LINE
5
21C
100
AcDbEntity
8
2
62
256
6
ByLayer
370
13
48
1
60
0
100
AcDbLine
10
49.825002
20
-21.518047
30
0
11
49.824998
21
-20.682053
31
0
39
0
210
0
220
0
230
1
0
LINE
5
21D
100
AcDbEntity
8
2
62
256
6
ByLayer
370
13
48
1
60
0
100
AcDbLine
10
20
20
-21.10005
30
0
11
23.174998
21
-20.682053
31
0
39
0
210
0
220
0
230
1
0
LINE
5
21E
100
AcDbEntity
8
2
62
256
6
ByLayer
370
13
48
1
60
0
100
AcDbLine
10
20
20
-21.10005
30
0
11
23.175002
21
-21.518047
31
0
39
0
210
0
220
0
230
1
0
LINE
5
21F
100
AcDbEntity
8
2
62
256
6
ByLayer
370
13
48
1
60
0
100
AcDbLine
10
23.174998
20
-20.682053
30
0
11
23.175002
21
-21.518047
31
0
39
0
210
0
220
0
230
1
0
ENDBLK
5
221
100
AcDbEntity
8
0
100
AcDbBlockEnd
0
BLOCK
5
224
100
AcDbEntity
8
0
100
AcDbBlockBegin
2
_CLOSED
70
0
10
0
20
0
30
0
3
_CLOSED
0
LINE
5
226
100
AcDbEntity
8
0
62
256
6
ByLayer
370
-2
48
1
60
0
100
AcDbLine
10
-1
20
0.166667
30
0
11
0
21
0
31
0
39
0
210
0
220
0
230
1
0
LINE
5
227
100
AcDbEntity
8
0
62
256
6
ByLayer
370
-2
48
1
60
0
100
AcDbLine
10
0
20
0
30
0
11
-1
21
-0.166667
31
0
39
0
210
0
220
0
230
1
0
LINE
5
228
100
AcDbEntity
8
0
62
256
6
ByLayer
370
-2
48
1
60
0
100
AcDbLine
10
-1
20
0.166667
30
0
11
-1
21
-0.166667
31
0
39
0
210
0
220
0
230
1
0
LINE
5
229
100
AcDbEntity
8
0
62
256
6
ByLayer
370
-2
48
1
60
0
100
AcDbLine
10
0
20
0
30
0
11
-1
21
0
31
0
39
0
210
0
220
0
230
1
0
ENDBLK
5
225
100
AcDbEntity
8
0
100
AcDbBlockEnd
0
BLOCK
5
235
100
AcDbEntity
8
0
100
AcDbBlockBegin
2
DimnDraft3D2
70
0
10
0
20
0
30
0
3
DimnDraft3D2
0
MTEXT
5
22B
100
AcDbEntity
8
2
62
256
6
ByLayer
370
18
48
1
60
0
100
AcDbMText
10
70.225
20
-13.945789
30
0
210
0
220
0
230
1
1
\W0.5404;3
40
3.5
41
0
44
1.084337
50
90
71
7
72
5
7
iso_b_vert
0
LINE
5
22C
100
AcDbEntity
8
2
62
256
6
ByLayer
370
13
48
1
60
0
100
AcDbLine
10
55
20
-3
30
0
11
73.1
21
-3
31
0
39
0
210
0
220
0
230
1
0
LINE
5
22D
100
AcDbEntity
8
2
62
256
6
ByLayer
370
13
48
1
60
0
100
AcDbLine
10
55
20
0
30
0
11
73.1
21
0
31
0
39
0
210
0
220
0
230
1
0
LINE
5
22E
100
AcDbEntity
8
2
62
256
6
ByLayer
370
13
48
1
60
0
100
AcDbLine
10
71.1
20
8.75
30
0
11
71.1
21
-14.820789
31
0
39
0
210
0
220
0
230
1
0
LINE
5
22F
100
AcDbEntity
8
2
62
256
6
ByLayer
370
13
48
1
60
0
100
AcDbLine
10
71.1
20
-3
30
0
11
71.517997
21
-6.174998
31
0
39
0
210
0
220
0
230
1
0
LINE
5
230
100
AcDbEntity
8
2
62
256
6
ByLayer
370
13
48
1
60
0
100
AcDbLine
10
71.1
20
-3
30
0
11
70.682003
21
-6.175002
31
0
39
0
210
0
220
0
230
1
0
LINE
5
231
100
AcDbEntity
8
2
62
256
6
ByLayer
370
13
48
1
60
0
100
AcDbLine
10
71.517997
20
-6.174998
30
0
11
70.682003
21
-6.175002
31
0
39
0
210
0
220
0
230
1
0
LINE
5
232
100
AcDbEntity
8
2
62
256
6
ByLayer
370
13
48
1
60
0
100
AcDbLine
10
71.1
20
0
30
0
11
70.682003
21
3.174998
31
0
39
0
210
0
220
0
230
1
0
LINE
5
233
100
AcDbEntity
8
2
62
256
6
ByLayer
370
13
48
1
60
0
100
AcDbLine
10
71.1
20
0
30
0
11
71.517997
21
3.175002
31
0
39
0
210
0
220
0
230
1
0
LINE
5
234
100
AcDbEntity
8
2
62
256
6
ByLayer
370
13
48
1
60
0
100
AcDbLine
10
70.682003
20
3.174998
30
0
11
71.517997
21
3.175002
31
0
39
0
210
0
220
0
230
1
0
ENDBLK
5
236
100
AcDbEntity
8
0
100
AcDbBlockEnd
0
ENDSEC
0
SECTION
2
ENTITIES
0
ARC
5
124
100
AcDbEntity
8
1
62
256
6
ByLayer
370
18
48
1
60
0
100
AcDbCircle
39
0
10
-20
20
-3.95
30
0
40
1.60000000000021
210
0
220
0
230
-1
100
AcDbArc
50
0
51
67.560983
0
ARC
5
125
100
AcDbEntity
8
1
62
256
6
ByLayer
370
18
48
1
60
0
100
AcDbCircle
39
0
10
43.2
20
-0.125
30
0
40
0.2
210
0
220
0
230
1
100
AcDbArc
50
120
51
141.318614
0
ARC
5
126
100
AcDbEntity
8
1
62
256
6
ByLayer
370
18
48
1
60
0
100
AcDbCircle
39
0
10
43.2
20
-2.225
30
0
40
0.2
210
0
220
0
230
1
100
AcDbArc
50
218.681386
51
240
0
ELLIPSE
5
127
100
AcDbEntity
8
1
62
256
6
ByLayer
370
18
48
1
60
0
100
AcDbEllipse
10
48.433236
20
-1.175
30
0
11
-3.6738190614673E-17
21
0.600000000000028
31
0
210
0
220
0
230
-1
40
0.087156
41
-2.79781155762737
42
-0.343781095962431
0
ELLIPSE
5
128
100
AcDbEntity
8
1
62
256
6
ByLayer
370
18
48
1
60
0
100
AcDbEllipse
10
48.002042
20
-1.175
30
0
11
1.22702733225076
21
1.24008174362614E-15
31
0
210
0
220
0
230
-1
40
0.488987
41
1.22701523083266
42
-1.22701523083266
0
ELLIPSE
5
129
100
AcDbEntity
8
1
62
256
6
ByLayer
370
18
48
1
60
0
100
AcDbEllipse
10
52.999962
20
-79.865791
30
0
11
2.29518752541998E-05
21
129.128845436969
31
0
210
0
220
0
230
-1
40
0.267949
41
-0.980577021685537
42
-0.961544514549417
0
ELLIPSE
5
12A
100
AcDbEntity
8
1
62
256
6
ByLayer
370
18
48
1
60
0
100
AcDbEllipse
10
21.8
20
0
30
0
11
3.17698521240803E-09
21
-9.33012698969653
31
0
210
0
220
0
230
-1
40
0.267949
41
1.3027415446956
42
1.409326066806
0
ELLIPSE
5
12B
100
AcDbEntity
8
1
62
256
6
ByLayer
370
13
48
1
60
0
100
AcDbEllipse
10
45.308132
20
0.094586
30
0
11
0.998914191752623
21
-0.22603230647793
31
0
210
0
220
0
230
-1
40
0.206112
41
1.99506909481781
42
2.24548541567933
0
ELLIPSE
5
12C
100
AcDbEntity
8
1
62
256
6
ByLayer
370
13
48
1
60
0
100
AcDbEllipse
10
52.37413
20
-1.175
30
0
11
-7.38495814331257
21
9.04366666501288E-16
31
0
210
0
220
0
230
1
40
0.121869
41
1.16456723893879
42
1.18682389135614
0
ELLIPSE
5
12D
100
AcDbEntity
8
1
62
256
6
ByLayer
370
13
48
1
60
0
100
AcDbEllipse
10
50.228622
20
-2.234701
30
0
11
-0.0129780832447763
21
0.239648845929397
31
0
210
0
220
0
230
1
40
0.707925
41
-1.55967335367816
42
-0.878821726712002
0
ELLIPSE
5
12E
100
AcDbEntity
8
1
62
256
6
ByLayer
370
13
48
1
60
0
100
AcDbEllipse
10
52.37413
20
-1.175
30
0
11
-7.38495814331257
21
9.04366666501288E-16
31
0
210
0
220
0
230
1
40
0.121869
41
-1.18682389135614
42
-1.16456723893881
0
ELLIPSE
5
12F
100
AcDbEntity
8
1
62
256
6
ByLayer
370
13
48
1
60
0
100
AcDbEllipse
10
50.228622
20
-0.115299
30
0
11
-0.0129780832447765
21
-0.239648845929397
31
0
210
0
220
0
230
1
40
0.707925
41
0.878821726712159
42
1.55967335367816
0
ELLIPSE
5
130
100
AcDbEntity
8
1
62
256
6
ByLayer
370
13
48
1
60
0
100
AcDbEllipse
10
51.458781
20
-2.356166
30
0
11
0.0322705528359686
21
0.237820544570188
31
0
210
0
220
0
230
1
40
0.009402
41
0.684082575272994
42
1.5016181525345
0
ELLIPSE
5
131
100
AcDbEntity
8
1
62
256
6
ByLayer
370
13
48
1
60
0
100
AcDbEllipse
10
51.458781
20
0.006166
30
0
11
0.0322705528359684
21
-0.237820544570188
31
0
210
0
220
0
230
1
40
0.009402
41
-1.50161815253494
42
-0.68408257526808
0
ELLIPSE
5
132
100
AcDbEntity
8
1
62
256
6
ByLayer
370
13
48
1
60
0
100
AcDbEllipse
10
52.37413
20
-1.175
30
0
11
7.34839731618763
21
-1.20956732810478E-09
31
0
210
0
220
0
230
-1
40
0.08165
41
1.95476876121944
42
2.00162049103906
0
ELLIPSE
5
133
100
AcDbEntity
8
1
62
256
6
ByLayer
370
13
48
1
60
0
100
AcDbEllipse
10
49.986644
20
-1.175
30
0
11
1.63150680794286
21
4.79677586802526E-10
31
0
210
0
220
0
230
-1
40
0.367758
41
-2.17407423367916
42
-2.00162049139493
0
ELLIPSE
5
134
100
AcDbEntity
8
1
62
256
6
ByLayer
370
13
48
1
60
0
100
AcDbEllipse
10
52.37413
20
-1.175
30
0
11
7.34839759090703
21
-1.2934935609318E-08
31
0
210
0
220
0
230
-1
40
0.08165
41
-2.00162050203796
42
-1.95476877373561
0
ELLIPSE
5
135
100
AcDbEntity
8
1
62
256
6
ByLayer
370
13
48
1
60
0
100
AcDbEllipse
10
49.986644
20
-1.175
30
0
11
1.63150680881653
21
-2.22260198376492E-10
31
0
210
0
220
0
230
-1
40
0.367758
41
2.00162049167651
42
2.17407423388484
0
ELLIPSE
5
136
100
AcDbEntity
8
1
62
256
6
ByLayer
370
13
48
1
60
0
100
AcDbEllipse
10
50.123829
20
-2.236383
30
0
11
0.108239299206501
21
-0.214206101937563
31
0
210
0
220
0
230
1
40
0.678671
41
1.29279293091362
42
1.84879976311956
0
ELLIPSE
5
137
100
AcDbEntity
8
1
62
256
6
ByLayer
370
13
48
1
60
0
100
AcDbEllipse
10
50.123829
20
-0.113617
30
0
11
0.108239299206501
21
0.214206101937563
31
0
210
0
220
0
230
1
40
0.678671
41
-1.8487997631195
42
-1.29279293091366
0
ELLIPSE
5
138
100
AcDbEntity
8
1
62
256
6
ByLayer
370
13
48
1
60
0
100
AcDbEllipse
10
49.859452
20
-1.996836
30
0
11
0.219354463278088
21
0.119931728245622
31
0
210
0
220
0
230
1
40
0.441633
41
0.600579851753418
42
1.30662817391558
0
ELLIPSE
5
139
100
AcDbEntity
8
1
62
256
6
ByLayer
370
13
48
1
60
0
100
AcDbEllipse
10
49.859452
20
-0.353164
30
0
11
-0.219354463278086
21
0.119931728245626
31
0
210
0
220
0
230
1
40
0.441633
41
1.83496447967433
42
2.54101280183643
0
ELLIPSE
5
13A
100
AcDbEntity
8
1
62
256
6
ByLayer
370
13
48
1
60
0
100
AcDbEllipse
10
49.295115
20
-1.901897
30
0
11
-0.0433548151255266
21
-0.195244359727577
31
0
210
0
220
0
230
1
40
0.334809
41
-2.68611088405473
42
-1.49658713340602
0
ELLIPSE
5
13B
100
AcDbEntity
8
1
62
256
6
ByLayer
370
13
48
1
60
0
100
AcDbEllipse
10
49.295115
20
-0.448103
30
0
11
-0.0433548151255279
21
0.195244359727577
31
0
210
0
220
0
230
1
40
0.334809
41
1.49658713340602
42
2.68611088405468
0
ELLIPSE
5
13C
100
AcDbEntity
8
1
62
256
6
ByLayer
370
13
48
1
60
0
100
AcDbEllipse
10
49.91824
20
-1.175
30
0
11
1.65588067708118
21
-5.13249313713353E-10
31
0
210
0
220
0
230
-1
40
0.483127
41
2.0016204914709
42
2.17407423371254
0
ELLIPSE
5
13D
100
AcDbEntity
8
1
62
256
6
ByLayer
370
13
48
1
60
0
100
AcDbEllipse
10
49.91824
20
-1.175
30
0
11
1.6558806804402
21
-9.57082437669122E-10
31
0
210
0
220
0
230
-1
40
0.483127
41
-2.17407423471452
42
-2.00162049275176
0
ELLIPSE
5
13E
100
AcDbEntity
8
1
62
256
6
ByLayer
370
13
48
1
60
0
100
AcDbEllipse
10
50.125564
20
-0.113978
30
0
11
0.00742724597932567
21
-0.239885047506431
31
0
210
0
220
0
230
1
40
0.70617
41
0.846393084122576
42
1.49951821957463
0
ELLIPSE
5
13F
100
AcDbEntity
8
1
62
256
6
ByLayer
370
13
48
1
60
0
100
AcDbEllipse
10
50.125564
20
-2.236022
30
0
11
0.00742724597932594
21
0.239885047506431
31
0
210
0
220
0
230
1
40
0.70617
41
-1.49951821957463
42
-0.84639308412265
0
ELLIPSE
5
140
100
AcDbEntity
8
1
62
256
6
ByLayer
370
13
48
1
60
0
100
AcDbEllipse
10
49.047188
20
-1.833784
30
0
11
-0.0631638165780187
21
-0.189763885592856
31
0
210
0
220
0
230
1
40
0.326425
41
-2.50339446299691
42
-1.46256868006916
0
ELLIPSE
5
141
100
AcDbEntity
8
1
62
256
6
ByLayer
370
13
48
1
60
0
100
AcDbEllipse
10
49.047188
20
-0.516216
30
0
11
-0.0631638165785345
21
0.189763885592684
31
0
210
0
220
0
230
1
40
0.326425
41
1.46256868006823
42
2.5033944629921
0
ELLIPSE
5
142
100
AcDbEntity
8
1
62
256
6
ByLayer
370
13
48
1
60
0
100
AcDbEllipse
10
49.850683
20
-0.340535
30
0
11
-0.195064510201765
21
-0.227925068519778
31
0
210
0
220
0
230
1
40
0.863833
41
0.830178756051656
42
1.49289835248477
0
ELLIPSE
5
143
100
AcDbEntity
8
1
62
256
6
ByLayer
370
13
48
1
60
0
100
AcDbEllipse
10
49.850683
20
-2.009465
30
0
11
0.19506451020176
21
-0.227925068519783
31
0
210
0
220
0
230
1
40
0.863833
41
1.64869430110507
42
2.31141389753819
0
ELLIPSE
5
144
100
AcDbEntity
8
1
62
256
6
ByLayer
370
13
48
1
60
0
100
AcDbEllipse
10
48.950966
20
-1.872967
30
0
11
0.182866340278506
21
-0.0809932194269721
31
0
210
0
220
0
230
1
40
0.14582
41
-2.77286095187745
42
-1.88885149068674
0
ELLIPSE
5
145
100
AcDbEntity
8
1
62
256
6
ByLayer
370
13
48
1
60
0
100
AcDbEllipse
10
48.950966
20
-0.477033
30
0
11
0.182866340278443
21
0.0809932194271139
31
0
210
0
220
0
230
1
40
0.14582
41
1.88885149068663
42
2.77286095187536
0
ELLIPSE
5
146
100
AcDbEntity
8
1
62
256
6
ByLayer
370
13
48
1
60
0
100
AcDbEllipse
10
49.902412
20
-0.468067
30
0
11
-0.299757884748935
21
0.0120503332254441
31
0
210
0
220
0
230
1
40
0.786325
41
1.677914350623
42
2.25220990045423
0
ELLIPSE
5
147
100
AcDbEntity
8
1
62
256
6
ByLayer
370
13
48
1
60
0
100
AcDbEllipse
10
49.902412
20
-1.881933
30
0
11
0.299757884748933
21
0.0120503332254954
31
0
210
0
220
0
230
1
40
0.786325
41
0.889382753135412
42
1.46367830296665
0
ELLIPSE
5
148
100
AcDbEntity
8
1
62
256
6
ByLayer
370
13
48
1
60
0
100
AcDbEllipse
10
45.308132
20
0.094586
30
0
11
0.979582052384945
21
-0.301726209244704
31
0
210
0
220
0
230
-1
40
0.270086
41
2.052730745157
42
2.24185105456474
0
ELLIPSE
5
149
100
AcDbEntity
8
1
62
256
6
ByLayer
370
13
48
1
60
0
100
AcDbEllipse
10
48.692326
20
-0.049098
30
0
11
0.0570319130279921
21
-0.138734858259803
31
0
210
0
220
0
230
1
40
0.776494
41
-1.87977830526726
42
-1.56980601158789
0
ELLIPSE
5
14A
100
AcDbEntity
8
1
62
256
6
ByLayer
370
13
48
1
60
0
100
AcDbEllipse
10
48.692326
20
-2.300902
30
0
11
-0.0570319130268965
21
-0.138734858260253
31
0
210
0
220
0
230
1
40
0.776494
41
-1.5717866420083
42
-1.26181434832864
0
ELLIPSE
5
14B
100
AcDbEntity
8
1
62
256
6
ByLayer
370
13
48
1
60
0
100
AcDbEllipse
10
49.08147
20
-1.654243
30
0
11
-0.105329348464613
21
0.280901634655301
31
0
210
0
220
0
230
1
40
0.319781
41
-1.09012327608129
42
-0.20369511440012
0
ELLIPSE
5
14C
100
AcDbEntity
8
1
62
256
6
ByLayer
370
13
48
1
60
0
100
AcDbEllipse
10
49.08147
20
-0.695757
30
0
11
-0.105329348464631
21
-0.280901634655294
31
0
210
0
220
0
230
1
40
0.319781
41
0.203695114399997
42
1.09012327608113
0
ELLIPSE
5
14D
100
AcDbEntity
8
1
62
256
6
ByLayer
370
13
48
1
60
0
100
AcDbEllipse
10
50.009329
20
-1.463572
30
0
11
-0.263738087060282
21
0.142976296755032
31
0
210
0
220
0
230
1
40
0.337339
41
-2.12742665195261
42
-1.51944467242793
0
ELLIPSE
5
14E
100
AcDbEntity
8
1
62
256
6
ByLayer
370
13
48
1
60
0
100
AcDbEllipse
10
50.009329
20
-0.886428
30
0
11
-0.26373808706239
21
-0.142976296751144
31
0
210
0
220
0
230
1
40
0.337339
41
1.51944467242551
42
2.12742665190389
0
ELLIPSE
5
14F
100
AcDbEntity
8
1
62
256
6
ByLayer
370
13
48
1
60
0
100
AcDbEllipse
10
45.308132
20
-2.444586
30
0
11
0.998914191752382
21
0.226032306477915
31
0
210
0
220
0
230
-1
40
0.206112
41
-2.24548541567926
42
-1.9950690948177
0
ELLIPSE
5
150
100
AcDbEntity
8
1
62
256
6
ByLayer
370
13
48
1
60
0
100
AcDbEllipse
10
48.689927
20
-2.300438
30
0
11
4.24912383924225E-17
21
0.15
31
0
210
0
220
0
230
1
40
0.795546
41
1.23482044578598
42
1.5707963267949
0
ELLIPSE
5
151
100
AcDbEntity
8
1
62
256
6
ByLayer
370
13
48
1
60
0
100
AcDbEllipse
10
48.689927
20
-0.049562
30
0
11
4.24912383924225E-17
21
0.15
31
0
210
0
220
0
230
1
40
0.795546
41
1.5707963267949
42
1.90677220780377
0
ELLIPSE
5
152
100
AcDbEntity
8
1
62
256
6
ByLayer
370
13
48
1
60
0
100
AcDbEllipse
10
48.433293
20
-2.300438
30
0
11
-2.75536429610035E-17
21
-0.15
31
0
210
0
220
0
230
1
40
0.34202
41
-1.75278811305915
42
-1.5707963267949
0
ELLIPSE
5
153
100
AcDbEntity
8
1
62
256
6
ByLayer
370
13
48
1
60
0
100
AcDbEllipse
10
48.433293
20
-0.049562
30
0
11
4.24912383924225E-17
21
0.15
31
0
210
0
220
0
230
1
40
0.34202
41
1.5707963267949
42
1.75278811305915
0
ELLIPSE
5
154
100
AcDbEntity
8
1
62
256
6
ByLayer
370
13
48
1
60
0
100
AcDbEllipse
10
48.939982
20
-0.741549
30
0
11
-0.0205626710087509
21
-0.198940133107892
31
0
210
0
220
0
230
1
40
0.702979
41
-1.10867675839074
42
-0.337059544638759
0
ELLIPSE
5
155
100
AcDbEntity
8
1
62
256
6
ByLayer
370
13
48
1
60
0
100
AcDbEllipse
10
48.939982
20
-1.608451
30
0
11
-0.0205626710087514
21
0.198940133107892
31
0
210
0
220
0
230
1
40
0.702979
41
0.337059544638761
42
1.10867675839078
0
ELLIPSE
5
156
100
AcDbEntity
8
1
62
256
6
ByLayer
370
13
48
1
60
0
100
AcDbEllipse
10
49.072352
20
-0.692337
30
0
11
0.1054031629799
21
0.280873945452106
31
0
210
0
220
0
230
1
40
0.321796
41
-2.9370276142004
42
-2.0555182777362
0
ELLIPSE
5
157
100
AcDbEntity
8
1
62
256
6
ByLayer
370
13
48
1
60
0
100
AcDbEllipse
10
49.072352
20
-1.657663
30
0
11
-0.105403162979924
21
0.280873945452097
31
0
210
0
220
0
230
1
40
0.321796
41
-1.08607437585373
42
-0.204565039389376
0
ELLIPSE
5
158
100
AcDbEntity
8
1
62
256
6
ByLayer
370
13
48
1
60
0
100
AcDbEllipse
10
52.147654
20
-2.366357
30
0
11
-0.00560126668057228
21
0.239934628204378
31
0
210
0
220
0
230
1
40
0.172043
41
0.732097455140835
42
1.49800588930574
0
ELLIPSE
5
159
100
AcDbEntity
8
1
62
256
6
ByLayer
370
13
48
1
60
0
100
AcDbEllipse
10
52.147654
20
0.016357
30
0
11
-0.00560126668057245
21
-0.239934628204378
31
0
210
0
220
0
230
1
40
0.172043
41
-1.49800588930574
42
-0.732097455141071
0
ELLIPSE
5
15A
100
AcDbEntity
8
1
62
256
6
ByLayer
370
13
48
1
60
0
100
AcDbEllipse
10
48.931197
20
-0.741064
30
0
11
5.665498452323E-17
21
0.2
31
0
210
0
220
0
230
1
40
0.803713
41
1.90677220780383
42
2.72521072930066
0
ELLIPSE
5
15B
100
AcDbEntity
8
1
62
256
6
ByLayer
370
13
48
1
60
0
100
AcDbEllipse
10
48.931197
20
-1.608936
30
0
11
5.665498452323E-17
21
0.2
31
0
210
0
220
0
230
1
40
0.803713
41
0.416381924289133
42
1.23482044578597
0
ELLIPSE
5
15C
100
AcDbEntity
8
1
62
256
6
ByLayer
370
13
48
1
60
0
100
AcDbEllipse
10
48.533999
20
-1.608936
30
0
11
-3.67381906146713E-17
21
-0.2
31
0
210
0
220
0
230
1
40
0.34202
41
-2.72521072930056
42
-1.90677220780379
0
ELLIPSE
5
15D
100
AcDbEntity
8
1
62
256
6
ByLayer
370
13
48
1
60
0
100
AcDbEllipse
10
48.533999
20
-0.741064
30
0
11
5.665498452323E-17
21
0.2
31
0
210
0
220
0
230
1
40
0.34202
41
1.90677220780379
42
2.72521072930055
0
ELLIPSE
5
15E
100
AcDbEntity
8
1
62
256
6
ByLayer
370
13
48
1
60
0
100
AcDbEllipse
10
52.752853
20
-0.253833
30
0
11
-0.0533981556875966
21
-0.0845496124719871
31
0
210
0
220
0
230
1
40
0.139768
41
0.74002396527556
42
1.57717485146108
0
ELLIPSE
5
15F
100
AcDbEntity
8
1
62
256
6
ByLayer
370
13
48
1
60
0
100
AcDbEllipse
10
52.913527
20
-0.40331
30
0
11
-0.0833341889559589
21
-0.0552757899179428
31
0
210
0
220
0
230
1
40
0.125151
41
1.00888984397383
42
1.63388084261222
0
ELLIPSE
5
160
100
AcDbEntity
8
1
62
256
6
ByLayer
370
13
48
1
60
0
100
AcDbEllipse
10
52.752853
20
-2.096167
30
0
11
-0.0533981556875966
21
0.0845496124719871
31
0
210
0
220
0
230
1
40
0.139768
41
-1.57717485146108
42
-0.740023965274826
0
ELLIPSE
5
161
100
AcDbEntity
8
1
62
256
6
ByLayer
370
13
48
1
60
0
100
AcDbEllipse
10
52.913527
20
-1.94669
30
0
11
-0.0833341889559588
21
0.0552757899179428
31
0
210
0
220
0
230
1
40
0.125151
41
-1.63388084261194
42
-1.00888984397341
0
ELLIPSE
5
162
100
AcDbEntity
8
1
62
256
6
ByLayer
370
13
48
1
60
0
100
AcDbEllipse
10
52.258678
20
-0.585924
30
0
11
0.014829333617164
21
-0.399725019062444
31
0
210
0
220
0
230
1
40
0.406503
41
1.5557166718563
42
2.33595515067479
0
ELLIPSE
5
163
100
AcDbEntity
8
1
62
256
6
ByLayer
370
13
48
1
60
0
100
AcDbEllipse
10
52.258678
20
-1.764076
30
0
11
0.0148293336171642
21
0.399725019062444
31
0
210
0
220
0
230
1
40
0.406503
41
-2.33595515067479
42
-1.5557166718563
0
ELLIPSE
5
164
100
AcDbEntity
8
1
62
256
6
ByLayer
370
13
48
1
60
0
100
AcDbEllipse
10
52.620403
20
-0.171743
30
0
11
-0.0518341759381039
21
-0.0855173561612945
31
0
210
0
220
0
230
1
40
0.13986
41
0.73631195470014
42
1.57460332353069
0
ELLIPSE
5
165
100
AcDbEntity
8
1
62
256
6
ByLayer
370
13
48
1
60
0
100
AcDbEllipse
10
52.523358
20
-0.09437
30
0
11
-0.0777628762498878
21
-0.0628723713354652
31
0
210
0
220
0
230
1
40
0.13045
41
1.15581636427993
42
1.62182792903077
0
ELLIPSE
5
166
100
AcDbEntity
8
1
62
256
6
ByLayer
370
13
48
1
60
0
100
AcDbEllipse
10
52.523358
20
-2.25563
30
0
11
-0.0777628762498878
21
0.0628723713354653
31
0
210
0
220
0
230
1
40
0.13045
41
-1.62182792903091
42
-1.15581636427946
0
ELLIPSE
5
167
100
AcDbEntity
8
1
62
256
6
ByLayer
370
13
48
1
60
0
100
AcDbEllipse
10
52.620403
20
-2.178257
30
0
11
-0.0518341759381039
21
0.0855173561612945
31
0
210
0
220
0
230
1
40
0.13986
41
-1.57460332353076
42
-0.736311954700232
0
ELLIPSE
5
168
100
AcDbEntity
8
1
62
256
6
ByLayer
370
13
48
1
60
0
100
AcDbEllipse
10
51.758781
20
0.020151
30
0
11
-0.0082466205512047
21
-0.239858277425409
31
0
210
0
220
0
230
1
40
0.002403
41
0.709373157668883
42
1.50102444918727
0
ELLIPSE
5
169
100
AcDbEntity
8
1
62
256
6
ByLayer
370
13
48
1
60
0
100
AcDbEllipse
10
51.758781
20
-2.370151
30
0
11
-0.00824662055120453
21
0.239858277425409
31
0
210
0
220
0
230
1
40
0.002403
41
-1.50102444918894
42
-0.7093731576691
0
ELLIPSE
5
16A
100
AcDbEntity
8
1
62
256
6
ByLayer
370
13
48
1
60
0
100
AcDbEllipse
10
48.782996
20
0.905141
30
0
11
5.665498452323E-16
21
2
31
0
210
0
220
0
230
1
40
0.34202
41
2.72521072930061
42
2.79252680319094
0
ELLIPSE
5
16B
100
AcDbEntity
8
1
62
256
6
ByLayer
370
13
48
1
60
0
100
AcDbEllipse
10
48.782996
20
-3.255141
30
0
11
-3.67381906146713E-16
21
-2
31
0
210
0
220
0
230
1
40
0.34202
41
-2.79252680319094
42
-2.72521072930061
0
ELLIPSE
5
16C
100
AcDbEntity
8
1
62
256
6
ByLayer
370
13
48
1
60
0
100
AcDbEllipse
10
52.935862
20
-0.43793
30
0
11
-0.0846493904271157
21
-0.0532398412874958
31
0
210
0
220
0
230
1
40
0.065231
41
1.04577954889702
42
1.67414184501564
0
ELLIPSE
5
16D
100
AcDbEntity
8
1
62
256
6
ByLayer
370
13
48
1
60
0
100
AcDbEllipse
10
52.935862
20
-1.91207
30
0
11
-0.0846493904271157
21
0.0532398412874958
31
0
210
0
220
0
230
1
40
0.065231
41
-1.67414184501535
42
-1.04577954889694
0
ELLIPSE
5
16E
100
AcDbEntity
8
1
62
256
6
ByLayer
370
13
48
1
60
0
100
AcDbEllipse
10
48.527689
20
-1.175
30
0
11
5.94877337493915E-17
21
0.21
31
0
210
0
220
0
230
1
40
0.34202
41
-2.7925268031909
42
-0.349065850398889
0
ELLIPSE
5
16F
100
AcDbEntity
8
1
62
256
6
ByLayer
370
13
48
1
60
0
100
AcDbEllipse
10
45.308132
20
-2.444586
30
0
11
0.979582052565608
21
0.301726209261938
31
0
210
0
220
0
230
-1
40
0.270086
41
-2.24185105461594
42
-2.05273074523436
0
ELLIPSE
5
170
100
AcDbEntity
8
1
62
256
6
ByLayer
370
18
48
1
60
0
100
AcDbEllipse
10
52.506337
20
-2.648303
30
0
11
0.239997045595352
21
-0.0169489930400576
31
0
210
0
220
0
230
-1
40
0.070266
41
1.44395567164654
42
1.73995037592155
0
ELLIPSE
5
171
100
AcDbEntity
8
1
62
256
6
ByLayer
370
18
48
1
60
0
100
AcDbEllipse
10
53.048748
20
-1.91207
30
0
11
1.1330996904646E-16
21
0.4
31
0
210
0
220
0
230
1
40
0.121869
41
1.5707963267949
42
1.64009079051255
0
ELLIPSE
5
172
100
AcDbEntity
8
1
62
256
6
ByLayer
370
18
48
1
60
0
100
AcDbEllipse
10
53.048748
20
-0.43793
30
0
11
1.1330996904646E-16
21
0.4
31
0
210
0
220
0
230
1
40
0.121869
41
1.50150186307725
42
1.5707963267949
0
ELLIPSE
5
173
100
AcDbEntity
8
1
62
256
6
ByLayer
370
18
48
1
60
0
100
AcDbEllipse
10
49.542652
20
0.275
30
0
11
0.201946432116473
21
0
31
0
210
0
220
0
230
1
40
0.990362
41
-1.5707963267949
42
-1.04299365512072
0
ELLIPSE
5
174
100
AcDbEntity
8
1
62
256
6
ByLayer
370
18
48
1
60
0
100
AcDbEllipse
10
50.136306
20
-2.516309
30
0
11
0.251841921975733
21
-0.0177818623368713
31
0
210
0
220
0
230
-1
40
0.06924
41
0.774400198844394
42
1.56101782178551
0
ELLIPSE
5
175
100
AcDbEntity
8
1
62
256
6
ByLayer
370
18
48
1
60
0
100
AcDbEllipse
10
49.553398
20
-2.625
30
0
11
-0.201490790302156
21
2.46746902040712E-17
31
0
210
0
220
0
230
1
40
0.992601
41
-2.09761674342106
42
-1.5707963267949
0
ELLIPSE
5
176
100
AcDbEntity
8
1
62
256
6
ByLayer
370
18
48
1
60
0
100
AcDbEllipse
10
50.136306
20
0.166309
30
0
11
0.251841922000458
21
0.0177818623397897
31
0
210
0
220
0
230
-1
40
0.06924
41
-1.56101782171687
42
-0.774400198845635
0
ELLIPSE
5
177
100
AcDbEntity
8
1
62
256
6
ByLayer
370
18
48
1
60
0
100
AcDbEllipse
10
52.506337
20
0.298303
30
0
11
0.239997046142839
21
0.0169489930766985
31
0
210
0
220
0
230
-1
40
0.070266
41
-1.73995037565252
42
-1.44395567205715
0
ELLIPSE
5
178
100
AcDbEntity
8
1
62
256
6
ByLayer
370
18
48
1
60
0
100
AcDbEllipse
10
49.79757
20
-0.040831
30
0
11
0.058624730201206
21
-0.191752852286547
31
0
210
0
220
0
230
1
40
0.997435
41
2.91526219766618
42
-2.91526219766617
0
ELLIPSE
5
179
100
AcDbEntity
8
1
62
256
6
ByLayer
370
18
48
1
60
0
100
AcDbEllipse
10
49.809275
20
-2.309987
30
0
11
0.00297293931671267
21
0.200467814146891
31
0
210
-8.0188391910484E-21
220
-5.40717113056455E-19
230
1
40
0.997557
41
2.63386280411413
42
3.08674247812915
0
POINT
5
6C
100
AcDbEntity
8
81
62
256
6
ByLayer
370
18
48
1
60
0
100
AcDbPoint
10
53
20
-3
30
0
39
0
210
0
220
0
230
1
50
360
0
POINT
5
6E
100
AcDbEntity
8
80
62
256
6
ByLayer
370
18
48
1
60
0
100
AcDbPoint
10
0
20
0
30
0
39
0
210
0
220
0
230
1
50
360
0
SPLINE
5
17A
100
AcDbEntity
8
1
62
256
6
ByLayer
370
18
48
1
60
0
100
AcDbSpline
70
4
71
3
72
10
73
6
40
0
40
0
40
0
40
0
40
0.60431276497747
40
0.60431276497747
40
1
40
1
40
1
40
1
41
1
10
19.3892801917879
20
-2.47114188785895
30
0
41
1
10
19.4553977534213
20
-2.44383750738552
30
0
41
1
10
19.5585492723676
20
-2.40601842231718
30
0
41
1
10
19.7815999108984
20
-2.36240488684524
30
0
41
1
10
19.8850783788532
20
-2.35000000000406
30
0
41
1
10
20
20
-2.35000000000406
30
0
0
SPLINE
5
17B
100
AcDbEntity
8
1
62
256
6
ByLayer
370
18
48
1
60
0
100
AcDbSpline
70
4
71
3
72
18
73
14
40
0
40
0
40
0
40
0
40
0.202428872747311
40
0.202428872747311
40
0.404682506235557
40
0.404682506235557
40
0.610843504732809
40
0.610843504732809
40
0.826138810184947
40
0.826138810184947
40
0.995915874828917
40
0.995915874828917
40
1
40
1
40
1
40
1
41
1
10
24.6253634384509
20
-3.95000000000403
30
0
41
1
10
24.6253634384509
20
-3.77712563148322
30
0
41
1
10
24.6542513845412
20
-3.60187186859341
30
0
41
1
10
24.764129542554
20
-3.27593536895105
30
0
41
1
10
24.8464905723064
20
-3.12082569682386
30
0
41
1
10
25.0531944914372
20
-2.84728488393446
30
0
41
1
10
25.1809626177274
20
-2.72595929236221
30
0
41
1
10
25.4684264756116
20
-2.52918944240037
30
0
41
1
10
25.6330547602265
20
-2.45331849665081
30
0
41
1
10
25.9368915198004
20
-2.37006746335706
30
0
41
1
10
26.0766567087381
20
-2.35089453122663
30
0
41
1
10
26.2187248407452
20
-2.35001032909463
30
0
41
1
10
26.2220441338429
20
-2.35000000000406
30
0
41
1
10
26.225363438451
20
-2.35000000000406
30
0
0
SPLINE
5
17C
100
AcDbEntity
8
1
62
256
6
ByLayer
370
13
48
1
60
0
100
AcDbSpline
70
4
71
3
72
10
73
6
40
0
40
0
40
0
40
0
40
0.664993946719532
40
0.664993946719532
40
1
40
1
40
1
40
1
41
1
10
50.031795236158
20
-1.82373631095726
30
0
41
1
10
50.0544008183665
20
-1.80290972923808
30
0
41
1
10
50.071972629713
20
-1.77706539777381
30
0
41
1
10
50.0836688596485
20
-1.72878934754306
30
0
41
1
10
50.0849134160383
20
-1.71060891555251
30
0
41
1
10
50.0838678419132
20
-1.69127328434706
30
0
0
SPLINE
5
17D
100
AcDbEntity
8
1
62
256
6
ByLayer
370
13
48
1
60
0
100
AcDbSpline
70
4
71
3
72
12
73
8
40
0
40
0
40
0
40
0
40
0.274450233641753
40
0.274450233641753
40
0.728710906931613
40
0.728710906931613
40
1
40
1
40
1
40
1
41
1
10
51.1146869282979
20
-1.9943842198353
30
0
41
1
10
51.0122143236957
20
-1.96390493442627
30
0
41
1
10
50.909497462749
20
-1.93355761374457
30
0
41
1
10
50.6439453836002
20
-1.85542241402206
30
0
41
1
10
50.4820473482734
20
-1.80812922823648
30
0
41
1
10
50.246079380226
20
-1.73905193177492
30
0
41
1
10
50.1617198878049
20
-1.71448409520451
30
0
41
1
10
50.0838678419132
20
-1.69127328434706
30
0
0
SPLINE
5
17E
100
AcDbEntity
8
1
62
256
6
ByLayer
370
13
48
1
60
0
100
AcDbSpline
70
4
71
3
72
16
73
12
40
0
40
0
40
0
40
0
40
0.0442199247554627
40
0.0442199247554627
40
0.048439955548864
40
0.048439955548864
40
0.216895358525141
40
0.216895358525141
40
0.889245809546153
40
0.889245809546153
40
1
40
1
40
1
40
1
41
1
10
51.8219297662852
20
-2.06629551224896
30
0
41
1
10
51.8113300785451
20
-2.06666524527816
30
0
41
1
10
51.8007291289449
20
-2.06699656770465
30
0
41
1
10
51.7891179461187
20
-2.06740335750666
30
0
41
1
10
51.7881063966876
20
-2.06743892470973
30
0
41
1
10
51.7467182945273
20
-2.06889908341142
30
0
41
1
10
51.7063476610928
20
-2.07079527699591
30
0
41
1
10
51.5067119730517
20
-2.07753871303524
30
0
41
1
10
51.3453726295508
20
-2.05659252540525
30
0
41
1
10
51.1656324617667
20
-2.00911187239902
30
0
41
1
10
51.1400997197492
20
-2.00194295933153
30
0
41
1
10
51.1146869282979
20
-1.99438421983532
30
0
0
SPLINE
5
17F
100
AcDbEntity
8
1
62
256
6
ByLayer
370
13
48
1
60
0
100
AcDbSpline
70
4
71
3
72
12
73
8
40
0
40
0
40
0
40
0
40
0.609383607480292
40
0.609383607480292
40
0.614539779329414
40
0.614539779329414
40
1
40
1
40
1
40
1
41
1
10
52.3656057053218
20
-2.04529373551333
30
0
41
1
10
52.2600213620049
20
-2.04964674766336
30
0
41
1
10
52.1496097970342
20
-2.05397620064161
30
0
41
1
10
52.0373081383666
20
-2.05824771277219
30
0
41
1
10
52.0363601843113
20
-2.05828376790896
30
0
41
1
10
51.9647049543389
20
-2.06100906692416
30
0
41
1
10
51.8932165299022
20
-2.06380892286074
30
0
41
1
10
51.8219297662852
20
-2.06629551224896
30
0
0
SPLINE
5
180
100
AcDbEntity
8
1
62
256
6
ByLayer
370
13
48
1
60
0
100
AcDbSpline
70
4
71
3
72
12
73
8
40
0
40
0
40
0
40
0
40
0.178891096392299
40
0.178891096392299
40
0.986291642516443
40
0.986291642516443
40
1
40
1
40
1
40
1
41
1
10
52.7213895076228
20
-2.02869877703776
30
0
41
1
10
52.7003115269679
20
-2.02953511808491
30
0
41
1
10
52.6792221384665
20
-2.03037813843483
30
0
41
1
10
52.5629014296376
20
-2.03506683050637
30
0
41
1
10
52.4679540502601
20
-2.04071049280026
30
0
41
1
10
52.3689156735317
20
-2.04515426893457
30
0
41
1
10
52.3672607449414
20
-2.04522550184018
30
0
41
1
10
52.3656057053218
20
-2.04529373551333
30
0
0
SPLINE
5
181
100
AcDbEntity
8
1
62
256
6
ByLayer
370
13
48
1
60
0
100
AcDbSpline
70
4
71
3
72
8
73
4
40
0
40
0
40
0
40
0
40
1
40
1
40
1
40
1
41
1
10
52.5900286630425
20
-2.11002396633566
30
0
41
1
10
52.634090020669
20
-2.08336099842882
30
0
41
1
10
52.6778395366007
20
-2.05618417988126
30
0
41
1
10
52.7213895076228
20
-2.02869877703776
30
0
0
SPLINE
5
182
100
AcDbEntity
8
1
62
256
6
ByLayer
370
13
48
1
60
0
100
AcDbSpline
70
4
71
3
72
8
73
4
40
0
40
0
40
0
40
0
40
1
40
1
40
1
40
1
41
1
10
52.1158957172693
20
-2.18854421216207
30
0
41
1
10
52.2755545267195
20
-2.18802779994411
30
0
41
1
10
52.4354150796997
20
-2.15383505077207
30
0
41
1
10
52.5900286630425
20
-2.11002396633566
30
0
0
SPLINE
5
183
100
AcDbEntity
8
1
62
256
6
ByLayer
370
13
48
1
60
0
100
AcDbSpline
70
4
71
3
72
8
73
4
40
0
40
0
40
0
40
0
40
1
40
1
40
1
40
1
41
1
10
51.7528986418118
20
-2.18814053186924
30
0
41
1
10
51.8744062234275
20
-2.18409037630639
30
0
41
1
10
51.9966210532666
20
-2.18893000292607
30
0
41
1
10
52.1158957172706
20
-2.18854421216392
30
0
0
SPLINE
5
184
100
AcDbEntity
8
1
62
256
6
ByLayer
370
13
48
1
60
0
100
AcDbSpline
70
4
71
3
72
8
73
4
40
0
40
0
40
0
40
0
40
1
40
1
40
1
40
1
41
1
10
51.4823771357602
20
-2.17166327692195
30
0
41
1
10
51.5716495580755
20
-2.18536485825456
30
0
41
1
10
51.6625883571386
20
-2.19115080247977
30
0
41
1
10
51.7528986418104
20
-2.18814053186964
30
0
0
SPLINE
5
185
100
AcDbEntity
8
1
62
256
6
ByLayer
370
13
48
1
60
0
100
AcDbSpline
70
4
71
3
72
14
73
10
40
0
40
0
40
0
40
0
40
0.102691686735347
40
0.102691686735347
40
0.53816841361549
40
0.53816841361549
40
0.926474667639871
40
0.926474667639871
40
1
40
1
40
1
40
1
41
1
10
50.3509720530679
20
-2.07471618844969
30
0
41
1
10
50.380893999408
20
-2.07147330533098
30
0
41
1
10
50.4122711139628
20
-2.06926833866484
30
0
41
1
10
50.5807977171794
20
-2.06258561178825
30
0
41
1
10
50.742161843352
20
-2.07290023917017
30
0
41
1
10
51.0640413220708
20
-2.10746605465408
30
0
41
1
10
51.2272620626367
20
-2.13094504470948
30
0
41
1
10
51.4201021624027
20
-2.16204198800475
30
0
41
1
10
51.4512578164011
20
-2.16688706637265
30
0
41
1
10
51.4823771357602
20
-2.17166327692183
30
0
0
SPLINE
5
186
100
AcDbEntity
8
1
62
256
6
ByLayer
370
13
48
1
60
0
100
AcDbSpline
70
4
71
3
72
8
73
4
40
0
40
0
40
0
40
0
40
1
40
1
40
1
40
1
41
1
10
50.2573483090604
20
-2.08098072546741
30
0
41
1
10
50.2886707932501
20
-2.08031437730622
30
0
41
1
10
50.3198681643654
20
-2.07808716821327
30
0
41
1
10
50.3509720530679
20
-2.07471618844969
30
0
0
SPLINE
5
187
100
AcDbEntity
8
1
62
256
6
ByLayer
370
13
48
1
60
0
100
AcDbSpline
70
4
71
3
72
10
73
6
40
0
40
0
40
0
40
0
40
0.436659189793396
40
0.436659189793396
40
1
40
1
40
1
40
1
41
1
10
50.0305156049706
20
-1.86872882913744
30
0
41
1
10
50.0626760675876
20
-1.90051322201691
30
0
41
1
10
50.0951835994714
20
-1.9319513132946
30
0
41
1
10
50.1705662077347
20
-2.00296696046428
30
0
41
1
10
50.2138220700955
20
-2.04217453485711
30
0
41
1
10
50.2573483090634
20
-2.08098072546812
30
0
0
SPLINE
5
188
100
AcDbEntity
8
1
62
256
6
ByLayer
370
13
48
1
60
0
100
AcDbSpline
70
4
71
3
72
10
73
6
40
0
40
0
40
0
40
0
40
0.73561768390405
40
0.73561768390405
40
1
40
1
40
1
40
1
41
1
10
50.0305156049706
20
-1.86872882913741
30
0
41
1
10
50.0246851208416
20
-1.86296652402262
30
0
41
1
10
50.0191348692197
20
-1.85665398777607
30
0
41
1
10
50.01316259116
20
-1.84787701107075
30
0
41
1
10
50.0117118978094
20
-1.84549524638612
30
0
41
1
10
50.0104895579181
20
-1.84314594589188
30
0
0
SPLINE
5
189
100
AcDbEntity
8
1
62
256
6
ByLayer
370
13
48
1
60
0
100
AcDbSpline
70
4
71
3
72
8
73
4
40
0
40
0
40
0
40
0
40
1
40
1
40
1
40
1
41
1
10
50.0104895579211
20
-1.84314594588849
30
0
41
1
10
50.0176603296031
20
-1.83668335254313
30
0
41
1
10
50.0247646325939
20
-1.83021362431779
30
0
41
1
10
50.031795236158
20
-1.82373631095726
30
0
0
SPLINE
5
18A
100
AcDbEntity
8
1
62
256
6
ByLayer
370
13
48
1
60
0
100
AcDbSpline
70
4
71
3
72
12
73
8
40
0
40
0
40
0
40
0
40
0.233793069268613
40
0.233793069268613
40
0.849542984529965
40
0.849542984529965
40
1
40
1
40
1
40
1
41
1
10
50.010489557929
20
-0.506854054103513
30
0
41
1
10
50.0115678802707
20
-0.504781551005948
30
0
41
1
10
50.0128235703367
20
-0.502684184860868
30
0
41
1
10
50.0177801949081
20
-0.495210827876349
30
0
41
1
10
50.0222297367628
20
-0.489870555254072
30
0
41
1
10
50.0281198492317
20
-0.483674416690207
30
0
41
1
10
50.0293089587678
20
-0.482463707096713
30
0
41
1
10
50.0305156049706
20
-0.481271170862613
30
0
0
SPLINE
5
18B
100
AcDbEntity
8
1
62
256
6
ByLayer
370
13
48
1
60
0
100
AcDbSpline
70
4
71
3
72
10
73
6
40
0
40
0
40
0
40
0
40
0.436659189793399
40
0.436659189793399
40
1
40
1
40
1
40
1
41
1
10
50.0305156049706
20
-0.481271170862613
30
0
41
1
10
50.0626760675876
20
-0.449486777983111
30
0
41
1
10
50.0951835994714
20
-0.418048686705447
30
0
41
1
10
50.1705662077347
20
-0.347033039535745
30
0
41
1
10
50.2138220700955
20
-0.307825465142912
30
0
41
1
10
50.2573483090634
20
-0.269019274531928
30
0
0
SPLINE
5
18C
100
AcDbEntity
8
1
62
256
6
ByLayer
370
13
48
1
60
0
100
AcDbSpline
70
4
71
3
72
8
73
4
40
0
40
0
40
0
40
0
40
1
40
1
40
1
40
1
41
1
10
50.2573483090604
20
-0.269019274532639
30
0
41
1
10
50.2886707932501
20
-0.269685622693828
30
0
41
1
10
50.3198681643654
20
-0.271912831786779
30
0
41
1
10
50.3509720530679
20
-0.275283811550338
30
0
0
SPLINE
5
18D
100
AcDbEntity
8
1
62
256
6
ByLayer
370
13
48
1
60
0
100
AcDbSpline
70
4
71
3
72
14
73
10
40
0
40
0
40
0
40
0
40
0.102691686735347
40
0.102691686735347
40
0.53816841361549
40
0.53816841361549
40
0.926474667639871
40
0.926474667639871
40
1
40
1
40
1
40
1
41
1
10
50.3509720530679
20
-0.275283811550338
30
0
41
1
10
50.380893999408
20
-0.278526694669068
30
0
41
1
10
50.4122711139628
20
-0.280731661335182
30
0
41
1
10
50.5807977171794
20
-0.2874143882118
30
0
41
1
10
50.742161843352
20
-0.277099760829856
30
0
41
1
10
51.0640413220708
20
-0.24253394534594
30
0
41
1
10
51.2272620626367
20
-0.219054955290574
30
0
41
1
10
51.4201021624027
20
-0.187958011995306
30
0
41
1
10
51.4512578164011
20
-0.183112933627399
30
0
41
1
10
51.4823771357602
20
-0.178336723078218
30
0
0
SPLINE
5
18E
100
AcDbEntity
8
1
62
256
6
ByLayer
370
13
48
1
60
0
100
AcDbSpline
70
4
71
3
72
8
73
4
40
0
40
0
40
0
40
0
40
1
40
1
40
1
40
1
41
1
10
51.4823771357602
20
-0.178336723078104
30
0
41
1
10
51.5716495580755
20
-0.164635141745492
30
0
41
1
10
51.6625883571386
20
-0.158849197520254
30
0
41
1
10
51.7528986418104
20
-0.161859468130388
30
0
0
SPLINE
5
18F
100
AcDbEntity
8
1
62
256
6
ByLayer
370
13
48
1
60
0
100
AcDbSpline
70
4
71
3
72
8
73
4
40
0
40
0
40
0
40
0
40
1
40
1
40
1
40
1
41
1
10
51.7528986418118
20
-0.161859468130814
30
0
41
1
10
51.8744062234275
20
-0.165909623693665
30
0
41
1
10
51.9966210532666
20
-0.16106999707398
30
0
41
1
10
52.1158957172706
20
-0.161455787836104
30
0
0
SPLINE
5
190
100
AcDbEntity
8
1
62
256
6
ByLayer
370
13
48
1
60
0
100
AcDbSpline
70
4
71
3
72
8
73
4
40
0
40
0
40
0
40
0
40
1
40
1
40
1
40
1
41
1
10
52.1158957172693
20
-0.161455787837951
30
0
41
1
10
52.2755545267195
20
-0.161972200055942
30
0
41
1
10
52.4354150796997
20
-0.196164949227949
30
0
41
1
10
52.5900286630425
20
-0.239976033664391
30
0
0
SPLINE
5
191
100
AcDbEntity
8
1
62
256
6
ByLayer
370
13
48
1
60
0
100
AcDbSpline
70
4
71
3
72
8
73
4
40
0
40
0
40
0
40
0
40
1
40
1
40
1
40
1
41
1
10
52.5900286630425
20
-0.239976033664391
30
0
41
1
10
52.634090020669
20
-0.266639001571235
30
0
41
1
10
52.6778395366007
20
-0.293815820118795
30
0
41
1
10
52.7213895076228
20
-0.321301222962291
30
0
0
SPLINE
5
192
100
AcDbEntity
8
1
62
256
6
ByLayer
370
13
48
1
60
0
100
AcDbSpline
70
4
71
3
72
12
73
8
40
0
40
0
40
0
40
0
40
0.178891096392299
40
0.178891096392299
40
0.986291642516443
40
0.986291642516443
40
1
40
1
40
1
40
1
41
1
10
52.7213895076228
20
-0.321301222962291
30
0
41
1
10
52.7003115269679
20
-0.320464881915143
30
0
41
1
10
52.6792221384665
20
-0.319621861565224
30
0
41
1
10
52.5629014296376
20
-0.314933169493656
30
0
41
1
10
52.4679540502601
20
-0.309289507199793
30
0
41
1
10
52.3689156735317
20
-0.304845731065484
30
0
41
1
10
52.3672607449414
20
-0.304774498159873
30
0
41
1
10
52.3656057053218
20
-0.304706264486697
30
0
0
SPLINE
5
193
100
AcDbEntity
8
1
62
256
6
ByLayer
370
13
48
1
60
0
100
AcDbSpline
70
4
71
3
72
12
73
8
40
0
40
0
40
0
40
0
40
0.609383607480292
40
0.609383607480292
40
0.614539779329414
40
0.614539779329414
40
1
40
1
40
1
40
1
41
1
10
52.3656057053218
20
-0.304706264486697
30
0
41
1
10
52.2600213620049
20
-0.300353252336691
30
0
41
1
10
52.1496097970342
20
-0.296023799358437
30
0
41
1
10
52.0373081383666
20
-0.291752287227837
30
0
41
1
10
52.0363601843113
20
-0.29171623209109
30
0
41
1
10
51.9647049543389
20
-0.288990933075865
30
0
41
1
10
51.8932165299022
20
-0.286191077139307
30
0
41
1
10
51.8219297662852
20
-0.283704487751066
30
0
0
SPLINE
5
194
100
AcDbEntity
8
1
62
256
6
ByLayer
370
13
48
1
60
0
100
AcDbSpline
70
4
71
3
72
16
73
12
40
0
40
0
40
0
40
0
40
0.0442199247554627
40
0.0442199247554627
40
0.048439955548864
40
0.048439955548864
40
0.216895358525141
40
0.216895358525141
40
0.889245809546153
40
0.889245809546153
40
1
40
1
40
1
40
1
41
1
10
51.8219297662852
20
-0.283704487751066
30
0
41
1
10
51.8113300785451
20
-0.283334754721892
30
0
41
1
10
51.8007291289449
20
-0.283003432295374
30
0
41
1
10
51.7891179461187
20
-0.28259664249336
30
0
41
1
10
51.7881063966876
20
-0.282561075290317
30
0
41
1
10
51.7467182945273
20
-0.281100916588628
30
0
41
1
10
51.7063476610928
20
-0.279204723004142
30
0
41
1
10
51.5067119730517
20
-0.272461286964813
30
0
41
1
10
51.3453726295508
20
-0.293407474594801
30
0
41
1
10
51.1656324617667
20
-0.340888127601033
30
0
41
1
10
51.1400997197492
20
-0.348057040668522
30
0
41
1
10
51.1146869282979
20
-0.355615780164726
30
0
0
SPLINE
5
195
100
AcDbEntity
8
1
62
256
6
ByLayer
370
13
48
1
60
0
100
AcDbSpline
70
4
71
3
72
12
73
8
40
0
40
0
40
0
40
0
40
0.274450233641753
40
0.274450233641753
40
0.728710906931611
40
0.728710906931611
40
1
40
1
40
1
40
1
41
1
10
51.1146869282979
20
-0.355615780164726
30
0
41
1
10
51.0122143236957
20
-0.386095065573784
30
0
41
1
10
50.909497462749
20
-0.416442386255454
30
0
41
1
10
50.6439453836002
20
-0.494577585977993
30
0
41
1
10
50.4820473482734
20
-0.54187077176357
30
0
41
1
10
50.246079380226
20
-0.610948068225099
30
0
41
1
10
50.1617198878049
20
-0.63551590479554
30
0
41
1
10
50.0838678419132
20
-0.658726715652989
30
0
0
SPLINE
5
196
100
AcDbEntity
8
1
62
256
6
ByLayer
370
13
48
1
60
0
100
AcDbSpline
70
4
71
3
72
10
73
6
40
0
40
0
40
0
40
0
40
0.659159716151023
40
0.659159716151023
40
1
40
1
40
1
40
1
41
1
10
50.0838678419132
20
-0.658726715652989
30
0
41
1
10
50.0859020371366
20
-0.621108676246052
30
0
41
1
10
50.0777349617729
20
-0.588740836174338
30
0
41
1
10
50.0536893544428
20
-0.549220693655371
30
0
41
1
10
50.0434984870353
20
-0.537045924533487
30
0
41
1
10
50.031795236158
20
-0.526263689042793
30
0
0
SPLINE
5
197
100
AcDbEntity
8
1
62
256
6
ByLayer
370
13
48
1
60
0
100
AcDbSpline
70
4
71
3
72
8
73
4
40
0
40
0
40
0
40
0
40
1
40
1
40
1
40
1
41
1
10
50.031795236158
20
-0.526263689042793
30
0
41
1
10
50.0247646325939
20
-0.519786375682258
30
0
41
1
10
50.0176603296031
20
-0.513316647456918
30
0
41
1
10
50.0104895579211
20
-0.506854054111557
30
0
0
SPLINE
5
198
100
AcDbEntity
8
1
62
256
6
ByLayer
370
13
48
1
60
0
100
AcDbSpline
70
4
71
3
72
8
73
4
40
0
40
0
40
0
40
0
40
1
40
1
40
1
40
1
41
1
10
50.1169741247547
20
-2.23984469921606
30
0
41
1
10
50.0355486668608
20
-2.17044931961601
30
0
41
1
10
49.9571073551695
20
-2.09752054199439
30
0
41
1
10
49.8804455603128
20
-2.02289619534784
30
0
0
SPLINE
5
199
100
AcDbEntity
8
1
62
256
6
ByLayer
370
13
48
1
60
0
100
AcDbSpline
70
4
71
3
72
8
73
4
40
0
40
0
40
0
40
0
40
1
40
1
40
1
40
1
41
1
10
50.1169741247547
20
-0.110155300783987
30
0
41
1
10
50.0355486668608
20
-0.17955068038404
30
0
41
1
10
49.9571073551695
20
-0.252479458005638
30
0
41
1
10
49.8804455603128
20
-0.327103804652211
30
0
0
SPLINE
5
19A
100
AcDbEntity
8
1
62
256
6
ByLayer
370
13
48
1
60
0
100
AcDbSpline
70
4
71
3
72
12
73
8
40
0
40
0
40
0
40
0
40
0.46817896742225
40
0.46817896742225
40
0.899165978787896
40
0.899165978787896
40
1
40
1
40
1
40
1
41
1
10
51.4587805434613
20
-2.33942418535116
30
0
41
1
10
51.2775060355049
20
-2.3109004882466
30
0
41
1
10
51.0936117660435
20
-2.276118270204
30
0
41
1
10
50.7658158689767
20
-2.23246536272913
30
0
41
1
10
50.6153724323278
20
-2.21839831986276
30
0
41
1
10
50.4560286247614
20
-2.21965252212783
30
0
41
1
10
50.4264524991725
20
-2.22075209600939
30
0
41
1
10
50.3981203716814
20
-2.2228480284314
30
0
0
SPLINE
5
19B
100
AcDbEntity
8
1
62
256
6
ByLayer
370
13
48
1
60
0
100
AcDbSpline
70
4
71
3
72
12
73
8
40
0
40
0
40
0
40
0
40
0.46817896742225
40
0.46817896742225
40
0.899165978787896
40
0.899165978787896
40
1
40
1
40
1
40
1
41
1
10
51.4587805434613
20
-0.0105758146488881
30
0
41
1
10
51.2775060355049
20
-0.0390995117534487
30
0
41
1
10
51.0936117660435
20
-0.0738817297960281
30
0
41
1
10
50.7658158689767
20
-0.117534637270921
30
0
41
1
10
50.6153724323278
20
-0.131601680137294
30
0
41
1
10
50.4560286247614
20
-0.130347477872221
30
0
41
1
10
50.4264524991725
20
-0.129247903990631
30
0
41
1
10
50.3981203716814
20
-0.127151971568651
30
0
0
SPLINE
5
19C
100
AcDbEntity
8
1
62
256
6
ByLayer
370
13
48
1
60
0
100
AcDbSpline
70
4
71
3
72
10
73
6
40
0
40
0
40
0
40
0
40
0.132191617121101
40
0.132191617121101
40
1
40
1
40
1
40
1
41
1
10
50.2573483090604
20
-2.08098072546741
30
0
41
1
10
50.2564468305523
20
-2.08194594065787
30
0
41
1
10
50.25552642843
20
-2.08293663696295
30
0
41
1
10
50.2484541077129
20
-2.09058766048725
30
0
41
1
10
50.2414978788606
20
-2.09832919370678
30
0
41
1
10
50.2339180002563
20
-2.10695860899517
30
0
0
SPLINE
5
19D
100
AcDbEntity
8
1
62
256
6
ByLayer
370
13
48
1
60
0
100
AcDbSpline
70
4
71
3
72
14
73
10
40
0
40
0
40
0
40
0
40
0.447953066725052
40
0.447953066725052
40
0.912809598186729
40
0.912809598186729
40
0.983423615312508
40
0.983423615312508
40
1
40
1
40
1
40
1
41
1
10
50.2339180002563
20
-2.10695860899577
30
0
41
1
10
50.2203040290404
20
-2.12245761864597
30
0
41
1
10
50.2040154112901
20
-2.14099075134183
30
0
41
1
10
50.1683740707567
20
-2.18150507970219
30
0
41
1
10
50.1483538761323
20
-2.20424317278446
30
0
41
1
10
50.1253006224606
20
-2.23039969292265
30
0
41
1
10
50.1222095971505
20
-2.23390629504354
30
0
41
1
10
50.1184037038145
20
-2.23822324030942
30
0
41
1
10
50.1176888999301
20
-2.23903397224962
30
0
41
1
10
50.1169741247485
20
-2.23984469921498
30
0
0
SPLINE
5
19E
100
AcDbEntity
8
1
62
256
6
ByLayer
370
13
48
1
60
0
100
AcDbSpline
70
4
71
3
72
14
73
10
40
0
40
0
40
0
40
0
40
0.447953066725053
40
0.447953066725053
40
0.912809598186729
40
0.912809598186729
40
0.983423615312508
40
0.983423615312508
40
1
40
1
40
1
40
1
41
1
10
50.2339180002563
20
-0.243041391004283
30
0
41
1
10
50.2203040290404
20
-0.227542381354056
30
0
41
1
10
50.2040154112901
20
-0.209009248658219
30
0
41
1
10
50.1683740707567
20
-0.168494920297832
30
0
41
1
10
50.1483538761323
20
-0.145756827215592
30
0
41
1
10
50.1253006224606
20
-0.119600307077405
30
0
41
1
10
50.1222095971505
20
-0.116093704956512
30
0
41
1
10
50.1184037038145
20
-0.111776759690599
30
0
41
1
10
50.1176888999301
20
-0.110966027750436
30
0
41
1
10
50.1169741247485
20
-0.110155300785038
30
0
0
SPLINE
5
19F
100
AcDbEntity
8
1
62
256
6
ByLayer
370
13
48
1
60
0
100
AcDbSpline
70
4
71
3
72
10
73
6
40
0
40
0
40
0
40
0
40
0.132191617121101
40
0.132191617121101
40
1
40
1
40
1
40
1
41
1
10
50.2573483090604
20
-0.269019274532639
30
0
41
1
10
50.2564468305523
20
-0.268054059342148
30
0
41
1
10
50.25552642843
20
-0.267063363037067
30
0
41
1
10
50.2484541077129
20
-0.259412339512807
30
0
41
1
10
50.2414978788606
20
-0.251670806293276
30
0
41
1
10
50.2339180002563
20
-0.243041391004851
30
0
0
SPLINE
5
1A0
100
AcDbEntity
8
1
62
256
6
ByLayer
370
13
48
1
60
0
100
AcDbSpline
70
4
71
3
72
12
73
8
40
0
40
0
40
0
40
0
40
0.559278359968975
40
0.559278359968975
40
0.982064699130975
40
0.982064699130975
40
1
40
1
40
1
40
1
41
1
10
49.8655988415542
20
-1.87200762342235
30
0
41
1
10
49.8639058993619
20
-1.83980806215453
30
0
41
1
10
49.8615176185074
20
-1.81063308751811
30
0
41
1
10
49.8565061637905
20
-1.76963504613525
30
0
41
1
10
49.8540306406306
20
-1.75489245971585
30
0
41
1
10
49.8512781291035
20
-1.74351921291176
30
0
41
1
10
49.8511665651818
20
-1.74306610520648
30
0
41
1
10
49.8510546870628
20
-1.74261951385381
30
0
0
SPLINE
5
1A1
100
AcDbEntity
8
1
62
256
6
ByLayer
370
13
48
1
60
0
100
AcDbSpline
70
4
71
3
72
10
73
6
40
0
40
0
40
0
40
0
40
0.709641074204652
40
0.709641074204652
40
1
40
1
40
1
40
1
41
1
10
49.8804455603128
20
-2.02289619534784
30
0
41
1
10
49.8753414889782
20
-1.98603198859206
30
0
41
1
10
49.8711861437205
20
-1.94839417655359
30
0
41
1
10
49.8672412502849
20
-1.89939290248518
30
0
41
1
10
49.8663022439904
20
-1.88538625498691
30
0
41
1
10
49.8655988415525
20
-1.87200762342229
30
0
0
SPLINE
5
1A2
100
AcDbEntity
8
1
62
256
6
ByLayer
370
13
48
1
60
0
100
AcDbSpline
70
4
71
3
72
12
73
8
40
0
40
0
40
0
40
0
40
0.135507654329451
40
0.135507654329451
40
0.742115377580087
40
0.742115377580087
40
1
40
1
40
1
40
1
41
1
10
49.8804455603128
20
-0.327103804652211
30
0
41
1
10
49.8794577311546
20
-0.33423841072289
30
0
41
1
10
49.8785068164279
20
-0.341382672982178
30
0
41
1
10
49.8735694178171
20
-0.380035045440422
30
0
41
1
10
49.8702919601627
20
-0.411705649060565
30
0
41
1
10
49.8670296012879
20
-0.45379948938762
30
0
41
1
10
49.8662219824782
20
-0.466140309550468
30
0
41
1
10
49.8655988415537
20
-0.477992376577703
30
0
0
SPLINE
5
1A3
100
AcDbEntity
8
1
62
256
6
ByLayer
370
13
48
1
60
0
100
AcDbSpline
70
4
71
3
72
14
73
10
40
0
40
0
40
0
40
0
40
0.0177509856471946
40
0.0177509856471946
40
0.340726860481444
40
0.340726860481444
40
0.792711195890233
40
0.792711195890233
40
1
40
1
40
1
40
1
41
1
10
49.8510546870628
20
-0.607380486146212
30
0
41
1
10
49.8511665651505
20
-0.606933894793798
30
0
41
1
10
49.8512781289784
20
-0.606480787089083
30
0
41
1
10
49.8534062656342
20
-0.597687430044516
30
0
41
1
10
49.855323964045
20
-0.587152624023986
30
0
41
1
10
49.8595178404373
20
-0.557541038239862
30
0
41
1
10
49.8616827821098
20
-0.536370621862858
30
0
41
1
10
49.8642384176627
20
-0.501653122272188
30
0
41
1
10
49.8649648606851
20
-0.490050618098877
30
0
41
1
10
49.8655988415542
20
-0.477992376577674
30
0
0
SPLINE
5
1A4
100
AcDbEntity
8
1
62
256
6
ByLayer
370
13
48
1
60
0
100
AcDbSpline
70
4
71
3
72
18
73
14
40
0
40
0
40
0
40
0
40
0.10212592206704
40
0.10212592206704
40
0.219798180864097
40
0.219798180864097
40
0.395678331134856
40
0.395678331134856
40
0.733655817510089
40
0.733655817510089
40
0.802063348489368
40
0.802063348489368
40
1
40
1
40
1
40
1
41
1
10
49.4559779585026
20
-2.00175567745114
30
0
41
1
10
49.4564416368178
20
-1.98847604721982
30
0
41
1
10
49.45608929913
20
-1.97511695257134
30
0
41
1
10
49.4536446728814
20
-1.94688463072205
30
0
41
1
10
49.4512850832915
20
-1.93195210644276
30
0
41
1
10
49.4431564052165
20
-1.89620155862463
30
0
41
1
10
49.436209646695
20
-1.87577334525451
30
0
41
1
10
49.4118798067115
20
-1.82153355932172
30
0
41
1
10
49.3902866995539
20
-1.79115181986509
30
0
41
1
10
49.3616240935597
20
-1.76219393333275
30
0
41
1
10
49.3566229893451
20
-1.75749458645586
30
0
41
1
10
49.3368310070575
20
-1.74016411549678
30
0
41
1
10
49.3212866355731
20
-1.72921914629339
30
0
41
1
10
49.3052940680712
20
-1.72017312237895
30
0
0
SPLINE
5
1A5
100
AcDbEntity
8
1
62
256
6
ByLayer
370
13
48
1
60
0
100
AcDbSpline
70
4
71
3
72
14
73
10
40
0
40
0
40
0
40
0
40
0.447954004797037
40
0.447954004797037
40
0.912810038934036
40
0.912810038934036
40
0.983423779130199
40
0.983423779130199
40
1
40
1
40
1
40
1
41
1
10
50.2933275812136
20
-2.22453045594926
30
0
41
1
10
50.2727755286919
20
-2.22631539602759
30
0
41
1
10
50.2481939779357
20
-2.22845021007538
30
0
41
1
10
50.1944355442363
20
-2.23311861833633
30
0
41
1
10
50.1642532997474
20
-2.23573950393452
30
0
41
1
10
50.1295181484127
20
-2.23875553025204
30
0
41
1
10
50.1248611889835
20
-2.23915988628505
30
0
41
1
10
50.1191276857054
20
-2.23965771169804
30
0
41
1
10
50.1180508939063
20
-2.23975120632917
30
0
41
1
10
50.1169741247543
20
-2.23984469921612
30
0
0
SPLINE
5
1A6
100
AcDbEntity
8
1
62
256
6
ByLayer
370
13
48
1
60
0
100
AcDbSpline
70
4
71
3
72
14
73
10
40
0
40
0
40
0
40
0
40
0.447954004797037
40
0.447954004797037
40
0.912810038934036
40
0.912810038934036
40
0.983423779130199
40
0.983423779130199
40
1
40
1
40
1
40
1
41
1
10
50.2933275812136
20
-0.125469544050787
30
0
41
1
10
50.2727755286919
20
-0.123684603972464
30
0
41
1
10
50.2481939779357
20
-0.121549789924671
30
0
41
1
10
50.1944355442363
20
-0.116881381663717
30
0
41
1
10
50.1642532997474
20
-0.114260496065526
30
0
41
1
10
50.1295181484127
20
-0.111244469748016
30
0
41
1
10
50.1248611889835
20
-0.110840113715
30
0
41
1
10
50.1191276857054
20
-0.110342288301979
30
0
41
1
10
50.1180508939063
20
-0.110248793670877
30
0
41
1
10
50.1169741247543
20
-0.11015530078393
30
0
0
SPLINE
5
1A7
100
AcDbEntity
8
1
62
256
6
ByLayer
370
13
48
1
60
0
100
AcDbSpline
70
4
71
3
72
12
73
8
40
0
40
0
40
0
40
0
40
0.356479833160399
40
0.356479833160399
40
0.824168720346733
40
0.824168720346733
40
1
40
1
40
1
40
1
41
1
10
49.8643787537961
20
-0.618689687259945
30
0
41
1
10
49.8767763033464
20
-0.625202686451587
30
0
41
1
10
49.8880463981537
20
-0.632798763790646
30
0
41
1
10
49.9095864832785
20
-0.65331510883226
30
0
41
1
10
49.9185295226104
20
-0.667494893556977
30
0
41
1
10
49.92407326674
20
-0.690200440075188
30
0
41
1
10
49.9249217874922
20
-0.696815982349904
30
0
41
1
10
49.9250392603487
20
-0.703711047695322
30
0
0
SPLINE
5
1A8
100
AcDbEntity
8
1
62
256
6
ByLayer
370
13
48
1
60
0
100
AcDbSpline
70
4
71
3
72
12
73
8
40
0
40
0
40
0
40
0
40
0.443558069836982
40
0.443558069836982
40
0.507222026557664
40
0.507222026557664
40
1
40
1
40
1
40
1
41
1
10
49.9250392603487
20
-0.70371104769535
30
0
41
1
10
49.925625933741
20
-0.738145822660499
30
0
41
1
10
49.9334575781989
20
-0.779074185054697
30
0
41
1
10
49.9513800260717
20
-0.827615930586745
30
0
41
1
10
49.9538277204397
20
-0.8338406550522
30
0
41
1
10
49.976282853545
20
-0.887603461830423
30
0
41
1
10
50.006340828125
20
-0.937500873396743
30
0
41
1
10
50.0439598709927
20
-0.982618515785191
30
0
0
SPLINE
5
1A9
100
AcDbEntity
8
1
62
256
6
ByLayer
370
13
48
1
60
0
100
AcDbSpline
70
4
71
3
72
18
73
14
40
0
40
0
40
0
40
0
40
0.262962488711577
40
0.262962488711577
40
0.43136352889061
40
0.43136352889061
40
0.488169625072958
40
0.488169625072958
40
0.652801403480982
40
0.652801403480982
40
0.712254155913291
40
0.712254155913291
40
1
40
1
40
1
40
1
41
1
10
50.0439598709927
20
-0.982618515785191
30
0
41
1
10
50.0671201854563
20
-1.01039537308611
30
0
41
1
10
50.0885389915202
20
-1.04115665508255
30
0
41
1
10
50.113950371308
20
-1.09708948386341
30
0
41
1
10
50.1214580237961
20
-1.12079242783926
30
0
41
1
10
50.1259784141927
20
-1.15328783334061
30
0
41
1
10
50.1266641796623
20
-1.16165630033737
30
0
41
1
10
50.1274106952605
20
-1.19392150576451
30
0
41
1
10
50.12374714007
20
-1.21822934241905
30
0
41
1
10
50.1143596854291
20
-1.24916578823178
30
0
41
1
10
50.1114227244078
20
-1.25730438156435
30
0
41
1
10
50.0925277493289
20
-1.30311384248762
30
0
41
1
10
50.0692256559174
20
-1.33707947326508
30
0
41
1
10
50.0439598709999
20
-1.36738148420625
30
0
0
SPLINE
5
1AA
100
AcDbEntity
8
1
62
256
6
ByLayer
370
13
48
1
60
0
100
AcDbSpline
70
4
71
3
72
12
73
8
40
0
40
0
40
0
40
0
40
0.0695374380305743
40
0.0695374380305743
40
0.564718845075643
40
0.564718845075643
40
1
40
1
40
1
40
1
41
1
10
50.0439598709999
20
-1.36738148420625
30
0
41
1
10
50.0385610813285
20
-1.37385641400621
30
0
41
1
10
50.0333230650435
20
-1.3804109635303
30
0
41
1
10
49.9927993674551
20
-1.43332630815865
30
0
41
1
10
49.9653523725795
20
-1.48378885408755
30
0
41
1
10
49.9331669750442
20
-1.57241176718483
30
0
41
1
10
49.9256153955241
20
-1.61247271762215
30
0
41
1
10
49.9250392603487
20
-1.64628895230467
30
0
0
SPLINE
5
1AB
100
AcDbEntity
8
1
62
256
6
ByLayer
370
13
48
1
60
0
100
AcDbSpline
70
4
71
3
72
10
73
6
40
0
40
0
40
0
40
0
40
0.323499890762715
40
0.323499890762715
40
1
40
1
40
1
40
1
41
1
10
49.9250392603487
20
-1.64628895230467
30
0
41
1
10
49.9248229895013
20
-1.65898296239692
30
0
41
1
10
49.9221009308091
20
-1.67074652666685
30
0
41
1
10
49.9072698303882
20
-1.70268607451834
30
0
41
1
10
49.8876680100065
20
-1.71907540242526
30
0
41
1
10
49.8643787537961
20
-1.73131031274011
30
0
0
SPLINE
5
1AC
100
AcDbEntity
8
1
62
256
6
ByLayer
370
13
48
1
60
0
100
AcDbSpline
70
4
71
3
72
12
73
8
40
0
40
0
40
0
40
0
40
0.833271550695841
40
0.833271550695841
40
0.924873187913958
40
0.924873187913958
40
1
40
1
40
1
40
1
41
1
10
49.0610166945645
20
-1.66908820314831
30
0
41
1
10
49.0544754484441
20
-1.63457089979636
30
0
41
1
10
49.0449923927373
20
-1.59189667933003
30
0
41
1
10
49.040181068922
20
-1.53856693418893
30
0
41
1
10
49.0397613475273
20
-1.53314730555869
30
0
41
1
10
49.0391308505303
20
-1.52316316617944
30
0
41
1
10
49.0388959908553
20
-1.51861889189283
30
0
41
1
10
49.0387159227923
20
-1.51403296324304
30
0
0
SPLINE
5
1AD
100
AcDbEntity
8
1
62
256
6
ByLayer
370
13
48
1
60
0
100
AcDbSpline
70
4
71
3
72
8
73
4
40
0
40
0
40
0
40
0
40
1
40
1
40
1
40
1
41
1
10
49.0387159227923
20
-1.51403296324304
30
0
41
1
10
49.059987312203
20
-1.50789424152964
30
0
41
1
10
49.0815114137464
20
-1.50215221194949
30
0
41
1
10
49.1032105368037
20
-1.49677562535771
30
0
0
SPLINE
5
1AE
100
AcDbEntity
8
1
62
256
6
ByLayer
370
13
48
1
60
0
100
AcDbSpline
70
4
71
3
72
8
73
4
40
0
40
0
40
0
40
0
40
1
40
1
40
1
40
1
41
1
10
49.1032105368034
20
-1.49677562535606
30
0
41
1
10
49.1062783445423
20
-1.49601548708174
30
0
41
1
10
49.1093468504694
20
-1.49525544275167
30
0
41
1
10
49.1124160421628
20
-1.49449549106723
30
0
0
SPLINE
5
1AF
100
AcDbEntity
8
1
62
256
6
ByLayer
370
13
48
1
60
0
100
AcDbSpline
70
4
71
3
72
26
73
22
40
0
40
0
40
0
40
0
40
0.0783346115779722
40
0.0783346115779722
40
0.229067417424992
40
0.229067417424992
40
0.361148737487712
40
0.361148737487712
40
0.451044286208709
40
0.451044286208709
40
0.480076288213215
40
0.480076288213215
40
0.580804987892491
40
0.580804987892491
40
0.598553408472289
40
0.598553408472289
40
0.721865021031447
40
0.721865021031447
40
0.852573440596253
40
0.852573440596253
40
1
40
1
40
1
40
1
41
1
10
49.1124160421628
20
-1.49449549106723
30
0
41
1
10
49.1363716105935
20
-1.48856393761608
30
0
41
1
10
49.1598327503349
20
-1.481158670643
30
0
41
1
10
49.2253859658397
20
-1.45490082960799
30
0
41
1
10
49.2659116446279
20
-1.43130104982376
30
0
41
1
10
49.3301656555828
20
-1.37434843260829
30
0
41
1
10
49.3562012292316
20
-1.34162924968652
30
0
41
1
10
49.3871009177855
20
-1.2792269467146
30
0
41
1
10
49.3963228169934
20
-1.25121811581496
30
0
41
1
10
49.4026526489823
20
-1.21314761159437
30
0
41
1
10
49.4037565534503
20
-1.20364706678453
30
0
41
1
10
49.406535622122
20
-1.16164874240999
30
0
41
1
10
49.4029896944569
20
-1.12809945024884
30
0
41
1
10
49.3928135335291
20
-1.09156062366452
30
0
41
1
10
49.3911033398723
20
-1.08605846188297
30
0
41
1
10
49.3765578244499
20
-1.04367911819281
30
0
41
1
10
49.3563208175635
20
-1.00959999461077
30
0
41
1
10
49.3056247831178
20
-0.950698078051659
30
0
41
1
10
49.273851925294
20
-0.925414714149156
30
0
41
1
10
49.2004676930902
20
-0.882944124545929
30
0
41
1
10
49.1571805456305
20
-0.866588489085501
30
0
41
1
10
49.1124160421628
20
-0.855504508932825
30
0
0
SPLINE
5
1B0
100
AcDbEntity
8
1
62
256
6
ByLayer
370
13
48
1
60
0
100
AcDbSpline
70
4
71
3
72
8
73
4
40
0
40
0
40
0
40
0
40
1
40
1
40
1
40
1
41
1
10
49.1124160421628
20
-0.855504508932825
30
0
41
1
10
49.1093468504694
20
-0.854744557248353
30
0
41
1
10
49.1062783445423
20
-0.853984512918288
30
0
41
1
10
49.1032105368034
20
-0.853224374643986
30
0
0
SPLINE
5
1B1
100
AcDbEntity
8
1
62
256
6
ByLayer
370
13
48
1
60
0
100
AcDbSpline
70
4
71
3
72
20
73
16
40
0
40
0
40
0
40
0
40
0.114266316237489
40
0.114266316237489
40
0.331231960429442
40
0.331231960429442
40
0.599155656755157
40
0.599155656755157
40
0.722874848940947
40
0.722874848940947
40
0.871512516236653
40
0.871512516236653
40
0.967654963824484
40
0.967654963824484
40
1
40
1
40
1
40
1
41
1
10
49.3052940680729
20
-0.629826877621582
30
0
41
1
10
49.3145383163395
20
-0.624597967949626
30
0
41
1
10
49.3236231348746
20
-0.618740917579032
30
0
41
1
10
49.3492280670811
20
-0.599968215151591
30
0
41
1
10
49.365276744252
20
-0.585316305536281
30
0
41
1
10
49.3980286906964
20
-0.547427118395206
30
0
41
1
10
49.4143711478299
20
-0.522531827762094
30
0
41
1
10
49.4331414661541
20
-0.481230362154548
30
0
41
1
10
49.4383907764822
20
-0.467285663334593
30
0
41
1
10
49.447858461063
20
-0.435346215016466
30
0
41
1
10
49.4517121178798
20
-0.416882314626122
30
0
41
1
10
49.4553663096761
20
-0.38582058117575
30
0
41
1
10
49.4561297476895
20
-0.373345357131711
30
0
41
1
10
49.4561906263781
20
-0.356667503330755
30
0
41
1
10
49.4561249332387
20
-0.352453641988745
30
0
41
1
10
49.4559779585028
20
-0.348244322548908
30
0
0
SPLINE
5
1B2
100
AcDbEntity
8
1
62
256
6
ByLayer
370
13
48
1
60
0
100
AcDbSpline
70
4
71
3
72
8
73
4
40
0
40
0
40
0
40
0
40
1
40
1
40
1
40
1
41
1
10
49.1032105368034
20
-0.853224374643986
30
0
41
1
10
49.0815114137461
20
-0.847847788052206
30
0
41
1
10
49.0599873122031
20
-0.84210575846862
30
0
41
1
10
49.0387159227924
20
-0.835967036755193
30
0
0
SPLINE
5
1B3
100
AcDbEntity
8
1
62
256
6
ByLayer
370
13
48
1
60
0
100
AcDbSpline
70
4
71
3
72
10
73
6
40
0
40
0
40
0
40
0
40
0.0748872813144652
40
0.0748872813144652
40
1
40
1
40
1
40
1
41
1
10
49.0387159227923
20
-0.835967036756983
30
0
41
1
10
49.0388959908553
20
-0.831381108107223
30
0
41
1
10
49.0391308505303
20
-0.826836833820579
30
0
41
1
10
49.0428644178648
20
-0.767714495687358
30
0
41
1
10
49.0537561749332
20
-0.719224612788111
30
0
41
1
10
49.0610166945643
20
-0.680911796853195
30
0
0
SPLINE
5
1B4
100
AcDbEntity
8
1
62
256
6
ByLayer
370
13
48
1
60
0
100
AcDbSpline
70
4
71
3
72
16
73
12
40
0
40
0
40
0
40
0
40
0.249954056036558
40
0.249954056036558
40
0.699484194384015
40
0.699484194384015
40
0.851133931227642
40
0.851133931227642
40
0.935108677236773
40
0.935108677236773
40
1
40
1
40
1
40
1
41
1
10
49.2267110292774
20
-1.90189749650463
30
0
41
1
10
49.2427048966234
20
-1.90544900069531
30
0
41
1
10
49.2585947536486
20
-1.90963190526915
30
0
41
1
10
49.3021970348682
20
-1.92356748659972
30
0
41
1
10
49.3302297071818
20
-1.93477140760464
30
0
41
1
10
49.3625570510524
20
-1.95821931948714
30
0
41
1
10
49.3704121947257
20
-1.96506506245137
30
0
41
1
10
49.3801629147231
20
-1.97782114922185
30
0
41
1
10
49.3831940821262
20
-1.9829077531611
30
0
41
1
10
49.3866841498694
20
-1.9926298067034
30
0
41
1
10
49.3875739298376
20
-1.9972200449416
30
0
41
1
10
49.3875739298376
20
-2.00175567745114
30
0
0
SPLINE
5
1B5
100
AcDbEntity
8
1
62
256
6
ByLayer
370
13
48
1
60
0
100
AcDbSpline
70
4
71
3
72
20
73
16
40
0
40
0
40
0
40
0
40
0.0199906994069362
40
0.0199906994069362
40
0.0825919577440876
40
0.0825919577440876
40
0.195169299288357
40
0.195169299288357
40
0.306011529795777
40
0.306011529795777
40
0.591177675589546
40
0.591177675589546
40
0.85412822131223
40
0.85412822131223
40
1
40
1
40
1
40
1
41
1
10
49.3875739298377
20
-0.348244322548908
30
0
41
1
10
49.3875739298376
20
-0.34965584735022
30
0
41
1
10
49.3874914943693
20
-0.351069873245422
30
0
41
1
10
49.3868329759386
20
-0.356802870228108
30
0
41
1
10
49.3855574593884
20
-0.361071849190324
30
0
41
1
10
49.3806296077618
20
-0.372037858887723
30
0
41
1
10
49.3758782533064
20
-0.378286359562651
30
0
41
1
10
49.3654630806491
20
-0.389145104168705
30
0
41
1
10
49.359676381482
20
-0.393917409823388
30
0
41
1
10
49.3382455610535
20
-0.409283073821655
30
0
41
1
10
49.3211325656859
20
-0.417661286712843
30
0
41
1
10
49.2877211729543
20
-0.43124756481464
30
0
41
1
10
49.2712362948113
20
-0.436619350647049
30
0
41
1
10
49.2453568251732
20
-0.443735804704517
30
0
41
1
10
49.2360536989462
20
-0.446027925173041
30
0
41
1
10
49.2267110292773
20
-0.448102503495505
30
0
0
SPLINE
5
1B6
100
AcDbEntity
8
1
62
256
6
ByLayer
370
13
48
1
60
0
100
AcDbSpline
70
4
71
3
72
14
73
10
40
0
40
0
40
0
40
0
40
0.0177534078899156
40
0.0177534078899156
40
0.340744812432132
40
0.340744812432132
40
0.785966596962005
40
0.785966596962005
40
1
40
1
40
1
40
1
41
1
10
49.8510546870628
20
-0.607380486146241
30
0
41
1
10
49.8520935591131
20
-0.607119318141713
30
0
41
1
10
49.8531321595046
20
-0.606851656369116
30
0
41
1
10
49.8729966272014
20
-0.601605155752594
30
0
41
1
10
49.8917885884792
20
-0.594439940244968
30
0
41
1
10
49.9347600859257
20
-0.57282268969567
30
0
41
1
10
49.9587945413718
20
-0.556385101980027
30
0
41
1
10
49.9910000960522
20
-0.527673813701938
30
0
41
1
10
50.0010527060187
20
-0.517558279210135
30
0
41
1
10
50.010489557929
20
-0.506854054103513
30
0
0
SPLINE
5
1B7
100
AcDbEntity
8
1
62
256
6
ByLayer
370
13
48
1
60
0
100
AcDbSpline
70
4
71
3
72
12
73
8
40
0
40
0
40
0
40
0
40
0.559301985460886
40
0.559301985460886
40
0.982067221682947
40
0.982067221682947
40
1
40
1
40
1
40
1
41
1
10
50.010489557929
20
-1.84314594589651
30
0
41
1
10
49.9860762799805
20
-1.81545395441074
30
0
41
1
10
49.9571861880885
20
-1.7915461082718
30
0
41
1
10
49.9034740589433
20
-1.76025128859342
30
0
41
1
10
49.8788250511787
20
-1.74993421748584
30
0
41
1
10
49.8531321595027
20
-1.7431483436321
30
0
41
1
10
49.8520935591125
20
-1.74288068185868
30
0
41
1
10
49.8510546870628
20
-1.74261951385384
30
0
0
SPLINE
5
1B8
100
AcDbEntity
8
1
62
256
6
ByLayer
370
13
48
1
60
0
100
AcDbSpline
70
4
71
3
72
8
73
4
40
0
40
0
40
0
40
0
40
1
40
1
40
1
40
1
41
1
10
48.6639115680548
20
-2.30891723752134
30
0
41
1
10
48.7472851478713
20
-2.17013446737852
30
0
41
1
10
48.816569163954
20
-2.02196592494366
30
0
41
1
10
48.8825621452742
20
-1.87296709438138
30
0
0
SPLINE
5
1B9
100
AcDbEntity
8
1
62
256
6
ByLayer
370
13
48
1
60
0
100
AcDbSpline
70
4
71
3
72
16
73
12
40
0
40
0
40
0
40
0
40
0.0745951303882249
40
0.0745951303882249
40
0.27553513169183
40
0.27553513169183
40
0.501427420118119
40
0.501427420118119
40
0.725494997757322
40
0.725494997757322
40
1
40
1
40
1
40
1
41
1
10
48.8825621452742
20
-1.87296709438138
30
0
41
1
10
48.8837736749443
20
-1.87023170494425
30
0
41
1
10
48.8851163296951
20
-1.86755720787505
30
0
41
1
10
48.8905147865576
20
-1.85807673582238
30
0
41
1
10
48.895461783055
20
-1.85171054247775
30
0
41
1
10
48.9076198241713
20
-1.84056313295494
30
0
41
1
10
48.9152342937161
20
-1.83592416719432
30
0
41
1
10
48.931205119136
20
-1.83003101892444
30
0
41
1
10
48.9397662566659
20
-1.82864009913789
30
0
41
1
10
48.9585207140202
20
-1.82856420092233
30
0
41
1
10
48.9689309570329
20
-1.83050454585862
30
0
41
1
10
48.9787842780359
20
-1.83378427086325
30
0
0
SPLINE
5
1BA
100
AcDbEntity
8
1
62
256
6
ByLayer
370
13
48
1
60
0
100
AcDbSpline
70
4
71
3
72
8
73
4
40
0
40
0
40
0
40
0
40
1
40
1
40
1
40
1
41
1
10
50.3981203716814
20
-0.127151971568651
30
0
41
1
10
50.3638409048776
20
-0.125295581348865
30
0
41
1
10
50.3294607622627
20
-0.124765515202711
30
0
41
1
10
50.2950622867787
20
-0.125830550065842
30
0
0
SPLINE
5
1BB
100
AcDbEntity
8
1
62
256
6
ByLayer
370
13
48
1
60
0
100
AcDbSpline
70
4
71
3
72
16
73
12
40
0
40
0
40
0
40
0
40
0.108772443208259
40
0.108772443208259
40
0.369799377627614
40
0.369799377627614
40
0.571154122074464
40
0.571154122074464
40
0.786314444449857
40
0.786314444449857
40
1
40
1
40
1
40
1
41
1
10
48.9787842780347
20
-0.516215729137571
30
0
41
1
10
48.974842530994
20
-0.517527758485528
30
0
41
1
10
48.9708295616293
20
-0.518622713530959
30
0
41
1
10
48.9571495011343
20
-0.521456141026533
30
0
41
1
10
48.9470910912765
20
-0.522016084920978
30
0
41
1
10
48.9298590002818
20
-0.519506595091229
30
0
41
1
10
48.9223925092281
20
-0.517185994696661
30
0
41
1
10
48.9083165495633
20
-0.509864995148888
30
0
41
1
10
48.901614556307
20
-0.504580178369054
30
0
41
1
10
48.8905405846473
20
-0.492102313917542
30
0
41
1
10
48.8859929686991
20
-0.48477901236538
30
0
41
1
10
48.8825621452759
20
-0.47703290561762
30
0
0
SPLINE
5
1BC
100
AcDbEntity
8
1
62
256
6
ByLayer
370
13
48
1
60
0
100
AcDbSpline
70
4
71
3
72
8
73
4
40
0
40
0
40
0
40
0
40
1
40
1
40
1
40
1
41
1
10
48.8825621452735
20
-0.477032905620092
30
0
41
1
10
48.8165691639541
20
-0.328034075059918
30
0
41
1
10
48.7472851478721
20
-0.179865532627389
30
0
41
1
10
48.6639115680571
20
-0.0410827624862975
30
0
0
SPLINE
5
1BD
100
AcDbEntity
8
1
62
256
6
ByLayer
370
13
48
1
60
0
100
AcDbSpline
70
4
71
3
72
10
73
6
40
0
40
0
40
0
40
0
40
0.140418403423082
40
0.140418403423082
40
1
40
1
40
1
40
1
41
1
10
50.2950622867786
20
-2.22416944993418
30
0
41
1
10
50.2949786281127
20
-2.22416685972067
30
0
41
1
10
50.2948949964083
20
-2.224166655635
30
0
41
1
10
50.2943060068435
20
-2.22418317198157
30
0
41
1
10
50.2937967459171
20
-2.2242933847366
30
0
41
1
10
50.2933275812036
20
-2.22453045574477
30
0
0
SPLINE
5
1BE
100
AcDbEntity
8
1
62
256
6
ByLayer
370
13
48
1
60
0
100
AcDbSpline
70
4
71
3
72
10
73
6
40
0
40
0
40
0
40
0
40
0.140418403423082
40
0.140418403423082
40
1
40
1
40
1
40
1
41
1
10
50.2950622867786
20
-0.125830550065871
30
0
41
1
10
50.2949786281127
20
-0.125833140279354
30
0
41
1
10
50.2948949964083
20
-0.125833344365049
30
0
41
1
10
50.2943060068435
20
-0.125816828018458
30
0
41
1
10
50.2937967459171
20
-0.125706615263454
30
0
41
1
10
50.2933275812036
20
-0.125469544255282
30
0
0
SPLINE
5
1BF
100
AcDbEntity
8
1
62
256
6
ByLayer
370
13
48
1
60
0
100
AcDbSpline
70
4
71
3
72
8
73
4
40
0
40
0
40
0
40
0
40
1
40
1
40
1
40
1
41
1
10
50.3981203716814
20
-2.2228480284314
30
0
41
1
10
50.3638409048776
20
-2.22470441865119
30
0
41
1
10
50.3294607622627
20
-2.22523448479731
30
0
41
1
10
50.2950622867787
20
-2.22416944993418
30
0
0
SPLINE
5
1C0
100
AcDbEntity
8
1
62
256
6
ByLayer
370
13
48
1
60
0
100
AcDbSpline
70
4
71
3
72
8
73
4
40
0
40
0
40
0
40
0
40
1
40
1
40
1
40
1
41
1
10
49.8643787537961
20
-1.73131031274011
30
0
41
1
10
49.8599671112989
20
-1.73508591710194
30
0
41
1
10
49.8555251065502
20
-1.73885555773757
30
0
41
1
10
49.8510546870628
20
-1.74261951385384
30
0
0
SPLINE
5
1C1
100
AcDbEntity
8
1
62
256
6
ByLayer
370
13
48
1
60
0
100
AcDbSpline
70
4
71
3
72
12
73
8
40
0
40
0
40
0
40
0
40
0.473871515909109
40
0.473871515909109
40
0.928528687587425
40
0.928528687587425
40
1
40
1
40
1
40
1
41
1
10
50.18962014135
20
-0.886427773680595
30
0
41
1
10
50.1605769079864
20
-0.847978520561583
30
0
41
1
10
50.138076503972
20
-0.807070863763812
30
0
41
1
10
50.1054858788087
20
-0.733528383513345
30
0
41
1
10
50.0944900899473
20
-0.699813348618505
30
0
41
1
10
50.0859581625813
20
-0.667259447679783
30
0
41
1
10
50.084884631021
20
-0.662916721848518
30
0
41
1
10
50.0838678419132
20
-0.658726715652989
30
0
0
SPLINE
5
1C2
100
AcDbEntity
8
1
62
256
6
ByLayer
370
13
48
1
60
0
100
AcDbSpline
70
4
71
3
72
8
73
4
40
0
40
0
40
0
40
0
40
1
40
1
40
1
40
1
41
1
10
49.8510546870628
20
-0.607380486146212
30
0
41
1
10
49.8555251065502
20
-0.611144442262486
30
0
41
1
10
49.8599671112989
20
-0.614914082898082
30
0
41
1
10
49.8643787537961
20
-0.618689687259945
30
0
0
SPLINE
5
1C3
100
AcDbEntity
8
1
62
256
6
ByLayer
370
13
48
1
60
0
100
AcDbSpline
70
4
71
3
72
12
73
8
40
0
40
0
40
0
40
0
40
0.152393412053729
40
0.152393412053729
40
0.680490075193607
40
0.680490075193607
40
1
40
1
40
1
40
1
41
1
10
50.1896201413597
20
-1.46357222631727
30
0
41
1
10
50.2346105972902
20
-1.47252630455637
30
0
41
1
10
50.2812734171518
20
-1.48201657006459
30
0
41
1
10
50.4939294786754
20
-1.52608244482153
30
0
41
1
10
50.6774173301441
20
-1.56616809046358
30
0
41
1
10
50.978376870561
20
-1.63510066499535
30
0
41
1
10
51.0952214954585
20
-1.66260553347661
30
0
41
1
10
51.2112677608008
20
-1.69084107451079
30
0
0
SPLINE
5
1C4
100
AcDbEntity
8
1
62
256
6
ByLayer
370
13
48
1
60
0
100
AcDbSpline
70
4
71
3
72
12
73
8
40
0
40
0
40
0
40
0
40
0.453713856043948
40
0.453713856043948
40
0.935255270278036
40
0.935255270278036
40
1
40
1
40
1
40
1
41
1
10
50.0838678419132
20
-1.69127328434703
30
0
41
1
10
50.0902549278144
20
-1.66495324483154
30
0
41
1
10
50.0997841086873
20
-1.63268553855832
30
0
41
1
10
50.1293410835708
20
-1.56045999860541
30
0
41
1
10
50.1503116579037
20
-1.51918126823753
30
0
41
1
10
50.1817069341031
20
-1.47425808900073
30
0
41
1
10
50.1855997151618
20
-1.46889471855764
30
0
41
1
10
50.1896201413555
20
-1.46357222631218
30
0
0
SPLINE
5
1C5
100
AcDbEntity
8
1
62
256
6
ByLayer
370
13
48
1
60
0
100
AcDbSpline
70
4
71
3
72
12
73
8
40
0
40
0
40
0
40
0
40
0.152393412067187
40
0.152393412067187
40
0.68049007519868
40
0.68049007519868
40
1
40
1
40
1
40
1
41
1
10
50.1896201413456
20
-0.886427773685568
30
0
41
1
10
50.2346105972806
20
-0.877473695445644
30
0
41
1
10
50.2812734171468
20
-0.867983429936487
30
0
41
1
10
50.4939294786754
20
-0.823917555178525
30
0
41
1
10
50.6774173301441
20
-0.783831909536474
30
0
41
1
10
50.978376870561
20
-0.714899335004702
30
0
41
1
10
51.0952214954585
20
-0.687394466523443
30
0
41
1
10
51.2112677608008
20
-0.659158925489265
30
0
0
SPLINE
5
1C6
100
AcDbEntity
8
1
62
256
6
ByLayer
370
13
48
1
60
0
100
AcDbSpline
70
4
71
3
72
16
73
12
40
0
40
0
40
0
40
0
40
0.257384746008501
40
0.257384746008501
40
0.483485531381172
40
0.483485531381172
40
0.71945910330869
40
0.71945910330869
40
0.925748185145375
40
0.925748185145375
40
1
40
1
40
1
40
1
41
1
10
49.0610166945645
20
-1.66908820314831
30
0
41
1
10
49.0316687367362
20
-1.66658615324533
30
0
41
1
10
49.0016686457385
20
-1.66803167351478
30
0
41
1
10
48.9476222628196
20
-1.67802558116537
30
0
41
1
10
48.9228412392242
20
-1.68577693620057
30
0
41
1
10
48.8759336807441
20
-1.70717801485529
30
0
41
1
10
48.8535298246701
20
-1.72127689981897
30
0
41
1
10
48.8168300974004
20
-1.7523137419918
30
0
41
1
10
48.8015959942175
20
-1.76890520913076
30
0
41
1
10
48.7843415664157
20
-1.79341502722534
30
0
41
1
10
48.7800684610182
20
-1.80013847809687
30
0
41
1
10
48.7761342837701
20
-1.80702896532881
30
0
0
SPLINE
5
1C7
100
AcDbEntity
8
1
62
256
6
ByLayer
370
13
48
1
60
0
100
AcDbSpline
70
4
71
3
72
16
73
12
40
0
40
0
40
0
40
0
40
0.215940694014332
40
0.215940694014332
40
0.440749342864023
40
0.440749342864023
40
0.6480631149087
40
0.6480631149087
40
0.900502256755734
40
0.900502256755734
40
1
40
1
40
1
40
1
41
1
10
48.7761342837701
20
-0.542971034672661
30
0
41
1
10
48.7874887091377
20
-0.562857663588545
30
0
41
1
10
48.8017703058923
20
-0.581436159813762
30
0
41
1
10
48.8355311178213
20
-0.614919392896809
30
0
41
1
10
48.8554935542142
20
-0.629935761488895
30
0
41
1
10
48.8971485157203
20
-0.653475087055909
30
0
41
1
10
48.9188925805651
20
-0.662589647721092
30
0
41
1
10
48.9687388690062
20
-0.677146451523441
30
0
41
1
10
48.9977360562636
20
-0.681522120543605
30
0
41
1
10
49.0380565109324
20
-0.682270703397592
30
0
41
1
10
49.0495709364867
20
-0.681887600963819
30
0
41
1
10
49.0610166945642
20
-0.680911796853195
30
0
0
SPLINE
5
1C8
100
AcDbEntity
8
1
62
256
6
ByLayer
370
13
48
1
60
0
100
AcDbSpline
70
4
71
3
72
14
73
10
40
0
40
0
40
0
40
0
40
0.0140696667047013
40
0.0140696667047013
40
0.158297294424887
40
0.158297294424887
40
0.557403345933072
40
0.557403345933072
40
1
40
1
40
1
40
1
41
1
10
49.0387159227632
20
-0.835967036758944
30
0
41
1
10
49.0375460584102
20
-0.83613020680076
30
0
41
1
10
49.036375468005
20
-0.836289337003564
30
0
41
1
10
49.0230171191251
20
-0.838065676281701
30
0
41
1
10
49.0107456069811
20
-0.839296927091993
30
0
41
1
10
48.9650925286651
20
-0.842439025988966
30
0
41
1
10
48.9314247709742
20
-0.841814565874955
30
0
41
1
10
48.8656728605842
20
-0.834703554250922
30
0
41
1
10
48.8330791217041
20
-0.827471010944947
30
0
41
1
10
48.8056329534176
20
-0.817306443426531
30
0
0
SPLINE
5
1C9
100
AcDbEntity
8
1
62
256
6
ByLayer
370
13
48
1
60
0
100
AcDbSpline
70
4
71
3
72
8
73
4
40
0
40
0
40
0
40
0
40
1
40
1
40
1
40
1
41
1
10
48.8056329534175
20
-0.817306443405101
30
0
41
1
10
48.796339183532
20
-0.813864536669826
30
0
41
1
10
48.7875722949159
20
-0.810404826050899
30
0
41
1
10
48.7794417210372
20
-0.80700211971876
30
0
0
SPLINE
5
1CA
100
AcDbEntity
8
1
62
256
6
ByLayer
370
13
48
1
60
0
100
AcDbSpline
70
4
71
3
72
10
73
6
40
0
40
0
40
0
40
0
40
0.782589980152529
40
0.782589980152529
40
1
40
1
40
1
40
1
41
1
10
48.7761342837701
20
-0.542971034672661
30
0
41
1
10
48.7750264075113
20
-0.60288680408695
30
0
41
1
10
48.7733409185196
20
-0.672228388365653
30
0
41
1
10
48.7768419616687
20
-0.765298285052694
30
0
41
1
10
48.7779402791545
20
-0.786024902780525
30
0
41
1
10
48.7794417210385
20
-0.807002119716657
30
0
0
SPLINE
5
1CB
100
AcDbEntity
8
1
62
256
6
ByLayer
370
13
48
1
60
0
100
AcDbSpline
70
4
71
3
72
10
73
6
40
0
40
0
40
0
40
0
40
0.217410019846355
40
0.217410019846355
40
1
40
1
40
1
40
1
41
1
10
48.7794417210371
20
-1.54299788028211
30
0
41
1
10
48.777940279153
20
-1.56397509721828
30
0
41
1
10
48.7768419616687
20
-1.58470171494733
30
0
41
1
10
48.7733409185196
20
-1.677771611635
30
0
41
1
10
48.7750264075113
20
-1.74711319591421
30
0
41
1
10
48.7761342837701
20
-1.80702896532884
30
0
0
SPLINE
5
1CC
100
AcDbEntity
8
1
62
256
6
ByLayer
370
13
48
1
60
0
100
AcDbSpline
70
4
71
3
72
8
73
4
40
0
40
0
40
0
40
0
40
1
40
1
40
1
40
1
41
1
10
48.7794417210371
20
-1.54299788028211
30
0
41
1
10
48.7875722949159
20
-1.53959517394998
30
0
41
1
10
48.796339183532
20
-1.53613546333028
30
0
41
1
10
48.8056329534174
20
-1.53269355659504
30
0
0
SPLINE
5
1CD
100
AcDbEntity
8
1
62
256
6
ByLayer
370
13
48
1
60
0
100
AcDbSpline
70
4
71
3
72
14
73
10
40
0
40
0
40
0
40
0
40
0.362290872375782
40
0.362290872375782
40
0.75921727113372
40
0.75921727113372
40
0.985981513552925
40
0.985981513552925
40
1
40
1
40
1
40
1
41
1
10
48.8056329534176
20
-1.53269355657352
30
0
41
1
10
48.8281812464505
20
-1.52434289557903
30
0
41
1
10
48.8541207849953
20
-1.51797362412975
30
0
41
1
10
48.9118571823038
20
-1.50948301339156
30
0
41
1
10
48.9447419197083
20
-1.50770660086567
30
0
41
1
10
48.9968158183066
20
-1.50943563829364
30
0
41
1
10
49.0161285437686
20
-1.51101830874364
30
0
41
1
10
49.0363754679909
20
-1.51371066300891
30
0
41
1
10
49.0375460583942
20
-1.51386979319986
30
0
41
1
10
49.0387159227443
20
-1.51403296323721
30
0
0
SPLINE
5
1CE
100
AcDbEntity
8
1
62
256
6
ByLayer
370
13
48
1
60
0
100
AcDbSpline
70
4
71
3
72
12
73
8
40
0
40
0
40
0
40
0
40
0.027753964396557
40
0.027753964396557
40
0.667826589987148
40
0.667826589987148
40
1
40
1
40
1
40
1
41
1
10
48.6639115680571
20
-0.0410827624862407
30
0
41
1
10
48.66302249383
20
-0.0415946871150936
30
0
41
1
10
48.6621362973346
20
-0.0421065367086726
30
0
41
1
10
48.641139438886
20
-0.0542800928330109
30
0
41
1
10
48.6223677783528
20
-0.0661474247195315
30
0
41
1
10
48.5985834198732
20
-0.0827783083683755
30
0
41
1
10
48.5911418620728
20
-0.0883204733210334
30
0
41
1
10
48.5846560826642
20
-0.0935200609354752
30
0
0
SPLINE
5
1CF
100
AcDbEntity
8
1
62
256
6
ByLayer
370
13
48
1
60
0
100
AcDbSpline
70
4
71
3
72
10
73
6
40
0
40
0
40
0
40
0
40
0.820434354426583
40
0.820434354426583
40
1
40
1
40
1
40
1
41
1
10
48.5772670677278
20
-0.0990156686541184
30
0
41
1
10
48.6373176229178
20
-0.217732418190593
30
0
41
1
10
48.6907218307757
20
-0.339816250515639
30
0
41
1
10
48.7537878651402
20
-0.489187709367343
30
0
41
1
10
48.7650067820629
20
-0.516061722501775
30
0
41
1
10
48.7761342837706
20
-0.542971034672348
30
0
0
SPLINE
5
1D0
100
AcDbEntity
8
1
62
256
6
ByLayer
370
13
48
1
60
0
100
AcDbSpline
70
4
71
3
72
8
73
4
40
0
40
0
40
0
40
0
40
1
40
1
40
1
40
1
41
1
10
48.5846560826642
20
-0.0935200609354752
30
0
41
1
10
48.5821308679729
20
-0.0955445015155476
30
0
41
1
10
48.5796628452491
20
-0.0973801985340117
30
0
41
1
10
48.5772670677278
20
-0.0990156686541184
30
0
0
SPLINE
5
1D1
100
AcDbEntity
8
1
62
256
6
ByLayer
370
13
48
1
60
0
100
AcDbSpline
70
4
71
3
72
12
73
8
40
0
40
0
40
0
40
0
40
0.0278313206712517
40
0.0278313206712517
40
0.611473023609022
40
0.611473023609022
40
1
40
1
40
1
40
1
41
1
10
48.6639115680654
20
-2.30891723750355
30
0
41
1
10
48.6630224938381
20
-2.30840531287771
30
0
41
1
10
48.6621362973421
20
-2.30789346328802
30
0
41
1
10
48.6428803330612
20
-2.29672924262243
30
0
41
1
10
48.6256423082254
20
-2.2859187529854
30
0
41
1
10
48.6010972420243
20
-2.26908229024343
30
0
41
1
10
48.5922210960019
20
-2.26254473824679
30
0
41
1
10
48.584656082664
20
-2.25647993906443
30
0
0
SPLINE
5
1D2
100
AcDbEntity
8
1
62
256
6
ByLayer
370
13
48
1
60
0
100
AcDbSpline
70
4
71
3
72
8
73
4
40
0
40
0
40
0
40
0
40
1
40
1
40
1
40
1
41
1
10
48.584656082664
20
-2.25647993906443
30
0
41
1
10
48.5821308679729
20
-2.25445549848439
30
0
41
1
10
48.5796628452491
20
-2.25261980146598
30
0
41
1
10
48.5772670677278
20
-2.25098433134593
30
0
0
SPLINE
5
1D3
100
AcDbEntity
8
1
62
256
6
ByLayer
370
13
48
1
60
0
100
AcDbSpline
70
4
71
3
72
10
73
6
40
0
40
0
40
0
40
0
40
0.819881036339605
40
0.819881036339605
40
1
40
1
40
1
40
1
41
1
10
48.7761342837701
20
-1.80702896532881
30
0
41
1
10
48.7253430321445
20
-1.92985596472573
30
0
41
1
10
48.6729973133249
20
-2.05219353019737
30
0
41
1
10
48.6032770273131
20
-2.19864220966471
30
0
41
1
10
48.5904566776892
20
-2.22490917488309
30
0
41
1
10
48.5772670677279
20
-2.25098433134596
30
0
0
SPLINE
5
1D4
100
AcDbEntity
8
1
62
256
6
ByLayer
370
13
48
1
60
0
100
AcDbSpline
70
4
71
3
72
12
73
8
40
0
40
0
40
0
40
0
40
0.0277499781510944
40
0.0277499781510944
40
0.667808133384293
40
0.667808133384293
40
1
40
1
40
1
40
1
41
1
10
48.663911568057
20
-0.0410827624862691
30
0
41
1
10
48.6629034320477
20
-0.0411611799300147
30
0
41
1
10
48.6618982158727
20
-0.0412395951407518
30
0
41
1
10
48.6380665525594
20
-0.0431043677516243
30
0
41
1
10
48.61651808857
20
-0.044919348659505
30
0
41
1
10
48.5888224267558
20
-0.047459152869834
30
0
41
1
10
48.580073554872
20
-0.0483048712675611
30
0
41
1
10
48.5723583203581
20
-0.0490977768682797
30
0
0
SPLINE
5
1D5
100
AcDbEntity
8
1
62
256
6
ByLayer
370
13
48
1
60
0
100
AcDbSpline
70
4
71
3
72
12
73
8
40
0
40
0
40
0
40
0
40
0.0278272716373759
40
0.0278272716373759
40
0.611453167879501
40
0.611453167879501
40
1
40
1
40
1
40
1
41
1
10
48.6639115680571
20
-2.30891723751378
30
0
41
1
10
48.6629034319402
20
-2.30883882164935
30
0
41
1
10
48.6618982154425
20
-2.30876041117631
30
0
41
1
10
48.6400426145075
20
-2.30705022625332
30
0
41
1
10
48.6202762805606
20
-2.30539665951534
30
0
41
1
10
48.5917749645618
20
-2.30282478317116
30
0
41
1
10
48.5813573467759
20
-2.30182706584839
30
0
41
1
10
48.5723583203581
20
-2.30090222313174
30
0
0
SPLINE
5
1D6
100
AcDbEntity
8
1
62
256
6
ByLayer
370
13
48
1
60
0
100
AcDbSpline
70
4
71
3
72
26
73
22
40
0
40
0
40
0
40
0
40
0.102035501666901
40
0.102035501666901
40
0.129284389714829
40
0.129284389714829
40
0.254161410871578
40
0.254161410871578
40
0.386333886983898
40
0.386333886983898
40
0.523125606178389
40
0.523125606178389
40
0.658908540792033
40
0.658908540792033
40
0.795133361230144
40
0.795133361230144
40
0.895568684120736
40
0.895568684120736
40
0.931575554525879
40
0.931575554525879
40
1
40
1
40
1
40
1
41
1
10
48.9964890019636
20
-0.977664549634966
30
0
41
1
10
49.0131393767336
20
-0.982984123469606
30
0
41
1
10
49.0291034127914
20
-0.990655093270931
30
0
41
1
10
49.0463800184522
20
-1.00287203732404
30
0
41
1
10
49.04992822141
20
-1.0056310478254
30
0
41
1
10
49.0686371526018
20
-1.02157003765848
30
0
41
1
10
49.0810099307052
20
-1.03759829058714
30
0
41
1
10
49.1005417637305
20
-1.07387392098406
30
0
41
1
10
49.1077186636934
20
-1.09488611040845
30
0
41
1
10
49.116817379671
20
-1.13926495271968
30
0
41
1
10
49.1186673668159
20
-1.16332553433762
30
0
41
1
10
49.1168386014334
20
-1.21012920112267
30
0
41
1
10
49.1131780830524
20
-1.23352186077452
30
0
41
1
10
49.1002714091329
20
-1.27665924458981
30
0
41
1
10
49.0908281262292
20
-1.29702849752076
30
0
41
1
10
49.068731185536
20
-1.32750329662514
30
0
41
1
10
49.0572851116735
20
-1.33919679656665
30
0
41
1
10
49.0391386222023
20
-1.35231463733658
30
0
41
1
10
49.0340445533438
20
-1.35555662781093
30
0
41
1
10
49.0187059419968
20
-1.36410560254245
30
0
41
1
10
49.0077600338148
20
-1.36873450522398
30
0
41
1
10
48.9964890019636
20
-1.37233545036506
30
0
0
SPLINE
5
1D7
100
AcDbEntity
8
1
62
256
6
ByLayer
370
13
48
1
60
0
100
AcDbSpline
70
4
71
3
72
14
73
10
40
0
40
0
40
0
40
0
40
0.27475847941734
40
0.27475847941734
40
0.512436463803127
40
0.512436463803127
40
0.749993769781322
40
0.749993769781322
40
1
40
1
40
1
40
1
41
1
10
50.1896201413547
20
-1.46357222631158
30
0
41
1
10
50.2118015893238
20
-1.41543514272362
30
0
41
1
10
50.2306589366166
20
-1.36391044535935
30
0
41
1
10
50.253462576975
20
-1.26410401817827
30
0
41
1
10
50.2590594822314
20
-1.21555509005708
30
0
41
1
10
50.2578279543455
20
-1.11952522595422
30
0
41
1
10
50.2510126304754
20
-1.0712474359847
30
0
41
1
10
50.2272786525577
20
-0.976924595961862
30
0
41
1
10
50.2098376614737
20
-0.930302837987199
30
0
41
1
10
50.1896201413508
20
-0.886427773679998
30
0
0
SPLINE
5
1D8
100
AcDbEntity
8
1
62
256
6
ByLayer
370
13
48
1
60
0
100
AcDbSpline
70
4
71
3
72
8
73
4
40
0
40
0
40
0
40
0
40
1
40
1
40
1
40
1
41
1
10
48.5705951003268
20
-2.30043792813535
30
0
41
1
10
48.5711929686635
20
-2.30043792813535
30
0
41
1
10
48.5717967952489
20
-2.30058812698141
30
0
41
1
10
48.5723583203562
20
-2.30090222311713
30
0
0
SPLINE
5
1D9
100
AcDbEntity
8
1
62
256
6
ByLayer
370
13
48
1
60
0
100
AcDbSpline
70
4
71
3
72
8
73
4
40
0
40
0
40
0
40
0
40
1
40
1
40
1
40
1
41
1
10
48.5723583203562
20
-0.0490977768695586
30
0
41
1
10
48.5717967952486
20
-0.0494118730059938
30
0
41
1
10
48.5711929686639
20
-0.049562071864699
30
0
41
1
10
48.5705951003268
20
-0.049562071864699
30
0
0
SPLINE
5
1DA
100
AcDbEntity
8
1
62
256
6
ByLayer
370
13
48
1
60
0
100
AcDbSpline
70
4
71
3
72
10
73
6
40
0
40
0
40
0
40
0
40
0.84896187346875
40
0.84896187346875
40
1
40
1
40
1
40
1
41
1
10
52.9256851850747
20
-0.410234252889637
30
0
41
1
10
52.8912977154034
20
-0.358391449746364
30
0
41
1
10
52.843874742716
20
-0.31493580198125
30
0
41
1
10
52.7838155264513
20
-0.272930227861735
30
0
41
1
10
52.7744787017949
20
-0.26673629222222
30
0
41
1
10
52.7650107000385
20
-0.260756680760323
30
0
0
SPLINE
5
1DB
100
AcDbEntity
8
1
62
256
6
ByLayer
370
13
48
1
60
0
100
AcDbSpline
70
4
71
3
72
8
73
4
40
0
40
0
40
0
40
0
40
1
40
1
40
1
40
1
41
1
10
52.7650107000385
20
-0.260756680760323
30
0
41
1
10
52.7210937227593
20
-0.233020473325212
30
0
41
1
10
52.6769798114245
20
-0.205590825366386
30
0
41
1
10
52.632560747957
20
-0.178667336917613
30
0
0
SPLINE
5
1DC
100
AcDbEntity
8
1
62
256
6
ByLayer
370
13
48
1
60
0
100
AcDbSpline
70
4
71
3
72
10
73
6
40
0
40
0
40
0
40
0
40
0.657586553479613
40
0.657586553479613
40
1
40
1
40
1
40
1
41
1
10
52.632560747957
20
-0.178667336917613
30
0
41
1
10
52.6092305437702
20
-0.164526325516334
30
0
41
1
10
52.5864384919004
20
-0.149202905956599
30
0
41
1
10
52.5548281900598
20
-0.122294105410816
30
0
41
1
10
52.5444660370968
20
-0.112364665889345
30
0
41
1
10
52.535515563742
20
-0.101294389119346
30
0
0
SPLINE
5
1DD
100
AcDbEntity
8
1
62
256
6
ByLayer
370
13
48
1
60
0
100
AcDbSpline
70
4
71
3
72
10
73
6
40
0
40
0
40
0
40
0
40
0.657586553479614
40
0.657586553479614
40
1
40
1
40
1
40
1
41
1
10
52.632560747957
20
-2.17133266308244
30
0
41
1
10
52.6092305437702
20
-2.18547367448369
30
0
41
1
10
52.5864384919004
20
-2.20079709404342
30
0
41
1
10
52.5548281900598
20
-2.22770589458921
30
0
41
1
10
52.5444660370968
20
-2.23763533411071
30
0
41
1
10
52.535515563742
20
-2.2487056108807
30
0
0
SPLINE
5
1DE
100
AcDbEntity
8
1
62
256
6
ByLayer
370
13
48
1
60
0
100
AcDbSpline
70
4
71
3
72
8
73
4
40
0
40
0
40
0
40
0
40
1
40
1
40
1
40
1
41
1
10
52.7650107000385
20
-2.08924331923973
30
0
41
1
10
52.7210937227593
20
-2.11697952667484
30
0
41
1
10
52.6769798114245
20
-2.14440917463364
30
0
41
1
10
52.632560747957
20
-2.17133266308244
30
0
0
SPLINE
5
1DF
100
AcDbEntity
8
1
62
256
6
ByLayer
370
13
48
1
60
0
100
AcDbSpline
70
4
71
3
72
10
73
6
40
0
40
0
40
0
40
0
40
0.84896187346875
40
0.84896187346875
40
1
40
1
40
1
40
1
41
1
10
52.9256851850747
20
-1.93976574711041
30
0
41
1
10
52.8912977154034
20
-1.99160855025366
30
0
41
1
10
52.843874742716
20
-2.0350641980188
30
0
41
1
10
52.7838155264513
20
-2.07706977213832
30
0
41
1
10
52.7744787017949
20
-2.08326370777783
30
0
41
1
10
52.7650107000385
20
-2.08924331923973
30
0
0
SPLINE
5
1E0
100
AcDbEntity
8
1
62
256
6
ByLayer
370
13
48
1
60
0
100
AcDbSpline
70
4
71
3
72
14
73
10
40
0
40
0
40
0
40
0
40
0.0140322366304758
40
0.0140322366304758
40
0.158091565624719
40
0.158091565624719
40
0.557043656612004
40
0.557043656612004
40
1
40
1
40
1
40
1
41
1
10
49.0387159228241
20
-0.835967036748713
30
0
41
1
10
49.0379360645915
20
-0.836727769641016
30
0
41
1
10
49.0371559091054
20
-0.837485053770877
30
0
41
1
10
49.0282316685991
20
-0.846083565113503
30
0
41
1
10
49.0199670064645
20
-0.853503845987916
30
0
41
1
10
48.9889415558847
20
-0.87936739796109
30
0
41
1
10
48.9655368582111
20
-0.894805307019681
30
0
41
1
10
48.9187541033905
20
-0.91748914468198
30
0
41
1
10
48.8949133424734
20
-0.924009907033877
30
0
41
1
10
48.8743263124385
20
-0.924514135452455
30
0
0
SPLINE
5
1E1
100
AcDbEntity
8
1
62
256
6
ByLayer
370
13
48
1
60
0
100
AcDbSpline
70
4
71
3
72
14
73
10
40
0
40
0
40
0
40
0
40
0.362636115875106
40
0.362636115875106
40
0.759502173372961
40
0.759502173372961
40
0.986017775516147
40
0.986017775516147
40
1
40
1
40
1
40
1
41
1
10
48.8743263124385
20
-1.4254858645476
30
0
41
1
10
48.8912406290799
20
-1.42590013892902
30
0
41
1
10
48.9102969105352
20
-1.43033332875873
30
0
41
1
10
48.9517568775429
20
-1.44741211056984
30
0
41
1
10
48.9748386743135
20
-1.46101259474489
30
0
41
1
10
49.0105592323138
20
-1.48822635850595
30
0
41
1
10
49.023626747303
20
-1.49947959032014
30
0
41
1
10
49.0371559091053
20
-1.5125149462292
30
0
41
1
10
49.0379360645915
20
-1.51327223035909
30
0
41
1
10
49.0387159228241
20
-1.51403296325131
30
0
0
SPLINE
5
1E2
100
AcDbEntity
8
1
62
256
6
ByLayer
370
13
48
1
60
0
100
AcDbSpline
70
4
71
3
72
8
73
4
40
0
40
0
40
0
40
0
40
1
40
1
40
1
40
1
41
1
10
48.8743263124398
20
-0.924514135454899
30
0
41
1
10
48.9107270135585
20
-0.942528679366916
30
0
41
1
10
48.9486103280918
20
-0.959119884111175
30
0
41
1
10
48.9875073723822
20
-0.974244348201722
30
0
0
SPLINE
5
1E3
100
AcDbEntity
8
1
62
256
6
ByLayer
370
13
48
1
60
0
100
AcDbSpline
70
4
71
3
72
16
73
12
40
0
40
0
40
0
40
0
40
0.0355702320992689
40
0.0355702320992689
40
0.09050817101665
40
0.09050817101665
40
0.198049233530909
40
0.198049233530909
40
0.436780146594192
40
0.436780146594192
40
1
40
1
40
1
40
1
41
1
10
52.4647600217563
20
-2.30132203558654
30
0
41
1
10
52.4651586810189
20
-2.3003552596239
30
0
41
1
10
52.4655584542086
20
-2.29938892113208
30
0
41
1
10
52.4665771815565
20
-2.29692685495434
30
0
41
1
10
52.4671970808021
20
-2.29543150894054
30
0
41
1
10
52.4690334070427
20
-2.29101120095453
30
0
41
1
10
52.4702528942053
20
-2.28808779625504
30
0
41
1
10
52.4741930527674
20
-2.27868983859292
30
0
41
1
10
52.4769343827304
20
-2.27222805973437
30
0
41
1
10
52.4861946238307
20
-2.25065943605586
30
0
41
1
10
52.4928248586496
20
-2.23565238145096
30
0
41
1
10
52.4995116901682
20
-2.22099795981748
30
0
0
SPLINE
5
1E4
100
AcDbEntity
8
1
62
256
6
ByLayer
370
13
48
1
60
0
100
AcDbSpline
70
4
71
3
72
8
73
4
40
0
40
0
40
0
40
0
40
1
40
1
40
1
40
1
41
1
10
52.4647600217523
20
-2.30132203558844
30
0
41
1
10
52.3478492133727
20
-2.33207359087606
30
0
41
1
10
52.2265101800571
20
-2.34705728680282
30
0
41
1
10
52.1060768987951
20
-2.34986879813243
30
0
0
SPLINE
5
1E5
100
AcDbEntity
8
1
62
256
6
ByLayer
370
13
48
1
60
0
100
AcDbSpline
70
4
71
3
72
16
73
12
40
0
40
0
40
0
40
0
40
0.0355702320992689
40
0.0355702320992689
40
0.09050817101665
40
0.09050817101665
40
0.198049233530909
40
0.198049233530909
40
0.436780146594192
40
0.436780146594192
40
1
40
1
40
1
40
1
41
1
10
52.4647600217563
20
-0.048677964413514
30
0
41
1
10
52.4651586810189
20
-0.0496447403761522
30
0
41
1
10
52.4655584542086
20
-0.0506110788679734
30
0
41
1
10
52.4665771815565
20
-0.0530731450457154
30
0
41
1
10
52.4671970808021
20
-0.0545684910594844
30
0
41
1
10
52.4690334070427
20
-0.0589887990455225
30
0
41
1
10
52.4702528942053
20
-0.0619122037450097
30
0
41
1
10
52.4741930527674
20
-0.0713101614071263
30
0
41
1
10
52.4769343827304
20
-0.0777719402656487
30
0
41
1
10
52.4861946238307
20
-0.0993405639441676
30
0
41
1
10
52.4928248586496
20
-0.114347618549061
30
0
41
1
10
52.4995116901682
20
-0.12900204018257
30
0
0
SPLINE
5
1E6
100
AcDbEntity
8
1
62
256
6
ByLayer
370
13
48
1
60
0
100
AcDbSpline
70
4
71
3
72
10
73
6
40
0
40
0
40
0
40
0
40
0.638823417468865
40
0.638823417468865
40
1
40
1
40
1
40
1
41
1
10
52.5900286630425
20
-0.239976033664391
30
0
41
1
10
52.566841990865
20
-0.220289342074409
30
0
41
1
10
52.5449724664755
20
-0.198497712301275
30
0
41
1
10
52.5161775948407
20
-0.159980127010357
30
0
41
1
10
52.5068123576004
20
-0.145001704365029
30
0
41
1
10
52.4995116901682
20
-0.129002040182598
30
0
0
SPLINE
5
1E7
100
AcDbEntity
8
1
62
256
6
ByLayer
370
13
48
1
60
0
100
AcDbSpline
70
4
71
3
72
8
73
4
40
0
40
0
40
0
40
0
40
1
40
1
40
1
40
1
41
1
10
48.9875073723822
20
-1.37575565179833
30
0
41
1
10
48.9486103280918
20
-1.39088011588888
30
0
41
1
10
48.9107270135585
20
-1.40747132063311
30
0
41
1
10
48.8743263124398
20
-1.42548586454515
30
0
0
SPLINE
5
1E8
100
AcDbEntity
8
1
62
256
6
ByLayer
370
13
48
1
60
0
100
AcDbSpline
70
4
71
3
72
10
73
6
40
0
40
0
40
0
40
0
40
0.638823417468865
40
0.638823417468865
40
1
40
1
40
1
40
1
41
1
10
52.5900286630425
20
-2.11002396633566
30
0
41
1
10
52.566841990865
20
-2.12971065792561
30
0
41
1
10
52.5449724664755
20
-2.15150228769878
30
0
41
1
10
52.5161775948407
20
-2.19001987298969
30
0
41
1
10
52.5068123576004
20
-2.20499829563499
30
0
41
1
10
52.4995116901682
20
-2.22099795981745
30
0
0
SPLINE
5
1E9
100
AcDbEntity
8
1
62
256
6
ByLayer
370
13
48
1
60
0
100
AcDbSpline
70
4
71
3
72
8
73
4
40
0
40
0
40
0
40
0
40
1
40
1
40
1
40
1
41
1
10
52.4647600217523
20
-0.0486779644116098
30
0
41
1
10
52.3478492133727
20
-0.0179264091239872
30
0
41
1
10
52.2265101800571
20
-0.0029427131972284
30
0
41
1
10
52.1060768987951
20
-0.0001312018676174
30
0
0
SPLINE
5
1EA
100
AcDbEntity
8
1
62
256
6
ByLayer
370
13
48
1
60
0
100
AcDbSpline
70
4
71
3
72
8
73
4
40
0
40
0
40
0
40
0
40
1
40
1
40
1
40
1
41
1
10
48.9875073723822
20
-0.974244348201722
30
0
41
1
10
48.990499776207
20
-0.975384432035611
30
0
41
1
10
48.9934936621595
20
-0.976524499631012
30
0
41
1
10
48.9964890019636
20
-0.977664549634966
30
0
0
SPLINE
5
1EB
100
AcDbEntity
8
1
62
256
6
ByLayer
370
13
48
1
60
0
100
AcDbSpline
70
4
71
3
72
8
73
4
40
0
40
0
40
0
40
0
40
1
40
1
40
1
40
1
41
1
10
48.9964890019636
20
-1.37233545036506
30
0
41
1
10
48.9934936621595
20
-1.37347550036904
30
0
41
1
10
48.990499776207
20
-1.37461556796444
30
0
41
1
10
48.9875073723822
20
-1.37575565179833
30
0
0
SPLINE
5
1EC
100
AcDbEntity
8
1
62
256
6
ByLayer
370
13
48
1
60
0
100
AcDbSpline
70
4
71
3
72
8
73
4
40
0
40
0
40
0
40
0
40
1
40
1
40
1
40
1
41
1
10
48.8661840397672
20
-0.923975644447239
30
0
41
1
10
48.8686096513477
20
-0.923975644447239
30
0
41
1
10
48.8713428169147
20
-0.924151640098131
30
0
41
1
10
48.8743263124381
20
-0.924514135452512
30
0
0
SPLINE
5
1ED
100
AcDbEntity
8
1
62
256
6
ByLayer
370
13
48
1
60
0
100
AcDbSpline
70
4
71
3
72
8
73
4
40
0
40
0
40
0
40
0
40
1
40
1
40
1
40
1
41
1
10
48.8743263124385
20
-1.4254858645476
30
0
41
1
10
48.871342816915
20
-1.42584835990198
30
0
41
1
10
48.8686096513474
20
-1.42602435555293
30
0
41
1
10
48.8661840397669
20
-1.42602435555293
30
0
0
SPLINE
5
1EE
100
AcDbEntity
8
1
62
256
6
ByLayer
370
13
48
1
60
0
100
AcDbSpline
70
4
71
3
72
16
73
12
40
0
40
0
40
0
40
0
40
0.0355303527441481
40
0.0355303527441481
40
0.0917680599187357
40
0.0917680599187357
40
0.200182520092063
40
0.200182520092063
40
0.439533504711995
40
0.439533504711995
40
1
40
1
40
1
40
1
41
1
10
52.4647600217524
20
-0.0486779644116098
30
0
41
1
10
52.4655855998636
20
-0.0493116919935517
30
0
41
1
10
52.4664120929671
20
-0.0499449260105678
30
0
41
1
10
52.4685507889318
20
-0.0515828455440612
30
0
41
1
10
52.4698640688781
20
-0.0525871593141289
30
0
41
1
10
52.4737129338245
20
-0.0555260228996133
30
0
41
1
10
52.4762525536656
20
-0.0574594815919056
30
0
41
1
10
52.4844114693382
20
-0.0636507387095548
30
0
41
1
10
52.4900517136001
20
-0.0678990594861659
30
0
41
1
10
52.5089188273347
20
-0.0819955282560727
30
0
41
1
10
52.5222466489562
20
-0.0917682610634927
30
0
41
1
10
52.535515563742
20
-0.101294389119346
30
0
0
SPLINE
5
1EF
100
AcDbEntity
8
1
62
256
6
ByLayer
370
13
48
1
60
0
100
AcDbSpline
70
4
71
3
72
16
73
12
40
0
40
0
40
0
40
0
40
0.0355303527441481
40
0.0355303527441481
40
0.0917680599187357
40
0.0917680599187357
40
0.200182520092063
40
0.200182520092063
40
0.439533504711995
40
0.439533504711995
40
1
40
1
40
1
40
1
41
1
10
52.4647600217524
20
-2.30132203558844
30
0
41
1
10
52.4655855998636
20
-2.3006883080065
30
0
41
1
10
52.4664120929671
20
-2.30005507398948
30
0
41
1
10
52.4685507889318
20
-2.29841715445596
30
0
41
1
10
52.4698640688781
20
-2.29741284068592
30
0
41
1
10
52.4737129338245
20
-2.29447397710041
30
0
41
1
10
52.4762525536656
20
-2.29254051840815
30
0
41
1
10
52.4844114693382
20
-2.2863492612905
30
0
41
1
10
52.4900517136001
20
-2.28210094051388
30
0
41
1
10
52.5089188273347
20
-2.26800447174398
30
0
41
1
10
52.5222466489562
20
-2.25823173893656
30
0
41
1
10
52.535515563742
20
-2.2487056108807
30
0
0
SPLINE
5
1F0
100
AcDbEntity
8
1
62
256
6
ByLayer
370
13
48
1
60
0
100
AcDbSpline
70
4
71
3
72
8
73
4
40
0
40
0
40
0
40
0
40
1
40
1
40
1
40
1
41
1
10
52.1060768987951
20
-0.0001312018676174
30
0
41
1
10
51.9916360304015
20
0.0026921713632362
30
0
41
1
10
51.8749005955276
20
-0.0010610367292543
30
0
41
1
10
51.7587805434613
20
0.0034092273823205
30
0
0
SPLINE
5
1F1
100
AcDbEntity
8
1
62
256
6
ByLayer
370
13
48
1
60
0
100
AcDbSpline
70
4
71
3
72
8
73
4
40
0
40
0
40
0
40
0
40
1
40
1
40
1
40
1
41
1
10
52.1060768987951
20
-2.34986879813243
30
0
41
1
10
51.9916360304015
20
-2.35269217136329
30
0
41
1
10
51.8749005955276
20
-2.3489389632708
30
0
41
1
10
51.7587805434613
20
-2.35340922738234
30
0
0
SPLINE
5
1F2
100
AcDbEntity
8
1
62
256
6
ByLayer
370
13
48
1
60
0
100
AcDbSpline
70
4
71
3
72
10
73
6
40
0
40
0
40
0
40
0
40
0.155061591761428
40
0.155061591761428
40
1
40
1
40
1
40
1
41
1
10
52.7213895076228
20
-0.321301222962291
30
0
41
1
10
52.7304066184319
20
-0.32610706801799
30
0
41
1
10
52.7393274149503
20
-0.331098030329826
30
0
41
1
10
52.7954797246053
20
-0.364219223727417
30
0
41
1
10
52.8409287471059
20
-0.398482060699422
30
0
41
1
10
52.8749811562301
20
-0.441587089060448
30
0
0
SPLINE
5
1F3
100
AcDbEntity
8
1
62
256
6
ByLayer
370
13
48
1
60
0
100
AcDbSpline
70
4
71
3
72
10
73
6
40
0
40
0
40
0
40
0
40
0.155061591761428
40
0.155061591761428
40
1
40
1
40
1
40
1
41
1
10
52.7213895076228
20
-2.02869877703776
30
0
41
1
10
52.7304066184319
20
-2.02389293198206
30
0
41
1
10
52.7393274149503
20
-2.01890196967023
30
0
41
1
10
52.7954797246053
20
-1.98578077627263
30
0
41
1
10
52.8409287471059
20
-1.9515179393006
30
0
41
1
10
52.8749811562301
20
-1.90841291093958
30
0
0
SPLINE
5
1F4
100
AcDbEntity
8
1
62
256
6
ByLayer
370
13
48
1
60
0
100
AcDbSpline
70
4
71
3
72
12
73
8
40
0
40
0
40
0
40
0
40
0.0075770979405842
40
0.0075770979405842
40
0.524912447401083
40
0.524912447401083
40
1
40
1
40
1
40
1
41
1
10
52.4213727254144
20
-0.585924377577015
30
0
41
1
10
52.4226938848631
20
-0.585875364097035
30
0
41
1
10
52.4240151186687
20
-0.585828695226184
30
0
41
1
10
52.5154638182289
20
-0.582762206979055
30
0
41
1
10
52.6056735270381
20
-0.587526260392792
30
0
41
1
10
52.7786115881781
20
-0.591582589110516
30
0
41
1
10
52.8613940232688
20
-0.593902450128439
30
0
41
1
10
52.9441651422333
20
-0.596610381344419
30
0
0
SPLINE
5
1F5
100
AcDbEntity
8
1
62
256
6
ByLayer
370
13
48
1
60
0
100
AcDbSpline
70
4
71
3
72
12
73
8
40
0
40
0
40
0
40
0
40
0.0075770979405842
40
0.0075770979405842
40
0.524912447401083
40
0.524912447401083
40
1
40
1
40
1
40
1
41
1
10
52.4213727254144
20
-1.76407562242304
30
0
41
1
10
52.4226938848631
20
-1.76412463590302
30
0
41
1
10
52.4240151186687
20
-1.76417130477384
30
0
41
1
10
52.5154638182289
20
-1.767237793021
30
0
41
1
10
52.6056735270381
20
-1.76247373960726
30
0
41
1
10
52.7786115881781
20
-1.75841741088951
30
0
41
1
10
52.8613940232688
20
-1.75609754987158
30
0
41
1
10
52.9441651422333
20
-1.75338961865563
30
0
0
SPLINE
5
1F6
100
AcDbEntity
8
1
62
256
6
ByLayer
370
13
48
1
60
0
100
AcDbSpline
70
4
71
3
72
8
73
4
40
0
40
0
40
0
40
0
40
1
40
1
40
1
40
1
41
1
10
52.8749811562301
20
-0.441587089060477
30
0
41
1
10
52.8822263780105
20
-0.4507584075767
30
0
41
1
10
52.8893737130963
20
-0.460044666762059
30
0
41
1
10
52.8964383490931
20
-0.469393209538225
30
0
0
SPLINE
5
1F7
100
AcDbEntity
8
1
62
256
6
ByLayer
370
13
48
1
60
0
100
AcDbSpline
70
4
71
3
72
8
73
4
40
0
40
0
40
0
40
0
40
1
40
1
40
1
40
1
41
1
10
52.8749811562301
20
-1.90841291093958
30
0
41
1
10
52.8822263780105
20
-1.89924159242332
30
0
41
1
10
52.8893737130963
20
-1.88995533323796
30
0
41
1
10
52.8964383490931
20
-1.8806067904618
30
0
0
SPLINE
5
1F8
100
AcDbEntity
8
1
62
256
6
ByLayer
370
13
48
1
60
0
100
AcDbSpline
70
4
71
3
72
10
73
6
40
0
40
0
40
0
40
0
40
0.596085739020476
40
0.596085739020476
40
1
40
1
40
1
40
1
41
1
10
52.8964383490931
20
-0.469393209538225
30
0
41
1
10
52.9128939358857
20
-0.491168677815296
30
0
41
1
10
52.9267245821227
20
-0.515597099409206
30
0
41
1
10
52.94081187438
20
-0.559269480044094
30
0
41
1
10
52.944038381206
20
-0.578019014740761
30
0
41
1
10
52.9441651422481
20
-0.596610381339701
30
0
0
SPLINE
5
1F9
100
AcDbEntity
8
1
62
256
6
ByLayer
370
13
48
1
60
0
100
AcDbSpline
70
4
71
3
72
10
73
6
40
0
40
0
40
0
40
0
40
0.596085739020476
40
0.596085739020476
40
1
40
1
40
1
40
1
41
1
10
52.8964383490931
20
-1.8806067904618
30
0
41
1
10
52.9128939358857
20
-1.85883132218476
30
0
41
1
10
52.9267245821227
20
-1.83440290059085
30
0
41
1
10
52.94081187438
20
-1.79073051995596
30
0
41
1
10
52.944038381206
20
-1.77198098525929
30
0
41
1
10
52.9441651422481
20
-1.75338961866035
30
0
0
SPLINE
5
1FA
100
AcDbEntity
8
1
62
256
6
ByLayer
370
13
48
1
60
0
100
AcDbSpline
70
4
71
3
72
8
73
4
40
0
40
0
40
0
40
0
40
1
40
1
40
1
40
1
41
1
10
51.7587805434613
20
0.0034092273823205
30
0
41
1
10
51.6587308196864
20
0.0068490590907686
30
0
41
1
10
51.5579761895169
20
0.0028843275054555
30
0
41
1
10
51.4587805434613
20
-0.0105758146488881
30
0
0
SPLINE
5
1FB
100
AcDbEntity
8
1
62
256
6
ByLayer
370
13
48
1
60
0
100
AcDbSpline
70
4
71
3
72
8
73
4
40
0
40
0
40
0
40
0
40
1
40
1
40
1
40
1
41
1
10
51.7587805434613
20
-2.35340922738237
30
0
41
1
10
51.6587308196864
20
-2.35684905909082
30
0
41
1
10
51.5579761895169
20
-2.35288432750551
30
0
41
1
10
51.4587805434613
20
-2.33942418535116
30
0
0
SPLINE
5
1FC
100
AcDbEntity
8
1
62
256
6
ByLayer
370
13
48
1
60
0
100
AcDbSpline
70
4
71
3
72
16
73
12
40
0
40
0
40
0
40
0
40
0.113631665737173
40
0.113631665737173
40
0.758132216188134
40
0.758132216188134
40
0.942823120099093
40
0.942823120099093
40
0.947778003019258
40
0.947778003019258
40
1
40
1
40
1
40
1
41
1
10
51.2112677608008
20
-0.659158925489265
30
0
41
1
10
51.2332807942052
20
-0.652154856628329
30
0
41
1
10
51.2554088133189
20
-0.645502208856897
30
0
41
1
10
51.4026697940168
20
-0.603814430720405
30
0
41
1
10
51.5333481685156
20
-0.581072041250962
30
0
41
1
10
51.7009734748332
20
-0.58255657401628
30
0
41
1
10
51.7386296238166
20
-0.584362809453523
30
0
41
1
10
51.7773004835499
20
-0.585740964220946
30
0
41
1
10
51.7783108496887
20
-0.585776981554375
30
0
41
1
10
51.7899699703881
20
-0.586192624761111
30
0
41
1
10
51.80061882194
20
-0.586569538127122
30
0
41
1
10
51.8112677608007
20
-0.586943958529076
30
0
0
SPLINE
5
1FD
100
AcDbEntity
8
1
62
256
6
ByLayer
370
13
48
1
60
0
100
AcDbSpline
70
4
71
3
72
10
73
6
40
0
40
0
40
0
40
0
40
0.411878619131049
40
0.411878619131049
40
1
40
1
40
1
40
1
41
1
10
52.9970257408783
20
-1.75338961865577
30
0
41
1
10
52.9970257408783
20
-1.77649812455965
30
0
41
1
10
52.9938567437525
20
-1.79978014248871
30
0
41
1
10
52.9795589487909
20
-1.85384755364436
30
0
41
1
10
52.9654981180154
20
-1.8843262690558
30
0
41
1
10
52.9480487400853
20
-1.91207013848503
30
0
0
SPLINE
5
1FE
100
AcDbEntity
8
1
62
256
6
ByLayer
370
13
48
1
60
0
100
AcDbSpline
70
4
71
3
72
16
73
12
40
0
40
0
40
0
40
0
40
0.113631665737173
40
0.113631665737173
40
0.758132216188134
40
0.758132216188134
40
0.942823120099093
40
0.942823120099093
40
0.947778003019258
40
0.947778003019258
40
1
40
1
40
1
40
1
41
1
10
51.2112677608008
20
-1.69084107451079
30
0
41
1
10
51.2332807942052
20
-1.69784514337172
30
0
41
1
10
51.2554088133189
20
-1.70449779114315
30
0
41
1
10
51.4026697940168
20
-1.74618556927965
30
0
41
1
10
51.5333481685156
20
-1.76892795874909
30
0
41
1
10
51.7009734748332
20
-1.76744342598374
30
0
41
1
10
51.7386296238166
20
-1.76563719054653
30
0
41
1
10
51.7773004835499
20
-1.76425903577911
30
0
41
1
10
51.7783108496887
20
-1.76422301844568
30
0
41
1
10
51.7899699703881
20
-1.76380737523894
30
0
41
1
10
51.80061882194
20
-1.76343046187293
30
0
41
1
10
51.8112677608007
20
-1.76305604147098
30
0
0
SPLINE
5
1FF
100
AcDbEntity
8
1
62
256
6
ByLayer
370
13
48
1
60
0
100
AcDbSpline
70
4
71
3
72
10
73
6
40
0
40
0
40
0
40
0
40
0.411878619131049
40
0.411878619131049
40
1
40
1
40
1
40
1
41
1
10
52.9970257408783
20
-0.596610381344277
30
0
41
1
10
52.9970257408783
20
-0.5735018754404
30
0
41
1
10
52.9938567437525
20
-0.550219857511308
30
0
41
1
10
52.9795589487909
20
-0.496152446355666
30
0
41
1
10
52.9654981180154
20
-0.465673730944218
30
0
41
1
10
52.9480487400853
20
-0.437929861515016
30
0
0
SPLINE
5
200
100
AcDbEntity
8
1
62
256
6
ByLayer
370
13
48
1
60
0
100
AcDbSpline
70
4
71
3
72
8
73
4
40
0
40
0
40
0
40
0
40
1
40
1
40
1
40
1
41
1
10
52.9480487400851
20
-1.91207013848498
30
0
41
1
10
52.9406964490065
20
-1.92142203650715
30
0
41
1
10
52.9332455329699
20
-1.93067051448983
30
0
41
1
10
52.9256851850747
20
-1.93976574711041
30
0
0
SPLINE
5
201
100
AcDbEntity
8
1
62
256
6
ByLayer
370
13
48
1
60
0
100
AcDbSpline
70
4
71
3
72
8
73
4
40
0
40
0
40
0
40
0
40
1
40
1
40
1
40
1
41
1
10
52.9480487400851
20
-0.437929861515073
30
0
41
1
10
52.9406964490065
20
-0.428577963492899
30
0
41
1
10
52.9332455329699
20
-0.419329485510218
30
0
41
1
10
52.9256851850747
20
-0.410234252889609
30
0
0
SPLINE
5
202
100
AcDbEntity
8
1
62
256
6
ByLayer
370
13
48
1
60
0
100
AcDbSpline
70
4
71
3
72
12
73
8
40
0
40
0
40
0
40
0
40
0.390105015408732
40
0.390105015408732
40
0.395238792462735
40
0.395238792462735
40
1
40
1
40
1
40
1
41
1
10
51.8112677608007
20
-0.586943958529076
30
0
41
1
10
51.8930131894969
20
-0.589051703556521
30
0
41
1
10
51.9750694911571
20
-0.589462455781728
30
0
41
1
10
52.0568134956408
20
-0.589747957574389
30
0
41
1
10
52.0578786372164
20
-0.589751564283489
30
0
41
1
10
52.1833815366521
20
-0.590163136161664
30
0
41
1
10
52.306145891386
20
-0.589059217429707
30
0
41
1
10
52.4213727254144
20
-0.585924377577015
30
0
0
SPLINE
5
203
100
AcDbEntity
8
1
62
256
6
ByLayer
370
13
48
1
60
0
100
AcDbSpline
70
4
71
3
72
12
73
8
40
0
40
0
40
0
40
0
40
0.390105015408732
40
0.390105015408732
40
0.395238792462735
40
0.395238792462735
40
1
40
1
40
1
40
1
41
1
10
51.8112677608007
20
-1.76305604147098
30
0
41
1
10
51.8930131894969
20
-1.7609482964435
30
0
41
1
10
51.9750694911571
20
-1.76053754421832
30
0
41
1
10
52.0568134956408
20
-1.76025204242566
30
0
41
1
10
52.0578786372164
20
-1.76024843571656
30
0
41
1
10
52.1833815366521
20
-1.75983686383839
30
0
41
1
10
52.306145891386
20
-1.76094078257034
30
0
41
1
10
52.4213727254144
20
-1.76407562242304
30
0
0
SPLINE
5
204
100
AcDbEntity
8
1
62
256
6
ByLayer
370
18
48
1
60
0
100
AcDbSpline
70
4
71
3
72
16
73
12
40
0
40
0
40
0
40
0
40
0.210601603648632
40
0.210601603648632
40
0.421213120937357
40
0.421213120937357
40
0.631488126460197
40
0.631488126460197
40
0.839116239420829
40
0.839116239420829
40
1
40
1
40
1
40
1
41
1
10
53.0046912194301
20
0.130556253852944
30
0
41
1
10
53.004885104101
20
0.153478362356651
30
0
41
1
10
53.0011366843306
20
0.176715284839759
30
0
41
1
10
52.9864049129777
20
0.219975364705988
30
0
41
1
10
52.9752157349576
20
0.240599734746922
30
0
41
1
10
52.9470242400575
20
0.276345212223077
30
0
41
1
10
52.92963219728
20
0.291974406174631
30
0
41
1
10
52.8913444393929
20
0.315876340779539
30
0
41
1
10
52.8699543211539
20
0.324570036313787
30
0
41
1
10
52.8309045828753
20
0.332940730538894
30
0
41
1
10
52.8131262908524
20
0.334281852719926
30
0
41
1
10
52.7956316353027
20
0.333203797660644
30
0
0
SPLINE
5
205
100
AcDbEntity
8
1
62
256
6
ByLayer
370
18
48
1
60
0
100
AcDbSpline
70
4
71
3
72
10
73
6
40
0
40
0
40
0
40
0
40
0.584711417492912
40
0.584711417492912
40
1
40
1
40
1
40
1
41
1
10
44.6351939284819
20
-2.42500000000001
30
0
41
1
10
44.6376165600087
20
-2.42500000000001
30
0
41
1
10
44.6400566535847
20
-2.42500000000001
30
0
41
1
10
44.6442589248979
20
-2.42500000000001
30
0
41
1
10
44.6460127381757
20
-2.42500000000001
30
0
41
1
10
44.6477750315741
20
-2.42500000000001
30
0
0
SPLINE
5
206
100
AcDbEntity
8
1
62
256
6
ByLayer
370
18
48
1
60
0
100
AcDbSpline
70
4
71
3
72
16
73
12
40
0
40
0
40
0
40
0
40
0.202092460849674
40
0.202092460849674
40
0.404032245588857
40
0.404032245588857
40
0.608298678109005
40
0.608298678109005
40
0.816163444624768
40
0.816163444624768
40
1
40
1
40
1
40
1
41
1
10
52.7956316353027
20
-2.6832037976607
30
0
41
1
10
52.8174897444444
20
-2.68455073730627
30
0
41
1
10
52.8398491383955
20
-2.68208591533758
30
0
41
1
10
52.8818390291393
20
-2.67003574736449
30
0
41
1
10
52.9020457535964
20
-2.66029603383032
30
0
41
1
10
52.9378824730738
20
-2.63492758209154
30
0
41
1
10
52.9539463831898
20
-2.61889225267095
30
0
41
1
10
52.9798894042432
20
-2.58259648746667
30
0
41
1
10
52.9900129368111
20
-2.56177139643899
30
0
41
1
10
53.0020260177163
20
-2.52091570340261
30
0
41
1
10
53.0048610089749
20
-2.50062970448079
30
0
41
1
10
53.0046912194301
20
-2.480556253853
30
0
0
SPLINE
5
207
100
AcDbEntity
8
1
62
256
6
ByLayer
370
18
48
1
60
0
100
AcDbSpline
70
4
71
3
72
10
73
6
40
0
40
0
40
0
40
0
40
0.629562107774395
40
0.629562107774395
40
1
40
1
40
1
40
1
41
1
10
43.2
20
-2.42500000000001
30
0
41
1
10
43.1782969300919
20
-2.42500000000001
30
0
41
1
10
43.156172793229
20
-2.42135893680668
30
0
41
1
10
43.1231987911384
20
-2.41012178689502
30
0
41
1
10
43.1112516429095
20
-2.40470121981983
30
0
41
1
10
43.0999999999999
20
-2.39820508075715
30
0
0
SPLINE
5
208
100
AcDbEntity
8
1
62
256
6
ByLayer
370
18
48
1
60
0
100
AcDbSpline
70
4
71
3
72
10
73
6
40
0
40
0
40
0
40
0
40
0.62956174027551
40
0.62956174027551
40
1
40
1
40
1
40
1
41
1
10
43.1
20
0.0482050807568726
30
0
41
1
10
43.118944038489
20
0.0591424264780187
30
0
41
1
10
43.1400004695306
20
0.0670308411126541
30
0
41
1
10
43.1741148019193
20
0.073740528644322
30
0
41
1
10
43.1871096425299
20
0.0750000000000455
30
0
41
1
10
43.2
20
0.0750000000000455
30
0
0
SPLINE
5
209
100
AcDbEntity
8
1
62
256
6
ByLayer
370
18
48
1
60
0
100
AcDbSpline
70
4
71
3
72
10
73
6
40
0
40
0
40
0
40
0
40
0.76746257010027
40
0.76746257010027
40
1
40
1
40
1
40
1
41
1
10
44.6477750315741
20
0.0749999999999886
30
0
41
1
10
44.6445183560327
20
0.0749999999999886
30
0
41
1
10
44.6412905642182
20
0.0749999999999886
30
0
41
1
10
44.637123695827
20
0.0749999999999886
30
0
41
1
10
44.6361574346187
20
0.0749999999999886
30
0
41
1
10
44.6351939284819
20
0.0749999999999886
30
0
0
SPLINE
5
20A
100
AcDbEntity
8
1
62
256
6
ByLayer
370
18
48
1
60
0
100
AcDbSpline
70
4
71
3
72
14
73
10
40
0
40
0
40
0
40
0
40
0.209562190252725
40
0.209562190252725
40
0.419048660097219
40
0.419048660097219
40
0.628042586344193
40
0.628042586344193
40
1
40
1
40
1
40
1
41
1
10
51.4587805434613
20
0.234785311608448
30
0
41
1
10
51.3766126081606
20
0.22901126721942
30
0
41
1
10
51.294096633241
20
0.223691675713781
30
0
41
1
10
51.1317767669575
20
0.214185094795141
30
0
41
1
10
51.0514176992139
20
0.209965276982103
30
0
41
1
10
50.89577107806
20
0.202776509176715
30
0
41
1
10
50.8199400027966
20
0.199780093139168
30
0
41
1
10
50.6197346270461
20
0.193306129687954
30
0
41
1
10
50.5007351939601
20
0.191182128284055
30
0
41
1
10
50.3981203716825
20
0.191199736500749
30
0
0
SPLINE
5
20B
100
AcDbEntity
8
1
62
256
6
ByLayer
370
18
48
1
60
0
100
AcDbSpline
70
4
71
3
72
8
73
4
40
0
40
0
40
0
40
0
40
1
40
1
40
1
40
1
41
1
10
52.1060768987951
20
0.282412012963931
30
0
41
1
10
51.991741836253
20
0.272957390919657
30
0
41
1
10
51.8750917668497
20
0.264040026050253
30
0
41
1
10
51.7587805434613
20
0.255866689768538
30
0
0
SPLINE
5
20C
100
AcDbEntity
8
1
62
256
6
ByLayer
370
18
48
1
60
0
100
AcDbSpline
70
4
71
3
72
14
73
10
40
0
40
0
40
0
40
0
40
0.208995027535852
40
0.208995027535852
40
0.417850725206471
40
0.417850725206471
40
0.626704295977397
40
0.626704295977397
40
1
40
1
40
1
40
1
41
1
10
50.3981203716814
20
-2.54119973650179
30
0
41
1
10
50.4562077150717
20
-2.54118976898923
30
0
41
1
10
50.5193237323134
20
-2.54185595359723
30
0
41
1
10
50.6529850333382
20
-2.54451445266929
30
0
41
1
10
50.7239830856551
20
-2.54651499620726
30
0
41
1
10
50.8714347232616
20
-2.55177698764703
30
0
41
1
10
50.9483929364638
20
-2.55505642122702
30
0
41
1
10
51.1664550970089
20
-2.56576278802228
30
0
41
1
10
51.3134966889726
20
-2.57457603201789
30
0
41
1
10
51.4587805434602
20
-2.5847853116079
30
0
0
SPLINE
5
20D
100
AcDbEntity
8
1
62
256
6
ByLayer
370
18
48
1
60
0
100
AcDbSpline
70
4
71
3
72
8
73
4
40
0
40
0
40
0
40
0
40
1
40
1
40
1
40
1
41
1
10
51.7587805434613
20
-2.60586668976856
30
0
41
1
10
51.8750917668497
20
-2.61404002605028
30
0
41
1
10
51.991741836253
20
-2.62295739091971
30
0
41
1
10
52.1060768987951
20
-2.63241201296398
30
0
0
LINE
5
70
100
AcDbEntity
8
80
62
256
6
ByLayer
370
18
48
1
60
0
100
AcDbLine
10
0
20
0
30
0
11
-5
21
0
31
0
39
0
210
0
220
0
230
1
0
LINE
5
71
100
AcDbEntity
8
81
62
256
6
ByLayer
370
18
48
1
60
0
100
AcDbLine
10
53
20
-3
30
0
11
58
21
-3
31
0
39
0
210
0
220
0
230
1
0
LINE
5
72
100
AcDbEntity
8
SK1
62
256
6
ByLayer
370
18
48
1
60
0
100
AcDbLine
10
0
20
-8
30
0
11
-57
21
-8
31
0
39
0
210
0
220
0
230
1
0
LINE
5
74
100
AcDbEntity
8
SK1
62
256
6
ByLayer
370
18
48
1
60
0
100
AcDbLine
10
0
20
0
30
0
11
-57
21
0
31
0
39
0
210
0
220
0
230
1
0
LINE
5
75
100
AcDbEntity
8
SK1
62
256
6
ByLayer
370
18
48
1
60
0
100
AcDbLine
10
0
20
-1.5
30
0
11
0
21
0
31
0
39
0
210
0
220
0
230
1
0
LINE
5
76
100
AcDbEntity
8
SK1
62
256
6
ByLayer
370
18
48
1
60
0
100
AcDbLine
10
-57
20
0
30
0
11
-57
21
-1.5
31
0
39
0
210
0
220
0
230
1
0
LINE
5
77
100
AcDbEntity
8
SK1
62
256
6
ByLayer
370
18
48
1
60
0
100
AcDbLine
10
0
20
-8
30
0
11
0
21
-1.5
31
0
39
0
210
0
220
0
230
1
0
LINE
5
78
100
AcDbEntity
8
SK1
62
256
6
ByLayer
370
18
48
1
60
0
100
AcDbLine
10
0
20
-1.5
30
0
11
-57
21
-1.5
31
0
39
0
210
0
220
0
230
1
0
LINE
5
79
100
AcDbEntity
8
SK1
62
256
6
ByLayer
370
18
48
1
60
0
100
AcDbLine
10
-57
20
-1.5
30
0
11
-57
21
-8
31
0
39
0
210
0
220
0
230
1
0
LINE
5
7A
100
AcDbEntity
8
1
62
256
6
ByLayer
370
18
48
1
60
0
100
AcDbLine
10
19.33252
20
0
30
0
11
0
21
0
31
0
39
0
210
0
220
0
230
1
0
LINE
5
7C
100
AcDbEntity
8
1
62
256
6
ByLayer
370
13
48
1
60
0
100
AcDbLine
10
18.4
20
-3.95
30
0
11
24.625363
21
-3.95
31
0
39
0
210
0
220
0
230
1
0
LINE
5
7D
100
AcDbEntity
8
1
62
256
6
ByLayer
370
18
48
1
60
0
100
AcDbLine
10
44.290738
20
0
30
0
11
39.290738
21
0
31
0
39
0
210
0
220
0
230
1
0
LINE
5
7E
100
AcDbEntity
8
1
62
256
6
ByLayer
370
18
48
1
60
0
100
AcDbLine
10
44.290738
20
-2.35
30
0
11
39.290738
21
-2.35
31
0
39
0
210
0
220
0
230
1
0
LINE
5
7F
100
AcDbEntity
8
1
62
256
6
ByLayer
370
18
48
1
60
0
100
AcDbLine
10
18.4
20
-8
30
0
11
24.253682
21
-8
31
0
39
0
210
0
220
0
230
1
0
LINE
5
80
100
AcDbEntity
8
1
62
256
6
ByLayer
370
18
48
1
60
0
100
AcDbLine
10
24.274205
20
0
30
0
11
24.274205
21
-2.35
31
0
39
0
210
0
220
0
230
1
0
LINE
5
81
100
AcDbEntity
8
1
62
256
6
ByLayer
370
18
48
1
60
0
100
AcDbLine
10
24.274205
20
0
30
0
11
24.214815
21
0
31
0
39
0
210
0
220
0
230
1
0
LINE
5
82
100
AcDbEntity
8
1
62
256
6
ByLayer
370
18
48
1
60
0
100
AcDbLine
10
24.214815
20
0
30
0
11
19.33252
21
0
31
0
39
0
210
0
220
0
230
1
0
LINE
5
83
100
AcDbEntity
8
1
62
256
6
ByLayer
370
18
48
1
60
0
100
AcDbLine
10
48.35928
20
0
30
0
11
48.415611
21
-0.183431
31
0
39
0
210
0
220
0
230
1
0
LINE
5
84
100
AcDbEntity
8
1
62
256
6
ByLayer
370
18
48
1
60
0
100
AcDbLine
10
39.290738
20
-2.35
30
0
11
24.274205
21
-2.35
31
0
39
0
210
0
220
0
230
1
0
LINE
5
85
100
AcDbEntity
8
1
62
256
6
ByLayer
370
18
48
1
60
0
100
AcDbLine
10
39.290738
20
0
30
0
11
24.274205
21
0
31
0
39
0
210
0
220
0
230
1
0
LINE
5
86
100
AcDbEntity
8
1
62
256
6
ByLayer
370
18
48
1
60
0
100
AcDbLine
10
0
20
-8
30
0
11
0
21
-1.5
31
0
39
0
210
0
220
0
230
1
0
LINE
5
87
100
AcDbEntity
8
1
62
256
6
ByLayer
370
18
48
1
60
0
100
AcDbLine
10
19.33252
20
0
30
0
11
19.33252
21
-1.5
31
0
39
0
210
0
220
0
230
1
0
LINE
5
88
100
AcDbEntity
8
1
62
256
6
ByLayer
370
18
48
1
60
0
100
AcDbLine
10
18.4
20
-8
30
0
11
18.4
21
-3.95
31
0
39
0
210
0
220
0
230
1
0
LINE
5
89
100
AcDbEntity
8
1
62
256
6
ByLayer
370
18
48
1
60
0
100
AcDbLine
10
24.214815
20
-2.35
30
0
11
24.274205
21
-2.35
31
0
39
0
210
0
220
0
230
1
0
LINE
5
8A
100
AcDbEntity
8
1
62
256
6
ByLayer
370
18
48
1
60
0
100
AcDbLine
10
18.4
20
-8
30
0
11
0
21
-8
31
0
39
0
210
0
220
0
230
1
0
LINE
5
8B
100
AcDbEntity
8
1
62
256
6
ByLayer
370
18
48
1
60
0
100
AcDbLine
10
24.625363
20
-5.971281
30
0
11
24.625363
21
-3.95
31
0
39
0
210
0
220
0
230
1
0
LINE
5
8C
100
AcDbEntity
8
1
62
256
6
ByLayer
370
18
48
1
60
0
100
AcDbLine
10
19.33252
20
-1.5
30
0
11
0
21
-1.5
31
0
39
0
210
0
220
0
230
1
0
LINE
5
8D
100
AcDbEntity
8
1
62
256
6
ByLayer
370
18
48
1
60
0
100
AcDbLine
10
48.35928
20
-2.35
30
0
11
44.290738
21
-2.35
31
0
39
0
210
0
220
0
230
1
0
LINE
5
8E
100
AcDbEntity
8
1
62
256
6
ByLayer
370
18
48
1
60
0
100
AcDbLine
10
48.415611
20
-2.166569
30
0
11
48.415611
21
-1.739892
31
0
39
0
210
0
220
0
230
1
0
LINE
5
8F
100
AcDbEntity
8
1
62
256
6
ByLayer
370
18
48
1
60
0
100
AcDbLine
10
0
20
-1.5
30
0
11
0
21
0
31
0
39
0
210
0
220
0
230
1
0
LINE
5
90
100
AcDbEntity
8
1
62
256
6
ByLayer
370
18
48
1
60
0
100
AcDbLine
10
48.415611
20
-2.166569
30
0
11
48.35928
21
-2.35
31
0
39
0
210
0
220
0
230
1
0
LINE
5
91
100
AcDbEntity
8
1
62
256
6
ByLayer
370
13
48
1
60
0
100
AcDbLine
10
24.214815
20
0
30
0
11
24.214815
21
-2.35
31
0
39
0
210
0
220
0
230
1
0
LINE
5
92
100
AcDbEntity
8
1
62
256
6
ByLayer
370
13
48
1
60
0
100
AcDbLine
10
44.290738
20
-2.35
30
0
11
44.290738
21
0
31
0
39
0
210
0
220
0
230
1
0
LINE
5
93
100
AcDbEntity
8
1
62
256
6
ByLayer
370
13
48
1
60
0
100
AcDbLine
10
39.290738
20
0
30
0
11
39.290738
21
-2.35
31
0
39
0
210
0
220
0
230
1
0
LINE
5
94
100
AcDbEntity
8
1
62
256
6
ByLayer
370
18
48
1
60
0
100
AcDbLine
10
20
20
-2.35
30
0
11
24.214815
21
-2.35
31
0
39
0
210
0
220
0
230
1
0
LINE
5
95
100
AcDbEntity
8
1
62
256
6
ByLayer
370
18
48
1
60
0
100
AcDbLine
10
48.415611
20
-0.610108
30
0
11
48.415611
21
-0.183431
31
0
39
0
210
0
220
0
230
1
0
LINE
5
96
100
AcDbEntity
8
1
62
256
6
ByLayer
370
18
48
1
60
0
100
AcDbLine
10
48.35928
20
0
30
0
11
44.290738
21
0
31
0
39
0
210
0
220
0
230
1
0
LINE
5
97
100
AcDbEntity
8
1
62
256
6
ByLayer
370
13
48
1
60
0
100
AcDbLine
10
43.665685
20
-3E-06
30
0
11
43.665685
21
0.075
31
0
39
0
210
0
220
0
230
1
0
LINE
5
98
100
AcDbEntity
8
1
62
256
6
ByLayer
370
13
48
1
60
0
100
AcDbLine
10
43.665685
20
-2.349997
30
0
11
43.665685
21
-2.425
31
0
39
0
210
0
220
0
230
1
0
LINE
5
99
100
AcDbEntity
8
1
62
256
6
ByLayer
370
13
48
1
60
0
100
AcDbLine
10
49.455978
20
-2.425
30
0
11
49.455978
21
-2.001756
31
0
39
0
210
0
220
0
230
1
0
LINE
5
9A
100
AcDbEntity
8
1
62
256
6
ByLayer
370
13
48
1
60
0
100
AcDbLine
10
49.607676
20
-2.009465
30
0
11
49.880446
21
-2.022896
31
0
39
0
210
0
220
0
230
1
0
LINE
5
9B
100
AcDbEntity
8
1
62
256
6
ByLayer
370
13
48
1
60
0
100
AcDbLine
10
50.137538
20
-2.533919
30
0
11
50.116974
21
-2.239845
31
0
39
0
210
0
220
0
230
1
0
LINE
5
9C
100
AcDbEntity
8
1
62
256
6
ByLayer
370
13
48
1
60
0
100
AcDbLine
10
50.137538
20
0.183919
30
0
11
50.116974
21
-0.110155
31
0
39
0
210
0
220
0
230
1
0
LINE
5
9D
100
AcDbEntity
8
1
62
256
6
ByLayer
370
13
48
1
60
0
100
AcDbLine
10
49.880446
20
-0.327104
30
0
11
49.607676
21
-0.340535
31
0
39
0
210
0
220
0
230
1
0
LINE
5
9E
100
AcDbEntity
8
1
62
256
6
ByLayer
370
13
48
1
60
0
100
AcDbLine
10
49.455978
20
-0.348244
30
0
11
49.455978
21
0.075
31
0
39
0
210
0
220
0
230
1
0
LINE
5
9F
100
AcDbEntity
8
1
62
256
6
ByLayer
370
13
48
1
60
0
100
AcDbLine
10
50.39812
20
-2.222848
30
0
11
50.39812
21
-2.5412
31
0
39
0
210
0
220
0
230
1
0
LINE
5
A0
100
AcDbEntity
8
1
62
256
6
ByLayer
370
13
48
1
60
0
100
AcDbLine
10
51.458781
20
-2.339424
30
0
11
51.458781
21
-2.584785
31
0
39
0
210
0
220
0
230
1
0
LINE
5
A1
100
AcDbEntity
8
1
62
256
6
ByLayer
370
13
48
1
60
0
100
AcDbLine
10
50.030516
20
-0.481271
30
0
11
49.880446
21
-0.327104
31
0
39
0
210
0
220
0
230
1
0
LINE
5
A2
100
AcDbEntity
8
1
62
256
6
ByLayer
370
13
48
1
60
0
100
AcDbLine
10
51.458781
20
-0.010576
30
0
11
51.458781
21
0.234785
31
0
39
0
210
0
220
0
230
1
0
LINE
5
A3
100
AcDbEntity
8
1
62
256
6
ByLayer
370
13
48
1
60
0
100
AcDbLine
10
50.39812
20
-0.127152
30
0
11
50.39812
21
0.1912
31
0
39
0
210
0
220
0
230
1
0
LINE
5
A4
100
AcDbEntity
8
1
62
256
6
ByLayer
370
13
48
1
60
0
100
AcDbLine
10
49.880446
20
-2.022896
30
0
11
50.030516
21
-1.868729
31
0
39
0
210
0
220
0
230
1
0
LINE
5
A5
100
AcDbEntity
8
1
62
256
6
ByLayer
370
13
48
1
60
0
100
AcDbLine
10
49.607676
20
-2.009465
30
0
11
49.621372
21
-1.73131
31
0
39
0
210
0
220
0
230
1
0
LINE
5
A6
100
AcDbEntity
8
1
62
256
6
ByLayer
370
13
48
1
60
0
100
AcDbLine
10
49.851055
20
-1.74262
30
0
11
49.621372
21
-1.73131
31
0
39
0
210
0
220
0
230
1
0
LINE
5
A7
100
AcDbEntity
8
1
62
256
6
ByLayer
370
13
48
1
60
0
100
AcDbLine
10
49.621372
20
-0.61869
30
0
11
49.851055
21
-0.60738
31
0
39
0
210
0
220
0
230
1
0
LINE
5
A8
100
AcDbEntity
8
1
62
256
6
ByLayer
370
13
48
1
60
0
100
AcDbLine
10
49.621372
20
-0.61869
30
0
11
49.607676
21
-0.340535
31
0
39
0
210
0
220
0
230
1
0
LINE
5
A9
100
AcDbEntity
8
1
62
256
6
ByLayer
370
13
48
1
60
0
100
AcDbLine
10
50.293328
20
-2.22453
30
0
11
50.315472
21
-2.541214
31
0
39
0
210
0
220
0
230
1
0
LINE
5
AA
100
AcDbEntity
8
1
62
256
6
ByLayer
370
13
48
1
60
0
100
AcDbLine
10
50.293328
20
-0.12547
30
0
11
50.315472
21
0.191214
31
0
39
0
210
0
220
0
230
1
0
LINE
5
AB
100
AcDbEntity
8
1
62
256
6
ByLayer
370
13
48
1
60
0
100
AcDbLine
10
49.864379
20
-0.61869
30
0
11
49.621372
21
-0.61869
31
0
39
0
210
0
220
0
230
1
0
LINE
5
AC
100
AcDbEntity
8
1
62
256
6
ByLayer
370
13
48
1
60
0
100
AcDbLine
10
49.864379
20
-1.73131
30
0
11
49.621372
21
-1.73131
31
0
39
0
210
0
220
0
230
1
0
LINE
5
AD
100
AcDbEntity
8
1
62
256
6
ByLayer
370
13
48
1
60
0
100
AcDbLine
10
49.387574
20
-2.001756
30
0
11
49.455978
21
-2.001756
31
0
39
0
210
0
220
0
230
1
0
LINE
5
AE
100
AcDbEntity
8
1
62
256
6
ByLayer
370
13
48
1
60
0
100
AcDbLine
10
49.387574
20
-0.348244
30
0
11
49.455978
21
-0.348244
31
0
39
0
210
0
220
0
230
1
0
LINE
5
AF
100
AcDbEntity
8
1
62
256
6
ByLayer
370
13
48
1
60
0
100
AcDbLine
10
49.387574
20
0.075
30
0
11
49.387574
21
-0.348244
31
0
39
0
210
0
220
0
230
1
0
LINE
5
B0
100
AcDbEntity
8
1
62
256
6
ByLayer
370
13
48
1
60
0
100
AcDbLine
10
49.387574
20
-2.001756
30
0
11
49.387574
21
-2.425
31
0
39
0
210
0
220
0
230
1
0
LINE
5
B1
100
AcDbEntity
8
1
62
256
6
ByLayer
370
13
48
1
60
0
100
AcDbLine
10
48.663912
20
-2.425
30
0
11
48.663912
21
-2.308917
31
0
39
0
210
0
220
0
230
1
0
LINE
5
B2
100
AcDbEntity
8
1
62
256
6
ByLayer
370
13
48
1
60
0
100
AcDbLine
10
48.663912
20
-0.041083
30
0
11
48.663912
21
0.075
31
0
39
0
210
0
220
0
230
1
0
LINE
5
B3
100
AcDbEntity
8
1
62
256
6
ByLayer
370
13
48
1
60
0
100
AcDbLine
10
51.114687
20
-1.994384
30
0
11
51.211268
21
-1.690841
31
0
39
0
210
0
220
0
230
1
0
LINE
5
B4
100
AcDbEntity
8
1
62
256
6
ByLayer
370
13
48
1
60
0
100
AcDbLine
10
51.114687
20
-0.355616
30
0
11
51.211268
21
-0.659159
31
0
39
0
210
0
220
0
230
1
0
LINE
5
B5
100
AcDbEntity
8
1
62
256
6
ByLayer
370
13
48
1
60
0
100
AcDbLine
10
48.383813
20
-0.977665
30
0
11
48.552254
21
-0.977665
31
0
39
0
210
0
220
0
230
1
0
LINE
5
B6
100
AcDbEntity
8
1
62
256
6
ByLayer
370
13
48
1
60
0
100
AcDbLine
10
48.46942
20
-0.807002
30
0
11
48.779442
21
-0.807002
31
0
39
0
210
0
220
0
230
1
0
LINE
5
B7
100
AcDbEntity
8
1
62
256
6
ByLayer
370
13
48
1
60
0
100
AcDbLine
10
48.415611
20
-0.35649
30
0
11
48.46942
21
-0.807002
31
0
39
0
210
0
220
0
230
1
0
LINE
5
B8
100
AcDbEntity
8
1
62
256
6
ByLayer
370
13
48
1
60
0
100
AcDbLine
10
48.577267
20
-0.099016
30
0
11
48.384859
21
-0.099016
31
0
39
0
210
0
220
0
230
1
0
LINE
5
B9
100
AcDbEntity
8
1
62
256
6
ByLayer
370
13
48
1
60
0
100
AcDbLine
10
48.577267
20
-2.250984
30
0
11
48.384859
21
-2.250984
31
0
39
0
210
0
220
0
230
1
0
LINE
5
BA
100
AcDbEntity
8
1
62
256
6
ByLayer
370
13
48
1
60
0
100
AcDbLine
10
48.415611
20
-1.99351
30
0
11
48.46942
21
-1.542998
31
0
39
0
210
0
220
0
230
1
0
LINE
5
BB
100
AcDbEntity
8
1
62
256
6
ByLayer
370
13
48
1
60
0
100
AcDbLine
10
48.46942
20
-1.542998
30
0
11
48.779442
21
-1.542998
31
0
39
0
210
0
220
0
230
1
0
LINE
5
BC
100
AcDbEntity
8
1
62
256
6
ByLayer
370
13
48
1
60
0
100
AcDbLine
10
48.572358
20
0.075
30
0
11
48.572358
21
-0.049098
31
0
39
0
210
0
220
0
230
1
0
LINE
5
BD
100
AcDbEntity
8
1
62
256
6
ByLayer
370
13
48
1
60
0
100
AcDbLine
10
48.572358
20
-2.300902
30
0
11
48.572358
21
-2.425
31
0
39
0
210
0
220
0
230
1
0
LINE
5
BE
100
AcDbEntity
8
1
62
256
6
ByLayer
370
13
48
1
60
0
100
AcDbLine
10
51.211268
20
-0.659159
30
0
11
51.211268
21
-1.690841
31
0
39
0
210
0
220
0
230
1
0
LINE
5
BF
100
AcDbEntity
8
1
62
256
6
ByLayer
370
13
48
1
60
0
100
AcDbLine
10
48.38199
20
-2.425
30
0
11
48.38199
21
-2.300438
31
0
39
0
210
0
220
0
230
1
0
LINE
5
C0
100
AcDbEntity
8
1
62
256
6
ByLayer
370
13
48
1
60
0
100
AcDbLine
10
48.38199
20
-2.300438
30
0
11
48.570595
21
-2.300438
31
0
39
0
210
0
220
0
230
1
0
LINE
5
C1
100
AcDbEntity
8
1
62
256
6
ByLayer
370
13
48
1
60
0
100
AcDbLine
10
48.38199
20
-0.049562
30
0
11
48.570595
21
-0.049562
31
0
39
0
210
0
220
0
230
1
0
LINE
5
C2
100
AcDbEntity
8
1
62
256
6
ByLayer
370
13
48
1
60
0
100
AcDbLine
10
48.38199
20
0.075
30
0
11
48.38199
21
-0.049562
31
0
39
0
210
0
220
0
230
1
0
LINE
5
C3
100
AcDbEntity
8
1
62
256
6
ByLayer
370
13
48
1
60
0
100
AcDbLine
10
53.000117
20
-0.410234
30
0
11
52.925685
21
-0.410234
31
0
39
0
210
0
220
0
230
1
0
LINE
5
C4
100
AcDbEntity
8
1
62
256
6
ByLayer
370
13
48
1
60
0
100
AcDbLine
10
52.535516
20
-0.101294
30
0
11
52.535516
21
0.317175
31
0
39
0
210
0
220
0
230
1
0
LINE
5
C5
100
AcDbEntity
8
1
62
256
6
ByLayer
370
13
48
1
60
0
100
AcDbLine
10
52.535516
20
-2.248706
30
0
11
52.535516
21
-2.667175
31
0
39
0
210
0
220
0
230
1
0
LINE
5
C6
100
AcDbEntity
8
1
62
256
6
ByLayer
370
13
48
1
60
0
100
AcDbLine
10
53.000117
20
-1.939766
30
0
11
52.925685
21
-1.939766
31
0
39
0
210
0
220
0
230
1
0
LINE
5
C7
100
AcDbEntity
8
1
62
256
6
ByLayer
370
13
48
1
60
0
100
AcDbLine
10
52.46476
20
0.312072
30
0
11
52.46476
21
-0.048678
31
0
39
0
210
0
220
0
230
1
0
LINE
5
C8
100
AcDbEntity
8
1
62
256
6
ByLayer
370
13
48
1
60
0
100
AcDbLine
10
52.106077
20
-0.000131
30
0
11
52.106077
21
0.282412
31
0
39
0
210
0
220
0
230
1
0
LINE
5
C9
100
AcDbEntity
8
1
62
256
6
ByLayer
370
13
48
1
60
0
100
AcDbLine
10
52.106077
20
-2.349869
30
0
11
52.106077
21
-2.632412
31
0
39
0
210
0
220
0
230
1
0
LINE
5
CA
100
AcDbEntity
8
1
62
256
6
ByLayer
370
13
48
1
60
0
100
AcDbLine
10
52.46476
20
-2.662072
30
0
11
52.46476
21
-2.301322
31
0
39
0
210
0
220
0
230
1
0
LINE
5
CB
100
AcDbEntity
8
1
62
256
6
ByLayer
370
13
48
1
60
0
100
AcDbLine
10
48.506333
20
-0.923976
30
0
11
48.866184
21
-0.923976
31
0
39
0
210
0
220
0
230
1
0
LINE
5
CC
100
AcDbEntity
8
1
62
256
6
ByLayer
370
13
48
1
60
0
100
AcDbLine
10
51.758781
20
0.003409
30
0
11
51.758781
21
0.255867
31
0
39
0
210
0
220
0
230
1
0
LINE
5
CD
100
AcDbEntity
8
1
62
256
6
ByLayer
370
13
48
1
60
0
100
AcDbLine
10
48.506333
20
-1.426024
30
0
11
48.866184
21
-1.426024
31
0
39
0
210
0
220
0
230
1
0
LINE
5
CE
100
AcDbEntity
8
1
62
256
6
ByLayer
370
13
48
1
60
0
100
AcDbLine
10
51.758781
20
-2.353409
30
0
11
51.758781
21
-2.605867
31
0
39
0
210
0
220
0
230
1
0
LINE
5
CF
100
AcDbEntity
8
1
62
256
6
ByLayer
370
13
48
1
60
0
100
AcDbLine
10
48.374468
20
-0.049562
30
0
11
48.38199
21
-0.049562
31
0
39
0
210
0
220
0
230
1
0
LINE
5
D0
100
AcDbEntity
8
1
62
256
6
ByLayer
370
13
48
1
60
0
100
AcDbLine
10
44.966112
20
1E-06
30
0
11
44.966112
21
0.075
31
0
39
0
210
0
220
0
230
1
0
LINE
5
D1
100
AcDbEntity
8
1
62
256
6
ByLayer
370
13
48
1
60
0
100
AcDbLine
10
44.966112
20
-2.350001
30
0
11
44.966112
21
-2.425
31
0
39
0
210
0
220
0
230
1
0
LINE
5
D2
100
AcDbEntity
8
1
62
256
6
ByLayer
370
13
48
1
60
0
100
AcDbLine
10
48.374468
20
-2.300438
30
0
11
48.38199
21
-2.300438
31
0
39
0
210
0
220
0
230
1
0
LINE
5
D3
100
AcDbEntity
8
1
62
256
6
ByLayer
370
13
48
1
60
0
100
AcDbLine
10
48.391919
20
-0.807002
30
0
11
48.46942
21
-0.807002
31
0
39
0
210
0
220
0
230
1
0
LINE
5
D4
100
AcDbEntity
8
1
62
256
6
ByLayer
370
13
48
1
60
0
100
AcDbLine
10
48.391919
20
-1.542998
30
0
11
48.46942
21
-1.542998
31
0
39
0
210
0
220
0
230
1
0
LINE
5
D5
100
AcDbEntity
8
1
62
256
6
ByLayer
370
13
48
1
60
0
100
AcDbLine
10
48.54904
20
-0.974244
30
0
11
48.987507
21
-0.974244
31
0
39
0
210
0
220
0
230
1
0
LINE
5
D6
100
AcDbEntity
8
1
62
256
6
ByLayer
370
13
48
1
60
0
100
AcDbLine
10
51.82193
20
-0.283704
30
0
11
51.811268
21
-0.586944
31
0
39
0
210
0
220
0
230
1
0
LINE
5
D7
100
AcDbEntity
8
1
62
256
6
ByLayer
370
13
48
1
60
0
100
AcDbLine
10
51.82193
20
-2.066296
30
0
11
51.811268
21
-1.763056
31
0
39
0
210
0
220
0
230
1
0
LINE
5
D8
100
AcDbEntity
8
1
62
256
6
ByLayer
370
13
48
1
60
0
100
AcDbLine
10
48.54904
20
-1.375756
30
0
11
48.987507
21
-1.375756
31
0
39
0
210
0
220
0
230
1
0
LINE
5
D9
100
AcDbEntity
8
1
62
256
6
ByLayer
370
13
48
1
60
0
100
AcDbLine
10
52.944165
20
-0.59661
30
0
11
52.997026
21
-0.59661
31
0
39
0
210
0
220
0
230
1
0
LINE
5
DA
100
AcDbEntity
8
1
62
256
6
ByLayer
370
13
48
1
60
0
100
AcDbLine
10
52.944165
20
-1.75339
30
0
11
52.997026
21
-1.75339
31
0
39
0
210
0
220
0
230
1
0
LINE
5
DB
100
AcDbEntity
8
1
62
256
6
ByLayer
370
13
48
1
60
0
100
AcDbLine
10
52.948049
20
-1.91207
30
0
11
53
21
-1.91207
31
0
39
0
210
0
220
0
230
1
0
LINE
5
DC
100
AcDbEntity
8
1
62
256
6
ByLayer
370
13
48
1
60
0
100
AcDbLine
10
52.997026
20
-1.75339
30
0
11
52.997026
21
-0.59661
31
0
39
0
210
0
220
0
230
1
0
LINE
5
DD
100
AcDbEntity
8
1
62
256
6
ByLayer
370
13
48
1
60
0
100
AcDbLine
10
52.948049
20
-0.43793
30
0
11
53
21
-0.43793
31
0
39
0
210
0
220
0
230
1
0
LINE
5
DE
100
AcDbEntity
8
1
62
256
6
ByLayer
370
13
48
1
60
0
100
AcDbLine
10
48.552254
20
-1.372335
30
0
11
48.996489
21
-1.372335
31
0
39
0
210
0
220
0
230
1
0
LINE
5
DF
100
AcDbEntity
8
1
62
256
6
ByLayer
370
13
48
1
60
0
100
AcDbLine
10
48.552254
20
-0.977665
30
0
11
48.996489
21
-0.977665
31
0
39
0
210
0
220
0
230
1
0
LINE
5
E0
100
AcDbEntity
8
1
62
256
6
ByLayer
370
13
48
1
60
0
100
AcDbLine
10
52.421373
20
-0.585924
30
0
11
52.421373
21
-1.764076
31
0
39
0
210
0
220
0
230
1
0
LINE
5
E1
100
AcDbEntity
8
1
62
256
6
ByLayer
370
13
48
1
60
0
100
AcDbLine
10
52.944165
20
-0.59661
30
0
11
52.944165
21
-1.75339
31
0
39
0
210
0
220
0
230
1
0
LINE
5
E2
100
AcDbEntity
8
1
62
256
6
ByLayer
370
13
48
1
60
0
100
AcDbLine
10
48.54904
20
-0.974244
30
0
11
48.552254
21
-0.977665
31
0
39
0
210
0
220
0
230
1
0
LINE
5
E3
100
AcDbEntity
8
1
62
256
6
ByLayer
370
13
48
1
60
0
100
AcDbLine
10
48.54904
20
-1.375756
30
0
11
48.552254
21
-1.372335
31
0
39
0
210
0
220
0
230
1
0
LINE
5
E4
100
AcDbEntity
8
1
62
256
6
ByLayer
370
13
48
1
60
0
100
AcDbLine
10
51.811268
20
-0.586944
30
0
11
51.811268
21
-1.763056
31
0
39
0
210
0
220
0
230
1
0
LINE
5
E5
100
AcDbEntity
8
1
62
256
6
ByLayer
370
13
48
1
60
0
100
AcDbLine
10
48.385697
20
-1.426024
30
0
11
48.506333
21
-1.426024
31
0
39
0
210
0
220
0
230
1
0
LINE
5
E6
100
AcDbEntity
8
1
62
256
6
ByLayer
370
13
48
1
60
0
100
AcDbLine
10
48.383896
20
-1.375756
30
0
11
48.54904
21
-1.375756
31
0
39
0
210
0
220
0
230
1
0
LINE
5
E7
100
AcDbEntity
8
1
62
256
6
ByLayer
370
13
48
1
60
0
100
AcDbLine
10
48.385697
20
-0.923976
30
0
11
48.506333
21
-0.923976
31
0
39
0
210
0
220
0
230
1
0
LINE
5
E8
100
AcDbEntity
8
1
62
256
6
ByLayer
370
13
48
1
60
0
100
AcDbLine
10
48.383813
20
-1.372335
30
0
11
48.552254
21
-1.372335
31
0
39
0
210
0
220
0
230
1
0
LINE
5
E9
100
AcDbEntity
8
1
62
256
6
ByLayer
370
13
48
1
60
0
100
AcDbLine
10
48.383896
20
-0.974244
30
0
11
48.54904
21
-0.974244
31
0
39
0
210
0
220
0
230
1
0
LINE
5
EA
100
AcDbEntity
8
1
62
256
6
ByLayer
370
13
48
1
60
0
100
AcDbLine
10
44.589581
20
-2.425
30
0
11
44.545758
21
-2.349998
31
0
39
0
210
0
220
0
230
1
0
LINE
5
EB
100
AcDbEntity
8
1
62
256
6
ByLayer
370
13
48
1
60
0
100
AcDbLine
10
44.589581
20
0.075
30
0
11
44.545758
21
-2E-06
31
0
39
0
210
0
220
0
230
1
0
LINE
5
EC
100
AcDbEntity
8
1
62
256
6
ByLayer
370
13
48
1
60
0
100
AcDbLine
10
43.1
20
0.048205
30
0
11
43.1
21
-3.5E-05
31
0
39
0
210
0
220
0
230
1
0
LINE
5
ED
100
AcDbEntity
8
1
62
256
6
ByLayer
370
13
48
1
60
0
100
AcDbLine
10
43.1
20
-2.349965
30
0
11
43.1
21
-2.398205
31
0
39
0
210
0
220
0
230
1
0
LINE
5
EE
100
AcDbEntity
8
1
62
256
6
ByLayer
370
18
48
1
60
0
100
AcDbLine
10
49.69752
20
0.132909
30
0
11
49.64436
21
0.102217
31
0
39
0
210
0
220
0
230
1
0
LINE
5
EF
100
AcDbEntity
8
1
62
256
6
ByLayer
370
18
48
1
60
0
100
AcDbLine
10
53.000117
20
-0.410234
30
0
11
53.004691
21
0.130556
31
0
39
0
210
0
220
0
230
1
0
LINE
5
F0
100
AcDbEntity
8
1
62
256
6
ByLayer
370
18
48
1
60
0
100
AcDbLine
10
53
20
-1.91207
30
0
11
53
21
-0.43793
31
0
39
0
210
0
220
0
230
1
0
LINE
5
F1
100
AcDbEntity
8
1
62
256
6
ByLayer
370
18
48
1
60
0
100
AcDbLine
10
43.2
20
-2.425
30
0
11
43.665685
21
-2.425
31
0
39
0
210
0
220
0
230
1
0
LINE
5
F2
100
AcDbEntity
8
1
62
256
6
ByLayer
370
18
48
1
60
0
100
AcDbLine
10
44.589581
20
0.075
30
0
11
43.665685
21
0.075
31
0
39
0
210
0
220
0
230
1
0
LINE
5
F3
100
AcDbEntity
8
1
62
256
6
ByLayer
370
18
48
1
60
0
100
AcDbLine
10
48.663912
20
-2.425
30
0
11
49.387574
21
-2.425
31
0
39
0
210
0
220
0
230
1
0
LINE
5
F4
100
AcDbEntity
8
1
62
256
6
ByLayer
370
18
48
1
60
0
100
AcDbLine
10
43.665685
20
-2.425
30
0
11
44.589581
21
-2.425
31
0
39
0
210
0
220
0
230
1
0
LINE
5
F5
100
AcDbEntity
8
1
62
256
6
ByLayer
370
18
48
1
60
0
100
AcDbLine
10
50.39812
20
0.1912
30
0
11
50.315472
21
0.191214
31
0
39
0
210
0
220
0
230
1
0
LINE
5
F6
100
AcDbEntity
8
1
62
256
6
ByLayer
370
18
48
1
60
0
100
AcDbLine
10
49.795343
20
-2.509991
30
0
11
50.137538
21
-2.533919
31
0
39
0
210
0
220
0
230
1
0
LINE
5
F7
100
AcDbEntity
8
1
62
256
6
ByLayer
370
18
48
1
60
0
100
AcDbLine
10
44.966112
20
0.075
30
0
11
44.647775
21
0.075
31
0
39
0
210
0
220
0
230
1
0
LINE
5
F8
100
AcDbEntity
8
1
62
256
6
ByLayer
370
18
48
1
60
0
100
AcDbLine
10
52.535516
20
-2.667175
30
0
11
52.795632
21
-2.683204
31
0
39
0
210
0
220
0
230
1
0
LINE
5
F9
100
AcDbEntity
8
1
62
256
6
ByLayer
370
18
48
1
60
0
100
AcDbLine
10
44.966112
20
-2.425
30
0
11
48.38199
21
-2.425
31
0
39
0
210
0
220
0
230
1
0
LINE
5
FA
100
AcDbEntity
8
1
62
256
6
ByLayer
370
18
48
1
60
0
100
AcDbLine
10
49.387574
20
0.075
30
0
11
48.663912
21
0.075
31
0
39
0
210
0
220
0
230
1
0
LINE
5
FB
100
AcDbEntity
8
1
62
256
6
ByLayer
370
18
48
1
60
0
100
AcDbLine
10
52.46476
20
0.312072
30
0
11
52.106077
21
0.282412
31
0
39
0
210
0
220
0
230
1
0
LINE
5
FC
100
AcDbEntity
8
1
62
256
6
ByLayer
370
18
48
1
60
0
100
AcDbLine
10
48.38199
20
0.075
30
0
11
44.966112
21
0.075
31
0
39
0
210
0
220
0
230
1
0
LINE
5
FD
100
AcDbEntity
8
1
62
256
6
ByLayer
370
18
48
1
60
0
100
AcDbLine
10
49.553398
20
-2.425
30
0
11
49.455978
21
-2.425
31
0
39
0
210
0
220
0
230
1
0
LINE
5
FE
100
AcDbEntity
8
1
62
256
6
ByLayer
370
18
48
1
60
0
100
AcDbLine
10
44.647775
20
-2.425
30
0
11
44.966112
21
-2.425
31
0
39
0
210
0
220
0
230
1
0
LINE
5
FF
100
AcDbEntity
8
1
62
256
6
ByLayer
370
18
48
1
60
0
100
AcDbLine
10
49.455978
20
0.075
30
0
11
49.387574
21
0.075
31
0
39
0
210
0
220
0
230
1
0
LINE
5
100
100
AcDbEntity
8
1
62
256
6
ByLayer
370
18
48
1
60
0
100
AcDbLine
10
52.795632
20
0.333204
30
0
11
52.535516
21
0.317175
31
0
39
0
210
0
220
0
230
1
0
LINE
5
101
100
AcDbEntity
8
1
62
256
6
ByLayer
370
18
48
1
60
0
100
AcDbLine
10
51.458781
20
-2.584785
30
0
11
51.758781
21
-2.605867
31
0
39
0
210
0
220
0
230
1
0
LINE
5
102
100
AcDbEntity
8
1
62
256
6
ByLayer
370
18
48
1
60
0
100
AcDbLine
10
49.654705
20
-2.452118
30
0
11
49.709449
21
-2.483724
31
0
39
0
210
0
220
0
230
1
0
LINE
5
103
100
AcDbEntity
8
1
62
256
6
ByLayer
370
18
48
1
60
0
100
AcDbLine
10
49.387574
20
-2.425
30
0
11
49.455978
21
-2.425
31
0
39
0
210
0
220
0
230
1
0
LINE
5
104
100
AcDbEntity
8
1
62
256
6
ByLayer
370
18
48
1
60
0
100
AcDbLine
10
52.106077
20
-2.632412
30
0
11
52.46476
21
-2.662072
31
0
39
0
210
0
220
0
230
1
0
LINE
5
105
100
AcDbEntity
8
1
62
256
6
ByLayer
370
18
48
1
60
0
100
AcDbLine
10
50.315472
20
-2.541214
30
0
11
50.39812
21
-2.5412
31
0
39
0
210
0
220
0
230
1
0
LINE
5
106
100
AcDbEntity
8
1
62
256
6
ByLayer
370
18
48
1
60
0
100
AcDbLine
10
48.572358
20
0.075
30
0
11
48.38199
21
0.075
31
0
39
0
210
0
220
0
230
1
0
LINE
5
107
100
AcDbEntity
8
1
62
256
6
ByLayer
370
18
48
1
60
0
100
AcDbLine
10
44.589581
20
-2.425
30
0
11
44.635194
21
-2.425
31
0
39
0
210
0
220
0
230
1
0
LINE
5
108
100
AcDbEntity
8
1
62
256
6
ByLayer
370
18
48
1
60
0
100
AcDbLine
10
51.758781
20
0.255867
30
0
11
51.458781
21
0.234785
31
0
39
0
210
0
220
0
230
1
0
LINE
5
109
100
AcDbEntity
8
1
62
256
6
ByLayer
370
18
48
1
60
0
100
AcDbLine
10
50.137538
20
0.183919
30
0
11
49.78336
21
0.159153
31
0
39
0
210
0
220
0
230
1
0
LINE
5
10A
100
AcDbEntity
8
1
62
256
6
ByLayer
370
18
48
1
60
0
100
AcDbLine
10
48.663912
20
0.075
30
0
11
48.572358
21
0.075
31
0
39
0
210
0
220
0
230
1
0
LINE
5
10B
100
AcDbEntity
8
1
62
256
6
ByLayer
370
18
48
1
60
0
100
AcDbLine
10
48.572358
20
-2.425
30
0
11
48.663912
21
-2.425
31
0
39
0
210
0
220
0
230
1
0
LINE
5
10C
100
AcDbEntity
8
1
62
256
6
ByLayer
370
18
48
1
60
0
100
AcDbLine
10
44.635194
20
0.075
30
0
11
44.589581
21
0.075
31
0
39
0
210
0
220
0
230
1
0
LINE
5
10D
100
AcDbEntity
8
1
62
256
6
ByLayer
370
18
48
1
60
0
100
AcDbLine
10
53.004691
20
-2.480556
30
0
11
53.000117
21
-1.939766
31
0
39
0
210
0
220
0
230
1
0
LINE
5
10E
100
AcDbEntity
8
1
62
256
6
ByLayer
370
18
48
1
60
0
100
AcDbLine
10
49.455978
20
0.075
30
0
11
49.542652
21
0.075
31
0
39
0
210
0
220
0
230
1
0
LINE
5
10F
100
AcDbEntity
8
1
62
256
6
ByLayer
370
18
48
1
60
0
100
AcDbLine
10
48.38199
20
-2.425
30
0
11
48.572358
21
-2.425
31
0
39
0
210
0
220
0
230
1
0
LINE
5
110
100
AcDbEntity
8
1
62
256
6
ByLayer
370
18
48
1
60
0
100
AcDbLine
10
43.665685
20
0.075
30
0
11
43.2
21
0.075
31
0
39
0
210
0
220
0
230
1
0
LINE
5
111
100
AcDbEntity
8
SK2
62
256
6
ByLayer
370
18
48
1
60
0
100
AcDbLine
10
-57
20
22.933569
30
0
11
53
21
22.933569
31
0
39
0
210
0
220
0
230
1
0
LINE
5
113
100
AcDbEntity
8
SK2
62
256
6
ByLayer
370
18
48
1
60
0
100
AcDbLine
10
53
20
-1
30
0
11
53
21
24.933569
31
0
39
0
210
0
220
0
230
1
0
LINE
5
114
100
AcDbEntity
8
SK2
62
256
6
ByLayer
370
18
48
1
60
0
100
AcDbLine
10
-57
20
2
30
0
11
-57
21
24.933569
31
0
39
0
210
0
220
0
230
1
0
LINE
5
115
100
AcDbEntity
8
SK2
62
256
6
ByLayer
370
18
48
1
60
0
100
AcDbLine
10
53
20
22.933569
30
0
11
49.825002
21
22.515573
31
0
39
0
210
0
220
0
230
1
0
LINE
5
116
100
AcDbEntity
8
SK2
62
256
6
ByLayer
370
18
48
1
60
0
100
AcDbLine
10
53
20
22.933569
30
0
11
49.824998
21
23.351566
31
0
39
0
210
0
220
0
230
1
0
LINE
5
117
100
AcDbEntity
8
SK2
62
256
6
ByLayer
370
18
48
1
60
0
100
AcDbLine
10
49.825002
20
22.515573
30
0
11
49.824998
21
23.351566
31
0
39
0
210
0
220
0
230
1
0
LINE
5
118
100
AcDbEntity
8
SK2
62
256
6
ByLayer
370
18
48
1
60
0
100
AcDbLine
10
-57
20
22.933569
30
0
11
-53.825002
21
23.351566
31
0
39
0
210
0
220
0
230
1
0
LINE
5
119
100
AcDbEntity
8
SK2
62
256
6
ByLayer
370
18
48
1
60
0
100
AcDbLine
10
-57
20
22.933569
30
0
11
-53.824998
21
22.515573
31
0
39
0
210
0
220
0
230
1
0
LINE
5
11A
100
AcDbEntity
8
SK2
62
256
6
ByLayer
370
18
48
1
60
0
100
AcDbLine
10
-53.825002
20
23.351566
30
0
11
-53.824998
21
22.515573
31
0
39
0
210
0
220
0
230
1
0
LINE
5
11B
100
AcDbEntity
8
SK2
62
256
6
ByLayer
370
13
48
1
60
0
100
AcDbLine
10
-66.60005
20
-16.75
30
0
11
-66.60005
21
8.75
31
0
39
0
210
0
220
0
230
1
0
LINE
5
11C
100
AcDbEntity
8
SK2
62
256
6
ByLayer
370
13
48
1
60
0
100
AcDbLine
10
-59
20
0
30
0
11
-68.60005
21
0
31
0
39
0
210
0
220
0
230
1
0
LINE
5
11D
100
AcDbEntity
8
SK2
62
256
6
ByLayer
370
13
48
1
60
0
100
AcDbLine
10
-59
20
-8
30
0
11
-68.60005
21
-8
31
0
39
0
210
0
220
0
230
1
0
LINE
5
11E
100
AcDbEntity
8
SK2
62
256
6
ByLayer
370
18
48
1
60
0
100
AcDbLine
10
-66.60005
20
0
30
0
11
-67.018047
21
3.174998
31
0
39
0
210
0
220
0
230
1
0
LINE
5
11F
100
AcDbEntity
8
SK2
62
256
6
ByLayer
370
18
48
1
60
0
100
AcDbLine
10
-66.60005
20
0
30
0
11
-66.182053
21
3.175002
31
0
39
0
210
0
220
0
230
1
0
LINE
5
120
100
AcDbEntity
8
SK2
62
256
6
ByLayer
370
18
48
1
60
0
100
AcDbLine
10
-67.018047
20
3.174998
30
0
11
-66.182053
21
3.175002
31
0
39
0
210
0
220
0
230
1
0
LINE
5
121
100
AcDbEntity
8
SK2
62
256
6
ByLayer
370
18
48
1
60
0
100
AcDbLine
10
-66.60005
20
-8
30
0
11
-66.182053
21
-11.174998
31
0
39
0
210
0
220
0
230
1
0
LINE
5
122
100
AcDbEntity
8
SK2
62
256
6
ByLayer
370
18
48
1
60
0
100
AcDbLine
10
-66.60005
20
-8
30
0
11
-67.018047
21
-11.175002
31
0
39
0
210
0
220
0
230
1
0
LINE
5
123
100
AcDbEntity
8
SK2
62
256
6
ByLayer
370
18
48
1
60
0
100
AcDbLine
10
-66.182053
20
-11.174998
30
0
11
-67.018047
21
-11.175002
31
0
39
0
210
0
220
0
230
1
0
MTEXT
5
20E
100
AcDbEntity
8
SK6
62
256
6
ByLayer
370
18
48
1
60
0
100
AcDbMText
10
-33.625025
20
-54.70824
30
0
210
0
220
0
230
1
1
\W0.7471;QD-RR1G33C21D
40
3.5
41
0
44
1.084337
50
0
71
7
72
5
7
iso_b_vert
0
MTEXT
5
212
100
AcDbEntity
8
SK2
62
256
6
ByLayer
370
18
48
1
60
0
100
AcDbMText
10
-3.579605
20
23.808569
30
0
210
0
220
0
230
1
1
\W0.5296;110
40
3.5
41
0
44
1.084337
50
0
71
7
72
5
7
iso_b_vert
0
MTEXT
5
213
100
AcDbEntity
8
SK2
62
256
6
ByLayer
370
18
48
1
60
0
100
AcDbMText
10
-67.47505
20
-3.884868
30
0
210
0
220
0
230
1
1
\W0.5404;8
40
3.5
41
0
44
1.084337
50
89.9999999999999
71
7
72
5
7
iso_b_vert
0
DIMENSION
5
222
100
AcDbEntity
8
2
62
256
6
ByLayer
370
13
48
1
60
0
100
AcDbDimension
2
DimnDraft3D1
10
20
20
-21.10005
30
0
11
34.409211
21
-21.10005
31
0
70
32
71
5
72
1
41
1
210
0
220
0
230
1
3
Standard
100
AcDbAlignedDimension
13
53
23
-5
33
0
14
20
24
-10
34
0
50
0
100
AcDbRotatedDimension
1001
ACAD
1000
DSTYLE
1002
{
1070
   279
1070
     0
1070
   172
1070
     1
1070
   173
1070
     1
1070
   340
1005
20F
1070
   271
1070
     1
1070
    77
1070
     1
1070
    73
1070
     0
1070
   171
1070
     3
1070
   274
1070
     4
1070
   177
1070
     2
1070
   176
1070
     2
1070
   178
1070
     7
1070
    78
1070
     8
1070
    41
1041
3.175
1070
   147
1041
1.75
1070
    42
1041
2.0
1070
    44
1041
2.0
1070
   140
1041
3.5
1070
   343
1005
223
1070
   344
1005
223
1002
}
0
DIMENSION
5
237
100
AcDbEntity
8
2
62
256
6
ByLayer
370
13
48
1
60
0
100
AcDbDimension
2
DimnDraft3D2
10
71.1
20
0
30
0
11
71.1
21
-14.820789
31
0
70
32
71
5
72
1
41
1
210
0
220
0
230
1
3
Standard
100
AcDbAlignedDimension
13
55
23
-3
33
0
14
55
24
0
34
0
50
90
100
AcDbRotatedDimension
1001
ACAD
1000
DSTYLE
1002
{
1070
    74
1070
     0
1070
   279
1070
     0
1070
   172
1070
     1
1070
   173
1070
     1
1070
   340
1005
20F
1070
   271
1070
     1
1070
    77
1070
     1
1070
    73
1070
     0
1070
   171
1070
     3
1070
   274
1070
     4
1070
   177
1070
     2
1070
   176
1070
     2
1070
   178
1070
     7
1070
    78
1070
     8
1070
    41
1041
3.175
1070
   147
1041
1.75
1070
    42
1041
2.0
1070
    44
1041
2.0
1070
   140
1041
3.5
1070
   343
1005
223
1070
   344
1005
223
1002
}
0
ENDSEC
0
SECTION
2
OBJECTS
0
DICTIONARY
5
2a1
330
0
100
AcDbDictionary
280
0
281
1
3
ACAD_GROUP
350
2a2
3
ACAD_MLINESTYLE
350
2a3
0
DICTIONARY
5
2a2
330
0
100
AcDbDictionary
280
0
281
1
0
DICTIONARY
5
2a3
330
0
100
AcDbDictionary
280
0
281
1
3
Standard
350
18
0
MLINESTYLE
5
18
330
2a3
100
AcDbMlineStyle
2
Standard
70
0
3

62
256
51
90
52
90
71
2
49
-0.5
62
256
6
ByLayer
49
0.5
62
256
6
ByLayer
0
RASTERVARIABLES
5
290
330

100
AcDbRasterVariables
90
0
70
1
71
1
72
1
0
ENDSEC
0
EOF
