0
SECTION
2
HEADER
9
$ACADVER
1
AC1015
9
$DWGCODEPAGE
3
ANSI_1252
9
$HANDSEED
5
2b7
9
$ANGBASE
50
0
9
$ANGDIR
70
0
9
$ATTMODE
70
1
9
$AUNITS
70
0
9
$AUPREC
70
0
9
$CECOLOR
62
256
9
$CELTSCALE
40
1
9
$CELTYPE
6
ByLayer
9
$CELWEIGHT
370
18
9
$CLAYER
8
0
9
$CMLJUST
70
0
9
$CMLSCALE
40
1
9
$CMLSTYLE
2
Standard
9
$DIMSTYLE
2
Standard
9
$TEXTSIZE
40
0.2
9
$TEXTSTYLE
7
Standard
9
$LUNITS
70
2
9
$LUPREC
70
4
9
$EXTNAMES
290
1
9
$INSUNITS
70
4
9
$LTSCALE
40
1
9
$LWDISPLAY
290
1
9
$PDMODE
70
0
9
$PDSIZE
40
0
9
$PLINEGEN
70
0
0
ENDSEC
0
SECTION
2
CLASSES
0
CLASS
1
RASTERVARIABLES
2
AcDbRasterVariables
3
ISM
90
0
280
0
281
0
0
ENDSEC
0
SECTION
2
TABLES
0
TABLE
2
VPORT
5
2ad
100
AcDbSymbolTable
0
VPORT
5
1
100
AcDbSymbolTableRecord
100
AcDbViewportTableRecord
2
*Active
70
0
10
0
20
0
11
1
21
1
12
-1
22
1
13
0
23
0
14
0.5
24
0.5
15
10
25
10
16
0
26
0
36
1
17
0
27
0
37
0
0
ENDTAB
0
TABLE
2
LTYPE
5
2ae
100
AcDbSymbolTable
0
LTYPE
5
14
100
AcDbSymbolTableRecord
100
AcDbLinetypeTableRecord
70
0
2
ByBlock
3

72
65
73
0
40
0
0
LTYPE
5
15
100
AcDbSymbolTableRecord
100
AcDbLinetypeTableRecord
70
0
2
ByLayer
3

72
65
73
0
40
0
0
LTYPE
5
16
100
AcDbSymbolTableRecord
100
AcDbLinetypeTableRecord
70
0
2
CONTINUOUS
3
Solid line
72
65
73
0
40
0
0
LTYPE
5
6A
100
AcDbSymbolTableRecord
100
AcDbLinetypeTableRecord
70
0
2
CENTER
3
____ _ ____ _ ____ _ ____
72
65
73
4
40
47.5
49
22
74
0
49
-8.5
74
0
49
8.5
74
0
49
-8.5
74
0
0
LTYPE
5
6B
100
AcDbSymbolTableRecord
100
AcDbLinetypeTableRecord
70
0
2
DASHED
3
__ __ __ __ __ __ __ __ __
72
65
73
2
40
25.72
49
12.86
74
0
49
-12.86
74
0
0
ENDTAB
0
TABLE
2
LAYER
5
2af
100
AcDbSymbolTable
0
LAYER
5
10
100
AcDbSymbolTableRecord
100
AcDbLayerTableRecord
2
0
70
0
62
7
6
CONTINUOUS
290
1
370
-3
390
0
0
LAYER
5
6D
100
AcDbSymbolTableRecord
100
AcDbLayerTableRecord
2
81
70
0
62
-3
6
CONTINUOUS
290
1
370
-3
390
0
0
LAYER
5
6F
100
AcDbSymbolTableRecord
100
AcDbLayerTableRecord
2
80
70
0
62
-6
6
CONTINUOUS
290
1
370
-3
390
0
0
LAYER
5
7B
100
AcDbSymbolTableRecord
100
AcDbLayerTableRecord
2
1
70
0
62
4
6
CONTINUOUS
290
1
370
-3
390
0
0
LAYER
5
21F
100
AcDbSymbolTableRecord
100
AcDbLayerTableRecord
2
2
70
0
62
7
6
CONTINUOUS
290
1
370
-3
390
0
0
LAYER
5
29a
100
AcDbSymbolTableRecord
100
AcDbLayerTableRecord
2
SK1
70
0
62
4
6
CONTINUOUS
290
1
370
-3
390
0
0
LAYER
5
29b
100
AcDbSymbolTableRecord
100
AcDbLayerTableRecord
2
SK2
70
0
62
7
6
CONTINUOUS
290
1
370
-3
390
0
0
LAYER
5
29c
100
AcDbSymbolTableRecord
100
AcDbLayerTableRecord
2
SK6
70
0
62
5
6
CONTINUOUS
290
1
370
-3
390
0
0
ENDTAB
0
TABLE
2
STYLE
5
2b0
100
AcDbSymbolTable
0
STYLE
5
11
100
AcDbSymbolTableRecord
100
AcDbTextStyleTableRecord
2
Standard
3
txt
70
0
71
0
40
0
41
1
42
0
50
0
0
STYLE
5
218
100
AcDbSymbolTableRecord
100
AcDbTextStyleTableRecord
2
iso_b_vert
3
simplex.shx
70
0
71
0
40
0
41
1
42
0
50
0
0
STYLE
5
219
100
AcDbSymbolTableRecord
100
AcDbTextStyleTableRecord
2
DWGDirectTextStyle
3
simplex
70
0
71
0
40
0
41
1
42
0
50
0
0
ENDTAB
0
TABLE
2
DIMSTYLE
5
2b1
100
AcDbSymbolTable
100
AcDbDimStyleTable
0
DIMSTYLE
105
27
100
AcDbSymbolTableRecord
100
AcDbDimStyleTableRecord
2
Standard
70
0
3
<>
41
0.18
42
0.0625
44
0.18
140
0.18
147
0.09
73
0
74
0
77
1
271
2
275
0
278
52
280
0
340
11
0
ENDTAB
0
TABLE
2
VIEW
5
2b2
100
AcDbSymbolTable
0
ENDTAB
0
TABLE
2
UCS
5
2b3
100
AcDbSymbolTable
0
ENDTAB
0
TABLE
2
APPID
5
2b4
100
AcDbSymbolTable
0
APPID
5
12
100
AcDbSymbolTableRecord
100
AcDbRegAppTableRecord
2
ACAD
70
0
0
ENDTAB
0
TABLE
2
BLOCK_RECORD
5
2b5
100
AcDbSymbolTable
0
BLOCK_RECORD
5
1F
100
AcDbSymbolTableRecord
100
AcDbBlockTableRecord
2
*Model_Space
340
0
70
0
0
BLOCK_RECORD
5
1B
100
AcDbSymbolTableRecord
100
AcDbBlockTableRecord
2
*Paper_Space
340
0
70
0
0
BLOCK_RECORD
5
23
100
AcDbSymbolTableRecord
100
AcDbBlockTableRecord
2
*Paper_Space0
340
0
70
0
0
BLOCK_RECORD
5
21D
100
AcDbSymbolTableRecord
100
AcDbBlockTableRecord
2
DimnDraft3D1
340
0
70
0
0
BLOCK_RECORD
5
22C
100
AcDbSymbolTableRecord
100
AcDbBlockTableRecord
2
_CLOSED
340
0
70
0
0
BLOCK_RECORD
5
233
100
AcDbSymbolTableRecord
100
AcDbBlockTableRecord
2
DimnDraft3D2
340
0
70
0
0
ENDTAB
0
ENDSEC
0
SECTION
2
BLOCKS
0
BLOCK
5
20
100
AcDbEntity
8
0
100
AcDbBlockBegin
2
*Model_Space
70
0
10
0
20
0
30
0
3
*Model_Space
0
ENDBLK
5
21
100
AcDbEntity
8
0
100
AcDbBlockEnd
0
BLOCK
5
1C
100
AcDbEntity
8
0
100
AcDbBlockBegin
2
*Paper_Space
70
0
10
0
20
0
30
0
3
*Paper_Space
0
ENDBLK
5
1D
100
AcDbEntity
8
0
100
AcDbBlockEnd
0
BLOCK
5
24
100
AcDbEntity
8
0
100
AcDbBlockBegin
2
*Paper_Space0
70
0
10
0
20
0
30
0
3
*Paper_Space0
0
ENDBLK
5
25
100
AcDbEntity
8
0
100
AcDbBlockEnd
0
BLOCK
5
229
100
AcDbEntity
8
0
100
AcDbBlockBegin
2
DimnDraft3D1
70
0
10
0
20
0
30
0
3
DimnDraft3D1
0
MTEXT
5
21E
100
AcDbEntity
8
2
62
256
6
ByLayer
370
18
48
1
60
0
100
AcDbMText
10
31.784211
20
-20.475049
30
0
210
0
220
0
230
1
1
\W0.6740;26
40
3.5
41
0
44
1.084337
50
0
71
7
72
5
7
iso_b_vert
0
LINE
5
220
100
AcDbEntity
8
2
62
256
6
ByLayer
370
13
48
1
60
0
100
AcDbLine
10
46
20
-10
30
0
11
46
21
-23.350049
31
0
39
0
210
0
220
0
230
1
0
LINE
5
221
100
AcDbEntity
8
2
62
256
6
ByLayer
370
13
48
1
60
0
100
AcDbLine
10
20
20
-10
30
0
11
20
21
-23.350049
31
0
39
0
210
0
220
0
230
1
0
LINE
5
222
100
AcDbEntity
8
2
62
256
6
ByLayer
370
13
48
1
60
0
100
AcDbLine
10
46
20
-21.350049
30
0
11
20
21
-21.350049
31
0
39
0
210
0
220
0
230
1
0
LINE
5
223
100
AcDbEntity
8
2
62
256
6
ByLayer
370
13
48
1
60
0
100
AcDbLine
10
46
20
-21.350049
30
0
11
42.825002
21
-21.768045
31
0
39
0
210
0
220
0
230
1
0
LINE
5
224
100
AcDbEntity
8
2
62
256
6
ByLayer
370
13
48
1
60
0
100
AcDbLine
10
46
20
-21.350049
30
0
11
42.824998
21
-20.932052
31
0
39
0
210
0
220
0
230
1
0
LINE
5
225
100
AcDbEntity
8
2
62
256
6
ByLayer
370
13
48
1
60
0
100
AcDbLine
10
42.825002
20
-21.768045
30
0
11
42.824998
21
-20.932052
31
0
39
0
210
0
220
0
230
1
0
LINE
5
226
100
AcDbEntity
8
2
62
256
6
ByLayer
370
13
48
1
60
0
100
AcDbLine
10
20
20
-21.350049
30
0
11
23.174998
21
-20.932052
31
0
39
0
210
0
220
0
230
1
0
LINE
5
227
100
AcDbEntity
8
2
62
256
6
ByLayer
370
13
48
1
60
0
100
AcDbLine
10
20
20
-21.350049
30
0
11
23.175002
21
-21.768045
31
0
39
0
210
0
220
0
230
1
0
LINE
5
228
100
AcDbEntity
8
2
62
256
6
ByLayer
370
13
48
1
60
0
100
AcDbLine
10
23.174998
20
-20.932052
30
0
11
23.175002
21
-21.768045
31
0
39
0
210
0
220
0
230
1
0
ENDBLK
5
22A
100
AcDbEntity
8
0
100
AcDbBlockEnd
0
BLOCK
5
22D
100
AcDbEntity
8
0
100
AcDbBlockBegin
2
_CLOSED
70
0
10
0
20
0
30
0
3
_CLOSED
0
LINE
5
22F
100
AcDbEntity
8
0
62
256
6
ByLayer
370
-2
48
1
60
0
100
AcDbLine
10
-1
20
0.166667
30
0
11
0
21
0
31
0
39
0
210
0
220
0
230
1
0
LINE
5
230
100
AcDbEntity
8
0
62
256
6
ByLayer
370
-2
48
1
60
0
100
AcDbLine
10
0
20
0
30
0
11
-1
21
-0.166667
31
0
39
0
210
0
220
0
230
1
0
LINE
5
231
100
AcDbEntity
8
0
62
256
6
ByLayer
370
-2
48
1
60
0
100
AcDbLine
10
-1
20
0.166667
30
0
11
-1
21
-0.166667
31
0
39
0
210
0
220
0
230
1
0
LINE
5
232
100
AcDbEntity
8
0
62
256
6
ByLayer
370
-2
48
1
60
0
100
AcDbLine
10
0
20
0
30
0
11
-1
21
0
31
0
39
0
210
0
220
0
230
1
0
ENDBLK
5
22E
100
AcDbEntity
8
0
100
AcDbBlockEnd
0
BLOCK
5
23E
100
AcDbEntity
8
0
100
AcDbBlockBegin
2
DimnDraft3D2
70
0
10
0
20
0
30
0
3
DimnDraft3D2
0
MTEXT
5
234
100
AcDbEntity
8
2
62
256
6
ByLayer
370
18
48
1
60
0
100
AcDbMText
10
63.225
20
-18.945789
30
0
210
0
220
0
230
1
1
\W0.5404;2
40
3.5
41
0
44
1.084337
50
90
71
7
72
5
7
iso_b_vert
0
LINE
5
235
100
AcDbEntity
8
2
62
256
6
ByLayer
370
13
48
1
60
0
100
AcDbLine
10
48
20
-8
30
0
11
66.1
21
-8
31
0
39
0
210
0
220
0
230
1
0
LINE
5
236
100
AcDbEntity
8
2
62
256
6
ByLayer
370
13
48
1
60
0
100
AcDbLine
10
48
20
-6
30
0
11
66.1
21
-6
31
0
39
0
210
0
220
0
230
1
0
LINE
5
237
100
AcDbEntity
8
2
62
256
6
ByLayer
370
13
48
1
60
0
100
AcDbLine
10
64.1
20
2.75
30
0
11
64.1
21
-19.820789
31
0
39
0
210
0
220
0
230
1
0
LINE
5
238
100
AcDbEntity
8
2
62
256
6
ByLayer
370
13
48
1
60
0
100
AcDbLine
10
64.1
20
-8
30
0
11
64.517997
21
-11.174998
31
0
39
0
210
0
220
0
230
1
0
LINE
5
239
100
AcDbEntity
8
2
62
256
6
ByLayer
370
13
48
1
60
0
100
AcDbLine
10
64.1
20
-8
30
0
11
63.682003
21
-11.175002
31
0
39
0
210
0
220
0
230
1
0
LINE
5
23A
100
AcDbEntity
8
2
62
256
6
ByLayer
370
13
48
1
60
0
100
AcDbLine
10
64.517997
20
-11.174998
30
0
11
63.682003
21
-11.175002
31
0
39
0
210
0
220
0
230
1
0
LINE
5
23B
100
AcDbEntity
8
2
62
256
6
ByLayer
370
13
48
1
60
0
100
AcDbLine
10
64.1
20
-6
30
0
11
63.682003
21
-2.825002
31
0
39
0
210
0
220
0
230
1
0
LINE
5
23C
100
AcDbEntity
8
2
62
256
6
ByLayer
370
13
48
1
60
0
100
AcDbLine
10
64.1
20
-6
30
0
11
64.517997
21
-2.824998
31
0
39
0
210
0
220
0
230
1
0
LINE
5
23D
100
AcDbEntity
8
2
62
256
6
ByLayer
370
13
48
1
60
0
100
AcDbLine
10
63.682003
20
-2.825002
30
0
11
64.517997
21
-2.824998
31
0
39
0
210
0
220
0
230
1
0
ENDBLK
5
23F
100
AcDbEntity
8
0
100
AcDbBlockEnd
0
ENDSEC
0
SECTION
2
ENTITIES
0
ARC
5
12E
100
AcDbEntity
8
1
62
256
6
ByLayer
370
18
48
1
60
0
100
AcDbCircle
39
0
10
20
20
-4.9
30
0
40
1.6
210
0
220
0
230
1
100
AcDbArc
50
180
51
270
0
ELLIPSE
5
12F
100
AcDbEntity
8
1
62
256
6
ByLayer
370
18
48
1
60
0
100
AcDbEllipse
10
41.105217
20
-7.25
30
0
11
0.800461871938588
21
8.08978029885474E-16
31
0
210
0
220
0
230
-1
40
0.499711
41
1.17258725048792
42
-1.17258725048796
0
ELLIPSE
5
130
100
AcDbEntity
8
1
62
256
6
ByLayer
370
18
48
1
60
0
100
AcDbEllipse
10
41.42913
20
-7.25
30
0
11
-2.44921270764169E-17
21
0.399999999999499
31
0
210
0
220
0
230
-1
40
0.087161
41
-2.74338357728578
42
-0.39820907630401
0
ELLIPSE
5
131
100
AcDbEntity
8
1
62
256
6
ByLayer
370
18
48
1
60
0
100
AcDbEllipse
10
13.925795
20
0
30
0
11
-5.71286641467059E-16
21
9.33012701892156
31
0
210
0
220
0
230
-1
40
0.267949
41
-2.60106527110152
42
-1.73226658758301
0
ELLIPSE
5
132
100
AcDbEntity
8
1
62
256
6
ByLayer
370
13
48
1
60
0
100
AcDbEllipse
10
38.074248
20
-8.119586
30
0
11
0.979582052435895
21
0.30172620924625
31
0
210
0
220
0
230
-1
40
0.270086
41
-2.11639244205781
42
-1.98807590269888
0
ELLIPSE
5
133
100
AcDbEntity
8
1
62
256
6
ByLayer
370
13
48
1
60
0
100
AcDbEllipse
10
38.074248
20
-8.119586
30
0
11
0.998914191722097
21
0.226032306478056
31
0
210
0
220
0
230
-1
40
0.206112
41
-2.07998265382647
42
-1.87325735074809
0
ELLIPSE
5
134
100
AcDbEntity
8
1
62
256
6
ByLayer
370
13
48
1
60
0
100
AcDbEllipse
10
38.074248
20
-6.380414
30
0
11
0.998914190849463
21
-0.226032306405292
31
0
210
0
220
0
230
-1
40
0.206112
41
1.8732573503556
42
2.0799826535835
0
ELLIPSE
5
135
100
AcDbEntity
8
1
62
256
6
ByLayer
370
13
48
1
60
0
100
AcDbEllipse
10
45.37413
20
-7.25
30
0
11
-6.1541317860938
21
7.53638888751072E-16
31
0
210
0
220
0
230
1
40
0.121869
41
-1.18682389135615
42
-1.12302990717099
0
ELLIPSE
5
136
100
AcDbEntity
8
1
62
256
6
ByLayer
370
13
48
1
60
0
100
AcDbEllipse
10
45.37413
20
-7.25
30
0
11
-6.1541317860938
21
7.53638888751072E-16
31
0
210
0
220
0
230
1
40
0.121869
41
1.12302990717099
42
1.18682389135614
0
ELLIPSE
5
137
100
AcDbEntity
8
1
62
256
6
ByLayer
370
13
48
1
60
0
100
AcDbEllipse
10
45.37413
20
-7.25
30
0
11
6.11757100144555
21
-8.86031055962821E-10
31
0
210
0
220
0
230
-1
40
0.073559
41
-2.0601683485024
42
-1.95476876336156
0
ELLIPSE
5
138
100
AcDbEntity
8
1
62
256
6
ByLayer
370
13
48
1
60
0
100
AcDbEllipse
10
45.37413
20
-7.25
30
0
11
6.11757098707484
21
6.1826561617766E-15
31
0
210
0
220
0
230
-1
40
0.073559
41
1.95476876209097
42
2.06016834742237
0
ELLIPSE
5
139
100
AcDbEntity
8
1
62
256
6
ByLayer
370
13
48
1
60
0
100
AcDbEllipse
10
43.073627
20
-7.25
30
0
11
1.22363010714876
21
1.23664837525915E-15
31
0
210
0
220
0
230
-1
40
0.367758
41
-2.41547853524571
42
-2.06016834764129
0
ELLIPSE
5
13A
100
AcDbEntity
8
1
62
256
6
ByLayer
370
13
48
1
60
0
100
AcDbEllipse
10
42.786071
20
-7.25
30
0
11
0.899729556719864
21
0.0397735866357655
31
0
210
0
220
0
230
-1
40
0.498193
41
-1.09832266243118
42
-1.00525796404637
0
ELLIPSE
5
13B
100
AcDbEntity
8
1
62
256
6
ByLayer
370
13
48
1
60
0
100
AcDbEllipse
10
42.786071
20
-7.25
30
0
11
0.899729522508036
21
-0.039773569128054
31
0
210
0
220
0
230
-1
40
0.498193
41
1.00525798461871
42
1.0983226859162
0
ELLIPSE
5
13C
100
AcDbEntity
8
1
62
256
6
ByLayer
370
13
48
1
60
0
100
AcDbEllipse
10
43.073627
20
-7.25
30
0
11
1.22363010706956
21
1.23664837517911E-15
31
0
210
0
220
0
230
-1
40
0.367758
41
2.06016834763776
42
2.41547853526279
0
ELLIPSE
5
13D
100
AcDbEntity
8
1
62
256
6
ByLayer
370
13
48
1
60
0
100
AcDbEllipse
10
43.308716
20
-6.602384
30
0
11
0.0309022559561243
21
-0.238002207083931
31
0
210
0
220
0
230
1
40
0.697921
41
0.776305432118385
42
1.43060367190731
0
ELLIPSE
5
13E
100
AcDbEntity
8
1
62
256
6
ByLayer
370
13
48
1
60
0
100
AcDbEllipse
10
44.533781
20
-8.13078
30
0
11
0.0220590948836999
21
0.238984092217269
31
0
210
0
220
0
230
1
40
0.006427
41
0.704838524415473
42
1.50127915029163
0
ELLIPSE
5
13F
100
AcDbEntity
8
1
62
256
6
ByLayer
370
13
48
1
60
0
100
AcDbEllipse
10
44.533781
20
-6.36922
30
0
11
0.0220590948836999
21
-0.238984092217269
31
0
210
0
220
0
230
1
40
0.006427
41
-1.50127915029163
42
-0.704838524415435
0
ELLIPSE
5
140
100
AcDbEntity
8
1
62
256
6
ByLayer
370
13
48
1
60
0
100
AcDbEllipse
10
43.308716
20
-7.897616
30
0
11
-0.0309022559569112
21
-0.238002207083828
31
0
210
0
220
0
230
1
40
0.697921
41
1.71098898168886
42
2.36528722147369
0
ELLIPSE
5
141
100
AcDbEntity
8
1
62
256
6
ByLayer
370
13
48
1
60
0
100
AcDbEllipse
10
43.152761
20
-6.550476
30
0
11
-0.102096483414469
21
-0.282092729566714
31
0
210
0
220
0
230
1
40
0.694069
41
0.542728458704472
42
1.76594516923874
0
ELLIPSE
5
142
100
AcDbEntity
8
1
62
256
6
ByLayer
370
13
48
1
60
0
100
AcDbEllipse
10
43.152761
20
-7.949524
30
0
11
0.10209648341447
21
-0.282092729566713
31
0
210
0
220
0
230
1
40
0.694069
41
1.37564748435105
42
2.59886419488539
0
ELLIPSE
5
143
100
AcDbEntity
8
1
62
256
6
ByLayer
370
13
48
1
60
0
100
AcDbEllipse
10
42.48984
20
-6.720423
30
0
11
0.0373781701033243
21
-0.145268277334479
31
0
210
0
220
0
230
1
40
0.332441
41
-1.6561270901124
42
-0.517494909403315
0
ELLIPSE
5
144
100
AcDbEntity
8
1
62
256
6
ByLayer
370
13
48
1
60
0
100
AcDbEllipse
10
42.48984
20
-7.779577
30
0
11
0.0373781701033242
21
0.145268277334479
31
0
210
0
220
0
230
1
40
0.332441
41
0.5174949094033
42
1.6561270901124
0
ELLIPSE
5
145
100
AcDbEntity
8
1
62
256
6
ByLayer
370
13
48
1
60
0
100
AcDbEllipse
10
43.022324
20
-7.25
30
0
11
1.24191050878267
21
1.25512326309297E-15
31
0
210
0
220
0
230
-1
40
0.483127
41
2.06016834764815
42
2.4154785352111
0
ELLIPSE
5
146
100
AcDbEntity
8
1
62
256
6
ByLayer
370
13
48
1
60
0
100
AcDbEllipse
10
43.022324
20
-7.25
30
0
11
1.24191050866324
21
1.25512326297227E-15
31
0
210
0
220
0
230
-1
40
0.483127
41
-2.41547853524248
42
-2.06016834764124
0
ELLIPSE
5
147
100
AcDbEntity
8
1
62
256
6
ByLayer
370
13
48
1
60
0
100
AcDbEllipse
10
42.997945
20
-7.264816
30
0
11
0.847017709624091
21
0.196304070091939
31
0
210
0
220
0
230
-1
40
0.854591
41
-0.922000568581053
42
-0.792533365386682
0
ELLIPSE
5
148
100
AcDbEntity
8
1
62
256
6
ByLayer
370
13
48
1
60
0
100
AcDbEllipse
10
43.16419
20
-7.945388
30
0
11
0.10209648341447
21
-0.282092729566713
31
0
210
0
220
0
230
1
40
0.694069
41
1.37564748435103
42
2.59886419488538
0
ELLIPSE
5
149
100
AcDbEntity
8
1
62
256
6
ByLayer
370
13
48
1
60
0
100
AcDbEllipse
10
42.997945
20
-7.235184
30
0
11
0.847017703800017
21
-0.196304041122606
31
0
210
0
220
0
230
-1
40
0.854591
41
0.792533396030858
42
0.922000600503593
0
ELLIPSE
5
14A
100
AcDbEntity
8
1
62
256
6
ByLayer
370
13
48
1
60
0
100
AcDbEllipse
10
43.261247
20
-7.903295
30
0
11
-0.136500727005176
21
0.267147059738748
31
0
210
0
220
0
230
1
40
0.677974
41
-1.85184727133184
42
-1.78671948186546
0
ELLIPSE
5
14B
100
AcDbEntity
8
1
62
256
6
ByLayer
370
13
48
1
60
0
100
AcDbEllipse
10
43.16419
20
-6.554612
30
0
11
-0.102096483414469
21
-0.282092729566714
31
0
210
0
220
0
230
1
40
0.694069
41
0.542728458704412
42
1.76594516923877
0
ELLIPSE
5
14C
100
AcDbEntity
8
1
62
256
6
ByLayer
370
13
48
1
60
0
100
AcDbEllipse
10
43.261247
20
-6.596705
30
0
11
0.136500727004937
21
0.26714705973887
31
0
210
0
220
0
230
1
40
0.677974
41
-1.35487317172655
42
-1.28974538225854
0
ELLIPSE
5
14D
100
AcDbEntity
8
1
62
256
6
ByLayer
370
13
48
1
60
0
100
AcDbEllipse
10
42.144976
20
-7.648381
30
0
11
0.0716898187946788
21
0.131759515334514
31
0
210
0
220
0
230
1
40
0.304525
41
0.893380334284049
42
1.734995587009
0
ELLIPSE
5
14E
100
AcDbEntity
8
1
62
256
6
ByLayer
370
13
48
1
60
0
100
AcDbEllipse
10
42.144976
20
-6.851619
30
0
11
0.0716898187935411
21
-0.131759515335133
31
0
210
0
220
0
230
1
40
0.304525
41
-1.73499558697386
42
-0.893380334273042
0
ELLIPSE
5
14F
100
AcDbEntity
8
1
62
256
6
ByLayer
370
13
48
1
60
0
100
AcDbEllipse
10
43.268095
20
-7.88144
30
0
11
0.171518916221875
21
0.16787275353098
31
0
210
0
220
0
230
1
40
0.082052
41
0.518298817417076
42
0.779655640506965
0
ELLIPSE
5
150
100
AcDbEntity
8
1
62
256
6
ByLayer
370
13
48
1
60
0
100
AcDbEllipse
10
43.302479
20
-7.896663
30
0
11
0.0417762271290195
21
0.236336088752574
31
0
210
0
220
0
230
1
40
0.675324
41
-1.34029986666137
42
-0.746155527792915
0
ELLIPSE
5
151
100
AcDbEntity
8
1
62
256
6
ByLayer
370
13
48
1
60
0
100
AcDbEllipse
10
43.302479
20
-6.603337
30
0
11
-0.0417762271294201
21
0.236336088752503
31
0
210
0
220
0
230
1
40
0.675324
41
-2.39543712579797
42
-1.80129278693143
0
ELLIPSE
5
152
100
AcDbEntity
8
1
62
256
6
ByLayer
370
13
48
1
60
0
100
AcDbEllipse
10
44.291288
20
-7.543452
30
0
11
-0.114657467550524
21
-0.383214907245139
31
0
210
0
220
0
230
1
40
0.149521
41
-1.52608952887372
42
-0.632305349724993
0
ELLIPSE
5
153
100
AcDbEntity
8
1
62
256
6
ByLayer
370
13
48
1
60
0
100
AcDbEllipse
10
42.176259
20
-6.770757
30
0
11
0.111438992389702
21
0.278534290483538
31
0
210
0
220
0
230
1
40
0.391057
41
-2.99672437051159
42
-2.1633092404352
0
ELLIPSE
5
154
100
AcDbEntity
8
1
62
256
6
ByLayer
370
13
48
1
60
0
100
AcDbEllipse
10
42.176259
20
-7.729243
30
0
11
-0.111438992389677
21
0.278534290483548
31
0
210
0
220
0
230
1
40
0.391057
41
-0.97828341315474
42
-0.144868283078467
0
ELLIPSE
5
155
100
AcDbEntity
8
1
62
256
6
ByLayer
370
13
48
1
60
0
100
AcDbEllipse
10
43.252499
20
-7.82058
30
0
11
0.297668984860329
21
0.0373252656014791
31
0
210
0
220
0
230
1
40
0.756445
41
0.856307358412494
42
1.39678515212251
0
ELLIPSE
5
156
100
AcDbEntity
8
1
62
256
6
ByLayer
370
13
48
1
60
0
100
AcDbEllipse
10
43.252499
20
-6.67942
30
0
11
-0.297668984860324
21
0.0373252656015266
31
0
210
0
220
0
230
1
40
0.756445
41
1.74480750146738
42
2.28528529517742
0
ELLIPSE
5
157
100
AcDbEntity
8
1
62
256
6
ByLayer
370
13
48
1
60
0
100
AcDbEllipse
10
44.291288
20
-6.956548
30
0
11
-0.114657467550524
21
0.383214907245139
31
0
210
0
220
0
230
1
40
0.149521
41
0.632305349725198
42
1.52608952887372
0
ELLIPSE
5
158
100
AcDbEntity
8
1
62
256
6
ByLayer
370
13
48
1
60
0
100
AcDbEllipse
10
42.048488
20
-7.633195
30
0
11
-0.0204696158072206
21
0.148596752416413
31
0
210
0
220
0
230
1
40
0.33919
41
0.367590503029014
42
1.52410589159643
0
ELLIPSE
5
159
100
AcDbEntity
8
1
62
256
6
ByLayer
370
13
48
1
60
0
100
AcDbEllipse
10
42.048488
20
-6.866805
30
0
11
0.0204696158039751
21
0.14859675241686
31
0
210
0
220
0
230
1
40
0.33919
41
1.61748676198877
42
2.77400215055198
0
ELLIPSE
5
15A
100
AcDbEntity
8
1
62
256
6
ByLayer
370
13
48
1
60
0
100
AcDbEllipse
10
42.167717
20
-6.767337
30
0
11
0.111594752970791
21
0.278471921581671
31
0
210
0
220
0
230
1
40
0.394318
41
-2.99660724386022
42
-2.16841033890648
0
ELLIPSE
5
15B
100
AcDbEntity
8
1
62
256
6
ByLayer
370
13
48
1
60
0
100
AcDbEllipse
10
42.167717
20
-7.732663
30
0
11
-0.111594752970814
21
0.278471921581661
31
0
210
0
220
0
230
1
40
0.394318
41
-0.973182314683395
42
-0.144985409729567
0
ELLIPSE
5
15C
100
AcDbEntity
8
1
62
256
6
ByLayer
370
13
48
1
60
0
100
AcDbEllipse
10
42.014981
20
-6.856093
30
0
11
0.0722486702513558
21
0.131453906929048
31
0
210
0
220
0
230
1
40
0.303884
41
1.73628735495823
42
2.71919261109665
0
ELLIPSE
5
15D
100
AcDbEntity
8
1
62
256
6
ByLayer
370
13
48
1
60
0
100
AcDbEllipse
10
42.014981
20
-7.643907
30
0
11
-0.0722486702265448
21
0.131453906942685
31
0
210
0
220
0
230
1
40
0.303884
41
0.422400042195135
42
1.40530529868886
0
ELLIPSE
5
15E
100
AcDbEntity
8
1
62
256
6
ByLayer
370
13
48
1
60
0
100
AcDbEllipse
10
43.293937
20
-7.380996
30
0
11
0.288517367888856
21
-0.0822054038764276
31
0
210
0
220
0
230
1
40
0.201316
41
0.955679576570765
42
1.50320190071237
0
ELLIPSE
5
15F
100
AcDbEntity
8
1
62
256
6
ByLayer
370
13
48
1
60
0
100
AcDbEllipse
10
41.992833
20
-6.837446
30
0
11
0.122999586129777
21
0.0858551210581152
31
0
210
0
220
0
230
1
40
0.203946
41
1.85506502495933
42
2.61874247938634
0
ELLIPSE
5
160
100
AcDbEntity
8
1
62
256
6
ByLayer
370
13
48
1
60
0
100
AcDbEllipse
10
41.992833
20
-7.662554
30
0
11
-0.122999586130244
21
0.0858551210574456
31
0
210
0
220
0
230
1
40
0.203946
41
0.522850174197414
42
1.28652762862992
0
ELLIPSE
5
161
100
AcDbEntity
8
1
62
256
6
ByLayer
370
13
48
1
60
0
100
AcDbEllipse
10
43.293937
20
-7.119004
30
0
11
-0.288517367888757
21
-0.0822054038767749
31
0
210
0
220
0
230
1
40
0.201316
41
1.63839075287999
42
2.18591307702132
0
ELLIPSE
5
162
100
AcDbEntity
8
1
62
256
6
ByLayer
370
13
48
1
60
0
100
AcDbEllipse
10
41.978252
20
-6.811581
30
0
11
0.136631968823999
21
0.0619007681315656
31
0
210
0
220
0
230
1
40
0.148534
41
1.88760878179953
42
2.74962710514657
0
ELLIPSE
5
163
100
AcDbEntity
8
1
62
256
6
ByLayer
370
13
48
1
60
0
100
AcDbEllipse
10
41.978252
20
-7.688419
30
0
11
0.136631968824137
21
-0.0619007681312608
31
0
210
0
220
0
230
1
40
0.148534
41
-2.74962710515908
42
-1.88760878179958
0
ELLIPSE
5
164
100
AcDbEntity
8
1
62
256
6
ByLayer
370
13
48
1
60
0
100
AcDbEllipse
10
41.838501
20
-7.975438
30
0
11
0.132407679423122
21
-0.0704855051041258
31
0
210
0
220
0
230
1
40
0.168583
41
-2.6101827266588
42
-1.87748899426516
0
ELLIPSE
5
165
100
AcDbEntity
8
1
62
256
6
ByLayer
370
13
48
1
60
0
100
AcDbEllipse
10
41.838501
20
-6.524562
30
0
11
0.132407679423122
21
0.0704855051041255
31
0
210
0
220
0
230
1
40
0.168583
41
1.87748899426507
42
2.6101827266588
0
ELLIPSE
5
166
100
AcDbEntity
8
1
62
256
6
ByLayer
370
13
48
1
60
0
100
AcDbEllipse
10
42.042406
20
-6.819126
30
0
11
-0.0486052519780793
21
-0.194003941919095
31
0
210
0
220
0
230
1
40
0.669878
41
-0.55392855880338
42
-0.205864067887418
0
ELLIPSE
5
167
100
AcDbEntity
8
1
62
256
6
ByLayer
370
13
48
1
60
0
100
AcDbEllipse
10
42.022373
20
-6.816064
30
0
11
5.665498452323E-17
21
0.2
31
0
210
0
220
0
230
1
40
0.909654
41
1.90677220782001
42
2.72521072930054
0
ELLIPSE
5
168
100
AcDbEntity
8
1
62
256
6
ByLayer
370
13
48
1
60
0
100
AcDbEllipse
10
42.022373
20
-7.683936
30
0
11
5.665498452323E-17
21
0.2
31
0
210
0
220
0
230
1
40
0.909654
41
0.41638192428921
42
1.2348204457749
0
ELLIPSE
5
169
100
AcDbEntity
8
1
62
256
6
ByLayer
370
13
48
1
60
0
100
AcDbEllipse
10
42.042406
20
-7.680874
30
0
11
-0.0486052519780803
21
0.194003941919095
31
0
210
0
220
0
230
1
40
0.669878
41
0.205864067887314
42
0.55392855847672
0
ELLIPSE
5
16A
100
AcDbEntity
8
1
62
256
6
ByLayer
370
13
48
1
60
0
100
AcDbEllipse
10
41.838501
20
-6.524562
30
0
11
4.24912383924225E-17
21
0.15
31
0
210
0
220
0
230
1
40
0.848573
41
1.5707963267949
42
1.90677220780381
0
ELLIPSE
5
16B
100
AcDbEntity
8
1
62
256
6
ByLayer
370
13
48
1
60
0
100
AcDbEllipse
10
41.838501
20
-7.975438
30
0
11
4.24912383924225E-17
21
0.15
31
0
210
0
220
0
230
1
40
0.848573
41
1.23482044578593
42
1.5707963267949
0
ELLIPSE
5
16C
100
AcDbEntity
8
1
62
256
6
ByLayer
370
13
48
1
60
0
100
AcDbEllipse
10
41.534034
20
-6.816064
30
0
11
5.665498452323E-17
21
0.2
31
0
210
0
220
0
230
1
40
0.34202
41
1.90677220780379
42
2.72521072930055
0
ELLIPSE
5
16D
100
AcDbEntity
8
1
62
256
6
ByLayer
370
13
48
1
60
0
100
AcDbEllipse
10
41.534034
20
-7.683936
30
0
11
-3.67381906146713E-17
21
-0.2
31
0
210
0
220
0
230
1
40
0.34202
41
-2.72521072930055
42
-1.90677220780379
0
ELLIPSE
5
16E
100
AcDbEntity
8
1
62
256
6
ByLayer
370
13
48
1
60
0
100
AcDbEllipse
10
41.78303
20
-9.330141
30
0
11
-3.67381906146715E-16
21
-2.00000000000001
31
0
210
0
220
0
230
1
40
0.34202
41
-2.79252680319094
42
-2.72521072930061
0
ELLIPSE
5
16F
100
AcDbEntity
8
1
62
256
6
ByLayer
370
13
48
1
60
0
100
AcDbEllipse
10
41.481103
20
-7.975438
30
0
11
-2.75536429610035E-17
21
-0.15
31
0
210
0
220
0
230
1
40
0.34202
41
-1.90677220780376
42
-1.5707963267949
0
ELLIPSE
5
170
100
AcDbEntity
8
1
62
256
6
ByLayer
370
13
48
1
60
0
100
AcDbEllipse
10
41.78303
20
-5.169859
30
0
11
5.66549845232303E-16
21
2.00000000000001
31
0
210
0
220
0
230
1
40
0.34202
41
2.72521072930061
42
2.79252680319094
0
ELLIPSE
5
171
100
AcDbEntity
8
1
62
256
6
ByLayer
370
13
48
1
60
0
100
AcDbEllipse
10
41.481103
20
-6.524562
30
0
11
4.24912383924225E-17
21
0.15
31
0
210
0
220
0
230
1
40
0.34202
41
1.5707963267949
42
1.90677220780376
0
ELLIPSE
5
172
100
AcDbEntity
8
1
62
256
6
ByLayer
370
13
48
1
60
0
100
AcDbEllipse
10
45.222654
20
-6.358695
30
0
11
0.00588101291965487
21
-0.239927934361631
31
0
210
0
220
0
230
1
40
0.175234
41
-1.50631558565106
42
-0.750535400473098
0
ELLIPSE
5
173
100
AcDbEntity
8
1
62
256
6
ByLayer
370
13
48
1
60
0
100
AcDbEllipse
10
45.222654
20
-8.141305
30
0
11
0.00588101291965508
21
0.239927934361631
31
0
210
0
220
0
230
1
40
0.175234
41
0.750535400473082
42
1.50631558565103
0
ELLIPSE
5
174
100
AcDbEntity
8
1
62
256
6
ByLayer
370
13
48
1
60
0
100
AcDbEllipse
10
41.527723
20
-7.25
30
0
11
5.94877337493915E-17
21
0.21
31
0
210
0
220
0
230
1
40
0.34202
41
-2.7925268031909
42
-0.349065850398889
0
ELLIPSE
5
175
100
AcDbEntity
8
1
62
256
6
ByLayer
370
13
48
1
60
0
100
AcDbEllipse
10
45.75209
20
-7.937793
30
0
11
-0.0532002340369041
21
0.0846742882959085
31
0
210
0
220
0
230
1
40
0.139782
41
-1.57684789387835
42
-0.739654044678112
0
ELLIPSE
5
176
100
AcDbEntity
8
1
62
256
6
ByLayer
370
13
48
1
60
0
100
AcDbEllipse
10
45.913506
20
-7.788045
30
0
11
-0.083319587079799
21
0.0552977975045282
31
0
210
0
220
0
230
1
40
0.125168
41
-1.63384778655082
42
-1.00901921834325
0
ELLIPSE
5
177
100
AcDbEntity
8
1
62
256
6
ByLayer
370
13
48
1
60
0
100
AcDbEllipse
10
45.75209
20
-6.562207
30
0
11
-0.0532002340369041
21
-0.0846742882959085
31
0
210
0
220
0
230
1
40
0.139782
41
0.739654044677307
42
1.57684789387807
0
ELLIPSE
5
178
100
AcDbEntity
8
1
62
256
6
ByLayer
370
13
48
1
60
0
100
AcDbEllipse
10
45.913506
20
-6.711955
30
0
11
-0.0833195870797989
21
-0.0552977975045282
31
0
210
0
220
0
230
1
40
0.125168
41
1.00901921834376
42
1.63384778655111
0
ELLIPSE
5
179
100
AcDbEntity
8
1
62
256
6
ByLayer
370
13
48
1
60
0
100
AcDbEllipse
10
45.441387
20
-6.897871
30
0
11
0.0115886927836045
21
-0.399832092508302
31
0
210
0
220
0
230
1
40
0.406594
41
1.55901218905987
42
2.32325251776617
0
ELLIPSE
5
17A
100
AcDbEntity
8
1
62
256
6
ByLayer
370
13
48
1
60
0
100
AcDbEllipse
10
45.441387
20
-7.602129
30
0
11
0.0115886927836044
21
0.399832092508302
31
0
210
0
220
0
230
1
40
0.406594
41
-2.3232525177661
42
-1.55901218905986
0
ELLIPSE
5
17B
100
AcDbEntity
8
1
62
256
6
ByLayer
370
13
48
1
60
0
100
AcDbEllipse
10
45.598358
20
-8.050378
30
0
11
0.0768343605824261
21
-0.0640037579669329
31
0
210
0
220
0
230
1
40
0.131171
41
1.52167934605466
42
1.9823721265636
0
ELLIPSE
5
17C
100
AcDbEntity
8
1
62
256
6
ByLayer
370
13
48
1
60
0
100
AcDbEllipse
10
45.694545
20
-7.973676
30
0
11
-0.0526170259943807
21
0.0850379243367726
31
0
210
0
220
0
230
1
40
0.13982
41
-1.57588705481515
42
-0.737799907002112
0
ELLIPSE
5
17D
100
AcDbEntity
8
1
62
256
6
ByLayer
370
13
48
1
60
0
100
AcDbEllipse
10
45.598358
20
-6.449622
30
0
11
0.0768343605824262
21
0.0640037579669328
31
0
210
0
220
0
230
1
40
0.131171
41
-1.98237212656427
42
-1.52167934605487
0
ELLIPSE
5
17E
100
AcDbEntity
8
1
62
256
6
ByLayer
370
13
48
1
60
0
100
AcDbEllipse
10
45.694545
20
-6.526324
30
0
11
-0.0526170259943807
21
-0.0850379243367726
31
0
210
0
220
0
230
1
40
0.13982
41
0.73779990700287
42
1.57588705481515
0
ELLIPSE
5
17F
100
AcDbEntity
8
1
62
256
6
ByLayer
370
13
48
1
60
0
100
AcDbEllipse
10
44.833781
20
-8.133503
30
0
11
-0.00779618045171957
21
0.239873340682878
31
0
210
0
220
0
230
1
40
0.002272
41
-1.50102006034464
42
-0.730980747447219
0
ELLIPSE
5
180
100
AcDbEntity
8
1
62
256
6
ByLayer
370
13
48
1
60
0
100
AcDbEllipse
10
44.833781
20
-6.366497
30
0
11
-0.00779618045171942
21
-0.239873340682878
31
0
210
0
220
0
230
1
40
0.002272
41
0.730980747448985
42
1.50102006034464
0
ELLIPSE
5
181
100
AcDbEntity
8
1
62
256
6
ByLayer
370
13
48
1
60
0
100
AcDbEllipse
10
45.935851
20
-6.746575
30
0
11
-0.0846406472330468
21
-0.0532537401125116
31
0
210
0
220
0
230
1
40
0.065248
41
1.04586785899653
42
1.67413113259311
0
ELLIPSE
5
182
100
AcDbEntity
8
1
62
256
6
ByLayer
370
13
48
1
60
0
100
AcDbEllipse
10
45.935851
20
-7.753425
30
0
11
-0.0846406472330468
21
0.0532537401125117
31
0
210
0
220
0
230
1
40
0.065248
41
-1.67413113259325
42
-1.04586785899602
0
ELLIPSE
5
183
100
AcDbEntity
8
1
62
256
6
ByLayer
370
13
48
1
60
0
100
AcDbEllipse
10
38.074248
20
-6.380414
30
0
11
0.979582052857824
21
-0.30172620929837
31
0
210
0
220
0
230
-1
40
0.270086
41
1.98807590283037
42
2.11639244214279
0
ELLIPSE
5
184
100
AcDbEntity
8
1
62
256
6
ByLayer
370
18
48
1
60
0
100
AcDbEllipse
10
45.581337
20
-8.226087
30
0
11
0.239998276657365
21
-0.0147981977780726
31
0
210
0
220
0
230
-1
40
0.061458
41
1.44512847989965
42
1.74112318495401
0
ELLIPSE
5
185
100
AcDbEntity
8
1
62
256
6
ByLayer
370
18
48
1
60
0
100
AcDbEllipse
10
43.048461
20
-7.916924
30
0
11
0.057752929499109
21
0.191891975732293
31
0
210
0
220
0
230
1
40
0.998032
41
2.91077570167875
42
-2.91077570167873
0
ELLIPSE
5
186
100
AcDbEntity
8
1
62
256
6
ByLayer
370
18
48
1
60
0
100
AcDbEllipse
10
42.82387
20
-6.25
30
0
11
0.201490790302156
21
0
31
0
210
0
220
0
230
1
40
0.992601
41
-1.5707963267949
42
-1.04397591016874
0
ELLIPSE
5
187
100
AcDbEntity
8
1
62
256
6
ByLayer
370
18
48
1
60
0
100
AcDbEllipse
10
45.581337
20
-6.273913
30
0
11
0.239998277564407
21
0.0147981978300895
31
0
210
0
220
0
230
-1
40
0.061458
41
-1.7411231845699
42
-1.44512848064098
0
ELLIPSE
5
188
100
AcDbEntity
8
1
62
256
6
ByLayer
370
18
48
1
60
0
100
AcDbEllipse
10
43.163726
20
-8.106339
30
0
11
0.302024948152952
21
-0.0186199320929221
31
0
210
0
220
0
230
-1
40
0.060635
41
0.776166089233504
42
1.5627837121627
0
ELLIPSE
5
189
100
AcDbEntity
8
1
62
256
6
ByLayer
370
18
48
1
60
0
100
AcDbEllipse
10
43.048461
20
-6.583076
30
0
11
0.0577529294991086
21
-0.191891975732293
31
0
210
4.98956791719351E-18
220
-1.65785191155628E-17
230
1
40
0.998032
41
2.91077570167873
42
-2.91077570167875
0
ELLIPSE
5
18A
100
AcDbEntity
8
1
62
256
6
ByLayer
370
18
48
1
60
0
100
AcDbEllipse
10
46.048748
20
-7.753425
30
0
11
1.1330996904646E-16
21
0.4
31
0
210
0
220
0
230
1
40
0.121869
41
1.5707963267949
42
1.64009079051253
0
ELLIPSE
5
18B
100
AcDbEntity
8
1
62
256
6
ByLayer
370
18
48
1
60
0
100
AcDbEllipse
10
43.163726
20
-6.393661
30
0
11
0.30202494814329
21
0.0186199320919529
31
0
210
0
220
0
230
-1
40
0.060635
41
-1.56278371218414
42
-0.776166089231744
0
ELLIPSE
5
18C
100
AcDbEntity
8
1
62
256
6
ByLayer
370
18
48
1
60
0
100
AcDbEllipse
10
42.82387
20
-8.25
30
0
11
-0.201490790302156
21
2.46746902040712E-17
31
0
210
0
220
0
230
1
40
0.992601
41
-2.09761674342106
42
-1.5707963267949
0
ELLIPSE
5
18D
100
AcDbEntity
8
1
62
256
6
ByLayer
370
18
48
1
60
0
100
AcDbEllipse
10
46.048748
20
-6.746575
30
0
11
1.1330996904646E-16
21
0.4
31
0
210
0
220
0
230
1
40
0.121869
41
1.50150186307726
42
1.5707963267949
0
POINT
5
6C
100
AcDbEntity
8
81
62
256
6
ByLayer
370
18
48
1
60
0
100
AcDbPoint
10
46
20
-8
30
0
39
0
210
0
220
0
230
1
50
360
0
POINT
5
6E
100
AcDbEntity
8
80
62
256
6
ByLayer
370
18
48
1
60
0
100
AcDbPoint
10
0
20
0
30
0
39
0
210
0
220
0
230
1
50
360
0
SPLINE
5
18E
100
AcDbEntity
8
1
62
256
6
ByLayer
370
18
48
1
60
0
100
AcDbSpline
70
4
71
3
72
18
73
14
40
0
40
0
40
0
40
0
40
0.0035717586763416
40
0.0035717586763416
40
0.243382300655118
40
0.243382300655118
40
0.48390502123603
40
0.48390502123603
40
0.712235413591734
40
0.712235413591734
40
0.921035533098566
40
0.921035533098566
40
1
40
1
40
1
40
1
41
1
10
28.3718955692456
20
-6.5000000000004
30
0
41
1
10
28.3690465359985
20
-6.5000000000004
30
0
41
1
10
28.366197539132
20
-6.49999239052497
30
0
41
1
10
28.1720615524218
20
-6.49895531655551
30
0
41
1
10
27.9780235701197
20
-6.46280767462397
30
0
41
1
10
27.6162489551974
20
-6.32359602566126
30
0
41
1
10
27.4432545544326
20
-6.21810413548886
30
0
41
1
10
27.1556225787148
20
-5.95664786578726
30
0
41
1
10
27.0342700275462
20
-5.79931206139318
30
0
41
1
10
26.8649113823346
20
-5.46645235126365
30
0
41
1
10
26.809243351763
20
-5.2886744144509
30
0
41
1
10
26.7764821145027
20
-5.03966159499402
30
0
41
1
10
26.7718955692452
20
-4.96974390825912
30
0
41
1
10
26.7718955692452
20
-4.9000000000004
30
0
0
SPLINE
5
18F
100
AcDbEntity
8
1
62
256
6
ByLayer
370
13
48
1
60
0
100
AcDbSpline
70
4
71
3
72
10
73
6
40
0
40
0
40
0
40
0
40
0.807289382551453
40
0.807289382551453
40
1
40
1
40
1
40
1
41
1
10
43.4262120963125
20
-6.8739763527102
30
0
41
1
10
43.4302762008164
20
-6.8417266166075
30
0
41
1
10
43.4269568435098
20
-6.81258905616403
30
0
41
1
10
43.4156280417962
20
-6.78236877567284
30
0
41
1
10
43.4131204986914
20
-6.77671625365559
30
0
41
1
10
43.4102634152023
20
-6.77135698573602
30
0
0
SPLINE
5
190
100
AcDbEntity
8
1
62
256
6
ByLayer
370
13
48
1
60
0
100
AcDbSpline
70
4
71
3
72
14
73
10
40
0
40
0
40
0
40
0
40
0.140335064029798
40
0.140335064029798
40
0.313324577863399
40
0.313324577863399
40
0.854437087129479
40
0.854437087129479
40
1
40
1
40
1
40
1
41
1
10
43.4102634152023
20
-6.77135698573605
30
0
41
1
10
43.4115615907815
20
-6.76996288777386
30
0
41
1
10
43.4130492807412
20
-6.76865701012105
30
0
41
1
10
43.4164306495378
20
-6.76613672597233
30
0
41
1
10
43.418387975026
20
-6.7649650781683
30
0
41
1
10
43.4261757331449
20
-6.76097137354495
30
0
41
1
10
43.4318897349344
20
-6.75944809460967
30
0
41
1
10
43.4386571441608
20
-6.75815804907825
30
0
41
1
10
43.4400859075475
20
-6.75792528395019
30
0
41
1
10
43.441497419172
20
-6.75772796425144
30
0
0
SPLINE
5
191
100
AcDbEntity
8
1
62
256
6
ByLayer
370
13
48
1
60
0
100
AcDbSpline
70
4
71
3
72
8
73
4
40
0
40
0
40
0
40
0
40
1
40
1
40
1
40
1
41
1
10
43.4414974191718
20
-6.75772796425173
30
0
41
1
10
43.4434065060312
20
-6.75746108692857
30
0
41
1
10
43.4452888609443
20
-6.75725234549131
30
0
41
1
10
43.4471477503402
20
-6.7570894641984
30
0
0
SPLINE
5
192
100
AcDbEntity
8
1
62
256
6
ByLayer
370
13
48
1
60
0
100
AcDbSpline
70
4
71
3
72
12
73
8
40
0
40
0
40
0
40
0
40
0.271863792020762
40
0.271863792020762
40
0.680333498425164
40
0.680333498425164
40
1
40
1
40
1
40
1
41
1
10
43.4471477503394
20
-6.75708946419905
30
0
41
1
10
43.5254708389114
20
-6.75022656748121
30
0
41
1
10
43.6132950984392
20
-6.7378026478294
30
0
41
1
10
43.846593161407
20
-6.69799551026182
30
0
41
1
10
44.0026236458243
20
-6.66567608259712
30
0
41
1
10
44.2875983266003
20
-6.60152508985152
30
0
41
1
10
44.4183646565651
20
-6.56738411408537
30
0
41
1
10
44.5495881472217
20
-6.55134968170168
30
0
0
SPLINE
5
193
100
AcDbEntity
8
1
62
256
6
ByLayer
370
13
48
1
60
0
100
AcDbSpline
70
4
71
3
72
8
73
4
40
0
40
0
40
0
40
0
40
1
40
1
40
1
40
1
41
1
10
44.5495881472217
20
-6.55134968170168
30
0
41
1
10
44.6417788954044
20
-6.54008472974274
30
0
41
1
10
44.7354245830992
20
-6.54238352941056
30
0
41
1
10
44.8283398883331
20
-6.54509899962838
30
0
0
SPLINE
5
194
100
AcDbEntity
8
1
62
256
6
ByLayer
370
13
48
1
60
0
100
AcDbSpline
70
4
71
3
72
8
73
4
40
0
40
0
40
0
40
0
40
1
40
1
40
1
40
1
41
1
10
44.8283398883331
20
-6.54509899962838
30
0
41
1
10
44.9522136636574
20
-6.54871923793911
30
0
41
1
10
45.0768571353025
20
-6.54020434150428
30
0
41
1
10
45.1982800289245
20
-6.53486329371083
30
0
0
SPLINE
5
195
100
AcDbEntity
8
1
62
256
6
ByLayer
370
13
48
1
60
0
100
AcDbSpline
70
4
71
3
72
10
73
6
40
0
40
0
40
0
40
0
40
0.860053459941695
40
0.860053459941695
40
1
40
1
40
1
40
1
41
1
10
45.1982800289245
20
-6.53486329371083
30
0
41
1
10
45.3321716826563
20
-6.52897378061826
30
0
41
1
10
45.4692183325878
20
-6.54041633590782
30
0
41
1
10
45.6209193574704
20
-6.58158634511912
30
0
41
1
10
45.6422592203893
20
-6.5879125996895
30
0
41
1
10
45.6636089363249
20
-6.59419694560256
30
0
0
SPLINE
5
196
100
AcDbEntity
8
1
62
256
6
ByLayer
370
13
48
1
60
0
100
AcDbSpline
70
4
71
3
72
8
73
4
40
0
40
0
40
0
40
0
40
1
40
1
40
1
40
1
41
1
10
45.6636089363249
20
-6.59419694560253
30
0
41
1
10
45.6827084170632
20
-6.60598152479457
30
0
41
1
10
45.7017609506473
20
-6.61784016916002
30
0
41
1
10
45.7207683583679
20
-6.62976823186614
30
0
0
SPLINE
5
197
100
AcDbEntity
8
1
62
256
6
ByLayer
370
13
48
1
60
0
100
AcDbSpline
70
4
71
3
72
10
73
6
40
0
40
0
40
0
40
0
40
0.776503433583243
40
0.776503433583243
40
1
40
1
40
1
40
1
41
1
10
45.7207683583679
20
-6.62976823186617
30
0
41
1
10
45.6774725026343
20
-6.62806168534976
30
0
41
1
10
45.6344378625006
20
-6.6267795026366
30
0
41
1
10
45.5776224808541
20
-6.6225437813047
30
0
41
1
10
45.5648810790715
20
-6.62174126270071
30
0
41
1
10
45.5521447262338
20
-6.62117242395254
30
0
0
SPLINE
5
198
100
AcDbEntity
8
1
62
256
6
ByLayer
370
13
48
1
60
0
100
AcDbSpline
70
4
71
3
72
10
73
6
40
0
40
0
40
0
40
0
40
0.802218039223748
40
0.802218039223748
40
1
40
1
40
1
40
1
41
1
10
45.5521447262338
20
-6.62117242395254
30
0
41
1
10
45.4127836505348
20
-6.6149481947044
30
0
41
1
10
45.2644549248778
20
-6.6092836876206
30
0
41
1
10
45.0792703339537
20
-6.60207933226587
30
0
41
1
10
45.0422443273126
20
-6.60064380117734
30
0
41
1
10
45.0052430294063
20
-6.59933367076334
30
0
0
SPLINE
5
199
100
AcDbEntity
8
1
62
256
6
ByLayer
370
13
48
1
60
0
100
AcDbSpline
70
4
71
3
72
16
73
12
40
0
40
0
40
0
40
0
40
0.0308303102605419
40
0.0308303102605419
40
0.572662020821238
40
0.572662020821238
40
0.596525876635503
40
0.596525876635503
40
0.811742896024901
40
0.811742896024901
40
1
40
1
40
1
40
1
41
1
10
45.0052430294063
20
-6.59933367076334
30
0
41
1
10
44.9993536372725
20
-6.59912514100381
30
0
41
1
10
44.9934642432982
20
-6.59891647784579
30
0
41
1
10
44.884075321957
20
-6.59503790895644
30
0
41
1
10
44.7804680881193
20
-6.59188883104918
30
0
41
1
10
44.6725520075115
20
-6.58683115994137
30
0
41
1
10
44.6679952849823
20
-6.58664527759979
30
0
41
1
10
44.622362695753
20
-6.58504634337444
30
0
41
1
10
44.5811924961802
20
-6.58545440704751
30
0
41
1
10
44.5042684809455
20
-6.58810380569309
30
0
41
1
10
44.4684207998394
20
-6.59021707713225
30
0
41
1
10
44.4328798390934
20
-6.59478511127585
30
0
0
SPLINE
5
19A
100
AcDbEntity
8
1
62
256
6
ByLayer
370
13
48
1
60
0
100
AcDbSpline
70
4
71
3
72
12
73
8
40
0
40
0
40
0
40
0
40
0.491351269778757
40
0.491351269778757
40
0.753050934981407
40
0.753050934981407
40
1
40
1
40
1
40
1
41
1
10
44.4328798390934
20
-6.59478511127585
30
0
41
1
10
44.3879752829179
20
-6.60055663634176
30
0
41
1
10
44.3433932389101
20
-6.60841513629526
30
0
41
1
10
44.2762335559799
20
-6.62438040276629
30
0
41
1
10
44.2531371669221
20
-6.63147274097528
30
0
41
1
10
44.2083199167815
20
-6.64481960075321
30
0
41
1
10
44.1865899596689
20
-6.65119167591112
30
0
41
1
10
44.1649336450021
20
-6.65755326988327
30
0
0
SPLINE
5
19B
100
AcDbEntity
8
1
62
256
6
ByLayer
370
13
48
1
60
0
100
AcDbSpline
70
4
71
3
72
12
73
8
40
0
40
0
40
0
40
0
40
0.244915547318589
40
0.244915547318589
40
0.864563982028735
40
0.864563982028735
40
1
40
1
40
1
40
1
41
1
10
44.1649336450021
20
-6.65755326988327
30
0
41
1
10
44.0994204230127
20
-6.67679793475435
30
0
41
1
10
44.0343929566216
20
-6.69587287998837
30
0
41
1
10
43.8105405998204
20
-6.76144066263166
30
0
41
1
10
43.6555221571248
20
-6.80663601442117
30
0
41
1
10
43.4855701545793
20
-6.85650366181534
30
0
41
1
10
43.455505723763
20
-6.86534184997456
30
0
41
1
10
43.4262120963125
20
-6.87397635271017
30
0
0
SPLINE
5
19C
100
AcDbEntity
8
1
62
256
6
ByLayer
370
13
48
1
60
0
100
AcDbSpline
70
4
71
3
72
8
73
4
40
0
40
0
40
0
40
0
40
1
40
1
40
1
40
1
41
1
10
43.4471477503394
20
-7.74291053580097
30
0
41
1
10
43.4452888609435
20
-7.74274765450807
30
0
41
1
10
43.4434065060323
20
-7.74253891307239
30
0
41
1
10
43.4414974191728
20
-7.74227203574927
30
0
0
SPLINE
5
19D
100
AcDbEntity
8
1
62
256
6
ByLayer
370
13
48
1
60
0
100
AcDbSpline
70
4
71
3
72
14
73
10
40
0
40
0
40
0
40
0
40
0.538704325353333
40
0.538704325353333
40
0.684467013462083
40
0.684467013462083
40
0.858675811811913
40
0.858675811811913
40
1
40
1
40
1
40
1
41
1
10
43.4414974191717
20
-7.7422720357483
30
0
41
1
10
43.436304109803
20
-7.74154604651642
30
0
41
1
10
43.4308274196763
20
-7.74039589809976
30
0
41
1
10
43.4235066860402
20
-7.73754282511581
30
0
41
1
10
43.4219066564685
20
-7.73683936595165
30
0
41
1
10
43.4183879750259
20
-7.7350349218317
30
0
41
1
10
43.4164306495377
20
-7.73386327402764
30
0
41
1
10
43.4130492807491
20
-7.73134298988484
30
0
41
1
10
43.4115615907703
20
-7.73003711228128
30
0
41
1
10
43.4102634151937
20
-7.72864301432895
30
0
0
SPLINE
5
19E
100
AcDbEntity
8
1
62
256
6
ByLayer
370
13
48
1
60
0
100
AcDbSpline
70
4
71
3
72
10
73
6
40
0
40
0
40
0
40
0
40
0.429405505457208
40
0.429405505457208
40
1
40
1
40
1
40
1
41
1
10
43.4102634152023
20
-7.72864301426401
30
0
41
1
10
43.4165911437521
20
-7.71677357021366
30
0
41
1
10
43.4213513498928
20
-7.70354921053462
30
0
41
1
10
43.4283387413341
20
-7.67019863544874
30
0
41
1
10
43.4290939581086
20
-7.64889197715672
30
0
41
1
10
43.4262120963125
20
-7.62602364728985
30
0
0
SPLINE
5
19F
100
AcDbEntity
8
1
62
256
6
ByLayer
370
13
48
1
60
0
100
AcDbSpline
70
4
71
3
72
12
73
8
40
0
40
0
40
0
40
0
40
0.244915547318584
40
0.244915547318584
40
0.864563982028716
40
0.864563982028716
40
1
40
1
40
1
40
1
41
1
10
44.1649336450021
20
-7.84244673011676
30
0
41
1
10
44.0994204230127
20
-7.82320206524568
30
0
41
1
10
44.0343929566216
20
-7.80412712001166
30
0
41
1
10
43.8105405998204
20
-7.73855933736837
30
0
41
1
10
43.6555221571248
20
-7.69336398557886
30
0
41
1
10
43.4855701545792
20
-7.64349633818469
30
0
41
1
10
43.455505723763
20
-7.63465815002547
30
0
41
1
10
43.4262120963125
20
-7.62602364728985
30
0
0
SPLINE
5
1A0
100
AcDbEntity
8
1
62
256
6
ByLayer
370
13
48
1
60
0
100
AcDbSpline
70
4
71
3
72
12
73
8
40
0
40
0
40
0
40
0
40
0.491351269778757
40
0.491351269778757
40
0.753050934981407
40
0.753050934981407
40
1
40
1
40
1
40
1
41
1
10
44.4328798390934
20
-7.90521488872417
30
0
41
1
10
44.3879752829179
20
-7.89944336365829
30
0
41
1
10
44.3433932389101
20
-7.89158486370477
30
0
41
1
10
44.2762335559799
20
-7.87561959723377
30
0
41
1
10
44.2531371669221
20
-7.86852725902475
30
0
41
1
10
44.2083199167815
20
-7.85518039924682
30
0
41
1
10
44.1865899596689
20
-7.84880832408891
30
0
41
1
10
44.1649336450021
20
-7.84244673011676
30
0
0
SPLINE
5
1A1
100
AcDbEntity
8
1
62
256
6
ByLayer
370
13
48
1
60
0
100
AcDbSpline
70
4
71
3
72
16
73
12
40
0
40
0
40
0
40
0
40
0.0308303102605419
40
0.0308303102605419
40
0.572662020821238
40
0.572662020821238
40
0.596525876635503
40
0.596525876635503
40
0.811742896024901
40
0.811742896024901
40
1
40
1
40
1
40
1
41
1
10
45.0052430294063
20
-7.90066632923671
30
0
41
1
10
44.9993536372725
20
-7.90087485899625
30
0
41
1
10
44.9934642432982
20
-7.90108352215424
30
0
41
1
10
44.884075321957
20
-7.90496209104359
30
0
41
1
10
44.7804680881193
20
-7.90811116895088
30
0
41
1
10
44.6725520075115
20
-7.91316884005866
30
0
41
1
10
44.6679952849823
20
-7.91335472240024
30
0
41
1
10
44.622362695753
20
-7.91495365662558
30
0
41
1
10
44.5811924961802
20
-7.91454559295252
30
0
41
1
10
44.5042684809455
20
-7.91189619430693
30
0
41
1
10
44.4684207998394
20
-7.90978292286778
30
0
41
1
10
44.4328798390934
20
-7.90521488872417
30
0
0
SPLINE
5
1A2
100
AcDbEntity
8
1
62
256
6
ByLayer
370
13
48
1
60
0
100
AcDbSpline
70
4
71
3
72
10
73
6
40
0
40
0
40
0
40
0
40
0.802218039223748
40
0.802218039223748
40
1
40
1
40
1
40
1
41
1
10
45.5521447262338
20
-7.87882757604751
30
0
41
1
10
45.4127836505348
20
-7.88505180529563
30
0
41
1
10
45.2644549248778
20
-7.89071631237942
30
0
41
1
10
45.0792703339537
20
-7.89792066773418
30
0
41
1
10
45.0422443273126
20
-7.89935619882269
30
0
41
1
10
45.0052430294063
20
-7.90066632923671
30
0
0
SPLINE
5
1A3
100
AcDbEntity
8
1
62
256
6
ByLayer
370
13
48
1
60
0
100
AcDbSpline
70
4
71
3
72
10
73
6
40
0
40
0
40
0
40
0
40
0.776503433583243
40
0.776503433583243
40
1
40
1
40
1
40
1
41
1
10
45.7207683583679
20
-7.87023176813389
30
0
41
1
10
45.6774725026343
20
-7.87193831465027
30
0
41
1
10
45.6344378625006
20
-7.87322049736346
30
0
41
1
10
45.5776224808541
20
-7.87745621869533
30
0
41
1
10
45.5648810790715
20
-7.87825873729932
30
0
41
1
10
45.5521447262338
20
-7.87882757604751
30
0
0
SPLINE
5
1A4
100
AcDbEntity
8
1
62
256
6
ByLayer
370
13
48
1
60
0
100
AcDbSpline
70
4
71
3
72
8
73
4
40
0
40
0
40
0
40
0
40
1
40
1
40
1
40
1
41
1
10
45.6636089363249
20
-7.9058030543975
30
0
41
1
10
45.6827084170632
20
-7.89401847520546
30
0
41
1
10
45.7017609506473
20
-7.88215983084004
30
0
41
1
10
45.7207683583679
20
-7.87023176813389
30
0
0
SPLINE
5
1A5
100
AcDbEntity
8
1
62
256
6
ByLayer
370
13
48
1
60
0
100
AcDbSpline
70
4
71
3
72
10
73
6
40
0
40
0
40
0
40
0
40
0.860053459941695
40
0.860053459941695
40
1
40
1
40
1
40
1
41
1
10
45.1982800289245
20
-7.9651367062892
30
0
41
1
10
45.3321716826563
20
-7.97102621938177
30
0
41
1
10
45.4692183325878
20
-7.95958366409224
30
0
41
1
10
45.6209193574704
20
-7.91841365488091
30
0
41
1
10
45.6422592203893
20
-7.91208740031055
30
0
41
1
10
45.6636089363249
20
-7.9058030543975
30
0
0
SPLINE
5
1A6
100
AcDbEntity
8
1
62
256
6
ByLayer
370
13
48
1
60
0
100
AcDbSpline
70
4
71
3
72
8
73
4
40
0
40
0
40
0
40
0
40
1
40
1
40
1
40
1
41
1
10
44.8283398883331
20
-7.95490100037165
30
0
41
1
10
44.9522136636574
20
-7.95128076206092
30
0
41
1
10
45.0768571353025
20
-7.95979565849578
30
0
41
1
10
45.1982800289245
20
-7.9651367062892
30
0
0
SPLINE
5
1A7
100
AcDbEntity
8
1
62
256
6
ByLayer
370
13
48
1
60
0
100
AcDbSpline
70
4
71
3
72
8
73
4
40
0
40
0
40
0
40
0
40
1
40
1
40
1
40
1
41
1
10
44.5495881472217
20
-7.94865031829835
30
0
41
1
10
44.6417788954044
20
-7.95991527025728
30
0
41
1
10
44.7354245830992
20
-7.95761647058947
30
0
41
1
10
44.8283398883331
20
-7.95490100037165
30
0
0
SPLINE
5
1A8
100
AcDbEntity
8
1
62
256
6
ByLayer
370
13
48
1
60
0
100
AcDbSpline
70
4
71
3
72
12
73
8
40
0
40
0
40
0
40
0
40
0.271863792020766
40
0.271863792020766
40
0.680333498425166
40
0.680333498425166
40
1
40
1
40
1
40
1
41
1
10
43.4471477503394
20
-7.742910535801
30
0
41
1
10
43.5254708389114
20
-7.74977343251882
30
0
41
1
10
43.6132950984392
20
-7.76219735217063
30
0
41
1
10
43.846593161407
20
-7.80200448973821
30
0
41
1
10
44.0026236458243
20
-7.83432391740294
30
0
41
1
10
44.2875983266003
20
-7.89847491014851
30
0
41
1
10
44.4183646565651
20
-7.93261588591466
30
0
41
1
10
44.5495881472217
20
-7.94865031829835
30
0
0
SPLINE
5
1A9
100
AcDbEntity
8
1
62
256
6
ByLayer
370
13
48
1
60
0
100
AcDbSpline
70
4
71
3
72
18
73
14
40
0
40
0
40
0
40
0
40
0.447407316387175
40
0.447407316387175
40
0.605547053795674
40
0.605547053795674
40
0.784635535666972
40
0.784635535666972
40
0.885678387143329
40
0.885678387143329
40
0.977084410920521
40
0.977084410920521
40
1
40
1
40
1
40
1
41
1
10
42.4984332400777
20
-6.85281729746328
30
0
41
1
10
42.5440476624861
20
-6.8320135956954
30
0
41
1
10
42.5884120317077
20
-6.80375033835907
30
0
41
1
10
42.6394879059807
20
-6.75222254813511
30
0
41
1
10
42.6521556621418
20
-6.73727145983085
30
0
41
1
10
42.676132722513
20
-6.70247255411917
30
0
41
1
10
42.687234858325
20
-6.68192397336068
30
0
41
1
10
42.6999368895843
20
-6.64727078300103
30
0
41
1
10
42.703608600295
20
-6.63410431233083
30
0
41
1
10
42.7083103046788
20
-6.60846181251861
30
0
41
1
10
42.7095747514646
20
-6.5959234788283
30
0
41
1
10
42.7097949440652
20
-6.58025049776967
30
0
41
1
10
42.7097712271323
20
-6.57709254419359
30
0
41
1
10
42.7096790521406
20
-6.5739377105636
30
0
0
SPLINE
5
1AA
100
AcDbEntity
8
1
62
256
6
ByLayer
370
13
48
1
60
0
100
AcDbSpline
70
4
71
3
72
18
73
14
40
0
40
0
40
0
40
0
40
0.0976852199958056
40
0.0976852199958056
40
0.212989397473362
40
0.212989397473362
40
0.394159987615223
40
0.394159987615223
40
0.774111539176557
40
0.774111539176557
40
0.851520792185893
40
0.851520792185893
40
1
40
1
40
1
40
1
41
1
10
42.7096790521406
20
-7.92606228943643
30
0
41
1
10
42.7100703037074
20
-7.91267109103686
30
0
41
1
10
42.7092072189939
20
-7.89916689540175
30
0
41
1
10
42.7048326306339
20
-7.87055413163222
30
0
41
1
10
42.7008494527307
20
-7.85538588274744
30
0
41
1
10
42.68752177695
20
-7.81861001498419
30
0
41
1
10
42.6762967783069
20
-7.7977660524939
30
0
41
1
10
42.6367316649358
20
-7.74034200243725
30
0
41
1
10
42.6023540549561
20
-7.70936555437038
30
0
41
1
10
42.5587483922282
20
-7.67994514423901
30
0
41
1
10
42.5511702800925
20
-7.67516911926805
30
0
41
1
10
42.5287968496802
20
-7.66195563680876
30
0
41
1
10
42.5137301176241
20
-7.65415926083878
30
0
41
1
10
42.498433240088
20
-7.64718270251791
30
0
0
SPLINE
5
1AB
100
AcDbEntity
8
1
62
256
6
ByLayer
370
13
48
1
60
0
100
AcDbSpline
70
4
71
3
72
12
73
8
40
0
40
0
40
0
40
0
40
0.167536140690989
40
0.167536140690989
40
0.701521703333122
40
0.701521703333122
40
1
40
1
40
1
40
1
41
1
10
43.2514801084146
20
-6.85023835233827
30
0
41
1
10
43.2542826384416
20
-6.85261436588087
30
0
41
1
10
43.256923133606
20
-6.85511930696811
30
0
41
1
10
43.2670778771217
20
-6.86610946849331
30
0
41
1
10
43.272872622145
20
-6.8760126173876
30
0
41
1
10
43.2767050040373
20
-6.8936484373412
30
0
41
1
10
43.2770407186254
20
-6.90050488624925
30
0
41
1
10
43.2762277573114
20
-6.90765179240543
30
0
0
SPLINE
5
1AC
100
AcDbEntity
8
1
62
256
6
ByLayer
370
13
48
1
60
0
100
AcDbSpline
70
4
71
3
72
14
73
10
40
0
40
0
40
0
40
0
40
0.418540706662839
40
0.418540706662839
40
0.495635548088754
40
0.495635548088754
40
0.9192675759406
40
0.9192675759406
40
1
40
1
40
1
40
1
41
1
10
43.2762277573115
20
-6.90765179240555
30
0
41
1
10
43.2729405983399
20
-6.93654986699516
30
0
41
1
10
43.2733660154214
20
-6.97104010817168
30
0
41
1
10
43.2796751136804
20
-7.01482491657788
30
0
41
1
10
43.2808357853226
20
-7.02181799749837
30
0
41
1
10
43.2893735192745
20
-7.06717895910006
30
0
41
1
10
43.3018447500133
20
-7.10838932033673
30
0
41
1
10
43.3226367698616
20
-7.15605765750249
30
0
41
1
10
43.3261939220311
20
-7.163754899107
30
0
41
1
10
43.3299358617497
20
-7.17140267488614
30
0
0
SPLINE
5
1AD
100
AcDbEntity
8
1
62
256
6
ByLayer
370
13
48
1
60
0
100
AcDbSpline
70
4
71
3
72
14
73
10
40
0
40
0
40
0
40
0
40
0.335733568867722
40
0.335733568867722
40
0.507284823780995
40
0.507284823780995
40
0.847453801813234
40
0.847453801813234
40
1
40
1
40
1
40
1
41
1
10
43.3299358617497
20
-7.17140267488608
30
0
41
1
10
43.337814020394
20
-7.18750405422236
30
0
41
1
10
43.3439375481741
20
-7.20501758722713
30
0
41
1
10
43.3485739754979
20
-7.23232452901908
30
0
41
1
10
43.3493588445425
20
-7.24182820532349
30
0
41
1
10
43.3491329115973
20
-7.26978779486291
30
0
41
1
10
43.3455495425812
20
-7.28848197181208
30
0
41
1
10
43.3367872446761
20
-7.31357621447631
30
0
41
1
10
43.3335488022128
20
-7.32121319799242
30
0
41
1
10
43.3299358617498
20
-7.32859732511398
30
0
0
SPLINE
5
1AE
100
AcDbEntity
8
1
62
256
6
ByLayer
370
13
48
1
60
0
100
AcDbSpline
70
4
71
3
72
12
73
8
40
0
40
0
40
0
40
0
40
0.060976756616879
40
0.060976756616879
40
0.525861690105106
40
0.525861690105106
40
1
40
1
40
1
40
1
41
1
10
43.3299358617497
20
-7.32859732511395
30
0
41
1
10
43.3271003220153
20
-7.334392600755
30
0
41
1
10
43.3243711082765
20
-7.34021572946887
30
0
41
1
10
43.3021069872871
20
-7.38982526010361
30
0
41
1
10
43.2884144324718
20
-7.43535005722478
30
0
41
1
10
43.2735997997306
20
-7.51964154913824
30
0
41
1
10
43.2725076756419
20
-7.55964422263463
30
0
41
1
10
43.2762277573115
20
-7.59234820759451
30
0
0
SPLINE
5
1AF
100
AcDbEntity
8
1
62
256
6
ByLayer
370
13
48
1
60
0
100
AcDbSpline
70
4
71
3
72
10
73
6
40
0
40
0
40
0
40
0
40
0.579743919086243
40
0.579743919086243
40
1
40
1
40
1
40
1
41
1
10
43.2762277573115
20
-7.59234820759451
30
0
41
1
10
43.2777925092618
20
-7.60610425619672
30
0
41
1
10
43.274921505156
20
-7.61877754964766
30
0
41
1
10
43.2645276574485
20
-7.63702363328639
30
0
41
1
10
43.2584959094318
20
-7.64381357999878
30
0
41
1
10
43.2514801084147
20
-7.64976164766196
30
0
0
SPLINE
5
1B0
100
AcDbEntity
8
1
62
256
6
ByLayer
370
13
48
1
60
0
100
AcDbSpline
70
4
71
3
72
8
73
4
40
0
40
0
40
0
40
0
40
1
40
1
40
1
40
1
41
1
10
42.1586453076088
20
-7.54878602654486
30
0
41
1
10
42.1709068417096
20
-7.54560162786208
30
0
41
1
10
42.1832654919602
20
-7.54253977670444
30
0
41
1
10
42.1957009625836
20
-7.53959806282177
30
0
0
SPLINE
5
1B1
100
AcDbEntity
8
1
62
256
6
ByLayer
370
13
48
1
60
0
100
AcDbSpline
70
4
71
3
72
10
73
6
40
0
40
0
40
0
40
0
40
0.333728436493078
40
0.333728436493078
40
1
40
1
40
1
40
1
41
1
10
42.1957009625833
20
-7.53959806282046
30
0
41
1
10
42.1966662675297
20
-7.53936971191618
30
0
41
1
10
42.1976317049565
20
-7.53914138342273
30
0
41
1
10
42.2005249812794
20
-7.53845727625733
30
0
41
1
10
42.2024532131263
20
-7.53800156439334
30
0
41
1
10
42.204381960042
20
-7.53754594197108
30
0
0
SPLINE
5
1B2
100
AcDbEntity
8
1
62
256
6
ByLayer
370
13
48
1
60
0
100
AcDbSpline
70
4
71
3
72
28
73
24
40
0
40
0
40
0
40
0
40
0.120400997037726
40
0.120400997037726
40
0.267193145137956
40
0.267193145137956
40
0.387937930337117
40
0.387937930337117
40
0.465259875154669
40
0.465259875154669
40
0.495901986784595
40
0.495901986784595
40
0.581704825079178
40
0.581704825079178
40
0.603681926078793
40
0.603681926078793
40
0.705282320663386
40
0.705282320663386
40
0.836662945425109
40
0.836662945425109
40
0.962212936191202
40
0.962212936191202
40
1
40
1
40
1
40
1
41
1
10
42.2043819600418
20
-7.5375459419605
30
0
41
1
10
42.2386117615899
20
-7.52945993286949
30
0
41
1
10
42.2717745161216
20
-7.51843240376485
30
0
41
1
10
42.3403563386755
20
-7.48653532118544
30
0
41
1
10
42.3755506139921
20
-7.46366902864057
30
0
41
1
10
42.4293957511653
20
-7.41089247614218
30
0
41
1
10
42.4505128568283
20
-7.38210787891646
30
0
41
1
10
42.4742896735613
20
-7.32874016362447
30
0
41
1
10
42.4810059815832
20
-7.30580649130098
30
0
41
1
10
42.4854587789871
20
-7.27306797227092
30
0
41
1
10
42.4861866916511
20
-7.26356884332677
30
0
41
1
10
42.4867918153238
20
-7.22793710588331
30
0
41
1
10
42.4827627697971
20
-7.20128064513423
30
0
41
1
10
42.473008547855
20
-7.17044163345511
30
0
41
1
10
42.4707421946394
20
-7.16417444558047
30
0
41
1
10
42.4568990508134
20
-7.13012037159021
30
0
41
1
10
42.4406033083254
20
-7.10465649123623
30
0
41
1
10
42.3970837039401
20
-7.05459137895014
30
0
41
1
10
42.3674044337148
20
-7.0313970461722
30
0
41
1
10
42.304685404423
20
-6.99518143318394
30
0
41
1
10
42.2712334060984
20
-6.98139017249363
30
0
41
1
10
42.2258807591637
20
-6.96785063253762
30
0
41
1
10
42.215191249574
20
-6.9650075058959
30
0
41
1
10
42.204381960042
20
-6.96245405803847
30
0
0
SPLINE
5
1B3
100
AcDbEntity
8
1
62
256
6
ByLayer
370
13
48
1
60
0
100
AcDbSpline
70
4
71
3
72
10
73
6
40
0
40
0
40
0
40
0
40
0.666271563875835
40
0.666271563875835
40
1
40
1
40
1
40
1
41
1
10
42.2043819600418
20
-6.96245405803953
30
0
41
1
10
42.2024532131249
20
-6.96199843561701
30
0
41
1
10
42.2005249812773
20
-6.96154272374221
30
0
41
1
10
42.1976317049544
20
-6.96085861657681
30
0
41
1
10
42.1966662675287
20
-6.96063028808294
30
0
41
1
10
42.1957009625833
20
-6.96040193717892
30
0
0
SPLINE
5
1B4
100
AcDbEntity
8
1
62
256
6
ByLayer
370
13
48
1
60
0
100
AcDbSpline
70
4
71
3
72
8
73
4
40
0
40
0
40
0
40
0
40
1
40
1
40
1
40
1
41
1
10
42.1957009625833
20
-6.96040193717957
30
0
41
1
10
42.1832654919591
20
-6.95746022329672
30
0
41
1
10
42.170906841708
20
-6.95439837213755
30
0
41
1
10
42.1586453076064
20
-6.95121397345457
30
0
0
SPLINE
5
1B5
100
AcDbEntity
8
1
62
256
6
ByLayer
370
13
48
1
60
0
100
AcDbSpline
70
4
71
3
72
12
73
8
40
0
40
0
40
0
40
0
40
0.334418366090769
40
0.334418366090769
40
0.734677033774883
40
0.734677033774883
40
1
40
1
40
1
40
1
41
1
10
44.5337805434613
20
-6.38596132736762
30
0
41
1
10
44.402267961703
20
-6.40003793624146
30
0
41
1
10
44.2723193598528
20
-6.43420728001087
30
0
41
1
10
43.9995089617334
20
-6.50558496497584
30
0
41
1
10
43.8541870739038
20
-6.54145036718256
30
0
41
1
10
43.6350503526795
20
-6.58828615984152
30
0
41
1
10
43.5522182729485
20
-6.60385771409517
30
0
41
1
10
43.4775115598653
20
-6.61428557231278
30
0
0
SPLINE
5
1B6
100
AcDbEntity
8
1
62
256
6
ByLayer
370
13
48
1
60
0
100
AcDbSpline
70
4
71
3
72
8
73
4
40
0
40
0
40
0
40
0
40
1
40
1
40
1
40
1
41
1
10
43.4775115598653
20
-6.61428557231275
30
0
41
1
10
43.4760463384844
20
-6.61335930844857
30
0
41
1
10
43.4745825957789
20
-6.61243758836827
30
0
41
1
10
43.4731203716814
20
-6.61152047093316
30
0
0
SPLINE
5
1B7
100
AcDbEntity
8
1
62
256
6
ByLayer
370
13
48
1
60
0
100
AcDbSpline
70
4
71
3
72
8
73
4
40
0
40
0
40
0
40
0
40
1
40
1
40
1
40
1
41
1
10
43.4731203716814
20
-7.8884795290669
30
0
41
1
10
43.4745825957789
20
-7.88756241163176
30
0
41
1
10
43.4760463384843
20
-7.88664069155109
30
0
41
1
10
43.4775115598652
20
-7.88571442768691
30
0
0
SPLINE
5
1B8
100
AcDbEntity
8
1
62
256
6
ByLayer
370
13
48
1
60
0
100
AcDbSpline
70
4
71
3
72
12
73
8
40
0
40
0
40
0
40
0
40
0.334418366090769
40
0.334418366090769
40
0.734677033774883
40
0.734677033774883
40
1
40
1
40
1
40
1
41
1
10
44.5337805434613
20
-8.11403867263243
30
0
41
1
10
44.402267961703
20
-8.0999620637586
30
0
41
1
10
44.2723193598528
20
-8.06579271998919
30
0
41
1
10
43.9995089617334
20
-7.99441503502419
30
0
41
1
10
43.8541870739038
20
-7.95854963281747
30
0
41
1
10
43.6350503526795
20
-7.91171384015851
30
0
41
1
10
43.5522182729485
20
-7.89614228590486
30
0
41
1
10
43.4775115598653
20
-7.88571442768728
30
0
0
SPLINE
5
1B9
100
AcDbEntity
8
1
62
256
6
ByLayer
370
13
48
1
60
0
100
AcDbSpline
70
4
71
3
72
18
73
14
40
0
40
0
40
0
40
0
40
0.0161194639884916
40
0.0161194639884916
40
0.0830400526233481
40
0.0830400526233481
40
0.164187348294867
40
0.164187348294867
40
0.329246171114526
40
0.329246171114526
40
0.49267383795864
40
0.49267383795864
40
1
40
1
40
1
40
1
41
1
10
42.6583760306418
20
-6.5739377105636
30
0
41
1
10
42.6583760306418
20
-6.57552191894035
30
0
41
1
10
42.6583070506514
20
-6.57710773160954
30
0
41
1
10
42.6576154305964
20
-6.58514501773496
30
0
41
1
10
42.6558959531471
20
-6.59155079359957
30
0
41
1
10
42.6503990140808
20
-6.60467162383853
30
0
41
1
10
42.6462332916851
20
-6.61135931486962
30
0
41
1
10
42.6320214661551
20
-6.62976219500914
30
0
41
1
10
42.6201790807021
20
-6.64006561577952
30
0
41
1
10
42.5955030409141
20
-6.65799347032018
30
0
41
1
10
42.5824167868289
20
-6.66574701491751
30
0
41
1
10
42.5277159291732
20
-6.69421764052132
30
0
41
1
10
42.4832430916057
20
-6.70892001885412
30
0
41
1
10
42.4385371190036
20
-6.72042306328436
30
0
0
SPLINE
5
1BA
100
AcDbEntity
8
1
62
256
6
ByLayer
370
13
48
1
60
0
100
AcDbSpline
70
4
71
3
72
16
73
12
40
0
40
0
40
0
40
0
40
0.17415962102223
40
0.17415962102223
40
0.671976092746537
40
0.671976092746537
40
0.83822694518602
40
0.83822694518602
40
0.929660782988591
40
0.929660782988591
40
1
40
1
40
1
40
1
41
1
10
42.4385371190036
20
-7.77957693671567
30
0
41
1
10
42.4539422148971
20
-7.78354073600707
30
0
41
1
10
42.4692599827102
20
-7.78792309107223
30
0
41
1
10
42.5274830378249
20
-7.80666163281819
30
0
41
1
10
42.5706632046931
20
-7.82395900042292
30
0
41
1
10
42.6203257985212
20
-7.86004120535443
30
0
41
1
10
42.6323080918469
20
-7.87048301011984
30
0
41
1
10
42.6471462242706
20
-7.88989582191104
30
0
41
1
10
42.6517437069761
20
-7.89759890774241
30
0
41
1
10
42.6570278864055
20
-7.91229788874975
30
0
41
1
10
42.6583760306418
20
-7.91922094041757
30
0
41
1
10
42.6583760306418
20
-7.92606228943643
30
0
0
SPLINE
5
1BB
100
AcDbEntity
8
1
62
256
6
ByLayer
370
13
48
1
60
0
100
AcDbSpline
70
4
71
3
72
8
73
4
40
0
40
0
40
0
40
0
40
1
40
1
40
1
40
1
41
1
10
41.7871982348829
20
-7.97543792813534
30
0
41
1
10
41.8371072022262
20
-7.88168346700778
30
0
41
1
10
41.8829751479405
20
-7.78548099644098
30
0
41
1
10
41.9269486592887
20
-7.68841939909728
30
0
0
SPLINE
5
1BC
100
AcDbEntity
8
1
62
256
6
ByLayer
370
13
48
1
60
0
100
AcDbSpline
70
4
71
3
72
8
73
4
40
0
40
0
40
0
40
0
40
1
40
1
40
1
40
1
41
1
10
41.9269486592887
20
-7.68841939909728
30
0
41
1
10
41.9310517239117
20
-7.67936281038973
30
0
41
1
10
41.9358959391856
20
-7.67062525694041
30
0
41
1
10
41.9415296908639
20
-7.66255411201322
30
0
0
SPLINE
5
1BD
100
AcDbEntity
8
1
62
256
6
ByLayer
370
13
48
1
60
0
100
AcDbSpline
70
4
71
3
72
10
73
6
40
0
40
0
40
0
40
0
40
0.607627674029775
40
0.607627674029775
40
1
40
1
40
1
40
1
41
1
10
41.941529690864
20
-7.66255411201328
30
0
41
1
10
41.9449483939528
20
-7.65765633701923
30
0
41
1
10
41.9493450872493
20
-7.65348920478294
30
0
41
1
10
41.9571218081436
20
-7.64774324512052
30
0
41
1
10
41.9603603656148
20
-7.64573090816052
30
0
41
1
10
41.9636781743631
20
-7.6439074000142
30
0
0
SPLINE
5
1BE
100
AcDbEntity
8
1
62
256
6
ByLayer
370
13
48
1
60
0
100
AcDbSpline
70
4
71
3
72
8
73
4
40
0
40
0
40
0
40
0
40
1
40
1
40
1
40
1
41
1
10
41.963678174367
20
-7.64390740002014
30
0
41
1
10
41.974039829494
20
-7.63821250800916
30
0
41
1
10
41.9856192161749
20
-7.63478830535468
30
0
41
1
10
41.9971847075066
20
-7.6331951267662
30
0
0
SPLINE
5
1BF
100
AcDbEntity
8
1
62
256
6
ByLayer
370
13
48
1
60
0
100
AcDbSpline
70
4
71
3
72
10
73
6
40
0
40
0
40
0
40
0
40
0.468522557911306
40
0.468522557911306
40
1
40
1
40
1
40
1
41
1
10
41.9971847075066
20
-7.63319512676628
30
0
41
1
10
42.0125073622826
20
-7.631084388467
30
0
41
1
10
42.0281890938236
20
-7.63080881184371
30
0
41
1
10
42.0608326130716
20
-7.63488902104061
30
0
41
1
10
42.0781649337055
20
-7.63994353051231
30
0
41
1
10
42.0936729304055
20
-7.64838136872419
30
0
0
SPLINE
5
1C0
100
AcDbEntity
8
1
62
256
6
ByLayer
370
13
48
1
60
0
100
AcDbSpline
70
4
71
3
72
10
73
6
40
0
40
0
40
0
40
0
40
0.39285874077214
40
0.39285874077214
40
1
40
1
40
1
40
1
41
1
10
42.0936729304044
20
-6.85161863127615
30
0
41
1
10
42.0821344359051
20
-6.85789667941319
30
0
41
1
10
42.069596920594
20
-6.86230369270825
30
0
41
1
10
42.037371840694
20
-6.86919540497547
30
0
41
1
10
42.0169301631213
20
-6.86952486464546
30
0
41
1
10
41.9971847075166
20
-6.86680487323702
30
0
0
SPLINE
5
1C1
100
AcDbEntity
8
1
62
256
6
ByLayer
370
13
48
1
60
0
100
AcDbSpline
70
4
71
3
72
10
73
6
40
0
40
0
40
0
40
0
40
0.0840681653027228
40
0.0840681653027228
40
1
40
1
40
1
40
1
41
1
10
41.9971847075162
20
-6.86680487323551
30
0
41
1
10
41.9962010455789
20
-6.8666693710687
30
0
41
1
10
41.9952188661862
20
-6.86652102893493
30
0
41
1
10
41.9836819996079
20
-6.86462053934093
30
0
41
1
10
41.9731694732705
20
-6.86130913359645
30
0
41
1
10
41.9636781743698
20
-6.85609259998145
30
0
0
SPLINE
5
1C2
100
AcDbEntity
8
1
62
256
6
ByLayer
370
13
48
1
60
0
100
AcDbSpline
70
4
71
3
72
10
73
6
40
0
40
0
40
0
40
0
40
0.300964641608717
40
0.300964641608717
40
1
40
1
40
1
40
1
41
1
10
41.9636781743711
20
-6.85609259997267
30
0
41
1
10
41.9611279033247
20
-6.85469093990676
30
0
41
1
10
41.9586265623859
20
-6.85317859008777
30
0
41
1
10
41.9506729861664
20
-6.84773100304341
30
0
41
1
10
41.9454582450927
20
-6.84307409674412
30
0
41
1
10
41.9415296908643
20
-6.83744588798706
30
0
0
SPLINE
5
1C3
100
AcDbEntity
8
1
62
256
6
ByLayer
370
13
48
1
60
0
100
AcDbSpline
70
4
71
3
72
8
73
4
40
0
40
0
40
0
40
0
40
1
40
1
40
1
40
1
41
1
10
41.9415296908642
20
-6.8374458879872
30
0
41
1
10
41.9358959391855
20
-6.82937474305953
30
0
41
1
10
41.9310517239113
20
-6.82063718960961
30
0
41
1
10
41.9269486592881
20
-6.81158060090144
30
0
0
SPLINE
5
1C4
100
AcDbEntity
8
1
62
256
6
ByLayer
370
13
48
1
60
0
100
AcDbSpline
70
4
71
3
72
8
73
4
40
0
40
0
40
0
40
0
40
1
40
1
40
1
40
1
41
1
10
41.9269486592881
20
-6.81158060090144
30
0
41
1
10
41.8829751479401
20
-6.71451900355819
30
0
41
1
10
41.837107202226
20
-6.61831653299186
30
0
41
1
10
41.7871982348829
20
-6.52456207186469
30
0
0
SPLINE
5
1C5
100
AcDbEntity
8
1
62
256
6
ByLayer
370
13
48
1
60
0
100
AcDbSpline
70
4
71
3
72
12
73
8
40
0
40
0
40
0
40
0
40
0.365727906004492
40
0.365727906004492
40
0.978437105133119
40
0.978437105133119
40
1
40
1
40
1
40
1
41
1
10
43.3803879305322
20
-7.75216215554863
30
0
41
1
10
43.3669233419134
20
-7.73512668329403
30
0
41
1
10
43.3521983132535
20
-7.71933106684463
30
0
41
1
10
43.3111353907575
20
-7.6821726096484
30
0
41
1
10
43.2828055733672
20
-7.66346464638804
30
0
41
1
10
43.2534955383431
20
-7.65062163388316
30
0
41
1
10
43.2524880622417
20
-7.65018786692085
30
0
41
1
10
43.2514801084146
20
-7.64976164766179
30
0
0
SPLINE
5
1C6
100
AcDbEntity
8
1
62
256
6
ByLayer
370
13
48
1
60
0
100
AcDbSpline
70
4
71
3
72
12
73
8
40
0
40
0
40
0
40
0
40
0.597224160967102
40
0.597224160967102
40
0.806459478710096
40
0.806459478710096
40
1
40
1
40
1
40
1
41
1
10
43.4674054923344
20
-7.87013615124101
30
0
41
1
10
43.4517404047311
20
-7.84790556643597
30
0
41
1
10
43.4345712719747
20
-7.82385998036017
30
0
41
1
10
43.4107775882299
20
-7.79173531009943
30
0
41
1
10
43.4044533689847
20
-7.7833072274133
30
0
41
1
10
43.3922252793233
20
-7.76728466460148
30
0
41
1
10
43.386303686356
20
-7.75964680265187
30
0
41
1
10
43.3803879305322
20
-7.75216215554866
30
0
0
SPLINE
5
1C7
100
AcDbEntity
8
1
62
256
6
ByLayer
370
13
48
1
60
0
100
AcDbSpline
70
4
71
3
72
12
73
8
40
0
40
0
40
0
40
0
40
0.597224160982647
40
0.597224160982647
40
0.806459478729557
40
0.806459478729557
40
1
40
1
40
1
40
1
41
1
10
43.4674054923344
20
-6.62986384875902
30
0
41
1
10
43.4517404047312
20
-6.65209443356403
30
0
41
1
10
43.4345712719748
20
-6.67614001963975
30
0
41
1
10
43.4107775882302
20
-6.70826468990032
30
0
41
1
10
43.404453368985
20
-6.7166927725863
30
0
41
1
10
43.3922252793235
20
-6.73271533539821
30
0
41
1
10
43.3863036863561
20
-6.74035319734801
30
0
41
1
10
43.3803879305322
20
-6.74783784445145
30
0
0
SPLINE
5
1C8
100
AcDbEntity
8
1
62
256
6
ByLayer
370
13
48
1
60
0
100
AcDbSpline
70
4
71
3
72
12
73
8
40
0
40
0
40
0
40
0
40
0.0216552127699091
40
0.0216552127699091
40
0.549266071356395
40
0.549266071356395
40
1
40
1
40
1
40
1
41
1
10
43.2514801084141
20
-6.85023835233875
30
0
41
1
10
43.2524880633972
20
-6.84981213367334
30
0
41
1
10
43.2534955429719
20
-6.84937836848431
30
0
41
1
10
43.2789531871476
20
-6.83822336112905
30
0
41
1
10
43.3033813442808
20
-6.82286061496248
30
0
41
1
10
43.3454052205908
20
-6.78780363914959
30
0
41
1
10
43.3638645140883
20
-6.76874336264865
30
0
41
1
10
43.380387930535
20
-6.74783784444782
30
0
0
SPLINE
5
1C9
100
AcDbEntity
8
1
62
256
6
ByLayer
370
13
48
1
60
0
100
AcDbSpline
70
4
71
3
72
8
73
4
40
0
40
0
40
0
40
0
40
1
40
1
40
1
40
1
41
1
10
43.3803879305321
20
-6.74783784445145
30
0
41
1
10
43.3917464413886
20
-6.75724773267302
30
0
41
1
10
43.4018184386868
20
-6.76517679994419
30
0
41
1
10
43.4102634151926
20
-6.77135698575179
30
0
0
SPLINE
5
1CA
100
AcDbEntity
8
1
62
256
6
ByLayer
370
13
48
1
60
0
100
AcDbSpline
70
4
71
3
72
12
73
8
40
0
40
0
40
0
40
0
40
0.488366722420296
40
0.488366722420296
40
0.942436355362905
40
0.942436355362905
40
1
40
1
40
1
40
1
41
1
10
43.4262120963125
20
-7.62602364728985
30
0
41
1
10
43.4283429607195
20
-7.59714786496869
30
0
41
1
10
43.4319548858697
20
-7.56053841002012
30
0
41
1
10
43.4453657154376
20
-7.48210541536446
30
0
41
1
10
43.4548755278662
20
-7.43977616239795
30
0
41
1
10
43.4702301431231
20
-7.39192379777691
30
0
41
1
10
43.4720501662501
20
-7.38646011931499
30
0
41
1
10
43.4739430174867
20
-7.38099554185655
30
0
0
SPLINE
5
1CB
100
AcDbEntity
8
1
62
256
6
ByLayer
370
13
48
1
60
0
100
AcDbSpline
70
4
71
3
72
12
73
8
40
0
40
0
40
0
40
0
40
0.037828268420456
40
0.037828268420456
40
0.727108891322556
40
0.727108891322556
40
1
40
1
40
1
40
1
41
1
10
43.4739430174867
20
-7.38099554185658
30
0
41
1
10
43.4824023364264
20
-7.38267351030353
30
0
41
1
10
43.4909189581297
20
-7.38436944621412
30
0
41
1
10
43.6536057521077
20
-7.41688953191172
30
0
41
1
10
43.8281123770015
20
-7.45386866301104
30
0
41
1
10
44.0808681739289
20
-7.50984673513068
30
0
41
1
10
44.1546315555727
20
-7.52645425971963
30
0
41
1
10
44.2289221872925
20
-7.54345189211102
30
0
0
SPLINE
5
1CC
100
AcDbEntity
8
1
62
256
6
ByLayer
370
13
48
1
60
0
100
AcDbSpline
70
4
71
3
72
24
73
20
40
0
40
0
40
0
40
0
40
0.0291918203657016
40
0.0291918203657016
40
0.136396538158131
40
0.136396538158131
40
0.265987867368488
40
0.265987867368488
40
0.377753358158994
40
0.377753358158994
40
0.50483938938664
40
0.50483938938664
40
0.632110922025969
40
0.632110922025969
40
0.762713398901978
40
0.762713398901978
40
0.901999958850298
40
0.901999958850298
40
1
40
1
40
1
40
1
41
1
10
42.0817115471212
20
-7.05266454963498
30
0
41
1
10
42.0860998093753
20
-7.05444748191206
30
0
41
1
10
42.090300333935
20
-7.05641035590051
30
0
41
1
10
42.1087793745321
20
-7.06619810588461
30
0
41
1
10
42.1208255768154
20
-7.0760127693965
30
0
41
1
10
42.1430843368215
20
-7.10092338462928
30
0
41
1
10
42.1527903934534
20
-7.11711077030682
30
0
41
1
10
42.166954912446
20
-7.15094403369355
30
0
41
1
10
42.17204803846
20
-7.16843200650698
30
0
41
1
10
42.1794867440361
20
-7.20774984409346
30
0
41
1
10
42.181458605176
20
-7.2304869047282
30
0
41
1
10
42.1811100662915
20
-7.27514733185592
30
0
41
1
10
42.1787796342844
20
-7.29776299569815
30
0
41
1
10
42.1700744334302
20
-7.33964655595571
30
0
41
1
10
42.1634978563533
20
-7.35947475450993
30
0
41
1
10
42.1457369932044
20
-7.39516671323469
30
0
41
1
10
42.1340799608659
20
-7.41127455367695
30
0
41
1
10
42.108701419119
20
-7.43352046023185
30
0
41
1
10
42.0962344198634
20
-7.44143486898028
30
0
41
1
10
42.0817115471212
20
-7.44733545036507
30
0
0
SPLINE
5
1CD
100
AcDbEntity
8
1
62
256
6
ByLayer
370
13
48
1
60
0
100
AcDbSpline
70
4
71
3
72
12
73
8
40
0
40
0
40
0
40
0
40
0.365724954919257
40
0.365724954919257
40
0.979118069631435
40
0.979118069631435
40
1
40
1
40
1
40
1
41
1
10
43.4102634152023
20
-7.72864301426401
30
0
41
1
10
43.3937361056157
20
-7.71397564506418
30
0
41
1
10
43.3756371518841
20
-7.70080314607102
30
0
41
1
10
43.3250623637126
20
-7.67104498684796
30
0
41
1
10
43.2900751797186
20
-7.65755567663336
30
0
41
1
10
43.253889933239
20
-7.65022767574558
30
0
41
1
10
43.2526851799038
20
-7.64999119774649
30
0
41
1
10
43.2514801084145
20
-7.64976164766188
30
0
0
SPLINE
5
1CE
100
AcDbEntity
8
1
62
256
6
ByLayer
370
13
48
1
60
0
100
AcDbSpline
70
4
71
3
72
12
73
8
40
0
40
0
40
0
40
0
40
0.0209717280275962
40
0.0209717280275962
40
0.549261945584352
40
0.549261945584352
40
1
40
1
40
1
40
1
41
1
10
43.2514801084148
20
-6.85023835233838
30
0
41
1
10
43.2526851798996
20
-6.85000880224783
30
0
41
1
10
43.2538899332219
20
-6.84977232423054
30
0
41
1
10
43.2853191773472
20
-6.84340747819775
30
0
41
1
10
43.3154975045281
20
-6.83255586393403
30
0
41
1
10
43.3672856302101
20
-6.80511913838981
30
0
41
1
10
43.3899815347171
20
-6.78935639620198
30
0
41
1
10
43.4102634152025
20
-6.7713569857363
30
0
0
SPLINE
5
1CF
100
AcDbEntity
8
1
62
256
6
ByLayer
370
13
48
1
60
0
100
AcDbSpline
70
4
71
3
72
12
73
8
40
0
40
0
40
0
40
0
40
0.49164663932398
40
0.49164663932398
40
0.875373657848572
40
0.875373657848572
40
1
40
1
40
1
40
1
41
1
10
43.4739430174867
20
-7.11900445814348
30
0
41
1
10
43.4580682635103
20
-7.0731747484125
30
0
41
1
10
43.4471504774152
20
-7.02683298783836
30
0
41
1
10
43.434144098743
20
-6.95327405793066
30
0
41
1
10
43.430526825236
20
-6.9233133611948
30
0
41
1
10
43.4274054244723
20
-6.88939503551964
30
0
41
1
10
43.4267634910172
20
-6.88144841588348
30
0
41
1
10
43.4262120963126
20
-6.87397635271012
30
0
0
SPLINE
5
1D0
100
AcDbEntity
8
1
62
256
6
ByLayer
370
13
48
1
60
0
100
AcDbSpline
70
4
71
3
72
12
73
8
40
0
40
0
40
0
40
0
40
0.0378282684204534
40
0.0378282684204534
40
0.727108891322555
40
0.727108891322555
40
1
40
1
40
1
40
1
41
1
10
43.4739430174867
20
-7.11900445814348
30
0
41
1
10
43.4824023364264
20
-7.1173264896965
30
0
41
1
10
43.4909189581297
20
-7.1156305537859
30
0
41
1
10
43.6536057521077
20
-7.08311046808831
30
0
41
1
10
43.8281123770015
20
-7.04613133698899
30
0
41
1
10
44.0808681739289
20
-6.99015326486935
30
0
41
1
10
44.1546315555727
20
-6.9735457402804
30
0
41
1
10
44.2289221872925
20
-6.95654810788901
30
0
0
SPLINE
5
1D1
100
AcDbEntity
8
1
62
256
6
ByLayer
370
13
48
1
60
0
100
AcDbSpline
70
4
71
3
72
8
73
4
40
0
40
0
40
0
40
0
40
1
40
1
40
1
40
1
41
1
10
43.4775115598657
20
-6.61428557231125
30
0
41
1
10
43.4742211632921
20
-6.61941750341015
30
0
41
1
10
43.4708498814567
20
-6.62461579473305
30
0
41
1
10
43.4674054923343
20
-6.62986384875953
30
0
0
SPLINE
5
1D2
100
AcDbEntity
8
1
62
256
6
ByLayer
370
13
48
1
60
0
100
AcDbSpline
70
4
71
3
72
8
73
4
40
0
40
0
40
0
40
0
40
1
40
1
40
1
40
1
41
1
10
43.4775115598653
20
-7.88571442768776
30
0
41
1
10
43.474221163292
20
-7.88058249658923
30
0
41
1
10
43.4708498814566
20
-7.87538420526707
30
0
41
1
10
43.4674054923344
20
-7.87013615124098
30
0
0
SPLINE
5
1D3
100
AcDbEntity
8
1
62
256
6
ByLayer
370
13
48
1
60
0
100
AcDbSpline
70
4
71
3
72
10
73
6
40
0
40
0
40
0
40
0
40
0.543977242056965
40
0.543977242056965
40
1
40
1
40
1
40
1
41
1
10
42.1586453076065
20
-7.5487860265477
30
0
41
1
10
42.1348598955802
20
-7.52979292431328
30
0
41
1
10
42.1082267241209
20
-7.51563032199689
30
0
41
1
10
42.0582400099704
20
-7.49998177524421
30
0
41
1
10
42.0345424108346
20
-7.49663354430433
30
0
41
1
10
42.0112725012788
20
-7.49702036436747
30
0
0
SPLINE
5
1D4
100
AcDbEntity
8
1
62
256
6
ByLayer
370
13
48
1
60
0
100
AcDbSpline
70
4
71
3
72
10
73
6
40
0
40
0
40
0
40
0
40
0.594671969867266
40
0.594671969867266
40
1
40
1
40
1
40
1
41
1
10
42.0112725012887
20
-7.00297963563244
30
0
41
1
10
42.0414272134588
20
-7.0034809030561
30
0
41
1
10
42.0724285425084
20
-6.9976295699033
30
0
41
1
10
42.121404499001
20
-6.9770026290951
30
0
41
1
10
42.1407983096893
20
-6.96546513949247
30
0
41
1
10
42.1586453076066
20
-6.95121397345679
30
0
0
SPLINE
5
1D5
100
AcDbEntity
8
1
62
256
6
ByLayer
370
13
48
1
60
0
100
AcDbSpline
70
4
71
3
72
10
73
6
40
0
40
0
40
0
40
0
40
0.441584000439074
40
0.441584000439074
40
1
40
1
40
1
40
1
41
1
10
41.9682618588517
20
-7.00237796968474
30
0
41
1
10
41.9831578146863
20
-7.00978913624508
30
0
41
1
10
41.9983157146139
20
-7.01698520910503
30
0
41
1
10
42.0331615279672
20
-7.0327544954873
30
0
41
1
10
42.0530007239137
20
-7.04119450516595
30
0
41
1
10
42.0731579439907
20
-7.04924434820072
30
0
0
SPLINE
5
1D6
100
AcDbEntity
8
1
62
256
6
ByLayer
370
13
48
1
60
0
100
AcDbSpline
70
4
71
3
72
10
73
6
40
0
40
0
40
0
40
0
40
0.317001517206847
40
0.317001517206847
40
1
40
1
40
1
40
1
41
1
10
42.0112725012775
20
-7.00297963563105
30
0
41
1
10
42.0064777423953
20
-7.00362120522843
30
0
41
1
10
42.0017490867121
20
-7.00404049046554
30
0
41
1
10
41.9870718822178
20
-7.00465916266202
30
0
41
1
10
41.9773952454518
20
-7.00403530705049
30
0
41
1
10
41.9682618588517
20
-7.00237796968474
30
0
0
SPLINE
5
1D7
100
AcDbEntity
8
1
62
256
6
ByLayer
370
13
48
1
60
0
100
AcDbSpline
70
4
71
3
72
10
73
6
40
0
40
0
40
0
40
0
40
0.357650901073067
40
0.357650901073067
40
1
40
1
40
1
40
1
41
1
10
41.9682618588517
20
-7.49762203031528
30
0
41
1
10
41.9730683572598
20
-7.49674984678043
30
0
41
1
10
41.9780213367012
20
-7.49616330605315
30
0
41
1
10
41.9921229263446
20
-7.49533571372731
30
0
41
1
10
42.0015680505855
20
-7.49572184640707
30
0
41
1
10
42.0112725012795
20
-7.49702036436736
30
0
0
SPLINE
5
1D8
100
AcDbEntity
8
1
62
256
6
ByLayer
370
13
48
1
60
0
100
AcDbSpline
70
4
71
3
72
10
73
6
40
0
40
0
40
0
40
0
40
0.558477308496816
40
0.558477308496816
40
1
40
1
40
1
40
1
41
1
10
42.0731579439905
20
-7.45075565179832
30
0
41
1
10
42.0529985124188
20
-7.45880637799982
30
0
41
1
10
42.0331571738854
20
-7.46724735702489
30
0
41
1
10
41.9983115077506
20
-7.48301678794118
30
0
41
1
10
41.9831557478674
20
-7.49021189205678
30
0
41
1
10
41.9682618588517
20
-7.49762203031528
30
0
0
SPLINE
5
1D9
100
AcDbEntity
8
1
62
256
6
ByLayer
370
13
48
1
60
0
100
AcDbSpline
70
4
71
3
72
12
73
8
40
0
40
0
40
0
40
0
40
0.709988165001255
40
0.709988165001255
40
0.92220788847233
40
0.92220788847233
40
1
40
1
40
1
40
1
41
1
10
41.9327064157301
20
-6.96699214973583
30
0
41
1
10
41.949201252382
20
-6.97917739938933
30
0
41
1
10
41.9677573595242
20
-6.98890732880616
30
0
41
1
10
41.9928332682202
20
-6.9978920543096
30
0
41
1
10
41.998736568945
20
-6.99973195131457
30
0
41
1
10
42.0068788977593
20
-7.0019095172149
30
0
41
1
10
42.0090724396469
20
-7.00246106122324
30
0
41
1
10
42.0112725012798
20
-7.00297963562483
30
0
0
SPLINE
5
1DA
100
AcDbEntity
8
1
62
256
6
ByLayer
370
13
48
1
60
0
100
AcDbSpline
70
4
71
3
72
10
73
6
40
0
40
0
40
0
40
0
40
0.735193443551149
40
0.735193443551149
40
1
40
1
40
1
40
1
41
1
10
42.0112725012795
20
-7.49702036436838
30
0
41
1
10
41.9906991613072
20
-7.50186968645266
30
0
41
1
10
41.9704915627688
20
-7.50971465021556
30
0
41
1
10
41.9454099006125
20
-7.52417894743525
30
0
41
1
10
41.9389206110604
20
-7.52841723056807
30
0
41
1
10
41.9327064157472
20
-7.53300785021739
30
0
0
SPLINE
5
1DB
100
AcDbEntity
8
1
62
256
6
ByLayer
370
13
48
1
60
0
100
AcDbSpline
70
4
71
3
72
10
73
6
40
0
40
0
40
0
40
0
40
0.333804371559252
40
0.333804371559252
40
1
40
1
40
1
40
1
41
1
10
42.0731579439905
20
-7.04924434820171
30
0
41
1
10
42.0741089610472
20
-7.04962488934709
30
0
41
1
10
42.075060222121
20
-7.05000543695283
30
0
41
1
10
42.0779107035582
20
-7.05114548659645
30
0
41
1
10
42.0798106484521
20
-7.05190500732127
30
0
41
1
10
42.0817115471212
20
-7.05266454963498
30
0
0
SPLINE
5
1DC
100
AcDbEntity
8
1
62
256
6
ByLayer
370
13
48
1
60
0
100
AcDbSpline
70
4
71
3
72
10
73
6
40
0
40
0
40
0
40
0
40
0.666195628071545
40
0.666195628071545
40
1
40
1
40
1
40
1
41
1
10
42.0817115471212
20
-7.44733545036507
30
0
41
1
10
42.0798106484531
20
-7.44809499267834
30
0
41
1
10
42.0779107035603
20
-7.44885451340275
30
0
41
1
10
42.0750602221231
20
-7.44999456304637
30
0
41
1
10
42.0741089610481
20
-7.45037511065308
30
0
41
1
10
42.0731579439905
20
-7.45075565179889
30
0
0
SPLINE
5
1DD
100
AcDbEntity
8
1
62
256
6
ByLayer
370
13
48
1
60
0
100
AcDbSpline
70
4
71
3
72
10
73
6
40
0
40
0
40
0
40
0
40
0.741839809293022
40
0.741839809293022
40
1
40
1
40
1
40
1
41
1
10
41.8775223795399
20
-6.89930433755862
30
0
41
1
10
41.8872637205793
20
-6.918655848611
30
0
41
1
10
41.9004639767516
20
-6.93650731229601
30
0
41
1
10
41.9211300943468
20
-6.9571314552812
30
0
41
1
10
41.926795657145
20
-6.9622199747686
30
0
41
1
10
41.932706415723
20
-6.96699214974527
30
0
0
SPLINE
5
1DE
100
AcDbEntity
8
1
62
256
6
ByLayer
370
13
48
1
60
0
100
AcDbSpline
70
4
71
3
72
10
73
6
40
0
40
0
40
0
40
0
40
0.344098564729953
40
0.344098564729953
40
1
40
1
40
1
40
1
41
1
10
41.9327064157477
20
-7.53300785021827
30
0
41
1
10
41.9248480305401
20
-7.53935248242306
30
0
41
1
10
41.9174164333952
20
-7.54626032464588
30
0
41
1
10
41.8974612534848
20
-7.56762204716321
30
0
41
1
10
41.8861446779715
20
-7.58356716825088
30
0
41
1
10
41.8775223795393
20
-7.60069566244226
30
0
0
SPLINE
5
1DF
100
AcDbEntity
8
1
62
256
6
ByLayer
370
13
48
1
60
0
100
AcDbSpline
70
4
71
3
72
8
73
4
40
0
40
0
40
0
40
0
40
1
40
1
40
1
40
1
41
1
10
41.8484695777327
20
-6.8610341976912
30
0
41
1
10
41.856844178597
20
-6.87474357051866
30
0
41
1
10
41.8665807416807
20
-6.8876294334294
30
0
41
1
10
41.8775223795412
20
-6.89930433755751
30
0
0
SPLINE
5
1E0
100
AcDbEntity
8
1
62
256
6
ByLayer
370
13
48
1
60
0
100
AcDbSpline
70
4
71
3
72
8
73
4
40
0
40
0
40
0
40
0
40
1
40
1
40
1
40
1
41
1
10
41.877522379539
20
-7.60069566244209
30
0
41
1
10
41.866580741679
20
-7.61237056656975
30
0
41
1
10
41.8568441785981
20
-7.62525642948373
30
0
41
1
10
41.8484695777341
20
-7.63896580231054
30
0
0
SPLINE
5
1E1
100
AcDbEntity
8
1
62
256
6
ByLayer
370
13
48
1
60
0
100
AcDbSpline
70
4
71
3
72
8
73
4
40
0
40
0
40
0
40
0
40
1
40
1
40
1
40
1
41
1
10
41.8484695777332
20
-7.63896580230789
30
0
41
1
10
41.806994641852
20
-7.73549280893303
30
0
41
1
10
41.7641587550012
20
-7.83148984445236
30
0
41
1
10
41.7183319361237
20
-7.92598433134592
30
0
0
SPLINE
5
1E2
100
AcDbEntity
8
1
62
256
6
ByLayer
370
13
48
1
60
0
100
AcDbSpline
70
4
71
3
72
8
73
4
40
0
40
0
40
0
40
0
40
1
40
1
40
1
40
1
41
1
10
41.7183319361237
20
-6.57401566865411
30
0
41
1
10
41.7641587550011
20
-6.66851015554732
30
0
41
1
10
41.8069946418517
20
-6.76450719106631
30
0
41
1
10
41.8484695777328
20
-6.86103419769108
30
0
0
SPLINE
5
1E3
100
AcDbEntity
8
1
62
256
6
ByLayer
370
13
48
1
60
0
100
AcDbSpline
70
4
71
3
72
10
73
6
40
0
40
0
40
0
40
0
40
0.779724613001554
40
0.779724613001554
40
1
40
1
40
1
40
1
41
1
10
41.9487905068831
20
-6.99897564444709
30
0
41
1
10
41.9522814951948
20
-6.99897564444726
30
0
41
1
10
41.9570719807736
20
-6.99963590935312
30
0
41
1
10
41.964621012228
20
-7.00141237073879
30
0
41
1
10
41.9664035390181
20
-7.00186857537472
30
0
41
1
10
41.9682618588517
20
-7.00237796968474
30
0
0
SPLINE
5
1E4
100
AcDbEntity
8
1
62
256
6
ByLayer
370
13
48
1
60
0
100
AcDbSpline
70
4
71
3
72
8
73
4
40
0
40
0
40
0
40
0
40
1
40
1
40
1
40
1
41
1
10
41.8775223795398
20
-6.8993043375585
30
0
41
1
10
41.8675268649006
20
-6.89351228094546
30
0
41
1
10
41.8585032631411
20
-6.88768150062745
30
0
41
1
10
41.8506142807835
20
-6.8820021197223
30
0
0
SPLINE
5
1E5
100
AcDbEntity
8
1
62
256
6
ByLayer
370
13
48
1
60
0
100
AcDbSpline
70
4
71
3
72
8
73
4
40
0
40
0
40
0
40
0
40
1
40
1
40
1
40
1
41
1
10
41.8506142807802
20
-7.61799788027977
30
0
41
1
10
41.8585032631378
20
-7.61231849937468
30
0
41
1
10
41.8675268648999
20
-7.60648771905502
30
0
41
1
10
41.877522379539
20
-7.60069566244198
30
0
0
SPLINE
5
1E6
100
AcDbEntity
8
1
62
256
6
ByLayer
370
13
48
1
60
0
100
AcDbSpline
70
4
71
3
72
10
73
6
40
0
40
0
40
0
40
0
40
0.220275387008479
40
0.220275387008479
40
1
40
1
40
1
40
1
41
1
10
41.9682618588517
20
-7.49762203031528
30
0
41
1
10
41.966403539018
20
-7.49813142462537
30
0
41
1
10
41.9646210122277
20
-7.49858762926135
30
0
41
1
10
41.9570719807735
20
-7.50036409064688
30
0
41
1
10
41.9522814951945
20
-7.50102435555283
30
0
41
1
10
41.9487905068828
20
-7.50102435555294
30
0
0
SPLINE
5
1E7
100
AcDbEntity
8
1
62
256
6
ByLayer
370
13
48
1
60
0
100
AcDbSpline
70
4
71
3
72
10
73
6
40
0
40
0
40
0
40
0
40
0.491839191976824
40
0.491839191976824
40
1
40
1
40
1
40
1
41
1
10
43.4739430174867
20
-7.38099554185655
30
0
41
1
10
43.4840171195627
20
-7.33939882869177
30
0
41
1
10
43.489736079367
20
-7.29559614479774
30
0
41
1
10
43.4900896741381
20
-7.20726742859827
30
0
41
1
10
43.4843433987005
20
-7.16194840201953
30
0
41
1
10
43.4739430174867
20
-7.11900445814348
30
0
0
SPLINE
5
1E8
100
AcDbEntity
8
1
62
256
6
ByLayer
370
13
48
1
60
0
100
AcDbSpline
70
4
71
3
72
8
73
4
40
0
40
0
40
0
40
0
40
1
40
1
40
1
40
1
41
1
10
41.8484695777331
20
-6.86103419768995
30
0
41
1
10
41.8491523507354
20
-6.86796360355248
30
0
41
1
10
41.8498660198604
20
-6.87495526892258
30
0
41
1
10
41.8506142807769
20
-6.88200211971792
30
0
0
SPLINE
5
1E9
100
AcDbEntity
8
1
62
256
6
ByLayer
370
13
48
1
60
0
100
AcDbSpline
70
4
71
3
72
8
73
4
40
0
40
0
40
0
40
0
40
1
40
1
40
1
40
1
41
1
10
41.8506142807768
20
-7.61799788028327
30
0
41
1
10
41.8498660198604
20
-7.62504473107748
30
0
41
1
10
41.8491523507355
20
-7.63203639644644
30
0
41
1
10
41.8484695777332
20
-7.63896580230789
30
0
0
SPLINE
5
1EA
100
AcDbEntity
8
1
62
256
6
ByLayer
370
13
48
1
60
0
100
AcDbSpline
70
4
71
3
72
16
73
12
40
0
40
0
40
0
40
0
40
0.565035752121982
40
0.565035752121982
40
0.802127499925977
40
0.802127499925977
40
0.909039374754918
40
0.909039374754918
40
0.963879000672096
40
0.963879000672096
40
1
40
1
40
1
40
1
41
1
10
45.5753143467793
20
-6.48446411403989
30
0
41
1
10
45.5686286509489
20
-6.47007154087325
30
0
41
1
10
45.5618879302625
20
-6.45536616990285
30
0
41
1
10
45.5523712685777
20
-6.43434379942971
30
0
41
1
10
45.5495577546969
20
-6.42809558287348
30
0
41
1
10
45.5454904861867
20
-6.41901395895309
30
0
41
1
10
45.5442279534699
20
-6.41618800063742
30
0
41
1
10
45.5423215351283
20
-6.41191019761911
30
0
41
1
10
45.5416757755847
20
-6.41045933015346
30
0
41
1
10
45.5406068513424
20
-6.40805461258034
30
0
41
1
10
45.5401828059207
20
-6.40710111222367
30
0
41
1
10
45.5397600217523
20
-6.4061470996829
30
0
0
SPLINE
5
1EB
100
AcDbEntity
8
1
62
256
6
ByLayer
370
13
48
1
60
0
100
AcDbSpline
70
4
71
3
72
10
73
6
40
0
40
0
40
0
40
0
40
0.484066971714713
40
0.484066971714713
40
1
40
1
40
1
40
1
41
1
10
45.6636089363249
20
-6.59419694560256
30
0
41
1
10
45.6463854867531
20
-6.57933247646426
30
0
41
1
10
45.6300210449059
20
-6.5632714416237
30
0
41
1
10
45.5997771424429
20
-6.5271788870597
30
0
41
1
10
45.585689560494
20
-6.50679926452912
30
0
41
1
10
45.5753143467793
20
-6.48446411403989
30
0
0
SPLINE
5
1EC
100
AcDbEntity
8
1
62
256
6
ByLayer
370
13
48
1
60
0
100
AcDbSpline
70
4
71
3
72
16
73
12
40
0
40
0
40
0
40
0
40
0.565035752121982
40
0.565035752121982
40
0.802127499925978
40
0.802127499925978
40
0.909039374754918
40
0.909039374754918
40
0.963879000672096
40
0.963879000672096
40
1
40
1
40
1
40
1
41
1
10
45.5753143467793
20
-8.01553588596016
30
0
41
1
10
45.5686286509486
20
-8.02992845912664
30
0
41
1
10
45.5618879302625
20
-8.04463383009718
30
0
41
1
10
45.5523712685777
20
-8.06565620057032
30
0
41
1
10
45.5495577546969
20
-8.07190441712655
30
0
41
1
10
45.5454904861867
20
-8.08098604104694
30
0
41
1
10
45.5442279534699
20
-8.08381199936264
30
0
41
1
10
45.5423215351283
20
-8.08808980238092
30
0
41
1
10
45.5416757755847
20
-8.08954066984657
30
0
41
1
10
45.5406068513424
20
-8.09194538741968
30
0
41
1
10
45.5401828059207
20
-8.09289888777636
30
0
41
1
10
45.5397600217523
20
-8.09385290031716
30
0
0
SPLINE
5
1ED
100
AcDbEntity
8
1
62
256
6
ByLayer
370
13
48
1
60
0
100
AcDbSpline
70
4
71
3
72
8
73
4
40
0
40
0
40
0
40
0
40
1
40
1
40
1
40
1
41
1
10
45.5397600217523
20
-8.09385290031713
30
0
41
1
10
45.422055648593
20
-8.1183261905544
30
0
41
1
10
45.300878108611
20
-8.12775268068631
30
0
41
1
10
45.1810768987951
20
-8.12481616366676
30
0
0
SPLINE
5
1EE
100
AcDbEntity
8
1
62
256
6
ByLayer
370
13
48
1
60
0
100
AcDbSpline
70
4
71
3
72
8
73
4
40
0
40
0
40
0
40
0
40
1
40
1
40
1
40
1
41
1
10
45.5397600217523
20
-6.4061470996829
30
0
41
1
10
45.422055648593
20
-6.38167380944563
30
0
41
1
10
45.300878108611
20
-6.37224731931371
30
0
41
1
10
45.1810768987951
20
-6.37518383633326
30
0
0
SPLINE
5
1EF
100
AcDbEntity
8
1
62
256
6
ByLayer
370
13
48
1
60
0
100
AcDbSpline
70
4
71
3
72
10
73
6
40
0
40
0
40
0
40
0
40
0.484066971714709
40
0.484066971714709
40
1
40
1
40
1
40
1
41
1
10
45.6636089363249
20
-7.9058030543975
30
0
41
1
10
45.6463854867531
20
-7.9206675235358
30
0
41
1
10
45.6300210449059
20
-7.93672855837636
30
0
41
1
10
45.5997771424429
20
-7.97282111294032
30
0
41
1
10
45.585689560494
20
-7.99320073547094
30
0
41
1
10
45.5753143467793
20
-8.01553588596016
30
0
0
SPLINE
5
1F0
100
AcDbEntity
8
1
62
256
6
ByLayer
370
13
48
1
60
0
100
AcDbSpline
70
4
71
3
72
10
73
6
40
0
40
0
40
0
40
0
40
0.176628710800224
40
0.176628710800224
40
1
40
1
40
1
40
1
41
1
10
45.9256635776615
20
-6.71887911270269
30
0
41
1
10
45.9183722025778
20
-6.70789288199131
30
0
41
1
10
45.9104894309625
20
-6.69728913007361
30
0
41
1
10
45.8638040682909
20
-6.64023442467735
30
0
41
1
10
45.8154493527108
20
-6.60130053320168
30
0
41
1
10
45.7642473322786
20
-6.56913067946002
30
0
0
SPLINE
5
1F1
100
AcDbEntity
8
1
62
256
6
ByLayer
370
13
48
1
60
0
100
AcDbSpline
70
4
71
3
72
8
73
4
40
0
40
0
40
0
40
0
40
1
40
1
40
1
40
1
41
1
10
45.7642473322786
20
-6.56913067946002
30
0
41
1
10
45.7451065349848
20
-6.55710465696637
30
0
41
1
10
45.725925565824
20
-6.54514243207078
30
0
41
1
10
45.7067026707552
20
-6.5332483086263
30
0
0
SPLINE
5
1F2
100
AcDbEntity
8
1
62
256
6
ByLayer
370
13
48
1
60
0
100
AcDbSpline
70
4
71
3
72
10
73
6
40
0
40
0
40
0
40
0
40
0.502273026272322
40
0.502273026272322
40
1
40
1
40
1
40
1
41
1
10
45.7067026707552
20
-6.5332483086263
30
0
41
1
10
45.6891255877276
20
-6.52237252771104
30
0
41
1
10
45.6719685584501
20
-6.51074793609635
30
0
41
1
10
45.6393998135679
20
-6.48566227550262
30
0
41
1
10
45.6236090237987
20
-6.47226448622291
30
0
41
1
10
45.610515563742
20
-6.4565462274314
30
0
0
SPLINE
5
1F3
100
AcDbEntity
8
1
62
256
6
ByLayer
370
13
48
1
60
0
100
AcDbSpline
70
4
71
3
72
10
73
6
40
0
40
0
40
0
40
0
40
0.502273026272322
40
0.502273026272322
40
1
40
1
40
1
40
1
41
1
10
45.7067026707552
20
-7.96675169137376
30
0
41
1
10
45.6891255877276
20
-7.97762747228899
30
0
41
1
10
45.6719685584501
20
-7.98925206390371
30
0
41
1
10
45.6393998135679
20
-8.01433772449741
30
0
41
1
10
45.6236090237987
20
-8.02773551377715
30
0
41
1
10
45.610515563742
20
-8.04345377256865
30
0
0
SPLINE
5
1F4
100
AcDbEntity
8
1
62
256
6
ByLayer
370
13
48
1
60
0
100
AcDbSpline
70
4
71
3
72
8
73
4
40
0
40
0
40
0
40
0
40
1
40
1
40
1
40
1
41
1
10
45.7642473322786
20
-7.93086932054001
30
0
41
1
10
45.7451065349848
20
-7.94289534303368
30
0
41
1
10
45.725925565824
20
-7.95485756792925
30
0
41
1
10
45.7067026707552
20
-7.96675169137373
30
0
0
SPLINE
5
1F5
100
AcDbEntity
8
1
62
256
6
ByLayer
370
13
48
1
60
0
100
AcDbSpline
70
4
71
3
72
10
73
6
40
0
40
0
40
0
40
0
40
0.176628710800224
40
0.176628710800224
40
1
40
1
40
1
40
1
41
1
10
45.9256635776615
20
-7.78112088729733
30
0
41
1
10
45.9183722025778
20
-7.79210711800874
30
0
41
1
10
45.9104894309625
20
-7.80271086992641
30
0
41
1
10
45.8638040682909
20
-7.85976557532268
30
0
41
1
10
45.8154493527108
20
-7.89869946679835
30
0
41
1
10
45.7642473322786
20
-7.93086932054001
30
0
0
SPLINE
5
1F6
100
AcDbEntity
8
1
62
256
6
ByLayer
370
13
48
1
60
0
100
AcDbSpline
70
4
71
3
72
10
73
6
40
0
40
0
40
0
40
0
40
0.828685679108716
40
0.828685679108716
40
1
40
1
40
1
40
1
41
1
10
45.7207683583679
20
-7.87023176813389
30
0
41
1
10
45.7686097493867
20
-7.84487894144934
30
0
41
1
10
45.8147633392972
20
-7.81407320760238
30
0
41
1
10
45.8604070337688
20
-7.76717105504849
30
0
41
1
10
45.8679488590384
20
-7.75866004142742
30
0
41
1
10
45.8749800271743
20
-7.74976204988977
30
0
0
SPLINE
5
1F7
100
AcDbEntity
8
1
62
256
6
ByLayer
370
13
48
1
60
0
100
AcDbSpline
70
4
71
3
72
10
73
6
40
0
40
0
40
0
40
0
40
0.828685679108716
40
0.828685679108716
40
1
40
1
40
1
40
1
41
1
10
45.7207683583679
20
-6.62976823186617
30
0
41
1
10
45.7686097493867
20
-6.65512105855072
30
0
41
1
10
45.8147633392972
20
-6.68592679239765
30
0
41
1
10
45.8604070337688
20
-6.73282894495154
30
0
41
1
10
45.8679488590384
20
-6.74133995857264
30
0
41
1
10
45.8749800271743
20
-6.75023795011026
30
0
0
SPLINE
5
1F8
100
AcDbEntity
8
1
62
256
6
ByLayer
370
13
48
1
60
0
100
AcDbSpline
70
4
71
3
72
8
73
4
40
0
40
0
40
0
40
0
40
1
40
1
40
1
40
1
41
1
10
45.8749800271743
20
-6.75023795011029
30
0
41
1
10
45.882226373284
20
-6.75940825085073
30
0
41
1
10
45.8893744966751
20
-6.76869385692024
30
0
41
1
10
45.896439687712
20
-6.77804195912526
30
0
0
SPLINE
5
1F9
100
AcDbEntity
8
1
62
256
6
ByLayer
370
13
48
1
60
0
100
AcDbSpline
70
4
71
3
72
10
73
6
40
0
40
0
40
0
40
0
40
0.595894712070617
40
0.595894712070617
40
1
40
1
40
1
40
1
41
1
10
45.896439687712
20
-6.77804195912526
30
0
41
1
10
45.9128914645872
20
-6.79980964960677
30
0
41
1
10
45.9267183907984
20
-6.82422990134279
30
0
41
1
10
45.940810212682
20
-6.86790101891356
30
0
41
1
10
45.9440390421828
20
-6.88665955692341
30
0
41
1
10
45.9441651422482
20
-6.90525959326101
30
0
0
SPLINE
5
1FA
100
AcDbEntity
8
1
62
256
6
ByLayer
370
13
48
1
60
0
100
AcDbSpline
70
4
71
3
72
12
73
8
40
0
40
0
40
0
40
0
40
0.0880792633922689
40
0.0880792633922689
40
0.576107189837383
40
0.576107189837383
40
1
40
1
40
1
40
1
41
1
10
45.6040818169429
20
-6.89787095975115
30
0
41
1
10
45.6140661440235
20
-6.89758157502851
30
0
41
1
10
45.6240551161812
20
-6.89743922028359
30
0
41
1
10
45.6893799480028
20
-6.89756539366209
30
0
41
1
10
45.7447000295702
20
-6.89962439636608
30
0
41
1
10
45.8480735369366
20
-6.9022806897631
30
0
41
1
10
45.8961214732615
20
-6.90369674610767
30
0
41
1
10
45.9441651422482
20
-6.90525959326101
30
0
0
SPLINE
5
1FB
100
AcDbEntity
8
1
62
256
6
ByLayer
370
13
48
1
60
0
100
AcDbSpline
70
4
71
3
72
12
73
8
40
0
40
0
40
0
40
0
40
0.0880792633922689
40
0.0880792633922689
40
0.576107189837383
40
0.576107189837383
40
1
40
1
40
1
40
1
41
1
10
45.6040818169429
20
-7.60212904024891
30
0
41
1
10
45.6140661440235
20
-7.60241842497155
30
0
41
1
10
45.6240551161812
20
-7.60256077971647
30
0
41
1
10
45.6893799480028
20
-7.60243460633794
30
0
41
1
10
45.7447000295702
20
-7.60037560363395
30
0
41
1
10
45.8480735369366
20
-7.59771931023695
30
0
41
1
10
45.8961214732615
20
-7.59630325389236
30
0
41
1
10
45.9441651422482
20
-7.59474040673905
30
0
0
SPLINE
5
1FC
100
AcDbEntity
8
1
62
256
6
ByLayer
370
13
48
1
60
0
100
AcDbSpline
70
4
71
3
72
10
73
6
40
0
40
0
40
0
40
0
40
0.595894712070617
40
0.595894712070617
40
1
40
1
40
1
40
1
41
1
10
45.896439687712
20
-7.72195804087477
30
0
41
1
10
45.9128914645872
20
-7.70019035039326
30
0
41
1
10
45.9267183907984
20
-7.67577009865727
30
0
41
1
10
45.940810212682
20
-7.63209898108647
30
0
41
1
10
45.9440390421828
20
-7.61334044307662
30
0
41
1
10
45.9441651422482
20
-7.59474040673905
30
0
0
SPLINE
5
1FD
100
AcDbEntity
8
1
62
256
6
ByLayer
370
13
48
1
60
0
100
AcDbSpline
70
4
71
3
72
16
73
12
40
0
40
0
40
0
40
0
40
0.550547840515593
40
0.550547840515593
40
0.792876062772848
40
0.792876062772848
40
0.904227776395907
40
0.904227776395907
40
0.964015152759446
40
0.964015152759446
40
1
40
1
40
1
40
1
41
1
10
45.610515563742
20
-6.45654622743135
30
0
41
1
10
45.5975450008677
20
-6.44750948063628
30
0
41
1
10
45.5844768135886
20
-6.43829171730613
30
0
41
1
10
45.5657548110492
20
-6.42492749176415
30
0
41
1
10
45.560032266874
20
-6.42082100944637
30
0
41
1
10
45.5517104802333
20
-6.41481730321783
30
0
41
1
10
45.5490936305623
20
-6.41292473926464
30
0
41
1
10
45.5450796636703
20
-6.41001450173678
30
0
41
1
10
45.543678727348
20
-6.40899742095559
30
0
41
1
10
45.5414390369606
20
-6.40736920549151
30
0
41
1
10
45.5405990425508
20
-6.40675843302546
30
0
41
1
10
45.5397600217523
20
-6.40614709968284
30
0
0
SPLINE
5
1FE
100
AcDbEntity
8
1
62
256
6
ByLayer
370
13
48
1
60
0
100
AcDbSpline
70
4
71
3
72
8
73
4
40
0
40
0
40
0
40
0
40
1
40
1
40
1
40
1
41
1
10
45.8749800271743
20
-7.74976204988977
30
0
41
1
10
45.882226373284
20
-7.7405917491493
30
0
41
1
10
45.8893744966751
20
-7.73130614307982
30
0
41
1
10
45.896439687712
20
-7.72195804087477
30
0
0
SPLINE
5
1FF
100
AcDbEntity
8
1
62
256
6
ByLayer
370
13
48
1
60
0
100
AcDbSpline
70
4
71
3
72
16
73
12
40
0
40
0
40
0
40
0
40
0.550547840515593
40
0.550547840515593
40
0.792876062772848
40
0.792876062772848
40
0.904227776395907
40
0.904227776395907
40
0.964015152759446
40
0.964015152759446
40
1
40
1
40
1
40
1
41
1
10
45.610515563742
20
-8.04345377256871
30
0
41
1
10
45.5975450008677
20
-8.05249051936377
30
0
41
1
10
45.5844768135886
20
-8.0617082826939
30
0
41
1
10
45.5657548110492
20
-8.07507250823588
30
0
41
1
10
45.560032266874
20
-8.07917899055369
30
0
41
1
10
45.5517104802333
20
-8.0851826967822
30
0
41
1
10
45.5490936305623
20
-8.08707526073542
30
0
41
1
10
45.5450796636703
20
-8.08998549826325
30
0
41
1
10
45.543678727348
20
-8.09100257904444
30
0
41
1
10
45.5414390369606
20
-8.09263079450855
30
0
41
1
10
45.5405990425508
20
-8.0932415669746
30
0
41
1
10
45.5397600217523
20
-8.09385290031722
30
0
0
SPLINE
5
200
100
AcDbEntity
8
1
62
256
6
ByLayer
370
13
48
1
60
0
100
AcDbSpline
70
4
71
3
72
8
73
4
40
0
40
0
40
0
40
0
40
1
40
1
40
1
40
1
41
1
10
45.1810768987951
20
-8.12481616366676
30
0
41
1
10
45.0666740375912
20
-8.12150813787252
30
0
41
1
10
44.9499584372937
20
-8.11253383942804
30
0
41
1
10
44.8337805434613
20
-8.11676177205004
30
0
0
SPLINE
5
201
100
AcDbEntity
8
1
62
256
6
ByLayer
370
13
48
1
60
0
100
AcDbSpline
70
4
71
3
72
8
73
4
40
0
40
0
40
0
40
0
40
1
40
1
40
1
40
1
41
1
10
45.1810768987951
20
-6.37518383633326
30
0
41
1
10
45.0666740375912
20
-6.3784918621275
30
0
41
1
10
44.9499584372937
20
-6.38746616057199
30
0
41
1
10
44.8337805434613
20
-6.38323822794999
30
0
0
SPLINE
5
202
100
AcDbEntity
8
1
62
256
6
ByLayer
370
13
48
1
60
0
100
AcDbSpline
70
4
71
3
72
10
73
6
40
0
40
0
40
0
40
0
40
0.202374079532489
40
0.202374079532489
40
1
40
1
40
1
40
1
41
1
10
44.9939768523292
20
-6.89666737987673
30
0
41
1
10
45.0366335743463
20
-6.89785266089476
30
0
41
1
10
45.0793460209675
20
-6.8983469014857
30
0
41
1
10
45.2872289032592
20
-6.90117888890535
30
0
41
1
10
45.4524723046481
20
-6.90109339854212
30
0
41
1
10
45.6040818169429
20
-6.89787095975115
30
0
0
SPLINE
5
203
100
AcDbEntity
8
1
62
256
6
ByLayer
370
13
48
1
60
0
100
AcDbSpline
70
4
71
3
72
10
73
6
40
0
40
0
40
0
40
0
40
0.202374079532489
40
0.202374079532489
40
1
40
1
40
1
40
1
41
1
10
44.9939768523292
20
-7.60333262012333
30
0
41
1
10
45.0366335743463
20
-7.6021473391053
30
0
41
1
10
45.0793460209675
20
-7.60165309851436
30
0
41
1
10
45.2872289032592
20
-7.59882111109468
30
0
41
1
10
45.4524723046481
20
-7.59890660145794
30
0
41
1
10
45.6040818169429
20
-7.60212904024891
30
0
0
SPLINE
5
204
100
AcDbEntity
8
1
62
256
6
ByLayer
370
13
48
1
60
0
100
AcDbSpline
70
4
71
3
72
10
73
6
40
0
40
0
40
0
40
0
40
0.412056726398416
40
0.412056726398416
40
1
40
1
40
1
40
1
41
1
10
45.9970257408962
20
-6.90525959326101
30
0
41
1
10
45.9970257408962
20
-6.882140055295
30
0
41
1
10
45.99385361432
20
-6.8588467272362
30
0
41
1
10
45.9795476699584
20
-6.80477853641003
30
0
41
1
10
45.9654870839336
20
-6.77430879873791
30
0
41
1
10
45.9480375085946
20
-6.74657472132816
30
0
0
SPLINE
5
205
100
AcDbEntity
8
1
62
256
6
ByLayer
370
13
48
1
60
0
100
AcDbSpline
70
4
71
3
72
10
73
6
40
0
40
0
40
0
40
0
40
0.412056726398416
40
0.412056726398416
40
1
40
1
40
1
40
1
41
1
10
45.9970257408962
20
-7.59474040673905
30
0
41
1
10
45.9970257408962
20
-7.61785994470503
30
0
41
1
10
45.99385361432
20
-7.64115327276386
30
0
41
1
10
45.9795476699584
20
-7.69522146359
30
0
41
1
10
45.9654870839336
20
-7.72569120126212
30
0
41
1
10
45.9480375085946
20
-7.7534252786719
30
0
0
SPLINE
5
206
100
AcDbEntity
8
1
62
256
6
ByLayer
370
13
48
1
60
0
100
AcDbSpline
70
4
71
3
72
8
73
4
40
0
40
0
40
0
40
0
40
1
40
1
40
1
40
1
41
1
10
44.8337805434613
20
-6.38323822794999
30
0
41
1
10
44.7338294385697
20
-6.3799896933364
30
0
41
1
10
44.6333593139737
20
-6.37676984718672
30
0
41
1
10
44.5337805434613
20
-6.38596132736762
30
0
0
SPLINE
5
207
100
AcDbEntity
8
1
62
256
6
ByLayer
370
13
48
1
60
0
100
AcDbSpline
70
4
71
3
72
8
73
4
40
0
40
0
40
0
40
0
40
1
40
1
40
1
40
1
41
1
10
44.8337805434613
20
-8.11676177205004
30
0
41
1
10
44.7338294385697
20
-8.12001030666363
30
0
41
1
10
44.6333593139737
20
-8.12323015281333
30
0
41
1
10
44.5337805434613
20
-8.11403867263243
30
0
0
SPLINE
5
208
100
AcDbEntity
8
1
62
256
6
ByLayer
370
13
48
1
60
0
100
AcDbSpline
70
4
71
3
72
16
73
12
40
0
40
0
40
0
40
0
40
0.144623406732697
40
0.144623406732697
40
0.340113210683642
40
0.340113210683642
40
0.361421053906806
40
0.361421053906806
40
0.96509055241744
40
0.96509055241744
40
1
40
1
40
1
40
1
41
1
10
44.4939768523292
20
-7.59969710971214
30
0
41
1
10
44.5176378728546
20
-7.60442880712395
30
0
41
1
10
44.5416309953235
20
-7.60764403476429
30
0
41
1
10
44.598193352456
20
-7.61240109400927
30
0
41
1
10
44.6308631318152
20
-7.61355623584222
30
0
41
1
10
44.6670552818254
20
-7.61356324977316
30
0
41
1
10
44.6706149406199
20
-7.61354712070741
30
0
41
1
10
44.7749938211816
20
-7.61252481034939
30
0
41
1
10
44.8757429102796
20
-7.6077435474231
30
0
41
1
10
44.9823238693043
20
-7.60377231620822
30
0
41
1
10
44.9881503958337
20
-7.60355338853469
30
0
41
1
10
44.9939768523292
20
-7.60333262012333
30
0
0
SPLINE
5
209
100
AcDbEntity
8
1
62
256
6
ByLayer
370
13
48
1
60
0
100
AcDbSpline
70
4
71
3
72
16
73
12
40
0
40
0
40
0
40
0
40
0.144623406732697
40
0.144623406732697
40
0.340113210683642
40
0.340113210683642
40
0.361421053906806
40
0.361421053906806
40
0.96509055241744
40
0.96509055241744
40
1
40
1
40
1
40
1
41
1
10
44.4939768523292
20
-6.90030289028789
30
0
41
1
10
44.5176378728546
20
-6.89557119287608
30
0
41
1
10
44.5416309953235
20
-6.89235596523574
30
0
41
1
10
44.598193352456
20
-6.88759890599079
30
0
41
1
10
44.6308631318152
20
-6.8864437641578
30
0
41
1
10
44.6670552818254
20
-6.88643675022686
30
0
41
1
10
44.6706149406199
20
-6.88645287929262
30
0
41
1
10
44.7749938211816
20
-6.88747518965064
30
0
41
1
10
44.8757429102796
20
-6.89225645257696
30
0
41
1
10
44.9823238693043
20
-6.89622768379181
30
0
41
1
10
44.9881503958337
20
-6.89644661146534
30
0
41
1
10
44.9939768523292
20
-6.89666737987673
30
0
0
SPLINE
5
20A
100
AcDbEntity
8
1
62
256
6
ByLayer
370
13
48
1
60
0
100
AcDbSpline
70
4
71
3
72
8
73
4
40
0
40
0
40
0
40
0
40
1
40
1
40
1
40
1
41
1
10
45.9480375085946
20
-6.74657472132816
30
0
41
1
10
45.9406822121479
20
-6.73722240841229
30
0
41
1
10
45.9332278664848
20
-6.72797388408526
30
0
41
1
10
45.9256635776615
20
-6.71887911270269
30
0
0
SPLINE
5
20B
100
AcDbEntity
8
1
62
256
6
ByLayer
370
13
48
1
60
0
100
AcDbSpline
70
4
71
3
72
8
73
4
40
0
40
0
40
0
40
0
40
1
40
1
40
1
40
1
41
1
10
45.9480375085946
20
-7.7534252786719
30
0
41
1
10
45.9406822121479
20
-7.76277759158774
30
0
41
1
10
45.9332278664848
20
-7.77202611591477
30
0
41
1
10
45.9256635776615
20
-7.78112088729733
30
0
0
SPLINE
5
20C
100
AcDbEntity
8
1
62
256
6
ByLayer
370
13
48
1
60
0
100
AcDbSpline
70
4
71
3
72
16
73
12
40
0
40
0
40
0
40
0
40
0.0002204728141812
40
0.0002204728141812
40
0.28207049074326
40
0.28207049074326
40
0.563941110555105
40
0.563941110555105
40
0.999779527185927
40
0.999779527185927
40
1
40
1
40
1
40
1
41
1
10
44.2289221872925
20
-6.95654810788892
30
0
41
1
10
44.2289414547825
20
-6.95654369022273
30
0
41
1
10
44.2289607223292
20
-6.95653927287108
30
0
41
1
10
44.2536114636835
20
-6.9508875190503
30
0
41
1
10
44.2783272225084
20
-6.94520974468429
30
0
41
1
10
44.327843685161
20
-6.93372948708836
30
0
41
1
10
44.3526291596669
20
-6.92780650220567
30
0
41
1
10
44.4159850762818
20
-6.91361412495732
30
0
41
1
10
44.4548717009099
20
-6.90629674530024
30
0
41
1
10
44.4939373139163
20
-6.90030894948748
30
0
41
1
10
44.4939570830919
20
-6.9003059196863
30
0
41
1
10
44.4939768523292
20
-6.90030289028789
30
0
0
SPLINE
5
20D
100
AcDbEntity
8
1
62
256
6
ByLayer
370
13
48
1
60
0
100
AcDbSpline
70
4
71
3
72
16
73
12
40
0
40
0
40
0
40
0
40
0.0002204728141812
40
0.0002204728141812
40
0.28207049074326
40
0.28207049074326
40
0.563941110555105
40
0.563941110555105
40
0.999779527185927
40
0.999779527185927
40
1
40
1
40
1
40
1
41
1
10
44.2289221872925
20
-7.54345189211111
30
0
41
1
10
44.2289414547824
20
-7.54345630963084
30
0
41
1
10
44.2289607223292
20
-7.54346072712895
30
0
41
1
10
44.2536114636835
20
-7.54911248094976
30
0
41
1
10
44.2783272225084
20
-7.55479025531574
30
0
41
1
10
44.327843685161
20
-7.56627051291167
30
0
41
1
10
44.3526291596669
20
-7.57219349779439
30
0
41
1
10
44.4159850762818
20
-7.58638587504271
30
0
41
1
10
44.4548717009099
20
-7.59370325469979
30
0
41
1
10
44.4939373139163
20
-7.59969105051258
30
0
41
1
10
44.4939570831493
20
-7.59969407993896
30
0
41
1
10
44.4939768523292
20
-7.59969710971214
30
0
0
SPLINE
5
20E
100
AcDbEntity
8
1
62
256
6
ByLayer
370
13
48
1
60
0
100
AcDbSpline
70
4
71
3
72
8
73
4
40
0
40
0
40
0
40
0
40
1
40
1
40
1
40
1
41
1
10
44.2289221872925
20
-7.25000000000003
30
0
41
1
10
44.3172737423047
20
-7.25000000000003
30
0
41
1
10
44.405625297317
20
-7.25000000000003
30
0
41
1
10
44.4939768523292
20
-7.25000000000003
30
0
0
SPLINE
5
20F
100
AcDbEntity
8
1
62
256
6
ByLayer
370
18
48
1
60
0
100
AcDbSpline
70
4
71
3
72
10
73
6
40
0
40
0
40
0
40
0
40
0.756102769204547
40
0.756102769204547
40
1
40
1
40
1
40
1
41
1
10
37.5466320131342
20
-6.45000000000002
30
0
41
1
10
37.5335358577321
20
-6.45000000000002
30
0
41
1
10
37.5207202080259
20
-6.45000000000002
30
0
41
1
10
37.5042092102192
20
-6.45000000000002
30
0
41
1
10
37.5002140960562
20
-6.45000000000002
30
0
41
1
10
37.4962544185031
20
-6.45000000000002
30
0
0
SPLINE
5
210
100
AcDbEntity
8
1
62
256
6
ByLayer
370
18
48
1
60
0
100
AcDbSpline
70
4
71
3
72
14
73
10
40
0
40
0
40
0
40
0
40
0.209394252568555
40
0.209394252568555
40
0.418674140634421
40
0.418674140634421
40
0.627952529466336
40
0.627952529466336
40
1
40
1
40
1
40
1
41
1
10
43.4731203716814
20
-8.13244511361032
30
0
41
1
10
43.5313095888796
20
-8.13243843432369
30
0
41
1
10
43.5945415508062
20
-8.13302469360505
30
0
41
1
10
43.7284652768354
20
-8.13536000986772
30
0
41
1
10
43.7996116692105
20
-8.13711643831854
30
0
41
1
10
43.9473813033078
20
-8.1417351455764
30
0
41
1
10
44.0245105149097
20
-8.14461322492053
30
0
41
1
10
44.2423341909035
20
-8.15397718389954
30
0
41
1
10
44.3889070981155
20
-8.16166082683759
30
0
41
1
10
44.5337805434602
20
-8.17055979753786
30
0
0
SPLINE
5
211
100
AcDbEntity
8
1
62
256
6
ByLayer
370
18
48
1
60
0
100
AcDbSpline
70
4
71
3
72
14
73
10
40
0
40
0
40
0
40
0
40
0.209828521639199
40
0.209828521639199
40
0.4195901540272
40
0.4195901540272
40
0.628965113592846
40
0.628965113592846
40
1
40
1
40
1
40
1
41
1
10
44.5337805434613
20
-6.32944020246166
30
0
41
1
10
44.4514732695809
20
-6.33449599454929
30
0
41
1
10
44.3688292147962
20
-6.3391526677274
30
0
41
1
10
44.2062811533078
20
-6.34747259763745
30
0
41
1
10
44.1258208334326
20
-6.35116457373596
30
0
41
1
10
43.9699639724299
20
-6.35745366402764
30
0
41
1
10
43.8940252483449
20
-6.36007427929559
30
0
41
1
10
43.6941103545506
20
-6.36571683543727
30
0
41
1
10
43.5754747567342
20
-6.36756663520427
30
0
41
1
10
43.4731203716825
20
-6.36755488639054
30
0
0
SPLINE
5
212
100
AcDbEntity
8
1
62
256
6
ByLayer
370
18
48
1
60
0
100
AcDbSpline
70
4
71
3
72
8
73
4
40
0
40
0
40
0
40
0
40
1
40
1
40
1
40
1
41
1
10
45.1810768987951
20
-6.28780961044089
30
0
41
1
10
45.0667232362904
20
-6.29607476079053
30
0
41
1
10
44.9500733165824
20
-6.3038690760076
30
0
41
1
10
44.8337805434613
20
-6.31101245537707
30
0
0
SPLINE
5
213
100
AcDbEntity
8
1
62
256
6
ByLayer
370
18
48
1
60
0
100
AcDbSpline
70
4
71
3
72
10
73
6
40
0
40
0
40
0
40
0
40
0.575849552148122
40
0.575849552148122
40
1
40
1
40
1
40
1
41
1
10
37.4962544185031
20
-8.05000000000001
30
0
41
1
10
37.5055992325651
20
-8.05000000000001
30
0
41
1
10
37.5151434423376
20
-8.05000000000001
30
0
41
1
10
37.5320239080445
20
-8.05000000000001
30
0
41
1
10
37.5392832271312
20
-8.05000000000001
30
0
41
1
10
37.5466320131342
20
-8.05000000000001
30
0
0
SPLINE
5
214
100
AcDbEntity
8
1
62
256
6
ByLayer
370
18
48
1
60
0
100
AcDbSpline
70
4
71
3
72
8
73
4
40
0
40
0
40
0
40
0
40
1
40
1
40
1
40
1
41
1
10
44.8337805434613
20
-8.18898754462296
30
0
41
1
10
44.9500733165824
20
-8.19613092399243
30
0
41
1
10
45.0667232362904
20
-8.2039252392095
30
0
41
1
10
45.1810768987951
20
-8.21219038955917
30
0
0
SPLINE
5
215
100
AcDbEntity
8
1
62
256
6
ByLayer
370
18
48
1
60
0
100
AcDbSpline
70
4
71
3
72
16
73
12
40
0
40
0
40
0
40
0
40
0.211440290976243
40
0.211440290976243
40
0.422896736694443
40
0.422896736694443
40
0.633935131411306
40
0.633935131411306
40
0.842399597812144
40
0.842399597812144
40
1
40
1
40
1
40
1
41
1
10
46.0019409516835
20
-6.50324033365635
30
0
41
1
10
46.002182812152
20
-6.47464626339422
30
0
41
1
10
45.997509865013
20
-6.44565922963545
30
0
41
1
10
45.9791355265766
20
-6.39169312017077
30
0
41
1
10
45.9651770288146
20
-6.36596439579097
30
0
41
1
10
45.9300123990849
20
-6.32138342313891
30
0
41
1
10
45.9083234948748
20
-6.30189541000325
30
0
41
1
10
45.8605708510197
20
-6.27207904630114
30
0
41
1
10
45.8338898983738
20
-6.26122939815559
30
0
41
1
10
45.7856899076455
20
-6.25087164249967
30
0
41
1
10
45.7640691721776
20
-6.2491529154419
30
0
41
1
10
45.7427579923014
20
-6.25030093989881
30
0
0
SPLINE
5
216
100
AcDbEntity
8
1
62
256
6
ByLayer
370
18
48
1
60
0
100
AcDbSpline
70
4
71
3
72
16
73
12
40
0
40
0
40
0
40
0
40
0.203363754276493
40
0.203363754276493
40
0.40658604208921
40
0.40658604208921
40
0.611967971554986
40
0.611967971554986
40
0.82073821984358
40
0.82073821984358
40
1
40
1
40
1
40
1
41
1
10
45.7427579923014
20
-8.24969906010122
30
0
41
1
10
45.7700970081209
20
-8.25117180159049
30
0
41
1
10
45.7980262240332
20
-8.24787801301392
30
0
41
1
10
45.8504076479783
20
-8.2324110753645
30
0
41
1
10
45.8755789022368
20
-8.22003831328402
30
0
41
1
10
45.9201132665787
20
-8.18797733188114
30
0
41
1
10
45.9400202557989
20
-8.16778225268533
30
0
41
1
10
45.9720355922843
20
-8.12219500836014
30
0
41
1
10
45.9844520380369
20
-8.09610043277866
30
0
41
1
10
45.9988187436013
20
-8.04567368877687
30
0
41
1
10
46.0021467885115
20
-8.02109482437783
30
0
41
1
10
46.0019409516835
20
-7.99675966634368
30
0
0
LINE
5
70
100
AcDbEntity
8
80
62
256
6
ByLayer
370
18
48
1
60
0
100
AcDbLine
10
0
20
0
30
0
11
-5
21
0
31
0
39
0
210
0
220
0
230
1
0
LINE
5
71
100
AcDbEntity
8
81
62
256
6
ByLayer
370
18
48
1
60
0
100
AcDbLine
10
46
20
-8
30
0
11
51
21
-8
31
0
39
0
210
0
220
0
230
1
0
LINE
5
72
100
AcDbEntity
8
SK1
62
256
6
ByLayer
370
18
48
1
60
0
100
AcDbLine
10
0
20
-8
30
0
11
-64
21
-8
31
0
39
0
210
0
220
0
230
1
0
LINE
5
74
100
AcDbEntity
8
SK1
62
256
6
ByLayer
370
18
48
1
60
0
100
AcDbLine
10
-64
20
-1.5
30
0
11
-64
21
-8
31
0
39
0
210
0
220
0
230
1
0
LINE
5
75
100
AcDbEntity
8
SK1
62
256
6
ByLayer
370
18
48
1
60
0
100
AcDbLine
10
-64
20
0
30
0
11
-64
21
-1.5
31
0
39
0
210
0
220
0
230
1
0
LINE
5
76
100
AcDbEntity
8
SK1
62
256
6
ByLayer
370
18
48
1
60
0
100
AcDbLine
10
0
20
-1.5
30
0
11
-64
21
-1.5
31
0
39
0
210
0
220
0
230
1
0
LINE
5
77
100
AcDbEntity
8
SK1
62
256
6
ByLayer
370
18
48
1
60
0
100
AcDbLine
10
0
20
-8
30
0
11
0
21
-1.5
31
0
39
0
210
0
220
0
230
1
0
LINE
5
78
100
AcDbEntity
8
SK1
62
256
6
ByLayer
370
18
48
1
60
0
100
AcDbLine
10
0
20
0
30
0
11
-64
21
0
31
0
39
0
210
0
220
0
230
1
0
LINE
5
79
100
AcDbEntity
8
SK1
62
256
6
ByLayer
370
18
48
1
60
0
100
AcDbLine
10
0
20
-1.5
30
0
11
0
21
0
31
0
39
0
210
0
220
0
230
1
0
LINE
5
7A
100
AcDbEntity
8
1
62
256
6
ByLayer
370
18
48
1
60
0
100
AcDbLine
10
18.4
20
0
30
0
11
26.771896
21
0
31
0
39
0
210
0
220
0
230
1
0
LINE
5
7C
100
AcDbEntity
8
1
62
256
6
ByLayer
370
18
48
1
60
0
100
AcDbLine
10
16.4
20
0
30
0
11
16.4
21
-8
31
0
39
0
210
0
220
0
230
1
0
LINE
5
7D
100
AcDbEntity
8
1
62
256
6
ByLayer
370
18
48
1
60
0
100
AcDbLine
10
0
20
-8
30
0
11
0
21
-1.5
31
0
39
0
210
0
220
0
230
1
0
LINE
5
7E
100
AcDbEntity
8
1
62
256
6
ByLayer
370
13
48
1
60
0
100
AcDbLine
10
16.34061
20
0
30
0
11
16.34061
21
-8
31
0
39
0
210
0
220
0
230
1
0
LINE
5
7F
100
AcDbEntity
8
1
62
256
6
ByLayer
370
18
48
1
60
0
100
AcDbLine
10
0
20
-1.5
30
0
11
0
21
0
31
0
39
0
210
0
220
0
230
1
0
LINE
5
80
100
AcDbEntity
8
1
62
256
6
ByLayer
370
18
48
1
60
0
100
AcDbLine
10
32.290738
20
-8
30
0
11
37.290738
21
-8
31
0
39
0
210
0
220
0
230
1
0
LINE
5
81
100
AcDbEntity
8
1
62
256
6
ByLayer
370
18
48
1
60
0
100
AcDbLine
10
18.4
20
0
30
0
11
18.4
21
-4.9
31
0
39
0
210
0
220
0
230
1
0
LINE
5
82
100
AcDbEntity
8
1
62
256
6
ByLayer
370
18
48
1
60
0
100
AcDbLine
10
37.290738
20
-6.5
30
0
11
32.290738
21
-6.5
31
0
39
0
210
0
220
0
230
1
0
LINE
5
83
100
AcDbEntity
8
1
62
256
6
ByLayer
370
18
48
1
60
0
100
AcDbLine
10
16.4
20
-8
30
0
11
32.290738
21
-8
31
0
39
0
210
0
220
0
230
1
0
LINE
5
84
100
AcDbEntity
8
1
62
256
6
ByLayer
370
18
48
1
60
0
100
AcDbLine
10
11.458316
20
0
30
0
11
0
21
0
31
0
39
0
210
0
220
0
230
1
0
LINE
5
85
100
AcDbEntity
8
1
62
256
6
ByLayer
370
13
48
1
60
0
100
AcDbLine
10
32.290738
20
-6.5
30
0
11
32.290738
21
-8
31
0
39
0
210
0
220
0
230
1
0
LINE
5
86
100
AcDbEntity
8
1
62
256
6
ByLayer
370
13
48
1
60
0
100
AcDbLine
10
26.771896
20
-4.9
30
0
11
18.4
21
-4.9
31
0
39
0
210
0
220
0
230
1
0
LINE
5
87
100
AcDbEntity
8
1
62
256
6
ByLayer
370
18
48
1
60
0
100
AcDbLine
10
41.415611
20
-6.881297
30
0
11
41.415611
21
-6.5
31
0
39
0
210
0
220
0
230
1
0
LINE
5
88
100
AcDbEntity
8
1
62
256
6
ByLayer
370
18
48
1
60
0
100
AcDbLine
10
16.34061
20
0
30
0
11
11.458316
21
0
31
0
39
0
210
0
220
0
230
1
0
LINE
5
89
100
AcDbEntity
8
1
62
256
6
ByLayer
370
18
48
1
60
0
100
AcDbLine
10
11.458316
20
-1.5
30
0
11
0
21
-1.5
31
0
39
0
210
0
220
0
230
1
0
LINE
5
8A
100
AcDbEntity
8
1
62
256
6
ByLayer
370
18
48
1
60
0
100
AcDbLine
10
16.34061
20
-8
30
0
11
16.4
21
-8
31
0
39
0
210
0
220
0
230
1
0
LINE
5
8B
100
AcDbEntity
8
1
62
256
6
ByLayer
370
18
48
1
60
0
100
AcDbLine
10
26.771896
20
-4.9
30
0
11
26.771896
21
0
31
0
39
0
210
0
220
0
230
1
0
LINE
5
8C
100
AcDbEntity
8
1
62
256
6
ByLayer
370
13
48
1
60
0
100
AcDbLine
10
37.290738
20
-8
30
0
11
37.290738
21
-6.5
31
0
39
0
210
0
220
0
230
1
0
LINE
5
8D
100
AcDbEntity
8
1
62
256
6
ByLayer
370
18
48
1
60
0
100
AcDbLine
10
37.290738
20
-8
30
0
11
41.415611
21
-8
31
0
39
0
210
0
220
0
230
1
0
LINE
5
8E
100
AcDbEntity
8
1
62
256
6
ByLayer
370
18
48
1
60
0
100
AcDbLine
10
41.415611
20
-6.5
30
0
11
37.290738
21
-6.5
31
0
39
0
210
0
220
0
230
1
0
LINE
5
8F
100
AcDbEntity
8
1
62
256
6
ByLayer
370
18
48
1
60
0
100
AcDbLine
10
32.290738
20
-6.5
30
0
11
20
21
-6.5
31
0
39
0
210
0
220
0
230
1
0
LINE
5
90
100
AcDbEntity
8
1
62
256
6
ByLayer
370
18
48
1
60
0
100
AcDbLine
10
12.639325
20
-8
30
0
11
16.34061
21
-8
31
0
39
0
210
0
220
0
230
1
0
LINE
5
91
100
AcDbEntity
8
1
62
256
6
ByLayer
370
18
48
1
60
0
100
AcDbLine
10
18.4
20
0
30
0
11
16.4
21
0
31
0
39
0
210
0
220
0
230
1
0
LINE
5
92
100
AcDbEntity
8
1
62
256
6
ByLayer
370
18
48
1
60
0
100
AcDbLine
10
16.4
20
0
30
0
11
16.34061
21
0
31
0
39
0
210
0
220
0
230
1
0
LINE
5
93
100
AcDbEntity
8
1
62
256
6
ByLayer
370
18
48
1
60
0
100
AcDbLine
10
11.458316
20
0
30
0
11
11.458316
21
-1.5
31
0
39
0
210
0
220
0
230
1
0
LINE
5
94
100
AcDbEntity
8
1
62
256
6
ByLayer
370
18
48
1
60
0
100
AcDbLine
10
12.639325
20
-8
30
0
11
0
21
-8
31
0
39
0
210
0
220
0
230
1
0
LINE
5
95
100
AcDbEntity
8
1
62
256
6
ByLayer
370
18
48
1
60
0
100
AcDbLine
10
41.415611
20
-8
30
0
11
41.415611
21
-7.618703
31
0
39
0
210
0
220
0
230
1
0
LINE
5
96
100
AcDbEntity
8
1
62
256
6
ByLayer
370
13
48
1
60
0
100
AcDbLine
10
41.398754
20
-7.447335
30
0
11
41.552289
21
-7.447335
31
0
39
0
210
0
220
0
230
1
0
LINE
5
97
100
AcDbEntity
8
1
62
256
6
ByLayer
370
13
48
1
60
0
100
AcDbLine
10
37.326482
20
-8.05
30
0
11
37.297265
21
-7.999996
31
0
39
0
210
0
220
0
230
1
0
LINE
5
98
100
AcDbEntity
8
1
62
256
6
ByLayer
370
13
48
1
60
0
100
AcDbLine
10
41.398754
20
-7.052665
30
0
11
41.552289
21
-7.052665
31
0
39
0
210
0
220
0
230
1
0
LINE
5
99
100
AcDbEntity
8
1
62
256
6
ByLayer
370
13
48
1
60
0
100
AcDbLine
10
36.665685
20
-7.999992
30
0
11
36.665685
21
-8.05
31
0
39
0
210
0
220
0
230
1
0
LINE
5
9A
100
AcDbEntity
8
1
62
256
6
ByLayer
370
13
48
1
60
0
100
AcDbLine
10
43.165017
20
-6.375199
30
0
11
43.152761
21
-6.550476
31
0
39
0
210
0
220
0
230
1
0
LINE
5
9B
100
AcDbEntity
8
1
62
256
6
ByLayer
370
13
48
1
60
0
100
AcDbLine
10
43.152761
20
-6.550476
30
0
11
43.068752
21
-6.554612
31
0
39
0
210
0
220
0
230
1
0
LINE
5
9C
100
AcDbEntity
8
1
62
256
6
ByLayer
370
13
48
1
60
0
100
AcDbLine
10
42.709679
20
-6.573938
30
0
11
42.709679
21
-6.45
31
0
39
0
210
0
220
0
230
1
0
LINE
5
9D
100
AcDbEntity
8
1
62
256
6
ByLayer
370
13
48
1
60
0
100
AcDbLine
10
42.709679
20
-8.05
30
0
11
42.709679
21
-7.926062
31
0
39
0
210
0
220
0
230
1
0
LINE
5
9E
100
AcDbEntity
8
1
62
256
6
ByLayer
370
13
48
1
60
0
100
AcDbLine
10
43.068752
20
-7.945388
30
0
11
43.152761
21
-7.949524
31
0
39
0
210
0
220
0
230
1
0
LINE
5
9F
100
AcDbEntity
8
1
62
256
6
ByLayer
370
13
48
1
60
0
100
AcDbLine
10
43.165017
20
-8.124801
30
0
11
43.152761
21
-7.949524
31
0
39
0
210
0
220
0
230
1
0
LINE
5
A0
100
AcDbEntity
8
1
62
256
6
ByLayer
370
13
48
1
60
0
100
AcDbLine
10
43.082448
20
-6.832767
30
0
11
43.068752
21
-6.554612
31
0
39
0
210
0
220
0
230
1
0
LINE
5
A1
100
AcDbEntity
8
1
62
256
6
ByLayer
370
13
48
1
60
0
100
AcDbLine
10
43.068752
20
-7.945388
30
0
11
43.082448
21
-7.667233
31
0
39
0
210
0
220
0
230
1
0
LINE
5
A2
100
AcDbEntity
8
1
62
256
6
ByLayer
370
13
48
1
60
0
100
AcDbLine
10
43.177886
20
-6.832767
30
0
11
43.082448
21
-6.832767
31
0
39
0
210
0
220
0
230
1
0
LINE
5
A3
100
AcDbEntity
8
1
62
256
6
ByLayer
370
13
48
1
60
0
100
AcDbLine
10
43.177886
20
-7.667233
30
0
11
43.082448
21
-7.667233
31
0
39
0
210
0
220
0
230
1
0
LINE
5
A4
100
AcDbEntity
8
1
62
256
6
ByLayer
370
13
48
1
60
0
100
AcDbLine
10
44.533781
20
-6.385961
30
0
11
44.533781
21
-6.32944
31
0
39
0
210
0
220
0
230
1
0
LINE
5
A5
100
AcDbEntity
8
1
62
256
6
ByLayer
370
13
48
1
60
0
100
AcDbLine
10
43.47312
20
-6.61152
30
0
11
43.47312
21
-6.367555
31
0
39
0
210
0
220
0
230
1
0
LINE
5
A6
100
AcDbEntity
8
1
62
256
6
ByLayer
370
13
48
1
60
0
100
AcDbLine
10
43.47312
20
-7.88848
30
0
11
43.47312
21
-8.132445
31
0
39
0
210
0
220
0
230
1
0
LINE
5
A7
100
AcDbEntity
8
1
62
256
6
ByLayer
370
13
48
1
60
0
100
AcDbLine
10
44.533781
20
-8.114039
30
0
11
44.533781
21
-8.17056
31
0
39
0
210
0
220
0
230
1
0
LINE
5
A8
100
AcDbEntity
8
1
62
256
6
ByLayer
370
13
48
1
60
0
100
AcDbLine
10
43.364634
20
-6.565291
30
0
11
43.378462
21
-6.367544
31
0
39
0
210
0
220
0
230
1
0
LINE
5
A9
100
AcDbEntity
8
1
62
256
6
ByLayer
370
13
48
1
60
0
100
AcDbLine
10
43.364634
20
-7.934709
30
0
11
43.378462
21
-8.132456
31
0
39
0
210
0
220
0
230
1
0
LINE
5
AA
100
AcDbEntity
8
1
62
256
6
ByLayer
370
13
48
1
60
0
100
AcDbLine
10
43.364634
20
-6.565291
30
0
11
43.152761
21
-6.550476
31
0
39
0
210
0
220
0
230
1
0
LINE
5
AB
100
AcDbEntity
8
1
62
256
6
ByLayer
370
13
48
1
60
0
100
AcDbLine
10
43.152761
20
-7.949524
30
0
11
43.364634
21
-7.934709
31
0
39
0
210
0
220
0
230
1
0
LINE
5
AC
100
AcDbEntity
8
1
62
256
6
ByLayer
370
13
48
1
60
0
100
AcDbLine
10
43.166456
20
-6.828631
30
0
11
43.152761
21
-6.550476
31
0
39
0
210
0
220
0
230
1
0
LINE
5
AD
100
AcDbEntity
8
1
62
256
6
ByLayer
370
13
48
1
60
0
100
AcDbLine
10
43.152761
20
-7.949524
30
0
11
43.166456
21
-7.671369
31
0
39
0
210
0
220
0
230
1
0
LINE
5
AE
100
AcDbEntity
8
1
62
256
6
ByLayer
370
13
48
1
60
0
100
AcDbLine
10
42.709679
20
-6.573938
30
0
11
42.658376
21
-6.573938
31
0
39
0
210
0
220
0
230
1
0
LINE
5
AF
100
AcDbEntity
8
1
62
256
6
ByLayer
370
13
48
1
60
0
100
AcDbLine
10
43.166456
20
-7.671369
30
0
11
43.082448
21
-7.667233
31
0
39
0
210
0
220
0
230
1
0
LINE
5
B0
100
AcDbEntity
8
1
62
256
6
ByLayer
370
13
48
1
60
0
100
AcDbLine
10
42.709679
20
-7.926062
30
0
11
42.658376
21
-7.926062
31
0
39
0
210
0
220
0
230
1
0
LINE
5
B1
100
AcDbEntity
8
1
62
256
6
ByLayer
370
13
48
1
60
0
100
AcDbLine
10
43.082448
20
-6.832767
30
0
11
43.166456
21
-6.828631
31
0
39
0
210
0
220
0
230
1
0
LINE
5
B2
100
AcDbEntity
8
1
62
256
6
ByLayer
370
13
48
1
60
0
100
AcDbLine
10
42.658376
20
-6.45
30
0
11
42.658376
21
-6.573938
31
0
39
0
210
0
220
0
230
1
0
LINE
5
B3
100
AcDbEntity
8
1
62
256
6
ByLayer
370
13
48
1
60
0
100
AcDbLine
10
42.658376
20
-7.926062
30
0
11
42.658376
21
-8.05
31
0
39
0
210
0
220
0
230
1
0
LINE
5
B4
100
AcDbEntity
8
1
62
256
6
ByLayer
370
13
48
1
60
0
100
AcDbLine
10
41.787198
20
-8.05
30
0
11
41.787198
21
-7.975438
31
0
39
0
210
0
220
0
230
1
0
LINE
5
B5
100
AcDbEntity
8
1
62
256
6
ByLayer
370
13
48
1
60
0
100
AcDbLine
10
41.787198
20
-6.524562
30
0
11
41.787198
21
-6.45
31
0
39
0
210
0
220
0
230
1
0
LINE
5
B6
100
AcDbEntity
8
1
62
256
6
ByLayer
370
13
48
1
60
0
100
AcDbLine
10
43.376063
20
-6.569428
30
0
11
43.364634
21
-6.565291
31
0
39
0
210
0
220
0
230
1
0
LINE
5
B7
100
AcDbEntity
8
1
62
256
6
ByLayer
370
13
48
1
60
0
100
AcDbLine
10
43.364634
20
-7.934709
30
0
11
43.376063
21
-7.930572
31
0
39
0
210
0
220
0
230
1
0
LINE
5
B8
100
AcDbEntity
8
1
62
256
6
ByLayer
370
13
48
1
60
0
100
AcDbLine
10
43.177886
20
-7.667233
30
0
11
43.166456
21
-7.671369
31
0
39
0
210
0
220
0
230
1
0
LINE
5
B9
100
AcDbEntity
8
1
62
256
6
ByLayer
370
13
48
1
60
0
100
AcDbLine
10
43.166456
20
-6.828631
30
0
11
43.177886
21
-6.832767
31
0
39
0
210
0
220
0
230
1
0
LINE
5
BA
100
AcDbEntity
8
1
62
256
6
ByLayer
370
13
48
1
60
0
100
AcDbLine
10
41.787198
20
-6.524562
30
0
11
41.711215
21
-6.524562
31
0
39
0
210
0
220
0
230
1
0
LINE
5
BB
100
AcDbEntity
8
1
62
256
6
ByLayer
370
13
48
1
60
0
100
AcDbLine
10
41.787198
20
-7.975438
30
0
11
41.711215
21
-7.975438
31
0
39
0
210
0
220
0
230
1
0
LINE
5
BC
100
AcDbEntity
8
1
62
256
6
ByLayer
370
13
48
1
60
0
100
AcDbLine
10
44.228922
20
-6.956548
30
0
11
44.228922
21
-7.25
31
0
39
0
210
0
220
0
230
1
0
LINE
5
BD
100
AcDbEntity
8
1
62
256
6
ByLayer
370
13
48
1
60
0
100
AcDbLine
10
44.228922
20
-7.543452
30
0
11
44.228922
21
-7.25
31
0
39
0
210
0
220
0
230
1
0
LINE
5
BE
100
AcDbEntity
8
1
62
256
6
ByLayer
370
13
48
1
60
0
100
AcDbLine
10
41.711215
20
-6.45
30
0
11
41.711215
21
-6.524562
31
0
39
0
210
0
220
0
230
1
0
LINE
5
BF
100
AcDbEntity
8
1
62
256
6
ByLayer
370
13
48
1
60
0
100
AcDbLine
10
41.711215
20
-7.975438
30
0
11
41.711215
21
-8.05
31
0
39
0
210
0
220
0
230
1
0
LINE
5
C0
100
AcDbEntity
8
1
62
256
6
ByLayer
370
13
48
1
60
0
100
AcDbLine
10
41.718332
20
-7.925984
30
0
11
41.432668
21
-7.925984
31
0
39
0
210
0
220
0
230
1
0
LINE
5
C1
100
AcDbEntity
8
1
62
256
6
ByLayer
370
13
48
1
60
0
100
AcDbLine
10
41.432668
20
-7.925984
30
0
11
41.469454
21
-7.617998
31
0
39
0
210
0
220
0
230
1
0
LINE
5
C2
100
AcDbEntity
8
1
62
256
6
ByLayer
370
13
48
1
60
0
100
AcDbLine
10
41.469454
20
-7.617998
30
0
11
41.850614
21
-7.617998
31
0
39
0
210
0
220
0
230
1
0
LINE
5
C3
100
AcDbEntity
8
1
62
256
6
ByLayer
370
13
48
1
60
0
100
AcDbLine
10
41.469454
20
-6.882002
30
0
11
41.850614
21
-6.882002
31
0
39
0
210
0
220
0
230
1
0
LINE
5
C4
100
AcDbEntity
8
1
62
256
6
ByLayer
370
13
48
1
60
0
100
AcDbLine
10
41.432668
20
-6.574016
30
0
11
41.469454
21
-6.882002
31
0
39
0
210
0
220
0
230
1
0
LINE
5
C5
100
AcDbEntity
8
1
62
256
6
ByLayer
370
13
48
1
60
0
100
AcDbLine
10
41.718332
20
-6.574016
30
0
11
41.432668
21
-6.574016
31
0
39
0
210
0
220
0
230
1
0
LINE
5
C6
100
AcDbEntity
8
1
62
256
6
ByLayer
370
13
48
1
60
0
100
AcDbLine
10
41.506367
20
-6.998976
30
0
11
41.948791
21
-6.998976
31
0
39
0
210
0
220
0
230
1
0
LINE
5
C7
100
AcDbEntity
8
1
62
256
6
ByLayer
370
13
48
1
60
0
100
AcDbLine
10
41.506367
20
-7.501024
30
0
11
41.948791
21
-7.501024
31
0
39
0
210
0
220
0
230
1
0
LINE
5
C8
100
AcDbEntity
8
1
62
256
6
ByLayer
370
13
48
1
60
0
100
AcDbLine
10
41.549075
20
-7.049244
30
0
11
42.073158
21
-7.049244
31
0
39
0
210
0
220
0
230
1
0
LINE
5
C9
100
AcDbEntity
8
1
62
256
6
ByLayer
370
13
48
1
60
0
100
AcDbLine
10
41.549075
20
-7.450756
30
0
11
42.073158
21
-7.450756
31
0
39
0
210
0
220
0
230
1
0
LINE
5
CA
100
AcDbEntity
8
1
62
256
6
ByLayer
370
13
48
1
60
0
100
AcDbLine
10
41.4298
20
-7.975438
30
0
11
41.711215
21
-7.975438
31
0
39
0
210
0
220
0
230
1
0
LINE
5
CB
100
AcDbEntity
8
1
62
256
6
ByLayer
370
13
48
1
60
0
100
AcDbLine
10
41.4298
20
-6.524562
30
0
11
41.711215
21
-6.524562
31
0
39
0
210
0
220
0
230
1
0
LINE
5
CC
100
AcDbEntity
8
1
62
256
6
ByLayer
370
13
48
1
60
0
100
AcDbLine
10
41.4298
20
-6.45
30
0
11
41.4298
21
-6.524562
31
0
39
0
210
0
220
0
230
1
0
LINE
5
CD
100
AcDbEntity
8
1
62
256
6
ByLayer
370
13
48
1
60
0
100
AcDbLine
10
41.4298
20
-8.05
30
0
11
41.4298
21
-7.975438
31
0
39
0
210
0
220
0
230
1
0
LINE
5
CE
100
AcDbEntity
8
1
62
256
6
ByLayer
370
13
48
1
60
0
100
AcDbLine
10
46.000117
20
-6.718879
30
0
11
45.925664
21
-6.718879
31
0
39
0
210
0
220
0
230
1
0
LINE
5
CF
100
AcDbEntity
8
1
62
256
6
ByLayer
370
13
48
1
60
0
100
AcDbLine
10
45.610516
20
-6.456546
30
0
11
45.610516
21
-6.257425
31
0
39
0
210
0
220
0
230
1
0
LINE
5
D0
100
AcDbEntity
8
1
62
256
6
ByLayer
370
13
48
1
60
0
100
AcDbLine
10
45.610516
20
-8.043454
30
0
11
45.610516
21
-8.242575
31
0
39
0
210
0
220
0
230
1
0
LINE
5
D1
100
AcDbEntity
8
1
62
256
6
ByLayer
370
13
48
1
60
0
100
AcDbLine
10
46.000117
20
-7.781121
30
0
11
45.925664
21
-7.781121
31
0
39
0
210
0
220
0
230
1
0
LINE
5
D2
100
AcDbEntity
8
1
62
256
6
ByLayer
370
13
48
1
60
0
100
AcDbLine
10
41.552289
20
-7.447335
30
0
11
42.081712
21
-7.447335
31
0
39
0
210
0
220
0
230
1
0
LINE
5
D3
100
AcDbEntity
8
1
62
256
6
ByLayer
370
13
48
1
60
0
100
AcDbLine
10
45.181077
20
-8.124816
30
0
11
45.181077
21
-8.21219
31
0
39
0
210
0
220
0
230
1
0
LINE
5
D4
100
AcDbEntity
8
1
62
256
6
ByLayer
370
13
48
1
60
0
100
AcDbLine
10
45.53976
20
-8.238115
30
0
11
45.53976
21
-8.093853
31
0
39
0
210
0
220
0
230
1
0
LINE
5
D5
100
AcDbEntity
8
1
62
256
6
ByLayer
370
13
48
1
60
0
100
AcDbLine
10
41.552289
20
-7.052665
30
0
11
42.081712
21
-7.052665
31
0
39
0
210
0
220
0
230
1
0
LINE
5
D6
100
AcDbEntity
8
1
62
256
6
ByLayer
370
13
48
1
60
0
100
AcDbLine
10
45.53976
20
-6.261885
30
0
11
45.53976
21
-6.406147
31
0
39
0
210
0
220
0
230
1
0
LINE
5
D7
100
AcDbEntity
8
1
62
256
6
ByLayer
370
13
48
1
60
0
100
AcDbLine
10
45.181077
20
-6.375184
30
0
11
45.181077
21
-6.28781
31
0
39
0
210
0
220
0
230
1
0
LINE
5
D8
100
AcDbEntity
8
1
62
256
6
ByLayer
370
13
48
1
60
0
100
AcDbLine
10
41.549075
20
-7.450756
30
0
11
41.552289
21
-7.447335
31
0
39
0
210
0
220
0
230
1
0
LINE
5
D9
100
AcDbEntity
8
1
62
256
6
ByLayer
370
13
48
1
60
0
100
AcDbLine
10
41.549075
20
-7.049244
30
0
11
41.552289
21
-7.052665
31
0
39
0
210
0
220
0
230
1
0
LINE
5
DA
100
AcDbEntity
8
1
62
256
6
ByLayer
370
13
48
1
60
0
100
AcDbLine
10
44.833781
20
-8.116762
30
0
11
44.833781
21
-8.188988
31
0
39
0
210
0
220
0
230
1
0
LINE
5
DB
100
AcDbEntity
8
1
62
256
6
ByLayer
370
13
48
1
60
0
100
AcDbLine
10
44.833781
20
-6.383238
30
0
11
44.833781
21
-6.311012
31
0
39
0
210
0
220
0
230
1
0
LINE
5
DC
100
AcDbEntity
8
1
62
256
6
ByLayer
370
13
48
1
60
0
100
AcDbLine
10
45.005243
20
-6.599334
30
0
11
44.993977
21
-6.896667
31
0
39
0
210
0
220
0
230
1
0
LINE
5
DD
100
AcDbEntity
8
1
62
256
6
ByLayer
370
13
48
1
60
0
100
AcDbLine
10
45.005243
20
-7.900666
30
0
11
44.993977
21
-7.603333
31
0
39
0
210
0
220
0
230
1
0
LINE
5
DE
100
AcDbEntity
8
1
62
256
6
ByLayer
370
13
48
1
60
0
100
AcDbLine
10
45.944165
20
-6.90526
30
0
11
45.997026
21
-6.90526
31
0
39
0
210
0
220
0
230
1
0
LINE
5
DF
100
AcDbEntity
8
1
62
256
6
ByLayer
370
13
48
1
60
0
100
AcDbLine
10
45.944165
20
-7.59474
30
0
11
45.997026
21
-7.59474
31
0
39
0
210
0
220
0
230
1
0
LINE
5
E0
100
AcDbEntity
8
1
62
256
6
ByLayer
370
13
48
1
60
0
100
AcDbLine
10
44.493977
20
-7.599697
30
0
11
44.43288
21
-7.905215
31
0
39
0
210
0
220
0
230
1
0
LINE
5
E1
100
AcDbEntity
8
1
62
256
6
ByLayer
370
13
48
1
60
0
100
AcDbLine
10
44.493977
20
-6.900303
30
0
11
44.43288
21
-6.594785
31
0
39
0
210
0
220
0
230
1
0
LINE
5
E2
100
AcDbEntity
8
1
62
256
6
ByLayer
370
13
48
1
60
0
100
AcDbLine
10
45.948038
20
-7.753425
30
0
11
46
21
-7.753425
31
0
39
0
210
0
220
0
230
1
0
LINE
5
E3
100
AcDbEntity
8
1
62
256
6
ByLayer
370
13
48
1
60
0
100
AcDbLine
10
45.997026
20
-7.59474
30
0
11
45.997026
21
-6.90526
31
0
39
0
210
0
220
0
230
1
0
LINE
5
E4
100
AcDbEntity
8
1
62
256
6
ByLayer
370
13
48
1
60
0
100
AcDbLine
10
45.948038
20
-6.746575
30
0
11
46
21
-6.746575
31
0
39
0
210
0
220
0
230
1
0
LINE
5
E5
100
AcDbEntity
8
1
62
256
6
ByLayer
370
13
48
1
60
0
100
AcDbLine
10
37.326482
20
-6.45
30
0
11
37.297265
21
-6.500004
31
0
39
0
210
0
220
0
230
1
0
LINE
5
E6
100
AcDbEntity
8
1
62
256
6
ByLayer
370
13
48
1
60
0
100
AcDbLine
10
44.993977
20
-6.896667
30
0
11
44.993977
21
-7.603333
31
0
39
0
210
0
220
0
230
1
0
LINE
5
E7
100
AcDbEntity
8
1
62
256
6
ByLayer
370
13
48
1
60
0
100
AcDbLine
10
37.732227
20
-8
30
0
11
37.732227
21
-8.05
31
0
39
0
210
0
220
0
230
1
0
LINE
5
E8
100
AcDbEntity
8
1
62
256
6
ByLayer
370
13
48
1
60
0
100
AcDbLine
10
41.432668
20
-7.925984
30
0
11
41.41556
21
-7.925984
31
0
39
0
210
0
220
0
230
1
0
LINE
5
E9
100
AcDbEntity
8
1
62
256
6
ByLayer
370
13
48
1
60
0
100
AcDbLine
10
45.944165
20
-6.90526
30
0
11
45.944165
21
-7.59474
31
0
39
0
210
0
220
0
230
1
0
LINE
5
EA
100
AcDbEntity
8
1
62
256
6
ByLayer
370
13
48
1
60
0
100
AcDbLine
10
45.604082
20
-6.897871
30
0
11
45.604082
21
-7.602129
31
0
39
0
210
0
220
0
230
1
0
LINE
5
EB
100
AcDbEntity
8
1
62
256
6
ByLayer
370
13
48
1
60
0
100
AcDbLine
10
41.415562
20
-6.524562
30
0
11
41.4298
21
-6.524562
31
0
39
0
210
0
220
0
230
1
0
LINE
5
EC
100
AcDbEntity
8
1
62
256
6
ByLayer
370
13
48
1
60
0
100
AcDbLine
10
41.415562
20
-7.975438
30
0
11
41.4298
21
-7.975438
31
0
39
0
210
0
220
0
230
1
0
LINE
5
ED
100
AcDbEntity
8
1
62
256
6
ByLayer
370
13
48
1
60
0
100
AcDbLine
10
37.732227
20
-6.5
30
0
11
37.732227
21
-6.45
31
0
39
0
210
0
220
0
230
1
0
LINE
5
EE
100
AcDbEntity
8
1
62
256
6
ByLayer
370
13
48
1
60
0
100
AcDbLine
10
41.432668
20
-6.574016
30
0
11
41.41556
21
-6.574016
31
0
39
0
210
0
220
0
230
1
0
LINE
5
EF
100
AcDbEntity
8
1
62
256
6
ByLayer
370
13
48
1
60
0
100
AcDbLine
10
41.415457
20
-7.617998
30
0
11
41.469454
21
-7.617998
31
0
39
0
210
0
220
0
230
1
0
LINE
5
F0
100
AcDbEntity
8
1
62
256
6
ByLayer
370
13
48
1
60
0
100
AcDbLine
10
41.415457
20
-6.882002
30
0
11
41.469454
21
-6.882002
31
0
39
0
210
0
220
0
230
1
0
LINE
5
F1
100
AcDbEntity
8
1
62
256
6
ByLayer
370
13
48
1
60
0
100
AcDbLine
10
44.493977
20
-7.599697
30
0
11
44.493977
21
-7.25
31
0
39
0
210
0
220
0
230
1
0
LINE
5
F2
100
AcDbEntity
8
1
62
256
6
ByLayer
370
13
48
1
60
0
100
AcDbLine
10
41.401954
20
-7.501024
30
0
11
41.506367
21
-7.501024
31
0
39
0
210
0
220
0
230
1
0
LINE
5
F3
100
AcDbEntity
8
1
62
256
6
ByLayer
370
13
48
1
60
0
100
AcDbLine
10
44.493977
20
-6.900303
30
0
11
44.493977
21
-7.25
31
0
39
0
210
0
220
0
230
1
0
LINE
5
F4
100
AcDbEntity
8
1
62
256
6
ByLayer
370
13
48
1
60
0
100
AcDbLine
10
41.401954
20
-6.998976
30
0
11
41.506367
21
-6.998976
31
0
39
0
210
0
220
0
230
1
0
LINE
5
F5
100
AcDbEntity
8
1
62
256
6
ByLayer
370
13
48
1
60
0
100
AcDbLine
10
41.398966
20
-7.450756
30
0
11
41.549075
21
-7.450756
31
0
39
0
210
0
220
0
230
1
0
LINE
5
F6
100
AcDbEntity
8
1
62
256
6
ByLayer
370
13
48
1
60
0
100
AcDbLine
10
41.398966
20
-7.049244
30
0
11
41.549075
21
-7.049244
31
0
39
0
210
0
220
0
230
1
0
LINE
5
F7
100
AcDbEntity
8
1
62
256
6
ByLayer
370
13
48
1
60
0
100
AcDbLine
10
36.665685
20
-6.500008
30
0
11
36.665685
21
-6.45
31
0
39
0
210
0
220
0
230
1
0
LINE
5
F8
100
AcDbEntity
8
1
62
256
6
ByLayer
370
18
48
1
60
0
100
AcDbLine
10
42.948426
20
-6.409459
30
0
11
42.925177
21
-6.422882
31
0
39
0
210
0
220
0
230
1
0
LINE
5
F9
100
AcDbEntity
8
1
62
256
6
ByLayer
370
18
48
1
60
0
100
AcDbLine
10
42.709679
20
-6.45
30
0
11
42.82387
21
-6.45
31
0
39
0
210
0
220
0
230
1
0
LINE
5
FA
100
AcDbEntity
8
1
62
256
6
ByLayer
370
18
48
1
60
0
100
AcDbLine
10
37.326482
20
-8.05
30
0
11
37.496254
21
-8.05
31
0
39
0
210
0
220
0
230
1
0
LINE
5
FB
100
AcDbEntity
8
1
62
256
6
ByLayer
370
18
48
1
60
0
100
AcDbLine
10
45.742758
20
-6.250301
30
0
11
45.610516
21
-6.257425
31
0
39
0
210
0
220
0
230
1
0
LINE
5
FC
100
AcDbEntity
8
1
62
256
6
ByLayer
370
18
48
1
60
0
100
AcDbLine
10
42.709679
20
-6.45
30
0
11
42.658376
21
-6.45
31
0
39
0
210
0
220
0
230
1
0
LINE
5
FD
100
AcDbEntity
8
1
62
256
6
ByLayer
370
18
48
1
60
0
100
AcDbLine
10
44.533781
20
-8.17056
30
0
11
44.833781
21
-8.188988
31
0
39
0
210
0
220
0
230
1
0
LINE
5
FE
100
AcDbEntity
8
1
62
256
6
ByLayer
370
18
48
1
60
0
100
AcDbLine
10
46.000117
20
-6.718879
30
0
11
46.001941
21
-6.50324
31
0
39
0
210
0
220
0
230
1
0
LINE
5
FF
100
AcDbEntity
8
1
62
256
6
ByLayer
370
18
48
1
60
0
100
AcDbLine
10
36.25
20
-8.05
30
0
11
36.665685
21
-8.05
31
0
39
0
210
0
220
0
230
1
0
LINE
5
100
100
AcDbEntity
8
1
62
256
6
ByLayer
370
18
48
1
60
0
100
AcDbLine
10
36.665685
20
-8.05
30
0
11
37.326482
21
-8.05
31
0
39
0
210
0
220
0
230
1
0
LINE
5
101
100
AcDbEntity
8
1
62
256
6
ByLayer
370
18
48
1
60
0
100
AcDbLine
10
43.036053
20
-8.116914
30
0
11
43.165017
21
-8.124801
31
0
39
0
210
0
220
0
230
1
0
LINE
5
102
100
AcDbEntity
8
1
62
256
6
ByLayer
370
18
48
1
60
0
100
AcDbLine
10
45.181077
20
-8.21219
30
0
11
45.53976
21
-8.238115
31
0
39
0
210
0
220
0
230
1
0
LINE
5
103
100
AcDbEntity
8
1
62
256
6
ByLayer
370
18
48
1
60
0
100
AcDbLine
10
41.711215
20
-6.45
30
0
11
41.4298
21
-6.45
31
0
39
0
210
0
220
0
230
1
0
LINE
5
104
100
AcDbEntity
8
1
62
256
6
ByLayer
370
18
48
1
60
0
100
AcDbLine
10
42.658376
20
-8.05
30
0
11
41.787198
21
-8.05
31
0
39
0
210
0
220
0
230
1
0
LINE
5
105
100
AcDbEntity
8
1
62
256
6
ByLayer
370
18
48
1
60
0
100
AcDbLine
10
45.53976
20
-6.261885
30
0
11
45.181077
21
-6.28781
31
0
39
0
210
0
220
0
230
1
0
LINE
5
106
100
AcDbEntity
8
1
62
256
6
ByLayer
370
18
48
1
60
0
100
AcDbLine
10
45.610516
20
-8.242575
30
0
11
45.742758
21
-8.249699
31
0
39
0
210
0
220
0
230
1
0
LINE
5
107
100
AcDbEntity
8
1
62
256
6
ByLayer
370
18
48
1
60
0
100
AcDbLine
10
41.4298
20
-8.05
30
0
11
41.711215
21
-8.05
31
0
39
0
210
0
220
0
230
1
0
LINE
5
108
100
AcDbEntity
8
1
62
256
6
ByLayer
370
18
48
1
60
0
100
AcDbLine
10
44.833781
20
-6.311012
30
0
11
44.533781
21
-6.32944
31
0
39
0
210
0
220
0
230
1
0
LINE
5
109
100
AcDbEntity
8
1
62
256
6
ByLayer
370
18
48
1
60
0
100
AcDbLine
10
41.787198
20
-6.45
30
0
11
41.711215
21
-6.45
31
0
39
0
210
0
220
0
230
1
0
LINE
5
10A
100
AcDbEntity
8
1
62
256
6
ByLayer
370
18
48
1
60
0
100
AcDbLine
10
42.82387
20
-8.05
30
0
11
42.709679
21
-8.05
31
0
39
0
210
0
220
0
230
1
0
LINE
5
10B
100
AcDbEntity
8
1
62
256
6
ByLayer
370
18
48
1
60
0
100
AcDbLine
10
37.326482
20
-6.45
30
0
11
36.665685
21
-6.45
31
0
39
0
210
0
220
0
230
1
0
LINE
5
10C
100
AcDbEntity
8
1
62
256
6
ByLayer
370
18
48
1
60
0
100
AcDbLine
10
42.658376
20
-8.05
30
0
11
42.709679
21
-8.05
31
0
39
0
210
0
220
0
230
1
0
LINE
5
10D
100
AcDbEntity
8
1
62
256
6
ByLayer
370
18
48
1
60
0
100
AcDbLine
10
43.378462
20
-8.132456
30
0
11
43.47312
21
-8.132445
31
0
39
0
210
0
220
0
230
1
0
LINE
5
10E
100
AcDbEntity
8
1
62
256
6
ByLayer
370
18
48
1
60
0
100
AcDbLine
10
37.732227
20
-6.45
30
0
11
37.546632
21
-6.45
31
0
39
0
210
0
220
0
230
1
0
LINE
5
10F
100
AcDbEntity
8
1
62
256
6
ByLayer
370
18
48
1
60
0
100
AcDbLine
10
41.787198
20
-6.45
30
0
11
42.658376
21
-6.45
31
0
39
0
210
0
220
0
230
1
0
LINE
5
110
100
AcDbEntity
8
1
62
256
6
ByLayer
370
18
48
1
60
0
100
AcDbLine
10
36.665685
20
-6.45
30
0
11
36.25
21
-6.45
31
0
39
0
210
0
220
0
230
1
0
LINE
5
111
100
AcDbEntity
8
1
62
256
6
ByLayer
370
18
48
1
60
0
100
AcDbLine
10
42.925177
20
-8.077118
30
0
11
42.948426
21
-8.090541
31
0
39
0
210
0
220
0
230
1
0
LINE
5
112
100
AcDbEntity
8
1
62
256
6
ByLayer
370
18
48
1
60
0
100
AcDbLine
10
43.47312
20
-6.367555
30
0
11
43.378462
21
-6.367544
31
0
39
0
210
0
220
0
230
1
0
LINE
5
113
100
AcDbEntity
8
1
62
256
6
ByLayer
370
18
48
1
60
0
100
AcDbLine
10
37.496254
20
-6.45
30
0
11
37.326482
21
-6.45
31
0
39
0
210
0
220
0
230
1
0
LINE
5
114
100
AcDbEntity
8
1
62
256
6
ByLayer
370
18
48
1
60
0
100
AcDbLine
10
46.001941
20
-7.99676
30
0
11
46.000117
21
-7.781121
31
0
39
0
210
0
220
0
230
1
0
LINE
5
115
100
AcDbEntity
8
1
62
256
6
ByLayer
370
18
48
1
60
0
100
AcDbLine
10
41.711215
20
-8.05
30
0
11
41.787198
21
-8.05
31
0
39
0
210
0
220
0
230
1
0
LINE
5
116
100
AcDbEntity
8
1
62
256
6
ByLayer
370
18
48
1
60
0
100
AcDbLine
10
41.4298
20
-6.45
30
0
11
37.732227
21
-6.45
31
0
39
0
210
0
220
0
230
1
0
LINE
5
117
100
AcDbEntity
8
1
62
256
6
ByLayer
370
18
48
1
60
0
100
AcDbLine
10
37.732227
20
-8.05
30
0
11
41.4298
21
-8.05
31
0
39
0
210
0
220
0
230
1
0
LINE
5
118
100
AcDbEntity
8
1
62
256
6
ByLayer
370
18
48
1
60
0
100
AcDbLine
10
43.165017
20
-6.375199
30
0
11
43.036053
21
-6.383086
31
0
39
0
210
0
220
0
230
1
0
LINE
5
119
100
AcDbEntity
8
1
62
256
6
ByLayer
370
18
48
1
60
0
100
AcDbLine
10
46
20
-7.753425
30
0
11
46
21
-6.746575
31
0
39
0
210
0
220
0
230
1
0
LINE
5
11A
100
AcDbEntity
8
1
62
256
6
ByLayer
370
18
48
1
60
0
100
AcDbLine
10
37.546632
20
-8.05
30
0
11
37.732227
21
-8.05
31
0
39
0
210
0
220
0
230
1
0
LINE
5
11B
100
AcDbEntity
8
SK2
62
256
6
ByLayer
370
18
48
1
60
0
100
AcDbLine
10
-64
20
22.60005
30
0
11
46
21
22.60005
31
0
39
0
210
0
220
0
230
1
0
LINE
5
11D
100
AcDbEntity
8
SK2
62
256
6
ByLayer
370
18
48
1
60
0
100
AcDbLine
10
46
20
-6
30
0
11
46
21
24.60005
31
0
39
0
210
0
220
0
230
1
0
LINE
5
11E
100
AcDbEntity
8
SK2
62
256
6
ByLayer
370
18
48
1
60
0
100
AcDbLine
10
-64
20
2
30
0
11
-64
21
24.60005
31
0
39
0
210
0
220
0
230
1
0
LINE
5
11F
100
AcDbEntity
8
SK2
62
256
6
ByLayer
370
18
48
1
60
0
100
AcDbLine
10
46
20
22.60005
30
0
11
42.825002
21
22.182053
31
0
39
0
210
0
220
0
230
1
0
LINE
5
120
100
AcDbEntity
8
SK2
62
256
6
ByLayer
370
18
48
1
60
0
100
AcDbLine
10
46
20
22.60005
30
0
11
42.824998
21
23.018047
31
0
39
0
210
0
220
0
230
1
0
LINE
5
121
100
AcDbEntity
8
SK2
62
256
6
ByLayer
370
18
48
1
60
0
100
AcDbLine
10
42.825002
20
22.182053
30
0
11
42.824998
21
23.018047
31
0
39
0
210
0
220
0
230
1
0
LINE
5
122
100
AcDbEntity
8
SK2
62
256
6
ByLayer
370
18
48
1
60
0
100
AcDbLine
10
-64
20
22.60005
30
0
11
-60.825002
21
23.018047
31
0
39
0
210
0
220
0
230
1
0
LINE
5
123
100
AcDbEntity
8
SK2
62
256
6
ByLayer
370
18
48
1
60
0
100
AcDbLine
10
-64
20
22.60005
30
0
11
-60.824998
21
22.182053
31
0
39
0
210
0
220
0
230
1
0
LINE
5
124
100
AcDbEntity
8
SK2
62
256
6
ByLayer
370
18
48
1
60
0
100
AcDbLine
10
-60.825002
20
23.018047
30
0
11
-60.824998
21
22.182053
31
0
39
0
210
0
220
0
230
1
0
LINE
5
125
100
AcDbEntity
8
SK2
62
256
6
ByLayer
370
13
48
1
60
0
100
AcDbLine
10
-73.60005
20
-16.75
30
0
11
-73.60005
21
8.75
31
0
39
0
210
0
220
0
230
1
0
LINE
5
126
100
AcDbEntity
8
SK2
62
256
6
ByLayer
370
13
48
1
60
0
100
AcDbLine
10
-66
20
0
30
0
11
-75.60005
21
0
31
0
39
0
210
0
220
0
230
1
0
LINE
5
127
100
AcDbEntity
8
SK2
62
256
6
ByLayer
370
13
48
1
60
0
100
AcDbLine
10
-66
20
-8
30
0
11
-75.60005
21
-8
31
0
39
0
210
0
220
0
230
1
0
LINE
5
128
100
AcDbEntity
8
SK2
62
256
6
ByLayer
370
18
48
1
60
0
100
AcDbLine
10
-73.60005
20
0
30
0
11
-74.018047
21
3.174998
31
0
39
0
210
0
220
0
230
1
0
LINE
5
129
100
AcDbEntity
8
SK2
62
256
6
ByLayer
370
18
48
1
60
0
100
AcDbLine
10
-73.60005
20
0
30
0
11
-73.182053
21
3.175002
31
0
39
0
210
0
220
0
230
1
0
LINE
5
12A
100
AcDbEntity
8
SK2
62
256
6
ByLayer
370
18
48
1
60
0
100
AcDbLine
10
-74.018047
20
3.174998
30
0
11
-73.182053
21
3.175002
31
0
39
0
210
0
220
0
230
1
0
LINE
5
12B
100
AcDbEntity
8
SK2
62
256
6
ByLayer
370
18
48
1
60
0
100
AcDbLine
10
-73.60005
20
-8
30
0
11
-73.182053
21
-11.174998
31
0
39
0
210
0
220
0
230
1
0
LINE
5
12C
100
AcDbEntity
8
SK2
62
256
6
ByLayer
370
18
48
1
60
0
100
AcDbLine
10
-73.60005
20
-8
30
0
11
-74.018047
21
-11.175002
31
0
39
0
210
0
220
0
230
1
0
LINE
5
12D
100
AcDbEntity
8
SK2
62
256
6
ByLayer
370
18
48
1
60
0
100
AcDbLine
10
-73.182053
20
-11.174998
30
0
11
-74.018047
21
-11.175002
31
0
39
0
210
0
220
0
230
1
0
MTEXT
5
217
100
AcDbEntity
8
SK6
62
256
6
ByLayer
370
18
48
1
60
0
100
AcDbMText
10
-40.625025
20
-54.999999
30
0
210
0
220
0
230
1
1
\W0.7479;QD-RL1E26C21D
40
3.5
41
0
44
1.084337
50
0
71
7
72
5
7
iso_b_vert
0
MTEXT
5
21B
100
AcDbEntity
8
SK2
62
256
6
ByLayer
370
18
48
1
60
0
100
AcDbMText
10
-10.579605
20
23.47505
30
0
210
0
220
0
230
1
1
\W0.5296;110
40
3.5
41
0
44
1.084337
50
0
71
7
72
5
7
iso_b_vert
0
MTEXT
5
21C
100
AcDbEntity
8
SK2
62
256
6
ByLayer
370
18
48
1
60
0
100
AcDbMText
10
-74.47505
20
-3.884868
30
0
210
0
220
0
230
1
1
\W0.5404;8
40
3.5
41
0
44
1.084337
50
89.9999999999999
71
7
72
5
7
iso_b_vert
0
DIMENSION
5
22B
100
AcDbEntity
8
2
62
256
6
ByLayer
370
13
48
1
60
0
100
AcDbDimension
2
DimnDraft3D1
10
20
20
-21.350049
30
0
11
30.909211
21
-21.350049
31
0
70
32
71
5
72
1
41
1
210
0
220
0
230
1
3
Standard
100
AcDbAlignedDimension
13
46
23
-10
33
0
14
20
24
-10
34
0
50
0
100
AcDbRotatedDimension
1001
ACAD
1000
DSTYLE
1002
{
1070
   279
1070
     0
1070
   172
1070
     1
1070
   173
1070
     1
1070
   340
1005
218
1070
   271
1070
     1
1070
    77
1070
     1
1070
    73
1070
     0
1070
   171
1070
     3
1070
   274
1070
     4
1070
   177
1070
     2
1070
   176
1070
     2
1070
   178
1070
     7
1070
    78
1070
     8
1070
    41
1041
3.175
1070
   147
1041
1.75
1070
    42
1041
2.0
1070
    44
1041
2.0
1070
   140
1041
3.5
1070
   343
1005
22C
1070
   344
1005
22C
1002
}
0
DIMENSION
5
240
100
AcDbEntity
8
2
62
256
6
ByLayer
370
13
48
1
60
0
100
AcDbDimension
2
DimnDraft3D2
10
64.1
20
-6
30
0
11
64.1
21
-19.820789
31
0
70
32
71
5
72
1
41
1
210
0
220
0
230
1
3
Standard
100
AcDbAlignedDimension
13
48
23
-8
33
0
14
48
24
-6
34
0
50
90
100
AcDbRotatedDimension
1001
ACAD
1000
DSTYLE
1002
{
1070
    74
1070
     0
1070
   279
1070
     0
1070
   172
1070
     1
1070
   173
1070
     1
1070
   340
1005
218
1070
   271
1070
     1
1070
    77
1070
     1
1070
    73
1070
     0
1070
   171
1070
     3
1070
   274
1070
     4
1070
   177
1070
     2
1070
   176
1070
     2
1070
   178
1070
     7
1070
    78
1070
     8
1070
    41
1041
3.175
1070
   147
1041
1.75
1070
    42
1041
2.0
1070
    44
1041
2.0
1070
   140
1041
3.5
1070
   343
1005
22C
1070
   344
1005
22C
1002
}
0
ENDSEC
0
SECTION
2
OBJECTS
0
DICTIONARY
5
2aa
330
0
100
AcDbDictionary
280
0
281
1
3
ACAD_GROUP
350
2ab
3
ACAD_MLINESTYLE
350
2ac
0
DICTIONARY
5
2ab
330
0
100
AcDbDictionary
280
0
281
1
0
DICTIONARY
5
2ac
330
0
100
AcDbDictionary
280
0
281
1
3
Standard
350
18
0
MLINESTYLE
5
18
330
2ac
100
AcDbMlineStyle
2
Standard
70
0
3

62
256
51
90
52
90
71
2
49
-0.5
62
256
6
ByLayer
49
0.5
62
256
6
ByLayer
0
RASTERVARIABLES
5
299
330

100
AcDbRasterVariables
90
0
70
1
71
1
72
1
0
ENDSEC
0
EOF
