0
SECTION
2
HEADER
9
$ACADVER
1
AC1015
9
$DWGCODEPAGE
3
ANSI_1252
9
$HANDSEED
5
2d1
9
$ANGBASE
50
0
9
$ANGDIR
70
0
9
$ATTMODE
70
1
9
$AUNITS
70
0
9
$AUPREC
70
0
9
$CECOLOR
62
256
9
$CELTSCALE
40
1
9
$CELTYPE
6
ByLayer
9
$CELWEIGHT
370
18
9
$CLAYER
8
0
9
$CMLJUST
70
0
9
$CMLSCALE
40
1
9
$CMLSTYLE
2
Standard
9
$DIMSTYLE
2
Standard
9
$TEXTSIZE
40
0.2
9
$TEXTSTYLE
7
Standard
9
$LUNITS
70
2
9
$LUPREC
70
4
9
$EXTNAMES
290
1
9
$INSUNITS
70
4
9
$LTSCALE
40
1
9
$LWDISPLAY
290
1
9
$PDMODE
70
0
9
$PDSIZE
40
0
9
$PLINEGEN
70
0
0
ENDSEC
0
SECTION
2
CLASSES
0
CLASS
1
RASTERVARIABLES
2
AcDbRasterVariables
3
ISM
90
0
280
0
281
0
0
ENDSEC
0
SECTION
2
TABLES
0
TABLE
2
VPORT
5
2c7
100
AcDbSymbolTable
0
VPORT
5
1
100
AcDbSymbolTableRecord
100
AcDbViewportTableRecord
2
*Active
70
0
10
0
20
0
11
1
21
1
12
-1
22
1
13
0
23
0
14
0.5
24
0.5
15
10
25
10
16
0
26
0
36
1
17
0
27
0
37
0
0
ENDTAB
0
TABLE
2
LTYPE
5
2c8
100
AcDbSymbolTable
0
LTYPE
5
14
100
AcDbSymbolTableRecord
100
AcDbLinetypeTableRecord
70
0
2
ByBlock
3

72
65
73
0
40
0
0
LTYPE
5
15
100
AcDbSymbolTableRecord
100
AcDbLinetypeTableRecord
70
0
2
ByLayer
3

72
65
73
0
40
0
0
LTYPE
5
16
100
AcDbSymbolTableRecord
100
AcDbLinetypeTableRecord
70
0
2
CONTINUOUS
3
Solid line
72
65
73
0
40
0
0
LTYPE
5
6A
100
AcDbSymbolTableRecord
100
AcDbLinetypeTableRecord
70
0
2
CENTER
3
____ _ ____ _ ____ _ ____
72
65
73
4
40
47.5
49
22
74
0
49
-8.5
74
0
49
8.5
74
0
49
-8.5
74
0
0
LTYPE
5
6B
100
AcDbSymbolTableRecord
100
AcDbLinetypeTableRecord
70
0
2
DASHED
3
__ __ __ __ __ __ __ __ __
72
65
73
2
40
25.72
49
12.86
74
0
49
-12.86
74
0
0
ENDTAB
0
TABLE
2
LAYER
5
2c9
100
AcDbSymbolTable
0
LAYER
5
10
100
AcDbSymbolTableRecord
100
AcDbLayerTableRecord
2
0
70
0
62
7
6
CONTINUOUS
290
1
370
-3
390
0
0
LAYER
5
6D
100
AcDbSymbolTableRecord
100
AcDbLayerTableRecord
2
81
70
0
62
-3
6
CONTINUOUS
290
1
370
-3
390
0
0
LAYER
5
6F
100
AcDbSymbolTableRecord
100
AcDbLayerTableRecord
2
80
70
0
62
-6
6
CONTINUOUS
290
1
370
-3
390
0
0
LAYER
5
73
100
AcDbSymbolTableRecord
100
AcDbLayerTableRecord
2
1
70
0
62
4
6
CONTINUOUS
290
1
370
-3
390
0
0
LAYER
5
20F
100
AcDbSymbolTableRecord
100
AcDbLayerTableRecord
2
2
70
0
62
7
6
CONTINUOUS
290
1
370
-3
390
0
0
LAYER
5
2b4
100
AcDbSymbolTableRecord
100
AcDbLayerTableRecord
2
SK1
70
0
62
4
6
CONTINUOUS
290
1
370
-3
390
0
0
LAYER
5
2b5
100
AcDbSymbolTableRecord
100
AcDbLayerTableRecord
2
SK2
70
0
62
7
6
CONTINUOUS
290
1
370
-3
390
0
0
LAYER
5
2b6
100
AcDbSymbolTableRecord
100
AcDbLayerTableRecord
2
SK6
70
0
62
5
6
CONTINUOUS
290
1
370
-3
390
0
0
ENDTAB
0
TABLE
2
STYLE
5
2ca
100
AcDbSymbolTable
0
STYLE
5
11
100
AcDbSymbolTableRecord
100
AcDbTextStyleTableRecord
2
Standard
3
txt
70
0
71
0
40
0
41
1
42
0
50
0
0
STYLE
5
209
100
AcDbSymbolTableRecord
100
AcDbTextStyleTableRecord
2
iso_b_vert
3
simplex.shx
70
0
71
0
40
0
41
1
42
0
50
0
0
STYLE
5
20A
100
AcDbSymbolTableRecord
100
AcDbTextStyleTableRecord
2
DWGDirectTextStyle
3
simplex
70
0
71
0
40
0
41
1
42
0
50
0
0
ENDTAB
0
TABLE
2
DIMSTYLE
5
2cb
100
AcDbSymbolTable
100
AcDbDimStyleTable
0
DIMSTYLE
105
27
100
AcDbSymbolTableRecord
100
AcDbDimStyleTableRecord
2
Standard
70
0
3
<>
41
0.18
42
0.0625
44
0.18
140
0.18
147
0.09
73
0
74
0
77
1
271
2
275
0
278
52
280
0
340
11
0
ENDTAB
0
TABLE
2
VIEW
5
2cc
100
AcDbSymbolTable
0
ENDTAB
0
TABLE
2
UCS
5
2cd
100
AcDbSymbolTable
0
ENDTAB
0
TABLE
2
APPID
5
2ce
100
AcDbSymbolTable
0
APPID
5
12
100
AcDbSymbolTableRecord
100
AcDbRegAppTableRecord
2
ACAD
70
0
0
ENDTAB
0
TABLE
2
BLOCK_RECORD
5
2cf
100
AcDbSymbolTable
0
BLOCK_RECORD
5
1F
100
AcDbSymbolTableRecord
100
AcDbBlockTableRecord
2
*Model_Space
340
0
70
0
0
BLOCK_RECORD
5
1B
100
AcDbSymbolTableRecord
100
AcDbBlockTableRecord
2
*Paper_Space
340
0
70
0
0
BLOCK_RECORD
5
23
100
AcDbSymbolTableRecord
100
AcDbBlockTableRecord
2
*Paper_Space0
340
0
70
0
0
BLOCK_RECORD
5
20D
100
AcDbSymbolTableRecord
100
AcDbBlockTableRecord
2
DimnDraft3D1
340
0
70
0
0
BLOCK_RECORD
5
21C
100
AcDbSymbolTableRecord
100
AcDbBlockTableRecord
2
_CLOSED
340
0
70
0
0
BLOCK_RECORD
5
223
100
AcDbSymbolTableRecord
100
AcDbBlockTableRecord
2
DimnDraft3D2
340
0
70
0
0
BLOCK_RECORD
5
231
100
AcDbSymbolTableRecord
100
AcDbBlockTableRecord
2
DimnDraft3D3
340
0
70
0
0
BLOCK_RECORD
5
23F
100
AcDbSymbolTableRecord
100
AcDbBlockTableRecord
2
DimnDraft3D4
340
0
70
0
0
BLOCK_RECORD
5
24D
100
AcDbSymbolTableRecord
100
AcDbBlockTableRecord
2
DimnDraft3D5
340
0
70
0
0
ENDTAB
0
ENDSEC
0
SECTION
2
BLOCKS
0
BLOCK
5
20
100
AcDbEntity
8
0
100
AcDbBlockBegin
2
*Model_Space
70
0
10
0
20
0
30
0
3
*Model_Space
0
ENDBLK
5
21
100
AcDbEntity
8
0
100
AcDbBlockEnd
0
BLOCK
5
1C
100
AcDbEntity
8
0
100
AcDbBlockBegin
2
*Paper_Space
70
0
10
0
20
0
30
0
3
*Paper_Space
0
ENDBLK
5
1D
100
AcDbEntity
8
0
100
AcDbBlockEnd
0
BLOCK
5
24
100
AcDbEntity
8
0
100
AcDbBlockBegin
2
*Paper_Space0
70
0
10
0
20
0
30
0
3
*Paper_Space0
0
ENDBLK
5
25
100
AcDbEntity
8
0
100
AcDbBlockEnd
0
BLOCK
5
219
100
AcDbEntity
8
0
100
AcDbBlockBegin
2
DimnDraft3D1
70
0
10
0
20
0
30
0
3
DimnDraft3D1
0
MTEXT
5
20E
100
AcDbEntity
8
2
62
256
6
ByLayer
370
18
48
1
60
0
100
AcDbMText
10
114.1997
20
-0.4625
30
0
210
0
220
0
230
1
1
\W0.7092;41
40
3.5
41
0
44
1.084337
50
90
71
7
72
5
7
iso_b_vert
0
LINE
5
210
100
AcDbEntity
8
2
62
256
6
ByLayer
370
13
48
1
60
0
100
AcDbLine
10
26.9747
20
-20
30
0
11
117.0747
21
-20
31
0
39
0
210
0
220
0
230
1
0
LINE
5
211
100
AcDbEntity
8
2
62
256
6
ByLayer
370
13
48
1
60
0
100
AcDbLine
10
91.9747
20
21
30
0
11
117.0747
21
21
31
0
39
0
210
0
220
0
230
1
0
LINE
5
212
100
AcDbEntity
8
2
62
256
6
ByLayer
370
13
48
1
60
0
100
AcDbLine
10
115.0747
20
-20
30
0
11
115.0747
21
21
31
0
39
0
210
0
220
0
230
1
0
LINE
5
213
100
AcDbEntity
8
2
62
256
6
ByLayer
370
13
48
1
60
0
100
AcDbLine
10
115.0747
20
-20
30
0
11
114.656703
21
-16.825002
31
0
39
0
210
0
220
0
230
1
0
LINE
5
214
100
AcDbEntity
8
2
62
256
6
ByLayer
370
13
48
1
60
0
100
AcDbLine
10
115.0747
20
-20
30
0
11
115.492697
21
-16.824998
31
0
39
0
210
0
220
0
230
1
0
LINE
5
215
100
AcDbEntity
8
2
62
256
6
ByLayer
370
13
48
1
60
0
100
AcDbLine
10
114.656703
20
-16.825002
30
0
11
115.492697
21
-16.824998
31
0
39
0
210
0
220
0
230
1
0
LINE
5
216
100
AcDbEntity
8
2
62
256
6
ByLayer
370
13
48
1
60
0
100
AcDbLine
10
115.0747
20
21
30
0
11
115.492697
21
17.825002
31
0
39
0
210
0
220
0
230
1
0
LINE
5
217
100
AcDbEntity
8
2
62
256
6
ByLayer
370
13
48
1
60
0
100
AcDbLine
10
115.0747
20
21
30
0
11
114.656703
21
17.824998
31
0
39
0
210
0
220
0
230
1
0
LINE
5
218
100
AcDbEntity
8
2
62
256
6
ByLayer
370
13
48
1
60
0
100
AcDbLine
10
115.492697
20
17.825002
30
0
11
114.656703
21
17.824998
31
0
39
0
210
0
220
0
230
1
0
ENDBLK
5
21A
100
AcDbEntity
8
0
100
AcDbBlockEnd
0
BLOCK
5
21D
100
AcDbEntity
8
0
100
AcDbBlockBegin
2
_CLOSED
70
0
10
0
20
0
30
0
3
_CLOSED
0
LINE
5
21F
100
AcDbEntity
8
0
62
256
6
ByLayer
370
-2
48
1
60
0
100
AcDbLine
10
-1
20
0.166667
30
0
11
0
21
0
31
0
39
0
210
0
220
0
230
1
0
LINE
5
220
100
AcDbEntity
8
0
62
256
6
ByLayer
370
-2
48
1
60
0
100
AcDbLine
10
0
20
0
30
0
11
-1
21
-0.166667
31
0
39
0
210
0
220
0
230
1
0
LINE
5
221
100
AcDbEntity
8
0
62
256
6
ByLayer
370
-2
48
1
60
0
100
AcDbLine
10
-1
20
0.166667
30
0
11
-1
21
-0.166667
31
0
39
0
210
0
220
0
230
1
0
LINE
5
222
100
AcDbEntity
8
0
62
256
6
ByLayer
370
-2
48
1
60
0
100
AcDbLine
10
0
20
0
30
0
11
-1
21
0
31
0
39
0
210
0
220
0
230
1
0
ENDBLK
5
21E
100
AcDbEntity
8
0
100
AcDbBlockEnd
0
BLOCK
5
22E
100
AcDbEntity
8
0
100
AcDbBlockBegin
2
DimnDraft3D2
70
0
10
0
20
0
30
0
3
DimnDraft3D2
0
MTEXT
5
224
100
AcDbEntity
8
SK2
62
256
6
ByLayer
370
18
48
1
60
0
100
AcDbMText
10
-37.548984
20
44.475423
30
0
210
0
220
0
230
1
1
\W0.7138;250
40
3.5
41
0
44
1.084337
50
0
71
7
72
5
7
iso_b_vert
0
LINE
5
225
100
AcDbEntity
8
SK2
62
256
6
ByLayer
370
13
48
1
60
0
100
AcDbLine
10
-160.0253
20
-18
30
0
11
-160.0253
21
45.600423
31
0
39
0
210
0
220
0
230
1
0
LINE
5
226
100
AcDbEntity
8
SK2
62
256
6
ByLayer
370
13
48
1
60
0
100
AcDbLine
10
89.9747
20
23
30
0
11
89.9747
21
45.600423
31
0
39
0
210
0
220
0
230
1
0
LINE
5
227
100
AcDbEntity
8
SK2
62
256
6
ByLayer
370
13
48
1
60
0
100
AcDbLine
10
-160.0253
20
43.600423
30
0
11
89.9747
21
43.600423
31
0
39
0
210
0
220
0
230
1
0
LINE
5
228
100
AcDbEntity
8
SK2
62
256
6
ByLayer
370
13
48
1
60
0
100
AcDbLine
10
-160.0253
20
43.600423
30
0
11
-156.850302
21
44.018419
31
0
39
0
210
0
220
0
230
1
0
LINE
5
229
100
AcDbEntity
8
SK2
62
256
6
ByLayer
370
13
48
1
60
0
100
AcDbLine
10
-160.0253
20
43.600423
30
0
11
-156.850298
21
43.182426
31
0
39
0
210
0
220
0
230
1
0
LINE
5
22A
100
AcDbEntity
8
SK2
62
256
6
ByLayer
370
13
48
1
60
0
100
AcDbLine
10
-156.850302
20
44.018419
30
0
11
-156.850298
21
43.182426
31
0
39
0
210
0
220
0
230
1
0
LINE
5
22B
100
AcDbEntity
8
SK2
62
256
6
ByLayer
370
13
48
1
60
0
100
AcDbLine
10
89.9747
20
43.600423
30
0
11
86.799702
21
43.182426
31
0
39
0
210
0
220
0
230
1
0
LINE
5
22C
100
AcDbEntity
8
SK2
62
256
6
ByLayer
370
13
48
1
60
0
100
AcDbLine
10
89.9747
20
43.600423
30
0
11
86.799698
21
44.018419
31
0
39
0
210
0
220
0
230
1
0
LINE
5
22D
100
AcDbEntity
8
SK2
62
256
6
ByLayer
370
13
48
1
60
0
100
AcDbLine
10
86.799702
20
43.182426
30
0
11
86.799698
21
44.018419
31
0
39
0
210
0
220
0
230
1
0
ENDBLK
5
22F
100
AcDbEntity
8
0
100
AcDbBlockEnd
0
BLOCK
5
23C
100
AcDbEntity
8
0
100
AcDbBlockBegin
2
DimnDraft3D3
70
0
10
0
20
0
30
0
3
DimnDraft3D3
0
MTEXT
5
232
100
AcDbEntity
8
2
62
256
6
ByLayer
370
18
48
1
60
0
100
AcDbMText
10
43.771561
20
38.475423
30
0
210
0
220
0
230
1
1
\W0.6740;90
40
3.5
41
0
44
1.084337
50
0
71
7
72
5
7
iso_b_vert
0
LINE
5
233
100
AcDbEntity
8
2
62
256
6
ByLayer
370
13
48
1
60
0
100
AcDbLine
10
0
20
22
30
0
11
0
21
39.600423
31
0
39
0
210
0
220
0
230
1
0
LINE
5
234
100
AcDbEntity
8
2
62
256
6
ByLayer
370
13
48
1
60
0
100
AcDbLine
10
89.9747
20
23
30
0
11
89.9747
21
39.600423
31
0
39
0
210
0
220
0
230
1
0
LINE
5
235
100
AcDbEntity
8
2
62
256
6
ByLayer
370
13
48
1
60
0
100
AcDbLine
10
0
20
37.600423
30
0
11
89.9747
21
37.600423
31
0
39
0
210
0
220
0
230
1
0
LINE
5
236
100
AcDbEntity
8
2
62
256
6
ByLayer
370
13
48
1
60
0
100
AcDbLine
10
0
20
37.600423
30
0
11
3.174998
21
38.018419
31
0
39
0
210
0
220
0
230
1
0
LINE
5
237
100
AcDbEntity
8
2
62
256
6
ByLayer
370
13
48
1
60
0
100
AcDbLine
10
0
20
37.600423
30
0
11
3.175002
21
37.182426
31
0
39
0
210
0
220
0
230
1
0
LINE
5
238
100
AcDbEntity
8
2
62
256
6
ByLayer
370
13
48
1
60
0
100
AcDbLine
10
3.174998
20
38.018419
30
0
11
3.175002
21
37.182426
31
0
39
0
210
0
220
0
230
1
0
LINE
5
239
100
AcDbEntity
8
2
62
256
6
ByLayer
370
13
48
1
60
0
100
AcDbLine
10
89.9747
20
37.600423
30
0
11
86.799702
21
37.182426
31
0
39
0
210
0
220
0
230
1
0
LINE
5
23A
100
AcDbEntity
8
2
62
256
6
ByLayer
370
13
48
1
60
0
100
AcDbLine
10
89.9747
20
37.600423
30
0
11
86.799698
21
38.018419
31
0
39
0
210
0
220
0
230
1
0
LINE
5
23B
100
AcDbEntity
8
2
62
256
6
ByLayer
370
13
48
1
60
0
100
AcDbLine
10
86.799702
20
37.182426
30
0
11
86.799698
21
38.018419
31
0
39
0
210
0
220
0
230
1
0
ENDBLK
5
23D
100
AcDbEntity
8
0
100
AcDbBlockEnd
0
BLOCK
5
24A
100
AcDbEntity
8
0
100
AcDbBlockBegin
2
DimnDraft3D4
70
0
10
0
20
0
30
0
3
DimnDraft3D4
0
MTEXT
5
240
100
AcDbEntity
8
2
62
256
6
ByLayer
370
18
48
1
60
0
100
AcDbMText
10
56.258911
20
-32.252271
30
0
210
0
220
0
230
1
1
\W0.6740;65
40
3.5
41
0
44
1.084337
50
0
71
7
72
5
7
iso_b_vert
0
LINE
5
241
100
AcDbEntity
8
2
62
256
6
ByLayer
370
13
48
1
60
0
100
AcDbLine
10
89.9747
20
19
30
0
11
89.9747
21
-35.127271
31
0
39
0
210
0
220
0
230
1
0
LINE
5
242
100
AcDbEntity
8
2
62
256
6
ByLayer
370
13
48
1
60
0
100
AcDbLine
10
24.9747
20
-22
30
0
11
24.9747
21
-35.127271
31
0
39
0
210
0
220
0
230
1
0
LINE
5
243
100
AcDbEntity
8
2
62
256
6
ByLayer
370
13
48
1
60
0
100
AcDbLine
10
89.9747
20
-33.127271
30
0
11
24.9747
21
-33.127271
31
0
39
0
210
0
220
0
230
1
0
LINE
5
244
100
AcDbEntity
8
2
62
256
6
ByLayer
370
13
48
1
60
0
100
AcDbLine
10
89.9747
20
-33.127271
30
0
11
86.799702
21
-33.545268
31
0
39
0
210
0
220
0
230
1
0
LINE
5
245
100
AcDbEntity
8
2
62
256
6
ByLayer
370
13
48
1
60
0
100
AcDbLine
10
89.9747
20
-33.127271
30
0
11
86.799698
21
-32.709274
31
0
39
0
210
0
220
0
230
1
0
LINE
5
246
100
AcDbEntity
8
2
62
256
6
ByLayer
370
13
48
1
60
0
100
AcDbLine
10
86.799702
20
-33.545268
30
0
11
86.799698
21
-32.709274
31
0
39
0
210
0
220
0
230
1
0
LINE
5
247
100
AcDbEntity
8
2
62
256
6
ByLayer
370
13
48
1
60
0
100
AcDbLine
10
24.9747
20
-33.127271
30
0
11
28.149698
21
-32.709274
31
0
39
0
210
0
220
0
230
1
0
LINE
5
248
100
AcDbEntity
8
2
62
256
6
ByLayer
370
13
48
1
60
0
100
AcDbLine
10
24.9747
20
-33.127271
30
0
11
28.149702
21
-33.545268
31
0
39
0
210
0
220
0
230
1
0
LINE
5
249
100
AcDbEntity
8
2
62
256
6
ByLayer
370
13
48
1
60
0
100
AcDbLine
10
28.149698
20
-32.709274
30
0
11
28.149702
21
-33.545268
31
0
39
0
210
0
220
0
230
1
0
ENDBLK
5
24B
100
AcDbEntity
8
0
100
AcDbBlockEnd
0
BLOCK
5
258
100
AcDbEntity
8
0
100
AcDbBlockBegin
2
DimnDraft3D5
70
0
10
0
20
0
30
0
3
DimnDraft3D5
0
MTEXT
5
24E
100
AcDbEntity
8
2
62
256
6
ByLayer
370
18
48
1
60
0
100
AcDbMText
10
107.1997
20
17.092105
30
0
210
0
220
0
230
1
1
\W0.5404;8
40
3.5
41
0
44
1.084337
50
90
71
7
72
5
7
iso_b_vert
0
LINE
5
24F
100
AcDbEntity
8
2
62
256
6
ByLayer
370
13
48
1
60
0
100
AcDbLine
10
91.9747
20
21
30
0
11
110.0747
21
21
31
0
39
0
210
0
220
0
230
1
0
LINE
5
250
100
AcDbEntity
8
2
62
256
6
ByLayer
370
13
48
1
60
0
100
AcDbLine
10
91.9747
20
13
30
0
11
110.0747
21
13
31
0
39
0
210
0
220
0
230
1
0
LINE
5
251
100
AcDbEntity
8
2
62
256
6
ByLayer
370
13
48
1
60
0
100
AcDbLine
10
108.0747
20
29.75
30
0
11
108.0747
21
4.25
31
0
39
0
210
0
220
0
230
1
0
LINE
5
252
100
AcDbEntity
8
2
62
256
6
ByLayer
370
13
48
1
60
0
100
AcDbLine
10
108.0747
20
21
30
0
11
107.656703
21
24.174998
31
0
39
0
210
0
220
0
230
1
0
LINE
5
253
100
AcDbEntity
8
2
62
256
6
ByLayer
370
13
48
1
60
0
100
AcDbLine
10
108.0747
20
21
30
0
11
108.492697
21
24.175002
31
0
39
0
210
0
220
0
230
1
0
LINE
5
254
100
AcDbEntity
8
2
62
256
6
ByLayer
370
13
48
1
60
0
100
AcDbLine
10
107.656703
20
24.174998
30
0
11
108.492697
21
24.175002
31
0
39
0
210
0
220
0
230
1
0
LINE
5
255
100
AcDbEntity
8
2
62
256
6
ByLayer
370
13
48
1
60
0
100
AcDbLine
10
108.0747
20
13
30
0
11
108.492697
21
9.825002
31
0
39
0
210
0
220
0
230
1
0
LINE
5
256
100
AcDbEntity
8
2
62
256
6
ByLayer
370
13
48
1
60
0
100
AcDbLine
10
108.0747
20
13
30
0
11
107.656703
21
9.824998
31
0
39
0
210
0
220
0
230
1
0
LINE
5
257
100
AcDbEntity
8
2
62
256
6
ByLayer
370
13
48
1
60
0
100
AcDbLine
10
108.492697
20
9.825002
30
0
11
107.656703
21
9.824998
31
0
39
0
210
0
220
0
230
1
0
ENDBLK
5
259
100
AcDbEntity
8
0
100
AcDbBlockEnd
0
ENDSEC
0
SECTION
2
ENTITIES
0
ARC
5
E4
100
AcDbEntity
8
1
62
256
6
ByLayer
370
18
48
1
60
0
100
AcDbCircle
39
0
10
-24.9747
20
11.825
30
0
40
1.6
210
0
220
0
230
-1
100
AcDbArc
50
0
51
90
0
ARC
5
E6
100
AcDbEntity
8
SK1
62
256
6
ByLayer
370
18
48
1
60
0
100
AcDbCircle
39
0
10
1.227706
20
21.45
30
0
40
1.59999999999666
210
0
220
0
230
-1
100
AcDbArc
50
225.185317
51
270
0
ARC
5
E7
100
AcDbEntity
8
1
62
256
6
ByLayer
370
13
48
1
60
0
100
AcDbCircle
39
0
10
-85.738217
20
17
30
0
40
2.48336686228736
210
0
220
0
230
-1
100
AcDbArc
50
314.258767
51
323.473288
0
ARC
5
E8
100
AcDbEntity
8
1
62
256
6
ByLayer
370
13
48
1
60
0
100
AcDbCircle
39
0
10
-85.738217
20
17
30
0
40
2.48336686228736
210
0
220
0
230
-1
100
AcDbArc
50
36.215125
51
45.741233
0
ARC
5
E9
100
AcDbEntity
8
1
62
256
6
ByLayer
370
13
48
1
60
0
100
AcDbCircle
39
0
10
85.738217
20
17
30
0
40
2.65866334668411
210
0
220
0
230
1
100
AcDbArc
50
221.915208
51
225.741233
0
ARC
5
EA
100
AcDbEntity
8
1
62
256
6
ByLayer
370
13
48
1
60
0
100
AcDbCircle
39
0
10
85.738217
20
17
30
0
40
2.65866334668411
210
0
220
0
230
1
100
AcDbArc
50
134.258767
51
138.084792
0
ARC
5
EB
100
AcDbEntity
8
1
62
256
6
ByLayer
370
18
48
1
60
0
100
AcDbCircle
39
0
10
-24.9747
20
11.825
30
0
40
1.6
210
0
220
0
230
-1
100
AcDbArc
50
0
51
90
0
ARC
5
EC
100
AcDbEntity
8
1
62
256
6
ByLayer
370
18
48
1
60
0
100
AcDbCircle
39
0
10
1.227706
20
21.45
30
0
40
1.6000000000014
210
0
220
0
230
-1
100
AcDbArc
50
213.152888
51
270
0
CIRCLE
5
E5
100
AcDbEntity
8
1
62
256
6
ByLayer
370
18
48
1
60
0
100
AcDbCircle
10
-12.5247
20
9.725
30
0
40
4.4
39
0
210
0
220
0
230
-1
0
CIRCLE
5
ED
100
AcDbEntity
8
1
62
256
6
ByLayer
370
18
48
1
60
0
100
AcDbCircle
10
-12.5247
20
9.725
30
0
40
4.4
39
0
210
0
220
0
230
-1
0
ELLIPSE
5
EE
100
AcDbEntity
8
1
62
256
6
ByLayer
370
18
48
1
60
0
100
AcDbEllipse
10
-1.227706
20
21.45
30
0
11
1.13137085131913
21
-1.13137085131913
31
0
210
0
220
0
230
-1
40
1
41
-0.20677111236765
42
0.00323439921849548
0
ELLIPSE
5
EF
100
AcDbEntity
8
1
62
256
6
ByLayer
370
18
48
1
60
0
100
AcDbEllipse
10
80.777933
20
17
30
0
11
2.23419160460621
21
2.25796129215217E-15
31
0
210
0
220
0
230
-1
40
0.559486
41
1.34857011252029
42
-1.34857011252025
0
ELLIPSE
5
F0
100
AcDbEntity
8
1
62
256
6
ByLayer
370
18
48
1
60
0
100
AcDbEllipse
10
82.049428
20
17
30
0
11
-7.65378970932309E-17
21
1.24999999966246
31
0
210
0
220
0
230
-1
40
0.462547
41
-1.71030742339234
42
-1.43128523019746
0
ELLIPSE
5
F1
100
AcDbEntity
8
1
62
256
6
ByLayer
370
18
48
1
60
0
100
AcDbEllipse
10
82.794266
20
17
30
0
11
3.43399065173017
21
-1.23603471457989
31
0
210
0
220
0
230
-1
40
0.054259
41
1.9734246151821
42
2.03184414572637
0
ELLIPSE
5
F2
100
AcDbEntity
8
1
62
256
6
ByLayer
370
18
48
1
60
0
100
AcDbEllipse
10
-1.227706
20
-20.006981
30
0
11
1.60000000009907
21
1.6170224882319E-15
31
0
210
0
220
0
230
-1
40
0.004363
41
-0.788632562596919
42
-0.261799387799708
0
ELLIPSE
5
F3
100
AcDbEntity
8
1
62
256
6
ByLayer
370
18
48
1
60
0
100
AcDbEllipse
10
81.863725
20
17
30
0
11
0.574089402962329
21
-1.22952172353178
31
0
210
0
220
0
230
-1
40
0.39251
41
2.11413689244063
42
3.10062619400787
0
ELLIPSE
5
F4
100
AcDbEntity
8
1
62
256
6
ByLayer
370
18
48
1
60
0
100
AcDbEllipse
10
82.794266
20
17
30
0
11
3.43399065173016
21
1.23603471457988
31
0
210
0
220
0
230
-1
40
0.054259
41
-2.03184414572637
42
-1.9734246151821
0
ELLIPSE
5
F5
100
AcDbEntity
8
1
62
256
6
ByLayer
370
18
48
1
60
0
100
AcDbEllipse
10
81.863725
20
17
30
0
11
0.574089402952608
21
1.22952172351894
31
0
210
0
220
0
230
-1
40
0.39251
41
-3.10062619400685
42
-2.1141368924329
0
ELLIPSE
5
F6
100
AcDbEntity
8
SK1
62
256
6
ByLayer
370
18
48
1
60
0
100
AcDbEllipse
10
-1.227706
20
-20.006981
30
0
11
1.59999999999763
21
1.61702248812939E-15
31
0
210
0
220
0
230
-1
40
0.004363
41
-1.5707963267949
42
-0.788632562618092
0
ELLIPSE
5
F7
100
AcDbEntity
8
1
62
256
6
ByLayer
370
13
48
1
60
0
100
AcDbEllipse
10
82.624692
20
18.623309
30
0
11
0.0372484328262851
21
-0.237091868801918
31
0
210
0
220
0
230
1
40
0.338353
41
-1.62390342989658
42
-0.41271963915194
0
ELLIPSE
5
F8
100
AcDbEntity
8
1
62
256
6
ByLayer
370
13
48
1
60
0
100
AcDbEllipse
10
83.290175
20
15.308934
30
0
11
-0.137134827582753
21
0.375757952761946
31
0
210
0
220
0
230
1
40
0.652715
41
-1.8046497334071
42
-0.521338158545681
0
ELLIPSE
5
F9
100
AcDbEntity
8
1
62
256
6
ByLayer
370
13
48
1
60
0
100
AcDbEllipse
10
84.546372
20
18.019025
30
0
11
-0.212388357178872
21
-0.338956023305178
31
0
210
0
220
0
230
1
40
0.40892
41
1.08042051110595
42
1.51005478740917
0
ELLIPSE
5
FA
100
AcDbEntity
8
1
62
256
6
ByLayer
370
13
48
1
60
0
100
AcDbEllipse
10
82.679416
20
15.264707
30
0
11
0.0620674653774976
21
0.395155197032271
31
0
210
0
220
0
230
1
40
0.338354
41
0.412652545815613
42
1.62389207935017
0
ELLIPSE
5
FB
100
AcDbEntity
8
1
62
256
6
ByLayer
370
13
48
1
60
0
100
AcDbEllipse
10
85.351154
20
17
30
0
11
7.31040244526453E-16
21
2.58067405958502
31
0
210
0
220
0
230
1
40
0.987688
41
0.215824363064676
42
0.479932462970074
0
ELLIPSE
5
FC
100
AcDbEntity
8
1
62
256
6
ByLayer
370
13
48
1
60
0
100
AcDbEllipse
10
85.351154
20
17
30
0
11
7.31040244526453E-16
21
2.58067405958502
31
0
210
0
220
0
230
1
40
0.987688
41
2.66166019061972
42
2.92576829052512
0
ELLIPSE
5
FD
100
AcDbEntity
8
1
62
256
6
ByLayer
370
13
48
1
60
0
100
AcDbEllipse
10
85.327613
20
17
30
0
11
-3.96984734916581E-16
21
-2.16115561640124
31
0
210
0
220
0
230
1
40
0.987688
41
-0.479932462970079
42
-0.215824363066228
0
ELLIPSE
5
FE
100
AcDbEntity
8
1
62
256
6
ByLayer
370
13
48
1
60
0
100
AcDbEllipse
10
85.327613
20
17
30
0
11
-3.96984734916581E-16
21
-2.16115561640124
31
0
210
0
220
0
230
1
40
0.987688
41
-2.92576829052357
42
-2.66166019061972
0
ELLIPSE
5
FF
100
AcDbEntity
8
1
62
256
6
ByLayer
370
13
48
1
60
0
100
AcDbEllipse
10
84.702053
20
14.479197
30
0
11
-0.143020392550226
21
-0.6443175981725
31
0
210
0
220
0
230
1
40
0.152805
41
1.60470179017122
42
2.29353129265912
0
ELLIPSE
5
100
100
AcDbEntity
8
1
62
256
6
ByLayer
370
13
48
1
60
0
100
AcDbEllipse
10
84.071031
20
14.710875
30
0
11
-0.307711570485765
21
-0.583878060376637
31
0
210
0
220
0
230
1
40
0.138761
41
1.64379552980138
42
2.33262503227104
0
ELLIPSE
5
101
100
AcDbEntity
8
1
62
256
6
ByLayer
370
13
48
1
60
0
100
AcDbEllipse
10
82.109581
20
18.505311
30
0
11
-0.151405619177872
21
0.130676464909964
31
0
210
0
220
0
230
1
40
0.879009
41
1.03624139968901
42
2.22834213094042
0
ELLIPSE
5
102
100
AcDbEntity
8
1
62
256
6
ByLayer
370
13
48
1
60
0
100
AcDbEllipse
10
84.702053
20
19.520803
30
0
11
0.143020392550195
21
-0.644317598172507
31
0
210
0
220
0
230
1
40
0.152805
41
0.848061360930503
42
1.53689086341862
0
ELLIPSE
5
103
100
AcDbEntity
8
1
62
256
6
ByLayer
370
13
48
1
60
0
100
AcDbEllipse
10
84.071031
20
19.289125
30
0
11
0.307711570485765
21
-0.583878060376637
31
0
210
0
220
0
230
1
40
0.138761
41
0.808967621318577
42
1.49779712378848
0
ELLIPSE
5
104
100
AcDbEntity
8
1
62
256
6
ByLayer
370
13
48
1
60
0
100
AcDbEllipse
10
83.784828
20
18.562582
30
0
11
0.290122175381711
21
0.0763486958093166
31
0
210
0
220
0
230
1
40
0.237292
41
1.74522625785748
42
2.30455010458166
0
ELLIPSE
5
105
100
AcDbEntity
8
1
62
256
6
ByLayer
370
13
48
1
60
0
100
AcDbEllipse
10
84.546372
20
15.980975
30
0
11
-0.212388358688177
21
0.338956022359453
31
0
210
0
220
0
230
1
40
0.40892
41
-1.51005478163456
42
-1.08042050402357
0
ELLIPSE
5
106
100
AcDbEntity
8
1
62
256
6
ByLayer
370
13
48
1
60
0
100
AcDbEllipse
10
83.784828
20
15.437418
30
0
11
-0.290122178232846
21
0.0763486849751111
31
0
210
0
220
0
230
1
40
0.237292
41
1.16579655135403
42
1.39636640934272
0
ELLIPSE
5
107
100
AcDbEntity
8
1
62
256
6
ByLayer
370
13
48
1
60
0
100
AcDbEllipse
10
82.066691
20
15.54516
30
0
11
-0.15725500725412
21
-0.123575332059058
31
0
210
0
220
0
230
1
40
0.872362
41
-2.18179042305232
42
-0.995954566829468
0
ELLIPSE
5
108
100
AcDbEntity
8
1
62
256
6
ByLayer
370
13
48
1
60
0
100
AcDbEllipse
10
82.077153
20
15.348649
30
0
11
-0.190029770648962
21
0.0623593318365646
31
0
210
0
220
0
230
1
40
0.112761
41
0.425661714656785
42
1.23981627093176
0
ELLIPSE
5
109
100
AcDbEntity
8
1
62
256
6
ByLayer
370
13
48
1
60
0
100
AcDbEllipse
10
82.112071
20
18.544943
30
0
11
0.19002986882469
21
0.0623590326614448
31
0
210
0
220
0
230
1
40
0.11276
41
1.90177656018235
42
2.71593267545038
0
ELLIPSE
5
10A
100
AcDbEntity
8
1
62
256
6
ByLayer
370
13
48
1
60
0
100
AcDbEllipse
10
83.479244
20
15.359971
30
0
11
-0.0787909478938875
21
0.392163214146843
31
0
210
0
220
0
230
1
40
0.449904
41
-1.54831386890721
42
-0.436857098310045
0
ELLIPSE
5
10B
100
AcDbEntity
8
1
62
256
6
ByLayer
370
13
48
1
60
0
100
AcDbEllipse
10
83.700481
20
18.262071
30
0
11
0.134263989053403
21
-0.268278178843281
31
0
210
0
220
0
230
1
40
0.279167
41
-2.34897204541364
42
-2.30284472183586
0
ELLIPSE
5
10C
100
AcDbEntity
8
1
62
256
6
ByLayer
370
13
48
1
60
0
100
AcDbEllipse
10
83.594369
20
15.429754
30
0
11
-0.216738119710704
21
-0.103075639528788
31
0
210
0
220
0
230
1
40
0.19604
41
-2.37050960624946
42
-2.06834422118782
0
ELLIPSE
5
10D
100
AcDbEntity
8
1
62
256
6
ByLayer
370
13
48
1
60
0
100
AcDbEllipse
10
81.324708
20
13.493915
30
0
11
-4.63191405857371E-06
21
-0.0499999997854537
31
0
210
0
220
0
230
1
40
0.906306
41
-1.81280672117185
42
-1.57067203991605
0
ELLIPSE
5
10E
100
AcDbEntity
8
1
62
256
6
ByLayer
370
13
48
1
60
0
100
AcDbEllipse
10
81.324708
20
20.506085
30
0
11
4.63191405842211E-06
21
-0.0499999997854537
31
0
210
0
220
0
230
1
40
0.906306
41
-1.57092061367403
42
-1.32878593241794
0
ELLIPSE
5
10F
100
AcDbEntity
8
1
62
256
6
ByLayer
370
13
48
1
60
0
100
AcDbEllipse
10
81.326557
20
13.493656
30
0
11
-0.0136464645861822
21
-0.048101704796172
31
0
210
0
220
0
230
1
40
0.899858
41
-1.55786014310267
42
-1.32080362646491
0
ELLIPSE
5
110
100
AcDbEntity
8
1
62
256
6
ByLayer
370
13
48
1
60
0
100
AcDbEllipse
10
81.326557
20
20.506344
30
0
11
-0.0136464645861822
21
0.048101704796172
31
0
210
0
220
0
230
1
40
0.899858
41
1.32080362646491
42
1.55786014310267
0
ELLIPSE
5
111
100
AcDbEntity
8
1
62
256
6
ByLayer
370
13
48
1
60
0
100
AcDbEllipse
10
89.032046
20
14.535907
30
0
11
-0.0702947993771109
21
-0.656245869457882
31
0
210
0
220
0
230
1
40
0.165826
41
-1.89649430272862
42
-1.57966139876733
0
ELLIPSE
5
112
100
AcDbEntity
8
1
62
256
6
ByLayer
370
13
48
1
60
0
100
AcDbEllipse
10
89.03204
20
19.464093
30
0
11
0.0702781916540061
21
-0.656247648207476
31
0
210
0
220
0
230
1
40
0.165817
41
-1.56192797320073
42
-1.24509358347359
0
ELLIPSE
5
113
100
AcDbEntity
8
1
62
256
6
ByLayer
370
18
48
1
60
0
100
AcDbEllipse
10
-1.227706
20
-20.006981
30
0
11
1.60000000000058
21
1.61702248813237E-15
31
0
210
0
220
0
230
-1
40
0.004363
41
-1.5707963267949
42
-0.261799387798811
0
ELLIPSE
5
114
100
AcDbEntity
8
1
62
256
6
ByLayer
370
18
48
1
60
0
100
AcDbEllipse
10
82.049428
20
17
30
0
11
-7.65378970932309E-17
21
1.24999999966246
31
0
210
0
220
0
230
-1
40
0.462547
41
-1.71030742339234
42
-1.43128523019746
0
ELLIPSE
5
115
100
AcDbEntity
8
1
62
256
6
ByLayer
370
18
48
1
60
0
100
AcDbEllipse
10
81.863725
20
17
30
0
11
0.574089402962329
21
-1.22952172353178
31
0
210
0
220
0
230
-1
40
0.39251
41
2.11413689244063
42
3.10062619400787
0
ELLIPSE
5
116
100
AcDbEntity
8
1
62
256
6
ByLayer
370
18
48
1
60
0
100
AcDbEllipse
10
81.863725
20
17
30
0
11
0.574089402952608
21
1.22952172351894
31
0
210
0
220
0
230
-1
40
0.39251
41
-3.10062619400685
42
-2.1141368924329
0
ELLIPSE
5
117
100
AcDbEntity
8
1
62
256
6
ByLayer
370
18
48
1
60
0
100
AcDbEllipse
10
82.794266
20
17
30
0
11
3.43399065173016
21
1.23603471457988
31
0
210
0
220
0
230
-1
40
0.054259
41
-2.03184414572637
42
-1.9734246151821
0
ELLIPSE
5
118
100
AcDbEntity
8
1
62
256
6
ByLayer
370
18
48
1
60
0
100
AcDbEllipse
10
80.777933
20
17
30
0
11
2.23419160460621
21
2.25796129215217E-15
31
0
210
0
220
0
230
-1
40
0.559486
41
1.34857011252029
42
-1.34857011252025
0
ELLIPSE
5
119
100
AcDbEntity
8
1
62
256
6
ByLayer
370
18
48
1
60
0
100
AcDbEllipse
10
82.794266
20
17
30
0
11
3.43399065173017
21
-1.23603471457989
31
0
210
0
220
0
230
-1
40
0.054259
41
1.9734246151821
42
2.03184414572637
0
ELLIPSE
5
11A
100
AcDbEntity
8
1
62
256
6
ByLayer
370
18
48
1
60
0
100
AcDbEllipse
10
82.20215
20
17.000015
30
0
11
-0.199999999384541
21
-1.56902446053945E-05
31
0
210
0
220
0
230
1
40
1.4E-05
41
0.436345208304286
42
1.621762308954
0
ELLIPSE
5
11B
100
AcDbEntity
8
1
62
256
6
ByLayer
370
18
48
1
60
0
100
AcDbEllipse
10
83.759815
20
20.744768
30
0
11
0.299648118432081
21
0.174617130413767
31
0
210
0
220
0
230
-1
40
0.083195
41
1.61923930169068
42
1.77775038508594
0
ELLIPSE
5
11C
100
AcDbEntity
8
1
62
256
6
ByLayer
370
18
48
1
60
0
100
AcDbEllipse
10
83.759815
20
13.255232
30
0
11
0.299648045758372
21
-0.174617085756162
31
0
210
0
220
0
230
-1
40
0.083195
41
-1.77775036556791
42
-1.61923924389476
0
ELLIPSE
5
11D
100
AcDbEntity
8
1
62
256
6
ByLayer
370
18
48
1
60
0
100
AcDbEllipse
10
84.092239
20
20.801517
30
0
11
0.239996893724999
21
0.0126954076891353
31
0
210
0
220
0
230
-1
40
0.096155
41
-1.56570996371681
42
-1.35474462647986
0
ELLIPSE
5
11E
100
AcDbEntity
8
1
62
256
6
ByLayer
370
18
48
1
60
0
100
AcDbEllipse
10
84.268139
20
13.110066
30
0
11
0.599994357945108
21
-0.0317387049603157
31
0
210
0
220
0
230
-1
40
0.096155
41
-1.7868485703274
42
-1.73296305159399
0
ELLIPSE
5
11F
100
AcDbEntity
8
1
62
256
6
ByLayer
370
18
48
1
60
0
100
AcDbEllipse
10
84.092239
20
13.198483
30
0
11
0.239996882986496
21
-0.0126954068832115
31
0
210
0
220
0
230
-1
40
0.096155
41
1.354744627207
42
1.56570997380462
0
ELLIPSE
5
120
100
AcDbEntity
8
1
62
256
6
ByLayer
370
18
48
1
60
0
100
AcDbEllipse
10
84.015716
20
20.569147
30
0
11
0.0713511177948987
21
-0.240877336814223
31
-5.82867087928208E-16
210
-8.16370125676715E-15
220
1.56875660969313E-18
230
-1
40
0.995133
41
2.90707833317338
42
-2.90707833317338
0
ELLIPSE
5
121
100
AcDbEntity
8
1
62
256
6
ByLayer
370
18
48
1
60
0
100
AcDbEllipse
10
84.268139
20
20.889934
30
0
11
0.599995071039979
21
0.0317387672699705
31
0
210
0
220
0
230
-1
40
0.096155
41
1.73296329489796
42
1.78684875160582
0
ELLIPSE
5
122
100
AcDbEntity
8
1
62
256
6
ByLayer
370
18
48
1
60
0
100
AcDbEllipse
10
84.015716
20
13.430853
30
0
11
0.0713511177949005
21
0.240877336814222
31
-5.79397640976254E-16
210
-8.15977893625136E-15
220
1.16727755369243E-17
230
-1
40
0.995133
41
2.90707833317338
42
-2.9070783331734
0
POINT
5
6C
100
AcDbEntity
8
81
62
256
6
ByLayer
370
18
48
1
60
0
100
AcDbPoint
10
89.9747
20
21
30
0
39
0
210
0
220
0
230
1
50
360
0
POINT
5
6E
100
AcDbEntity
8
80
62
256
6
ByLayer
370
18
48
1
60
0
100
AcDbPoint
10
0
20
0
30
0
39
0
210
0
220
0
230
1
50
360
0
SPLINE
5
123
100
AcDbEntity
8
1
62
256
6
ByLayer
370
18
48
1
60
0
100
AcDbSpline
70
4
71
3
72
14
73
10
40
0
40
0
40
0
40
0
40
0.271356762701692
40
0.271356762701692
40
0.543404943533146
40
0.543404943533146
40
0.806943544272271
40
0.806943544272271
40
1
40
1
40
1
40
1
41
1
10
81.3869959281433
20
16.6870986993412
30
0
41
1
10
81.40201048707
20
16.6928982602038
30
0
41
1
10
81.41624738029
20
16.701180501382
30
0
41
1
10
81.4407170740729
20
16.721757467161
30
0
41
1
10
81.4512694222448
20
16.7343522911528
30
0
41
1
10
81.4668349917955
20
16.7616204646104
30
0
41
1
10
81.4722252936174
20
16.7765824116097
30
0
41
1
10
81.4769768336029
20
16.8031017497382
30
0
41
1
10
81.4776063171081
20
16.8147120632848
30
0
41
1
10
81.4768616884927
20
16.8261762775261
30
0
0
SPLINE
5
124
100
AcDbEntity
8
1
62
256
6
ByLayer
370
18
48
1
60
0
100
AcDbSpline
70
4
71
3
72
14
73
10
40
0
40
0
40
0
40
0
40
0.267476445292789
40
0.267476445292789
40
0.535343752042023
40
0.535343752042023
40
0.798303169207413
40
0.798303169207413
40
1
40
1
40
1
40
1
41
1
10
81.4768616884921
20
17.1738237224735
30
0
41
1
10
81.4778863010863
20
17.1895985369925
30
0
41
1
10
81.4762767389607
20
17.2057131003624
30
0
41
1
10
81.4678475887692
20
17.2360039791326
30
0
41
1
10
81.4608960768714
20
17.2505924416337
30
0
41
1
10
81.4427939339026
20
17.2759239222664
30
0
41
1
10
81.4314791894201
20
17.2870711671579
30
0
41
1
10
81.4089972800639
20
17.3028684311624
30
0
41
1
10
81.3982261968174
20
17.3085634691581
30
0
41
1
10
81.3869959281433
20
17.3129013006585
30
0
0
SPLINE
5
125
100
AcDbEntity
8
1
62
256
6
ByLayer
370
18
48
1
60
0
100
AcDbSpline
70
4
71
3
72
12
73
8
40
0
40
0
40
0
40
0
40
0.346790095500074
40
0.346790095500074
40
0.695067184024929
40
0.695067184024929
40
1
40
1
40
1
40
1
41
1
10
81.2064658953722
20
16.6169732039283
30
0
41
1
10
81.1973189514062
20
16.6133996330295
30
0
41
1
10
81.1886416540317
20
16.6083998175275
30
0
41
1
10
81.1737389050421
20
16.5960638748756
30
0
41
1
10
81.1673316232866
20
16.5885397304797
30
0
41
1
10
81.1584479005126
20
16.5731273269109
30
0
41
1
10
81.1554795390815
20
16.5652312868989
30
0
41
1
10
81.1538224435588
20
16.5572238829981
30
0
0
SPLINE
5
126
100
AcDbEntity
8
1
62
256
6
ByLayer
370
18
48
1
60
0
100
AcDbSpline
70
4
71
3
72
12
73
8
40
0
40
0
40
0
40
0
40
0.334169792288984
40
0.334169792288984
40
0.668726535824296
40
0.668726535824296
40
1
40
1
40
1
40
1
41
1
10
81.1538224435601
20
17.4427761170019
30
0
41
1
10
81.155633873981
20
17.4340229372249
30
0
41
1
10
81.1590241489571
20
17.4253932373366
30
0
41
1
10
81.1686043344159
20
17.4098751011921
30
0
41
1
10
81.1749232035347
20
17.4027876322158
30
0
41
1
10
81.189403853856
20
17.3911608056861
30
0
41
1
10
81.1977178764996
20
17.3864445130469
30
0
41
1
10
81.2064658953723
20
17.3830267960715
30
0
0
SPLINE
5
127
100
AcDbEntity
8
1
62
256
6
ByLayer
370
18
48
1
60
0
100
AcDbSpline
70
4
71
3
72
10
73
6
40
0
40
0
40
0
40
0
40
0.510888421477268
40
0.510888421477268
40
1
40
1
40
1
40
1
41
1
10
71.3746999999996
20
20.6499999999999
30
0
41
1
10
71.336483660849
20
20.6499999999999
30
0
41
1
10
71.2954424458031
20
20.6443351895473
30
0
41
1
10
71.2166827464339
20
20.6196702164801
30
0
41
1
10
71.1779435725102
20
20.6008390527212
30
0
41
1
10
71.1431128957226
20
20.5761376266256
30
0
0
SPLINE
5
128
100
AcDbEntity
8
1
62
256
6
ByLayer
370
13
48
1
60
0
100
AcDbSpline
70
4
71
3
72
8
73
4
40
0
40
0
40
0
40
0
40
1
40
1
40
1
40
1
41
1
10
89.9769821435353
20
19.5154734681242
30
0
41
1
10
89.975291904481
20
19.5153776846977
30
0
41
1
10
89.9736016578813
20
19.5152820253034
30
0
41
1
10
89.9719114035248
20
19.5151864938815
30
0
0
SPLINE
5
129
100
AcDbEntity
8
1
62
256
6
ByLayer
370
13
48
1
60
0
100
AcDbSpline
70
4
71
3
72
16
73
12
40
0
40
0
40
0
40
0
40
0.0004543771711743
40
0.0004543771711743
40
0.433236320574065
40
0.433236320574065
40
0.716618371372047
40
0.716618371372047
40
0.99954562282882
40
0.99954562282882
40
1
40
1
40
1
40
1
41
1
10
82.0233978232826
20
16.8681142101813
30
0
41
1
10
82.0233970644272
20
16.8681341296814
30
0
41
1
10
82.0233963054386
20
16.8681540492077
30
0
41
1
10
82.0226729391769
20
16.8871468175139
30
0
41
1
10
82.0221060428587
20
16.9061564507408
30
0
41
1
10
82.0214277317323
20
16.9376400708185
30
0
41
1
10
82.0212265298573
20
16.9501078700138
30
0
41
1
10
82.0209583502846
20
16.9750294546777
30
0
41
1
10
82.0208911356862
20
16.9874852248263
30
0
41
1
10
82.020890014135
20
16.99996
30
0
41
1
10
82.0208900126585
20
16.99998
30
0
41
1
10
82.0208900110497
20
16.9999999999999
30
0
0
SPLINE
5
12A
100
AcDbEntity
8
1
62
256
6
ByLayer
370
13
48
1
60
0
100
AcDbSpline
70
4
71
3
72
8
73
4
40
0
40
0
40
0
40
0
40
1
40
1
40
1
40
1
41
1
10
89.9719114035248
20
14.4848135061183
30
0
41
1
10
89.9736016578824
20
14.4847179746964
30
0
41
1
10
89.9752919044829
20
14.484622315302
30
0
41
1
10
89.9769821435382
20
14.4845265318754
30
0
0
SPLINE
5
12B
100
AcDbEntity
8
1
62
256
6
ByLayer
370
13
48
1
60
0
100
AcDbSpline
70
4
71
3
72
12
73
8
40
0
40
0
40
0
40
0
40
0.468475281235944
40
0.468475281235944
40
0.805167526443593
40
0.805167526443593
40
1
40
1
40
1
40
1
41
1
10
82.02007122919
20
16.5536144402157
30
0
41
1
10
82.0052040585583
20
16.5469304613836
30
0
41
1
10
81.9904647677344
20
16.5400107308834
30
0
41
1
10
81.9653823359565
20
16.5277215782253
30
0
41
1
10
81.9549665046723
20
16.5224624461478
30
0
41
1
10
81.9386500276636
20
16.5139742429753
30
0
41
1
10
81.9326954964323
20
16.5108231813688
30
0
41
1
10
81.9267687756902
20
16.5076329759362
30
0
0
SPLINE
5
12C
100
AcDbEntity
8
1
62
256
6
ByLayer
370
13
48
1
60
0
100
AcDbSpline
70
4
71
3
72
12
73
8
40
0
40
0
40
0
40
0
40
0.371544862592841
40
0.371544862592841
40
0.696014594457951
40
0.696014594457951
40
1
40
1
40
1
40
1
41
1
10
82.0266166475392
20
16.5565543589169
30
0
41
1
10
82.0258057229957
20
16.5561906561348
30
0
41
1
10
82.0249948369136
20
16.5558269364519
30
0
41
1
10
82.0234758771578
20
16.5551455491309
30
0
41
1
10
82.0227677943079
20
16.5548278854916
30
0
41
1
10
82.021396388199
20
16.5542125879283
30
0
41
1
10
82.0207330613195
20
16.5539149555715
30
0
41
1
10
82.0200697603762
20
16.5536173119203
30
0
0
SPLINE
5
12D
100
AcDbEntity
8
1
62
256
6
ByLayer
370
13
48
1
60
0
100
AcDbSpline
70
4
71
3
72
16
73
12
40
0
40
0
40
0
40
0
40
0.30324245230792
40
0.30324245230792
40
0.376245448260495
40
0.376245448260495
40
0.666486641565958
40
0.666486641565958
40
0.920362587844644
40
0.920362587844644
40
1
40
1
40
1
40
1
41
1
10
82.2148005191611
20
16.8847677745738
30
0
41
1
10
82.2165640272632
20
16.843739198507
30
0
41
1
10
82.2120129162992
20
16.8020505461133
30
0
41
1
10
82.1983650326435
20
16.7534964698502
30
0
41
1
10
82.1953020266975
20
16.7440948046287
30
0
41
1
10
82.178342943015
20
16.6986772048487
30
0
41
1
10
82.158496416599
20
16.6644801455974
30
0
41
1
10
82.1113566954961
20
16.6101474626824
30
0
41
1
10
82.0847085607087
20
16.5881768744604
30
0
41
1
10
82.046083494452
20
16.5658777391853
30
0
41
1
10
82.0364643320703
20
16.5609723079482
30
0
41
1
10
82.0266190361943
20
16.5565496862932
30
0
0
SPLINE
5
12E
100
AcDbEntity
8
1
62
256
6
ByLayer
370
13
48
1
60
0
100
AcDbSpline
70
4
71
3
72
12
73
8
40
0
40
0
40
0
40
0
40
0.283677002220329
40
0.283677002220329
40
0.567039009037526
40
0.567039009037526
40
1
40
1
40
1
40
1
41
1
10
82.2123392593911
20
17.0000134542385
30
0
41
1
10
82.2123402405012
20
16.9891006567142
30
0
41
1
10
82.2124062869692
20
16.9781869431602
30
0
41
1
10
82.2126701994887
20
16.956380757304
30
0
41
1
10
82.2128679423193
20
16.9454864533784
30
0
41
1
10
82.213534934799
20
16.9179691066493
30
0
41
1
10
82.2140927107689
20
16.9013517292636
30
0
41
1
10
82.2148031434147
20
16.884767875437
30
0
0
SPLINE
5
12F
100
AcDbEntity
8
1
62
256
6
ByLayer
370
13
48
1
60
0
100
AcDbSpline
70
4
71
3
72
12
73
8
40
0
40
0
40
0
40
0
40
0.28335452089212
40
0.28335452089212
40
0.566662209669927
40
0.566662209669927
40
1
40
1
40
1
40
1
41
1
10
82.2148040119111
20
17.1152523822963
30
0
41
1
10
82.2143389565082
20
17.1043983615583
30
0
41
1
10
82.2139392355352
20
17.0935304807772
30
0
41
1
10
82.2132719715864
20
17.0717796999263
30
0
41
1
10
82.213004352071
20
17.0608949671551
30
0
41
1
10
82.2124945508909
20
17.0333513143763
30
0
41
1
10
82.2123409237023
20
17.0166807388713
30
0
41
1
10
82.2123392619424
20
17.0000134542383
30
0
0
SPLINE
5
130
100
AcDbEntity
8
1
62
256
6
ByLayer
370
13
48
1
60
0
100
AcDbSpline
70
4
71
3
72
14
73
10
40
0
40
0
40
0
40
0
40
0.26186534752106
40
0.26186534752106
40
0.511077448896078
40
0.511077448896078
40
0.78276278038733
40
0.78276278038733
40
1
40
1
40
1
40
1
41
1
10
82.02673595561
20
17.4433977912343
30
0
41
1
10
82.0586658317148
20
17.4290546515227
30
0
41
1
10
82.0883888876641
20
17.4092380919815
30
0
41
1
10
82.1373649075591
20
17.3625632641544
30
0
41
1
10
82.1576454372334
20
17.3355657828004
30
0
41
1
10
82.1902675949906
20
17.2745745618365
30
0
41
1
10
82.2022003097559
20
17.2394121994561
30
0
41
1
10
82.2140840162156
20
17.1746367590929
30
0
41
1
10
82.2160707081744
20
17.1448180427415
30
0
41
1
10
82.2148013899896
20
17.1152524833124
30
0
0
SPLINE
5
131
100
AcDbEntity
8
1
62
256
6
ByLayer
370
13
48
1
60
0
100
AcDbSpline
70
4
71
3
72
12
73
8
40
0
40
0
40
0
40
0
40
0.357813041309762
40
0.357813041309762
40
0.670302584499907
40
0.670302584499907
40
1
40
1
40
1
40
1
41
1
10
82.0199357083295
20
17.4464428405487
30
0
41
1
10
82.0207463922635
20
17.446079057813
30
0
41
1
10
82.0215571149481
20
17.4457152919472
30
0
41
1
10
82.0230759399799
20
17.4450338693822
30
0
41
1
10
82.0237840331797
20
17.4447162086673
30
0
41
1
10
82.0252392725859
20
17.4440634210831
30
0
41
1
10
82.0259864221389
20
17.4437282956629
30
0
41
1
10
82.0267336043412
20
17.4433931845909
30
0
0
SPLINE
5
132
100
AcDbEntity
8
1
62
256
6
ByLayer
370
13
48
1
60
0
100
AcDbSpline
70
4
71
3
72
12
73
8
40
0
40
0
40
0
40
0
40
0.324936011325002
40
0.324936011325002
40
0.662517306776433
40
0.662517306776433
40
1
40
1
40
1
40
1
41
1
10
81.9267687774437
20
17.492367022258
30
0
41
1
10
81.9366384264841
20
17.4870544371985
30
0
41
1
10
81.946585521802
20
17.4818502448229
30
0
41
1
10
81.9670122042881
20
17.4714646125244
30
0
41
1
10
81.9774992665033
20
17.4662910378233
30
0
41
1
10
81.9986132521628
20
17.4561869312583
30
0
41
1
10
82.0092419511267
20
17.4512554580365
30
0
41
1
10
82.0199372302334
20
17.4464458097986
30
0
0
SPLINE
5
133
100
AcDbEntity
8
1
62
256
6
ByLayer
370
13
48
1
60
0
100
AcDbSpline
70
4
71
3
72
10
73
6
40
0
40
0
40
0
40
0
40
0.837020996243949
40
0.837020996243949
40
1
40
1
40
1
40
1
41
1
10
81.9263737628366
20
17.4950367615399
30
0
41
1
10
81.9264564409307
20
17.4942886302354
30
0
41
1
10
81.9265607226677
20
17.4935422936447
30
0
41
1
10
81.9267154090315
20
17.4926556594907
30
0
41
1
10
81.9267415928058
20
17.4925112538718
30
0
41
1
10
81.9267687774426
20
17.4923670222576
30
0
0
SPLINE
5
134
100
AcDbEntity
8
1
62
256
6
ByLayer
370
13
48
1
60
0
100
AcDbSpline
70
4
71
3
72
12
73
8
40
0
40
0
40
0
40
0
40
0.469182271776701
40
0.469182271776701
40
0.807449948540394
40
0.807449948540394
40
1
40
1
40
1
40
1
41
1
10
82.1112012876401
20
18.3201073675807
30
0
41
1
10
82.0511216153024
20
18.2505380813012
30
0
41
1
10
81.9862876532354
20
18.1637661937988
30
0
41
1
10
81.9270612955245
20
17.9440967687866
30
0
41
1
10
81.9139129585069
20
17.832859243969
30
0
41
1
10
81.9138889664164
20
17.6430494979477
30
0
41
1
10
81.9181025075094
20
17.5698921899165
30
0
41
1
10
81.9263714749486
20
17.4950276453607
30
0
0
SPLINE
5
135
100
AcDbEntity
8
1
62
256
6
ByLayer
370
13
48
1
60
0
100
AcDbSpline
70
4
71
3
72
10
73
6
40
0
40
0
40
0
40
0
40
0.443417636063816
40
0.443417636063816
40
1
40
1
40
1
40
1
41
1
10
82.1112012876401
20
18.3201073675807
30
0
41
1
10
82.1873975878065
20
18.3320636208139
30
0
41
1
10
82.2635764073181
20
18.3440318391509
30
0
41
1
10
82.435385512576
20
18.3710204586231
30
0
41
1
10
82.531011069003
20
18.3860440297098
30
0
41
1
10
82.626636420032
20
18.4010699655495
30
0
0
SPLINE
5
136
100
AcDbEntity
8
1
62
256
6
ByLayer
370
13
48
1
60
0
100
AcDbSpline
70
4
71
3
72
12
73
8
40
0
40
0
40
0
40
0
40
0.338834919580029
40
0.338834919580029
40
0.677891151886993
40
0.677891151886993
40
1
40
1
40
1
40
1
41
1
10
82.626636420032
20
18.4010699655495
30
0
41
1
10
82.7004747912044
20
18.4126724393265
30
0
41
1
10
82.7803077777424
20
18.4197613973714
30
0
41
1
10
82.9390642656179
20
18.4234458103959
30
0
41
1
10
83.0201253073882
20
18.4200797796742
30
0
41
1
10
83.1683470205965
20
18.4040457639504
30
0
41
1
10
83.2377971669715
20
18.3916830530677
30
0
41
1
10
83.2998022172431
20
18.3758484403226
30
0
0
SPLINE
5
137
100
AcDbEntity
8
1
62
256
6
ByLayer
370
13
48
1
60
0
100
AcDbSpline
70
4
71
3
72
10
73
6
40
0
40
0
40
0
40
0
40
0.673649341511302
40
0.673649341511302
40
1
40
1
40
1
40
1
41
1
10
84.5686177334415
20
17.7827756578979
30
0
41
1
10
84.243809031806
20
17.9381154948577
30
0
41
1
10
83.9395707681512
20
18.0998991301278
30
0
41
1
10
83.5153342370735
20
18.2654171778242
30
0
41
1
10
83.3978676784142
20
18.3167469922557
30
0
41
1
10
83.2998022172431
20
18.3758484403226
30
0
0
SPLINE
5
138
100
AcDbEntity
8
1
62
256
6
ByLayer
370
13
48
1
60
0
100
AcDbSpline
70
4
71
3
72
16
73
12
40
0
40
0
40
0
40
0
40
0.138466299231025
40
0.138466299231025
40
0.172962791131224
40
0.172962791131224
40
0.401949021057688
40
0.401949021057688
40
0.801141426037594
40
0.801141426037594
40
1
40
1
40
1
40
1
41
1
10
85.2923304870103
20
16.9999999983372
30
0
41
1
10
85.2923304859455
20
17.0539586675689
30
0
41
1
10
85.2825875521716
20
17.108588004857
30
0
41
1
10
85.2611295750048
20
17.1719498570595
30
0
41
1
10
85.256334977052
20
17.1845514491615
30
0
41
1
10
85.2172106966738
20
17.2775706127736
30
0
41
1
10
85.1653624808097
20
17.3495754211752
30
0
41
1
10
85.0075329945234
20
17.5211640820754
30
0
41
1
10
84.8861009657406
20
17.6072490553188
30
0
41
1
10
84.6984313314957
20
17.7177328923011
30
0
41
1
10
84.6340396404987
20
17.7514876156604
30
0
41
1
10
84.5686177334415
20
17.7827756578979
30
0
0
SPLINE
5
139
100
AcDbEntity
8
1
62
256
6
ByLayer
370
13
48
1
60
0
100
AcDbSpline
70
4
71
3
72
16
73
12
40
0
40
0
40
0
40
0
40
0.490525432518816
40
0.490525432518816
40
0.724224063897919
40
0.724224063897919
40
0.874421925656691
40
0.874421925656691
40
0.943976351573329
40
0.943976351573329
40
1
40
1
40
1
40
1
41
1
10
84.5686177347914
20
16.2172243126574
30
0
41
1
10
84.7289592180973
20
16.2939076653611
30
0
41
1
10
84.885704621199
20
16.3848698403919
30
0
41
1
10
85.0862946280066
20
16.5606992585859
30
0
41
1
10
85.1468654858196
20
16.6253307902628
30
0
41
1
10
85.2264253980394
20
16.7466654946705
30
0
41
1
10
85.2527260030564
20
16.7990508561504
30
0
41
1
10
85.2778820704467
20
16.880333928743
30
0
41
1
10
85.2839926593913
20
16.9070493804195
30
0
41
1
10
85.2908016368207
20
16.9558547237575
30
0
41
1
10
85.2923304874453
20
16.9779590342332
30
0
41
1
10
85.2923304870103
20
16.9999999983372
30
0
0
SPLINE
5
13A
100
AcDbEntity
8
1
62
256
6
ByLayer
370
13
48
1
60
0
100
AcDbSpline
70
4
71
3
72
8
73
4
40
0
40
0
40
0
40
0
40
1
40
1
40
1
40
1
41
1
10
83.5183760001018
20
15.7378484424155
30
0
41
1
10
83.8118618389974
20
15.8687357558276
30
0
41
1
10
84.1880494478218
20
16.0352174384797
30
0
41
1
10
84.5686177347914
20
16.2172243126574
30
0
0
SPLINE
5
13B
100
AcDbEntity
8
1
62
256
6
ByLayer
370
13
48
1
60
0
100
AcDbSpline
70
4
71
3
72
8
73
4
40
0
40
0
40
0
40
0
40
1
40
1
40
1
40
1
41
1
10
83.4825013432477
20
15.7303022082387
30
0
41
1
10
83.4946091347231
20
15.732714601545
30
0
41
1
10
83.5063485847448
20
15.735378037688
30
0
41
1
10
83.518376000102
20
15.7378484424157
30
0
0
SPLINE
5
13C
100
AcDbEntity
8
1
62
256
6
ByLayer
370
13
48
1
60
0
100
AcDbSpline
70
4
71
3
72
8
73
4
40
0
40
0
40
0
40
0
40
1
40
1
40
1
40
1
41
1
10
83.2934089160653
20
15.6793530686091
30
0
41
1
10
83.3490379051963
20
15.6996650086833
30
0
41
1
10
83.4139179511139
20
15.716637443988
30
0
41
1
10
83.4825013432477
20
15.7303022082387
30
0
0
SPLINE
5
13D
100
AcDbEntity
8
1
62
256
6
ByLayer
370
13
48
1
60
0
100
AcDbSpline
70
4
71
3
72
14
73
10
40
0
40
0
40
0
40
0
40
0.113047000026155
40
0.113047000026155
40
0.401371265197853
40
0.401371265197853
40
0.7011107764062
40
0.7011107764062
40
1
40
1
40
1
40
1
41
1
10
82.6826529307456
20
15.6351149060714
30
0
41
1
10
82.705970001078
20
15.6314511980144
30
0
41
1
10
82.7299480071875
20
15.6283545034703
30
0
41
1
10
82.8155810736021
20
15.6196321379487
30
0
41
1
10
82.8804213063335
20
15.6172986300143
30
0
41
1
10
83.0086329435782
20
15.6210267783396
30
0
41
1
10
83.073730158016
20
15.627474876251
30
0
41
1
10
83.1919603287602
20
15.6480055035041
30
0
41
1
10
83.2467916415153
20
15.6623315964976
30
0
41
1
10
83.2934089160653
20
15.6793530686091
30
0
0
SPLINE
5
13E
100
AcDbEntity
8
1
62
256
6
ByLayer
370
13
48
1
60
0
100
AcDbSpline
70
4
71
3
72
8
73
4
40
0
40
0
40
0
40
0
40
1
40
1
40
1
40
1
41
1
10
82.0686064684001
20
15.7284165379193
30
0
41
1
10
82.2791544162378
20
15.7024100951533
30
0
41
1
10
82.4790478448881
20
15.6671064720306
30
0
41
1
10
82.6826529307456
20
15.6351149060714
30
0
0
SPLINE
5
13F
100
AcDbEntity
8
1
62
256
6
ByLayer
370
13
48
1
60
0
100
AcDbSpline
70
4
71
3
72
12
73
8
40
0
40
0
40
0
40
0
40
0.366490789470211
40
0.366490789470211
40
0.746906952269417
40
0.746906952269417
40
1
40
1
40
1
40
1
41
1
10
81.926371473185
20
16.504972352834
30
0
41
1
10
81.9124994463418
20
16.3793795333875
30
0
41
1
10
81.9101473622909
20
16.2579555585242
30
0
41
1
10
81.9298208578677
20
16.0397149290363
30
0
41
1
10
81.9529914009293
20
15.9409255822344
30
0
41
1
10
82.0094089374525
20
15.8092106506345
30
0
41
1
10
82.0365654865065
20
15.7641526383863
30
0
41
1
10
82.0686064683961
20
15.7284165379211
30
0
0
SPLINE
5
140
100
AcDbEntity
8
1
62
256
6
ByLayer
370
13
48
1
60
0
100
AcDbSpline
70
4
71
3
72
8
73
4
40
0
40
0
40
0
40
0
40
1
40
1
40
1
40
1
41
1
10
81.9267687756901
20
16.5076329759356
30
0
41
1
10
81.9266020528025
20
16.5067484060611
30
0
41
1
10
81.9264725357271
20
16.5058570212674
30
0
41
1
10
81.9263737610728
20
16.5049632366549
30
0
0
SPLINE
5
141
100
AcDbEntity
8
1
62
256
6
ByLayer
370
13
48
1
60
0
100
AcDbSpline
70
4
71
3
72
10
73
6
40
0
40
0
40
0
40
0
40
0.997070689119774
40
0.997070689119774
40
1
40
1
40
1
40
1
41
1
10
88.1872187298277
20
14.5938561764405
30
0
41
1
10
88.1939917449116
20
14.593252553723
30
0
41
1
10
88.2007674468327
20
14.5926680024024
30
0
41
1
10
88.2075653548793
20
14.5921000546296
30
0
41
1
10
88.2075852680983
20
14.5920983912457
30
0
41
1
10
88.2076051813121
20
14.5920967277114
30
0
0
SPLINE
5
142
100
AcDbEntity
8
1
62
256
6
ByLayer
370
13
48
1
60
0
100
AcDbSpline
70
4
71
3
72
12
73
8
40
0
40
0
40
0
40
0
40
8.34885767038E-05
40
8.34885767038E-05
40
0.999916511423334
40
0.999916511423334
40
1
40
1
40
1
40
1
41
1
10
88.2076051813121
20
14.5920967277114
30
0
41
1
10
88.2076250945513
20
14.5920950644851
30
0
41
1
10
88.2076450077855
20
14.5920934011083
30
0
41
1
10
88.4461399648416
20
14.5721753919324
30
0
41
1
10
88.6893448659226
20
14.5820609729136
30
0
41
1
10
88.9238113344752
20
14.5533845583413
30
0
41
1
10
88.9238309112685
20
14.5533821633071
30
0
41
1
10
88.9238504880759
20
14.5533797686203
30
0
0
SPLINE
5
143
100
AcDbEntity
8
1
62
256
6
ByLayer
370
13
48
1
60
0
100
AcDbSpline
70
4
71
1
72
4
73
2
40
0
40
0
40
1
40
1
41
1
10
88.9176013198961
20
13.045053624673
30
0
41
1
10
88.9238504906275
20
14.5533803844706
30
0
0
SPLINE
5
144
100
AcDbEntity
8
1
62
256
6
ByLayer
370
13
48
1
60
0
100
AcDbSpline
70
4
71
1
72
4
73
2
40
0
40
0
40
1
40
1
41
1
10
88.9176013198961
20
20.9549463753268
30
0
41
1
10
88.9238504881131
20
19.4466202224229
30
0
0
SPLINE
5
145
100
AcDbEntity
8
1
62
256
6
ByLayer
370
13
48
1
60
0
100
AcDbSpline
70
4
71
3
72
12
73
8
40
0
40
0
40
0
40
0
40
8.34885766716E-05
40
8.34885766716E-05
40
0.999916511423299
40
0.999916511423299
40
1
40
1
40
1
40
1
41
1
10
88.9238504880759
20
19.4466202313795
30
0
41
1
10
88.9238309112685
20
19.4466178366927
30
0
41
1
10
88.9238113344752
20
19.4466154416584
30
0
41
1
10
88.6893448659226
20
19.4179390270862
30
0
41
1
10
88.4461399648416
20
19.4278246080674
30
0
41
1
10
88.2076450077855
20
19.4079065988914
30
0
41
1
10
88.2076250945513
20
19.4079049355147
30
0
41
1
10
88.2076051813121
20
19.4079032722884
30
0
0
SPLINE
5
146
100
AcDbEntity
8
1
62
256
6
ByLayer
370
13
48
1
60
0
100
AcDbSpline
70
4
71
3
72
10
73
6
40
0
40
0
40
0
40
0
40
0.002929310880047
40
0.002929310880047
40
1
40
1
40
1
40
1
41
1
10
88.2076051813121
20
19.4079032722884
30
0
41
1
10
88.2075852680983
20
19.4079016087541
30
0
41
1
10
88.2075653548793
20
19.4078999453702
30
0
41
1
10
88.2007674468326
20
19.4073319975974
30
0
41
1
10
88.1939917449116
20
19.4067474462768
30
0
41
1
10
88.1872187298277
20
19.4061438235592
30
0
0
SPLINE
5
147
100
AcDbEntity
8
1
62
256
6
ByLayer
370
13
48
1
60
0
100
AcDbSpline
70
4
71
3
72
8
73
4
40
0
40
0
40
0
40
0
40
1
40
1
40
1
40
1
41
1
10
83.5578485791587
20
18.7760671263656
30
0
41
1
10
83.5578485791587
20
18.7043659439833
30
0
41
1
10
83.5631149742852
20
18.6316174171541
30
0
41
1
10
83.5770898319934
20
18.5625823026867
30
0
0
SPLINE
5
148
100
AcDbEntity
8
1
62
256
6
ByLayer
370
13
48
1
60
0
100
AcDbSpline
70
4
71
3
72
14
73
10
40
0
40
0
40
0
40
0
40
0.159907685238028
40
0.159907685238028
40
0.438042750339266
40
0.438042750339266
40
0.719280217836523
40
0.719280217836523
40
1
40
1
40
1
40
1
41
1
10
83.5770898319936
20
18.5625823026867
30
0
41
1
10
83.5348943234586
20
18.5748458575371
30
0
41
1
10
83.488775983396
20
18.5860303364919
30
0
41
1
10
83.3548723387538
20
18.6128246450901
30
0
41
1
10
83.2594487065743
20
18.6259460746129
30
0
41
1
10
83.060161590797
20
18.6423291434777
30
0
41
1
10
82.9536694958506
20
18.645679255586
30
0
41
1
10
82.7449580007786
20
18.6419996432779
30
0
41
1
10
82.6400515251329
20
18.6349439977877
30
0
41
1
10
82.5426074717079
20
18.6233091614457
30
0
0
SPLINE
5
149
100
AcDbEntity
8
1
62
256
6
ByLayer
370
13
48
1
60
0
100
AcDbSpline
70
4
71
3
72
22
73
18
40
0
40
0
40
0
40
0
40
0.273093043494381
40
0.273093043494381
40
0.547275496459557
40
0.547275496459557
40
0.617184044996332
40
0.617184044996332
40
0.654496198970905
40
0.654496198970905
40
0.71037628360847
40
0.71037628360847
40
0.760213985388324
40
0.760213985388324
40
0.917414583604362
40
0.917414583604362
40
1
40
1
40
1
40
1
41
1
10
83.5770898319935
20
18.5625823026868
30
0
41
1
10
83.5844840192797
20
18.5484168040842
30
0
41
1
10
83.5912129796576
20
18.5342223298327
30
0
41
1
10
83.6022131311854
20
18.505324900405
30
0
41
1
10
83.6070602388157
20
18.4904445661452
30
0
41
1
10
83.6073233410002
20
18.4703059769228
30
0
41
1
10
83.6070054365817
20
18.4660310720512
30
0
41
1
10
83.6055205448471
20
18.4595165970573
30
0
41
1
10
83.6048059322756
20
18.4572322486141
30
0
41
1
10
83.6024862029534
20
18.4517535059325
30
0
41
1
10
83.6005551550278
20
18.4485811747897
30
0
41
1
10
83.5962262431818
20
18.4433628647459
30
0
41
1
10
83.5938682917122
20
18.4411675333363
30
0
41
1
10
83.5837768984245
20
18.4334109746671
30
0
41
1
10
83.5750400805125
20
18.4299547369467
30
0
41
1
10
83.5620078312431
20
18.4258919373926
30
0
41
1
10
83.5574562568318
20
18.4247236308432
30
0
41
1
10
83.5528912225766
20
18.4237029653752
30
0
0
SPLINE
5
14A
100
AcDbEntity
8
1
62
256
6
ByLayer
370
13
48
1
60
0
100
AcDbSpline
70
4
71
3
72
10
73
6
40
0
40
0
40
0
40
0
40
0.32942269657999
40
0.32942269657999
40
1
40
1
40
1
40
1
41
1
10
83.5528912225766
20
18.4237029653752
30
0
41
1
10
83.5476674485072
20
18.4225350166794
30
0
41
1
10
83.5423620355334
20
18.4212111920626
30
0
41
1
10
83.5261479754915
20
18.4167550800993
30
0
41
1
10
83.5149616455128
20
18.4131257104794
30
0
41
1
10
83.5037305363003
20
18.4089541643597
30
0
0
SPLINE
5
14B
100
AcDbEntity
8
1
62
256
6
ByLayer
370
13
48
1
60
0
100
AcDbSpline
70
4
71
3
72
14
73
10
40
0
40
0
40
0
40
0
40
0.296330746403116
40
0.296330746403116
40
0.596901433487763
40
0.596901433487763
40
0.886742515067703
40
0.886742515067703
40
1
40
1
40
1
40
1
41
1
10
83.5605398053107
20
15.3089336244808
30
0
41
1
10
83.4822467272905
20
15.2917895438146
30
0
41
1
10
83.3907958650906
20
15.2775299462542
30
0
41
1
10
83.1938998031122
20
15.2570213723543
30
0
41
1
10
83.0856204611379
20
15.2506214610859
30
0
41
1
10
82.8722336394898
20
15.2468980729118
30
0
41
1
10
82.7644333703907
20
15.249212698028
30
0
41
1
10
82.6215015138083
20
15.2579445500166
30
0
41
1
10
82.5815481268665
20
15.2610368846994
30
0
41
1
10
82.5426074717079
20
15.2647067558548
30
0
0
SPLINE
5
14C
100
AcDbEntity
8
1
62
256
6
ByLayer
370
13
48
1
60
0
100
AcDbSpline
70
4
71
3
72
8
73
4
40
0
40
0
40
0
40
0
40
1
40
1
40
1
40
1
41
1
10
83.5605398053107
20
15.3089336244808
30
0
41
1
10
83.5586878449039
20
15.2806855446196
30
0
41
1
10
83.5578485791588
20
15.2522925045927
30
0
41
1
10
83.5578485791588
20
15.2239328736342
30
0
0
SPLINE
5
14D
100
AcDbEntity
8
1
62
256
6
ByLayer
370
13
48
1
60
0
100
AcDbSpline
70
4
71
3
72
8
73
4
40
0
40
0
40
0
40
0
40
1
40
1
40
1
40
1
41
1
10
84.8053001428021
20
14.4791970972425
30
0
41
1
10
85.1146312264583
20
14.4105342931565
30
0
41
1
10
85.4249187835479
20
14.3461958285592
30
0
41
1
10
85.7358515245868
20
14.2853993713631
30
0
0
SPLINE
5
14E
100
AcDbEntity
8
1
62
256
6
ByLayer
370
13
48
1
60
0
100
AcDbSpline
70
4
71
3
72
10
73
6
40
0
40
0
40
0
40
0
40
0.15274373109069
40
0.15274373109069
40
1
40
1
40
1
40
1
41
1
10
83.7346260898532
20
18.4672194998931
30
0
41
1
10
83.7779203004259
20
18.447192298716
30
0
41
1
10
83.8228540351141
20
18.4268626079493
30
0
41
1
10
84.1143773523854
20
18.2793265195981
30
0
41
1
10
84.379705755673
20
18.0948020508837
30
0
41
1
10
84.6718290185031
20
17.9117588959598
30
0
0
SPLINE
5
14F
100
AcDbEntity
8
1
62
256
6
ByLayer
370
13
48
1
60
0
100
AcDbSpline
70
4
71
1
72
4
73
2
40
0
40
0
40
1
40
1
41
1
10
85.7379089848188
20
20.8859411825187
30
0
41
1
10
85.7379089848188
20
19.7452358655663
30
0
0
SPLINE
5
150
100
AcDbEntity
8
1
62
256
6
ByLayer
370
13
48
1
60
0
100
AcDbSpline
70
4
71
3
72
8
73
4
40
0
40
0
40
0
40
0
40
1
40
1
40
1
40
1
41
1
10
85.7379089848188
20
19.7452358655663
30
0
41
1
10
85.7379090362715
20
19.7349273853676
30
0
41
1
10
85.737251538704
20
19.7247107823944
30
0
41
1
10
85.7358515866308
20
19.7146003589771
30
0
0
SPLINE
5
151
100
AcDbEntity
8
1
62
256
6
ByLayer
370
13
48
1
60
0
100
AcDbSpline
70
4
71
3
72
8
73
4
40
0
40
0
40
0
40
0
40
1
40
1
40
1
40
1
41
1
10
85.7358515348193
20
19.7146006306374
30
0
41
1
10
85.424918790355
20
19.6538041728526
30
0
41
1
10
85.1146312298514
20
19.5894657075965
30
0
41
1
10
84.8053001428021
20
19.5208029027573
30
0
0
SPLINE
5
152
100
AcDbEntity
8
1
62
256
6
ByLayer
370
13
48
1
60
0
100
AcDbSpline
70
4
71
3
72
8
73
4
40
0
40
0
40
0
40
0
40
1
40
1
40
1
40
1
41
1
10
85.7358515821664
20
14.2853996732637
30
0
41
1
10
85.7372515348722
20
14.2752892615432
30
0
41
1
10
85.7379090362716
20
14.26507262275
30
0
41
1
10
85.7379089848188
20
14.2547641344335
30
0
0
SPLINE
5
153
100
AcDbEntity
8
1
62
256
6
ByLayer
370
13
48
1
60
0
100
AcDbSpline
70
4
71
2
72
6
73
3
40
0
40
0
40
0
40
1
40
1
40
1
41
0.980654447389497
10
84.8704938405668
20
14.8889827908041
30
0
41
0.953798109125455
10
84.7317522222172
20
15.427020243389
30
0
41
0.965481722453103
10
84.6718290211117
20
16.0882410752555
30
0
0
SPLINE
5
154
100
AcDbEntity
8
1
62
256
6
ByLayer
370
13
48
1
60
0
100
AcDbSpline
70
4
71
3
72
20
73
16
40
0
40
0
40
0
40
0
40
4.63168286529E-05
40
4.63168286529E-05
40
0.0596992196689297
40
0.0596992196689297
40
0.254193435496958
40
0.254193435496958
40
0.290592692068101
40
0.290592692068101
40
0.52495669910206
40
0.52495669910206
40
0.999953683171169
40
0.999953683171169
40
1
40
1
40
1
40
1
41
1
10
85.3883292006641
20
16.9999999999999
30
0
41
1
10
85.3883291997089
20
16.99998
30
0
41
1
10
85.3883291997667
20
16.99996
30
0
41
1
10
85.3883268849753
20
16.9741813701346
30
0
41
1
10
85.3868169924134
20
16.9483658945786
30
0
41
1
10
85.3741860627273
20
16.8410134788255
30
0
41
1
10
85.3486422856314
20
16.7606889651493
30
0
41
1
10
85.3067704559404
20
16.6747820177717
30
0
41
1
10
85.299722083804
20
16.6612841817079
30
0
41
1
10
85.2454336015864
20
16.5634858251514
30
0
41
1
10
85.1855723189529
20
16.4877151503454
30
0
41
1
10
84.9887891117869
20
16.2846221318092
30
0
41
1
10
84.8328535091115
20
16.1779854065278
30
0
41
1
10
84.6718609540679
20
16.0882588719251
30
0
41
1
10
84.6718449875371
20
16.0882499736631
30
0
41
1
10
84.6718290211118
20
16.0882410752555
30
0
0
SPLINE
5
155
100
AcDbEntity
8
1
62
256
6
ByLayer
370
13
48
1
60
0
100
AcDbSpline
70
4
71
3
72
10
73
6
40
0
40
0
40
0
40
0
40
0.999929360680946
40
0.999929360680946
40
1
40
1
40
1
40
1
41
1
10
85.692999706784
20
14.7432240714425
30
0
41
1
10
85.4184175711252
20
14.7892070566824
30
0
41
1
10
85.1442137836707
20
14.8376241378791
30
0
41
1
10
84.8705325058545
20
14.8889755358992
30
0
41
1
10
84.8705131732135
20
14.8889791633539
30
0
41
1
10
84.8704938405694
20
14.8889827907942
30
0
0
SPLINE
5
156
100
AcDbEntity
8
1
62
256
6
ByLayer
370
13
48
1
60
0
100
AcDbSpline
70
4
71
3
72
8
73
4
40
0
40
0
40
0
40
0
40
1
40
1
40
1
40
1
41
1
10
85.3883292006641
20
16.9999999999999
30
0
41
1
10
85.8287460094487
20
16.9999999999999
30
0
41
1
10
86.2691628182332
20
16.9999999999999
30
0
41
1
10
86.7095796270178
20
16.9999999999999
30
0
0
SPLINE
5
157
100
AcDbEntity
8
1
62
256
6
ByLayer
370
13
48
1
60
0
100
AcDbSpline
70
4
71
3
72
10
73
6
40
0
40
0
40
0
40
0
40
7.06393190528E-05
40
7.06393190528E-05
40
1
40
1
40
1
40
1
41
1
10
84.8704938405694
20
19.1110172092056
30
0
41
1
10
84.8705131732135
20
19.1110208366458
30
0
41
1
10
84.8705325058545
20
19.1110244641006
30
0
41
1
10
85.1442137836707
20
19.1623758621207
30
0
41
1
10
85.4184175711252
20
19.2107929433174
30
0
41
1
10
85.692999706784
20
19.2567759285573
30
0
0
SPLINE
5
158
100
AcDbEntity
8
1
62
256
6
ByLayer
370
13
48
1
60
0
100
AcDbSpline
70
4
71
1
72
4
73
2
40
0
40
0
40
1
40
1
41
1
10
85.7379089848188
20
13.1140588174811
30
0
41
1
10
85.7379089848188
20
14.2547641344335
30
0
0
SPLINE
5
159
100
AcDbEntity
8
1
62
256
6
ByLayer
370
13
48
1
60
0
100
AcDbSpline
70
4
71
3
72
8
73
4
40
0
40
0
40
0
40
0
40
1
40
1
40
1
40
1
41
1
10
82.5426074717079
20
15.2647067558548
30
0
41
1
10
82.3646504971586
20
15.2926586553603
30
0
41
1
10
82.1866414520108
20
15.3202389229764
30
0
41
1
10
82.0087485727257
20
15.3486491058226
30
0
0
SPLINE
5
15A
100
AcDbEntity
8
1
62
256
6
ByLayer
370
13
48
1
60
0
100
AcDbSpline
70
4
71
3
72
16
73
12
40
0
40
0
40
0
40
0
40
0.115654527019301
40
0.115654527019301
40
0.397141262977861
40
0.397141262977861
40
0.592566358298173
40
0.592566358298173
40
0.795267330452658
40
0.795267330452658
40
1
40
1
40
1
40
1
41
1
10
82.0686064683973
20
15.7284165379212
30
0
41
1
10
82.0686125713137
20
15.7208622537747
30
0
41
1
10
82.0683453222987
20
15.7122461946509
30
0
41
1
10
82.0664925775307
20
15.6794856551605
30
0
41
1
10
82.063532066982
20
15.6499692455927
30
0
41
1
10
82.0557882953166
20
15.5920023836614
30
0
41
1
10
82.0517642565963
20
15.5655396178227
30
0
41
1
10
82.0420859396191
20
15.5085493303899
30
0
41
1
10
82.0362912402326
20
15.4774148620374
30
0
41
1
10
82.0234436819713
20
15.4138653986813
30
0
41
1
10
82.0162619080161
20
15.3808618394904
30
0
41
1
10
82.0087485727295
20
15.3486491058199
30
0
0
SPLINE
5
15B
100
AcDbEntity
8
1
62
256
6
ByLayer
370
13
48
1
60
0
100
AcDbSpline
70
4
71
3
72
12
73
8
40
0
40
0
40
0
40
0
40
4.10732967608E-05
40
4.10732967608E-05
40
0.447988965332849
40
0.447988965332849
40
1
40
1
40
1
40
1
41
1
10
86.892950296807
20
15.1257662986213
30
0
41
1
10
86.8929319571895
20
15.1257642865985
30
0
41
1
10
86.8929136175108
20
15.1257622747531
30
0
41
1
10
86.6928829791036
20
15.1038151288091
30
0
41
1
10
86.4996547300288
20
15.060519093903
30
0
41
1
10
86.0943367409384
20
14.9332324869544
30
0
41
1
10
85.8853800847998
20
14.8420772417085
30
0
41
1
10
85.692999706784
20
14.7432240714425
30
0
0
SPLINE
5
15C
100
AcDbEntity
8
1
62
256
6
ByLayer
370
13
48
1
60
0
100
AcDbSpline
70
4
71
3
72
12
73
8
40
0
40
0
40
0
40
0
40
0.552011004696241
40
0.552011004696241
40
0.999958872411428
40
0.999958872411428
40
1
40
1
40
1
40
1
41
1
10
85.692999706784
20
19.2567759285573
30
0
41
1
10
85.8853800847998
20
19.1579227582912
30
0
41
1
10
86.0943367409384
20
19.0667675130454
30
0
41
1
10
86.4996547300288
20
18.9394809060968
30
0
41
1
10
86.6928829791036
20
18.8961848711907
30
0
41
1
10
86.8929136175108
20
18.8742377252467
30
0
41
1
10
86.8929319571895
20
18.8742357134013
30
0
41
1
10
86.892950296807
20
18.8742337013784
30
0
0
SPLINE
5
15D
100
AcDbEntity
8
1
62
256
6
ByLayer
370
13
48
1
60
0
100
AcDbSpline
70
4
71
3
72
18
73
14
40
0
40
0
40
0
40
0
40
4.67599616201E-05
40
4.67599616201E-05
40
0.190700453504229
40
0.190700453504229
40
0.581805359141817
40
0.581805359141817
40
0.815786880433256
40
0.815786880433256
40
0.999953240038559
40
0.999953240038559
40
1
40
1
40
1
40
1
41
1
10
84.6718290185031
20
17.9117588959597
30
0
41
1
10
84.6718449849285
20
17.9117499975521
30
0
41
1
10
84.6718609514594
20
17.9117410992902
30
0
41
1
10
84.7369762995953
20
17.8754501386318
30
0
41
1
10
84.8007929827105
20
17.8363797556453
30
0
41
1
10
84.988432060236
20
17.7074783352819
30
0
41
1
10
85.1087725628236
20
17.6059473133697
30
0
41
1
10
85.2640103457667
20
17.4073060241197
30
0
41
1
10
85.3147746977488
20
17.3226650309011
30
0
41
1
10
85.3734206003784
20
17.1578270539778
30
0
41
1
10
85.3883221613906
20
17.0783912396621
30
0
41
1
10
85.3883291997653
20
17.0000399999998
30
0
41
1
10
85.3883291997081
20
17.0000199999998
30
0
41
1
10
85.3883292006641
20
16.9999999999999
30
0
0
SPLINE
5
15E
100
AcDbEntity
8
1
62
256
6
ByLayer
370
13
48
1
60
0
100
AcDbSpline
70
4
71
3
72
10
73
6
40
0
40
0
40
0
40
0
40
0.574969075400995
40
0.574969075400995
40
1
40
1
40
1
40
1
41
1
10
82.5426074717079
20
18.6233091614457
30
0
41
1
10
82.4469828542898
20
18.6082860096335
30
0
41
1
10
82.3513578903338
20
18.5932653556433
30
0
41
1
10
82.1850441505018
20
18.567144752074
30
0
41
1
10
82.1143552902969
20
18.5560454104109
30
0
41
1
10
82.0436668781624
20
18.5449428378258
30
0
0
SPLINE
5
15F
100
AcDbEntity
8
1
62
256
6
ByLayer
370
13
48
1
60
0
100
AcDbSpline
70
4
71
3
72
12
73
8
40
0
40
0
40
0
40
0
40
0.139839191554352
40
0.139839191554352
40
0.569919595770274
40
0.569919595770274
40
1
40
1
40
1
40
1
41
1
10
81.3940993087699
20
20.5243288478567
30
0
41
1
10
81.4243777178145
20
20.432063629054
30
0
41
1
10
81.454656341528
20
20.339798490031
30
0
41
1
10
81.5780583113988
20
19.9637687711599
30
0
41
1
10
81.6711822591323
20
19.6800044148827
30
0
41
1
10
81.857427049345
20
19.1124745482772
30
0
41
1
10
81.9505479059776
20
18.8287090432036
30
0
41
1
10
82.0436668781624
20
18.5449428378258
30
0
0
SPLINE
5
160
100
AcDbEntity
8
1
62
256
6
ByLayer
370
13
48
1
60
0
100
AcDbSpline
70
4
71
2
72
6
73
3
40
0
40
0
40
0
40
1
40
1
40
1
41
0.980654447389497
10
84.8704938405668
20
19.1110172091957
30
0
41
0.953798108533734
10
84.7317522190743
20
18.5729797444225
30
0
41
0.96548172296795
10
84.6718290185032
20
17.9117588959597
30
0
0
SPLINE
5
161
100
AcDbEntity
8
1
62
256
6
ByLayer
370
13
48
1
60
0
100
AcDbSpline
70
4
71
3
72
16
73
12
40
0
40
0
40
0
40
0
40
0.205000926224645
40
0.205000926224645
40
0.407559347780744
40
0.407559347780744
40
0.600212791716663
40
0.600212791716663
40
0.868766129310332
40
0.868766129310332
40
1
40
1
40
1
40
1
41
1
10
82.0436668781624
20
18.5449428378258
30
0
41
1
10
82.0469837117414
20
18.525376761152
30
0
41
1
10
82.0508129778861
20
18.5055860423679
30
0
41
1
10
82.0590891856541
20
18.4676385279045
30
0
41
1
10
82.0635912530294
20
18.4491759799146
30
0
41
1
10
82.0727324602973
20
18.4155642797985
30
0
41
1
10
82.0774170168511
20
18.4000656404705
30
0
41
1
10
82.0886701278392
20
18.3667272960048
30
0
41
1
10
82.095415587473
20
18.3498889474548
30
0
41
1
10
82.105033020539
20
18.3303789142217
30
0
41
1
10
82.1081678336724
20
18.3247728897753
30
0
41
1
10
82.1112012876397
20
18.3201073675807
30
0
0
SPLINE
5
162
100
AcDbEntity
8
1
62
256
6
ByLayer
370
13
48
1
60
0
100
AcDbSpline
70
4
71
3
72
14
73
10
40
0
40
0
40
0
40
0
40
0.26412029044084
40
0.26412029044084
40
0.596843115048879
40
0.596843115048879
40
0.93551316236923
40
0.93551316236923
40
1
40
1
40
1
40
1
41
1
10
81.3941061795566
20
20.6499999999999
30
0
41
1
10
81.3941055745898
20
20.6389358995986
30
0
41
1
10
81.3941049696394
20
20.6278717991972
30
0
41
1
10
81.3941036026459
20
20.6028698118915
30
0
41
1
10
81.3941028406124
20
20.5889319249873
30
0
41
1
10
81.3941013029773
20
20.5608070197353
30
0
41
1
10
81.3941005273765
20
20.5466200013876
30
0
41
1
10
81.3940996041241
20
20.5297316046455
30
0
41
1
10
81.3940994564465
20
20.5270302262511
30
0
41
1
10
81.3940993087699
20
20.5243288478567
30
0
0
SPLINE
5
163
100
AcDbEntity
8
1
62
256
6
ByLayer
370
13
48
1
60
0
100
AcDbSpline
70
4
71
3
72
14
73
10
40
0
40
0
40
0
40
0
40
0.0644868376307762
40
0.0644868376307762
40
0.403156884951125
40
0.403156884951125
40
0.735879709559162
40
0.735879709559162
40
1
40
1
40
1
40
1
41
1
10
81.3940993087699
20
13.4756711521431
30
0
41
1
10
81.3940994564465
20
13.4729697737487
30
0
41
1
10
81.3940996041241
20
13.4702683953543
30
0
41
1
10
81.3941005273765
20
13.4533799986122
30
0
41
1
10
81.3941013029773
20
13.4391929802645
30
0
41
1
10
81.3941028406124
20
13.4110680750125
30
0
41
1
10
81.3941036026459
20
13.3971301881082
30
0
41
1
10
81.3941049696394
20
13.3721282008026
30
0
41
1
10
81.3941055745898
20
13.3610641004013
30
0
41
1
10
81.3941061795566
20
13.3499999999999
30
0
0
SPLINE
5
164
100
AcDbEntity
8
1
62
256
6
ByLayer
370
13
48
1
60
0
100
AcDbSpline
70
4
71
3
72
12
73
8
40
0
40
0
40
0
40
0
40
0.454514133383785
40
0.454514133383785
40
0.909028266752794
40
0.909028266752794
40
1
40
1
40
1
40
1
41
1
10
82.0087485727254
20
15.348649105821
30
0
41
1
10
81.9156291594714
20
15.0648830643565
30
0
41
1
10
81.8225078059509
20
14.781117743945
30
0
41
1
10
81.6362623642582
20
14.2135881194576
30
0
41
1
10
81.543138260108
20
13.9298238213135
30
0
41
1
10
81.4313765555253
20
13.5892631460462
30
0
41
1
10
81.4127378912239
20
13.5324671643035
30
0
41
1
10
81.3940993087699
20
13.4756711521431
30
0
0
SPLINE
5
165
100
AcDbEntity
8
1
62
256
6
ByLayer
370
13
48
1
60
0
100
AcDbSpline
70
4
71
3
72
10
73
6
40
0
40
0
40
0
40
0
40
0.778497107855587
40
0.778497107855587
40
1
40
1
40
1
40
1
41
1
10
84.3420511473576
20
15.0829985449085
30
0
41
1
10
84.255015151651
20
15.1288676822253
30
0
41
1
10
84.165482019484
20
15.1695008025511
30
0
41
1
10
84.0540032702753
20
15.2073705111945
30
0
41
1
10
84.029371333497
20
15.2149096046638
30
0
41
1
10
84.0050754836492
20
15.2214246526474
30
0
0
SPLINE
5
166
100
AcDbEntity
8
1
62
256
6
ByLayer
370
13
48
1
60
0
100
AcDbSpline
70
4
71
3
72
8
73
4
40
0
40
0
40
0
40
0
40
1
40
1
40
1
40
1
41
1
10
83.7357216398565
20
15.5332869241631
30
0
41
1
10
83.7375993555321
20
15.5293386336962
30
0
41
1
10
83.73998101586
20
15.5254890877838
30
0
41
1
10
83.7426347416878
20
15.5219062777
30
0
0
SPLINE
5
167
100
AcDbEntity
8
1
62
256
6
ByLayer
370
13
48
1
60
0
100
AcDbSpline
70
4
71
3
72
10
73
6
40
0
40
0
40
0
40
0
40
0.163065155871239
40
0.163065155871239
40
1
40
1
40
1
40
1
41
1
10
84.6718290211118
20
16.0882410752555
30
0
41
1
10
84.6149116640089
20
16.0525769086424
30
0
41
1
10
84.5592767244306
20
16.0166873545553
30
0
41
1
10
84.2284546287765
20
15.8020636099752
30
0
41
1
10
83.9693659295856
20
15.6412254122573
30
0
41
1
10
83.7357216398541
20
15.533286924162
30
0
0
SPLINE
5
168
100
AcDbEntity
8
1
62
256
6
ByLayer
370
13
48
1
60
0
100
AcDbSpline
70
4
71
3
72
10
73
6
40
0
40
0
40
0
40
0
40
0.823838365809873
40
0.823838365809873
40
1
40
1
40
1
40
1
41
1
10
87.3896415129266
20
19.2654365785229
30
0
41
1
10
87.2794602811352
20
19.2414993258302
30
0
41
1
10
87.1678876332443
20
19.2204151850819
30
0
41
1
10
87.0358666222629
20
19.2283486191863
30
0
41
1
10
87.012478749963
20
19.2312250111353
30
0
41
1
10
86.9895466493629
20
19.2359017437833
30
0
0
SPLINE
5
169
100
AcDbEntity
8
1
62
256
6
ByLayer
370
13
48
1
60
0
100
AcDbSpline
70
4
71
3
72
10
73
6
40
0
40
0
40
0
40
0
40
0.999925228124151
40
0.999925228124151
40
1
40
1
40
1
40
1
41
1
10
87.3896415129266
20
14.7345634214768
30
0
41
1
10
87.6420795926091
20
14.6866260035516
30
0
41
1
10
87.8996713677119
20
14.6053608134782
30
0
41
1
10
88.1656685855706
20
14.5823006012851
30
0
41
1
10
88.1656884747225
20
14.582298877385
30
0
41
1
10
88.1657083638693
20
14.5822971533073
30
0
0
SPLINE
5
16A
100
AcDbEntity
8
1
62
256
6
ByLayer
370
13
48
1
60
0
100
AcDbSpline
70
4
71
3
72
10
73
6
40
0
40
0
40
0
40
0
40
0.221502892144515
40
0.221502892144515
40
1
40
1
40
1
40
1
41
1
10
84.0050754836492
20
18.7785753473524
30
0
41
1
10
84.029371333497
20
18.785090395336
30
0
41
1
10
84.0540032702753
20
18.7926294888053
30
0
41
1
10
84.165482019484
20
18.8304991974487
30
0
41
1
10
84.255015151651
20
18.8711323177745
30
0
41
1
10
84.3420511473576
20
18.9170014550913
30
0
0
SPLINE
5
16B
100
AcDbEntity
8
1
62
256
6
ByLayer
370
13
48
1
60
0
100
AcDbSpline
70
4
71
3
72
12
73
8
40
0
40
0
40
0
40
0
40
4.28518149887E-05
40
4.28518149887E-05
40
0.589291527325828
40
0.589291527325828
40
1
40
1
40
1
40
1
41
1
10
85.9181380764028
20
14.2547641344335
30
0
41
1
10
85.918150492448
20
14.2547739102341
30
0
41
1
10
85.9181629085677
20
14.2547836860775
30
0
41
1
10
86.0889091948946
20
14.3892183956488
30
0
41
1
10
86.2815439397608
20
14.5178583809286
30
0
41
1
10
86.6494858133425
20
14.6842521452956
30
0
41
1
10
86.8151724606963
20
14.737782355364
30
0
41
1
10
86.9895870956491
20
14.7637762571175
30
0
0
SPLINE
5
16C
100
AcDbEntity
8
1
62
256
6
ByLayer
370
18
48
1
60
0
100
AcDbSpline
70
4
71
3
72
12
73
8
40
0
40
0
40
0
40
0
40
0.0639738736296087
40
0.0639738736296087
40
0.54449609909101
40
0.54449609909101
40
1
40
1
40
1
40
1
41
1
10
71.1438967166801
20
13.4233185629562
30
0
41
1
10
71.1484451482349
20
13.4200971357113
30
0
41
1
10
71.1530444130825
20
13.41698447121
30
0
41
1
10
71.1926050427119
20
13.3914343961651
30
0
41
1
10
71.2308962996306
20
13.3746969619276
30
0
41
1
10
71.3045214348784
20
13.3544494360292
30
0
41
1
10
71.3406893131639
20
13.3499999999999
30
0
41
1
10
71.3746999999996
20
13.3499999999999
30
0
0
SPLINE
5
16D
100
AcDbEntity
8
1
62
256
6
ByLayer
370
13
48
1
60
0
100
AcDbSpline
70
4
71
3
72
10
73
6
40
0
40
0
40
0
40
0
40
0.823830082766336
40
0.823830082766336
40
1
40
1
40
1
40
1
41
1
10
86.9895466493628
20
14.7640982562181
30
0
41
1
10
87.0952299979997
20
14.785651134236
30
0
41
1
10
87.2084649479971
20
14.7693351023163
30
0
41
1
10
87.3421123849321
20
14.744435543836
30
0
41
1
10
87.3658862096183
20
14.739724343068
30
0
41
1
10
87.3896415129266
20
14.7345634214768
30
0
0
SPLINE
5
16E
100
AcDbEntity
8
1
62
256
6
ByLayer
370
13
48
1
60
0
100
AcDbSpline
70
4
71
3
72
14
73
10
40
0
40
0
40
0
40
0
40
0.161052875229031
40
0.245216326944722
40
0.292174028654271
40
0.320547143310532
40
0.363035245925874
40
0.59259715619573
40
1
40
1
40
1
40
1
41
1
10
81.3504766344307
20
17.3292212401835
30
0
41
1
10
81.3923989126428
20
17.3292212401835
30
0
41
1
10
81.4505039843313
20
17.3292212401835
30
0
41
1
10
81.5087272157885
20
17.3292212401835
30
0
41
1
10
81.5373344414663
20
17.3292212401835
30
0
41
1
10
81.5586600112081
20
17.3292212401835
30
0
41
1
10
81.613398146035
20
17.3292212401835
30
0
41
1
10
81.7378563579768
20
17.3292212401835
30
0
41
1
10
81.8574713883058
20
17.3292212401835
30
0
41
1
10
81.9347046344382
20
17.3292212401835
30
0
0
SPLINE
5
16F
100
AcDbEntity
8
1
62
256
6
ByLayer
370
13
48
1
60
0
100
AcDbSpline
70
4
71
3
72
10
73
6
40
0
40
0
40
0
40
0
40
7.47718758472E-05
40
7.47718758472E-05
40
1
40
1
40
1
40
1
41
1
10
88.1657083638693
20
19.4177028466925
30
0
41
1
10
88.1656884747225
20
19.4177011226148
30
0
41
1
10
88.1656685855706
20
19.4176993987147
30
0
41
1
10
87.8996713677119
20
19.3946391865216
30
0
41
1
10
87.6420795926091
20
19.3133739964482
30
0
41
1
10
87.3896415129266
20
19.2654365785229
30
0
0
SPLINE
5
170
100
AcDbEntity
8
1
62
256
6
ByLayer
370
13
48
1
60
0
100
AcDbSpline
70
4
71
1
72
4
73
2
40
0
40
0
40
1
40
1
41
1
10
85.9181380764028
20
14.2547641344335
30
0
41
1
10
85.9181380764028
20
13.9999999999999
30
0
0
SPLINE
5
171
100
AcDbEntity
8
1
62
256
6
ByLayer
370
13
48
1
60
0
100
AcDbSpline
70
4
71
3
72
14
73
10
40
0
40
0
40
0
40
0
40
0.0093287377486341
40
0.0093287377486341
40
0.410606899436536
40
0.410606899436536
40
0.999957606714604
40
0.999957606714604
40
1
40
1
40
1
40
1
41
1
10
86.9895870956491
20
19.2362237428823
30
0
41
1
10
86.9855839938864
20
19.2368203455353
30
0
41
1
10
86.9815858576231
20
19.2374309812371
30
0
41
1
10
86.8075686505505
20
19.2646493194694
30
0
41
1
10
86.6460526960743
20
19.3173004078295
30
0
41
1
10
86.2815439397608
20
19.4821416190712
30
0
41
1
10
86.0889091948946
20
19.610781604351
30
0
41
1
10
85.9181629085677
20
19.7452163139223
30
0
41
1
10
85.918150492448
20
19.7452260897657
30
0
41
1
10
85.9181380764028
20
19.7452358655663
30
0
0
SPLINE
5
172
100
AcDbEntity
8
1
62
256
6
ByLayer
370
13
48
1
60
0
100
AcDbSpline
70
4
71
1
72
4
73
2
40
0
40
0
40
1
40
1
41
1
10
85.9181380764028
20
19.7452358655663
30
0
41
1
10
85.9181380764028
20
19.9999999999999
30
0
0
SPLINE
5
173
100
AcDbEntity
8
1
62
256
6
ByLayer
370
13
48
1
60
0
100
AcDbSpline
70
4
71
3
72
14
73
10
40
0
40
0
40
0
40
0
40
4.22689777038E-05
40
4.22689777038E-05
40
0.194808808979813
40
0.194808808979813
40
0.537121086843587
40
0.537121086843587
40
1
40
1
40
1
40
1
41
1
10
81.7417073554867
20
17.5180483237179
30
0
41
1
10
81.7417056210983
20
17.5180669223159
30
0
41
1
10
81.7417038865497
20
17.5180855207648
30
0
41
1
10
81.7337114189804
20
17.6038014000431
30
0
41
1
10
81.7298488490244
20
17.6874071594304
30
0
41
1
10
81.7309188640286
20
17.9044580300348
30
0
41
1
10
81.7448768730569
20
18.0315725874632
30
0
41
1
10
81.8054758566196
20
18.2798242915134
30
0
41
1
10
81.8666227187079
20
18.3797562292631
30
0
41
1
10
81.9336051104185
20
18.4573647809777
30
0
0
SPLINE
5
174
100
AcDbEntity
8
1
62
256
6
ByLayer
370
13
48
1
60
0
100
AcDbSpline
70
4
71
3
72
13
73
9
40
0
40
0
40
0
40
0
40
0.458158564830406
40
0.54880640180688
40
0.579049697524341
40
0.648864922437118
40
0.942761974412809
40
1
40
1
40
1
40
1
41
1.02873803632981
10
81.7417101153546
20
17.5180483237179
30
0
41
1.02873803632981
10
81.6614803269715
20
17.5180483237179
30
0
41
1.02873803632981
10
81.5662922391009
20
17.5180483237179
30
0
41
1.02873803632981
10
81.4676586884692
20
17.5180483237179
30
0
41
1.02873803632981
10
81.4353518401884
20
17.5180483237179
30
0
41
1.02873803632981
10
81.3681215773338
20
17.5180483237179
30
0
41
1.02873803632981
10
81.2755820769093
20
17.5180483237179
30
0
41
1.02873803632981
10
81.182487986921
20
17.5180483237179
30
0
41
1.02873803632981
10
81.1669141153542
20
17.5180483237179
30
0
0
SPLINE
5
175
100
AcDbEntity
8
1
62
256
6
ByLayer
370
13
48
1
60
0
100
AcDbSpline
70
4
71
3
72
10
73
6
40
0
40
0
40
0
40
0
40
0.733714891909216
40
0.733714891909216
40
1
40
1
40
1
40
1
41
1
10
81.280714809526
20
20.4940986051334
30
0
41
1
10
81.1536959517913
20
20.4940870460959
30
0
41
1
10
81.0517349015897
20
20.4933860627805
30
0
41
1
10
80.7798954812936
20
20.4926743259293
30
0
41
1
10
80.6974492633605
20
20.4925315290453
30
0
41
1
10
80.6078911925978
20
20.4924206761201
30
0
0
SPLINE
5
176
100
AcDbEntity
8
1
62
256
6
ByLayer
370
13
48
1
60
0
100
AcDbSpline
70
4
71
3
72
14
73
10
40
0
40
0
40
0
40
0
40
0.1890911782716
40
0.1890911782716
40
0.594545589126888
40
0.594545589126888
40
0.852529613288246
40
0.852529613288246
40
1
40
1
40
1
40
1
41
1
10
81.9360945713493
20
18.4969963511723
30
0
41
1
10
81.8947871528968
20
18.6228750304909
30
0
41
1
10
81.8534794056748
20
18.7487535923303
30
0
41
1
10
81.7235973504345
20
19.1445439525463
30
0
41
1
10
81.6350216609066
20
19.4144552415499
30
0
41
1
10
81.4900851923814
20
19.8561060626561
30
0
41
1
10
81.4337249927862
20
20.0278458294724
30
0
41
1
10
81.3451481464885
20
20.2977565972008
30
0
41
1
10
81.3129313714097
20
20.3959275666319
30
0
41
1
10
81.280714809526
20
20.4940986051333
30
0
0
SPLINE
5
177
100
AcDbEntity
8
1
62
256
6
ByLayer
370
13
48
1
60
0
100
AcDbSpline
70
4
71
3
72
12
73
8
40
0
40
0
40
0
40
0
40
0.22557624021477
40
0.290900804854346
40
0.319198656081082
40
0.404015766048419
40
1
40
1
40
1
40
1
41
1.06414977016843
10
81.3509222974803
20
16.6707787598162
30
0
41
1.06414977016843
10
81.4097607560795
20
16.6707787598162
30
0
41
1.06414977016843
10
81.4758869569105
20
16.6707787598163
30
0
41
1.06414977016843
10
81.5341042904697
20
16.6707787598163
30
0
41
1.06414977016843
10
81.5664112197111
20
16.6707787598163
30
0
41
1.06414977016843
10
81.6955004427416
20
16.6707787598163
30
0
41
1.06414977016843
10
81.8224367643413
20
16.6707787598162
30
0
41
1.06414977016843
10
81.934715297502
20
16.6707787598162
30
0
0
SPLINE
5
178
100
AcDbEntity
8
1
62
256
6
ByLayer
370
13
48
1
60
0
100
AcDbSpline
70
4
71
3
72
16
73
12
40
0
40
0
40
0
40
0
40
0.150721569542188
40
0.150721569542188
40
0.437297615772342
40
0.437297615772342
40
0.625365889966011
40
0.625365889966011
40
0.812594772013293
40
0.812594772013293
40
1
40
1
40
1
40
1
41
1
10
81.9336051104185
20
18.4573647809777
30
0
41
1
10
81.9344435186199
20
18.4583361951746
30
0
41
1
10
81.9352221374723
20
18.4594659338591
30
0
41
1
10
81.937236397769
20
18.463196455416
30
0
41
1
10
81.9382913936209
20
18.4662750395836
30
0
41
1
10
81.9392873940361
20
18.4723799556828
30
0
41
1
10
81.9394897247495
20
18.4751137566659
30
0
41
1
10
81.939391226388
20
18.4809583301751
30
0
41
1
10
81.9390874432197
20
18.4841370167749
30
0
41
1
10
81.9379616873357
20
18.4905468950708
30
0
41
1
10
81.9371236568253
20
18.4938603546548
30
0
41
1
10
81.9360945713512
20
18.4969963511719
30
0
0
SPLINE
5
179
100
AcDbEntity
8
1
62
256
6
ByLayer
370
13
48
1
60
0
100
AcDbSpline
70
4
71
3
72
14
73
10
40
0
40
0
40
0
40
0
40
0.510116168737575
40
0.754010520661968
40
0.799151320543289
40
0.829295878945989
40
0.879185332352462
40
0.968603435241518
40
1
40
1
40
1
40
1
41
1
10
82.023397301578
20
17.1318857898185
30
0
41
1
10
81.9320868089311
20
17.1318857898185
30
0
41
1
10
81.7984386785123
20
17.1318857898185
30
0
41
1
10
81.6606570426609
20
17.1318857898185
30
0
41
1
10
81.605918907834
20
17.1318857898185
30
0
41
1
10
81.5845933380922
20
17.1318857898185
30
0
41
1
10
81.5559861124143
20
17.1318857898185
30
0
41
1
10
81.5239679215316
20
17.1318857898185
30
0
41
1
10
81.4993203515838
20
17.1318857898185
30
0
41
1
10
81.4927823015786
20
17.1318857898185
30
0
0
SPLINE
5
17A
100
AcDbEntity
8
1
62
256
6
ByLayer
370
13
48
1
60
0
100
AcDbSpline
70
4
71
3
72
14
73
10
40
0
40
0
40
0
40
0
40
0.459172565585281
40
0.580969253200829
40
0.611418182692244
40
0.651443107065018
40
0.721997502955141
40
0.948278651975343
40
1
40
1
40
1
40
1
41
1
10
81.7417105270662
20
16.4819516762819
30
0
41
1
10
81.6612842654376
20
16.4819516762819
30
0
41
1
10
81.5607084903375
20
16.4819516762819
30
0
41
1
10
81.4573033163531
20
16.4819516762819
30
0
41
1
10
81.4250570592283
20
16.4819516762819
30
0
41
1
10
81.4006965374264
20
16.4819516762819
30
0
41
1
10
81.3373863383421
20
16.4819516762819
30
0
41
1
10
81.2582434713781
20
16.4819516762819
30
0
41
1
10
81.1857618996752
20
16.4819516762819
30
0
41
1
10
81.1719655270685
20
16.4819516762819
30
0
0
SPLINE
5
17B
100
AcDbEntity
8
1
62
256
6
ByLayer
370
13
48
1
60
0
100
AcDbSpline
70
4
71
3
72
14
73
10
40
0
40
0
40
0
40
0
40
0.252345539055063
40
0.252345539055063
40
0.632938572851773
40
0.632938572851773
40
0.999952903080232
40
0.999952903080232
40
1
40
1
40
1
40
1
41
1
10
81.8907146111197
20
15.5931065739173
30
0
41
1
10
81.8583464177758
20
15.6342970173981
30
0
41
1
10
81.8299801301326
20
15.6859018374561
30
0
41
1
10
81.771792926539
20
15.8368790386353
30
0
41
1
10
81.7477801760788
20
15.9498623206556
30
0
41
1
10
81.726598760214
20
16.1993572734136
30
0
41
1
10
81.7282864749303
20
16.3380183734867
30
0
41
1
10
81.7417038840269
20
16.4819144792349
30
0
41
1
10
81.7417056185757
20
16.4819330776838
30
0
41
1
10
81.7417073529641
20
16.4819516762819
30
0
0
SPLINE
5
17C
100
AcDbEntity
8
1
62
256
6
ByLayer
370
13
48
1
60
0
100
AcDbSpline
70
4
71
3
72
16
73
12
40
0
40
0
40
0
40
0
40
0.191646982092306
40
0.191646982092306
40
0.383095098044746
40
0.383095098044746
40
0.575576450026236
40
0.575576450026236
40
0.871914667893785
40
0.871914667893785
40
1
40
1
40
1
40
1
41
1
10
81.9011764527839
20
15.3965957490104
30
0
41
1
10
81.9063267186612
20
15.4122903970853
30
0
41
1
10
81.910518870136
20
15.4288744976192
30
0
41
1
10
81.9161476562372
20
15.4609517408496
30
0
41
1
10
81.9176649590668
20
15.4768566184151
30
0
41
1
10
81.9181579301469
20
15.50611864528
30
0
41
1
10
81.9171461978361
20
15.5198125137802
30
0
41
1
10
81.9121444303002
20
15.5506071331137
30
0
41
1
10
81.9068085936273
20
15.566189283319
30
0
41
1
10
81.8972681262234
20
15.5839576529741
30
0
41
1
10
81.8940976515433
20
15.5888014545717
30
0
41
1
10
81.8907146111197
20
15.5931065739173
30
0
0
SPLINE
5
17D
100
AcDbEntity
8
1
62
256
6
ByLayer
370
13
48
1
60
0
100
AcDbSpline
70
4
71
3
72
12
73
8
40
0
40
0
40
0
40
0
40
0.199733146687688
40
0.199733146687688
40
0.599866573330191
40
0.599866573330191
40
1
40
1
40
1
40
1
41
1
10
81.280714809526
20
13.5059013948664
30
0
41
1
10
81.322023900675
20
13.6317793948929
30
0
41
1
10
81.3633333395415
20
13.7576572823838
30
0
41
1
10
81.4873997982167
20
14.1357113677405
30
0
41
1
10
81.5701569064937
20
14.3878875685931
30
0
41
1
10
81.7356686390623
20
14.892240923033
30
0
41
1
10
81.8184232704633
20
15.1444180741922
30
0
41
1
10
81.9011764527839
20
15.3965957490104
30
0
0
SPLINE
5
17E
100
AcDbEntity
8
1
62
256
6
ByLayer
370
13
48
1
60
0
100
AcDbSpline
70
4
71
3
72
10
73
6
40
0
40
0
40
0
40
0
40
0.733714891906026
40
0.733714891906026
40
1
40
1
40
1
40
1
41
1
10
81.280714809526
20
13.5059013948664
30
0
41
1
10
81.1536959517913
20
13.5059129539039
30
0
41
1
10
81.0517349015897
20
13.5066139372193
30
0
41
1
10
80.7798954812924
20
13.5073256740705
30
0
41
1
10
80.6974492633578
20
13.5074684709545
30
0
41
1
10
80.6078911925934
20
13.5075793238797
30
0
0
SPLINE
5
17F
100
AcDbEntity
8
1
62
256
6
ByLayer
370
13
48
1
60
0
100
AcDbSpline
70
4
71
3
72
9
73
5
40
0
40
0
40
0
40
0
40
0.499987166107224
40
1
40
1
40
1
40
1
41
1
10
85.7358515245868
20
14.2853993713631
30
0
41
1
10
85.735112873685
20
14.3697233749216
30
0
41
1
10
85.7336355339616
20
14.5383757109705
30
0
41
1
10
85.7065452143028
20
14.6749401161815
30
0
41
1
10
85.6929997067992
20
14.7432240714399
30
0
0
SPLINE
5
180
100
AcDbEntity
8
1
62
256
6
ByLayer
370
13
48
1
60
0
100
AcDbSpline
70
4
71
3
72
9
73
5
40
0
40
0
40
0
40
0
40
0.50001998382009
40
1
40
1
40
1
40
1
41
1
10
85.6929997067989
20
19.2567759285598
30
0
41
1
10
85.706545384621
20
19.3250609535758
30
0
41
1
10
85.733635657531
20
19.4616255454432
30
0
41
1
10
85.7351129287376
20
19.6302778491176
30
0
41
1
10
85.7358515348193
20
19.7146006306374
30
0
0
SPLINE
5
181
100
AcDbEntity
8
1
62
256
6
ByLayer
370
13
48
1
60
0
100
AcDbSpline
70
4
71
3
72
8
73
4
40
0
40
0
40
0
40
0
40
1
40
1
40
1
40
1
41
1
10
83.7166367203348
20
18.6171312286347
30
0
41
1
10
83.7247849196231
20
18.670898186145
30
0
41
1
10
83.7408534014279
20
18.7244304215995
30
0
41
1
10
83.7598148683963
20
18.7760671263656
30
0
0
SPLINE
5
182
100
AcDbEntity
8
1
62
256
6
ByLayer
370
13
48
1
60
0
100
AcDbSpline
70
4
71
3
72
14
73
10
40
0
40
0
40
0
40
0
40
0.0522534416694051
40
0.0522534416694051
40
0.25470718294001
40
0.25470718294001
40
0.763053854899236
40
0.763053854899236
40
1
40
1
40
1
40
1
41
1
10
84.1424957179658
20
14.7449554545052
30
0
41
1
10
84.1443558499732
20
14.7537856446301
30
0
41
1
10
84.1457794154217
20
14.7627126389688
30
0
41
1
10
84.1508308711779
20
14.8060871884723
30
0
41
1
10
84.1494086766348
20
14.8411722610415
30
0
41
1
10
84.1343451292661
20
14.9604150301313
30
0
41
1
10
84.1060649274091
20
15.0435143392301
30
0
41
1
10
84.04917757437
20
15.1546677620461
30
0
41
1
10
84.0282957786636
20
15.1889608741791
30
0
41
1
10
84.005075483643
20
15.2214246526442
30
0
0
SPLINE
5
183
100
AcDbEntity
8
1
62
256
6
ByLayer
370
13
48
1
60
0
100
AcDbSpline
70
4
71
3
72
12
73
8
40
0
40
0
40
0
40
0
40
0.762936217559301
40
0.762936217559301
40
0.954977620782124
40
0.954977620782124
40
1
40
1
40
1
40
1
41
1
10
83.8827360582453
20
15.0958781575401
30
0
41
1
10
83.9578575856401
20
15.0226756002796
30
0
41
1
10
84.0244049012721
20
14.9366333171782
30
0
41
1
10
84.0777911694097
20
14.8162450680035
30
0
41
1
10
84.0872163346664
20
14.7905358176113
30
0
41
1
10
84.0917300696157
20
14.7576815148585
30
0
41
1
10
84.092238774591
20
14.7513136792871
30
0
41
1
10
84.092238774591
20
14.7449554545052
30
0
0
SPLINE
5
184
100
AcDbEntity
8
1
62
256
6
ByLayer
370
13
48
1
60
0
100
AcDbSpline
70
4
71
3
72
14
73
10
40
0
40
0
40
0
40
0
40
0.0208568539511325
40
0.0208568539511325
40
0.436580178714997
40
0.436580178714997
40
0.843341619893682
40
0.843341619893682
40
1
40
1
40
1
40
1
41
1
10
83.5183760001022
20
15.7378484424159
30
0
41
1
10
83.5200985070743
20
15.7372173060826
30
0
41
1
10
83.5218208437706
20
15.736566659466
30
0
41
1
10
83.5574149090004
20
15.7227188171654
30
0
41
1
10
83.591652986807
20
15.7016432845696
30
0
41
1
10
83.6540893918445
20
15.6480022244558
30
0
41
1
10
83.683288092784
20
15.6149273908289
30
0
41
1
10
83.718013624905
20
15.5637781758877
30
0
41
1
10
83.7272055282833
20
15.5487642085974
30
0
41
1
10
83.7357216398563
20
15.5332869241633
30
0
0
SPLINE
5
185
100
AcDbEntity
8
1
62
256
6
ByLayer
370
13
48
1
60
0
100
AcDbSpline
70
4
71
3
72
8
73
4
40
0
40
0
40
0
40
0
40
1
40
1
40
1
40
1
41
1
10
83.7598148683963
20
15.2239328736342
30
0
41
1
10
83.7408534033538
20
15.2755695731558
30
0
41
1
10
83.7247849230835
20
15.3291018028093
30
0
41
1
10
83.7166367228438
20
15.3828687548105
30
0
0
SPLINE
5
186
100
AcDbEntity
8
1
62
256
6
ByLayer
370
13
48
1
60
0
100
AcDbSpline
70
4
71
3
72
8
73
4
40
0
40
0
40
0
40
0
40
1
40
1
40
1
40
1
41
1
10
83.6538636595094
20
15.4042261093883
30
0
41
1
10
83.6246499597028
20
15.3685687741767
30
0
41
1
10
83.5900764624505
20
15.3384026760166
30
0
41
1
10
83.5605398053107
20
15.3089336244808
30
0
0
SPLINE
5
187
100
AcDbEntity
8
1
62
256
6
ByLayer
370
13
48
1
60
0
100
AcDbSpline
70
4
71
3
72
12
73
8
40
0
40
0
40
0
40
0
40
0.281349390248214
40
0.281349390248214
40
0.798363515779002
40
0.798363515779002
40
1
40
1
40
1
40
1
41
1
10
84.0050754836492
20
18.7785753473524
30
0
41
1
10
84.0326397317342
20
18.8171123100647
30
0
41
1
10
84.056920041319
20
18.8582535606764
30
0
41
1
10
84.114566378495
20
18.9790393236091
30
0
41
1
10
84.1412788733221
20
19.0647007040112
30
0
41
1
10
84.1504101523156
20
19.1859984046428
30
0
41
1
10
84.1496207195868
20
19.2212216131212
30
0
41
1
10
84.1424957179498
20
19.2550445454919
30
0
0
SPLINE
5
188
100
AcDbEntity
8
1
62
256
6
ByLayer
370
13
48
1
60
0
100
AcDbSpline
70
4
71
3
72
12
73
8
40
0
40
0
40
0
40
0
40
0.186150062942691
40
0.186150062942691
40
0.713926368642712
40
0.713926368642712
40
1
40
1
40
1
40
1
41
1
10
84.092238774591
20
19.2550445454904
30
0
41
1
10
84.0922387745901
20
19.2292528633602
30
0
41
1
10
84.084596967445
20
19.2036105538624
30
0
41
1
10
84.0492135996992
20
19.11159818818
30
0
41
1
10
84.0079713338925
20
19.0494466858235
30
0
41
1
10
83.9378885592937
20
18.9614392054322
30
0
41
1
10
83.9111786017928
20
18.9318378247471
30
0
41
1
10
83.8827360582453
20
18.9041218424596
30
0
0
SPLINE
5
189
100
AcDbEntity
8
1
62
256
6
ByLayer
370
13
48
1
60
0
100
AcDbSpline
70
4
71
3
72
14
73
10
40
0
40
0
40
0
40
0
40
0.0346770590765716
40
0.0346770590765716
40
0.137105666201265
40
0.137105666201265
40
0.568100930135296
40
0.568100930135296
40
1
40
1
40
1
40
1
41
1
10
81.3940993087699
20
20.5243288478567
30
0
41
1
10
81.3924287567857
20
20.5239509522772
30
0
41
1
10
81.3907663943884
20
20.5235730226911
30
0
41
1
10
81.3841633026305
20
20.5220642715849
30
0
41
1
10
81.3792897303549
20
20.5209335895432
30
0
41
1
10
81.3546951562022
20
20.5151380190011
30
0
41
1
10
81.3363002986362
20
20.5104894209953
30
0
41
1
10
81.3053685980576
20
20.5019926223405
30
0
41
1
10
81.2924178748274
20
20.4980288373704
30
0
41
1
10
81.2830989048216
20
20.4946873892766
30
0
0
SPLINE
5
18A
100
AcDbEntity
8
1
62
256
6
ByLayer
370
13
48
1
60
0
100
AcDbSpline
70
4
71
3
72
8
73
4
40
0
40
0
40
0
40
0
40
1
40
1
40
1
40
1
41
1
10
81.2830989048216
20
20.4946873892766
30
0
41
1
10
81.2823029068517
20
20.4944019729809
30
0
41
1
10
81.281506528963
20
20.4942063451442
30
0
41
1
10
81.280714809526
20
20.4940986051333
30
0
0
SPLINE
5
18B
100
AcDbEntity
8
1
62
256
6
ByLayer
370
13
48
1
60
0
100
AcDbSpline
70
4
71
3
72
14
73
10
40
0
40
0
40
0
40
0
40
0.0502974100590629
40
0.0502974100590629
40
0.267469442214396
40
0.267469442214396
40
0.672109172034978
40
0.672109172034978
40
1
40
1
40
1
40
1
41
1
10
83.6507849670985
20
18.4269018174648
30
0
41
1
10
83.6526165082332
20
18.4298113360248
30
0
41
1
10
83.6544081234206
20
18.4327455645148
30
0
41
1
10
83.6637061431219
20
18.4484510855785
30
0
41
1
10
83.6704913354918
20
18.4616498039947
30
0
41
1
10
83.6877278716901
20
18.5000623235852
30
0
41
1
10
83.6964573006152
20
18.5260045939971
30
0
41
1
10
83.7089253018289
20
18.5735967944202
30
0
41
1
10
83.7133219398538
20
18.5952582165782
30
0
41
1
10
83.7166367203348
20
18.6171312286347
30
0
0
SPLINE
5
18C
100
AcDbEntity
8
1
62
256
6
ByLayer
370
13
48
1
60
0
100
AcDbSpline
70
4
71
3
72
8
73
4
40
0
40
0
40
0
40
0
40
1
40
1
40
1
40
1
41
1
10
83.7166367228436
20
15.3828687548105
30
0
41
1
10
83.7113976163849
20
15.4174396756531
30
0
41
1
10
83.70351739562
20
15.4515604960465
30
0
41
1
10
83.6922935352752
20
15.4846194116407
30
0
0
SPLINE
5
18D
100
AcDbEntity
8
1
62
256
6
ByLayer
370
13
48
1
60
0
100
AcDbSpline
70
4
71
3
72
8
73
4
40
0
40
0
40
0
40
0
40
1
40
1
40
1
40
1
41
1
10
81.280714809526
20
13.5059013948664
30
0
41
1
10
81.281506528963
20
13.5057936548555
30
0
41
1
10
81.2823029068517
20
13.5055980270189
30
0
41
1
10
81.2830989048216
20
13.5053126107231
30
0
0
SPLINE
5
18E
100
AcDbEntity
8
1
62
256
6
ByLayer
370
13
48
1
60
0
100
AcDbSpline
70
4
71
3
72
12
73
8
40
0
40
0
40
0
40
0
40
0.494444942502697
40
0.494444942502697
40
0.965286748706642
40
0.965286748706642
40
1
40
1
40
1
40
1
41
1
10
81.2830989048216
20
13.5053126107231
30
0
41
1
10
81.2937562872507
20
13.5014912559833
30
0
41
1
10
81.3092247412732
20
13.4968415513673
30
0
41
1
10
81.3455189676904
20
13.4871292634113
30
0
41
1
10
81.3666465889884
20
13.4819381506212
30
0
41
1
10
81.3907663943884
20
13.4764269773088
30
0
41
1
10
81.3924287567857
20
13.4760490477226
30
0
41
1
10
81.3940993087699
20
13.4756711521431
30
0
0
SPLINE
5
18F
100
AcDbEntity
8
1
62
256
6
ByLayer
370
13
48
1
60
0
100
AcDbSpline
70
4
71
3
72
8
73
4
40
0
40
0
40
0
40
0
40
1
40
1
40
1
40
1
41
1
10
84.1742773973787
20
19.289125266962
30
0
41
1
10
84.1638385588639
20
19.2775723103021
30
0
41
1
10
84.1532465978896
20
19.2661931607427
30
0
41
1
10
84.1424957179636
20
19.2550445454929
30
0
0
SPLINE
5
190
100
AcDbEntity
8
1
62
256
6
ByLayer
370
13
48
1
60
0
100
AcDbSpline
70
4
71
3
72
8
73
4
40
0
40
0
40
0
40
0
40
1
40
1
40
1
40
1
41
1
10
84.1424957179655
20
14.7449554545049
30
0
41
1
10
84.1532465978909
20
14.7338068392557
30
0
41
1
10
84.1638385588645
20
14.722427689697
30
0
41
1
10
84.1742773973787
20
14.7108747330378
30
0
0
SPLINE
5
191
100
AcDbEntity
8
1
62
256
6
ByLayer
370
13
48
1
60
0
100
AcDbSpline
70
4
71
3
72
8
73
4
40
0
40
0
40
0
40
0
40
1
40
1
40
1
40
1
41
1
10
85.9181380764028
20
14.2547641344335
30
0
41
1
10
85.9151124310577
20
14.2733772424069
30
0
41
1
10
85.9111364451673
20
14.2920526286656
30
0
41
1
10
85.9060911096121
20
14.310792992716
30
0
0
SPLINE
5
192
100
AcDbEntity
8
1
62
256
6
ByLayer
370
13
48
1
60
0
100
AcDbSpline
70
4
71
3
72
10
73
6
40
0
40
0
40
0
40
0
40
0.498825078318937
40
0.750907424109889
40
1
40
1
40
1
40
1
41
1
10
85.9060911096122
20
14.310792992716
30
0
41
1
10
85.8797362654379
20
14.3903100840759
30
0
41
1
10
85.840062943041
20
14.5100113117027
30
0
41
1
10
85.7598566968866
20
14.6519375927897
30
0
41
1
10
85.7151965631517
20
14.7129165022286
30
0
41
1
10
85.692999706784
20
14.7432240714425
30
0
0
SPLINE
5
193
100
AcDbEntity
8
1
62
256
6
ByLayer
370
13
48
1
60
0
100
AcDbSpline
70
4
71
3
72
10
73
6
40
0
40
0
40
0
40
0
40
0.564318086301444
40
0.564318086301444
40
1
40
1
40
1
40
1
41
1
10
83.6922935352752
20
15.4846194116407
30
0
41
1
10
83.6810123076736
20
15.4731551343623
30
0
41
1
10
83.6737211271851
20
15.4578241557161
30
0
41
1
10
83.6624983211971
20
15.4299602069956
30
0
41
1
10
83.6581046377189
20
15.4172167662601
30
0
41
1
10
83.6538636595093
20
15.4042261093883
30
0
0
SPLINE
5
194
100
AcDbEntity
8
1
62
256
6
ByLayer
370
13
48
1
60
0
100
AcDbSpline
70
4
71
3
72
14
73
10
40
0
40
0
40
0
40
0
40
0.0215239749787562
40
0.0215239749787562
40
0.20303165221329
40
0.20303165221329
40
0.601492571017324
40
0.601492571017324
40
1
40
1
40
1
40
1
41
1
10
83.5183760001
20
15.7378484424175
30
0
41
1
10
83.519728123274
20
15.7370794001216
30
0
41
1
10
83.5210808507634
20
15.7362903058645
30
0
41
1
10
83.533952311179
20
15.7285769203415
30
0
41
1
10
83.5454238308846
20
15.7201706790658
30
0
41
1
10
83.5809684061483
20
15.6892158488901
30
0
41
1
10
83.6045272970275
20
15.6610565679589
30
0
41
1
10
83.6462052280569
20
15.5954165137906
30
0
41
1
10
83.6648982820716
20
15.5570297240319
30
0
41
1
10
83.6800551102715
20
15.5162871095627
30
0
0
SPLINE
5
195
100
AcDbEntity
8
1
62
256
6
ByLayer
370
13
48
1
60
0
100
AcDbSpline
70
4
71
3
72
8
73
4
40
0
40
0
40
0
40
0
40
1
40
1
40
1
40
1
41
1
10
83.6922935352733
20
15.4846194116517
30
0
41
1
10
83.6880723737526
20
15.4952252553597
30
0
41
1
10
83.68395397567
20
15.5058066866312
30
0
41
1
10
83.6800551102706
20
15.5162871095628
30
0
0
SPLINE
5
196
100
AcDbEntity
8
1
62
256
6
ByLayer
370
13
48
1
60
0
100
AcDbSpline
70
4
71
3
72
14
73
10
40
0
40
0
40
0
40
0
40
0.167758010348712
40
0.167758010348712
40
0.660444718852484
40
0.660444718852484
40
0.907730035774356
40
0.907730035774356
40
1
40
1
40
1
40
1
41
1
10
80.5983226031882
20
13.4917696433913
30
0
41
1
10
80.6546925831137
20
13.4918743808209
30
0
41
1
10
80.7080995243851
20
13.4920089584883
30
0
41
1
10
80.9031117882497
20
13.492701229829
30
0
41
1
10
81.0132432408137
20
13.4922678232504
30
0
41
1
10
81.1432692139489
20
13.4946498954872
30
0
41
1
10
81.1868223093748
20
13.493927744617
30
0
41
1
10
81.2467975687154
20
13.4939162151593
30
0
41
1
10
81.2630953662013
20
13.493914425035
30
0
41
1
10
81.2793931276165
20
13.4939125570517
30
0
0
SPLINE
5
197
100
AcDbEntity
8
1
62
256
6
ByLayer
370
13
48
1
60
0
100
AcDbSpline
70
4
71
3
72
16
73
12
40
0
40
0
40
0
40
0
40
0.247231582710593
40
0.247231582710593
40
0.496771484408282
40
0.496771484408282
40
0.621880001972816
40
0.621880001972816
40
0.74698851953735
40
0.74698851953735
40
1
40
1
40
1
40
1
41
1
10
85.692999706784
20
19.2567759285573
30
0
41
1
10
85.7156509561783
20
19.2854452820739
30
0
41
1
10
85.7376207484523
20
19.316651277947
30
0
41
1
10
85.7792315997706
20
19.3829311698777
30
0
41
1
10
85.7988959705048
20
19.4180529038392
30
0
41
1
10
85.8264465515901
20
19.4735488910891
30
0
41
1
10
85.8352307122089
20
19.4923562224008
30
0
41
1
10
85.8518912317203
20
19.5304057916947
30
0
41
1
10
85.859767590613
20
19.5496480296771
30
0
41
1
10
85.8820860977563
20
19.6082871238848
30
0
41
1
10
85.8950279391842
20
19.6481142474694
30
0
41
1
10
85.9060911257014
20
19.689207067045
30
0
0
SPLINE
5
198
100
AcDbEntity
8
1
62
256
6
ByLayer
370
13
48
1
60
0
100
AcDbSpline
70
4
71
3
72
8
73
4
40
0
40
0
40
0
40
0
40
1
40
1
40
1
40
1
41
1
10
81.7417132870556
20
16.4819516762819
30
0
41
1
10
81.7767997025168
20
16.5029010695807
30
0
41
1
10
81.8516514302681
20
16.5122325269732
30
0
41
1
10
81.9263747345052
20
16.5049720358184
30
0
0
SPLINE
5
199
100
AcDbEntity
8
1
62
256
6
ByLayer
370
13
48
1
60
0
100
AcDbSpline
70
4
71
3
72
8
73
4
40
0
40
0
40
0
40
0
40
1
40
1
40
1
40
1
41
1
10
85.9060911257014
20
19.689207067045
30
0
41
1
10
85.9111364642405
20
19.7079474520843
30
0
41
1
10
85.9151124333535
20
19.7266227717161
30
0
41
1
10
85.9181380764028
20
19.7452358655663
30
0
0
SPLINE
5
19A
100
AcDbEntity
8
1
62
256
6
ByLayer
370
13
48
1
60
0
100
AcDbSpline
70
4
71
3
72
14
73
10
40
0
40
0
40
0
40
0
40
0.167758010348708
40
0.167758010348708
40
0.660444718852486
40
0.660444718852486
40
0.907730035774361
40
0.907730035774361
40
1
40
1
40
1
40
1
41
1
10
80.5983226031882
20
20.5082303566085
30
0
41
1
10
80.6546925831137
20
20.5081256191789
30
0
41
1
10
80.7080995243851
20
20.5079910415115
30
0
41
1
10
80.9031117882497
20
20.5072987701708
30
0
41
1
10
81.0132432408137
20
20.5077321767494
30
0
41
1
10
81.1432692139489
20
20.5053501045126
30
0
41
1
10
81.1868223093748
20
20.5060722553828
30
0
41
1
10
81.2467975687154
20
20.5060837848405
30
0
41
1
10
81.2630953662013
20
20.5060855749648
30
0
41
1
10
81.2793931276165
20
20.5060874429481
30
0
0
SPLINE
5
19B
100
AcDbEntity
8
1
62
256
6
ByLayer
370
13
48
1
60
0
100
AcDbSpline
70
4
71
3
72
14
73
10
40
0
40
0
40
0
40
0
40
0.0346770592917861
40
0.0346770592917861
40
0.137105666621826
40
0.137105666621826
40
0.568100930750136
40
0.568100930750136
40
1
40
1
40
1
40
1
41
1
10
81.3940993087699
20
20.5243288478567
30
0
41
1
10
81.3924050738197
20
20.5240995874865
30
0
41
1
10
81.3907190263244
20
20.5238703064861
30
0
41
1
10
81.3840213801605
20
20.5229549826346
30
0
41
1
10
81.3790769473225
20
20.5222690243852
30
0
41
1
10
81.3541191611507
20
20.518752987749
30
0
41
1
10
81.3354329731733
20
20.5159327921883
30
0
41
1
10
81.3039687734401
20
20.5107779830273
30
0
41
1
10
81.2907696377185
20
20.5083732471226
30
0
41
1
10
81.2812412574921
20
20.5063460683798
30
0
0
SPLINE
5
19C
100
AcDbEntity
8
1
62
256
6
ByLayer
370
13
48
1
60
0
100
AcDbSpline
70
4
71
3
72
12
73
8
40
0
40
0
40
0
40
0
40
0.259245707983027
40
0.259245707983027
40
0.520290286843466
40
0.520290286843466
40
1
40
1
40
1
40
1
41
1
10
81.2812412574921
20
20.5063460683798
30
0
41
1
10
81.2812421282611
20
20.5187599567823
30
0
41
1
10
81.2812429990583
20
20.5311738451848
30
0
41
1
10
81.2812447467515
20
20.5560877602811
30
0
41
1
10
81.2812456236478
20
20.5685877869749
30
0
41
1
10
81.2812481120577
20
20.6040585424458
30
0
41
1
10
81.281249723639
20
20.6270292712228
30
0
41
1
10
81.2812513353167
20
20.6499999999999
30
0
0
SPLINE
5
19D
100
AcDbEntity
8
1
62
256
6
ByLayer
370
13
48
1
60
0
100
AcDbSpline
70
4
71
3
72
12
73
8
40
0
40
0
40
0
40
0
40
0.261044578860437
40
0.261044578860437
40
0.522089157720878
40
0.522089157720878
40
1
40
1
40
1
40
1
41
1
10
81.2812513353167
20
13.3499999999999
30
0
41
1
10
81.2812504582869
20
13.3625000266937
30
0
41
1
10
81.2812495812856
20
13.3750000533875
30
0
41
1
10
81.2812478273401
20
13.400000106775
30
0
41
1
10
81.281246950396
20
13.4125001334689
30
0
41
1
10
81.2812444680552
20
13.4478847506484
30
0
41
1
10
81.2812428627259
20
13.4707693411342
30
0
41
1
10
81.2812412574921
20
13.4936539316199
30
0
0
SPLINE
5
19E
100
AcDbEntity
8
1
62
256
6
ByLayer
370
13
48
1
60
0
100
AcDbSpline
70
4
71
3
72
12
73
8
40
0
40
0
40
0
40
0
40
0.494444941835083
40
0.494444941835083
40
0.965286748489275
40
0.965286748489275
40
1
40
1
40
1
40
1
41
1
10
81.2812412574921
20
13.4936539316199
30
0
41
1
10
81.2921381261314
20
13.491335604691
30
0
41
1
10
81.3078979796109
20
13.4885147373534
30
0
41
1
10
81.3448008806745
20
13.4826225193722
30
0
41
1
10
81.3662538321784
20
13.4794731928838
30
0
41
1
10
81.3907190263243
20
13.4761296935138
30
0
41
1
10
81.3924050738197
20
13.4759004125133
30
0
41
1
10
81.3940993087699
20
13.4756711521431
30
0
0
SPLINE
5
19F
100
AcDbEntity
8
1
62
256
6
ByLayer
370
13
48
1
60
0
100
AcDbSpline
70
4
71
3
72
8
73
4
40
0
40
0
40
0
40
0
40
1
40
1
40
1
40
1
41
1
10
81.2812412574921
20
13.4936539316199
30
0
41
1
10
81.2806285235646
20
13.4938277772826
30
0
41
1
10
81.2800102440729
20
13.4939124863203
30
0
41
1
10
81.2793931276165
20
13.4939125570517
30
0
0
SPLINE
5
1A0
100
AcDbEntity
8
1
62
256
6
ByLayer
370
13
48
1
60
0
100
AcDbSpline
70
4
71
3
72
8
73
4
40
0
40
0
40
0
40
0
40
1
40
1
40
1
40
1
41
1
10
81.2793931276165
20
20.5060874429481
30
0
41
1
10
81.2800102440729
20
20.5060875136795
30
0
41
1
10
81.2806285235646
20
20.5061722227171
30
0
41
1
10
81.2812412574921
20
20.5063460683798
30
0
0
SPLINE
5
1A1
100
AcDbEntity
8
1
62
256
6
ByLayer
370
13
48
1
60
0
100
AcDbSpline
70
4
71
3
72
14
73
10
40
0
40
0
40
0
40
0
40
0.219834822265619
40
0.219834822265619
40
0.486725461333193
40
0.486725461333193
40
0.748207706768499
40
0.748207706768499
40
1
40
1
40
1
40
1
41
1
10
89.9740153631798
20
14.6376799009352
30
0
41
1
10
89.8992620906831
20
14.6481647257314
30
0
41
1
10
89.8244365332114
20
14.6581548046037
30
0
41
1
10
89.6585679362167
20
14.6785399912617
30
0
41
1
10
89.5674469232588
20
14.6883799205059
30
0
41
1
10
89.3868694326831
20
14.7055872750151
30
0
41
1
10
89.2974402079604
20
14.7133813593772
30
0
41
1
10
89.1222908896944
20
14.7317626163557
30
0
41
1
10
89.0364581069813
20
14.7421169174985
30
0
41
1
10
88.9514364249042
20
14.7569295100727
30
0
0
SPLINE
5
1A2
100
AcDbEntity
8
1
62
256
6
ByLayer
370
13
48
1
60
0
100
AcDbSpline
70
4
71
3
72
8
73
4
40
0
40
0
40
0
40
0
40
1
40
1
40
1
40
1
41
1
10
88.9514364248875
20
14.7569295100022
30
0
41
1
10
88.7069806101972
20
14.799525639771
30
0
41
1
10
88.4521407175934
20
14.8115629988346
30
0
41
1
10
88.2032796998848
20
14.8548018437538
30
0
0
SPLINE
5
1A3
100
AcDbEntity
8
1
62
256
6
ByLayer
370
13
48
1
60
0
100
AcDbSpline
70
4
71
3
72
10
73
6
40
0
40
0
40
0
40
0
40
0.999924310112512
40
0.999924310112512
40
1
40
1
40
1
40
1
41
1
10
88.2032796998848
20
14.8548018437538
30
0
41
1
10
87.9423957863874
20
14.8965212073246
30
0
41
1
10
87.6924456349624
20
14.9976532629426
30
0
41
1
10
87.4423595994362
20
15.058274915532
30
0
41
1
10
87.4423406704388
20
15.0582795036455
30
0
41
1
10
87.4423217414746
20
15.0582840919671
30
0
0
SPLINE
5
1A4
100
AcDbEntity
8
1
62
256
6
ByLayer
370
13
48
1
60
0
100
AcDbSpline
70
4
71
3
72
8
73
4
40
0
40
0
40
0
40
0
40
1
40
1
40
1
40
1
41
1
10
88.2032796998849
20
19.145198156246
30
0
41
1
10
88.452138912574
20
19.1884366875482
30
0
41
1
10
88.7069768898564
20
19.2004742273993
30
0
41
1
10
88.9514310766263
20
19.2430695580752
30
0
0
SPLINE
5
1A5
100
AcDbEntity
8
1
62
256
6
ByLayer
370
13
48
1
60
0
100
AcDbSpline
70
4
71
3
72
10
73
6
40
0
40
0
40
0
40
0
40
7.56898873177E-05
40
7.56898873177E-05
40
1
40
1
40
1
40
1
41
1
10
87.4423217414746
20
18.9417159080327
30
0
41
1
10
87.4423406704388
20
18.9417204963537
30
0
41
1
10
87.4423595994362
20
18.9417250844661
30
0
41
1
10
87.6924456349625
20
19.0023467370555
30
0
41
1
10
87.9423957863874
20
19.1034787926749
30
0
41
1
10
88.2032796998848
20
19.145198156246
30
0
0
SPLINE
5
1A6
100
AcDbEntity
8
1
62
256
6
ByLayer
370
13
48
1
60
0
100
AcDbSpline
70
4
71
3
72
14
73
10
40
0
40
0
40
0
40
0
40
0.251796244686265
40
0.251796244686265
40
0.513277109166376
40
0.513277109166376
40
0.780166338715636
40
0.780166338715636
40
1
40
1
40
1
40
1
41
1
10
88.9514310766123
20
19.2430695581345
30
0
41
1
10
89.0364545063282
20
19.2578826452221
30
0
41
1
10
89.1222890897789
20
19.2682371947498
30
0
41
1
10
89.2974402079604
20
19.2866186406225
30
0
41
1
10
89.3868694326831
20
19.2944127249847
30
0
41
1
10
89.5674469232588
20
19.3116200794939
30
0
41
1
10
89.6585679362167
20
19.3214600087381
30
0
41
1
10
89.8244365332193
20
19.3418451953971
30
0
41
1
10
89.8992620906988
20
19.3518352742705
30
0
41
1
10
89.9740153632034
20
19.3623200990679
30
0
0
SPLINE
5
1A7
100
AcDbEntity
8
1
62
256
6
ByLayer
370
13
48
1
60
0
100
AcDbSpline
70
4
71
3
72
8
73
4
40
0
40
0
40
0
40
0
40
1
40
1
40
1
40
1
41
1
10
85.7379089848188
20
14.2547641344335
30
0
41
1
10
85.8056734375226
20
14.2547641344335
30
0
41
1
10
85.8693147441718
20
14.2547641344335
30
0
41
1
10
85.9181380764028
20
14.2547641344335
30
0
0
SPLINE
5
1A8
100
AcDbEntity
8
1
62
256
6
ByLayer
370
13
48
1
60
0
100
AcDbSpline
70
4
71
3
72
8
73
4
40
0
40
0
40
0
40
0
40
1
40
1
40
1
40
1
41
1
10
85.9181380764028
20
19.7452358655663
30
0
41
1
10
85.8693157003295
20
19.7452358655663
30
0
41
1
10
85.8056747646538
20
19.7452358655663
30
0
41
1
10
85.7379089848188
20
19.7452358655663
30
0
0
SPLINE
5
1A9
100
AcDbEntity
8
1
62
256
6
ByLayer
370
13
48
1
60
0
100
AcDbSpline
70
4
71
3
72
10
73
6
40
0
40
0
40
0
40
0
40
0.5
40
0.5
40
1
40
1
40
1
40
1
41
1
10
85.7358515533736
20
14.285399522314
30
0
41
1
10
85.7675922295585
20
14.2899050061059
30
0
41
1
10
85.798348716663
20
14.2943782348719
30
0
41
1
10
85.8557947547346
20
14.3029470893424
30
0
41
1
10
85.8824843057019
20
14.307042715047
30
0
41
1
10
85.9060911096122
20
14.310792992716
30
0
0
SPLINE
5
1AA
100
AcDbEntity
8
1
62
256
6
ByLayer
370
13
48
1
60
0
100
AcDbSpline
70
4
71
3
72
8
73
4
40
0
40
0
40
0
40
0
40
1
40
1
40
1
40
1
41
1
10
85.7358515866308
20
19.7146003589771
30
0
41
1
10
85.7993340509632
20
19.7055892439512
30
0
41
1
10
85.8588783527942
20
19.6967074811328
30
0
41
1
10
85.9060911257014
20
19.689207067045
30
0
0
SPLINE
5
1AB
100
AcDbEntity
8
1
62
256
6
ByLayer
370
13
48
1
60
0
100
AcDbSpline
70
4
71
3
72
12
73
8
40
0
40
0
40
0
40
0
40
0.0001134797033083
40
0.0001134797033083
40
0.999886520297476
40
0.999886520297476
40
1
40
1
40
1
40
1
41
1
10
87.3915119834346
20
15.0841021693124
30
0
41
1
10
87.3914930945233
20
15.0841062581964
30
0
41
1
10
87.3914742056297
20
15.0841103472946
30
0
41
1
10
87.2250413495536
20
15.1201367089205
30
0
41
1
10
87.0567554126585
20
15.1430933948575
30
0
41
1
10
86.8926177500078
20
15.1274901859012
30
0
41
1
10
86.8925991217349
20
15.1274884142995
30
0
41
1
10
86.8925804933016
20
15.1274866428684
30
0
0
SPLINE
5
1AC
100
AcDbEntity
8
1
62
256
6
ByLayer
370
13
48
1
60
0
100
AcDbSpline
70
4
71
3
72
14
73
10
40
0
40
0
40
0
40
0
40
0.0001134706106964
40
0.0001134706106964
40
0.852925731505219
40
0.852925731505219
40
0.999886529389493
40
0.999886529389493
40
1
40
1
40
1
40
1
41
1
10
86.8925804933016
20
18.8725133571314
30
0
41
1
10
86.8925991217349
20
18.8725115857
30
0
41
1
10
86.8926177500077
20
18.8725098140977
30
0
41
1
10
87.032642094072
20
18.859198858744
30
0
41
1
10
87.1757248692739
20
18.8732982383019
30
0
41
1
10
87.3421205103382
20
18.9054898229005
30
0
41
1
10
87.3667844857955
20
18.9105452706191
30
0
41
1
10
87.3914742056297
20
18.915889652709
30
0
41
1
10
87.3914930945233
20
18.9158937418047
30
0
41
1
10
87.3915119834346
20
18.9158978306874
30
0
0
SPLINE
5
1AD
100
AcDbEntity
8
1
62
256
6
ByLayer
370
13
48
1
60
0
100
AcDbSpline
70
4
71
3
72
20
73
16
40
0
40
0
40
0
40
0
40
0.0002523985781414
40
0.0002523985781414
40
0.0600353106136008
40
0.0600353106136008
40
0.244506986164252
40
0.244506986164252
40
0.268490368804345
40
0.268490368804345
40
0.558344453736516
40
0.558344453736516
40
0.999747601389828
40
0.999747601389828
40
1
40
1
40
1
40
1
41
1
10
81.934721506284
20
16.6707787598163
30
0
41
1
10
81.9347397028253
20
16.6707868937563
30
0
41
1
10
81.9347579019137
20
16.6707950223024
30
0
41
1
10
81.9390858436603
20
16.6727306854834
30
0
41
1
10
81.9433156162513
20
16.6749134282874
30
0
41
1
10
81.9597387624694
20
16.6846440540549
30
0
41
1
10
81.9708367793799
20
16.694344799806
30
0
41
1
10
81.9810720017565
20
16.7065550186548
30
0
41
1
10
81.982236854757
20
16.7080025059497
30
0
41
1
10
81.9968388285668
20
16.726877700282
30
0
41
1
10
82.0062876221087
20
16.7472353367046
30
0
41
1
10
82.02235749968
20
16.7998841838532
30
0
41
1
10
82.0255456314625
20
16.8343349737878
30
0
41
1
10
82.0233976204543
20
16.8680746566328
30
0
41
1
10
82.0233963575942
20
16.8680944333166
30
0
41
1
10
82.023395096667
20
16.8681142101813
30
0
0
SPLINE
5
1AE
100
AcDbEntity
8
1
62
256
6
ByLayer
370
13
48
1
60
0
100
AcDbSpline
70
4
71
3
72
8
73
4
40
0
40
0
40
0
40
0
40
1
40
1
40
1
40
1
41
1
10
82.0233973816196
20
16.8681258017525
30
0
41
1
10
82.0566998962753
20
16.8752180901914
30
0
41
1
10
82.1358430398209
20
16.8820951105741
30
0
41
1
10
82.2148035773893
20
16.8847577454776
30
0
0
SPLINE
5
1AF
100
AcDbEntity
8
1
62
256
6
ByLayer
370
13
48
1
60
0
100
AcDbSpline
70
4
71
3
72
8
73
4
40
0
40
0
40
0
40
0
40
1
40
1
40
1
40
1
41
1
10
81.934721506284
20
16.6707787598163
30
0
41
1
10
81.9537545915032
20
16.6642138124309
30
0
41
1
10
81.9907622341571
20
16.6181873700734
30
0
41
1
10
82.0266190361943
20
16.5565496862932
30
0
0
SPLINE
5
1B0
100
AcDbEntity
8
1
62
256
6
ByLayer
370
13
48
1
60
0
100
AcDbSpline
70
4
71
3
72
20
73
16
40
0
40
0
40
0
40
0
40
0.0002567678684849
40
0.0002567678684849
40
0.259738911617261
40
0.259738911617261
40
0.560182630599909
40
0.560182630599909
40
0.793923487219455
40
0.793923487219455
40
0.944512365992763
40
0.944512365992763
40
0.999743232164107
40
0.999743232164107
40
1
40
1
40
1
40
1
41
1
10
82.0233950973255
20
17.1318857898185
30
0
41
1
10
82.0233963582529
20
17.1319055666831
30
0
41
1
10
82.0233976211132
20
17.1319253433668
30
0
41
1
10
82.0246712660985
20
17.1519310006961
30
0
41
1
10
82.0240407628322
20
17.1720591379739
30
0
41
1
10
82.0182840636191
20
17.2143261619463
30
0
41
1
10
82.0124517234775
20
17.2367131023438
30
0
41
1
10
81.9958612206109
20
17.2733325350631
30
0
41
1
10
81.9862442605404
20
17.2886513713974
30
0
41
1
10
81.9659037135882
20
17.309897298862
30
0
41
1
10
81.9565498635507
20
17.317366790689
30
0
41
1
10
81.942633907435
20
17.3254368309144
30
0
41
1
10
81.9387391190648
20
17.3274243874516
30
0
41
1
10
81.9347579042992
20
17.3292049776974
30
0
41
1
10
81.9347397052108
20
17.3292131062435
30
0
41
1
10
81.9347215086695
20
17.3292212401835
30
0
0
SPLINE
5
1B1
100
AcDbEntity
8
1
62
256
6
ByLayer
370
13
48
1
60
0
100
AcDbSpline
70
4
71
3
72
8
73
4
40
0
40
0
40
0
40
0
40
1
40
1
40
1
40
1
41
1
10
81.9346984257777
20
17.3292212401835
30
0
41
1
10
81.9537675952714
20
17.3357603100347
30
0
41
1
10
81.9908365332531
20
17.3817588053972
30
0
41
1
10
82.0267336043412
20
17.4433931845909
30
0
0
SPLINE
5
1B2
100
AcDbEntity
8
1
62
256
6
ByLayer
370
13
48
1
60
0
100
AcDbSpline
70
4
71
3
72
8
73
4
40
0
40
0
40
0
40
0
40
1
40
1
40
1
40
1
41
1
10
82.0233955395156
20
17.1318927159982
30
0
41
1
10
82.0566979778709
20
17.1247974817627
30
0
41
1
10
82.1358407755472
20
17.1179128474687
30
0
41
1
10
82.2148009549572
20
17.115242353288
30
0
0
SPLINE
5
1B3
100
AcDbEntity
8
1
62
256
6
ByLayer
370
13
48
1
60
0
100
AcDbSpline
70
4
71
3
72
16
73
12
40
0
40
0
40
0
40
0
40
0.0004292466448139
40
0.0004292466448139
40
0.294995540453025
40
0.294995540453025
40
0.590162098851336
40
0.590162098851336
40
0.999570753355145
40
0.999570753355145
40
1
40
1
40
1
40
1
41
1
10
81.810335218479
20
16.599423036601
30
0
41
1
10
81.8103515478817
20
16.5994334404283
30
0
41
1
10
81.8103678770571
20
16.5994438445908
30
0
41
1
10
81.821590262342
20
16.6065935939978
30
0
41
1
10
81.8329078599423
20
16.6135993402224
30
0
41
1
10
81.8557737925892
20
16.6273476963068
30
0
41
1
10
81.8673247355524
20
16.6340910557012
30
0
41
1
10
81.8951314313702
20
16.6498468968965
30
0
41
1
10
81.9114832464944
20
16.658730549375
30
0
41
1
10
81.9280270354209
20
16.6673405223969
30
0
41
1
10
81.9280443644858
20
16.667349540222
30
0
41
1
10
81.9280616933605
20
16.667358558383
30
0
0
SPLINE
5
1B4
100
AcDbEntity
8
1
62
256
6
ByLayer
370
13
48
1
60
0
100
AcDbSpline
70
4
71
3
72
8
73
4
40
0
40
0
40
0
40
0
40
1
40
1
40
1
40
1
41
1
10
81.9280416347421
20
16.6673585583832
30
0
41
1
10
81.9471526517212
20
16.6608705324506
30
0
41
1
10
81.9841938634607
20
16.6150743921711
30
0
41
1
10
82.0200697603762
20
16.5536173119203
30
0
0
SPLINE
5
1B5
100
AcDbEntity
8
1
62
256
6
ByLayer
370
13
48
1
60
0
100
AcDbSpline
70
4
71
3
72
9
73
5
40
0
40
0
40
0
40
0
40
0.500249519203659
40
1
40
1
40
1
40
1
41
1
10
81.810335218479
20
16.599423036601
30
0
41
1
10
81.8258238932642
20
16.5934033143232
30
0
41
1
10
81.856785791658
20
16.5813698749158
30
0
41
1
10
81.9034488765695
20
16.5322037636698
30
0
41
1
10
81.9267687756893
20
16.5076329759357
30
0
0
SPLINE
5
1B6
100
AcDbEntity
8
1
62
256
6
ByLayer
370
13
48
1
60
0
100
AcDbSpline
70
4
71
3
72
16
73
12
40
0
40
0
40
0
40
0
40
0.0004292451117274
40
0.0004292451117274
40
0.295957543302525
40
0.295957543302525
40
0.591280712821276
40
0.591280712821276
40
0.999570754888295
40
0.999570754888295
40
1
40
1
40
1
40
1
41
1
10
81.9280616957537
20
17.3326414416168
30
0
41
1
10
81.9280443668791
20
17.3326504597778
30
0
41
1
10
81.9280270378141
20
17.3326594776029
30
0
41
1
10
81.9160791960747
20
17.3388775571256
30
0
41
1
10
81.9042401248697
20
17.3452336888453
30
0
41
1
10
81.8807680628534
20
17.3582271151581
30
0
41
1
10
81.8691327639713
20
17.3648654140905
30
0
41
1
10
81.8416613507871
20
17.3810123745083
30
0
41
1
10
81.8259152579562
20
17.3906509653248
30
0
41
1
10
81.8103678795821
20
17.400556155409
30
0
41
1
10
81.8103515504068
20
17.4005665595715
30
0
41
1
10
81.8103352210041
20
17.4005769633987
30
0
0
SPLINE
5
1B7
100
AcDbEntity
8
1
62
256
6
ByLayer
370
13
48
1
60
0
100
AcDbSpline
70
4
71
3
72
25
73
21
40
0
40
0
40
0
40
0
40
0.00390625
40
0.00390625
40
0.0625
40
0.125
40
0.125
40
0.25
40
0.3125
40
0.3125
40
0.375
40
0.375
40
0.5
40
0.5
40
0.625
40
0.625
40
0.75
40
0.75
40
0.9375
40
1
40
1
40
1
40
1
41
1
10
81.8103334889433
20
17.4005738566918
30
0
41
1
10
81.8104315710271
20
17.4005874110333
30
0
41
1
10
81.8105299560175
20
17.4006014432178
30
0
41
1
10
81.8121089360534
20
17.4008335889308
30
0
41
1
10
81.8153082966155
20
17.4015051402566
30
0
41
1
10
81.81877346094
20
17.4026217481981
30
0
41
1
10
81.8243310879151
20
17.4046950557855
30
0
41
1
10
81.8302843910779
20
17.4074566001774
30
0
41
1
10
81.8368275950714
20
17.4112442137508
30
0
41
1
10
81.8413233546055
20
17.4140017131707
30
0
41
1
10
81.8436460200306
20
17.415502071919
30
0
41
1
10
81.8507602657465
20
17.4203207369923
30
0
41
1
10
81.8556664607416
20
17.4239319689955
30
0
41
1
10
81.8657936734029
20
17.4319229540954
30
0
41
1
10
81.8710147210194
20
17.4363027803045
30
0
41
1
10
81.8817766627844
20
17.4458432264443
30
0
41
1
10
81.8873430786856
20
17.4510320222127
30
0
41
1
10
81.9012634845817
20
17.4646187763557
30
0
41
1
10
81.9125121985742
20
17.4763052126254
30
0
41
1
10
81.9239100187941
20
17.4890989936366
30
0
41
1
10
81.9267687774436
20
17.492367022258
30
0
0
SPLINE
5
1B8
100
AcDbEntity
8
1
62
256
6
ByLayer
370
13
48
1
60
0
100
AcDbSpline
70
4
71
3
72
8
73
4
40
0
40
0
40
0
40
0
40
1
40
1
40
1
40
1
41
1
10
81.9280616957537
20
17.3326414416168
30
0
41
1
10
81.9471023487592
20
17.3391758179152
30
0
41
1
10
81.9840992424181
20
17.3849905088481
30
0
41
1
10
82.0199372302334
20
17.4464458097986
30
0
0
SPLINE
5
1B9
100
AcDbEntity
8
1
62
256
6
ByLayer
370
13
48
1
60
0
100
AcDbSpline
70
4
71
3
72
10
73
6
40
0
40
0
40
0
40
0
40
0.0020499741009777
40
0.0020499741009777
40
1
40
1
40
1
40
1
41
1
10
81.7417132870556
20
16.4819516762819
30
0
41
1
10
81.7417170404991
20
16.4819710457841
30
0
41
1
10
81.7417207916454
20
16.4819904156442
30
0
41
1
10
81.7435528834182
20
16.4914387882497
30
0
41
1
10
81.7459306378597
20
16.5007662859309
30
0
41
1
10
81.7488798256122
20
16.5098738281882
30
0
0
SPLINE
5
1BA
100
AcDbEntity
8
1
62
256
6
ByLayer
370
13
48
1
60
0
100
AcDbSpline
70
4
71
3
72
25
73
21
40
0
40
0
40
0
40
0
40
0.00390625
40
0.00390625
40
0.0625
40
0.125
40
0.125
40
0.25
40
0.3125
40
0.3125
40
0.375
40
0.375
40
0.5
40
0.5
40
0.625
40
0.625
40
0.75
40
0.75
40
0.9375
40
1
40
1
40
1
40
1
41
1
10
81.7488798256121
20
16.5098738281881
30
0
41
1
10
81.7490188751305
20
16.5099341662642
30
0
41
1
10
81.7491584772279
20
16.5099942848897
30
0
41
1
10
81.7514008853074
20
16.5109526526739
30
0
41
1
10
81.756000560488
20
16.5127068931239
30
0
41
1
10
81.7610671250133
20
16.5142319693344
30
0
41
1
10
81.7692339931222
20
16.5163956345089
30
0
41
1
10
81.7780589251627
20
16.5181775126322
30
0
41
1
10
81.7878541300196
20
16.5193964703772
30
0
41
1
10
81.7946031563594
20
16.5200821162289
30
0
41
1
10
81.7980869775594
20
16.5203615222305
30
0
41
1
10
81.8088749609176
20
16.5210045025389
30
0
41
1
10
81.8163913970674
20
16.5211647719511
30
0
41
1
10
81.8319184925302
20
16.520964549642
30
0
41
1
10
81.8399500618827
20
16.5206052771214
30
0
41
1
10
81.8565551882669
20
16.5193626614223
30
0
41
1
10
81.8651886853665
20
16.5184691916257
30
0
41
1
10
81.8868606748818
20
16.5156300644858
30
0
41
1
10
81.9044233088028
20
16.5126416527802
30
0
41
1
10
81.9222847619692
20
16.5086834296237
30
0
41
1
10
81.9267687756893
20
16.5076329759357
30
0
0
SPLINE
5
1BB
100
AcDbEntity
8
1
62
256
6
ByLayer
370
13
48
1
60
0
100
AcDbSpline
70
4
71
3
72
10
73
6
40
0
40
0
40
0
40
0
40
0.997962722316834
40
0.997962722316834
40
1
40
1
40
1
40
1
41
1
10
81.7489352528526
20
17.4899552443948
30
0
41
1
10
81.7459604061042
20
17.4991170783623
30
0
41
1
10
81.7435643036187
20
17.5085023290147
30
0
41
1
10
81.7417207941681
20
17.5180095843556
30
0
41
1
10
81.7417170430219
20
17.5180289542157
30
0
41
1
10
81.7417132895784
20
17.5180483237179
30
0
0
SPLINE
5
1BC
100
AcDbEntity
8
1
62
256
6
ByLayer
370
13
48
1
60
0
100
AcDbSpline
70
4
71
3
72
10
73
6
40
0
40
0
40
0
40
0
40
0.498145161745043
40
0.749265816285622
40
1
40
1
40
1
40
1
41
1
10
81.7489352528528
20
17.489955244394
30
0
41
1
10
81.771514570009
20
17.4844412703829
30
0
41
1
10
81.805476378332
20
17.4761476392175
30
0
41
1
10
81.873506858852
20
17.4814630835269
30
0
41
1
10
81.909023921631
20
17.4887342424841
30
0
41
1
10
81.9267687774438
20
17.492367022258
30
0
0
SPLINE
5
1BD
100
AcDbEntity
8
1
62
256
6
ByLayer
370
13
48
1
60
0
100
AcDbSpline
70
4
71
3
72
13
73
9
40
0
40
0
40
0
40
0
40
0.487155902972613
40
0.572453636360659
40
0.600912120614328
40
0.666606714717454
40
0.943158248468523
40
1
40
1
40
1
40
1
41
1.00015565516327
10
81.8103352898611
20
17.4005769633987
30
0
41
1.00015565516327
10
81.719460380552
20
17.4005769633987
30
0
41
1.00015565516327
10
81.6137377039599
20
17.4005769633987
30
0
41
1.00015565516327
10
81.5049601093732
20
17.4005769633987
30
0
41
1.00015565516327
10
81.4726533864307
20
17.4005769633988
30
0
41
1.00015565516327
10
81.4054229487534
20
17.4005769633987
30
0
41
1.00015565516327
10
81.3121869196877
20
17.4005769633987
30
0
41
1.00015565516327
10
81.2181078961804
20
17.4005769633987
30
0
41
1.00015565516327
10
81.2016252898638
20
17.4005769633987
30
0
0
SPLINE
5
1BE
100
AcDbEntity
8
1
62
256
6
ByLayer
370
13
48
1
60
0
100
AcDbSpline
70
4
71
3
72
14
73
10
40
0
40
0
40
0
40
0
40
0.401517776748294
40
0.631194109570866
40
0.673703389903171
40
0.702090646819372
40
0.749071754067291
40
0.833277156109059
40
1
40
1
40
1
40
1
41
1
10
81.9280483136845
20
17.3326414416168
30
0
41
1
10
81.851989608385
20
17.3326414416168
30
0
41
1
10
81.733536147549
20
17.3326414416168
30
0
41
1
10
81.6101585269862
20
17.3326414416168
30
0
41
1
10
81.5555953315357
20
17.3326414416168
30
0
41
1
10
81.5339658949601
20
17.3326414416168
30
0
41
1
10
81.5055820307105
20
17.3326414416168
30
0
41
1
10
81.4461961320952
20
17.3326414416168
30
0
41
1
10
81.386527421872
20
17.3326414416168
30
0
41
1
10
81.3428773136787
20
17.3326414416168
30
0
0
SPLINE
5
1BF
100
AcDbEntity
8
1
62
256
6
ByLayer
370
13
48
1
60
0
100
AcDbSpline
70
4
71
3
72
12
73
8
40
0
40
0
40
0
40
0
40
0.590009551240489
40
0.67484337748662
40
0.703147085129364
40
0.768484387307147
40
1
40
1
40
1
40
1
41
1.00015565516327
10
81.928055016761
20
16.667358558383
30
0
41
1.00015565516327
10
81.8169560236455
20
16.667358558383
30
0
41
1.00015565516327
10
81.6912042004954
20
16.667358558383
30
0
41
1.00015565516327
10
81.5632756405436
20
16.667358558383
30
0
41
1.00015565516327
10
81.5308228036984
20
16.667358558383
30
0
41
1.00015565516327
10
81.4716883547373
20
16.667358558383
30
0
41
1.00015565516327
10
81.4038863552823
20
16.667358558383
30
0
41
1.00015565516327
10
81.3430790167608
20
16.6673585583831
30
0
0
SPLINE
5
1C0
100
AcDbEntity
8
1
62
256
6
ByLayer
370
13
48
1
60
0
100
AcDbSpline
70
4
71
3
72
13
73
9
40
0
40
0
40
0
40
0
40
0.487064097739676
40
0.572349962084
40
0.60080431578859
40
0.666489852252355
40
0.943002397306251
40
1
40
1
40
1
40
1
41
1.02873803632981
10
81.810322600379
20
16.599423036601
30
0
41
1.02873803632981
10
81.7194632705263
20
16.5994230366011
30
0
41
1.02873803632981
10
81.613767899797
20
16.599423036601
30
0
41
1.02873803632981
10
81.5050385801534
20
16.599423036601
30
0
41
1.02873803632981
10
81.4725856179388
20
16.599423036601
30
0
41
1.02873803632981
10
81.405534446439
20
16.5994230366011
30
0
41
1.02873803632981
10
81.3121302262603
20
16.599423036601
30
0
41
1.02873803632981
10
81.2179989771616
20
16.599423036601
30
0
41
1.02873803632981
10
81.2014686003758
20
16.599423036601
30
0
0
SPLINE
5
1C1
100
AcDbEntity
8
1
62
256
6
ByLayer
370
13
48
1
60
0
100
AcDbSpline
70
4
71
3
72
12
73
8
40
0
40
0
40
0
40
0
40
0.499438175905946
40
0.749697956809552
40
0.874799572663311
40
0.937400470274557
40
1
40
1
40
1
40
1
41
1
10
81.7488798256119
20
16.5098738281878
30
0
41
1
10
81.7559660492198
20
16.5273724638429
30
0
41
1
10
81.7666030561941
20
16.5536393613899
30
0
41
1
10
81.7866149266431
20
16.5789098918419
30
0
41
1
10
81.7979789528379
20
16.5898687405677
30
0
41
1
10
81.8048850338663
20
16.5955638896934
30
0
41
1
10
81.8085129359065
20
16.5981366636682
30
0
41
1
10
81.8103268671082
20
16.599423036601
30
0
0
SPLINE
5
1C2
100
AcDbEntity
8
1
62
256
6
ByLayer
370
13
48
1
60
0
100
AcDbSpline
70
4
71
3
72
16
73
12
40
0
40
0
40
0
40
0
40
0.0078662286155439
40
0.0078662286155439
40
0.317960470426802
40
0.317960470426802
40
0.635919352159184
40
0.635919352159184
40
0.992133771384534
40
0.992133771384534
40
1
40
1
40
1
40
1
41
1
10
81.9280416347417
20
16.6673585583829
30
0
41
1
10
81.9280590865638
20
16.6673675273331
30
0
41
1
10
81.9280765383634
20
16.6673764962912
30
0
41
1
10
81.9287819585606
20
16.6677390295354
30
0
41
1
10
81.9294699613289
20
16.668092582473
30
0
41
1
10
81.9308634855499
20
16.6688086321794
30
0
41
1
10
81.9315690087861
20
16.6691711283753
30
0
41
1
10
81.9330650172772
20
16.6699397095518
30
0
41
1
10
81.9338555117399
20
16.6703457915025
30
0
41
1
10
81.9346635086002
20
16.6707608256074
30
0
41
1
10
81.9346809660074
20
16.6707697927079
30
0
41
1
10
81.9346984233922
20
16.6707787598162
30
0
0
SPLINE
5
1C3
100
AcDbEntity
8
1
62
256
6
ByLayer
370
13
48
1
60
0
100
AcDbSpline
70
4
71
3
72
12
73
8
40
0
40
0
40
0
40
0
40
0.0625968867403301
40
0.125193926289122
40
0.250285225222361
40
0.500530129762514
40
1
40
1
40
1
40
1
41
1
10
81.8103268696333
20
17.4005769633987
30
0
41
1
10
81.8085158157542
20
17.4018611840134
30
0
41
1
10
81.8048937035749
20
17.4044296283777
30
0
41
1
10
81.7979981794985
20
17.4101142856783
30
0
41
1
10
81.7866501848652
20
17.4210518159646
30
0
41
1
10
81.766659766214
20
17.4462722158841
30
0
41
1
10
81.7560221638418
20
17.4724891662864
30
0
41
1
10
81.7489352528522
20
17.4899552443951
30
0
0
SPLINE
5
1C4
100
AcDbEntity
8
1
62
256
6
ByLayer
370
13
48
1
60
0
100
AcDbSpline
70
4
71
3
72
16
73
12
40
0
40
0
40
0
40
0
40
0.0078662286188034
40
0.0078662286188034
40
0.317957155579731
40
0.317957155579731
40
0.635915813115147
40
0.635915813115147
40
0.992133771381088
40
0.992133771381088
40
1
40
1
40
1
40
1
41
1
10
81.9346984257778
20
17.3292212401836
30
0
41
1
10
81.9346809683929
20
17.3292302072919
30
0
41
1
10
81.9346635109858
20
17.3292391743923
30
0
41
1
10
81.933957875062
20
17.329601629977
30
0
41
1
10
81.93326973063
20
17.3299551297831
30
0
41
1
10
81.9318760512681
20
17.330671121474
30
0
41
1
10
81.9311705180764
20
17.3310336139523
30
0
41
1
10
81.9296746328663
20
17.3318022421714
30
0
41
1
10
81.9288842900252
20
17.3322083809713
30
0
41
1
10
81.9280765407566
20
17.3326235037086
30
0
41
1
10
81.928059088957
20
17.3326324726666
30
0
41
1
10
81.928041637135
20
17.3326414416168
30
0
0
SPLINE
5
1C5
100
AcDbEntity
8
1
62
256
6
ByLayer
370
13
48
1
60
0
100
AcDbSpline
70
4
71
3
72
18
73
14
40
0
40
0
40
0
40
0
40
5.63143727018E-05
40
5.63143727018E-05
40
0.256893088875254
40
0.256893088875254
40
0.513665594130401
40
0.513665594130401
40
0.77045125551172
40
0.77045125551172
40
0.999943685627304
40
0.999943685627304
40
1
40
1
40
1
40
1
41
1
10
88.9238504906535
20
14.5533803907416
30
0
41
1
10
88.9238701119583
20
14.5533783876985
30
0
41
1
10
88.9238897332432
20
14.5533763844676
30
0
41
1
10
89.0133976532694
20
14.5442398253864
30
0
41
1
10
89.1032730284212
20
14.5390510847515
30
0
41
1
10
89.2829625037722
20
14.5305679123327
30
0
41
1
10
89.3728519438426
20
14.5274601814803
30
0
41
1
10
89.5525036513139
20
14.5191331671718
30
0
41
1
10
89.6422553738979
20
14.5134899320925
30
0
41
1
10
89.811942196499
20
14.4999177405662
30
0
41
1
10
89.8919297743833
20
14.4924142002008
30
0
41
1
10
89.9718429119555
20
14.4841736254654
30
0
41
1
10
89.971862513706
20
14.4841716040607
30
0
41
1
10
89.9718821154607
20
14.4841695827002
30
0
0
SPLINE
5
1C6
100
AcDbEntity
8
1
62
256
6
ByLayer
370
13
48
1
60
0
100
AcDbSpline
70
4
71
3
72
18
73
14
40
0
40
0
40
0
40
0
40
5.63056279884E-05
40
5.63056279884E-05
40
0.229548739757708
40
0.229548739757708
40
0.486334405630572
40
0.486334405630572
40
0.743106915377033
40
0.743106915377033
40
0.999943694372021
40
0.999943694372021
40
1
40
1
40
1
40
1
41
1
10
89.9718821154607
20
19.5158304172996
30
0
41
1
10
89.971862513706
20
19.5158283959388
30
0
41
1
10
89.9718429119555
20
19.5158263745338
30
0
41
1
10
89.8919297743833
20
19.5075857997984
30
0
41
1
10
89.811942196499
20
19.5000822594336
30
0
41
1
10
89.6422553738979
20
19.4865100679073
30
0
41
1
10
89.5525036513139
20
19.480866832828
30
0
41
1
10
89.3728519438426
20
19.4725398185195
30
0
41
1
10
89.2829625037722
20
19.4694320876671
30
0
41
1
10
89.1032730284212
20
19.4609489152483
30
0
41
1
10
89.0133976532694
20
19.4557601746134
30
0
41
1
10
88.9238897332432
20
19.4466236155322
30
0
41
1
10
88.9238701119583
20
19.4466216123013
30
0
41
1
10
88.9238504906535
20
19.4466196092582
30
0
0
SPLINE
5
1C7
100
AcDbEntity
8
1
62
256
6
ByLayer
370
13
48
1
60
0
100
AcDbSpline
70
4
71
3
72
12
73
8
40
0
40
0
40
0
40
0
40
0.705730913904141
40
0.795178238106052
40
0.825020885112889
40
0.893911554860008
40
1
40
1
40
1
40
1
41
1.06414977016843
10
82.0233956190498
20
16.8681142101813
30
0
41
1.06414977016843
10
81.8970314593642
20
16.8681142101813
30
0
41
1.06414977016843
10
81.7561087032958
20
16.8681142101813
30
0
41
1.06414977016843
10
81.6137485447762
20
16.8681142101813
30
0
41
1.06414977016843
10
81.5812955015811
20
16.8681142101813
30
0
41
1.06414977016843
10
81.5459670153884
20
16.8681142101813
30
0
41
1.06414977016843
10
81.5114681870685
20
16.8681142101813
30
0
41
1.06414977016843
10
81.4890036190531
20
16.8681142101813
30
0
0
SPLINE
5
1C8
100
AcDbEntity
8
1
62
256
6
ByLayer
370
18
48
1
60
0
100
AcDbSpline
70
4
71
3
72
14
73
10
40
0
40
0
40
0
40
0
40
0.502151012479325
40
0.744470885398812
40
0.789320275326942
40
0.81927023318255
40
0.868837621332755
40
0.957678478686823
40
1
40
1
40
1
40
1
41
1
10
82.0208900110499
20
16.9999999999999
30
0
41
1
10
81.9304390610517
20
16.9999999999999
30
0
41
1
10
81.7976400564577
20
16.9999999999999
30
0
41
1
10
81.6606313616606
20
16.9999999999999
30
0
41
1
10
81.6060681662101
20
16.9999999999999
30
0
41
1
10
81.5844387296344
20
16.9999999999999
30
0
41
1
10
81.5560548653849
20
16.9999999999999
30
0
41
1
10
81.5219075870176
20
16.9999999999999
30
0
41
1
10
81.4947574326352
20
16.9999999999999
30
0
41
1
10
81.4857540110485
20
16.9999999999999
30
0
0
SPLINE
5
1C9
100
AcDbEntity
8
1
62
256
6
ByLayer
370
13
48
1
60
0
100
AcDbSpline
70
4
71
3
72
16
73
12
40
0
40
0
40
0
40
0
40
0.0004543765166982
40
0.0004543765166982
40
0.433235960368158
40
0.433235960368158
40
0.716618150548424
40
0.716618150548424
40
0.999545623483309
40
0.999545623483309
40
1
40
1
40
1
40
1
41
1
10
82.0208900110497
20
16.9999999999999
30
0
41
1
10
82.0208900126586
20
17.0000199999998
30
0
41
1
10
82.0208900141351
20
17.0000399999998
30
0
41
1
10
82.0208917286798
20
17.0191094695874
30
0
41
1
10
82.0210481960665
20
17.038162535674
30
0
41
1
10
82.0215664930885
20
17.0696631266543
30
0
41
1
10
82.0218387898225
20
17.0821234003232
30
0
41
1
10
82.0225171727855
20
17.1070014878936
30
0
41
1
10
82.0229230975833
20
17.1194213480029
30
0
41
1
10
82.023396306097
20
17.1318459507921
30
0
41
1
10
82.0233970650857
20
17.1318658703185
30
0
41
1
10
82.0233978239413
20
17.1318857898185
30
0
0
SPLINE
5
1CA
100
AcDbEntity
8
1
62
256
6
ByLayer
370
18
48
1
60
0
100
AcDbSpline
70
4
71
3
72
14
73
10
40
0
40
0
40
0
40
0
40
0.271356762701692
40
0.271356762701692
40
0.543404943533146
40
0.543404943533146
40
0.806943544272271
40
0.806943544272271
40
1
40
1
40
1
40
1
41
1
10
81.3869959281433
20
16.6870986993412
30
0
41
1
10
81.40201048707
20
16.6928982602038
30
0
41
1
10
81.41624738029
20
16.701180501382
30
0
41
1
10
81.4407170740729
20
16.721757467161
30
0
41
1
10
81.4512694222448
20
16.7343522911528
30
0
41
1
10
81.4668349917955
20
16.7616204646104
30
0
41
1
10
81.4722252936174
20
16.7765824116097
30
0
41
1
10
81.4769768336029
20
16.8031017497382
30
0
41
1
10
81.4776063171081
20
16.8147120632848
30
0
41
1
10
81.4768616884927
20
16.8261762775261
30
0
0
SPLINE
5
1CB
100
AcDbEntity
8
1
62
256
6
ByLayer
370
18
48
1
60
0
100
AcDbSpline
70
4
71
3
72
12
73
8
40
0
40
0
40
0
40
0
40
0.346790095500074
40
0.346790095500074
40
0.695067184024929
40
0.695067184024929
40
1
40
1
40
1
40
1
41
1
10
81.2064658953722
20
16.6169732039283
30
0
41
1
10
81.1973189514062
20
16.6133996330295
30
0
41
1
10
81.1886416540317
20
16.6083998175275
30
0
41
1
10
81.1737389050421
20
16.5960638748756
30
0
41
1
10
81.1673316232866
20
16.5885397304797
30
0
41
1
10
81.1584479005126
20
16.5731273269109
30
0
41
1
10
81.1554795390815
20
16.5652312868989
30
0
41
1
10
81.1538224435588
20
16.5572238829981
30
0
0
SPLINE
5
1CC
100
AcDbEntity
8
1
62
256
6
ByLayer
370
18
48
1
60
0
100
AcDbSpline
70
4
71
3
72
12
73
8
40
0
40
0
40
0
40
0
40
0.334169792288984
40
0.334169792288984
40
0.668726535824296
40
0.668726535824296
40
1
40
1
40
1
40
1
41
1
10
81.1538224435601
20
17.4427761170019
30
0
41
1
10
81.155633873981
20
17.4340229372249
30
0
41
1
10
81.1590241489571
20
17.4253932373366
30
0
41
1
10
81.1686043344159
20
17.4098751011921
30
0
41
1
10
81.1749232035347
20
17.4027876322158
30
0
41
1
10
81.189403853856
20
17.3911608056861
30
0
41
1
10
81.1977178764996
20
17.3864445130469
30
0
41
1
10
81.2064658953723
20
17.3830267960715
30
0
0
SPLINE
5
1CD
100
AcDbEntity
8
1
62
256
6
ByLayer
370
18
48
1
60
0
100
AcDbSpline
70
4
71
3
72
14
73
10
40
0
40
0
40
0
40
0
40
0.267476445292789
40
0.267476445292789
40
0.535343752042023
40
0.535343752042023
40
0.798303169207413
40
0.798303169207413
40
1
40
1
40
1
40
1
41
1
10
81.4768616884921
20
17.1738237224735
30
0
41
1
10
81.4778863010863
20
17.1895985369925
30
0
41
1
10
81.4762767389607
20
17.2057131003624
30
0
41
1
10
81.4678475887692
20
17.2360039791326
30
0
41
1
10
81.4608960768714
20
17.2505924416337
30
0
41
1
10
81.4427939339026
20
17.2759239222664
30
0
41
1
10
81.4314791894201
20
17.2870711671579
30
0
41
1
10
81.4089972800639
20
17.3028684311624
30
0
41
1
10
81.3982261968174
20
17.3085634691581
30
0
41
1
10
81.3869959281433
20
17.3129013006585
30
0
0
SPLINE
5
1CE
100
AcDbEntity
8
1
62
256
6
ByLayer
370
18
48
1
60
0
100
AcDbSpline
70
4
71
3
72
8
73
4
40
0
40
0
40
0
40
0
40
1
40
1
40
1
40
1
41
1
10
89.976516941715
20
19.4652167322111
30
0
41
1
10
89.9748818157048
20
19.4818145466446
30
0
41
1
10
89.9733444084351
20
19.4984952684574
30
0
41
1
10
89.9719114035248
20
19.5151864938815
30
0
0
SPLINE
5
1CF
100
AcDbEntity
8
1
62
256
6
ByLayer
370
18
48
1
60
0
100
AcDbSpline
70
4
71
3
72
14
73
10
40
0
40
0
40
0
40
0
40
0.263119567407039
40
0.263119567407039
40
0.525979286207848
40
0.525979286207848
40
0.792975835871225
40
0.792975835871225
40
1
40
1
40
1
40
1
41
1
10
89.965298544938
20
20.7209919074166
30
0
41
1
10
89.9528794291272
20
20.7622247186978
30
0
41
1
10
89.9332221192294
20
20.801873090064
30
0
41
1
10
89.8828487237553
20
20.8713972342737
30
0
41
1
10
89.8514771890475
20
20.9022266943632
30
0
41
1
10
89.7811345897411
20
20.9518311391842
30
0
41
1
10
89.7411383423267
20
20.9710822938711
30
0
41
1
10
89.6677444836269
20
20.9929157153259
30
0
41
1
10
89.6343579927743
20
20.9984952407912
30
0
41
1
10
89.6010604285968
20
20.999999999998
30
0
0
SPLINE
5
1D0
100
AcDbEntity
8
1
62
256
6
ByLayer
370
18
48
1
60
0
100
AcDbSpline
70
4
71
1
72
4
73
2
40
0
40
0
40
1
40
1
41
1
10
85.9181380764028
20
13.9999999999999
30
0
41
1
10
85.9181380764028
20
13.1133982136592
30
0
0
SPLINE
5
1D1
100
AcDbEntity
8
1
62
256
6
ByLayer
370
18
48
1
60
0
100
AcDbSpline
70
4
71
3
72
8
73
4
40
0
40
0
40
0
40
0
40
1
40
1
40
1
40
1
41
1
10
83.5037305363004
20
18.4089541643536
30
0
41
1
10
83.5213481488173
20
18.411089160899
30
0
41
1
10
83.5386940442544
20
18.4130910733998
30
0
41
1
10
83.5550331848767
20
18.4135075244768
30
0
0
SPLINE
5
1D2
100
AcDbEntity
8
1
62
256
6
ByLayer
370
18
48
1
60
0
100
AcDbSpline
70
4
71
3
72
8
73
4
40
0
40
0
40
0
40
0
40
1
40
1
40
1
40
1
41
1
10
89.965298544938
20
13.2790080925832
30
0
41
1
10
89.9763833527273
20
13.315937525161
30
0
41
1
10
89.9819830496265
20
13.3549593655466
30
0
41
1
10
89.981812447255
20
13.3934937498779
30
0
0
SPLINE
5
1D3
100
AcDbEntity
8
1
62
256
6
ByLayer
370
18
48
1
60
0
100
AcDbSpline
70
4
71
3
72
8
73
4
40
0
40
0
40
0
40
0
40
1
40
1
40
1
40
1
41
1
10
89.9765169417151
20
14.5347832678379
30
0
41
1
10
89.9760228263368
20
14.5695221591621
30
0
41
1
10
89.975181332655
20
14.6040392312157
30
0
41
1
10
89.9740153632034
20
14.6376799009319
30
0
0
SPLINE
5
1D4
100
AcDbEntity
8
1
62
256
6
ByLayer
370
18
48
1
60
0
100
AcDbSpline
70
4
71
3
72
8
73
4
40
0
40
0
40
0
40
0
40
1
40
1
40
1
40
1
41
1
10
86.8932214551893
20
18.8742039687684
30
0
41
1
10
86.9384244663957
20
18.9805325811652
30
0
41
1
10
86.9720351674461
20
19.1081525915654
30
0
41
1
10
86.9895466175508
20
19.2359017438207
30
0
0
SPLINE
5
1D5
100
AcDbEntity
8
1
62
256
6
ByLayer
370
18
48
1
60
0
100
AcDbSpline
70
4
71
3
72
16
73
12
40
0
40
0
40
0
40
0
40
0.0607595740306703
40
0.0607595740306703
40
0.140484503166587
40
0.140484503166587
40
0.288325715341517
40
0.288325715341517
40
0.806307711240734
40
0.806307711240734
40
1
40
1
40
1
40
1
41
1
10
88.1872187298277
20
19.4061438235593
30
0
41
1
10
88.1871812380613
20
19.4066626180448
30
0
41
1
10
88.1870421344544
20
19.4071801469967
30
0
41
1
10
88.1865505631444
20
19.4082766913666
30
0
41
1
10
88.1861436023025
20
19.4088451019859
30
0
41
1
10
88.184836398092
20
19.4102807860916
30
0
41
1
10
88.1837952961126
20
19.4110370599216
30
0
41
1
10
88.1789837426313
20
19.4139765166948
30
0
41
1
10
88.1747100287422
20
19.4153158407706
30
0
41
1
10
88.1689062684048
20
19.4169258369595
30
0
41
1
10
88.1673102525315
20
19.4173279954199
30
0
41
1
10
88.1657083638693
20
19.4177028466925
30
0
0
SPLINE
5
1D6
100
AcDbEntity
8
1
62
256
6
ByLayer
370
18
48
1
60
0
100
AcDbSpline
70
4
71
3
72
8
73
4
40
0
40
0
40
0
40
0
40
1
40
1
40
1
40
1
41
1
10
89.9769821435353
20
14.4845265318755
30
0
41
1
10
89.9769078121181
20
14.5013159550048
30
0
41
1
10
89.9767523709515
20
14.5180942048258
30
0
41
1
10
89.9765169417151
20
14.534783267838
30
0
0
SPLINE
5
1D7
100
AcDbEntity
8
1
62
256
6
ByLayer
370
18
48
1
60
0
100
AcDbSpline
70
4
71
3
72
8
73
4
40
0
40
0
40
0
40
0
40
1
40
1
40
1
40
1
41
1
10
89.6010604285977
20
20.9999999999999
30
0
41
1
10
89.5947925919701
20
20.9999999999999
30
0
41
1
10
89.5885247210177
20
20.9999999999999
30
0
41
1
10
89.5822568157405
20
20.9999999999999
30
0
0
SPLINE
5
1D8
100
AcDbEntity
8
1
62
256
6
ByLayer
370
18
48
1
60
0
100
AcDbSpline
70
4
71
3
72
8
73
4
40
0
40
0
40
0
40
0
40
1
40
1
40
1
40
1
41
1
10
86.9895466175508
20
14.7640982561791
30
0
41
1
10
86.9720351674461
20
14.8918474084344
30
0
41
1
10
86.9384244663957
20
15.0194674188346
30
0
41
1
10
86.8932214551893
20
15.1257960312313
30
0
0
SPLINE
5
1D9
100
AcDbEntity
8
1
62
256
6
ByLayer
370
18
48
1
60
0
100
AcDbSpline
70
4
71
3
72
12
73
8
40
0
40
0
40
0
40
0
40
0.352599560460548
40
0.352599560460548
40
0.705153884205212
40
0.705153884205212
40
1
40
1
40
1
40
1
41
1
10
88.9176013198961
20
20.9549463753268
30
0
41
1
10
88.5433972176203
20
20.92881779062
30
0
41
1
10
88.1519839016495
20
20.9079249764371
30
0
41
1
10
87.3996808547699
20
20.8800443153166
30
0
41
1
10
87.0284120159403
20
20.8726671638059
30
0
41
1
10
86.4105893822085
20
20.8722743971752
30
0
41
1
10
86.147415963504
20
20.8770962047422
30
0
41
1
10
85.9181380764028
20
20.8866017863406
30
0
0
SPLINE
5
1DA
100
AcDbEntity
8
1
62
256
6
ByLayer
370
18
48
1
60
0
100
AcDbSpline
70
4
71
1
72
4
73
2
40
0
40
0
40
1
40
1
41
1
10
89.965298544938
20
13.2790080925832
30
0
41
1
10
89.9718821154607
20
14.4841695827002
30
0
0
SPLINE
5
1DB
100
AcDbEntity
8
1
62
256
6
ByLayer
370
18
48
1
60
0
100
AcDbSpline
70
4
71
3
72
9
73
5
40
0
40
0
40
0
40
0
40
0.148180472644792
40
1
40
1
40
1
40
1
41
0.969530420163904
10
87.4028317289725
20
18.9215789537704
30
0
41
0.969306614871819
10
87.3763132543559
20
18.9082252594483
30
0
41
0.967850594524727
10
87.1969738603546
20
18.8200774109354
30
0
41
0.966632727423808
10
87.0162872768422
20
18.7403521196863
30
0
41
0.966168681116128
10
86.8587198121745
20
18.7044581682937
30
0
0
SPLINE
5
1DC
100
AcDbEntity
8
1
62
256
6
ByLayer
370
18
48
1
60
0
100
AcDbSpline
70
4
71
2
72
7
73
4
40
0
40
0
40
0
40
0.654370525377439
40
1
40
1
40
1
41
1
10
85.9181380764028
20
13.9999999999999
30
0
41
0.946224768518522
10
86.5118816694146
20
14.1896054062427
30
0
41
0.946224768518522
10
87.7258074098335
20
14.4793577696052
30
0
41
0.961227017619237
10
88.1657083638693
20
14.5822971533073
30
0
0
SPLINE
5
1DD
100
AcDbEntity
8
1
62
256
6
ByLayer
370
18
48
1
60
0
100
AcDbSpline
70
4
71
3
72
10
73
6
40
0
40
0
40
0
40
0
40
0.28698303906695
40
0.28698303906695
40
1
40
1
40
1
40
1
41
1
10
89.5530495540038
20
20.9994001569336
30
0
41
1
10
89.4922793336561
20
20.9951396734311
30
0
41
1
10
89.4315040824138
20
20.990881481199
30
0
41
1
10
89.2197137673379
20
20.9760516919104
30
0
41
1
10
89.0686727426811
20
20.9654919475699
30
0
41
1
10
88.9176013198961
20
20.9549463753268
30
0
0
SPLINE
5
1DE
100
AcDbEntity
8
1
62
256
6
ByLayer
370
18
48
1
60
0
100
AcDbSpline
70
4
71
3
72
20
73
16
40
0
40
0
40
0
40
0
40
0.499887314951974
40
0.52329337765565
40
0.536593974883215
40
0.556415827020235
40
0.6276143232309
40
0.751517123250164
40
0.826458608032803
40
0.856484872176832
40
0.87323756383081
40
0.88335999367287
40
0.898518105253374
40
0.980416915421655
40
1
40
1
40
1
40
1
41
1
10
78.3422542416147
20
13.3499999999999
30
0
41
1
10
78.9422041692665
20
13.3499999999999
30
0
41
1
10
79.5625496398508
20
13.3499999999999
30
0
41
1
10
80.1761082732762
20
13.3499999999999
30
0
41
1
10
80.2405607145533
20
13.3499999999999
30
0
41
1
10
80.3576350811077
20
13.3499999999999
30
0
41
1
10
80.5838825704072
20
13.3499999999999
30
0
41
1
10
80.8289823166331
20
13.3499999999999
30
0
41
1
10
80.9858247574164
20
13.3499999999999
30
0
41
1
10
81.0538140386709
20
13.3499999999999
30
0
41
1
10
81.0824212643488
20
13.3499999999999
30
0
41
1
10
81.1037468340906
20
13.3499999999999
30
0
41
1
10
81.1584849689175
20
13.3499999999999
30
0
41
1
10
81.2183721678508
20
13.3499999999999
30
0
41
1
10
81.2710628770631
20
13.3499999999999
30
0
41
1
10
81.2812513353167
20
13.3499999999999
30
0
0
SPLINE
5
1DF
100
AcDbEntity
8
1
62
256
6
ByLayer
370
18
48
1
60
0
100
AcDbSpline
70
4
71
3
72
9
73
5
40
0
40
0
40
0
40
0
40
0.148180472644592
40
1
40
1
40
1
40
1
41
0.969530420163903
10
87.4028317289725
20
15.0784210462294
30
0
41
0.969306614871818
10
87.3763132543559
20
15.0917747405515
30
0
41
0.967850594524726
10
87.1969738603546
20
15.1799225890645
30
0
41
0.966632727423808
10
87.0162872768422
20
15.2596478803134
30
0
41
0.966168681116128
10
86.8587198121745
20
15.2955418317061
30
0
0
SPLINE
5
1E0
100
AcDbEntity
8
1
62
256
6
ByLayer
370
18
48
1
60
0
100
AcDbSpline
70
4
71
2
72
6
73
3
40
0
40
0
40
0
40
1
40
1
40
1
41
1
10
86.7095796270178
20
16.9999999999999
30
0
41
0.949253021674191
10
86.7095796270178
20
17.9137877470199
30
0
41
0.966168681116127
10
86.8587198121744
20
18.7044581682937
30
0
0
SPLINE
5
1E1
100
AcDbEntity
8
1
62
256
6
ByLayer
370
18
48
1
60
0
100
AcDbSpline
70
4
71
3
72
12
73
8
40
0
40
0
40
0
40
0
40
0.430083407131251
40
0.430083407131251
40
0.860166814282946
40
0.860166814282946
40
1
40
1
40
1
40
1
41
1
10
81.3941061795566
20
13.3499999999999
30
0
41
1
10
81.3730713874599
20
13.3499999999999
30
0
41
1
10
81.3530683388217
20
13.3499999999999
30
0
41
1
10
81.3184386507718
20
13.3499999999999
30
0
41
1
10
81.3033344465835
20
13.3499999999999
30
0
41
1
10
81.2878576176622
20
13.3499999999999
30
0
41
1
10
81.2843668615545
20
13.3499999999999
30
0
41
1
10
81.2812513353167
20
13.3499999999999
30
0
0
SPLINE
5
1E2
100
AcDbEntity
8
1
62
256
6
ByLayer
370
18
48
1
60
0
100
AcDbSpline
70
4
71
1
72
4
73
2
40
0
40
0
40
1
40
1
41
1
10
85.9181380764028
20
19.9999999999999
30
0
41
1
10
85.9181380764028
20
20.8866017863406
30
0
0
SPLINE
5
1E3
100
AcDbEntity
8
1
62
256
6
ByLayer
370
18
48
1
60
0
100
AcDbSpline
70
4
71
3
72
8
73
4
40
0
40
0
40
0
40
0
40
1
40
1
40
1
40
1
41
1
10
89.563464265716
20
12.9999999999999
30
0
41
1
10
89.5697284833412
20
12.9999999999999
30
0
41
1
10
89.5759926666827
20
12.9999999999999
30
0
41
1
10
89.5822568157405
20
12.9999999999999
30
0
0
SPLINE
5
1E4
100
AcDbEntity
8
1
62
256
6
ByLayer
370
18
48
1
60
0
100
AcDbSpline
70
4
71
3
72
12
73
8
40
0
40
0
40
0
40
0
40
0.0361066225937593
40
0.0361066225937593
40
0.515390127325763
40
0.515390127325763
40
1
40
1
40
1
40
1
41
1
10
83.2998022172431
20
18.3758484403226
30
0
41
1
10
83.3022784646744
20
18.3760586519079
30
0
41
1
10
83.3047516026833
20
18.3762941405899
30
0
41
1
10
83.3402330410828
20
18.3797806110915
30
0
41
1
10
83.3740389339701
20
18.3856104367994
30
0
41
1
10
83.4400970390413
20
18.3982642505277
30
0
41
1
10
83.4732165731023
20
18.4052563190343
30
0
41
1
10
83.5037305363004
20
18.4089541643536
30
0
0
SPLINE
5
1E5
100
AcDbEntity
8
1
62
256
6
ByLayer
370
18
48
1
60
0
100
AcDbSpline
70
4
71
3
72
8
73
4
40
0
40
0
40
0
40
0
40
1
40
1
40
1
40
1
41
1
10
81.7417072290602
20
17.5180496793082
30
0
41
1
10
81.7767896421696
20
17.4971154802529
30
0
41
1
10
81.851641030012
20
17.4877866102523
30
0
41
1
10
81.9263705029809
20
17.4950364453988
30
0
0
SPLINE
5
1E6
100
AcDbEntity
8
1
62
256
6
ByLayer
370
18
48
1
60
0
100
AcDbSpline
70
4
71
2
72
6
73
3
40
0
40
0
40
0
40
1
40
1
40
1
41
1
10
86.7095796270178
20
16.9999999999999
30
0
41
0.949253021674191
10
86.7095796270178
20
16.08621225298
30
0
41
0.966168681116128
10
86.8587198121745
20
15.2955418317061
30
0
0
SPLINE
5
1E7
100
AcDbEntity
8
1
62
256
6
ByLayer
370
18
48
1
60
0
100
AcDbSpline
70
4
71
3
72
12
73
8
40
0
40
0
40
0
40
0
40
0.529094821624872
40
0.529094821624872
40
0.905901953646384
40
0.905901953646384
40
1
40
1
40
1
40
1
41
1
10
87.4159704054606
20
18.9367137884507
30
0
41
1
10
87.4164762193026
20
18.9889588716064
30
0
41
1
10
87.4141794623636
20
19.0460435468903
30
0
41
1
10
87.4056555959928
20
19.1466555375866
30
0
41
1
10
87.4007031498866
20
19.1899058367491
30
0
41
1
10
87.3929584280982
20
19.2439079859435
30
0
41
1
10
87.3913378243019
20
19.2546739266273
30
0
41
1
10
87.3896415128532
20
19.2654365789334
30
0
0
SPLINE
5
1E8
100
AcDbEntity
8
1
62
256
6
ByLayer
370
18
48
1
60
0
100
AcDbSpline
70
4
71
3
72
16
73
12
40
0
40
0
40
0
40
0
40
0.146405705055507
40
0.219608557583261
40
0.292811410111014
40
0.366014262638768
40
0.439217115166521
40
0.585622820222028
40
0.732028525277535
40
0.878434230333043
40
1
40
1
40
1
40
1
41
1
10
86.7095796270178
20
16.9999999999999
30
0
41
1
10
86.8627780657909
20
16.9999999999999
30
0
41
1
10
87.091226449841
20
16.9999999999999
30
0
41
1
10
87.4008836914543
20
16.9999999999999
30
0
41
1
10
87.6375958068789
20
16.9999999999999
30
0
41
1
10
87.880716592626
20
16.9999999999999
30
0
41
1
10
88.2074659299786
20
16.9999999999999
30
0
41
1
10
88.6095870121991
20
16.9999999999999
30
0
41
1
10
89.0729913657177
20
16.9999999999999
30
0
41
1
10
89.5137748570461
20
16.9999999999999
30
0
41
1
10
89.7988459743113
20
16.9999999999999
30
0
41
1
10
89.9281708211737
20
16.9999999999999
30
0
0
SPLINE
5
1E9
100
AcDbEntity
8
1
62
256
6
ByLayer
370
18
48
1
60
0
100
AcDbSpline
70
4
71
3
72
8
73
4
40
0
40
0
40
0
40
0
40
1
40
1
40
1
40
1
41
1
10
89.5822568157405
20
12.9999999999999
30
0
41
1
10
89.5885247210177
20
12.9999999999999
30
0
41
1
10
89.5947925919701
20
12.9999999999999
30
0
41
1
10
89.6010604285977
20
12.9999999999999
30
0
0
SPLINE
5
1EA
100
AcDbEntity
8
1
62
256
6
ByLayer
370
18
48
1
60
0
100
AcDbSpline
70
4
71
3
72
12
73
8
40
0
40
0
40
0
40
0
40
0.354463150657254
40
0.354463150657254
40
0.709042169123009
40
0.709042169123009
40
1
40
1
40
1
40
1
41
1
10
85.9181380764028
20
13.1133982136592
30
0
41
1
10
86.1925799897706
20
13.1247762407098
30
0
41
1
10
86.5165918866905
20
13.1294101156166
30
0
41
1
10
87.2109805683226
20
13.1242973816371
30
0
41
1
10
87.5909562311281
20
13.114469847569
30
0
41
1
10
88.2860493076402
20
13.0847666544072
30
0
41
1
10
88.6074108219077
20
13.0667124965364
30
0
41
1
10
88.9176013198961
20
13.045053624673
30
0
0
SPLINE
5
1EB
100
AcDbEntity
8
1
62
256
6
ByLayer
370
18
48
1
60
0
100
AcDbSpline
70
4
71
3
72
10
73
6
40
0
40
0
40
0
40
0
40
0.962095258059834
40
0.962095258059834
40
1
40
1
40
1
40
1
41
1
10
83.6507849670985
20
18.4269018174648
30
0
41
1
10
83.6787203160083
20
18.4390079160353
30
0
41
1
10
83.705712064998
20
18.4519617709343
30
0
41
1
10
83.7325932679877
20
18.466141218276
30
0
41
1
10
83.7336105390028
20
18.4666796697397
30
0
41
1
10
83.7346260898539
20
18.4672194998931
30
0
0
SPLINE
5
1EC
100
AcDbEntity
8
1
62
256
6
ByLayer
370
18
48
1
60
0
100
AcDbSpline
70
4
71
3
72
14
73
10
40
0
40
0
40
0
40
0
40
0.189846915165079
40
0.189846915165079
40
0.479152066141812
40
0.479152066141812
40
0.758732056942431
40
0.758732056942431
40
1
40
1
40
1
40
1
41
1
10
89.6010604285977
20
13.0000000000018
30
0
41
1
10
89.6316492091869
20
13.0013823458387
30
0
41
1
10
89.6622958866388
20
13.0061951246342
30
0
41
1
10
89.7368525753028
20
13.0267481596461
30
0
41
1
10
89.7804309148746
20
13.047324297316
30
0
41
1
10
89.8554834594559
20
13.1009536270419
30
0
41
1
10
89.8883729156096
20
13.1343595742809
30
0
41
1
10
89.9363918805855
20
13.2045755709848
30
0
41
1
10
89.9538834503444
20
13.2411087406241
30
0
41
1
10
89.965298544938
20
13.2790080925832
30
0
0
SPLINE
5
1ED
100
AcDbEntity
8
1
62
256
6
ByLayer
370
18
48
1
60
0
100
AcDbSpline
70
4
71
3
72
12
73
8
40
0
40
0
40
0
40
0
40
0.300341551680798
40
0.300341551680798
40
0.654427838170604
40
0.654427838170604
40
1
40
1
40
1
40
1
41
1
10
89.9740153632034
20
19.3623200990678
30
0
41
1
10
89.9660142974742
20
19.1314725333786
30
0
41
1
10
89.958945251532
20
18.8982921328031
30
0
41
1
10
89.9457713407142
20
18.3865930386017
30
0
41
1
10
89.9400561376845
20
18.1069718332454
30
0
41
1
10
89.9318184371081
20
17.5519219934474
30
0
41
1
10
89.929214925995
20
17.2760268660504
30
0
41
1
10
89.9281708206912
20
16.9999999999999
30
0
0
SPLINE
5
1EE
100
AcDbEntity
8
1
62
256
6
ByLayer
370
18
48
1
60
0
100
AcDbSpline
70
4
71
3
72
12
73
8
40
0
40
0
40
0
40
0
40
0.0943090333823696
40
0.0943090333823696
40
0.361223064824339
40
0.361223064824339
40
1
40
1
40
1
40
1
41
1
10
87.3896415129255
20
14.7345634214929
30
0
41
1
10
87.3913378243488
20
14.745326073664
30
0
41
1
10
87.3929584281175
20
14.7560920142134
30
0
41
1
10
87.398914853053
20
14.797624784063
30
0
41
1
10
87.4026948959439
20
14.8283765342025
30
0
41
1
10
87.4130882450038
20
14.9301975664417
30
0
41
1
10
87.416579709045
20
15.0003517605821
30
0
41
1
10
87.4159704054606
20
15.0632862115491
30
0
0
SPLINE
5
1EF
100
AcDbEntity
8
1
62
256
6
ByLayer
370
18
48
1
60
0
100
AcDbSpline
70
4
71
3
72
12
73
8
40
0
40
0
40
0
40
0
40
0.252300535292578
40
0.252300535292578
40
0.504603144586053
40
0.504603144586053
40
1
40
1
40
1
40
1
41
1
10
85.9181380764028
20
13.1133982136592
30
0
41
1
10
85.9058354546641
20
13.1128717668271
30
0
41
1
10
85.8925308418275
20
13.1124877000928
30
0
41
1
10
85.8644119070247
20
13.1120189757712
30
0
41
1
10
85.8495101336476
20
13.1119328652078
30
0
41
1
10
85.803944239805
20
13.1121207976719
30
0
41
1
10
85.7711354034743
20
13.1128249157801
30
0
41
1
10
85.7379089848188
20
13.1140588174811
30
0
0
SPLINE
5
1F0
100
AcDbEntity
8
1
62
256
6
ByLayer
370
18
48
1
60
0
100
AcDbSpline
70
4
71
3
72
8
73
4
40
0
40
0
40
0
40
0
40
1
40
1
40
1
40
1
41
1
10
89.981812447255
20
20.6065062501219
30
0
41
1
10
89.9819830496265
20
20.6450406344532
30
0
41
1
10
89.9763833527274
20
20.6840624748388
30
0
41
1
10
89.9652985449382
20
20.7209919074165
30
0
0
SPLINE
5
1F1
100
AcDbEntity
8
1
62
256
6
ByLayer
370
18
48
1
60
0
100
AcDbSpline
70
4
71
3
72
12
73
8
40
0
40
0
40
0
40
0
40
0.457935022582299
40
0.457935022582299
40
0.913210423295396
40
0.913210423295396
40
1
40
1
40
1
40
1
41
1
10
83.7124604200245
20
13.315509598654
30
0
41
1
10
83.6912549317272
20
13.327375704379
30
0
41
1
10
83.6682624002238
20
13.3359782820166
30
0
41
1
10
83.6240380965457
20
13.3467638448669
30
0
41
1
10
83.6022473256932
20
13.3491999616348
30
0
41
1
10
83.5787231445248
20
13.3499444900267
30
0
41
1
10
83.5749845334115
20
13.3499999999999
30
0
41
1
10
83.5713171633047
20
13.3499999999999
30
0
0
SPLINE
5
1F2
100
AcDbEntity
8
1
62
256
6
ByLayer
370
18
48
1
60
0
100
AcDbSpline
70
4
71
2
72
6
73
3
40
0
40
0
40
0
40
1
40
1
40
1
41
0.966168681116127
10
86.8587198121744
20
18.7044581682937
30
0
41
0.968044687545636
10
86.8749389083717
20
18.7904441123866
30
0
41
0.970752916954247
10
86.8927653516199
20
18.8733736107613
30
0
0
SPLINE
5
1F3
100
AcDbEntity
8
1
62
256
6
ByLayer
370
18
48
1
60
0
100
AcDbSpline
70
4
71
3
72
10
73
6
40
0
40
0
40
0
40
0
40
0.481192488668408
40
0.481192488668408
40
1
40
1
40
1
40
1
41
1
10
83.5713171633047
20
20.6499999999999
30
0
41
1
10
83.5914570433888
20
20.6499999999999
30
0
41
1
10
83.614079662768
20
20.651727059974
30
0
41
1
10
83.6621590171022
20
20.661853906681
30
0
41
1
10
83.6884768528631
20
20.6710697462961
30
0
41
1
10
83.7124604200245
20
20.6844904013458
30
0
0
SPLINE
5
1F4
100
AcDbEntity
8
1
62
256
6
ByLayer
370
18
48
1
60
0
100
AcDbSpline
70
4
71
3
72
12
73
8
40
0
40
0
40
0
40
0
40
0.408032065346166
40
0.408032065346166
40
0.762194008086069
40
0.762194008086069
40
1
40
1
40
1
40
1
41
1
10
89.9281708206885
20
16.9999999999999
30
0
41
1
10
89.9294031976135
20
16.6742003520275
30
0
41
1
10
89.9328106187473
20
16.3485277847758
30
0
41
1
10
89.9429420320437
20
15.7452070821198
30
0
41
1
10
89.9491781759235
20
15.4662738705962
30
0
41
1
10
89.9619256551579
20
15.0048169954476
30
0
41
1
10
89.967677952151
20
14.8205275319506
30
0
41
1
10
89.9740153632032
20
14.6376799009369
30
0
0
SPLINE
5
1F5
100
AcDbEntity
8
1
62
256
6
ByLayer
370
18
48
1
60
0
100
AcDbSpline
70
4
71
3
72
8
73
4
40
0
40
0
40
0
40
0
40
1
40
1
40
1
40
1
41
1
10
89.9719114035248
20
14.4848135061183
30
0
41
1
10
89.9733444084365
20
14.5015047315589
30
0
41
1
10
89.9748818157079
20
14.5181854533883
30
0
41
1
10
89.9765169417199
20
14.5347832678381
30
0
0
SPLINE
5
1F6
100
AcDbEntity
8
1
62
256
6
ByLayer
370
18
48
1
60
0
100
AcDbSpline
70
4
71
3
72
18
73
14
40
0
40
0
40
0
40
0
40
0.320801793441994
40
0.320801793441994
40
0.542125304196809
40
0.542125304196809
40
0.767618622189907
40
0.767618622189907
40
0.860309423445835
40
0.860309423445835
40
0.954945406164217
40
0.954945406164217
40
1
40
1
40
1
40
1
41
1
10
88.1657083638693
20
14.5822971533073
30
0
41
1
10
88.1683636881963
20
14.5829185146552
30
0
41
1
10
88.1710054820972
20
14.5836122340703
30
0
41
1
10
88.1753989903742
20
14.5850044445054
30
0
41
1
10
88.1771767212661
20
14.5856348684746
30
0
41
1
10
88.1806629995062
20
14.5871292981542
30
0
41
1
10
88.182397357672
20
14.5879931345428
30
0
41
1
10
88.1845800821081
20
14.5895839535747
30
0
41
1
10
88.1851888141743
20
14.5900999074074
30
0
41
1
10
88.1862511824246
20
14.5912798848787
30
0
41
1
10
88.1867151837654
20
14.5919686581072
30
0
41
1
10
88.1871081711663
20
14.5930866229386
30
0
41
1
10
88.1871908857191
20
14.5934708819776
30
0
41
1
10
88.1872187298277
20
14.5938561764405
30
0
0
SPLINE
5
1F7
100
AcDbEntity
8
1
62
256
6
ByLayer
370
18
48
1
60
0
100
AcDbSpline
70
4
71
3
72
8
73
4
40
0
40
0
40
0
40
0
40
1
40
1
40
1
40
1
41
1
10
89.5822568157405
20
20.9999999999999
30
0
41
1
10
89.5759926666827
20
20.9999999999999
30
0
41
1
10
89.5697284833412
20
20.9999999999999
30
0
41
1
10
89.5634642657159
20
20.9999999999999
30
0
0
SPLINE
5
1F8
100
AcDbEntity
8
1
62
256
6
ByLayer
370
18
48
1
60
0
100
AcDbSpline
70
4
71
3
72
10
73
6
40
0
40
0
40
0
40
0
40
0.154986176652752
40
0.154986176652752
40
1
40
1
40
1
40
1
41
1
10
88.203279699884
20
19.145198156245
30
0
41
1
10
88.2026524126864
20
19.1578040984794
30
0
41
1
10
88.2019909369294
20
19.1705991923746
30
0
41
1
10
88.1975150255941
20
19.2541288293767
30
0
41
1
10
88.192681838389
20
19.3305477428538
30
0
41
1
10
88.1872187298277
20
19.4061438235593
30
0
0
SPLINE
5
1F9
100
AcDbEntity
8
1
62
256
6
ByLayer
370
18
48
1
60
0
100
AcDbSpline
70
4
71
3
72
10
73
6
40
0
40
0
40
0
40
0
40
0.845013823127637
40
0.845013823127637
40
1
40
1
40
1
40
1
41
1
10
88.1872187298277
20
14.5938561764405
30
0
41
1
10
88.1926818383875
20
14.6694522571271
30
0
41
1
10
88.1975150256154
20
14.745871170583
30
0
41
1
10
88.2019909369003
20
14.8294008075927
30
0
41
1
10
88.2026524126797
20
14.8421959015048
30
0
41
1
10
88.2032796998849
20
14.8548018437567
30
0
0
SPLINE
5
1FA
100
AcDbEntity
8
1
62
256
6
ByLayer
370
18
48
1
60
0
100
AcDbSpline
70
4
71
3
72
8
73
4
40
0
40
0
40
0
40
0
40
1
40
1
40
1
40
1
41
1
10
89.9719114035248
20
19.5151864938815
30
0
41
1
10
89.9718930213818
20
19.5154006037501
30
0
41
1
10
89.9718832889659
20
19.515615600242
30
0
41
1
10
89.9718821154607
20
19.5158304172996
30
0
0
SPLINE
5
1FB
100
AcDbEntity
8
1
62
256
6
ByLayer
370
18
48
1
60
0
100
AcDbSpline
70
4
71
3
72
8
73
4
40
0
40
0
40
0
40
0
40
1
40
1
40
1
40
1
41
1
10
89.9765169417158
20
19.4652167322111
30
0
41
1
10
89.9767523709518
20
19.481905795207
30
0
41
1
10
89.9769078121182
20
19.4986840450115
30
0
41
1
10
89.9769821435353
20
19.5154734681242
30
0
0
SPLINE
5
1FC
100
AcDbEntity
8
1
62
256
6
ByLayer
370
18
48
1
60
0
100
AcDbSpline
70
4
71
3
72
8
73
4
40
0
40
0
40
0
40
0
40
1
40
1
40
1
40
1
41
1
10
89.5530495540038
20
20.9994001569336
30
0
41
1
10
89.5565009520841
20
20.9996423586188
30
0
41
1
10
89.5599729565883
20
20.9998427889257
30
0
41
1
10
89.5634642657159
20
20.9999999999981
30
0
0
SPLINE
5
1FD
100
AcDbEntity
8
1
62
256
6
ByLayer
370
18
48
1
60
0
100
AcDbSpline
70
4
71
2
72
7
73
4
40
0
40
0
40
0
40
0.654370525377437
40
1
40
1
40
1
41
1
10
85.9181380764028
20
19.9999999999999
30
0
41
0.946224768518522
10
86.5118816694146
20
19.810394593757
30
0
41
0.946224768518522
10
87.7258074098335
20
19.5206422303946
30
0
41
0.961227017619237
10
88.1657083638694
20
19.4177028466925
30
0
0
SPLINE
5
1FE
100
AcDbEntity
8
1
62
256
6
ByLayer
370
18
48
1
60
0
100
AcDbSpline
70
4
71
3
72
20
73
16
40
0
40
0
40
0
40
0
40
0.499887314951975
40
0.52329337765565
40
0.536593974883215
40
0.556415827020236
40
0.627614323230901
40
0.751517123250165
40
0.826458608032804
40
0.856484872176833
40
0.873237563830811
40
0.883359993672871
40
0.898518105253375
40
0.980416915421656
40
1
40
1
40
1
40
1
41
1
10
78.3422542416147
20
20.6499999999999
30
0
41
1
10
78.9422041692665
20
20.6499999999999
30
0
41
1
10
79.5625496398508
20
20.6499999999999
30
0
41
1
10
80.1761082732762
20
20.6499999999999
30
0
41
1
10
80.2405607145533
20
20.6499999999999
30
0
41
1
10
80.3576350811077
20
20.6499999999999
30
0
41
1
10
80.5838825704072
20
20.6499999999999
30
0
41
1
10
80.8289823166331
20
20.6499999999999
30
0
41
1
10
80.9858247574164
20
20.6499999999999
30
0
41
1
10
81.0538140386709
20
20.6499999999999
30
0
41
1
10
81.0824212643488
20
20.6499999999999
30
0
41
1
10
81.1037468340906
20
20.6499999999999
30
0
41
1
10
81.1584849689175
20
20.6499999999999
30
0
41
1
10
81.2183721678508
20
20.6499999999999
30
0
41
1
10
81.2710628770631
20
20.6499999999999
30
0
41
1
10
81.2812513353167
20
20.6499999999999
30
0
0
SPLINE
5
1FF
100
AcDbEntity
8
1
62
256
6
ByLayer
370
18
48
1
60
0
100
AcDbSpline
70
4
71
3
72
12
73
8
40
0
40
0
40
0
40
0
40
0.5012167270563
40
0.5012167270563
40
0.930329951363967
40
0.930329951363967
40
1
40
1
40
1
40
1
41
1
10
81.2812513353167
20
20.6499999999999
30
0
41
1
10
81.2922455864195
20
20.6499999999999
30
0
41
1
10
81.3082192009482
20
20.6499999999999
30
0
41
1
10
81.3439030933991
20
20.6499999999999
30
0
41
1
10
81.3632460095173
20
20.6499999999999
30
0
41
1
10
81.3872136848018
20
20.6499999999999
30
0
41
1
10
81.3906431609676
20
20.6499999999999
30
0
41
1
10
81.3941061795566
20
20.6499999999999
30
0
0
SPLINE
5
200
100
AcDbEntity
8
1
62
256
6
ByLayer
370
18
48
1
60
0
100
AcDbSpline
70
4
71
3
72
8
73
4
40
0
40
0
40
0
40
0
40
1
40
1
40
1
40
1
41
1
10
89.9740153632034
20
19.3623200990679
30
0
41
1
10
89.9751813326556
20
19.3959607687999
30
0
41
1
10
89.9760228263376
20
19.4304778408701
30
0
41
1
10
89.9765169417158
20
19.4652167322111
30
0
0
SPLINE
5
201
100
AcDbEntity
8
1
62
256
6
ByLayer
370
18
48
1
60
0
100
AcDbSpline
70
4
71
3
72
8
73
4
40
0
40
0
40
0
40
0
40
1
40
1
40
1
40
1
41
1
10
89.5530461720149
20
12.9999999999999
30
0
41
1
10
89.5565188804515
20
12.9999999999999
30
0
41
1
10
89.5599915783518
20
12.9999999999999
30
0
41
1
10
89.563464265716
20
12.9999999999999
30
0
0
SPLINE
5
202
100
AcDbEntity
8
1
62
256
6
ByLayer
370
18
48
1
60
0
100
AcDbSpline
70
4
71
3
72
12
73
8
40
0
40
0
40
0
40
0
40
0.421091947538836
40
0.421091947538836
40
0.84218389520899
40
0.84218389520899
40
1
40
1
40
1
40
1
41
1
10
88.9176013198961
20
13.045053624673
30
0
41
1
10
89.0068207585529
20
13.0388256431097
30
0
41
1
10
89.0960295821766
20
13.0325927194664
30
0
41
1
10
89.2744257698522
20
13.0201169988529
30
0
41
1
10
89.3636131705423
20
13.0138741993205
30
0
41
1
10
89.4862112100579
20
13.0052849515132
30
0
41
1
10
89.5196311423216
20
13.0029427437639
30
0
41
1
10
89.5530495540038
20
13.0005998430663
30
0
0
SPLINE
5
203
100
AcDbEntity
8
1
62
256
6
ByLayer
370
18
48
1
60
0
100
AcDbSpline
70
4
71
2
72
6
73
3
40
0
40
0
40
0
40
1
40
1
40
1
41
0.966168681116128
10
86.8587198121745
20
15.2955418317061
30
0
41
0.968044687545636
10
86.8749389083717
20
15.2095558876132
30
0
41
0.970752916954246
10
86.8927653516199
20
15.1266263892385
30
0
0
SPLINE
5
204
100
AcDbEntity
8
1
62
256
6
ByLayer
370
18
48
1
60
0
100
AcDbSpline
70
4
71
3
72
12
73
8
40
0
40
0
40
0
40
0
40
0.252298910854863
40
0.252298910854863
40
0.504600738942064
40
0.504600738942064
40
1
40
1
40
1
40
1
41
1
10
85.7379089848188
20
20.8859411825187
30
0
41
1
10
85.7549811478656
20
20.8865751771493
30
0
41
1
10
85.7718977291389
20
20.8870699796771
30
0
41
1
10
85.8047885441838
20
20.8877623585859
30
0
41
1
10
85.8208649610945
20
20.8879620801591
30
0
41
1
10
85.8662570824673
20
20.888107731311
30
0
41
1
10
85.8941943690051
20
20.887626371927
30
0
41
1
10
85.9181380764028
20
20.8866017863406
30
0
0
SPLINE
5
205
100
AcDbEntity
8
1
62
256
6
ByLayer
370
18
48
1
60
0
100
AcDbSpline
70
4
71
3
72
10
73
6
40
0
40
0
40
0
40
0
40
0.79594190114882
40
0.79594190114882
40
1
40
1
40
1
40
1
41
1
10
83.5550331848732
20
18.4135075244661
30
0
41
1
10
83.5798879980712
20
18.4141410225202
30
0
41
1
10
83.6044344372232
20
18.4131383818211
30
0
41
1
10
83.637222384317
20
18.4216899480848
30
0
41
1
10
83.6440633208305
20
18.423988916232
30
0
41
1
10
83.6507849670985
20
18.4269018174648
30
0
0
SPLINE
5
206
100
AcDbEntity
8
1
62
256
6
ByLayer
370
18
48
1
60
0
100
AcDbSpline
70
4
71
3
72
8
73
4
40
0
40
0
40
0
40
0
40
1
40
1
40
1
40
1
41
1
10
89.9718821154607
20
14.4841695827002
30
0
41
1
10
89.9718832889659
20
14.4843843997578
30
0
41
1
10
89.9718930213818
20
14.4845993962497
30
0
41
1
10
89.9719114035248
20
14.4848135061183
30
0
0
SPLINE
5
207
100
AcDbEntity
8
1
62
256
6
ByLayer
370
18
48
1
60
0
100
AcDbSpline
70
4
71
1
72
4
73
2
40
0
40
0
40
1
40
1
41
1
10
89.965298544938
20
20.7209919074166
30
0
41
1
10
89.9718821154607
20
19.5158304172996
30
0
0
LINE
5
70
100
AcDbEntity
8
80
62
256
6
ByLayer
370
18
48
1
60
0
100
AcDbLine
10
0
20
0
30
0
11
-5
21
0
31
0
39
0
210
0
220
0
230
1
0
LINE
5
71
100
AcDbEntity
8
81
62
256
6
ByLayer
370
18
48
1
60
0
100
AcDbLine
10
89.9747
20
21
30
0
11
94.9747
21
21
31
0
39
0
210
0
220
0
230
1
0
LINE
5
72
100
AcDbEntity
8
1
62
256
6
ByLayer
370
13
48
1
60
0
100
AcDbLine
10
54.8747
20
13.425
30
0
11
54.8747
21
20.575
31
0
39
0
210
0
220
0
230
1
0
LINE
5
74
100
AcDbEntity
8
SK1
62
256
6
ByLayer
370
13
48
1
60
0
100
AcDbLine
10
-1.227706
20
19.85
30
0
11
-1.227706
21
-20
31
0
39
0
210
0
220
0
230
1
0
LINE
5
76
100
AcDbEntity
8
1
62
256
6
ByLayer
370
13
48
1
60
0
100
AcDbLine
10
0.317776
20
-20.005174
30
0
11
0.317776
21
20.575
31
0
39
0
210
0
220
0
230
1
0
LINE
5
77
100
AcDbEntity
8
1
62
256
6
ByLayer
370
13
48
1
60
0
100
AcDbLine
10
71.391341
20
20.575
30
0
11
71.391341
21
13.425
31
0
39
0
210
0
220
0
230
1
0
LINE
5
78
100
AcDbEntity
8
1
62
256
6
ByLayer
370
13
48
1
60
0
100
AcDbLine
10
76.391341
20
13.425
30
0
11
76.391341
21
20.575
31
0
39
0
210
0
220
0
230
1
0
LINE
5
79
100
AcDbEntity
8
1
62
256
6
ByLayer
370
18
48
1
60
0
100
AcDbLine
10
80.555186
20
20.575
30
0
11
81.270352
21
18.219262
31
0
39
0
210
0
220
0
230
1
0
LINE
5
7A
100
AcDbEntity
8
1
62
256
6
ByLayer
370
18
48
1
60
0
100
AcDbLine
10
23.3747
20
4.86
30
0
11
2.651992
21
-20.027271
31
0
39
0
210
0
220
0
230
1
0
LINE
5
7B
100
AcDbEntity
8
1
62
256
6
ByLayer
370
18
48
1
60
0
100
AcDbLine
10
49.8747
20
20.575
30
0
11
54.8747
21
20.575
31
0
39
0
210
0
220
0
230
1
0
LINE
5
7C
100
AcDbEntity
8
1
62
256
6
ByLayer
370
18
48
1
60
0
100
AcDbLine
10
1.6747
20
-20.027271
30
0
11
1.6747
21
20.575
31
0
39
0
210
0
220
0
230
1
0
LINE
5
7D
100
AcDbEntity
8
1
62
256
6
ByLayer
370
18
48
1
60
0
100
AcDbLine
10
-0.1
20
-20.002029
30
0
11
-0.1
21
20.314976
31
0
39
0
210
0
220
0
230
1
0
LINE
5
7E
100
AcDbEntity
8
1
62
256
6
ByLayer
370
18
48
1
60
0
100
AcDbLine
10
71.391341
20
20.575
30
0
11
76.391341
21
20.575
31
0
39
0
210
0
220
0
230
1
0
LINE
5
7F
100
AcDbEntity
8
1
62
256
6
ByLayer
370
18
48
1
60
0
100
AcDbLine
10
49.8747
20
20.575
30
0
11
1.6747
21
20.575
31
0
39
0
210
0
220
0
230
1
0
LINE
5
80
100
AcDbEntity
8
1
62
256
6
ByLayer
370
18
48
1
60
0
100
AcDbLine
10
49.8747
20
20.575
30
0
11
49.8747
21
13.425
31
0
39
0
210
0
220
0
230
1
0
LINE
5
81
100
AcDbEntity
8
1
62
256
6
ByLayer
370
18
48
1
60
0
100
AcDbLine
10
54.8747
20
13.425
30
0
11
49.8747
21
13.425
31
0
39
0
210
0
220
0
230
1
0
LINE
5
82
100
AcDbEntity
8
1
62
256
6
ByLayer
370
18
48
1
60
0
100
AcDbLine
10
23.3747
20
11.825
30
0
11
23.3747
21
4.86
31
0
39
0
210
0
220
0
230
1
0
LINE
5
83
100
AcDbEntity
8
1
62
256
6
ByLayer
370
18
48
1
60
0
100
AcDbLine
10
81.270352
20
15.780738
30
0
11
80.555186
21
13.425
31
0
39
0
210
0
220
0
230
1
0
LINE
5
84
100
AcDbEntity
8
1
62
256
6
ByLayer
370
18
48
1
60
0
100
AcDbLine
10
71.391341
20
13.425
30
0
11
76.391341
21
13.425
31
0
39
0
210
0
220
0
230
1
0
LINE
5
85
100
AcDbEntity
8
1
62
256
6
ByLayer
370
18
48
1
60
0
100
AcDbLine
10
54.8747
20
20.575
30
0
11
71.391341
21
20.575
31
0
39
0
210
0
220
0
230
1
0
LINE
5
86
100
AcDbEntity
8
1
62
256
6
ByLayer
370
18
48
1
60
0
100
AcDbLine
10
49.8747
20
13.425
30
0
11
24.9747
21
13.425
31
0
39
0
210
0
220
0
230
1
0
LINE
5
87
100
AcDbEntity
8
1
62
256
6
ByLayer
370
18
48
1
60
0
100
AcDbLine
10
76.391341
20
13.425
30
0
11
80.555186
21
13.425
31
0
39
0
210
0
220
0
230
1
0
LINE
5
88
100
AcDbEntity
8
1
62
256
6
ByLayer
370
18
48
1
60
0
100
AcDbLine
10
76.391341
20
20.575
30
0
11
80.555186
21
20.575
31
0
39
0
210
0
220
0
230
1
0
LINE
5
89
100
AcDbEntity
8
1
62
256
6
ByLayer
370
18
48
1
60
0
100
AcDbLine
10
2.651992
20
-20.027271
30
0
11
1.6747
21
-20.027271
31
0
39
0
210
0
220
0
230
1
0
LINE
5
8A
100
AcDbEntity
8
1
62
256
6
ByLayer
370
18
48
1
60
0
100
AcDbLine
10
71.391341
20
13.425
30
0
11
54.8747
21
13.425
31
0
39
0
210
0
220
0
230
1
0
LINE
5
8B
100
AcDbEntity
8
1
62
256
6
ByLayer
370
18
48
1
60
0
100
AcDbLine
10
0.111837
20
20.575
30
0
11
0.317776
21
20.575
31
0
39
0
210
0
220
0
230
1
0
LINE
5
8C
100
AcDbEntity
8
1
62
256
6
ByLayer
370
18
48
1
60
0
100
AcDbLine
10
0.317776
20
-20.005174
30
0
11
1.6747
21
-20.027271
31
0
39
0
210
0
220
0
230
1
0
LINE
5
8D
100
AcDbEntity
8
1
62
256
6
ByLayer
370
18
48
1
60
0
100
AcDbLine
10
0.317776
20
20.575
30
0
11
1.6747
21
20.575
31
0
39
0
210
0
220
0
230
1
0
LINE
5
8E
100
AcDbEntity
8
SK1
62
256
6
ByLayer
370
18
48
1
60
0
100
AcDbLine
10
-160.0253
20
-20
30
0
11
-160.0253
21
19.85
31
0
39
0
210
0
220
0
230
1
0
LINE
5
8F
100
AcDbEntity
8
SK1
62
256
6
ByLayer
370
18
48
1
60
0
100
AcDbLine
10
-0.1
20
-20.002029
30
0
11
-0.1
21
20.314976
31
0
39
0
210
0
220
0
230
1
0
LINE
5
90
100
AcDbEntity
8
SK1
62
256
6
ByLayer
370
18
48
1
60
0
100
AcDbLine
10
-160.0253
20
19.85
30
0
11
-1.227706
21
19.85
31
0
39
0
210
0
220
0
230
1
0
LINE
5
91
100
AcDbEntity
8
SK1
62
256
6
ByLayer
370
18
48
1
60
0
100
AcDbLine
10
-160.0253
20
-20
30
0
11
-1.227706
21
-20
31
0
39
0
210
0
220
0
230
1
0
LINE
5
92
100
AcDbEntity
8
1
62
256
6
ByLayer
370
13
48
1
60
0
100
AcDbLine
10
76.391341
20
13.425
30
0
11
76.391341
21
20.575
31
0
39
0
210
0
220
0
230
1
0
LINE
5
93
100
AcDbEntity
8
1
62
256
6
ByLayer
370
13
48
1
60
0
100
AcDbLine
10
71.391341
20
20.575
30
0
11
71.391341
21
13.425
31
0
39
0
210
0
220
0
230
1
0
LINE
5
94
100
AcDbEntity
8
1
62
256
6
ByLayer
370
13
48
1
60
0
100
AcDbLine
10
-1.227706
20
19.85
30
0
11
-1.227706
21
-20
31
0
39
0
210
0
220
0
230
1
0
LINE
5
95
100
AcDbEntity
8
1
62
256
6
ByLayer
370
13
48
1
60
0
100
AcDbLine
10
73.888062
20
20.65
30
0
11
73.888062
21
20.575
31
0
39
0
210
0
220
0
230
1
0
LINE
5
96
100
AcDbEntity
8
1
62
256
6
ByLayer
370
13
48
1
60
0
100
AcDbLine
10
73.997588
20
20.575002
30
0
11
73.997588
21
20.65
31
0
39
0
210
0
220
0
230
1
0
LINE
5
97
100
AcDbEntity
8
1
62
256
6
ByLayer
370
13
48
1
60
0
100
AcDbLine
10
73.888062
20
13.425
30
0
11
73.888062
21
13.35
31
0
39
0
210
0
220
0
230
1
0
LINE
5
98
100
AcDbEntity
8
1
62
256
6
ByLayer
370
13
48
1
60
0
100
AcDbLine
10
54.8747
20
13.425
30
0
11
54.8747
21
20.575
31
0
39
0
210
0
220
0
230
1
0
LINE
5
99
100
AcDbEntity
8
1
62
256
6
ByLayer
370
13
48
1
60
0
100
AcDbLine
10
0.317776
20
-20.005174
30
0
11
0.317776
21
20.575
31
0
39
0
210
0
220
0
230
1
0
LINE
5
9A
100
AcDbEntity
8
1
62
256
6
ByLayer
370
13
48
1
60
0
100
AcDbLine
10
73.997588
20
13.35
30
0
11
73.997588
21
13.424998
31
0
39
0
210
0
220
0
230
1
0
LINE
5
9B
100
AcDbEntity
8
1
62
256
6
ByLayer
370
13
48
1
60
0
100
AcDbLine
10
83.557849
20
20.65
30
0
11
83.557849
21
18.776067
31
0
39
0
210
0
220
0
230
1
0
LINE
5
9C
100
AcDbEntity
8
1
62
256
6
ByLayer
370
13
48
1
60
0
100
AcDbLine
10
82.542607
20
20.65
30
0
11
82.542607
21
18.623309
31
0
39
0
210
0
220
0
230
1
0
LINE
5
9D
100
AcDbEntity
8
1
62
256
6
ByLayer
370
13
48
1
60
0
100
AcDbLine
10
83.557849
20
15.223933
30
0
11
83.557849
21
13.35
31
0
39
0
210
0
220
0
230
1
0
LINE
5
9E
100
AcDbEntity
8
1
62
256
6
ByLayer
370
13
48
1
60
0
100
AcDbLine
10
82.542607
20
13.35
30
0
11
82.542607
21
15.264707
31
0
39
0
210
0
220
0
230
1
0
LINE
5
9F
100
AcDbEntity
8
1
62
256
6
ByLayer
370
13
48
1
60
0
100
AcDbLine
10
84.174277
20
19.289125
30
0
11
84.174277
21
20.827874
31
0
39
0
210
0
220
0
230
1
0
LINE
5
A0
100
AcDbEntity
8
1
62
256
6
ByLayer
370
13
48
1
60
0
100
AcDbLine
10
84.174277
20
13.172126
30
0
11
84.174277
21
14.710875
31
0
39
0
210
0
220
0
230
1
0
LINE
5
A1
100
AcDbEntity
8
1
62
256
6
ByLayer
370
13
48
1
60
0
100
AcDbLine
10
83.557849
20
18.776067
30
0
11
83.759815
21
18.776067
31
0
39
0
210
0
220
0
230
1
0
LINE
5
A2
100
AcDbEntity
8
1
62
256
6
ByLayer
370
13
48
1
60
0
100
AcDbLine
10
84.092239
20
14.744955
30
0
11
84.142496
21
14.744955
31
0
39
0
210
0
220
0
230
1
0
LINE
5
A3
100
AcDbEntity
8
1
62
256
6
ByLayer
370
13
48
1
60
0
100
AcDbLine
10
83.882736
20
15.095878
30
0
11
84.005075
21
15.221425
31
0
39
0
210
0
220
0
230
1
0
LINE
5
A4
100
AcDbEntity
8
1
62
256
6
ByLayer
370
13
48
1
60
0
100
AcDbLine
10
83.759815
20
13.288588
30
0
11
83.759815
21
15.223933
31
0
39
0
210
0
220
0
230
1
0
LINE
5
A5
100
AcDbEntity
8
1
62
256
6
ByLayer
370
13
48
1
60
0
100
AcDbLine
10
84.092239
20
14.744955
30
0
11
84.092239
21
13.175342
31
0
39
0
210
0
220
0
230
1
0
LINE
5
A6
100
AcDbEntity
8
1
62
256
6
ByLayer
370
13
48
1
60
0
100
AcDbLine
10
83.759815
20
15.223933
30
0
11
83.557849
21
15.223933
31
0
39
0
210
0
220
0
230
1
0
LINE
5
A7
100
AcDbEntity
8
1
62
256
6
ByLayer
370
13
48
1
60
0
100
AcDbLine
10
83.882736
20
18.904122
30
0
11
84.005075
21
18.778575
31
0
39
0
210
0
220
0
230
1
0
LINE
5
A8
100
AcDbEntity
8
1
62
256
6
ByLayer
370
13
48
1
60
0
100
AcDbLine
10
84.092239
20
19.255045
30
0
11
84.142496
21
19.255045
31
0
39
0
210
0
220
0
230
1
0
LINE
5
A9
100
AcDbEntity
8
1
62
256
6
ByLayer
370
13
48
1
60
0
100
AcDbLine
10
83.759815
20
18.776067
30
0
11
83.759815
21
20.711412
31
0
39
0
210
0
220
0
230
1
0
LINE
5
AA
100
AcDbEntity
8
1
62
256
6
ByLayer
370
13
48
1
60
0
100
AcDbLine
10
84.092239
20
20.824658
30
0
11
84.092239
21
19.255045
31
0
39
0
210
0
220
0
230
1
0
LINE
5
AB
100
AcDbEntity
8
1
62
256
6
ByLayer
370
13
48
1
60
0
100
AcDbLine
10
83.742635
20
15.521906
30
0
11
83.692294
21
15.484619
31
0
39
0
210
0
220
0
230
1
0
LINE
5
AC
100
AcDbEntity
8
1
62
256
6
ByLayer
370
13
48
1
60
0
100
AcDbLine
10
84.142496
20
13.173221
30
0
11
84.142496
21
14.744955
31
0
39
0
210
0
220
0
230
1
0
LINE
5
AD
100
AcDbEntity
8
1
62
256
6
ByLayer
370
13
48
1
60
0
100
AcDbLine
10
84.142496
20
19.255045
30
0
11
84.142496
21
20.826779
31
0
39
0
210
0
220
0
230
1
0
LINE
5
AE
100
AcDbEntity
8
1
62
256
6
ByLayer
370
18
48
1
60
0
100
AcDbLine
10
78.342253
20
13.424999
30
0
11
78.342253
21
13.35
31
0
39
0
210
0
220
0
230
1
0
LINE
5
AF
100
AcDbEntity
8
1
62
256
6
ByLayer
370
18
48
1
60
0
100
AcDbLine
10
78.342253
20
20.575001
30
0
11
78.342253
21
20.65
31
0
39
0
210
0
220
0
230
1
0
LINE
5
B0
100
AcDbEntity
8
1
62
256
6
ByLayer
370
13
48
1
60
0
100
AcDbLine
10
85.29233
20
17
30
0
11
85.388329
21
17
31
0
39
0
210
0
220
0
230
1
0
LINE
5
B1
100
AcDbEntity
8
1
62
256
6
ByLayer
370
18
48
1
60
0
100
AcDbLine
10
54.8747
20
20.575
30
0
11
71.391341
21
20.575
31
0
39
0
210
0
220
0
230
1
0
LINE
5
B2
100
AcDbEntity
8
1
62
256
6
ByLayer
370
18
48
1
60
0
100
AcDbLine
10
76.391341
20
13.425
30
0
11
80.555186
21
13.425
31
0
39
0
210
0
220
0
230
1
0
LINE
5
B3
100
AcDbEntity
8
1
62
256
6
ByLayer
370
18
48
1
60
0
100
AcDbLine
10
71.391341
20
20.575
30
0
11
76.391341
21
20.575
31
0
39
0
210
0
220
0
230
1
0
LINE
5
B4
100
AcDbEntity
8
1
62
256
6
ByLayer
370
18
48
1
60
0
100
AcDbLine
10
71.391341
20
13.425
30
0
11
76.391341
21
13.425
31
0
39
0
210
0
220
0
230
1
0
LINE
5
B5
100
AcDbEntity
8
1
62
256
6
ByLayer
370
18
48
1
60
0
100
AcDbLine
10
49.8747
20
20.575
30
0
11
54.8747
21
20.575
31
0
39
0
210
0
220
0
230
1
0
LINE
5
B6
100
AcDbEntity
8
1
62
256
6
ByLayer
370
18
48
1
60
0
100
AcDbLine
10
76.391341
20
20.575
30
0
11
80.555186
21
20.575
31
0
39
0
210
0
220
0
230
1
0
LINE
5
B7
100
AcDbEntity
8
1
62
256
6
ByLayer
370
18
48
1
60
0
100
AcDbLine
10
54.8747
20
13.425
30
0
11
49.8747
21
13.425
31
0
39
0
210
0
220
0
230
1
0
LINE
5
B8
100
AcDbEntity
8
1
62
256
6
ByLayer
370
18
48
1
60
0
100
AcDbLine
10
71.391341
20
13.425
30
0
11
54.8747
21
13.425
31
0
39
0
210
0
220
0
230
1
0
LINE
5
B9
100
AcDbEntity
8
1
62
256
6
ByLayer
370
18
48
1
60
0
100
AcDbLine
10
49.8747
20
20.575
30
0
11
1.6747
21
20.575
31
0
39
0
210
0
220
0
230
1
0
LINE
5
BA
100
AcDbEntity
8
1
62
256
6
ByLayer
370
18
48
1
60
0
100
AcDbLine
10
23.3747
20
11.825
30
0
11
23.3747
21
4.86
31
0
39
0
210
0
220
0
230
1
0
LINE
5
BB
100
AcDbEntity
8
1
62
256
6
ByLayer
370
18
48
1
60
0
100
AcDbLine
10
49.8747
20
13.425
30
0
11
24.9747
21
13.425
31
0
39
0
210
0
220
0
230
1
0
LINE
5
BC
100
AcDbEntity
8
1
62
256
6
ByLayer
370
18
48
1
60
0
100
AcDbLine
10
49.8747
20
20.575
30
0
11
49.8747
21
13.425
31
0
39
0
210
0
220
0
230
1
0
LINE
5
BD
100
AcDbEntity
8
1
62
256
6
ByLayer
370
18
48
1
60
0
100
AcDbLine
10
80.555186
20
20.575
30
0
11
81.270352
21
18.219262
31
0
39
0
210
0
220
0
230
1
0
LINE
5
BE
100
AcDbEntity
8
1
62
256
6
ByLayer
370
18
48
1
60
0
100
AcDbLine
10
81.270352
20
15.780738
30
0
11
80.555186
21
13.425
31
0
39
0
210
0
220
0
230
1
0
LINE
5
BF
100
AcDbEntity
8
1
62
256
6
ByLayer
370
18
48
1
60
0
100
AcDbLine
10
-160.0253
20
-20
30
0
11
-160.0253
21
19.85
31
0
39
0
210
0
220
0
230
1
0
LINE
5
C0
100
AcDbEntity
8
1
62
256
6
ByLayer
370
18
48
1
60
0
100
AcDbLine
10
0.111837
20
20.575
30
0
11
0.317776
21
20.575
31
0
39
0
210
0
220
0
230
1
0
LINE
5
C1
100
AcDbEntity
8
1
62
256
6
ByLayer
370
18
48
1
60
0
100
AcDbLine
10
1.6747
20
-20.027271
30
0
11
1.6747
21
20.575
31
0
39
0
210
0
220
0
230
1
0
LINE
5
C2
100
AcDbEntity
8
1
62
256
6
ByLayer
370
18
48
1
60
0
100
AcDbLine
10
0.317776
20
20.575
30
0
11
1.6747
21
20.575
31
0
39
0
210
0
220
0
230
1
0
LINE
5
C3
100
AcDbEntity
8
1
62
256
6
ByLayer
370
18
48
1
60
0
100
AcDbLine
10
-160.0253
20
19.85
30
0
11
-1.227706
21
19.85
31
0
39
0
210
0
220
0
230
1
0
LINE
5
C4
100
AcDbEntity
8
1
62
256
6
ByLayer
370
18
48
1
60
0
100
AcDbLine
10
2.651992
20
-20.027271
30
0
11
1.6747
21
-20.027271
31
0
39
0
210
0
220
0
230
1
0
LINE
5
C5
100
AcDbEntity
8
1
62
256
6
ByLayer
370
18
48
1
60
0
100
AcDbLine
10
-160.0253
20
-20
30
0
11
-1.227706
21
-20
31
0
39
0
210
0
220
0
230
1
0
LINE
5
C6
100
AcDbEntity
8
1
62
256
6
ByLayer
370
18
48
1
60
0
100
AcDbLine
10
0.317776
20
-20.005174
30
0
11
1.6747
21
-20.027271
31
0
39
0
210
0
220
0
230
1
0
LINE
5
C7
100
AcDbEntity
8
1
62
256
6
ByLayer
370
18
48
1
60
0
100
AcDbLine
10
23.3747
20
4.86
30
0
11
2.651992
21
-20.027271
31
0
39
0
210
0
220
0
230
1
0
LINE
5
C8
100
AcDbEntity
8
1
62
256
6
ByLayer
370
18
48
1
60
0
100
AcDbLine
10
82.542607
20
20.65
30
0
11
81.394106
21
20.65
31
0
39
0
210
0
220
0
230
1
0
LINE
5
C9
100
AcDbEntity
8
1
62
256
6
ByLayer
370
18
48
1
60
0
100
AcDbLine
10
73.997588
20
20.65
30
0
11
73.888062
21
20.65
31
0
39
0
210
0
220
0
230
1
0
LINE
5
CA
100
AcDbEntity
8
1
62
256
6
ByLayer
370
18
48
1
60
0
100
AcDbLine
10
83.759815
20
13.288588
30
0
11
83.890617
21
13.213069
31
0
39
0
210
0
220
0
230
1
0
LINE
5
CB
100
AcDbEntity
8
1
62
256
6
ByLayer
370
18
48
1
60
0
100
AcDbLine
10
84.174277
20
20.827874
30
0
11
85.737909
21
20.885941
31
0
39
0
210
0
220
0
230
1
0
LINE
5
CC
100
AcDbEntity
8
1
62
256
6
ByLayer
370
18
48
1
60
0
100
AcDbLine
10
81.394106
20
13.35
30
0
11
82.542607
21
13.35
31
0
39
0
210
0
220
0
230
1
0
LINE
5
CD
100
AcDbEntity
8
1
62
256
6
ByLayer
370
18
48
1
60
0
100
AcDbLine
10
82.542607
20
13.35
30
0
11
83.557849
21
13.35
31
0
39
0
210
0
220
0
230
1
0
LINE
5
CE
100
AcDbEntity
8
1
62
256
6
ByLayer
370
18
48
1
60
0
100
AcDbLine
10
89.981812
20
13.393494
30
0
11
89.976982
21
14.484527
31
0
39
0
210
0
220
0
230
1
0
LINE
5
CF
100
AcDbEntity
8
1
62
256
6
ByLayer
370
18
48
1
60
0
100
AcDbLine
10
78.342253
20
13.35
30
0
11
73.997588
21
13.35
31
0
39
0
210
0
220
0
230
1
0
LINE
5
D0
100
AcDbEntity
8
1
62
256
6
ByLayer
370
18
48
1
60
0
100
AcDbLine
10
83.890617
20
20.786931
30
0
11
83.759815
21
20.711412
31
0
39
0
210
0
220
0
230
1
0
LINE
5
D1
100
AcDbEntity
8
1
62
256
6
ByLayer
370
18
48
1
60
0
100
AcDbLine
10
83.557849
20
20.65
30
0
11
83.571317
21
20.65
31
0
39
0
210
0
220
0
230
1
0
LINE
5
D2
100
AcDbEntity
8
1
62
256
6
ByLayer
370
18
48
1
60
0
100
AcDbLine
10
84.092239
20
20.824658
30
0
11
84.002018
21
20.81993
31
0
39
0
210
0
220
0
230
1
0
LINE
5
D3
100
AcDbEntity
8
1
62
256
6
ByLayer
370
18
48
1
60
0
100
AcDbLine
10
83.557849
20
20.65
30
0
11
82.542607
21
20.65
31
0
39
0
210
0
220
0
230
1
0
LINE
5
D4
100
AcDbEntity
8
1
62
256
6
ByLayer
370
18
48
1
60
0
100
AcDbLine
10
73.997588
20
20.65
30
0
11
78.342253
21
20.65
31
0
39
0
210
0
220
0
230
1
0
LINE
5
D5
100
AcDbEntity
8
1
62
256
6
ByLayer
370
18
48
1
60
0
100
AcDbLine
10
73.888062
20
13.35
30
0
11
73.997588
21
13.35
31
0
39
0
210
0
220
0
230
1
0
LINE
5
D6
100
AcDbEntity
8
1
62
256
6
ByLayer
370
18
48
1
60
0
100
AcDbLine
10
89.976982
20
19.515473
30
0
11
89.981812
21
20.606506
31
0
39
0
210
0
220
0
230
1
0
LINE
5
D7
100
AcDbEntity
8
1
62
256
6
ByLayer
370
18
48
1
60
0
100
AcDbLine
10
83.571317
20
13.35
30
0
11
83.557849
21
13.35
31
0
39
0
210
0
220
0
230
1
0
LINE
5
D8
100
AcDbEntity
8
1
62
256
6
ByLayer
370
18
48
1
60
0
100
AcDbLine
10
85.737909
20
13.114059
30
0
11
84.174277
21
13.172126
31
0
39
0
210
0
220
0
230
1
0
LINE
5
D9
100
AcDbEntity
8
1
62
256
6
ByLayer
370
18
48
1
60
0
100
AcDbLine
10
84.002018
20
13.18007
30
0
11
84.092239
21
13.175342
31
0
39
0
210
0
220
0
230
1
0
LINE
5
DA
100
AcDbEntity
8
SK2
62
256
6
ByLayer
370
13
48
1
60
0
100
AcDbLine
10
-169.6253
20
20
30
0
11
-169.6253
21
-20
31
0
39
0
210
0
220
0
230
1
0
LINE
5
DC
100
AcDbEntity
8
SK2
62
256
6
ByLayer
370
13
48
1
60
0
100
AcDbLine
10
-162.0253
20
-20
30
0
11
-171.6253
21
-20
31
0
39
0
210
0
220
0
230
1
0
LINE
5
DD
100
AcDbEntity
8
SK2
62
256
6
ByLayer
370
13
48
1
60
0
100
AcDbLine
10
-162.0253
20
20
30
0
11
-171.6253
21
20
31
0
39
0
210
0
220
0
230
1
0
LINE
5
DE
100
AcDbEntity
8
SK2
62
256
6
ByLayer
370
18
48
1
60
0
100
AcDbLine
10
-169.6253
20
-20
30
0
11
-170.043297
21
-16.825002
31
0
39
0
210
0
220
0
230
1
0
LINE
5
DF
100
AcDbEntity
8
SK2
62
256
6
ByLayer
370
18
48
1
60
0
100
AcDbLine
10
-169.6253
20
-20
30
0
11
-169.207303
21
-16.824998
31
0
39
0
210
0
220
0
230
1
0
LINE
5
E0
100
AcDbEntity
8
SK2
62
256
6
ByLayer
370
18
48
1
60
0
100
AcDbLine
10
-170.043297
20
-16.825002
30
0
11
-169.207303
21
-16.824998
31
0
39
0
210
0
220
0
230
1
0
LINE
5
E1
100
AcDbEntity
8
SK2
62
256
6
ByLayer
370
18
48
1
60
0
100
AcDbLine
10
-169.6253
20
20
30
0
11
-169.207303
21
16.825002
31
0
39
0
210
0
220
0
230
1
0
LINE
5
E2
100
AcDbEntity
8
SK2
62
256
6
ByLayer
370
18
48
1
60
0
100
AcDbLine
10
-169.6253
20
20
30
0
11
-170.043297
21
16.824998
31
0
39
0
210
0
220
0
230
1
0
LINE
5
E3
100
AcDbEntity
8
SK2
62
256
6
ByLayer
370
18
48
1
60
0
100
AcDbLine
10
-169.207303
20
16.825002
30
0
11
-170.043297
21
16.824998
31
0
39
0
210
0
220
0
230
1
0
MTEXT
5
208
100
AcDbEntity
8
SK6
62
256
6
ByLayer
370
18
48
1
60
0
100
AcDbMText
10
-66.6503
20
-50.388424
30
0
210
0
220
0
230
1
1
\W0.8174;QD-RFL65C4040A
40
3.5
41
0
44
1.084337
50
0
71
7
72
5
7
iso_b_vert
0
MTEXT
5
20C
100
AcDbEntity
8
SK2
62
256
6
ByLayer
370
18
48
1
60
0
100
AcDbMText
10
-170.5003
20
-1.353947
30
0
210
0
220
0
230
1
1
\W0.7361;40
40
3.5
41
0
44
1.084337
50
89.9999999999999
71
7
72
5
7
iso_b_vert
0
DIMENSION
5
21B
100
AcDbEntity
8
2
62
256
6
ByLayer
370
13
48
1
60
0
100
AcDbDimension
2
DimnDraft3D1
10
115.0747
20
21
30
0
11
115.0747
21
-1.3375
31
0
70
32
71
5
72
1
41
1
210
0
220
0
230
1
3
Standard
100
AcDbAlignedDimension
13
26.9747
23
-20
33
0
14
91.9747
24
21
34
0
50
90
100
AcDbRotatedDimension
1001
ACAD
1000
DSTYLE
1002
{
1070
    74
1070
     0
1070
   279
1070
     0
1070
   172
1070
     1
1070
   173
1070
     1
1070
   340
1005
209
1070
   271
1070
     1
1070
    77
1070
     1
1070
    73
1070
     0
1070
   171
1070
     3
1070
   274
1070
     4
1070
   177
1070
     2
1070
   176
1070
     2
1070
   178
1070
     7
1070
    78
1070
     8
1070
    41
1041
3.175
1070
   147
1041
1.75
1070
    42
1041
2.0
1070
    44
1041
2.0
1070
   140
1041
3.5
1070
   343
1005
21C
1070
   344
1005
21C
1002
}
0
DIMENSION
5
230
100
AcDbEntity
8
SK2
62
256
6
ByLayer
370
13
48
1
60
0
100
AcDbDimension
2
DimnDraft3D2
10
89.9747
20
43.600423
30
0
11
-38.423984
21
43.600423
31
0
70
32
71
5
72
1
41
1
210
0
220
0
230
1
3
Standard
100
AcDbAlignedDimension
13
-160.0253
23
-18
33
0
14
89.9747
24
23
34
0
50
0
100
AcDbRotatedDimension
1001
ACAD
1000
DSTYLE
1002
{
1070
   279
1070
     0
1070
   172
1070
     1
1070
   173
1070
     1
1070
   340
1005
209
1070
   271
1070
     1
1070
    77
1070
     1
1070
    73
1070
     0
1070
   171
1070
     3
1070
   274
1070
     4
1070
   177
1070
     2
1070
   176
1070
     2
1070
   178
1070
     7
1070
    78
1070
     8
1070
    41
1041
3.175
1070
   147
1041
1.75
1070
    42
1041
2.0
1070
    44
1041
2.0
1070
   140
1041
3.5
1070
   343
1005
21C
1070
   344
1005
21C
1002
}
0
DIMENSION
5
23E
100
AcDbEntity
8
2
62
256
6
ByLayer
370
13
48
1
60
0
100
AcDbDimension
2
DimnDraft3D3
10
89.9747
20
37.600423
30
0
11
42.896561
21
37.600423
31
0
70
32
71
5
72
1
41
1
210
0
220
0
230
1
3
Standard
100
AcDbAlignedDimension
13
0
23
22
33
0
14
89.9747
24
23
34
0
50
0
100
AcDbRotatedDimension
1001
ACAD
1000
DSTYLE
1002
{
1070
   279
1070
     0
1070
   172
1070
     1
1070
   173
1070
     1
1070
   340
1005
209
1070
   271
1070
     1
1070
    77
1070
     1
1070
    73
1070
     0
1070
   171
1070
     3
1070
   274
1070
     4
1070
   177
1070
     2
1070
   176
1070
     2
1070
   178
1070
     7
1070
    78
1070
     8
1070
    41
1041
3.175
1070
   147
1041
1.75
1070
    42
1041
2.0
1070
    44
1041
2.0
1070
   140
1041
3.5
1070
   343
1005
21C
1070
   344
1005
21C
1002
}
0
DIMENSION
5
24C
100
AcDbEntity
8
2
62
256
6
ByLayer
370
13
48
1
60
0
100
AcDbDimension
2
DimnDraft3D4
10
24.9747
20
-33.127271
30
0
11
55.383911
21
-33.127271
31
0
70
32
71
5
72
1
41
1
210
0
220
0
230
1
3
Standard
100
AcDbAlignedDimension
13
89.9747
23
19
33
0
14
24.9747
24
-22
34
0
50
0
100
AcDbRotatedDimension
1001
ACAD
1000
DSTYLE
1002
{
1070
   279
1070
     0
1070
   172
1070
     1
1070
   173
1070
     1
1070
   340
1005
209
1070
   271
1070
     1
1070
    77
1070
     1
1070
    73
1070
     0
1070
   171
1070
     3
1070
   274
1070
     4
1070
   177
1070
     2
1070
   176
1070
     2
1070
   178
1070
     7
1070
    78
1070
     8
1070
    41
1041
3.175
1070
   147
1041
1.75
1070
    42
1041
2.0
1070
    44
1041
2.0
1070
   140
1041
3.5
1070
   343
1005
21C
1070
   344
1005
21C
1002
}
0
DIMENSION
5
25A
100
AcDbEntity
8
2
62
256
6
ByLayer
370
13
48
1
60
0
100
AcDbDimension
2
DimnDraft3D5
10
108.0747
20
13
30
0
11
108.0747
21
16.217105
31
0
70
32
71
5
72
1
41
1
210
0
220
0
230
1
3
Standard
100
AcDbAlignedDimension
13
91.9747
23
21
33
0
14
91.9747
24
13
34
0
50
90
100
AcDbRotatedDimension
1001
ACAD
1000
DSTYLE
1002
{
1070
    74
1070
     0
1070
   279
1070
     0
1070
   172
1070
     1
1070
   173
1070
     1
1070
   340
1005
209
1070
   271
1070
     1
1070
    77
1070
     1
1070
    73
1070
     0
1070
   171
1070
     3
1070
   274
1070
     4
1070
   177
1070
     2
1070
   176
1070
     2
1070
   178
1070
     7
1070
    78
1070
     8
1070
    41
1041
3.175
1070
   147
1041
1.75
1070
    42
1041
2.0
1070
    44
1041
2.0
1070
   140
1041
3.5
1070
   343
1005
21C
1070
   344
1005
21C
1002
}
0
ENDSEC
0
SECTION
2
OBJECTS
0
DICTIONARY
5
2c4
330
0
100
AcDbDictionary
280
0
281
1
3
ACAD_GROUP
350
2c5
3
ACAD_MLINESTYLE
350
2c6
0
DICTIONARY
5
2c5
330
0
100
AcDbDictionary
280
0
281
1
0
DICTIONARY
5
2c6
330
0
100
AcDbDictionary
280
0
281
1
3
Standard
350
18
0
MLINESTYLE
5
18
330
2c6
100
AcDbMlineStyle
2
Standard
70
0
3

62
256
51
90
52
90
71
2
49
-0.5
62
256
6
ByLayer
49
0.5
62
256
6
ByLayer
0
RASTERVARIABLES
5
2b3
330

100
AcDbRasterVariables
90
0
70
1
71
1
72
1
0
ENDSEC
0
EOF
