0
SECTION
2
HEADER
9
$ACADVER
1
AC1015
9
$DWGCODEPAGE
3
ANSI_1252
9
$HANDSEED
5
2ce
9
$ANGBASE
50
0
9
$ANGDIR
70
0
9
$ATTMODE
70
1
9
$AUNITS
70
0
9
$AUPREC
70
0
9
$CECOLOR
62
256
9
$CELTSCALE
40
1
9
$CELTYPE
6
ByLayer
9
$CELWEIGHT
370
18
9
$CLAYER
8
0
9
$CMLJUST
70
0
9
$CMLSCALE
40
1
9
$CMLSTYLE
2
Standard
9
$DIMSTYLE
2
Standard
9
$TEXTSIZE
40
0.2
9
$TEXTSTYLE
7
Standard
9
$LUNITS
70
2
9
$LUPREC
70
4
9
$EXTNAMES
290
1
9
$INSUNITS
70
4
9
$LTSCALE
40
1
9
$LWDISPLAY
290
1
9
$PDMODE
70
0
9
$PDSIZE
40
0
9
$PLINEGEN
70
0
0
ENDSEC
0
SECTION
2
CLASSES
0
CLASS
1
RASTERVARIABLES
2
AcDbRasterVariables
3
ISM
90
0
280
0
281
0
0
ENDSEC
0
SECTION
2
TABLES
0
TABLE
2
VPORT
5
2c4
100
AcDbSymbolTable
0
VPORT
5
1
100
AcDbSymbolTableRecord
100
AcDbViewportTableRecord
2
*Active
70
0
10
0
20
0
11
1
21
1
12
-1
22
1
13
0
23
0
14
0.5
24
0.5
15
10
25
10
16
0
26
0
36
1
17
0
27
0
37
0
0
ENDTAB
0
TABLE
2
LTYPE
5
2c5
100
AcDbSymbolTable
0
LTYPE
5
14
100
AcDbSymbolTableRecord
100
AcDbLinetypeTableRecord
70
0
2
ByBlock
3

72
65
73
0
40
0
0
LTYPE
5
15
100
AcDbSymbolTableRecord
100
AcDbLinetypeTableRecord
70
0
2
ByLayer
3

72
65
73
0
40
0
0
LTYPE
5
16
100
AcDbSymbolTableRecord
100
AcDbLinetypeTableRecord
70
0
2
CONTINUOUS
3
Solid line
72
65
73
0
40
0
0
LTYPE
5
6A
100
AcDbSymbolTableRecord
100
AcDbLinetypeTableRecord
70
0
2
CENTER
3
____ _ ____ _ ____ _ ____
72
65
73
4
40
47.5
49
22
74
0
49
-8.5
74
0
49
8.5
74
0
49
-8.5
74
0
0
LTYPE
5
6B
100
AcDbSymbolTableRecord
100
AcDbLinetypeTableRecord
70
0
2
DASHED
3
__ __ __ __ __ __ __ __ __
72
65
73
2
40
25.72
49
12.86
74
0
49
-12.86
74
0
0
ENDTAB
0
TABLE
2
LAYER
5
2c6
100
AcDbSymbolTable
0
LAYER
5
10
100
AcDbSymbolTableRecord
100
AcDbLayerTableRecord
2
0
70
0
62
7
6
CONTINUOUS
290
1
370
-3
390
0
0
LAYER
5
6D
100
AcDbSymbolTableRecord
100
AcDbLayerTableRecord
2
81
70
0
62
-3
6
CONTINUOUS
290
1
370
-3
390
0
0
LAYER
5
6F
100
AcDbSymbolTableRecord
100
AcDbLayerTableRecord
2
80
70
0
62
-6
6
CONTINUOUS
290
1
370
-3
390
0
0
LAYER
5
7C
100
AcDbSymbolTableRecord
100
AcDbLayerTableRecord
2
1
70
0
62
4
6
CONTINUOUS
290
1
370
-3
390
0
0
LAYER
5
20C
100
AcDbSymbolTableRecord
100
AcDbLayerTableRecord
2
2
70
0
62
7
6
CONTINUOUS
290
1
370
-3
390
0
0
LAYER
5
2b1
100
AcDbSymbolTableRecord
100
AcDbLayerTableRecord
2
SK1
70
0
62
4
6
CONTINUOUS
290
1
370
-3
390
0
0
LAYER
5
2b2
100
AcDbSymbolTableRecord
100
AcDbLayerTableRecord
2
SK2
70
0
62
7
6
CONTINUOUS
290
1
370
-3
390
0
0
LAYER
5
2b3
100
AcDbSymbolTableRecord
100
AcDbLayerTableRecord
2
SK6
70
0
62
5
6
CONTINUOUS
290
1
370
-3
390
0
0
ENDTAB
0
TABLE
2
STYLE
5
2c7
100
AcDbSymbolTable
0
STYLE
5
11
100
AcDbSymbolTableRecord
100
AcDbTextStyleTableRecord
2
Standard
3
txt
70
0
71
0
40
0
41
1
42
0
50
0
0
STYLE
5
206
100
AcDbSymbolTableRecord
100
AcDbTextStyleTableRecord
2
iso_b_vert
3
simplex.shx
70
0
71
0
40
0
41
1
42
0
50
0
0
STYLE
5
207
100
AcDbSymbolTableRecord
100
AcDbTextStyleTableRecord
2
DWGDirectTextStyle
3
simplex
70
0
71
0
40
0
41
1
42
0
50
0
0
ENDTAB
0
TABLE
2
DIMSTYLE
5
2c8
100
AcDbSymbolTable
100
AcDbDimStyleTable
0
DIMSTYLE
105
27
100
AcDbSymbolTableRecord
100
AcDbDimStyleTableRecord
2
Standard
70
0
3
<>
41
0.18
42
0.0625
44
0.18
140
0.18
147
0.09
73
0
74
0
77
1
271
2
275
0
278
52
280
0
340
11
0
ENDTAB
0
TABLE
2
VIEW
5
2c9
100
AcDbSymbolTable
0
ENDTAB
0
TABLE
2
UCS
5
2ca
100
AcDbSymbolTable
0
ENDTAB
0
TABLE
2
APPID
5
2cb
100
AcDbSymbolTable
0
APPID
5
12
100
AcDbSymbolTableRecord
100
AcDbRegAppTableRecord
2
ACAD
70
0
0
ENDTAB
0
TABLE
2
BLOCK_RECORD
5
2cc
100
AcDbSymbolTable
0
BLOCK_RECORD
5
1F
100
AcDbSymbolTableRecord
100
AcDbBlockTableRecord
2
*Model_Space
340
0
70
0
0
BLOCK_RECORD
5
1B
100
AcDbSymbolTableRecord
100
AcDbBlockTableRecord
2
*Paper_Space
340
0
70
0
0
BLOCK_RECORD
5
23
100
AcDbSymbolTableRecord
100
AcDbBlockTableRecord
2
*Paper_Space0
340
0
70
0
0
BLOCK_RECORD
5
20A
100
AcDbSymbolTableRecord
100
AcDbBlockTableRecord
2
DimnDraft3D1
340
0
70
0
0
BLOCK_RECORD
5
219
100
AcDbSymbolTableRecord
100
AcDbBlockTableRecord
2
_CLOSED
340
0
70
0
0
BLOCK_RECORD
5
220
100
AcDbSymbolTableRecord
100
AcDbBlockTableRecord
2
DimnDraft3D2
340
0
70
0
0
BLOCK_RECORD
5
22E
100
AcDbSymbolTableRecord
100
AcDbBlockTableRecord
2
DimnDraft3D3
340
0
70
0
0
BLOCK_RECORD
5
23C
100
AcDbSymbolTableRecord
100
AcDbBlockTableRecord
2
DimnDraft3D4
340
0
70
0
0
BLOCK_RECORD
5
24A
100
AcDbSymbolTableRecord
100
AcDbBlockTableRecord
2
DimnDraft3D5
340
0
70
0
0
ENDTAB
0
ENDSEC
0
SECTION
2
BLOCKS
0
BLOCK
5
20
100
AcDbEntity
8
0
100
AcDbBlockBegin
2
*Model_Space
70
0
10
0
20
0
30
0
3
*Model_Space
0
ENDBLK
5
21
100
AcDbEntity
8
0
100
AcDbBlockEnd
0
BLOCK
5
1C
100
AcDbEntity
8
0
100
AcDbBlockBegin
2
*Paper_Space
70
0
10
0
20
0
30
0
3
*Paper_Space
0
ENDBLK
5
1D
100
AcDbEntity
8
0
100
AcDbBlockEnd
0
BLOCK
5
24
100
AcDbEntity
8
0
100
AcDbBlockBegin
2
*Paper_Space0
70
0
10
0
20
0
30
0
3
*Paper_Space0
0
ENDBLK
5
25
100
AcDbEntity
8
0
100
AcDbBlockEnd
0
BLOCK
5
216
100
AcDbEntity
8
0
100
AcDbBlockBegin
2
DimnDraft3D1
70
0
10
0
20
0
30
0
3
DimnDraft3D1
0
MTEXT
5
20B
100
AcDbEntity
8
2
62
256
6
ByLayer
370
18
48
1
60
0
100
AcDbMText
10
57.825
20
-1.215789
30
0
210
0
220
0
230
1
1
\W0.6740;20
40
3.5
41
0
44
1.084337
50
90
71
7
72
5
7
iso_b_vert
0
LINE
5
20D
100
AcDbEntity
8
2
62
256
6
ByLayer
370
13
48
1
60
0
100
AcDbLine
10
9.6
20
-10
30
0
11
60.7
21
-10
31
0
39
0
210
0
220
0
230
1
0
LINE
5
20E
100
AcDbEntity
8
2
62
256
6
ByLayer
370
13
48
1
60
0
100
AcDbLine
10
35.6
20
10
30
0
11
60.7
21
10
31
0
39
0
210
0
220
0
230
1
0
LINE
5
20F
100
AcDbEntity
8
2
62
256
6
ByLayer
370
13
48
1
60
0
100
AcDbLine
10
58.7
20
-10
30
0
11
58.7
21
10
31
0
39
0
210
0
220
0
230
1
0
LINE
5
210
100
AcDbEntity
8
2
62
256
6
ByLayer
370
13
48
1
60
0
100
AcDbLine
10
58.7
20
-10
30
0
11
58.282003
21
-6.825002
31
0
39
0
210
0
220
0
230
1
0
LINE
5
211
100
AcDbEntity
8
2
62
256
6
ByLayer
370
13
48
1
60
0
100
AcDbLine
10
58.7
20
-10
30
0
11
59.117997
21
-6.824998
31
0
39
0
210
0
220
0
230
1
0
LINE
5
212
100
AcDbEntity
8
2
62
256
6
ByLayer
370
13
48
1
60
0
100
AcDbLine
10
58.282003
20
-6.825002
30
0
11
59.117997
21
-6.824998
31
0
39
0
210
0
220
0
230
1
0
LINE
5
213
100
AcDbEntity
8
2
62
256
6
ByLayer
370
13
48
1
60
0
100
AcDbLine
10
58.7
20
10
30
0
11
59.117997
21
6.825002
31
0
39
0
210
0
220
0
230
1
0
LINE
5
214
100
AcDbEntity
8
2
62
256
6
ByLayer
370
13
48
1
60
0
100
AcDbLine
10
58.7
20
10
30
0
11
58.282003
21
6.824998
31
0
39
0
210
0
220
0
230
1
0
LINE
5
215
100
AcDbEntity
8
2
62
256
6
ByLayer
370
13
48
1
60
0
100
AcDbLine
10
59.117997
20
6.825002
30
0
11
58.282003
21
6.824998
31
0
39
0
210
0
220
0
230
1
0
ENDBLK
5
217
100
AcDbEntity
8
0
100
AcDbBlockEnd
0
BLOCK
5
21A
100
AcDbEntity
8
0
100
AcDbBlockBegin
2
_CLOSED
70
0
10
0
20
0
30
0
3
_CLOSED
0
LINE
5
21C
100
AcDbEntity
8
0
62
256
6
ByLayer
370
-2
48
1
60
0
100
AcDbLine
10
-1
20
0.166667
30
0
11
0
21
0
31
0
39
0
210
0
220
0
230
1
0
LINE
5
21D
100
AcDbEntity
8
0
62
256
6
ByLayer
370
-2
48
1
60
0
100
AcDbLine
10
0
20
0
30
0
11
-1
21
-0.166667
31
0
39
0
210
0
220
0
230
1
0
LINE
5
21E
100
AcDbEntity
8
0
62
256
6
ByLayer
370
-2
48
1
60
0
100
AcDbLine
10
-1
20
0.166667
30
0
11
-1
21
-0.166667
31
0
39
0
210
0
220
0
230
1
0
LINE
5
21F
100
AcDbEntity
8
0
62
256
6
ByLayer
370
-2
48
1
60
0
100
AcDbLine
10
0
20
0
30
0
11
-1
21
0
31
0
39
0
210
0
220
0
230
1
0
ENDBLK
5
21B
100
AcDbEntity
8
0
100
AcDbBlockEnd
0
BLOCK
5
22B
100
AcDbEntity
8
0
100
AcDbBlockBegin
2
DimnDraft3D2
70
0
10
0
20
0
30
0
3
DimnDraft3D2
0
MTEXT
5
221
100
AcDbEntity
8
SK2
62
256
6
ByLayer
370
18
48
1
60
0
100
AcDbMText
10
-30.986184
20
33.475889
30
0
210
0
220
0
230
1
1
\W0.6217;125
40
3.5
41
0
44
1.084337
50
0
71
7
72
5
7
iso_b_vert
0
LINE
5
222
100
AcDbEntity
8
SK2
62
256
6
ByLayer
370
13
48
1
60
0
100
AcDbLine
10
-91.4
20
-8
30
0
11
-91.4
21
34.600889
31
0
39
0
210
0
220
0
230
1
0
LINE
5
223
100
AcDbEntity
8
SK2
62
256
6
ByLayer
370
13
48
1
60
0
100
AcDbLine
10
33.6
20
12
30
0
11
33.6
21
34.600889
31
0
39
0
210
0
220
0
230
1
0
LINE
5
224
100
AcDbEntity
8
SK2
62
256
6
ByLayer
370
13
48
1
60
0
100
AcDbLine
10
-91.4
20
32.600889
30
0
11
33.6
21
32.600889
31
0
39
0
210
0
220
0
230
1
0
LINE
5
225
100
AcDbEntity
8
SK2
62
256
6
ByLayer
370
13
48
1
60
0
100
AcDbLine
10
-91.4
20
32.600889
30
0
11
-88.225002
21
33.018886
31
0
39
0
210
0
220
0
230
1
0
LINE
5
226
100
AcDbEntity
8
SK2
62
256
6
ByLayer
370
13
48
1
60
0
100
AcDbLine
10
-91.4
20
32.600889
30
0
11
-88.224998
21
32.182892
31
0
39
0
210
0
220
0
230
1
0
LINE
5
227
100
AcDbEntity
8
SK2
62
256
6
ByLayer
370
13
48
1
60
0
100
AcDbLine
10
-88.225002
20
33.018886
30
0
11
-88.224998
21
32.182892
31
0
39
0
210
0
220
0
230
1
0
LINE
5
228
100
AcDbEntity
8
SK2
62
256
6
ByLayer
370
13
48
1
60
0
100
AcDbLine
10
33.6
20
32.600889
30
0
11
30.425002
21
32.182892
31
0
39
0
210
0
220
0
230
1
0
LINE
5
229
100
AcDbEntity
8
SK2
62
256
6
ByLayer
370
13
48
1
60
0
100
AcDbLine
10
33.6
20
32.600889
30
0
11
30.424998
21
33.018886
31
0
39
0
210
0
220
0
230
1
0
LINE
5
22A
100
AcDbEntity
8
SK2
62
256
6
ByLayer
370
13
48
1
60
0
100
AcDbLine
10
30.425002
20
32.182892
30
0
11
30.424998
21
33.018886
31
0
39
0
210
0
220
0
230
1
0
ENDBLK
5
22C
100
AcDbEntity
8
0
100
AcDbBlockEnd
0
BLOCK
5
239
100
AcDbEntity
8
0
100
AcDbBlockBegin
2
DimnDraft3D3
70
0
10
0
20
0
30
0
3
DimnDraft3D3
0
MTEXT
5
22F
100
AcDbEntity
8
2
62
256
6
ByLayer
370
18
48
1
60
0
100
AcDbMText
10
13.567105
20
27.475889
30
0
210
0
220
0
230
1
1
\W0.7346;33.6
40
3.5
41
0
44
1.084337
50
0
71
7
72
5
7
iso_b_vert
0
LINE
5
230
100
AcDbEntity
8
2
62
256
6
ByLayer
370
13
48
1
60
0
100
AcDbLine
10
0
20
12
30
0
11
0
21
28.600889
31
0
39
0
210
0
220
0
230
1
0
LINE
5
231
100
AcDbEntity
8
2
62
256
6
ByLayer
370
13
48
1
60
0
100
AcDbLine
10
33.6
20
12
30
0
11
33.6
21
28.600889
31
0
39
0
210
0
220
0
230
1
0
LINE
5
232
100
AcDbEntity
8
2
62
256
6
ByLayer
370
13
48
1
60
0
100
AcDbLine
10
0
20
26.600889
30
0
11
33.6
21
26.600889
31
0
39
0
210
0
220
0
230
1
0
LINE
5
233
100
AcDbEntity
8
2
62
256
6
ByLayer
370
13
48
1
60
0
100
AcDbLine
10
0
20
26.600889
30
0
11
3.174998
21
27.018886
31
0
39
0
210
0
220
0
230
1
0
LINE
5
234
100
AcDbEntity
8
2
62
256
6
ByLayer
370
13
48
1
60
0
100
AcDbLine
10
0
20
26.600889
30
0
11
3.175002
21
26.182892
31
0
39
0
210
0
220
0
230
1
0
LINE
5
235
100
AcDbEntity
8
2
62
256
6
ByLayer
370
13
48
1
60
0
100
AcDbLine
10
3.174998
20
27.018886
30
0
11
3.175002
21
26.182892
31
0
39
0
210
0
220
0
230
1
0
LINE
5
236
100
AcDbEntity
8
2
62
256
6
ByLayer
370
13
48
1
60
0
100
AcDbLine
10
33.6
20
26.600889
30
0
11
30.425002
21
26.182892
31
0
39
0
210
0
220
0
230
1
0
LINE
5
237
100
AcDbEntity
8
2
62
256
6
ByLayer
370
13
48
1
60
0
100
AcDbLine
10
33.6
20
26.600889
30
0
11
30.424998
21
27.018886
31
0
39
0
210
0
220
0
230
1
0
LINE
5
238
100
AcDbEntity
8
2
62
256
6
ByLayer
370
13
48
1
60
0
100
AcDbLine
10
30.425002
20
26.182892
30
0
11
30.424998
21
27.018886
31
0
39
0
210
0
220
0
230
1
0
ENDBLK
5
23A
100
AcDbEntity
8
0
100
AcDbBlockEnd
0
BLOCK
5
247
100
AcDbEntity
8
0
100
AcDbBlockBegin
2
DimnDraft3D4
70
0
10
0
20
0
30
0
3
DimnDraft3D4
0
MTEXT
5
23D
100
AcDbEntity
8
2
62
256
6
ByLayer
370
18
48
1
60
0
100
AcDbMText
10
19.384211
20
-22.225
30
0
210
0
220
0
230
1
1
\W0.6740;26
40
3.5
41
0
44
1.084337
50
0
71
7
72
5
7
iso_b_vert
0
LINE
5
23E
100
AcDbEntity
8
2
62
256
6
ByLayer
370
13
48
1
60
0
100
AcDbLine
10
33.6
20
8
30
0
11
33.6
21
-25.1
31
0
39
0
210
0
220
0
230
1
0
LINE
5
23F
100
AcDbEntity
8
2
62
256
6
ByLayer
370
13
48
1
60
0
100
AcDbLine
10
7.6
20
-12
30
0
11
7.6
21
-25.1
31
0
39
0
210
0
220
0
230
1
0
LINE
5
240
100
AcDbEntity
8
2
62
256
6
ByLayer
370
13
48
1
60
0
100
AcDbLine
10
33.6
20
-23.1
30
0
11
7.6
21
-23.1
31
0
39
0
210
0
220
0
230
1
0
LINE
5
241
100
AcDbEntity
8
2
62
256
6
ByLayer
370
13
48
1
60
0
100
AcDbLine
10
33.6
20
-23.1
30
0
11
30.425002
21
-23.517997
31
0
39
0
210
0
220
0
230
1
0
LINE
5
242
100
AcDbEntity
8
2
62
256
6
ByLayer
370
13
48
1
60
0
100
AcDbLine
10
33.6
20
-23.1
30
0
11
30.424998
21
-22.682003
31
0
39
0
210
0
220
0
230
1
0
LINE
5
243
100
AcDbEntity
8
2
62
256
6
ByLayer
370
13
48
1
60
0
100
AcDbLine
10
30.425002
20
-23.517997
30
0
11
30.424998
21
-22.682003
31
0
39
0
210
0
220
0
230
1
0
LINE
5
244
100
AcDbEntity
8
2
62
256
6
ByLayer
370
13
48
1
60
0
100
AcDbLine
10
7.6
20
-23.1
30
0
11
10.774998
21
-22.682003
31
0
39
0
210
0
220
0
230
1
0
LINE
5
245
100
AcDbEntity
8
2
62
256
6
ByLayer
370
13
48
1
60
0
100
AcDbLine
10
7.6
20
-23.1
30
0
11
10.775002
21
-23.517997
31
0
39
0
210
0
220
0
230
1
0
LINE
5
246
100
AcDbEntity
8
2
62
256
6
ByLayer
370
13
48
1
60
0
100
AcDbLine
10
10.774998
20
-22.682003
30
0
11
10.775002
21
-23.517997
31
0
39
0
210
0
220
0
230
1
0
ENDBLK
5
248
100
AcDbEntity
8
0
100
AcDbBlockEnd
0
BLOCK
5
255
100
AcDbEntity
8
0
100
AcDbBlockBegin
2
DimnDraft3D5
70
0
10
0
20
0
30
0
3
DimnDraft3D5
0
MTEXT
5
24B
100
AcDbEntity
8
2
62
256
6
ByLayer
370
18
48
1
60
0
100
AcDbMText
10
50.825
20
-7.48
30
0
210
0
220
0
230
1
1
\W0.7121;2.5
40
3.5
41
0
44
1.084337
50
90
71
7
72
5
7
iso_b_vert
0
LINE
5
24C
100
AcDbEntity
8
2
62
256
6
ByLayer
370
13
48
1
60
0
100
AcDbLine
10
35.6
20
10
30
0
11
53.7
21
10
31
0
39
0
210
0
220
0
230
1
0
LINE
5
24D
100
AcDbEntity
8
2
62
256
6
ByLayer
370
13
48
1
60
0
100
AcDbLine
10
35.6
20
7.5
30
0
11
53.7
21
7.5
31
0
39
0
210
0
220
0
230
1
0
LINE
5
24E
100
AcDbEntity
8
2
62
256
6
ByLayer
370
13
48
1
60
0
100
AcDbLine
10
51.7
20
-8.355
30
0
11
51.7
21
18.75
31
0
39
0
210
0
220
0
230
1
0
LINE
5
24F
100
AcDbEntity
8
2
62
256
6
ByLayer
370
13
48
1
60
0
100
AcDbLine
10
51.7
20
10
30
0
11
51.282003
21
13.174998
31
0
39
0
210
0
220
0
230
1
0
LINE
5
250
100
AcDbEntity
8
2
62
256
6
ByLayer
370
13
48
1
60
0
100
AcDbLine
10
51.7
20
10
30
0
11
52.117997
21
13.175002
31
0
39
0
210
0
220
0
230
1
0
LINE
5
251
100
AcDbEntity
8
2
62
256
6
ByLayer
370
13
48
1
60
0
100
AcDbLine
10
51.282003
20
13.174998
30
0
11
52.117997
21
13.175002
31
0
39
0
210
0
220
0
230
1
0
LINE
5
252
100
AcDbEntity
8
2
62
256
6
ByLayer
370
13
48
1
60
0
100
AcDbLine
10
51.7
20
7.5
30
0
11
52.117997
21
4.325002
31
0
39
0
210
0
220
0
230
1
0
LINE
5
253
100
AcDbEntity
8
2
62
256
6
ByLayer
370
13
48
1
60
0
100
AcDbLine
10
51.7
20
7.5
30
0
11
51.282003
21
4.324998
31
0
39
0
210
0
220
0
230
1
0
LINE
5
254
100
AcDbEntity
8
2
62
256
6
ByLayer
370
13
48
1
60
0
100
AcDbLine
10
52.117997
20
4.325002
30
0
11
51.282003
21
4.324998
31
0
39
0
210
0
220
0
230
1
0
ENDBLK
5
256
100
AcDbEntity
8
0
100
AcDbBlockEnd
0
ENDSEC
0
SECTION
2
ENTITIES
0
ARC
5
123
100
AcDbEntity
8
SK1
62
256
6
ByLayer
370
18
48
1
60
0
100
AcDbCircle
39
0
10
-1.6
20
11.35
30
0
40
1.6
210
0
220
0
230
1
100
AcDbArc
50
244.992167
51
270
0
ARC
5
124
100
AcDbEntity
8
1
62
256
6
ByLayer
370
18
48
1
60
0
100
AcDbCircle
39
0
10
7.6
20
6.15
30
0
40
1.6
210
0
220
0
230
1
100
AcDbArc
50
90
51
180
0
ARC
5
125
100
AcDbEntity
8
1
62
256
6
ByLayer
370
18
48
1
60
0
100
AcDbCircle
39
0
10
7.6
20
6.15
30
0
40
1.6
210
0
220
0
230
1
100
AcDbArc
50
90
51
180
0
ARC
5
126
100
AcDbEntity
8
1
62
256
6
ByLayer
370
18
48
1
60
0
100
AcDbCircle
39
0
10
-1.6
20
11.35
30
0
40
1.6
210
0
220
0
230
1
100
AcDbArc
50
244.992167
51
270
0
ELLIPSE
5
127
100
AcDbEntity
8
1
62
256
6
ByLayer
370
13
48
1
60
0
100
AcDbEllipse
10
30.928622
20
9.695286
30
0
11
-0.014072025804004
21
-0.239587099172246
31
0
210
0
220
0
230
1
40
0.707947
41
0.878776813451888
42
1.56290533331168
0
ELLIPSE
5
128
100
AcDbEntity
8
1
62
256
6
ByLayer
370
13
48
1
60
0
100
AcDbEllipse
10
32.158781
20
9.79974
30
0
11
0.01872883045826
21
-0.23926811511287
31
0
210
0
220
0
230
1
40
0.005457
41
-1.50119639836347
42
-0.689493843867445
0
ELLIPSE
5
129
100
AcDbEntity
8
1
62
256
6
ByLayer
370
13
48
1
60
0
100
AcDbEllipse
10
32.158781
20
7.70026
30
0
11
0.01872883045826
21
0.23926811511287
31
0
210
0
220
0
230
1
40
0.005457
41
0.689493843876124
42
1.50119639836347
0
ELLIPSE
5
12A
100
AcDbEntity
8
1
62
256
6
ByLayer
370
13
48
1
60
0
100
AcDbEllipse
10
30.928622
20
7.804714
30
0
11
-0.0140720258040037
21
0.239587099172246
31
0
210
0
220
0
230
1
40
0.707947
41
-1.56290533331169
42
-0.878776813451946
0
ELLIPSE
5
12B
100
AcDbEntity
8
1
62
256
6
ByLayer
370
13
48
1
60
0
100
AcDbEllipse
10
30.03649
20
7.991414
30
0
11
0.0157922723881412
21
-0.299835837390288
31
0
210
0
220
0
230
-1
40
0.9154
41
-2.6673719520254
42
-1.47753833582172
0
ELLIPSE
5
12C
100
AcDbEntity
8
1
62
256
6
ByLayer
370
13
48
1
60
0
100
AcDbEllipse
10
30.03649
20
9.508586
30
0
11
0.0157922723854294
21
0.299835837391087
31
0
210
0
220
0
230
-1
40
0.9154
41
1.47753833583195
42
2.66737195203311
0
ELLIPSE
5
12D
100
AcDbEntity
8
1
62
256
6
ByLayer
370
13
48
1
60
0
100
AcDbEllipse
10
30.825674
20
7.802415
30
0
11
0.108797387019834
21
-0.213923183824607
31
0
210
0
220
0
230
1
40
0.678268
41
1.29102409435777
42
1.85056859826456
0
ELLIPSE
5
12E
100
AcDbEntity
8
1
62
256
6
ByLayer
370
13
48
1
60
0
100
AcDbEllipse
10
30.825674
20
9.697585
30
0
11
0.108797387019834
21
0.213923183824607
31
0
210
0
220
0
230
1
40
0.678268
41
-1.85056859826459
42
-1.29102409435773
0
ELLIPSE
5
12F
100
AcDbEntity
8
1
62
256
6
ByLayer
370
13
48
1
60
0
100
AcDbEllipse
10
30.615335
20
7.988477
30
0
11
0.218929773670482
21
0.120705236839962
31
0
210
0
220
0
230
1
40
0.451067
41
0.609381009277194
42
1.29921470224113
0
ELLIPSE
5
130
100
AcDbEntity
8
1
62
256
6
ByLayer
370
13
48
1
60
0
100
AcDbEllipse
10
30.615335
20
9.511523
30
0
11
-0.218929773670479
21
0.120705236839969
31
0
210
0
220
0
230
1
40
0.451067
41
1.84237795134865
42
2.53221164431258
0
ELLIPSE
5
131
100
AcDbEntity
8
1
62
256
6
ByLayer
370
13
48
1
60
0
100
AcDbEllipse
10
30.570529
20
8.75
30
0
11
1.42452172489841
21
1.43967728999563E-15
31
0
210
0
220
0
230
-1
40
0.350995
41
-2.25836112861654
42
-1.95476876222931
0
ELLIPSE
5
132
100
AcDbEntity
8
1
62
256
6
ByLayer
370
13
48
1
60
0
100
AcDbEllipse
10
30.570529
20
8.75
30
0
11
1.4245217249059
21
1.4396772900032E-15
31
0
210
0
220
0
230
-1
40
0.350995
41
1.95476876222623
42
2.25836112861102
0
ELLIPSE
5
133
100
AcDbEntity
8
1
62
256
6
ByLayer
370
13
48
1
60
0
100
AcDbEllipse
10
29.968086
20
9.508586
30
0
11
0.274689327594029
21
0.0155897448650635
31
0
210
0
220
0
230
-1
40
0.363396
41
0.0206212699768187
42
1.21045488617332
0
ELLIPSE
5
134
100
AcDbEntity
8
1
62
256
6
ByLayer
370
13
48
1
60
0
100
AcDbEllipse
10
30.138645
20
8.079328
30
0
11
-0.0383160393775681
21
-0.196295392524676
31
0
210
0
220
0
230
1
40
0.336408
41
-2.73571394704453
42
-1.50522506223052
0
ELLIPSE
5
135
100
AcDbEntity
8
1
62
256
6
ByLayer
370
13
48
1
60
0
100
AcDbEllipse
10
29.968086
20
7.991414
30
0
11
0.274689327594405
21
-0.0155897448649467
31
0
210
0
220
0
230
-1
40
0.363396
41
-1.21045488617222
42
-0.0206212699770489
0
ELLIPSE
5
136
100
AcDbEntity
8
1
62
256
6
ByLayer
370
13
48
1
60
0
100
AcDbEllipse
10
30.138645
20
9.420672
30
0
11
-0.0383160393775672
21
0.196295392524676
31
0
210
0
220
0
230
1
40
0.336408
41
1.50522506223046
42
2.7357139470445
0
ELLIPSE
5
137
100
AcDbEntity
8
1
62
256
6
ByLayer
370
13
48
1
60
0
100
AcDbEllipse
10
30.502124
20
8.75
30
0
11
1.44889559349104
21
1.46431047351878E-15
31
0
210
0
220
0
230
-1
40
0.483127
41
-2.25836112864002
42
-1.95476876223162
0
ELLIPSE
5
138
100
AcDbEntity
8
1
62
256
6
ByLayer
370
13
48
1
60
0
100
AcDbEllipse
10
30.502124
20
8.75
30
0
11
1.44889559358254
21
1.46431047361126E-15
31
0
210
0
220
0
230
-1
40
0.483127
41
1.95476876222899
42
2.25836112861582
0
ELLIPSE
5
139
100
AcDbEntity
8
1
62
256
6
ByLayer
370
13
48
1
60
0
100
AcDbEllipse
10
30.827398
20
9.697216
30
0
11
0.00548700145360587
21
-0.239937268499598
31
0
210
0
220
0
230
1
40
0.706448
41
0.849098397829149
42
1.50523037236397
0
ELLIPSE
5
13A
100
AcDbEntity
8
1
62
256
6
ByLayer
370
13
48
1
60
0
100
AcDbEllipse
10
30.827398
20
7.802784
30
0
11
0.00548700145360604
21
0.239937268499598
31
0
210
0
220
0
230
1
40
0.706448
41
-1.50523037236396
42
-0.849098397829149
0
ELLIPSE
5
13B
100
AcDbEntity
8
1
62
256
6
ByLayer
370
13
48
1
60
0
100
AcDbEllipse
10
30.027763
20
9.399029
30
0
11
-0.0383160393775672
21
0.196295392524676
31
0
210
0
220
0
230
1
40
0.336408
41
1.50522506223046
42
2.7357139470445
0
ELLIPSE
5
13C
100
AcDbEntity
8
1
62
256
6
ByLayer
370
13
48
1
60
0
100
AcDbEllipse
10
30.027763
20
8.100971
30
0
11
-0.0383160393775681
21
-0.196295392524676
31
0
210
0
220
0
230
1
40
0.336408
41
-2.73571394704453
42
-1.5052250622305
0
ELLIPSE
5
13D
100
AcDbEntity
8
1
62
256
6
ByLayer
370
13
48
1
60
0
100
AcDbEllipse
10
30.64569
20
8.008253
30
0
11
-0.199155198215831
21
0.224359548545662
31
0
210
0
220
0
230
1
40
0.867907
41
-1.48925493040499
42
-0.845841420110013
0
ELLIPSE
5
13E
100
AcDbEntity
8
1
62
256
6
ByLayer
370
13
48
1
60
0
100
AcDbEllipse
10
29.650977
20
8.209044
30
0
11
-0.073759863887595
21
-0.185901808703636
31
0
210
0
220
0
230
1
40
0.32047
41
-2.41409938327881
42
-1.44432262990152
0
ELLIPSE
5
13F
100
AcDbEntity
8
1
62
256
6
ByLayer
370
13
48
1
60
0
100
AcDbEllipse
10
29.650977
20
9.290956
30
0
11
-0.0737598638875999
21
0.185901808703635
31
0
210
0
220
0
230
1
40
0.32047
41
1.44432262990152
42
2.41409938327897
0
ELLIPSE
5
140
100
AcDbEntity
8
1
62
256
6
ByLayer
370
13
48
1
60
0
100
AcDbEllipse
10
30.64569
20
9.491747
30
0
11
-0.199155198215836
21
-0.224359548545657
31
0
210
0
220
0
230
1
40
0.867907
41
0.84584142011012
42
1.48925493040509
0
ELLIPSE
5
141
100
AcDbEntity
8
1
62
256
6
ByLayer
370
13
48
1
60
0
100
AcDbEllipse
10
31.848298
20
8.36998
30
0
11
-0.11829996020908
21
-0.382106162492219
31
0
210
0
220
0
230
1
40
0.046276
41
-1.55647013370582
42
-0.635362849071391
0
ELLIPSE
5
142
100
AcDbEntity
8
1
62
256
6
ByLayer
370
13
48
1
60
0
100
AcDbEllipse
10
31.848298
20
9.13002
30
0
11
-0.11829996020908
21
0.382106162492219
31
0
210
0
220
0
230
1
40
0.046276
41
0.63536284907138
42
1.5564701337058
0
ELLIPSE
5
143
100
AcDbEntity
8
1
62
256
6
ByLayer
370
13
48
1
60
0
100
AcDbEllipse
10
29.557016
20
8.177976
30
0
11
0.179591653469728
21
-0.0880161235456843
31
0
210
0
220
0
230
1
40
0.15816
41
-2.67666253996303
42
-1.88296142475571
0
ELLIPSE
5
144
100
AcDbEntity
8
1
62
256
6
ByLayer
370
13
48
1
60
0
100
AcDbEllipse
10
29.557016
20
9.322024
30
0
11
0.179591653469724
21
0.088016123545693
31
0
210
0
220
0
230
1
40
0.15816
41
1.88296142475581
42
2.67666253996323
0
ELLIPSE
5
145
100
AcDbEntity
8
1
62
256
6
ByLayer
370
13
48
1
60
0
100
AcDbEllipse
10
30.692262
20
9.372657
30
0
11
-0.299347745291831
21
0.0197718837923224
31
0
210
0
220
0
230
1
40
0.777951
41
1.69879303455142
42
2.2293422767964
0
ELLIPSE
5
146
100
AcDbEntity
8
1
62
256
6
ByLayer
370
13
48
1
60
0
100
AcDbEllipse
10
30.692262
20
8.127343
30
0
11
-0.299347745291887
21
-0.0197718837914809
31
0
210
0
220
0
230
1
40
0.777951
41
-2.22934227679354
42
-1.69879303454918
0
ELLIPSE
5
147
100
AcDbEntity
8
1
62
256
6
ByLayer
370
13
48
1
60
0
100
AcDbEllipse
10
29.694521
20
8.270757
30
0
11
-0.108483181757181
21
0.279698765238315
31
0
210
0
220
0
230
1
40
0.360955
41
-1.02016075382498
42
-0.199709661794718
0
ELLIPSE
5
148
100
AcDbEntity
8
1
62
256
6
ByLayer
370
13
48
1
60
0
100
AcDbEllipse
10
29.694521
20
9.229243
30
0
11
-0.108483181757197
21
-0.279698765238309
31
0
210
0
220
0
230
1
40
0.360955
41
0.199709661794702
42
1.02016075382507
0
ELLIPSE
5
149
100
AcDbEntity
8
1
62
256
6
ByLayer
370
13
48
1
60
0
100
AcDbEllipse
10
29.346868
20
9.625983
30
0
11
0.0582979366851085
21
-0.138207635745132
31
0
210
0
220
0
230
1
40
0.750326
41
-1.87731940571836
42
-1.57180531127305
0
ELLIPSE
5
14A
100
AcDbEntity
8
1
62
256
6
ByLayer
370
13
48
1
60
0
100
AcDbEllipse
10
29.55842
20
8.317393
30
0
11
-0.0312161822556663
21
0.197548854629383
31
0
210
0
220
0
230
1
40
0.644886
41
0.296340224814518
42
1.02563059493704
0
ELLIPSE
5
14B
100
AcDbEntity
8
1
62
256
6
ByLayer
370
13
48
1
60
0
100
AcDbEllipse
10
29.55842
20
9.182607
30
0
11
-0.031216182255666
21
-0.197548854629383
31
0
210
0
220
0
230
1
40
0.644886
41
-1.02563059493704
42
-0.296340224814518
0
ELLIPSE
5
14C
100
AcDbEntity
8
1
62
256
6
ByLayer
370
13
48
1
60
0
100
AcDbEllipse
10
29.346868
20
7.874017
30
0
11
-0.0582979366828939
21
-0.138207635746066
31
0
210
0
220
0
230
1
40
0.750326
41
-1.56978734232577
42
-1.26427324788344
0
ELLIPSE
5
14D
100
AcDbEntity
8
1
62
256
6
ByLayer
370
13
48
1
60
0
100
AcDbEllipse
10
29.68571
20
9.232663
30
0
11
-0.10863468183397
21
-0.279639957629149
31
0
210
0
220
0
230
1
40
0.363718
41
0.200467310718507
42
1.01550685106548
0
ELLIPSE
5
14E
100
AcDbEntity
8
1
62
256
6
ByLayer
370
13
48
1
60
0
100
AcDbEllipse
10
29.68571
20
8.267337
30
0
11
-0.108634681833984
21
0.279639957629143
31
0
210
0
220
0
230
1
40
0.363718
41
-1.01550685106551
42
-0.200467310718375
0
ELLIPSE
5
14F
100
AcDbEntity
8
1
62
256
6
ByLayer
370
13
48
1
60
0
100
AcDbEllipse
10
30.773143
20
8.935403
30
0
11
-0.27643120211388
21
-0.11655809923757
31
0
210
0
220
0
230
1
40
0.259655
41
1.58999251460062
42
2.12275416956038
0
ELLIPSE
5
150
100
AcDbEntity
8
1
62
256
6
ByLayer
370
13
48
1
60
0
100
AcDbEllipse
10
30.773143
20
8.564597
30
0
11
-0.276431202115174
21
0.116558099234502
31
0
210
0
220
0
230
1
40
0.259655
41
-2.12275416956325
42
-1.58999251460356
0
ELLIPSE
5
151
100
AcDbEntity
8
1
62
256
6
ByLayer
370
13
48
1
60
0
100
AcDbEllipse
10
32.747654
20
9.800449
30
0
11
-0.00522684702752689
21
-0.239943076728942
31
0
210
0
220
0
230
1
40
0.172153
41
-1.49827444467684
42
-0.730759907122237
0
ELLIPSE
5
152
100
AcDbEntity
8
1
62
256
6
ByLayer
370
13
48
1
60
0
100
AcDbEllipse
10
32.747654
20
7.699551
30
0
11
-0.00522684702752667
21
0.239943076728942
31
0
210
0
220
0
230
1
40
0.172153
41
0.730759907122499
42
1.49827444467681
0
ELLIPSE
5
153
100
AcDbEntity
8
1
62
256
6
ByLayer
370
13
48
1
60
0
100
AcDbEllipse
10
29.344099
20
7.874562
30
0
11
4.24912383924225E-17
21
0.15
31
0
210
0
220
0
230
1
40
0.772149
41
1.23482044578598
42
1.5707963267949
0
ELLIPSE
5
154
100
AcDbEntity
8
1
62
256
6
ByLayer
370
13
48
1
60
0
100
AcDbEllipse
10
29.344099
20
9.625438
30
0
11
4.24912383924225E-17
21
0.15
31
0
210
0
220
0
230
1
40
0.772149
41
1.5707963267949
42
1.90677220780387
0
ELLIPSE
5
155
100
AcDbEntity
8
1
62
256
6
ByLayer
370
13
48
1
60
0
100
AcDbEllipse
10
29.543122
20
9.183936
30
0
11
5.665498452323E-17
21
0.2
31
0
210
0
220
0
230
1
40
0.817574
41
1.90677220780383
42
2.72521072930062
0
ELLIPSE
5
156
100
AcDbEntity
8
1
62
256
6
ByLayer
370
13
48
1
60
0
100
AcDbEllipse
10
29.133999
20
8.316064
30
0
11
-3.67381906146713E-17
21
-0.2
31
0
210
0
220
0
230
1
40
0.34202
41
-2.72521072930056
42
-1.90677220780381
0
ELLIPSE
5
157
100
AcDbEntity
8
1
62
256
6
ByLayer
370
13
48
1
60
0
100
AcDbEllipse
10
29.543122
20
8.316064
30
0
11
5.665498452323E-17
21
0.2
31
0
210
0
220
0
230
1
40
0.817574
41
0.416381924289175
42
1.23482044578599
0
ELLIPSE
5
158
100
AcDbEntity
8
1
62
256
6
ByLayer
370
13
48
1
60
0
100
AcDbEllipse
10
29.133999
20
9.183936
30
0
11
5.665498452323E-17
21
0.2
31
0
210
0
220
0
230
1
40
0.34202
41
1.90677220780381
42
2.72521072930056
0
ELLIPSE
5
159
100
AcDbEntity
8
1
62
256
6
ByLayer
370
13
48
1
60
0
100
AcDbEllipse
10
33.513536
20
8.118497
30
0
11
-0.0833383062250993
21
0.0552695821906731
31
0
210
0
220
0
230
1
40
0.125147
41
-1.6338901649753
42
-1.00886584004929
0
ELLIPSE
5
15A
100
AcDbEntity
8
1
62
256
6
ByLayer
370
13
48
1
60
0
100
AcDbEllipse
10
33.513536
20
9.381503
30
0
11
-0.0833383062250994
21
-0.0552695821906731
31
0
210
0
220
0
230
1
40
0.125147
41
1.00886584004903
42
1.63389016497502
0
ELLIPSE
5
15B
100
AcDbEntity
8
1
62
256
6
ByLayer
370
13
48
1
60
0
100
AcDbEllipse
10
33.3528
20
7.968957
30
0
11
-0.053394885983678
21
0.0845516773978496
31
0
210
0
220
0
230
1
40
0.139768
41
-1.57716944641314
42
-0.739917285383396
0
ELLIPSE
5
15C
100
AcDbEntity
8
1
62
256
6
ByLayer
370
13
48
1
60
0
100
AcDbEllipse
10
33.3528
20
9.531043
30
0
11
-0.053394885983678
21
-0.0845516773978496
31
0
210
0
220
0
230
1
40
0.139768
41
0.739917285382828
42
1.57716944641307
0
ELLIPSE
5
15D
100
AcDbEntity
8
1
62
256
6
ByLayer
370
13
48
1
60
0
100
AcDbEllipse
10
32.858678
20
9.198773
30
0
11
0.0150020396796469
21
-0.399718574506427
31
0
210
0
220
0
230
1
40
0.406498
41
1.55554103694362
42
2.33646244174224
0
ELLIPSE
5
15E
100
AcDbEntity
8
1
62
256
6
ByLayer
370
13
48
1
60
0
100
AcDbEllipse
10
32.858678
20
8.301227
30
0
11
0.0150020396796473
21
0.399718574506427
31
0
210
0
220
0
230
1
40
0.406498
41
-2.33646244174224
42
-1.55554103694362
0
ELLIPSE
5
15F
100
AcDbEntity
8
1
62
256
6
ByLayer
370
13
48
1
60
0
100
AcDbEllipse
10
33.123358
20
7.809726
30
0
11
-0.0777352233758327
21
0.0629065580580387
31
0
210
0
220
0
230
1
40
0.130472
41
-1.62177056438499
42
-1.15591732835863
0
ELLIPSE
5
160
100
AcDbEntity
8
1
62
256
6
ByLayer
370
13
48
1
60
0
100
AcDbEllipse
10
33.220468
20
7.887003
30
0
11
-0.0517697807122172
21
0.0855563545565667
31
0
210
0
220
0
230
1
40
0.139863
41
-1.57449803098203
42
-0.736209352901806
0
ELLIPSE
5
161
100
AcDbEntity
8
1
62
256
6
ByLayer
370
13
48
1
60
0
100
AcDbEllipse
10
33.123358
20
9.690274
30
0
11
-0.0777352233758327
21
-0.0629065580580387
31
0
210
0
220
0
230
1
40
0.130472
41
1.15591732835921
42
1.62177056438507
0
ELLIPSE
5
162
100
AcDbEntity
8
1
62
256
6
ByLayer
370
13
48
1
60
0
100
AcDbEllipse
10
33.220468
20
9.612997
30
0
11
-0.0517697807122172
21
-0.0855563545565667
31
0
210
0
220
0
230
1
40
0.139863
41
0.736209352900338
42
1.57449803098188
0
ELLIPSE
5
163
100
AcDbEntity
8
1
62
256
6
ByLayer
370
13
48
1
60
0
100
AcDbEllipse
10
29.382996
20
6.669859
30
0
11
-3.67381906146715E-16
21
-2.00000000000001
31
0
210
0
220
0
230
1
40
0.34202
41
-2.79252680319092
42
-2.72521072930059
0
ELLIPSE
5
164
100
AcDbEntity
8
1
62
256
6
ByLayer
370
13
48
1
60
0
100
AcDbEllipse
10
32.358781
20
7.696407
30
0
11
-0.00794321942284761
21
0.239868516619419
31
0
210
0
220
0
230
1
40
0.002314
41
-1.50102146588772
42
-0.706533322280117
0
ELLIPSE
5
165
100
AcDbEntity
8
1
62
256
6
ByLayer
370
13
48
1
60
0
100
AcDbEllipse
10
29.382996
20
10.830141
30
0
11
5.66549845232303E-16
21
2.00000000000001
31
0
210
0
220
0
230
1
40
0.34202
41
2.72521072930059
42
2.79252680319092
0
ELLIPSE
5
166
100
AcDbEntity
8
1
62
256
6
ByLayer
370
13
48
1
60
0
100
AcDbEllipse
10
32.358781
20
9.803593
30
0
11
-0.00794321942284783
21
-0.239868516619419
31
0
210
0
220
0
230
1
40
0.002314
41
0.706533322278381
42
1.50102146588755
0
ELLIPSE
5
167
100
AcDbEntity
8
1
62
256
6
ByLayer
370
13
48
1
60
0
100
AcDbEllipse
10
29.127689
20
8.75
30
0
11
5.94877337493915E-17
21
0.21
31
0
210
0
220
0
230
1
40
0.34202
41
-2.7925268031909
42
-0.349065850398889
0
ELLIPSE
5
168
100
AcDbEntity
8
1
62
256
6
ByLayer
370
13
48
1
60
0
100
AcDbEllipse
10
33.535867
20
8.153117
30
0
11
-0.0846523861242153
21
0.053235077941868
31
0
210
0
220
0
230
1
40
0.065225
41
-1.67414551543555
42
-1.04575763084703
0
ELLIPSE
5
169
100
AcDbEntity
8
1
62
256
6
ByLayer
370
13
48
1
60
0
100
AcDbEllipse
10
33.535867
20
9.346883
30
0
11
-0.0846523861242153
21
-0.053235077941868
31
0
210
0
220
0
230
1
40
0.065225
41
1.04575763084905
42
1.67414551543562
0
ELLIPSE
5
16A
100
AcDbEntity
8
1
62
256
6
ByLayer
370
18
48
1
60
0
100
AcDbEllipse
10
30.829028
20
9.84703
30
0
11
0.251841921962833
21
0.0177818623353409
31
0
210
0
220
0
230
-1
40
0.06924
41
-1.56101782182201
42
-0.774400198844579
0
ELLIPSE
5
16B
100
AcDbEntity
8
1
62
256
6
ByLayer
370
18
48
1
60
0
100
AcDbEllipse
10
33.648748
20
8.153117
30
0
11
1.1330996904646E-16
21
0.4
31
0
210
0
220
0
230
1
40
0.121869
41
1.5707963267949
42
1.64009079051253
0
ELLIPSE
5
16C
100
AcDbEntity
8
1
62
256
6
ByLayer
370
18
48
1
60
0
100
AcDbEllipse
10
33.648748
20
9.346883
30
0
11
1.1330996904646E-16
21
0.4
31
0
210
0
220
0
230
1
40
0.121869
41
1.50150186307726
42
1.5707963267949
0
ELLIPSE
5
16D
100
AcDbEntity
8
1
62
256
6
ByLayer
370
18
48
1
60
0
100
AcDbEllipse
10
30.363694
20
9.95
30
0
11
0.201946432116473
21
0
31
0
210
0
220
0
230
1
40
0.990362
41
-1.5707963267949
42
-1.04299365512072
0
ELLIPSE
5
16E
100
AcDbEntity
8
1
62
256
6
ByLayer
370
18
48
1
60
0
100
AcDbEllipse
10
33.106337
20
9.971995
30
0
11
0.239997046429482
21
0.0169489930951651
31
0
210
0
220
0
230
-1
40
0.070266
41
-1.73995037555426
42
-1.44395567231437
0
ELLIPSE
5
16F
100
AcDbEntity
8
1
62
256
6
ByLayer
370
18
48
1
60
0
100
AcDbEllipse
10
30.829028
20
7.65297
30
0
11
0.251841921994754
21
-0.0177818623391267
31
0
210
0
220
0
230
-1
40
0.06924
41
0.774400198845456
42
1.56101782173273
0
ELLIPSE
5
170
100
AcDbEntity
8
1
62
256
6
ByLayer
370
18
48
1
60
0
100
AcDbEllipse
10
30.64757
20
9.650887
30
0
11
0.0586247302012056
21
-0.191752852286547
31
0
210
-1.56326331346004E-15
220
1.05822557188231E-17
230
1
40
0.997435
41
2.91526219766618
42
-2.91526219766618
0
ELLIPSE
5
171
100
AcDbEntity
8
1
62
256
6
ByLayer
370
18
48
1
60
0
100
AcDbEllipse
10
33.106337
20
7.528005
30
0
11
0.239997044632829
21
-0.0169489929746555
31
0
210
0
220
0
230
-1
40
0.070266
41
1.44395567098362
42
1.73995037645378
0
ELLIPSE
5
172
100
AcDbEntity
8
1
62
256
6
ByLayer
370
18
48
1
60
0
100
AcDbEllipse
10
30.659275
20
7.848294
30
0
11
0.0029729393167071
21
0.200467814146891
31
0
210
-1.59613097713202E-15
220
-6.66986070676025E-19
230
1
40
0.997557
41
2.6338628041141
42
3.08674247812912
0
ELLIPSE
5
173
100
AcDbEntity
8
1
62
256
6
ByLayer
370
18
48
1
60
0
100
AcDbEllipse
10
30.37444
20
7.55
30
0
11
-0.201490790302156
21
2.46746902040712E-17
31
0
210
0
220
0
230
1
40
0.992601
41
-2.09761674342106
42
-1.5707963267949
0
POINT
5
6C
100
AcDbEntity
8
81
62
256
6
ByLayer
370
18
48
1
60
0
100
AcDbPoint
10
33.6
20
10
30
0
39
0
210
0
220
0
230
1
50
360
0
POINT
5
6E
100
AcDbEntity
8
80
62
256
6
ByLayer
370
18
48
1
60
0
100
AcDbPoint
10
0
20
0
30
0
39
0
210
0
220
0
230
1
50
360
0
SPLINE
5
174
100
AcDbEntity
8
1
62
256
6
ByLayer
370
18
48
1
60
0
100
AcDbSpline
70
4
71
3
72
18
73
14
40
0
40
0
40
0
40
0
40
0.188759455005504
40
0.188759455005504
40
0.377108838199644
40
0.377108838199644
40
0.572657856393091
40
0.572657856393091
40
0.786386705761022
40
0.786386705761022
40
0.996599224440765
40
0.996599224440765
40
1
40
1
40
1
40
1
41
1
10
16.1701405628158
20
6.15000000000052
30
0
41
1
10
16.1701405628158
20
6.31618197596794
30
0
41
1
10
16.1969131537399
20
6.48465584529458
30
0
41
1
10
16.2978140287007
20
6.79748528944663
30
0
41
1
10
16.3730447897027
20
6.94606416474534
30
0
41
1
10
16.5619196598667
20
7.21198953522975
30
0
41
1
10
16.679160943878
20
7.33138094705998
30
0
41
1
10
16.9481401971374
20
7.53391203158563
30
0
41
1
10
17.1054024896348
20
7.61538351574586
30
0
41
1
10
17.4275431095163
20
7.72193140501804
30
0
41
1
10
17.5957141790268
20
7.74914202650524
30
0
41
1
10
17.7647698820292
20
7.74999323975735
30
0
41
1
10
17.7674552005608
20
7.75000000000065
30
0
41
1
10
17.7701405628157
20
7.75000000000065
30
0
0
SPLINE
5
175
100
AcDbEntity
8
1
62
256
6
ByLayer
370
13
48
1
60
0
100
AcDbSpline
70
4
71
3
72
10
73
6
40
0
40
0
40
0
40
0
40
0.709896843428722
40
0.709896843428722
40
1
40
1
40
1
40
1
41
1
10
30.7845849620887
20
8.11788157128029
30
0
41
1
10
30.7786971522085
20
8.12352704246911
30
0
41
1
10
30.7730792764886
20
8.1297109086789
30
0
41
1
10
30.7667433148842
20
8.13866857148409
30
0
41
1
10
30.7650681599822
20
8.14134468366728
30
0
41
1
10
30.763694842982
20
8.14397753248005
30
0
0
SPLINE
5
176
100
AcDbEntity
8
1
62
256
6
ByLayer
370
13
48
1
60
0
100
AcDbSpline
70
4
71
3
72
8
73
4
40
0
40
0
40
0
40
0
40
1
40
1
40
1
40
1
41
1
10
30.7636948430068
20
8.14397753247863
30
0
41
1
10
30.7842500998041
20
8.16220503413265
30
0
41
1
10
30.804612279328
20
8.1801516799872
30
0
41
1
10
30.8235446149629
20
8.19880114410174
30
0
0
SPLINE
5
177
100
AcDbEntity
8
1
62
256
6
ByLayer
370
13
48
1
60
0
100
AcDbSpline
70
4
71
3
72
10
73
6
40
0
40
0
40
0
40
0
40
0.644331995687774
40
0.644331995687774
40
1
40
1
40
1
40
1
41
1
10
30.8235446149629
20
8.19880114410174
30
0
41
1
10
30.8423417535849
20
8.21731743120677
30
0
41
1
10
30.8543614792979
20
8.2426664323786
30
0
41
1
10
30.8635582436185
20
8.28748693665216
30
0
41
1
10
30.8646514454074
20
8.30499210213407
30
0
41
1
10
30.8632877280427
20
8.32362133313652
30
0
0
SPLINE
5
178
100
AcDbEntity
8
1
62
256
6
ByLayer
370
13
48
1
60
0
100
AcDbSpline
70
4
71
3
72
12
73
8
40
0
40
0
40
0
40
0
40
0.0568772518374145
40
0.0568772518374145
40
0.598921195001007
40
0.598921195001007
40
1
40
1
40
1
40
1
41
1
10
31.7425891010003
20
8.06568845082549
30
0
41
1
10
31.7245515992803
20
8.07103303613482
30
0
41
1
10
31.7065274742932
20
8.07636523695501
30
0
41
1
10
31.5189632613311
20
8.13178061371332
30
0
41
1
10
31.3497242492963
20
8.18127310240496
30
0
41
1
10
31.0764510412474
20
8.26113946875358
30
0
41
1
10
30.965133916484
20
8.29368019372089
30
0
41
1
10
30.8632877280432
20
8.32362133313774
30
0
0
SPLINE
5
179
100
AcDbEntity
8
1
62
256
6
ByLayer
370
13
48
1
60
0
100
AcDbSpline
70
4
71
3
72
12
73
8
40
0
40
0
40
0
40
0
40
0.432851996086571
40
0.432851996086571
40
0.716418616561771
40
0.716418616561771
40
1
40
1
40
1
40
1
41
1
10
31.8151325614844
20
8.04418180397991
30
0
41
1
10
31.8046568328338
20
8.04728141449121
30
0
41
1
10
31.7941840602842
20
8.05038518615541
30
0
41
1
10
31.7768579385476
20
8.05552441599937
30
0
41
1
10
31.770001810704
20
8.05755981491518
30
0
41
1
10
31.7562928218783
20
8.06162679518985
30
0
41
1
10
31.7494397680902
20
8.06365857023246
30
0
41
1
10
31.7425891010003
20
8.06568845082549
30
0
0
SPLINE
5
17A
100
AcDbEntity
8
1
62
256
6
ByLayer
370
13
48
1
60
0
100
AcDbSpline
70
4
71
3
72
14
73
10
40
0
40
0
40
0
40
0
40
0.0559482231425851
40
0.0559482231425851
40
0.255082555375332
40
0.255082555375332
40
0.91736630964965
40
0.91736630964965
40
1
40
1
40
1
40
1
41
1
10
32.4217062023472
20
7.99881824753058
30
0
41
1
10
32.4102710337184
20
7.99842296286016
30
0
41
1
10
32.3988345011549
20
7.99806619512543
30
0
41
1
10
32.346704106935
20
7.99615823726919
30
0
41
1
10
32.3060132231142
20
7.99422714077465
30
0
41
1
10
32.1310688272088
20
7.98852672679735
30
0
41
1
10
31.9936591146985
20
7.99362637972209
30
0
41
1
10
31.8478771051644
20
8.03462646348356
30
0
41
1
10
31.8314856310115
20
8.03934317672173
30
0
41
1
10
31.8151325614844
20
8.04418180397991
30
0
0
SPLINE
5
17B
100
AcDbEntity
8
1
62
256
6
ByLayer
370
13
48
1
60
0
100
AcDbSpline
70
4
71
3
72
12
73
8
40
0
40
0
40
0
40
0
40
0.580466676309606
40
0.580466676309606
40
0.902092447109163
40
0.902092447109163
40
1
40
1
40
1
40
1
41
1
10
32.96542001724
20
8.01981853491998
30
0
41
1
10
32.8648041446478
20
8.015550846422
30
0
41
1
10
32.7598849325172
20
8.0115189616651
30
0
41
1
10
32.5950542118574
20
8.00524713783852
30
0
41
1
10
32.5355659682511
20
8.00291712525512
30
0
41
1
10
32.4579762169911
20
8.00009920255729
30
0
41
1
10
32.4398403518264
20
7.99944509891623
30
0
41
1
10
32.4217062023472
20
7.99881824753058
30
0
0
SPLINE
5
17C
100
AcDbEntity
8
1
62
256
6
ByLayer
370
13
48
1
60
0
100
AcDbSpline
70
4
71
3
72
14
73
10
40
0
40
0
40
0
40
0
40
0.0740326958458219
40
0.0740326958458219
40
0.743257125695834
40
0.743257125695834
40
0.939124438646558
40
0.939124438646558
40
1
40
1
40
1
40
1
41
1
10
33.3213347612452
20
8.03643256334996
30
0
41
1
10
33.3126059855915
20
8.036082693168
30
0
41
1
10
33.3038751248009
20
8.03573149180514
30
0
41
1
10
33.2162008436679
20
8.03219304676517
30
0
41
1
10
33.1369961926742
20
8.02876221494634
30
0
41
1
10
33.0347137397946
20
8.02477321460577
30
0
41
1
10
33.0110630969842
20
8.0223341881503
30
0
41
1
10
32.9801088915618
20
8.02050218307454
30
0
41
1
10
32.9727654069312
20
8.02013009446114
30
0
41
1
10
32.96542001724
20
8.01981853491998
30
0
0
SPLINE
5
17D
100
AcDbEntity
8
1
62
256
6
ByLayer
370
13
48
1
60
0
100
AcDbSpline
70
4
71
3
72
8
73
4
40
0
40
0
40
0
40
0
40
1
40
1
40
1
40
1
41
1
10
33.1901406592839
20
7.95526372542994
30
0
41
1
10
33.2341557915993
20
7.98185824438954
30
0
41
1
10
33.2778467711874
20
8.00898829346738
30
0
41
1
10
33.3213347612452
20
8.03643256334985
30
0
0
SPLINE
5
17E
100
AcDbEntity
8
1
62
256
6
ByLayer
370
13
48
1
60
0
100
AcDbSpline
70
4
71
3
72
8
73
4
40
0
40
0
40
0
40
0
40
1
40
1
40
1
40
1
41
1
10
32.7161920011118
20
7.8776285352277
30
0
41
1
10
32.8757348334777
20
7.8777932494956
30
0
41
1
10
33.0355792331503
20
7.91162146379509
30
0
41
1
10
33.1901406592828
20
7.95526372542926
30
0
0
SPLINE
5
17F
100
AcDbEntity
8
1
62
256
6
ByLayer
370
13
48
1
60
0
100
AcDbSpline
70
4
71
3
72
8
73
4
40
0
40
0
40
0
40
0
40
1
40
1
40
1
40
1
41
1
10
32.3530991918524
20
7.87886715841333
30
0
41
1
10
32.4746599531638
20
7.88260094166827
30
0
41
1
10
32.5968950955519
20
7.87750537141991
30
0
41
1
10
32.7161920011129
20
7.87762853522594
30
0
0
SPLINE
5
180
100
AcDbEntity
8
1
62
256
6
ByLayer
370
13
48
1
60
0
100
AcDbSpline
70
4
71
3
72
8
73
4
40
0
40
0
40
0
40
0
40
1
40
1
40
1
40
1
41
1
10
32.172400536749
20
7.88493715835591
30
0
41
1
10
32.2323837831874
20
7.87920305140261
30
0
41
1
10
32.2928500715066
20
7.87701658464053
30
0
41
1
10
32.3530991918524
20
7.87886715841324
30
0
0
SPLINE
5
181
100
AcDbEntity
8
1
62
256
6
ByLayer
370
13
48
1
60
0
100
AcDbSpline
70
4
71
3
72
12
73
8
40
0
40
0
40
0
40
0
40
0.140444200279774
40
0.140444200279774
40
0.578672846880988
40
0.578672846880988
40
1
40
1
40
1
40
1
41
1
10
31.0502390423
20
7.96526349937668
30
0
41
1
10
31.0907683260285
20
7.96991227980226
30
0
41
1
10
31.1340049971858
20
7.97265805402679
30
0
41
1
10
31.3188333798474
20
7.97734361775744
30
0
41
1
10
31.4828017897204
20
7.9660056652956
30
0
41
1
10
31.8193415913498
20
7.92921608847979
30
0
41
1
10
31.9971452699764
20
7.90169071044707
30
0
41
1
10
32.172400536749
20
7.88493715835591
30
0
0
SPLINE
5
182
100
AcDbEntity
8
1
62
256
6
ByLayer
370
13
48
1
60
0
100
AcDbSpline
70
4
71
3
72
8
73
4
40
0
40
0
40
0
40
0
40
1
40
1
40
1
40
1
41
1
10
30.9582665042272
20
7.95839085458641
30
0
41
1
10
30.9890156099214
20
7.9593812276681
30
0
41
1
10
31.0196882286926
20
7.96175926709773
30
0
41
1
10
31.0502390423
20
7.96526349937668
30
0
0
SPLINE
5
183
100
AcDbEntity
8
1
62
256
6
ByLayer
370
13
48
1
60
0
100
AcDbSpline
70
4
71
3
72
10
73
6
40
0
40
0
40
0
40
0
40
0.258944711528363
40
0.258944711528363
40
1
40
1
40
1
40
1
41
1
10
30.7845849620887
20
8.11788157128029
30
0
41
1
10
30.799277300327
20
8.10379396079205
30
0
41
1
10
30.8140493078695
20
8.08978898921509
30
0
41
1
10
30.8714142308746
20
8.03604019246299
30
0
41
1
10
30.9146891560262
20
7.996988956998
30
0
41
1
10
30.958266504227
20
7.95839085458627
30
0
0
SPLINE
5
184
100
AcDbEntity
8
1
62
256
6
ByLayer
370
13
48
1
60
0
100
AcDbSpline
70
4
71
3
72
10
73
6
40
0
40
0
40
0
40
0
40
0.649009211321481
40
0.649009211321481
40
1
40
1
40
1
40
1
41
1
10
30.8632877280426
20
9.17637866686343
30
0
41
1
10
30.8657560063979
20
9.21009689092335
30
0
41
1
10
30.8599458432007
20
9.24012315634056
30
0
41
1
10
30.8416692657146
20
9.27846990314339
30
0
41
1
10
30.8338663110395
20
9.29103137818777
30
0
41
1
10
30.8235446149629
20
9.30119885589852
30
0
0
SPLINE
5
185
100
AcDbEntity
8
1
62
256
6
ByLayer
370
13
48
1
60
0
100
AcDbSpline
70
4
71
3
72
8
73
4
40
0
40
0
40
0
40
0
40
1
40
1
40
1
40
1
41
1
10
30.8235446149629
20
9.30119885589852
30
0
41
1
10
30.804612279328
20
9.31984832001308
30
0
41
1
10
30.7842500998041
20
9.3377949658676
30
0
41
1
10
30.7636948430068
20
9.35602246752163
30
0
0
SPLINE
5
186
100
AcDbEntity
8
1
62
256
6
ByLayer
370
13
48
1
60
0
100
AcDbSpline
70
4
71
3
72
12
73
8
40
0
40
0
40
0
40
0
40
0.276452079067817
40
0.276452079067817
40
0.899464630432222
40
0.899464630432222
40
1
40
1
40
1
40
1
41
1
10
30.7636948430209
20
9.35602246753564
30
0
41
1
10
30.7650009626683
20
9.35852648923421
30
0
41
1
10
30.7665799094947
20
9.36106945155123
30
0
41
1
10
30.7722215249124
20
9.36913828178047
30
0
41
1
10
30.777018376239
20
9.37460490467916
30
0
41
1
10
30.7829057388044
20
9.38049186731155
30
0
41
1
10
30.7837412366061
20
9.38130943046755
30
0
41
1
10
30.7845849620887
20
9.38211842871996
30
0
0
SPLINE
5
187
100
AcDbEntity
8
1
62
256
6
ByLayer
370
13
48
1
60
0
100
AcDbSpline
70
4
71
3
72
10
73
6
40
0
40
0
40
0
40
0
40
0.258944711528364
40
0.258944711528364
40
1
40
1
40
1
40
1
41
1
10
30.7845849620887
20
9.38211842871996
30
0
41
1
10
30.799277300327
20
9.39620603920821
30
0
41
1
10
30.8140493078695
20
9.41021101078513
30
0
41
1
10
30.8714142308746
20
9.46395980753726
30
0
41
1
10
30.9146891560262
20
9.50301104300223
30
0
41
1
10
30.958266504227
20
9.54160914541396
30
0
0
SPLINE
5
188
100
AcDbEntity
8
1
62
256
6
ByLayer
370
13
48
1
60
0
100
AcDbSpline
70
4
71
3
72
8
73
4
40
0
40
0
40
0
40
0
40
1
40
1
40
1
40
1
41
1
10
30.9582665042272
20
9.54160914541382
30
0
41
1
10
30.9890156099214
20
9.54061877233215
30
0
41
1
10
31.0196882286926
20
9.53824073290249
30
0
41
1
10
31.0502390423
20
9.53473650062355
30
0
0
SPLINE
5
189
100
AcDbEntity
8
1
62
256
6
ByLayer
370
13
48
1
60
0
100
AcDbSpline
70
4
71
3
72
12
73
8
40
0
40
0
40
0
40
0
40
0.140444200279774
40
0.140444200279774
40
0.578672846880988
40
0.578672846880988
40
1
40
1
40
1
40
1
41
1
10
31.0502390423
20
9.53473650062355
30
0
41
1
10
31.0907683260285
20
9.53008772019797
30
0
41
1
10
31.1340049971858
20
9.52734194597343
30
0
41
1
10
31.3188333798474
20
9.52265638224281
30
0
41
1
10
31.4828017897204
20
9.53399433470463
30
0
41
1
10
31.8193415913498
20
9.57078391152046
30
0
41
1
10
31.9971452699764
20
9.59830928955316
30
0
41
1
10
32.172400536749
20
9.61506284164432
30
0
0
SPLINE
5
18A
100
AcDbEntity
8
1
62
256
6
ByLayer
370
13
48
1
60
0
100
AcDbSpline
70
4
71
3
72
8
73
4
40
0
40
0
40
0
40
0
40
1
40
1
40
1
40
1
41
1
10
32.172400536749
20
9.61506284164432
30
0
41
1
10
32.2323837831874
20
9.62079694859762
30
0
41
1
10
32.2928500715066
20
9.62298341535973
30
0
41
1
10
32.3530991918524
20
9.62113284158701
30
0
0
SPLINE
5
18B
100
AcDbEntity
8
1
62
256
6
ByLayer
370
13
48
1
60
0
100
AcDbSpline
70
4
71
3
72
8
73
4
40
0
40
0
40
0
40
0
40
1
40
1
40
1
40
1
41
1
10
32.3530991918524
20
9.62113284158693
30
0
41
1
10
32.4746599531638
20
9.61739905833198
30
0
41
1
10
32.5968950955519
20
9.62249462858031
30
0
41
1
10
32.7161920011129
20
9.62237146477432
30
0
0
SPLINE
5
18C
100
AcDbEntity
8
1
62
256
6
ByLayer
370
13
48
1
60
0
100
AcDbSpline
70
4
71
3
72
8
73
4
40
0
40
0
40
0
40
0
40
1
40
1
40
1
40
1
41
1
10
32.7161920011118
20
9.62237146477253
30
0
41
1
10
32.8757348334777
20
9.62220675050463
30
0
41
1
10
33.0355792331503
20
9.58837853620514
30
0
41
1
10
33.1901406592828
20
9.54473627457097
30
0
0
SPLINE
5
18D
100
AcDbEntity
8
1
62
256
6
ByLayer
370
13
48
1
60
0
100
AcDbSpline
70
4
71
3
72
8
73
4
40
0
40
0
40
0
40
0
40
1
40
1
40
1
40
1
41
1
10
33.1901406592839
20
9.54473627457031
30
0
41
1
10
33.2341557915993
20
9.51814175561071
30
0
41
1
10
33.2778467711874
20
9.49101170653287
30
0
41
1
10
33.3213347612452
20
9.46356743665041
30
0
0
SPLINE
5
18E
100
AcDbEntity
8
1
62
256
6
ByLayer
370
13
48
1
60
0
100
AcDbSpline
70
4
71
3
72
14
73
10
40
0
40
0
40
0
40
0
40
0.0740326958458219
40
0.0740326958458219
40
0.743257125695834
40
0.743257125695834
40
0.939124438646558
40
0.939124438646558
40
1
40
1
40
1
40
1
41
1
10
33.3213347612452
20
9.46356743665027
30
0
41
1
10
33.3126059855915
20
9.46391730683226
30
0
41
1
10
33.3038751248009
20
9.46426850819509
30
0
41
1
10
33.2162008436679
20
9.46780695323505
30
0
41
1
10
33.1369961926742
20
9.47123778505392
30
0
41
1
10
33.0347137397946
20
9.47522678539448
30
0
41
1
10
33.0110630969842
20
9.47766581184996
30
0
41
1
10
32.9801088915618
20
9.47949781692569
30
0
41
1
10
32.9727654069312
20
9.47986990553909
30
0
41
1
10
32.96542001724
20
9.48018146508025
30
0
0
SPLINE
5
18F
100
AcDbEntity
8
1
62
256
6
ByLayer
370
13
48
1
60
0
100
AcDbSpline
70
4
71
3
72
12
73
8
40
0
40
0
40
0
40
0
40
0.580466676309606
40
0.580466676309606
40
0.902092447109163
40
0.902092447109163
40
1
40
1
40
1
40
1
41
1
10
32.96542001724
20
9.48018146508025
30
0
41
1
10
32.8648041446478
20
9.48444915357823
30
0
41
1
10
32.7598849325172
20
9.48848103833512
30
0
41
1
10
32.5950542118574
20
9.4947528621617
30
0
41
1
10
32.5355659682511
20
9.4970828747451
30
0
41
1
10
32.4579762169911
20
9.49990079744293
30
0
41
1
10
32.4398403518264
20
9.50055490108403
30
0
41
1
10
32.4217062023472
20
9.50118175246968
30
0
0
SPLINE
5
190
100
AcDbEntity
8
1
62
256
6
ByLayer
370
13
48
1
60
0
100
AcDbSpline
70
4
71
3
72
14
73
10
40
0
40
0
40
0
40
0
40
0.0559482231425851
40
0.0559482231425851
40
0.255082555375332
40
0.255082555375332
40
0.91736630964965
40
0.91736630964965
40
1
40
1
40
1
40
1
41
1
10
32.4217062023472
20
9.50118175246968
30
0
41
1
10
32.4102710337184
20
9.50157703714007
30
0
41
1
10
32.3988345011549
20
9.50193380487482
30
0
41
1
10
32.346704106935
20
9.50384176273107
30
0
41
1
10
32.3060132231142
20
9.5057728592256
30
0
41
1
10
32.1310688272088
20
9.51147327320288
30
0
41
1
10
31.9936591146985
20
9.50637362027814
30
0
41
1
10
31.8478771051644
20
9.46537353651669
30
0
41
1
10
31.8314856310115
20
9.4606568232785
30
0
41
1
10
31.8151325614844
20
9.45581819602032
30
0
0
SPLINE
5
191
100
AcDbEntity
8
1
62
256
6
ByLayer
370
13
48
1
60
0
100
AcDbSpline
70
4
71
3
72
12
73
8
40
0
40
0
40
0
40
0
40
0.432851996086571
40
0.432851996086571
40
0.716418616561771
40
0.716418616561771
40
1
40
1
40
1
40
1
41
1
10
31.8151325614844
20
9.45581819602032
30
0
41
1
10
31.8046568328338
20
9.45271858550902
30
0
41
1
10
31.7941840602842
20
9.44961481384482
30
0
41
1
10
31.7768579385476
20
9.44447558400086
30
0
41
1
10
31.770001810704
20
9.44244018508505
30
0
41
1
10
31.7562928218783
20
9.43837320481038
30
0
41
1
10
31.7494397680902
20
9.43634142976777
30
0
41
1
10
31.7425891010003
20
9.43431154917477
30
0
0
SPLINE
5
192
100
AcDbEntity
8
1
62
256
6
ByLayer
370
13
48
1
60
0
100
AcDbSpline
70
4
71
3
72
12
73
8
40
0
40
0
40
0
40
0
40
0.0568772518374259
40
0.0568772518374259
40
0.598921195001127
40
0.598921195001127
40
1
40
1
40
1
40
1
41
1
10
31.7425891010003
20
9.43431154917477
30
0
41
1
10
31.7245515992803
20
9.42896696386543
30
0
41
1
10
31.7065274742932
20
9.42363476304521
30
0
41
1
10
31.5189632613311
20
9.36821938628691
30
0
41
1
10
31.3497242492963
20
9.31872689759527
30
0
41
1
10
31.0764510412474
20
9.23886053124667
30
0
41
1
10
30.9651339164841
20
9.2063198062794
30
0
41
1
10
30.8632877280433
20
9.17637866686255
30
0
0
SPLINE
5
193
100
AcDbEntity
8
1
62
256
6
ByLayer
370
13
48
1
60
0
100
AcDbSpline
70
4
71
3
72
8
73
4
40
0
40
0
40
0
40
0
40
1
40
1
40
1
40
1
41
1
10
30.8188209596174
20
7.79893124766929
30
0
41
1
10
30.7566840705692
20
7.85133909160112
30
0
41
1
10
30.6964721480718
20
7.90604468785756
30
0
41
1
10
30.6373478591962
20
7.96182903647909
30
0
0
SPLINE
5
194
100
AcDbEntity
8
1
62
256
6
ByLayer
370
13
48
1
60
0
100
AcDbSpline
70
4
71
3
72
8
73
4
40
0
40
0
40
0
40
0
40
1
40
1
40
1
40
1
41
1
10
30.8188209596174
20
9.70106875233097
30
0
41
1
10
30.7566840705692
20
9.64866090839911
30
0
41
1
10
30.6964721480718
20
9.5939553121427
30
0
41
1
10
30.6373478591962
20
9.53817096352114
30
0
0
SPLINE
5
195
100
AcDbEntity
8
1
62
256
6
ByLayer
370
13
48
1
60
0
100
AcDbSpline
70
4
71
3
72
12
73
8
40
0
40
0
40
0
40
0
40
0.430493117721161
40
0.430493117721161
40
0.862618336992714
40
0.862618336992714
40
1
40
1
40
1
40
1
41
1
10
32.1587805434612
20
7.71700205261379
30
0
41
1
10
31.9906987623659
20
7.73225867917702
30
0
41
1
10
31.8215883462255
20
7.76147754984393
30
0
41
1
10
31.5044434955373
20
7.80454263376618
30
0
41
1
10
31.351699988043
20
7.81967591651716
30
0
41
1
10
31.1772887625654
20
7.82083041260009
30
0
41
1
10
31.1365461454505
20
7.81961333299677
30
0
41
1
10
31.0981203716814
20
7.81656652204308
30
0
0
SPLINE
5
196
100
AcDbEntity
8
1
62
256
6
ByLayer
370
13
48
1
60
0
100
AcDbSpline
70
4
71
3
72
12
73
8
40
0
40
0
40
0
40
0
40
0.430493117721161
40
0.430493117721161
40
0.862618336992714
40
0.862618336992714
40
1
40
1
40
1
40
1
41
1
10
32.1587805434612
20
9.78299794738646
30
0
41
1
10
31.9906987623659
20
9.76774132082321
30
0
41
1
10
31.8215883462255
20
9.7385224501563
30
0
41
1
10
31.5044434955373
20
9.69545736623405
30
0
41
1
10
31.351699988043
20
9.68032408348307
30
0
41
1
10
31.1772887625654
20
9.67916958740017
30
0
41
1
10
31.1365461454505
20
9.68038666700349
30
0
41
1
10
31.0981203716814
20
9.68343347795718
30
0
0
SPLINE
5
197
100
AcDbEntity
8
1
62
256
6
ByLayer
370
13
48
1
60
0
100
AcDbSpline
70
4
71
3
72
12
73
8
40
0
40
0
40
0
40
0
40
0.018287446984155
40
0.018287446984155
40
0.429383149668921
40
0.429383149668921
40
1
40
1
40
1
40
1
41
1
10
30.6074254881241
20
8.24213188808403
30
0
41
1
10
30.607536236287
20
8.24168516931707
30
0
41
1
10
30.6076466703323
20
8.24123192877957
30
0
41
1
10
30.6102522277265
20
8.23035204113825
30
0
41
1
10
30.612595462443
20
8.21645055715555
30
0
41
1
10
30.6175084652176
20
8.17687315827311
30
0
41
1
10
30.6199051952736
20
8.14798609154633
30
0
41
1
10
30.6216132026687
20
8.11598961440257
30
0
0
SPLINE
5
198
100
AcDbEntity
8
1
62
256
6
ByLayer
370
13
48
1
60
0
100
AcDbSpline
70
4
71
3
72
10
73
6
40
0
40
0
40
0
40
0
40
0.318891167720856
40
0.318891167720856
40
1
40
1
40
1
40
1
41
1
10
30.6216132026687
20
8.11598961440257
30
0
41
1
10
30.6224098521601
20
8.10106580480669
30
0
41
1
10
30.6235152334821
20
8.08532606116543
30
0
41
1
10
30.6278307781878
20
8.03501753543
30
0
41
1
10
30.6321174721148
20
7.99804940566804
30
0
41
1
10
30.6373478591962
20
7.96182903647909
30
0
0
SPLINE
5
199
100
AcDbEntity
8
1
62
256
6
ByLayer
370
13
48
1
60
0
100
AcDbSpline
70
4
71
3
72
12
73
8
40
0
40
0
40
0
40
0
40
0.089550281954247
40
0.089550281954247
40
0.695495664143286
40
0.695495664143286
40
1
40
1
40
1
40
1
41
1
10
30.6373478591962
20
9.53817096352114
30
0
41
1
10
30.6366504824215
20
9.53334163753613
30
0
41
1
10
30.6359706281935
20
9.52850837516692
30
0
41
1
10
30.630892834415
20
9.4914217801421
30
0
41
1
10
30.627265294638
20
9.45887316468938
30
0
41
1
10
30.6234116552874
20
9.4131929125642
30
0
41
1
10
30.6223723977324
20
9.39823255318692
30
0
41
1
10
30.6216132026687
20
9.38401038559769
30
0
0
SPLINE
5
19A
100
AcDbEntity
8
1
62
256
6
ByLayer
370
13
48
1
60
0
100
AcDbSpline
70
4
71
3
72
14
73
10
40
0
40
0
40
0
40
0
40
0.209495302841087
40
0.209495302841087
40
0.672464390491942
40
0.672464390491942
40
0.981903526404807
40
0.981903526404807
40
1
40
1
40
1
40
1
41
1
10
30.6216132026687
20
9.38401038559769
30
0
41
1
10
30.6209795101629
20
9.37213928490212
30
0
41
1
10
30.6202559987987
20
9.36072686491175
30
0
41
1
10
30.6176940629878
20
9.32629078711921
30
0
41
1
10
30.6155182997219
20
9.30528174640699
30
0
41
1
10
30.6114230927657
20
9.27684949758213
30
0
41
1
10
30.6096341492853
20
9.26706707682189
30
0
41
1
10
30.6076466700101
20
9.25876807121853
30
0
41
1
10
30.6075362362064
20
9.25831483068259
30
0
41
1
10
30.6074254881241
20
9.25786811191628
30
0
0
SPLINE
5
19B
100
AcDbEntity
8
1
62
256
6
ByLayer
370
13
48
1
60
0
100
AcDbSpline
70
4
71
3
72
8
73
4
40
0
40
0
40
0
40
0
40
1
40
1
40
1
40
1
41
1
10
30.9582665042275
20
7.95839085458644
30
0
41
1
10
30.9515452911909
20
7.95111146098427
30
0
41
1
10
30.9437211106933
20
7.94234368488193
30
0
41
1
10
30.9350869923574
20
7.93241113250153
30
0
0
SPLINE
5
19C
100
AcDbEntity
8
1
62
256
6
ByLayer
370
13
48
1
60
0
100
AcDbSpline
70
4
71
3
72
14
73
10
40
0
40
0
40
0
40
0
40
0.448208770210974
40
0.448208770210974
40
0.913122348259776
40
0.913122348259776
40
0.983427664880478
40
0.983427664880478
40
1
40
1
40
1
40
1
41
1
10
30.9350869923623
20
7.93241113249732
30
0
41
1
10
30.9215455531755
20
7.91683327624096
30
0
41
1
10
30.905341588264
20
7.89820420416214
30
0
41
1
10
30.8698920668222
20
7.85749071406431
30
0
41
1
10
30.8499835745949
20
7.83464689438298
30
0
41
1
10
30.8270726024479
20
7.80838663572015
30
0
41
1
10
30.8240126344075
20
7.80487989639761
30
0
41
1
10
30.8202420283414
20
7.80055945032623
30
0
41
1
10
30.8195314790725
20
7.79974534694563
30
0
41
1
10
30.8188209596159
20
7.79893124767048
30
0
0
SPLINE
5
19D
100
AcDbEntity
8
1
62
256
6
ByLayer
370
13
48
1
60
0
100
AcDbSpline
70
4
71
3
72
8
73
4
40
0
40
0
40
0
40
0
40
1
40
1
40
1
40
1
41
1
10
30.9582665042275
20
9.54160914541382
30
0
41
1
10
30.9515452911909
20
9.54888853901599
30
0
41
1
10
30.9437211106933
20
9.55765631511829
30
0
41
1
10
30.9350869923574
20
9.5675888674987
30
0
0
SPLINE
5
19E
100
AcDbEntity
8
1
62
256
6
ByLayer
370
13
48
1
60
0
100
AcDbSpline
70
4
71
3
72
14
73
10
40
0
40
0
40
0
40
0
40
0.448208770210974
40
0.448208770210974
40
0.913122348259776
40
0.913122348259776
40
0.983427664880478
40
0.983427664880478
40
1
40
1
40
1
40
1
41
1
10
30.9350869923623
20
9.56758886750293
30
0
41
1
10
30.9215455531755
20
9.58316672375929
30
0
41
1
10
30.905341588264
20
9.60179579583811
30
0
41
1
10
30.8698920668222
20
9.64250928593594
30
0
41
1
10
30.8499835745949
20
9.66535310561727
30
0
41
1
10
30.8270726024479
20
9.69161336428007
30
0
41
1
10
30.8240126344075
20
9.69512010360262
30
0
41
1
10
30.8202420283414
20
9.69944054967399
30
0
41
1
10
30.8195314790725
20
9.7002546530546
30
0
41
1
10
30.8188209596159
20
9.70106875232977
30
0
0
SPLINE
5
19F
100
AcDbEntity
8
1
62
256
6
ByLayer
370
13
48
1
60
0
100
AcDbSpline
70
4
71
3
72
14
73
10
40
0
40
0
40
0
40
0
40
0.448209783482341
40
0.448209783482341
40
0.913122824433937
40
0.913122824433937
40
0.983427843025058
40
0.983427843025058
40
1
40
1
40
1
40
1
41
1
10
30.9951729104533
20
9.68573297768808
30
0
41
1
10
30.9746094473681
20
9.68752145355657
30
0
41
1
10
30.9500116922507
20
9.68966071216039
30
0
41
1
10
30.8962303412136
20
9.69433772626999
30
0
41
1
10
30.8660425013692
20
9.69696279853642
30
0
41
1
10
30.8313234526433
20
9.69998166476452
30
0
41
1
10
30.8266868400137
20
9.70038481976624
30
0
41
1
10
30.8209739567194
20
9.70088155132817
30
0
41
1
10
30.8198974468538
20
9.70097515269291
30
0
41
1
10
30.8188209596194
20
9.70106875233091
30
0
0
SPLINE
5
1A0
100
AcDbEntity
8
1
62
256
6
ByLayer
370
13
48
1
60
0
100
AcDbSpline
70
4
71
3
72
14
73
10
40
0
40
0
40
0
40
0
40
0.448209783482341
40
0.448209783482341
40
0.913122824433937
40
0.913122824433937
40
0.983427843025058
40
0.983427843025058
40
1
40
1
40
1
40
1
41
1
10
30.9951729104533
20
7.81426702231215
30
0
41
1
10
30.9746094473681
20
7.81247854644368
30
0
41
1
10
30.9500116922507
20
7.81033928783987
30
0
41
1
10
30.8962303412136
20
7.80566227373023
30
0
41
1
10
30.8660425013692
20
7.80303720146381
30
0
41
1
10
30.8313234526433
20
7.80001833523573
30
0
41
1
10
30.8266868400137
20
7.79961518023401
30
0
41
1
10
30.8209739567194
20
7.79911844867209
30
0
41
1
10
30.8198974468538
20
7.79902484730735
30
0
41
1
10
30.8188209596194
20
7.79893124766934
30
0
0
SPLINE
5
1A1
100
AcDbEntity
8
1
62
256
6
ByLayer
370
13
48
1
60
0
100
AcDbSpline
70
4
71
3
72
12
73
8
40
0
40
0
40
0
40
0
40
0.37350315843554
40
0.37350315843554
40
0.795694705497851
40
0.795694705497851
40
1
40
1
40
1
40
1
41
1
10
30.659385679813
20
9.21359192728352
30
0
41
1
10
30.6710534635609
20
9.20770942371939
30
0
41
1
10
30.6816831597665
20
9.200777039896
30
0
41
1
10
30.7006200088993
20
9.18334311460512
30
0
41
1
10
30.7085333602959
20
9.17226243447197
30
0
41
1
10
30.7143528017274
20
9.15306391639629
30
0
41
1
10
30.7153239472322
20
9.14628000799928
30
0
41
1
10
30.7152169044539
20
9.13916090088421
30
0
0
SPLINE
5
1A2
100
AcDbEntity
8
1
62
256
6
ByLayer
370
13
48
1
60
0
100
AcDbSpline
70
4
71
3
72
12
73
8
40
0
40
0
40
0
40
0
40
0.0542763744367155
40
0.0542763744367155
40
0.496521492455521
40
0.496521492455521
40
1
40
1
40
1
40
1
41
1
10
30.7152169044538
20
9.13916090088415
30
0
41
1
10
30.7151561390062
20
9.13511956584782
30
0
41
1
10
30.7151785928067
20
9.1309843746489
30
0
41
1
10
30.716167948326
20
9.09293789240482
30
0
41
1
10
30.7229550923539
20
9.05266289271296
30
0
41
1
10
30.7518066817856
20
8.96349232373393
30
0
41
1
10
30.7764269684705
20
8.91252200754454
30
0
41
1
10
30.8087083957605
20
8.86587696886963
30
0
0
SPLINE
5
1A3
100
AcDbEntity
8
1
62
256
6
ByLayer
370
13
48
1
60
0
100
AcDbSpline
70
4
71
3
72
16
73
12
40
0
40
0
40
0
40
0
40
0.298315131809684
40
0.298315131809684
40
0.533632825549725
40
0.533632825549725
40
0.64077898617517
40
0.64077898617517
40
0.930881665385067
40
0.930881665385067
40
1
40
1
40
1
40
1
41
1
10
30.8087083957605
20
8.86587696886963
30
0
41
1
10
30.8224586946462
20
8.84600847862004
30
0
41
1
10
30.8344062486955
20
8.82392458447904
30
0
41
1
10
30.8474662168349
20
8.78156881211348
30
0
41
1
10
30.8502777390208
20
8.76137615415826
30
0
41
1
10
30.8488025034954
20
8.73260406621358
30
0
41
1
10
30.8475581030794
20
8.72352172937315
30
0
41
1
10
30.8404854878039
20
8.69102839346507
30
0
41
1
10
30.830331619189
20
8.66854722723193
30
0
41
1
10
30.8150440331609
20
8.64354042381319
30
0
41
1
10
30.8119321889307
20
8.63878125010478
30
0
41
1
10
30.8087083957605
20
8.63412303113063
30
0
0
SPLINE
5
1A4
100
AcDbEntity
8
1
62
256
6
ByLayer
370
13
48
1
60
0
100
AcDbSpline
70
4
71
3
72
12
73
8
40
0
40
0
40
0
40
0
40
0.072400628024118
40
0.072400628024118
40
0.542681200842481
40
0.542681200842481
40
1
40
1
40
1
40
1
41
1
10
30.8087083957605
20
8.63412303113063
30
0
41
1
10
30.8039784382181
20
8.62728848039922
30
0
41
1
10
30.7994173867099
20
8.62038158417761
30
0
41
1
10
30.7670358688112
20
8.56899857685556
30
0
41
1
10
30.7459582481575
20
8.52154631435013
30
0
41
1
10
30.720221996636
20
8.43493893254632
30
0
41
1
10
30.7147143497319
20
8.39426256730107
30
0
41
1
10
30.7152169044538
20
8.36083909911594
30
0
0
SPLINE
5
1A5
100
AcDbEntity
8
1
62
256
6
ByLayer
370
13
48
1
60
0
100
AcDbSpline
70
4
71
3
72
10
73
6
40
0
40
0
40
0
40
0
40
0.334030053675942
40
0.334030053675942
40
1
40
1
40
1
40
1
41
1
10
30.7152169044538
20
8.36083909911594
30
0
41
1
10
30.7153918659962
20
8.3492029104786
30
0
41
1
10
30.712626158964
20
8.33846040463845
30
0
41
1
10
30.6979583359749
20
8.31066492037749
30
0
41
1
10
30.6800208663975
20
8.29681163874545
30
0
41
1
10
30.659385679813
20
8.28640807271674
30
0
0
SPLINE
5
1A6
100
AcDbEntity
8
1
62
256
6
ByLayer
370
13
48
1
60
0
100
AcDbSpline
70
4
71
3
72
8
73
4
40
0
40
0
40
0
40
0
40
1
40
1
40
1
40
1
41
1
10
29.666445598065
20
8.36360308959232
30
0
41
1
10
29.6610646480122
20
8.38410520198215
30
0
41
1
10
29.6558908241367
20
8.40716032801515
30
0
41
1
10
29.6526147090177
20
8.43215659695977
30
0
0
SPLINE
5
1A7
100
AcDbEntity
8
1
62
256
6
ByLayer
370
13
48
1
60
0
100
AcDbSpline
70
4
71
3
72
8
73
4
40
0
40
0
40
0
40
0
40
1
40
1
40
1
40
1
41
1
10
29.6526147090177
20
8.43215659695977
30
0
41
1
10
29.6731026391489
20
8.43792831793158
30
0
41
1
10
29.6938876855838
20
8.44330920327951
30
0
41
1
10
29.7148664719513
20
8.44833535122422
30
0
0
SPLINE
5
1A8
100
AcDbEntity
8
1
62
256
6
ByLayer
370
13
48
1
60
0
100
AcDbSpline
70
4
71
3
72
8
73
4
40
0
40
0
40
0
40
0
40
1
40
1
40
1
40
1
41
1
10
29.7148664719505
20
8.44833535122882
30
0
41
1
10
29.7178417098663
20
8.44904816586327
30
0
41
1
10
29.7208179657885
20
8.44976070584434
30
0
41
1
10
29.7237952140209
20
8.4504729771246
30
0
0
SPLINE
5
1A9
100
AcDbEntity
8
1
62
256
6
ByLayer
370
13
48
1
60
0
100
AcDbSpline
70
4
71
3
72
28
73
24
40
0
40
0
40
0
40
0
40
0.0824331628013926
40
0.0824331628013926
40
0.235485992714892
40
0.235485992714892
40
0.365353750303328
40
0.365353750303328
40
0.450881865339947
40
0.450881865339947
40
0.480850336949852
40
0.480850336949852
40
0.574325592928214
40
0.574325592928214
40
0.597106041801673
40
0.597106041801673
40
0.701976945932075
40
0.701976945932075
40
0.720205522192435
40
0.720205522192435
40
0.850377367168771
40
0.850377367168771
40
1
40
1
40
1
40
1
41
1
10
29.7237952140209
20
8.4504729771246
30
0
41
1
10
29.747791077577
20
8.4562137024933
30
0
41
1
10
29.7712519946268
20
8.46343394515316
30
0
41
1
10
29.8351496262034
20
8.48865108690109
30
0
41
1
10
29.8740994363458
20
8.51101895823956
30
0
41
1
10
29.9349325388924
20
8.56470548315863
30
0
41
1
10
29.9592944515774
20
8.59503232085225
30
0
41
1
10
29.9879457247085
20
8.65253309803961
30
0
41
1
10
29.9964642542704
20
8.67787470102866
30
0
41
1
10
30.0026326894441
20
8.71315153802524
30
0
41
1
10
30.0037700606155
20
8.72252519506878
30
0
41
1
10
30.0063614612622
20
8.76076682500704
30
0
41
1
10
30.0034520633988
20
8.79056290234715
30
0
41
1
10
29.9943898978956
20
8.8250133988993
30
0
41
1
10
29.9923244016579
20
8.83176725012183
30
0
41
1
10
29.9795450947273
20
8.86842706949972
30
0
41
1
10
29.9637586656491
20
8.89626752866863
30
0
41
1
10
29.9414347991992
20
8.92444641635194
30
0
41
1
10
29.937982466813
20
8.92856657711511
30
0
41
1
10
29.9094104165165
20
8.96088419304374
30
0
41
1
10
29.8792041383534
20
8.98423753076491
30
0
41
1
10
29.808915041613
20
9.023876732948
30
0
41
1
10
29.7671153730992
20
9.03916318930843
30
0
41
1
10
29.7237952140209
20
9.04952702287562
30
0
0
SPLINE
5
1AA
100
AcDbEntity
8
1
62
256
6
ByLayer
370
13
48
1
60
0
100
AcDbSpline
70
4
71
3
72
8
73
4
40
0
40
0
40
0
40
0
40
1
40
1
40
1
40
1
41
1
10
29.7148664719504
20
9.05166464877141
30
0
41
1
10
29.693887685583
20
9.05669079671611
30
0
41
1
10
29.6731026391491
20
9.06207168207351
30
0
41
1
10
29.6526147090178
20
9.06784340304529
30
0
0
SPLINE
5
1AB
100
AcDbEntity
8
1
62
256
6
ByLayer
370
13
48
1
60
0
100
AcDbSpline
70
4
71
3
72
10
73
6
40
0
40
0
40
0
40
0
40
0.151242748517103
40
0.151242748517103
40
1
40
1
40
1
40
1
41
1
10
29.6526147090177
20
9.06784340304046
30
0
41
1
10
29.6531149923946
20
9.07166049046972
30
0
41
1
10
29.6536590318523
20
9.07543074639673
30
0
41
1
10
29.6574716522986
20
9.099811371729
30
0
41
1
10
29.6618827558909
20
9.11901189435088
30
0
41
1
10
29.666445598065
20
9.13639691040791
30
0
0
SPLINE
5
1AC
100
AcDbEntity
8
1
62
256
6
ByLayer
370
13
48
1
60
0
100
AcDbSpline
70
4
71
3
72
8
73
4
40
0
40
0
40
0
40
0
40
1
40
1
40
1
40
1
41
1
10
29.7237952140209
20
9.04952702287562
30
0
41
1
10
29.7208179657885
20
9.05023929415592
30
0
41
1
10
29.7178417098663
20
9.05095183413698
30
0
41
1
10
29.7148664719504
20
9.05166464877141
30
0
0
SPLINE
5
1AD
100
AcDbEntity
8
1
62
256
6
ByLayer
370
13
48
1
60
0
100
AcDbSpline
70
4
71
3
72
14
73
10
40
0
40
0
40
0
40
0
40
0.0180992437321471
40
0.0180992437321471
40
0.327555555031554
40
0.327555555031554
40
0.783089016631575
40
0.783089016631575
40
1
40
1
40
1
40
1
41
1
10
30.6074254881241
20
9.25786811191628
30
0
41
1
10
30.6084604407255
20
9.258131969115
30
0
41
1
10
30.6094951241647
20
9.25840232414652
30
0
41
1
10
30.6281664148289
20
9.26340115851963
30
0
41
1
10
30.6457666302326
20
9.27006058901475
30
0
41
1
10
30.6877311305171
20
9.29074662674714
30
0
41
1
10
30.7118879593938
20
9.30702271063444
30
0
41
1
10
30.7442130974434
20
9.33548534660147
30
0
41
1
10
30.7542531544874
20
9.34545869744471
30
0
41
1
10
30.7636948430209
20
9.35602246753564
30
0
0
SPLINE
5
1AE
100
AcDbEntity
8
1
62
256
6
ByLayer
370
13
48
1
60
0
100
AcDbSpline
70
4
71
3
72
12
73
8
40
0
40
0
40
0
40
0
40
0.0182847240742239
40
0.0182847240742239
40
0.429358008400497
40
0.429358008400497
40
1
40
1
40
1
40
1
41
1
10
30.6074254881188
20
8.24213188807744
30
0
41
1
10
30.6084604407251
20
8.2418680308808
30
0
41
1
10
30.6094951241747
20
8.24159767585482
30
0
41
1
10
30.6339733233843
20
8.23504416723972
30
0
41
1
10
30.6574007313324
20
8.22530486160707
30
0
41
1
10
30.7101056255246
20
8.19514494168618
30
0
41
1
10
30.7391079375758
20
8.17148642723976
30
0
41
1
10
30.7636948430209
20
8.14397753246462
30
0
0
SPLINE
5
1AF
100
AcDbEntity
8
1
62
256
6
ByLayer
370
13
48
1
60
0
100
AcDbSpline
70
4
71
3
72
16
73
12
40
0
40
0
40
0
40
0
40
0.266114531305344
40
0.266114531305344
40
0.459598281789052
40
0.459598281789052
40
0.654681344527544
40
0.654681344527544
40
0.849490422247785
40
0.849490422247785
40
1
40
1
40
1
40
1
41
1
10
29.582572519129
20
9.29095567457102
30
0
41
1
10
29.5735711562898
20
9.28738422304804
30
0
41
1
10
29.564076996927
20
9.28484811823557
30
0
41
1
10
29.5475300168956
20
9.28338317838853
30
0
41
1
10
29.5404025170202
20
9.28367180938838
30
0
41
1
10
29.5266373127103
20
9.28655636069658
30
0
41
1
10
29.5198551395321
20
9.2892285790341
30
0
41
1
10
29.5077423483697
20
9.29681604144508
30
0
41
1
10
29.5022610792339
20
9.30181772141253
30
0
41
1
10
29.4941824291228
20
9.31195140099325
30
0
41
1
10
29.491139239586
20
9.31686798915453
30
0
41
1
10
29.4886123585657
20
9.32202393924933
30
0
0
SPLINE
5
1B0
100
AcDbEntity
8
1
62
256
6
ByLayer
370
13
48
1
60
0
100
AcDbSpline
70
4
71
3
72
8
73
4
40
0
40
0
40
0
40
0
40
1
40
1
40
1
40
1
41
1
10
29.4886123585655
20
9.32202393924914
30
0
41
1
10
29.4362826886598
20
9.42879951132954
30
0
41
1
10
29.3808772994326
20
9.53430677716352
30
0
41
1
10
29.3172833606159
20
9.63391723751386
30
0
0
SPLINE
5
1B1
100
AcDbEntity
8
1
62
256
6
ByLayer
370
13
48
1
60
0
100
AcDbSpline
70
4
71
3
72
8
73
4
40
0
40
0
40
0
40
0
40
1
40
1
40
1
40
1
41
1
10
29.3172833606115
20
7.86608276247267
30
0
41
1
10
29.3808772994311
20
7.96569322282659
30
0
41
1
10
29.4362826886578
20
8.07120048866648
30
0
41
1
10
29.4886123585655
20
8.17797606075106
30
0
0
SPLINE
5
1B2
100
AcDbEntity
8
1
62
256
6
ByLayer
370
13
48
1
60
0
100
AcDbSpline
70
4
71
3
72
16
73
12
40
0
40
0
40
0
40
0
40
0.0863584761048735
40
0.0863584761048735
40
0.277083676707827
40
0.277083676707827
40
0.497685001356078
40
0.497685001356078
40
0.715930577764417
40
0.715930577764417
40
1
40
1
40
1
40
1
41
1
10
29.4886123585655
20
8.17797606075106
30
0
41
1
10
29.4900705944436
20
8.18095150413504
30
0
41
1
10
29.4916961209683
20
8.18384205656142
30
0
41
1
10
29.4974070451895
20
8.19264308767671
30
0
41
1
10
29.5022173965363
20
8.19815267871539
30
0
41
1
10
29.5139979851071
20
8.20773088656762
30
0
41
1
10
29.5213908281853
20
8.21156962221465
30
0
41
1
10
29.5366464624699
20
8.21596424469561
30
0
41
1
10
29.544705300207
20
8.21665397901717
30
0
41
1
10
29.5627947729502
20
8.2154888489834
30
0
41
1
10
29.5729718531551
20
8.21285356117792
30
0
41
1
10
29.582572519129
20
8.2090443254292
30
0
0
SPLINE
5
1B3
100
AcDbEntity
8
1
62
256
6
ByLayer
370
13
48
1
60
0
100
AcDbSpline
70
4
71
3
72
8
73
4
40
0
40
0
40
0
40
0
40
1
40
1
40
1
40
1
41
1
10
31.0981203716814
20
7.81656652204308
30
0
41
1
10
31.0644516713932
20
7.81458900814152
30
0
41
1
10
31.0306859121295
20
7.81386348967087
30
0
41
1
10
30.9968964503549
20
7.81463620341819
30
0
0
SPLINE
5
1B4
100
AcDbEntity
8
1
62
256
6
ByLayer
370
13
48
1
60
0
100
AcDbSpline
70
4
71
3
72
8
73
4
40
0
40
0
40
0
40
0
40
1
40
1
40
1
40
1
41
1
10
30.659385679813
20
8.28640807271674
30
0
41
1
10
30.642634420939
20
8.27153863523102
30
0
41
1
10
30.6252541290505
20
8.25678875032827
30
0
41
1
10
30.6074254881232
20
8.24213188808127
30
0
0
SPLINE
5
1B5
100
AcDbEntity
8
1
62
256
6
ByLayer
370
13
48
1
60
0
100
AcDbSpline
70
4
71
3
72
8
73
4
40
0
40
0
40
0
40
0
40
1
40
1
40
1
40
1
41
1
10
30.9968964503546
20
7.81463620341822
30
0
41
1
10
30.9963107228281
20
7.81464959811848
30
0
41
1
10
30.9957150920118
20
7.81454276657033
30
0
41
1
10
30.9951729104351
20
7.81426702308741
30
0
0
SPLINE
5
1B6
100
AcDbEntity
8
1
62
256
6
ByLayer
370
13
48
1
60
0
100
AcDbSpline
70
4
71
3
72
8
73
4
40
0
40
0
40
0
40
0
40
1
40
1
40
1
40
1
41
1
10
30.6074254881232
20
9.25786811191895
30
0
41
1
10
30.6252541290505
20
9.24321124967199
30
0
41
1
10
30.642634420939
20
9.22846136476923
30
0
41
1
10
30.659385679813
20
9.21359192728352
30
0
0
SPLINE
5
1B7
100
AcDbEntity
8
1
62
256
6
ByLayer
370
13
48
1
60
0
100
AcDbSpline
70
4
71
3
72
8
73
4
40
0
40
0
40
0
40
0
40
1
40
1
40
1
40
1
41
1
10
31.0981203716814
20
9.68343347795718
30
0
41
1
10
31.0644516713932
20
9.6854109918587
30
0
41
1
10
31.0306859121295
20
9.68613651032936
30
0
41
1
10
30.9968964503549
20
9.68536379658204
30
0
0
SPLINE
5
1B8
100
AcDbEntity
8
1
62
256
6
ByLayer
370
13
48
1
60
0
100
AcDbSpline
70
4
71
3
72
8
73
4
40
0
40
0
40
0
40
0
40
1
40
1
40
1
40
1
41
1
10
30.9968964503546
20
9.68536379658204
30
0
41
1
10
30.9963107228281
20
9.68535040188175
30
0
41
1
10
30.9957150920118
20
9.6854572334299
30
0
41
1
10
30.9951729104351
20
9.68573297691282
30
0
0
SPLINE
5
1B9
100
AcDbEntity
8
1
62
256
6
ByLayer
370
13
48
1
60
0
100
AcDbSpline
70
4
71
3
72
12
73
8
40
0
40
0
40
0
40
0
40
0.4751334286001
40
0.4751334286001
40
0.932572567163114
40
0.932572567163114
40
1
40
1
40
1
40
1
41
1
10
30.863287728043
20
8.32362133313629
30
0
41
1
10
30.868170611684
20
8.35161009669994
30
0
41
1
10
30.8754113106086
20
8.38689176860763
30
0
41
1
10
30.8979694230474
20
8.46332301899207
30
0
41
1
10
30.9132711544947
20
8.50519028389044
30
0
41
1
10
30.9372384178264
20
8.55237068084486
30
0
41
1
10
30.9404835236959
20
8.55849737611294
30
0
41
1
10
30.9438616980138
20
8.56459684980513
30
0
0
SPLINE
5
1BA
100
AcDbEntity
8
1
62
256
6
ByLayer
370
13
48
1
60
0
100
AcDbSpline
70
4
71
3
72
12
73
8
40
0
40
0
40
0
40
0
40
0.317065405549387
40
0.317065405549387
40
0.935122454125188
40
0.935122454125188
40
1
40
1
40
1
40
1
41
1
10
30.9438616980199
20
8.56459684980015
30
0
41
1
10
31.0265429048384
20
8.54797483162679
30
0
41
1
10
31.1144360245087
20
8.52969027494791
30
0
41
1
10
31.382412259695
20
8.47248473404071
30
0
41
1
10
31.5751745905628
20
8.42949081080752
30
0
41
1
10
31.7879205279658
20
8.37966045767072
30
0
41
1
10
31.8084174418277
20
8.37483464921309
30
0
41
1
10
31.8289221872925
20
8.36998009483574
30
0
0
SPLINE
5
1BB
100
AcDbEntity
8
1
62
256
6
ByLayer
370
13
48
1
60
0
100
AcDbSpline
70
4
71
3
72
12
73
8
40
0
40
0
40
0
40
0
40
0.485156157749666
40
0.485156157749666
40
0.94199112372415
40
0.94199112372415
40
1
40
1
40
1
40
1
41
1
10
30.9438616980128
20
8.93540315019641
30
0
41
1
10
30.9199171752548
20
8.97863626160307
30
0
41
1
10
30.902462416397
20
9.02364847052294
30
0
41
1
10
30.8781770476215
20
9.10214051613536
30
0
41
1
10
30.8704660180375
20
9.13718290111208
30
0
41
1
10
30.8645310175682
20
9.16934369400693
30
0
41
1
10
30.8638924892732
20
9.17291216626163
30
0
41
1
10
30.8632877280431
20
9.17637866686368
30
0
0
SPLINE
5
1BC
100
AcDbEntity
8
1
62
256
6
ByLayer
370
13
48
1
60
0
100
AcDbSpline
70
4
71
3
72
12
73
8
40
0
40
0
40
0
40
0
40
0.317065405549387
40
0.317065405549387
40
0.935122454125188
40
0.935122454125188
40
1
40
1
40
1
40
1
41
1
10
30.9438616980199
20
8.9354031502001
30
0
41
1
10
31.0265429048384
20
8.95202516837347
30
0
41
1
10
31.1144360245087
20
8.97030972505235
30
0
41
1
10
31.382412259695
20
9.02751526595955
30
0
41
1
10
31.5751745905628
20
9.07050918919273
30
0
41
1
10
31.7879205279658
20
9.1203395423295
30
0
41
1
10
31.8084174418277
20
9.12516535078714
30
0
41
1
10
31.8289221872925
20
9.13001990516449
30
0
0
SPLINE
5
1BD
100
AcDbEntity
8
1
62
256
6
ByLayer
370
13
48
1
60
0
100
AcDbSpline
70
4
71
3
72
16
73
12
40
0
40
0
40
0
40
0
40
0.261377990657867
40
0.261377990657867
40
0.481934515979472
40
0.481934515979472
40
0.715311182526725
40
0.715311182526725
40
0.913572471675964
40
0.913572471675964
40
1
40
1
40
1
40
1
41
1
10
29.666445598065
20
8.36360308959232
30
0
41
1
10
29.6382650854169
20
8.3658575539514
30
0
41
1
10
29.609482210257
20
8.36468175158814
30
0
41
1
10
29.5583119591351
20
8.35621266684689
30
0
41
1
10
29.5352599904951
20
8.34983591176291
30
0
41
1
10
29.4908020800965
20
8.33196437887557
30
0
41
1
10
29.4691978826307
20
8.32003580965721
30
0
41
1
10
29.4336106141681
20
8.29376375152071
30
0
41
1
10
29.4187432156444
20
8.27988281321973
30
0
41
1
10
29.4003266032143
20
8.2580201354298
30
0
41
1
10
29.3950841229876
20
8.25108145913697
30
0
41
1
10
29.3902464010371
20
8.24391418980363
30
0
0
SPLINE
5
1BE
100
AcDbEntity
8
1
62
256
6
ByLayer
370
13
48
1
60
0
100
AcDbSpline
70
4
71
3
72
16
73
12
40
0
40
0
40
0
40
0
40
0.151923161221768
40
0.151923161221768
40
0.356831087868239
40
0.356831087868239
40
0.562343627100699
40
0.562343627100699
40
0.755962877954035
40
0.755962877954035
40
1
40
1
40
1
40
1
41
1
10
29.3902464010371
20
9.25608581019657
30
0
41
1
10
29.3987219344628
20
9.24352898460236
30
0
41
1
10
29.4084607018454
20
9.23165770563836
30
0
41
1
10
29.4337693949216
20
9.20602281916419
30
0
41
1
10
29.4503767517156
20
9.19285384502439
30
0
41
1
10
29.4864721144675
20
9.17047562524596
30
0
41
1
10
29.5062083156533
20
9.16112473256257
30
0
41
1
10
29.5462120188595
20
9.147104845874
30
0
41
1
10
29.5666130313181
20
9.14211183574685
30
0
41
1
10
29.6132843685346
20
9.13517333244801
30
0
41
1
10
29.6401191697389
20
9.13429077433054
30
0
41
1
10
29.666445598065
20
9.13639691040791
30
0
0
SPLINE
5
1BF
100
AcDbEntity
8
1
62
256
6
ByLayer
370
13
48
1
60
0
100
AcDbSpline
70
4
71
3
72
10
73
6
40
0
40
0
40
0
40
0
40
0.416310615910619
40
0.416310615910619
40
1
40
1
40
1
40
1
41
1
10
29.3887490202786
20
8.38200211971801
30
0
41
1
10
29.3881183420048
20
8.36168797922613
30
0
41
1
10
29.3879133394439
20
8.34173141239444
30
0
41
1
10
29.3882249830662
20
8.29512550690393
30
0
41
1
10
29.3890616222185
20
8.26885841278471
30
0
41
1
10
29.3902464010371
20
8.24391418980363
30
0
0
SPLINE
5
1C0
100
AcDbEntity
8
1
62
256
6
ByLayer
370
13
48
1
60
0
100
AcDbSpline
70
4
71
3
72
8
73
4
40
0
40
0
40
0
40
0
40
1
40
1
40
1
40
1
41
1
10
29.3887490202786
20
8.38200211971801
30
0
41
1
10
29.4019833816743
20
8.38877127902387
30
0
41
1
10
29.4170039201152
20
8.39578229938451
30
0
41
1
10
29.4333034256004
20
8.40262148804257
30
0
0
SPLINE
5
1C1
100
AcDbEntity
8
1
62
256
6
ByLayer
370
13
48
1
60
0
100
AcDbSpline
70
4
71
3
72
14
73
10
40
0
40
0
40
0
40
0
40
0.374928384423448
40
0.374928384423448
40
0.811710849728661
40
0.811710849728661
40
0.984903138272893
40
0.984903138272893
40
1
40
1
40
1
40
1
41
1
10
29.4333034255968
20
8.40262148803882
30
0
41
1
10
29.4561224099593
20
8.41219621649705
30
0
41
1
10
29.4818640226197
20
8.41985701309866
30
0
41
1
10
29.5403666129891
20
8.43137622053939
30
0
41
1
10
29.5743985825837
20
8.43456608545532
30
0
41
1
10
29.6218660913331
20
8.43426972525964
30
0
41
1
10
29.6355336219256
20
8.4336461559148
30
0
41
1
10
29.6502708355023
20
8.43237176854444
30
0
41
1
10
29.6514431034481
20
8.4322664085422
30
0
41
1
10
29.6526147090185
20
8.43215659696006
30
0
0
SPLINE
5
1C2
100
AcDbEntity
8
1
62
256
6
ByLayer
370
13
48
1
60
0
100
AcDbSpline
70
4
71
3
72
14
73
10
40
0
40
0
40
0
40
0
40
0.437747259254554
40
0.437747259254554
40
0.876374424145627
40
0.876374424145627
40
0.984868425798996
40
0.984868425798996
40
1
40
1
40
1
40
1
41
1
10
29.4333034255968
20
9.09737851196144
30
0
41
1
10
29.4598845893819
20
9.08622519236869
30
0
41
1
10
29.4905059503584
20
9.07766271815811
30
0
41
1
10
29.5548008624908
20
9.06698870632079
30
0
41
1
10
29.5893598844025
20
9.06474465899123
30
0
41
1
10
29.6320199308042
20
9.06626982143862
30
0
41
1
10
29.640577126936
20
9.06678997662715
30
0
41
1
10
29.6502708354997
20
9.06762823149782
30
0
41
1
10
29.6514431034474
20
9.06773359146862
30
0
41
1
10
29.6526147090185
20
9.0678434030402
30
0
0
SPLINE
5
1C3
100
AcDbEntity
8
1
62
256
6
ByLayer
370
13
48
1
60
0
100
AcDbSpline
70
4
71
3
72
8
73
4
40
0
40
0
40
0
40
0
40
1
40
1
40
1
40
1
41
1
10
29.3887490202786
20
9.11799788028222
30
0
41
1
10
29.4019833816743
20
9.11122872097638
30
0
41
1
10
29.4170039201152
20
9.10421770061572
30
0
41
1
10
29.4333034256004
20
9.09737851195766
30
0
0
SPLINE
5
1C4
100
AcDbEntity
8
1
62
256
6
ByLayer
370
13
48
1
60
0
100
AcDbSpline
70
4
71
3
72
10
73
6
40
0
40
0
40
0
40
0
40
0.583689384089929
40
0.583689384089929
40
1
40
1
40
1
40
1
41
1
10
29.3902464010371
20
9.25608581019657
30
0
41
1
10
29.3890616222185
20
9.23114158721549
30
0
41
1
10
29.3882249830662
20
9.20487449309627
30
0
41
1
10
29.3879133394439
20
9.15826858760582
30
0
41
1
10
29.3881183420067
20
9.13831202077608
30
0
41
1
10
29.3887490202806
20
9.11799788028424
30
0
0
SPLINE
5
1C5
100
AcDbEntity
8
1
62
256
6
ByLayer
370
13
48
1
60
0
100
AcDbSpline
70
4
71
3
72
12
73
8
40
0
40
0
40
0
40
0
40
0.0293465478546648
40
0.0293465478546648
40
0.716199296865611
40
0.716199296865611
40
1
40
1
40
1
40
1
41
1
10
29.3172833606159
20
9.63391723751388
30
0
41
1
10
29.3164151127
20
9.63338804770876
30
0
41
1
10
29.3155496765878
20
9.63285893819756
30
0
41
1
10
29.2947885333711
20
9.62011724487527
30
0
41
1
10
29.2762446429395
20
9.60768604933935
30
0
41
1
10
29.2544391961912
20
9.5914831342279
30
0
41
1
10
29.2484807608144
20
9.58682560159193
30
0
41
1
10
29.2431084369488
20
9.58237965590638
30
0
0
SPLINE
5
1C6
100
AcDbEntity
8
1
62
256
6
ByLayer
370
13
48
1
60
0
100
AcDbSpline
70
4
71
3
72
8
73
4
40
0
40
0
40
0
40
0
40
1
40
1
40
1
40
1
41
1
10
29.2347524090111
20
9.57598433134604
30
0
41
1
10
29.2914003240087
20
9.47190701753556
30
0
41
1
10
29.3417769804954
20
9.36431164601754
30
0
41
1
10
29.3902464010371
20
9.25608581019657
30
0
0
SPLINE
5
1C7
100
AcDbEntity
8
1
62
256
6
ByLayer
370
13
48
1
60
0
100
AcDbSpline
70
4
71
3
72
8
73
4
40
0
40
0
40
0
40
0
40
1
40
1
40
1
40
1
41
1
10
29.2431084369488
20
9.58237965590638
30
0
41
1
10
29.2402587641267
20
9.58002136722283
30
0
41
1
10
29.2374665445716
20
9.57788454536114
30
0
41
1
10
29.2347524090111
20
9.57598433134604
30
0
0
SPLINE
5
1C8
100
AcDbEntity
8
1
62
256
6
ByLayer
370
13
48
1
60
0
100
AcDbSpline
70
4
71
3
72
12
73
8
40
0
40
0
40
0
40
0
40
0.0294712126629231
40
0.0294712126629231
40
0.622158766529877
40
0.622158766529877
40
1
40
1
40
1
40
1
41
1
10
29.3172833606159
20
7.86608276248632
30
0
41
1
10
29.3164151127001
20
7.86661195229283
30
0
41
1
10
29.3155496765894
20
7.86714106180773
30
0
41
1
10
29.2974755734967
20
7.87823364354136
30
0
41
1
10
29.2812985888191
20
7.88894078175784
30
0
41
1
10
29.2583964628079
20
7.90545136614296
30
0
41
1
10
29.2502306848161
20
7.91172622304512
30
0
41
1
10
29.2431084369487
20
7.91762034409396
30
0
0
SPLINE
5
1C9
100
AcDbEntity
8
1
62
256
6
ByLayer
370
13
48
1
60
0
100
AcDbSpline
70
4
71
3
72
8
73
4
40
0
40
0
40
0
40
0
40
1
40
1
40
1
40
1
41
1
10
29.2431084369444
20
7.91762034408384
30
0
41
1
10
29.2402587641224
20
7.91997863276725
30
0
41
1
10
29.2374665445714
20
7.92211545463928
30
0
41
1
10
29.2347524090111
20
7.92401566865414
30
0
0
SPLINE
5
1CA
100
AcDbEntity
8
1
62
256
6
ByLayer
370
13
48
1
60
0
100
AcDbSpline
70
4
71
3
72
8
73
4
40
0
40
0
40
0
40
0
40
1
40
1
40
1
40
1
41
1
10
29.3902464010371
20
8.2439141898036
30
0
41
1
10
29.3417769804954
20
8.13568835398269
30
0
41
1
10
29.2914003240087
20
8.02809298246467
30
0
41
1
10
29.2347524090112
20
7.92401566865422
30
0
0
SPLINE
5
1CB
100
AcDbEntity
8
1
62
256
6
ByLayer
370
13
48
1
60
0
100
AcDbSpline
70
4
71
3
72
26
73
22
40
0
40
0
40
0
40
0
40
0.0827515238844934
40
0.0827515238844934
40
0.12581559206367
40
0.12581559206367
40
0.250670450127126
40
0.250670450127126
40
0.38565988459967
40
0.38565988459967
40
0.523243120522087
40
0.523243120522087
40
0.658177082710726
40
0.658177082710726
40
0.794420311219042
40
0.794420311219042
40
0.893778828576378
40
0.893778828576378
40
0.931785368228296
40
0.931785368228296
40
1
40
1
40
1
40
1
41
1
10
29.6082223121694
20
8.94733545036516
30
0
41
1
10
29.6214322023478
20
8.94277209633051
30
0
41
1
10
29.6338393291367
20
8.93658961583344
30
0
41
1
10
29.650164463161
20
8.92528894992304
30
0
41
1
10
29.6554067929997
20
8.92102639906125
30
0
41
1
10
29.674118215414
20
8.90340959461355
30
0
41
1
10
29.6849906535055
20
8.88764479307363
30
0
41
1
10
29.7024421427667
20
8.85154510253034
30
0
41
1
10
29.7088810701152
20
8.83035951411432
30
0
41
1
10
29.7169546526535
20
8.78573559679208
30
0
41
1
10
29.7185900386567
20
8.76160200071581
30
0
41
1
10
29.7169724550515
20
8.71501664016986
30
0
41
1
10
29.7137934005019
20
8.69188671935927
30
0
41
1
10
29.7026256115211
20
8.64923016378719
30
0
41
1
10
29.6944617984535
20
8.62911412743031
30
0
41
1
10
29.6752524001787
20
8.59894455236054
30
0
41
1
10
29.6653654595556
20
8.58735488760641
30
0
41
1
10
29.6489068076275
20
8.57380736356208
30
0
41
1
10
29.6440023231556
20
8.57028231468013
30
0
41
1
10
29.6295383953429
20
8.56130590206635
30
0
41
1
10
29.6191535387159
20
8.55644073975407
30
0
41
1
10
29.6082223121694
20
8.55266454963507
30
0
0
SPLINE
5
1CC
100
AcDbEntity
8
1
62
256
6
ByLayer
370
13
48
1
60
0
100
AcDbSpline
70
4
71
3
72
12
73
8
40
0
40
0
40
0
40
0
40
0.0293420255455753
40
0.0293420255455753
40
0.716180168206404
40
0.716180168206404
40
1
40
1
40
1
40
1
41
1
10
29.3172833606158
20
9.63391723751388
30
0
41
1
10
29.3162857859542
20
9.63383560049684
30
0
41
1
10
29.3152910702585
20
9.63375397032581
30
0
41
1
10
29.2914121035417
20
9.63178820206514
30
0
41
1
10
29.2698109573743
20
9.62987351240662
30
0
41
1
10
29.2439993417919
20
9.62738151580123
30
0
41
1
10
29.236886377975
20
9.62666562152964
30
0
41
1
10
29.2304097099877
20
9.62598263397231
30
0
0
SPLINE
5
1CD
100
AcDbEntity
8
1
62
256
6
ByLayer
370
13
48
1
60
0
100
AcDbSpline
70
4
71
3
72
14
73
10
40
0
40
0
40
0
40
0
40
0.375382008196676
40
0.375382008196676
40
0.812033352237096
40
0.812033352237096
40
0.984956163702167
40
0.984956163702167
40
1
40
1
40
1
40
1
41
1
10
29.4913621168403
20
8.50045269829678
30
0
41
1
10
29.509071919611
20
8.50131634556527
30
0
41
1
10
29.5286858369908
20
8.49847805653991
30
0
41
1
10
29.5723411561591
20
8.48469207657851
30
0
41
1
10
29.5971677204448
20
8.47231112023422
30
0
41
1
10
29.6310180351575
20
8.4493117538475
30
0
41
1
10
29.6406668461475
20
8.44205263759454
30
0
41
1
10
29.6509791789015
20
8.43352507376625
30
0
41
1
10
29.6517970365626
20
8.43284274916795
30
0
41
1
10
29.6526147090192
20
8.43215659696372
30
0
0
SPLINE
5
1CE
100
AcDbEntity
8
1
62
256
6
ByLayer
370
13
48
1
60
0
100
AcDbSpline
70
4
71
3
72
14
73
10
40
0
40
0
40
0
40
0
40
0.438226381079498
40
0.438226381079498
40
0.876606497754705
40
0.876606497754705
40
0.984922379464605
40
0.984922379464605
40
1
40
1
40
1
40
1
41
1
10
29.4913621168403
20
8.99954730170347
30
0
41
1
10
29.5119904710235
20
8.99854132653962
30
0
41
1
10
29.5352526901999
20
9.00259161523311
30
0
41
1
10
29.5829208610343
20
9.02020284827609
30
0
41
1
10
29.6079577365153
20
9.03400198696531
30
0
41
1
10
29.6381767807406
20
9.05617140156707
30
0
41
1
10
29.6441974945511
20
9.06086695687031
30
0
41
1
10
29.650979178902
20
9.06647492623361
30
0
41
1
10
29.6517970365627
20
9.06715725083217
30
0
41
1
10
29.6526147090192
20
9.06784340303648
30
0
0
SPLINE
5
1CF
100
AcDbEntity
8
1
62
256
6
ByLayer
370
13
48
1
60
0
100
AcDbSpline
70
4
71
3
72
12
73
8
40
0
40
0
40
0
40
0
40
0.0294665749521175
40
0.0294665749521175
40
0.622136526669372
40
0.622136526669372
40
1
40
1
40
1
40
1
41
1
10
29.3172833606161
20
7.86608276248637
30
0
41
1
10
29.3162857859714
20
7.86616439973267
30
0
41
1
10
29.3152910703256
20
7.86624603059153
30
0
41
1
10
29.2945028901904
20
7.86795735377012
30
0
41
1
10
29.2756947131271
20
7.86960688878423
30
0
41
1
10
29.2487161066196
20
7.87214726036004
30
0
41
1
10
29.2389959740471
20
7.87311191409975
30
0
41
1
10
29.2304097099877
20
7.87401736602794
30
0
0
SPLINE
5
1D0
100
AcDbEntity
8
1
62
256
6
ByLayer
370
13
48
1
60
0
100
AcDbSpline
70
4
71
3
72
8
73
4
40
0
40
0
40
0
40
0
40
1
40
1
40
1
40
1
41
1
10
29.4913621168403
20
8.99954730170347
30
0
41
1
10
29.5259374584495
20
8.98191663018343
30
0
41
1
10
29.5621644089747
20
8.96562451546728
30
0
41
1
10
29.5995036654583
20
8.95075565179843
30
0
0
SPLINE
5
1D1
100
AcDbEntity
8
1
62
256
6
ByLayer
370
13
48
1
60
0
100
AcDbSpline
70
4
71
3
72
8
73
4
40
0
40
0
40
0
40
0
40
1
40
1
40
1
40
1
41
1
10
29.5995036654583
20
8.54924434820182
30
0
41
1
10
29.5621644089747
20
8.53437548453294
30
0
41
1
10
29.5259374584495
20
8.51808336981682
30
0
41
1
10
29.4913621168403
20
8.50045269829678
30
0
0
SPLINE
5
1D2
100
AcDbEntity
8
1
62
256
6
ByLayer
370
13
48
1
60
0
100
AcDbSpline
70
4
71
3
72
10
73
6
40
0
40
0
40
0
40
0
40
0.848569790661836
40
0.848569790661836
40
1
40
1
40
1
40
1
41
1
10
33.5256934551194
20
9.37457883122266
30
0
41
1
10
33.4913120258512
20
9.42642091084838
30
0
41
1
10
33.4438979962596
20
9.46987953955943
30
0
41
1
10
33.3838192549264
20
9.51190876038405
30
0
41
1
10
33.374454665912
20
9.51812156201208
30
0
41
1
10
33.3649581024897
20
9.52411869816331
30
0
0
SPLINE
5
1D3
100
AcDbEntity
8
1
62
256
6
ByLayer
370
13
48
1
60
0
100
AcDbSpline
70
4
71
3
72
8
73
4
40
0
40
0
40
0
40
0
40
1
40
1
40
1
40
1
41
1
10
33.3649581024897
20
9.52411869816331
30
0
41
1
10
33.3210882094167
20
9.55182279595104
30
0
41
1
10
33.2770162605411
20
9.57921271401551
30
0
41
1
10
33.2326256850655
20
9.60607325955849
30
0
0
SPLINE
5
1D4
100
AcDbEntity
8
1
62
256
6
ByLayer
370
13
48
1
60
0
100
AcDbSpline
70
4
71
3
72
10
73
6
40
0
40
0
40
0
40
0
40
0.654900204513161
40
0.654900204513161
40
1
40
1
40
1
40
1
41
1
10
33.2326256850655
20
9.60607325955849
30
0
41
1
10
33.2093808214963
20
9.62013862613316
30
0
41
1
10
33.1866679047493
20
9.6353717983153
30
0
41
1
10
33.1550034980856
20
9.66221229390288
30
0
41
1
10
33.1445398484845
20
9.67219882273608
30
0
41
1
10
33.135515563742
20
9.68335035942667
30
0
0
SPLINE
5
1D5
100
AcDbEntity
8
1
62
256
6
ByLayer
370
13
48
1
60
0
100
AcDbSpline
70
4
71
3
72
10
73
6
40
0
40
0
40
0
40
0
40
0.654900204513161
40
0.654900204513161
40
1
40
1
40
1
40
1
41
1
10
33.2326256850655
20
7.89392674044177
30
0
41
1
10
33.2093808214963
20
7.87986137386713
30
0
41
1
10
33.1866679047493
20
7.86462820168492
30
0
41
1
10
33.1550034980856
20
7.83778770609734
30
0
41
1
10
33.1445398484845
20
7.82780117726415
30
0
41
1
10
33.135515563742
20
7.81664964057356
30
0
0
SPLINE
5
1D6
100
AcDbEntity
8
1
62
256
6
ByLayer
370
13
48
1
60
0
100
AcDbSpline
70
4
71
3
72
8
73
4
40
0
40
0
40
0
40
0
40
1
40
1
40
1
40
1
41
1
10
33.3649581024897
20
7.97588130183695
30
0
41
1
10
33.3210882094167
20
7.94817720404919
30
0
41
1
10
33.2770162605411
20
7.92078728598474
30
0
41
1
10
33.2326256850655
20
7.89392674044177
30
0
0
SPLINE
5
1D7
100
AcDbEntity
8
1
62
256
6
ByLayer
370
13
48
1
60
0
100
AcDbSpline
70
4
71
3
72
10
73
6
40
0
40
0
40
0
40
0
40
0.635943996638209
40
0.635943996638209
40
1
40
1
40
1
40
1
41
1
10
33.1901406592828
20
7.95526372542926
30
0
41
1
10
33.1670478691558
20
7.93567933384332
30
0
41
1
10
33.1452589478459
20
7.91401271112187
30
0
41
1
10
33.1163860503718
20
7.87555973446305
30
0
41
1
10
33.1069119843145
20
7.86048265888172
30
0
41
1
10
33.0995357068632
20
7.84436394359776
30
0
0
SPLINE
5
1D8
100
AcDbEntity
8
1
62
256
6
ByLayer
370
13
48
1
60
0
100
AcDbSpline
70
4
71
3
72
16
73
12
40
0
40
0
40
0
40
0
40
0.0355583019934282
40
0.0355583019934282
40
0.0904281096557084
40
0.0904281096557084
40
0.198001345750339
40
0.198001345750339
40
0.437176612921005
40
0.437176612921005
40
1
40
1
40
1
40
1
41
1
10
33.0647600217524
20
9.73597593937802
30
0
41
1
10
33.0651593706654
20
9.73500952598479
30
0
41
1
10
33.0655599456349
20
9.73404359668746
30
0
41
1
10
33.0665795843354
20
9.73158370442064
30
0
41
1
10
33.0671995476743
20
9.73009010417439
30
0
41
1
10
33.0690371309082
20
9.72567012461587
30
0
41
1
10
33.0702570500455
20
9.72274498909724
30
0
41
1
10
33.07419943455
20
9.71332997857112
30
0
41
1
10
33.0769367796375
20
9.70685057667103
30
0
41
1
10
33.0861842955318
20
9.68526879385797
30
0
41
1
10
33.0928353954249
20
9.67027764399305
30
0
41
1
10
33.0995357068632
20
9.6556360564025
30
0
0
SPLINE
5
1D9
100
AcDbEntity
8
1
62
256
6
ByLayer
370
13
48
1
60
0
100
AcDbSpline
70
4
71
3
72
10
73
6
40
0
40
0
40
0
40
0
40
0.848569790661836
40
0.848569790661836
40
1
40
1
40
1
40
1
41
1
10
33.5256934551194
20
8.12542116877756
30
0
41
1
10
33.4913120258512
20
8.07357908915185
30
0
41
1
10
33.4438979962596
20
8.03012046044083
30
0
41
1
10
33.3838192549264
20
7.98809123961618
30
0
41
1
10
33.374454665912
20
7.98187843798814
30
0
41
1
10
33.3649581024897
20
7.97588130183692
30
0
0
SPLINE
5
1DA
100
AcDbEntity
8
1
62
256
6
ByLayer
370
13
48
1
60
0
100
AcDbSpline
70
4
71
3
72
8
73
4
40
0
40
0
40
0
40
0
40
1
40
1
40
1
40
1
41
1
10
33.0647600217523
20
9.73597593937797
30
0
41
1
10
32.9478211015788
20
9.76651856583081
30
0
41
1
10
32.826489880715
20
9.78133722671083
30
0
41
1
10
32.7060768987951
20
9.78396026649679
30
0
0
SPLINE
5
1DB
100
AcDbEntity
8
1
62
256
6
ByLayer
370
13
48
1
60
0
100
AcDbSpline
70
4
71
3
72
10
73
6
40
0
40
0
40
0
40
0
40
0.635943996638209
40
0.635943996638209
40
1
40
1
40
1
40
1
41
1
10
33.1901406592828
20
9.54473627457097
30
0
41
1
10
33.1670478691558
20
9.5643206661569
30
0
41
1
10
33.1452589478459
20
9.58598728887839
30
0
41
1
10
33.1163860503718
20
9.62444026553717
30
0
41
1
10
33.1069119843145
20
9.63951734111851
30
0
41
1
10
33.0995357068632
20
9.6556360564025
30
0
0
SPLINE
5
1DC
100
AcDbEntity
8
1
62
256
6
ByLayer
370
13
48
1
60
0
100
AcDbSpline
70
4
71
3
72
16
73
12
40
0
40
0
40
0
40
0
40
0.0355583019934282
40
0.0355583019934282
40
0.0904281096557084
40
0.0904281096557084
40
0.198001345750339
40
0.198001345750339
40
0.437176612921005
40
0.437176612921005
40
1
40
1
40
1
40
1
41
1
10
33.0647600217524
20
7.76402406062223
30
0
41
1
10
33.0651593706654
20
7.76499047401546
30
0
41
1
10
33.0655599456349
20
7.76595640331277
30
0
41
1
10
33.0665795843354
20
7.76841629557961
30
0
41
1
10
33.0671995476743
20
7.76990989582583
30
0
41
1
10
33.0690371309082
20
7.77432987538435
30
0
41
1
10
33.0702570500455
20
7.77725501090302
30
0
41
1
10
33.07419943455
20
7.7866700214291
30
0
41
1
10
33.0769367796375
20
7.7931494233292
30
0
41
1
10
33.0861842955318
20
7.81473120614228
30
0
41
1
10
33.0928353954249
20
7.82972235600718
30
0
41
1
10
33.0995357068632
20
7.84436394359773
30
0
0
SPLINE
5
1DD
100
AcDbEntity
8
1
62
256
6
ByLayer
370
13
48
1
60
0
100
AcDbSpline
70
4
71
3
72
8
73
4
40
0
40
0
40
0
40
0
40
1
40
1
40
1
40
1
41
1
10
33.0647600217523
20
7.76402406062226
30
0
41
1
10
32.9478211015788
20
7.73348143416945
30
0
41
1
10
32.826489880715
20
7.7186627732894
30
0
41
1
10
32.7060768987951
20
7.71603973350347
30
0
0
SPLINE
5
1DE
100
AcDbEntity
8
1
62
256
6
ByLayer
370
13
48
1
60
0
100
AcDbSpline
70
4
71
3
72
12
73
8
40
0
40
0
40
0
40
0
40
0.351723890194534
40
0.351723890194534
40
0.712129136736367
40
0.712129136736367
40
1
40
1
40
1
40
1
41
1
10
30.9438616980133
20
8.56459684980541
30
0
41
1
10
30.9585427486301
20
8.60555900664556
30
0
41
1
10
30.9694774148618
20
8.64917376001355
30
0
41
1
10
30.9795833503618
20
8.73870095491793
30
0
41
1
10
30.9783942316414
20
8.78553430009779
30
0
41
1
10
30.9654620411648
20
8.86641971124521
30
0
41
1
10
30.9559204052135
20
8.9017576933054
30
0
41
1
10
30.9438616980127
20
8.93540315019629
30
0
0
SPLINE
5
1DF
100
AcDbEntity
8
1
62
256
6
ByLayer
370
13
48
1
60
0
100
AcDbSpline
70
4
71
3
72
8
73
4
40
0
40
0
40
0
40
0
40
1
40
1
40
1
40
1
41
1
10
29.5995036654583
20
8.95075565179843
30
0
41
1
10
29.6024077881538
20
8.94961545901882
30
0
41
1
10
29.605314019696
20
8.94847539166426
30
0
41
1
10
29.6082223121694
20
8.94733545036516
30
0
0
SPLINE
5
1E0
100
AcDbEntity
8
1
62
256
6
ByLayer
370
13
48
1
60
0
100
AcDbSpline
70
4
71
3
72
8
73
4
40
0
40
0
40
0
40
0
40
1
40
1
40
1
40
1
41
1
10
29.6082223121694
20
8.55266454963507
30
0
41
1
10
29.605314019696
20
8.55152460833597
30
0
41
1
10
29.6024077881538
20
8.55038454098144
30
0
41
1
10
29.5995036654583
20
8.54924434820182
30
0
0
SPLINE
5
1E1
100
AcDbEntity
8
1
62
256
6
ByLayer
370
13
48
1
60
0
100
AcDbSpline
70
4
71
3
72
8
73
4
40
0
40
0
40
0
40
0
40
1
40
1
40
1
40
1
41
1
10
29.2282766666319
20
7.87456207185863
30
0
41
1
10
29.2289998534678
20
7.87456207185915
30
0
41
1
10
29.2297316666812
20
7.87438863680356
30
0
41
1
10
29.2304097099816
20
7.87401736607072
30
0
0
SPLINE
5
1E2
100
AcDbEntity
8
1
62
256
6
ByLayer
370
13
48
1
60
0
100
AcDbSpline
70
4
71
3
72
8
73
4
40
0
40
0
40
0
40
0
40
1
40
1
40
1
40
1
41
1
10
29.2304097099816
20
9.62598263396825
30
0
41
1
10
29.2297316666801
20
9.62561136323299
30
0
41
1
10
29.2289998534693
20
9.62543792813545
30
0
41
1
10
29.2282766666318
20
9.62543792813545
30
0
0
SPLINE
5
1E3
100
AcDbEntity
8
1
62
256
6
ByLayer
370
13
48
1
60
0
100
AcDbSpline
70
4
71
3
72
8
73
4
40
0
40
0
40
0
40
0
40
1
40
1
40
1
40
1
41
1
10
29.4769872801694
20
9.00102435555306
30
0
41
1
10
29.4809941941598
20
9.00102435555306
30
0
41
1
10
29.4858744381614
20
9.00054286253521
30
0
41
1
10
29.4913621168403
20
8.99954730170347
30
0
0
SPLINE
5
1E4
100
AcDbEntity
8
1
62
256
6
ByLayer
370
13
48
1
60
0
100
AcDbSpline
70
4
71
3
72
10
73
6
40
0
40
0
40
0
40
0
40
0.155458310972556
40
0.155458310972556
40
1
40
1
40
1
40
1
41
1
10
33.3213347612452
20
9.46356743665027
30
0
41
1
10
33.3303785370381
20
9.45874735760668
30
0
41
1
10
33.3393254653622
20
9.45374109980099
30
0
41
1
10
33.3954964008332
20
9.42059912608869
30
0
41
1
10
33.4409371698566
20
9.38633270497473
30
0
41
1
10
33.4749845771854
20
9.34322820385319
30
0
0
SPLINE
5
1E5
100
AcDbEntity
8
1
62
256
6
ByLayer
370
13
48
1
60
0
100
AcDbSpline
70
4
71
3
72
8
73
4
40
0
40
0
40
0
40
0
40
1
40
1
40
1
40
1
41
1
10
29.4913621168403
20
8.50045269829678
30
0
41
1
10
29.4858744381612
20
8.49945713746499
30
0
41
1
10
29.4809941941611
20
8.49897564445106
30
0
41
1
10
29.4769872801707
20
8.49897564445115
30
0
0
SPLINE
5
1E6
100
AcDbEntity
8
1
62
256
6
ByLayer
370
13
48
1
60
0
100
AcDbSpline
70
4
71
3
72
10
73
6
40
0
40
0
40
0
40
0
40
0.155458310972556
40
0.155458310972556
40
1
40
1
40
1
40
1
41
1
10
33.3213347612452
20
8.03643256334996
30
0
41
1
10
33.3303785370381
20
8.04125264239354
30
0
41
1
10
33.3393254653622
20
8.04625890019923
30
0
41
1
10
33.3954964008332
20
8.07940087391154
30
0
41
1
10
33.4409371698566
20
8.11366729502552
30
0
41
1
10
33.4749845771854
20
8.15677179614707
30
0
0
SPLINE
5
1E7
100
AcDbEntity
8
1
62
256
6
ByLayer
370
13
48
1
60
0
100
AcDbSpline
70
4
71
3
72
16
73
12
40
0
40
0
40
0
40
0
40
0.0355250902269691
40
0.0355250902269691
40
0.0916529298118418
40
0.0916529298118418
40
0.199749877619611
40
0.199749877619611
40
0.438904840271112
40
0.438904840271112
40
1
40
1
40
1
40
1
41
1
10
33.0647600217524
20
7.76402406062226
30
0
41
1
10
33.0655860030917
20
7.76465708872018
30
0
41
1
10
33.0664129457398
20
7.76528956133686
30
0
41
1
10
33.0685502103392
20
7.76692402472239
30
0
41
1
10
33.0698615812701
20
7.76792567622195
30
0
41
1
10
33.0737020316477
20
7.77085532473814
30
0
41
1
10
33.0762348060014
20
7.77278266245929
30
0
41
1
10
33.0843821111612
20
7.77896525792914
30
0
41
1
10
33.090015337342
20
7.7832140294754
30
0
41
1
10
33.1088835392968
20
7.79733271380505
30
0
41
1
10
33.1222269173127
20
7.80711796456774
30
0
41
1
10
33.135515563742
20
7.81664964057356
30
0
0
SPLINE
5
1E8
100
AcDbEntity
8
1
62
256
6
ByLayer
370
13
48
1
60
0
100
AcDbSpline
70
4
71
3
72
8
73
4
40
0
40
0
40
0
40
0
40
1
40
1
40
1
40
1
41
1
10
32.7060768987951
20
9.78396026649679
30
0
41
1
10
32.5916344595783
20
9.78658360887908
30
0
41
1
10
32.474906152167
20
9.78254547577137
30
0
41
1
10
32.3587805434613
20
9.78685129678655
30
0
0
SPLINE
5
1E9
100
AcDbEntity
8
1
62
256
6
ByLayer
370
13
48
1
60
0
100
AcDbSpline
70
4
71
3
72
16
73
12
40
0
40
0
40
0
40
0
40
0.0355250902269691
40
0.0355250902269691
40
0.0916529298118417
40
0.0916529298118417
40
0.199749877619611
40
0.199749877619611
40
0.438904840271112
40
0.438904840271112
40
1
40
1
40
1
40
1
41
1
10
33.0647600217524
20
9.73597593937799
30
0
41
1
10
33.0655860030917
20
9.73534291128007
30
0
41
1
10
33.0664129457398
20
9.73471043866337
30
0
41
1
10
33.0685502103392
20
9.73307597527787
30
0
41
1
10
33.0698615812701
20
9.73207432377831
30
0
41
1
10
33.0737020316477
20
9.72914467526209
30
0
41
1
10
33.0762348060014
20
9.72721733754094
30
0
41
1
10
33.0843821111612
20
9.72103474207111
30
0
41
1
10
33.090015337342
20
9.71678597052482
30
0
41
1
10
33.1088835392968
20
9.70266728619521
30
0
41
1
10
33.1222269173127
20
9.69288203543252
30
0
41
1
10
33.135515563742
20
9.68335035942667
30
0
0
SPLINE
5
1EA
100
AcDbEntity
8
1
62
256
6
ByLayer
370
13
48
1
60
0
100
AcDbSpline
70
4
71
3
72
14
73
10
40
0
40
0
40
0
40
0
40
0.0334466877100648
40
0.0334466877100648
40
0.147634490130718
40
0.147634490130718
40
0.594775924699149
40
0.594775924699149
40
1
40
1
40
1
40
1
41
1
10
33.0213727254144
20
9.19877316163291
30
0
41
1
10
33.0272002143374
20
9.19899187606259
30
0
41
1
10
33.0330293219699
20
9.19916422710216
30
0
41
1
10
33.0587574615068
20
9.1997120032926
30
0
41
1
10
33.0786653670228
20
9.19938810387353
30
0
41
1
10
33.176494145549
20
9.19770358443364
30
0
41
1
10
33.2544227194233
20
9.1962526243355
30
0
41
1
10
33.4029558192714
20
9.19256920612042
30
0
41
1
10
33.473564429311
20
9.19052226231437
30
0
41
1
10
33.5441651422594
20
9.18820577012596
30
0
0
SPLINE
5
1EB
100
AcDbEntity
8
1
62
256
6
ByLayer
370
13
48
1
60
0
100
AcDbSpline
70
4
71
3
72
14
73
10
40
0
40
0
40
0
40
0
40
0.0334466877100648
40
0.0334466877100648
40
0.147634490130718
40
0.147634490130718
40
0.594775924699149
40
0.594775924699149
40
1
40
1
40
1
40
1
41
1
10
33.0213727254144
20
8.30122683836731
30
0
41
1
10
33.0272002143374
20
8.30100812393766
30
0
41
1
10
33.0330293219699
20
8.3008357728981
30
0
41
1
10
33.0587574615068
20
8.30028799670762
30
0
41
1
10
33.0786653670228
20
8.3006118961267
30
0
41
1
10
33.176494145549
20
8.30229641556662
30
0
41
1
10
33.2544227194233
20
8.30374737566476
30
0
41
1
10
33.4029558192714
20
8.3074307938798
30
0
41
1
10
33.473564429311
20
8.30947773768588
30
0
41
1
10
33.5441651422594
20
8.31179422987427
30
0
0
SPLINE
5
1EC
100
AcDbEntity
8
1
62
256
6
ByLayer
370
13
48
1
60
0
100
AcDbSpline
70
4
71
3
72
8
73
4
40
0
40
0
40
0
40
0
40
1
40
1
40
1
40
1
41
1
10
32.7060768987951
20
7.71603973350347
30
0
41
1
10
32.5916344595783
20
7.71341639112114
30
0
41
1
10
32.474906152167
20
7.71745452422886
30
0
41
1
10
32.3587805434613
20
7.7131487032137
30
0
0
SPLINE
5
1ED
100
AcDbEntity
8
1
62
256
6
ByLayer
370
13
48
1
60
0
100
AcDbSpline
70
4
71
3
72
8
73
4
40
0
40
0
40
0
40
0
40
1
40
1
40
1
40
1
41
1
10
33.4749845771854
20
9.34322820385316
30
0
41
1
10
33.4822290280935
20
9.33405662613856
30
0
41
1
10
33.489375686801
20
9.32477020025723
30
0
41
1
10
33.4964397360486
20
9.31542156969709
30
0
0
SPLINE
5
1EE
100
AcDbEntity
8
1
62
256
6
ByLayer
370
13
48
1
60
0
100
AcDbSpline
70
4
71
3
72
12
73
8
40
0
40
0
40
0
40
0
40
0.447676549458682
40
0.447676549458682
40
0.911865963480885
40
0.911865963480885
40
1
40
1
40
1
40
1
41
1
10
33.4964397360486
20
8.18457843030313
30
0
41
1
10
33.5088546309063
20
8.20100842128963
30
0
41
1
10
33.5197349842376
20
8.21884014300582
30
0
41
1
10
33.5363651532997
20
8.25724028527679
30
0
41
1
10
33.5420103553974
20
8.27833606805552
30
0
41
1
10
33.5439641163249
20
8.30360651353286
30
0
41
1
10
33.5441371532748
20
8.30770112984121
30
0
41
1
10
33.5441651422481
20
8.31179422987515
30
0
0
SPLINE
5
1EF
100
AcDbEntity
8
1
62
256
6
ByLayer
370
13
48
1
60
0
100
AcDbSpline
70
4
71
3
72
12
73
8
40
0
40
0
40
0
40
0
40
0.447676549458682
40
0.447676549458682
40
0.911865963480885
40
0.911865963480885
40
1
40
1
40
1
40
1
41
1
10
33.4964397360486
20
9.31542156969709
30
0
41
1
10
33.5088546309063
20
9.29899157871063
30
0
41
1
10
33.5197349842376
20
9.28115985699441
30
0
41
1
10
33.5363651532997
20
9.24275971472346
30
0
41
1
10
33.5420103553974
20
9.2216639319447
30
0
41
1
10
33.5439641163249
20
9.1963934864674
30
0
41
1
10
33.5441371532748
20
9.19229887015905
30
0
41
1
10
33.5441651422481
20
9.18820577012511
30
0
0
SPLINE
5
1F0
100
AcDbEntity
8
1
62
256
6
ByLayer
370
13
48
1
60
0
100
AcDbSpline
70
4
71
3
72
8
73
4
40
0
40
0
40
0
40
0
40
1
40
1
40
1
40
1
41
1
10
33.4749845771854
20
8.15677179614707
30
0
41
1
10
33.4822290280935
20
8.16594337386169
30
0
41
1
10
33.489375686801
20
8.17522979974299
30
0
41
1
10
33.4964397360486
20
8.18457843030313
30
0
0
SPLINE
5
1F1
100
AcDbEntity
8
1
62
256
6
ByLayer
370
13
48
1
60
0
100
AcDbSpline
70
4
71
3
72
8
73
4
40
0
40
0
40
0
40
0
40
1
40
1
40
1
40
1
41
1
10
32.3587805434613
20
7.7131487032137
30
0
41
1
10
32.2921381523133
20
7.71094184779474
30
0
41
1
10
32.2252553140707
20
7.71179870695318
30
0
41
1
10
32.1587805434612
20
7.71700205261379
30
0
0
SPLINE
5
1F2
100
AcDbEntity
8
1
62
256
6
ByLayer
370
13
48
1
60
0
100
AcDbSpline
70
4
71
3
72
8
73
4
40
0
40
0
40
0
40
0
40
1
40
1
40
1
40
1
41
1
10
32.3587805434613
20
9.78685129678655
30
0
41
1
10
32.2921381523133
20
9.78905815220551
30
0
41
1
10
32.2252553140707
20
9.78820129304705
30
0
41
1
10
32.1587805434612
20
9.78299794738646
30
0
0
SPLINE
5
1F3
100
AcDbEntity
8
1
62
256
6
ByLayer
370
13
48
1
60
0
100
AcDbSpline
70
4
71
3
72
12
73
8
40
0
40
0
40
0
40
0
40
0.708579779368488
40
0.708579779368488
40
0.932133973697437
40
0.932133973697437
40
1
40
1
40
1
40
1
41
1
10
31.9112677608007
20
9.14965927758334
30
0
41
1
10
32.0244377716514
20
9.18519514113194
30
0
41
1
10
32.1446553749491
20
9.20267203532291
30
0
41
1
10
32.3011317076579
20
9.20161618596848
30
0
41
1
10
32.338967387079
20
9.19982143382725
30
0
41
1
10
32.3882933798859
20
9.19810164472844
30
0
41
1
10
32.3997803862395
20
9.19769639966225
30
0
41
1
10
32.4112677608007
20
9.19730180209919
30
0
0
SPLINE
5
1F4
100
AcDbEntity
8
1
62
256
6
ByLayer
370
13
48
1
60
0
100
AcDbSpline
70
4
71
3
72
12
73
8
40
0
40
0
40
0
40
0
40
0.708579779368488
40
0.708579779368488
40
0.932133973697437
40
0.932133973697437
40
1
40
1
40
1
40
1
41
1
10
31.9112677608007
20
8.35034072241689
30
0
41
1
10
32.0244377716514
20
8.31480485886831
30
0
41
1
10
32.1446553749491
20
8.29732796467735
30
0
41
1
10
32.3011317076579
20
8.29838381403175
30
0
41
1
10
32.338967387079
20
8.30017856617297
30
0
41
1
10
32.3882933798859
20
8.30189835527179
30
0
41
1
10
32.3997803862395
20
8.30230360033798
30
0
41
1
10
32.4112677608007
20
8.30269819790107
30
0
0
SPLINE
5
1F5
100
AcDbEntity
8
1
62
256
6
ByLayer
370
13
48
1
60
0
100
AcDbSpline
70
4
71
3
72
10
73
6
40
0
40
0
40
0
40
0
40
0.561541747824135
40
0.561541747824135
40
1
40
1
40
1
40
1
41
1
10
33.5970257409066
20
8.31179422987427
30
0
41
1
10
33.5970257409067
20
8.28048864444048
30
0
41
1
10
33.5911036869238
20
8.24880622601822
30
0
41
1
10
33.5723010966289
20
8.19617345915484
30
0
41
1
10
33.5611390447479
20
8.17392441945438
30
0
41
1
10
33.5480538087948
20
8.15311677740249
30
0
0
SPLINE
5
1F6
100
AcDbEntity
8
1
62
256
6
ByLayer
370
13
48
1
60
0
100
AcDbSpline
70
4
71
3
72
10
73
6
40
0
40
0
40
0
40
0
40
0.561541747824135
40
0.561541747824135
40
1
40
1
40
1
40
1
41
1
10
33.5970257409066
20
9.18820577012596
30
0
41
1
10
33.5970257409067
20
9.21951135555977
30
0
41
1
10
33.5911036869238
20
9.25119377398201
30
0
41
1
10
33.5723010966289
20
9.30382654084542
30
0
41
1
10
33.5611390447479
20
9.32607558054588
30
0
41
1
10
33.5480538087948
20
9.34688322259777
30
0
0
SPLINE
5
1F7
100
AcDbEntity
8
1
62
256
6
ByLayer
370
13
48
1
60
0
100
AcDbSpline
70
4
71
3
72
8
73
4
40
0
40
0
40
0
40
0
40
1
40
1
40
1
40
1
41
1
10
31.8289221872925
20
8.75000000000011
30
0
41
1
10
31.8563707117952
20
8.75000000000011
30
0
41
1
10
31.883819236298
20
8.75000000000011
30
0
41
1
10
31.9112677608007
20
8.75000000000011
30
0
0
SPLINE
5
1F8
100
AcDbEntity
8
1
62
256
6
ByLayer
370
13
48
1
60
0
100
AcDbSpline
70
4
71
3
72
8
73
4
40
0
40
0
40
0
40
0
40
1
40
1
40
1
40
1
41
1
10
33.5480538087933
20
8.15311677740303
30
0
41
1
10
33.5407025010737
20
8.1437649625673
30
0
41
1
10
33.5332526545728
20
8.13451648680444
30
0
41
1
10
33.5256934551194
20
8.12542116877756
30
0
0
SPLINE
5
1F9
100
AcDbEntity
8
1
62
256
6
ByLayer
370
13
48
1
60
0
100
AcDbSpline
70
4
71
3
72
8
73
4
40
0
40
0
40
0
40
0
40
1
40
1
40
1
40
1
41
1
10
33.5480538087933
20
9.34688322259723
30
0
41
1
10
33.5407025010737
20
9.35623503743295
30
0
41
1
10
33.5332526545728
20
9.36548351319578
30
0
41
1
10
33.5256934551194
20
9.37457883122266
30
0
0
SPLINE
5
1FA
100
AcDbEntity
8
1
62
256
6
ByLayer
370
13
48
1
60
0
100
AcDbSpline
70
4
71
3
72
16
73
12
40
0
40
0
40
0
40
0
40
0.0007084940797618
40
0.0007084940797618
40
0.283937687189524
40
0.283937687189524
40
0.567818407080674
40
0.567818407080674
40
0.999291505920235
40
0.999291505920235
40
1
40
1
40
1
40
1
41
1
10
31.8289221872925
20
9.13001990516449
30
0
41
1
10
31.8289416274202
20
9.13002450875618
30
0
41
1
10
31.8289610676156
20
9.13002911203935
30
0
41
1
10
31.8367519568992
20
9.1318740107655
30
0
41
1
10
31.8445252383641
20
9.13371826755392
30
0
41
1
10
31.8600911151086
20
9.13741905547829
30
0
41
1
10
31.8678840471777
20
9.13927576004622
30
0
41
1
10
31.8875212263735
20
9.14396412604165
30
0
41
1
10
31.8993665335015
20
9.14680100352336
30
0
41
1
10
31.911228866792
20
9.14964993648698
30
0
41
1
10
31.9112483137594
20
9.14965460718892
30
0
41
1
10
31.9112677608007
20
9.14965927758334
30
0
0
SPLINE
5
1FB
100
AcDbEntity
8
1
62
256
6
ByLayer
370
13
48
1
60
0
100
AcDbSpline
70
4
71
3
72
16
73
12
40
0
40
0
40
0
40
0
40
0.0007084940797618
40
0.0007084940797618
40
0.283937687189524
40
0.283937687189524
40
0.567818407080674
40
0.567818407080674
40
0.999291505920235
40
0.999291505920235
40
1
40
1
40
1
40
1
41
1
10
31.8289221872925
20
8.36998009483574
30
0
41
1
10
31.828941627443
20
8.36997549138604
30
0
41
1
10
31.8289610676156
20
8.36997088796088
30
0
41
1
10
31.8367519568992
20
8.36812598923473
30
0
41
1
10
31.8445252383641
20
8.36628173244631
30
0
41
1
10
31.8600911151086
20
8.36258094452197
30
0
41
1
10
31.8678840471777
20
8.36072423995404
30
0
41
1
10
31.8875212263735
20
8.3560358739586
30
0
41
1
10
31.8993665335015
20
8.35319899647686
30
0
41
1
10
31.911228866792
20
8.35035006351325
30
0
41
1
10
31.9112483137939
20
8.35034539295478
30
0
41
1
10
31.9112677608007
20
8.35034072241689
30
0
0
SPLINE
5
1FC
100
AcDbEntity
8
1
62
256
6
ByLayer
370
13
48
1
60
0
100
AcDbSpline
70
4
71
3
72
12
73
8
40
0
40
0
40
0
40
0
40
0.103790018033927
40
0.103790018033927
40
0.424238012362856
40
0.424238012362856
40
1
40
1
40
1
40
1
41
1
10
32.4112677608007
20
9.19730180209919
30
0
41
1
10
32.4330673288143
20
9.19675266228748
30
0
41
1
10
32.4548777846228
20
9.19644510921896
30
0
41
1
10
32.5437817615811
20
9.19525890517849
30
0
41
1
10
32.6108617198121
20
9.19475225156563
30
0
41
1
10
32.795202236924
20
9.19450185240095
30
0
41
1
10
32.9116787067388
20
9.19575404178491
30
0
41
1
10
33.0213727254144
20
9.19877316163291
30
0
0
SPLINE
5
1FD
100
AcDbEntity
8
1
62
256
6
ByLayer
370
13
48
1
60
0
100
AcDbSpline
70
4
71
3
72
12
73
8
40
0
40
0
40
0
40
0
40
0.103790018033927
40
0.103790018033927
40
0.424238012362856
40
0.424238012362856
40
1
40
1
40
1
40
1
41
1
10
32.4112677608007
20
8.30269819790107
30
0
41
1
10
32.4330673288143
20
8.30324733771278
30
0
41
1
10
32.4548777846228
20
8.3035548907813
30
0
41
1
10
32.5437817615811
20
8.30474109482174
30
0
41
1
10
32.6108617198121
20
8.3052477484346
30
0
41
1
10
32.795202236924
20
8.30549814759931
30
0
41
1
10
32.9116787067388
20
8.30424595821535
30
0
41
1
10
33.0213727254144
20
8.30122683836731
30
0
0
SPLINE
5
1FE
100
AcDbEntity
8
1
62
256
6
ByLayer
370
18
48
1
60
0
100
AcDbSpline
70
4
71
3
72
18
73
14
40
0
40
0
40
0
40
0
40
0.188759455005504
40
0.188759455005504
40
0.377108838199644
40
0.377108838199644
40
0.572657856393091
40
0.572657856393091
40
0.786386705761022
40
0.786386705761022
40
0.996599224440765
40
0.996599224440765
40
1
40
1
40
1
40
1
41
1
10
16.1701405628158
20
6.15000000000052
30
0
41
1
10
16.1701405628158
20
6.31618197596794
30
0
41
1
10
16.1969131537399
20
6.48465584529458
30
0
41
1
10
16.2978140287007
20
6.79748528944663
30
0
41
1
10
16.3730447897027
20
6.94606416474534
30
0
41
1
10
16.5619196598667
20
7.21198953522975
30
0
41
1
10
16.679160943878
20
7.33138094705998
30
0
41
1
10
16.9481401971374
20
7.53391203158563
30
0
41
1
10
17.1054024896348
20
7.61538351574586
30
0
41
1
10
17.4275431095163
20
7.72193140501804
30
0
41
1
10
17.5957141790268
20
7.74914202650524
30
0
41
1
10
17.7647698820292
20
7.74999323975735
30
0
41
1
10
17.7674552005608
20
7.75000000000065
30
0
41
1
10
17.7701405628157
20
7.75000000000065
30
0
0
SPLINE
5
1FF
100
AcDbEntity
8
1
62
256
6
ByLayer
370
18
48
1
60
0
100
AcDbSpline
70
4
71
3
72
14
73
10
40
0
40
0
40
0
40
0
40
0.208995027535852
40
0.208995027535852
40
0.417850725206471
40
0.417850725206471
40
0.626704295977396
40
0.626704295977396
40
1
40
1
40
1
40
1
41
1
10
31.0981203716814
20
7.62808059894559
30
0
41
1
10
31.1562077150716
20
7.62809056645816
30
0
41
1
10
31.2193237323134
20
7.62742438185015
30
0
41
1
10
31.3529850333382
20
7.62476588277806
30
0
41
1
10
31.4239830856551
20
7.62276533924009
30
0
41
1
10
31.5714347232616
20
7.61750334780035
30
0
41
1
10
31.6483929364638
20
7.61422391422036
30
0
41
1
10
31.8664550970089
20
7.6035175474251
30
0
41
1
10
32.0134966889726
20
7.5947043034295
30
0
41
1
10
32.1587805434602
20
7.58449502383948
30
0
0
SPLINE
5
200
100
AcDbEntity
8
1
62
256
6
ByLayer
370
18
48
1
60
0
100
AcDbSpline
70
4
71
3
72
8
73
4
40
0
40
0
40
0
40
0
40
1
40
1
40
1
40
1
41
1
10
32.3587805434613
20
7.57044077173217
30
0
41
1
10
32.4750917668497
20
7.56226743545045
30
0
41
1
10
32.591741836253
20
7.55335007058102
30
0
41
1
10
32.7060768987951
20
7.54389544853674
30
0
0
SPLINE
5
201
100
AcDbEntity
8
1
62
256
6
ByLayer
370
18
48
1
60
0
100
AcDbSpline
70
4
71
3
72
16
73
12
40
0
40
0
40
0
40
0
40
0.202092460849677
40
0.202092460849677
40
0.40403224558886
40
0.40403224558886
40
0.608298678109016
40
0.608298678109016
40
0.816163444624776
40
0.816163444624776
40
1
40
1
40
1
40
1
41
1
10
33.2892494524132
20
7.49965914303502
30
0
41
1
10
33.3220366161256
20
7.49763873356665
30
0
41
1
10
33.3555757070522
20
7.50133596651969
30
0
41
1
10
33.418560543168
20
7.51941121847932
30
0
41
1
10
33.4488706298536
20
7.53402078878059
30
0
41
1
10
33.5026257090698
20
7.57207346638876
30
0
41
1
10
33.5267215742437
20
7.59612646051963
30
0
41
1
10
33.5656361058238
20
7.65057010832604
30
0
41
1
10
33.5808214046758
20
7.68180774486757
30
0
41
1
10
33.5988410260334
20
7.74309128442218
30
0
41
1
10
33.6030935129214
20
7.77352028280489
30
0
41
1
10
33.6028388286042
20
7.80363045874657
30
0
0
SPLINE
5
202
100
AcDbEntity
8
1
62
256
6
ByLayer
370
18
48
1
60
0
100
AcDbSpline
70
4
71
3
72
16
73
12
40
0
40
0
40
0
40
0
40
0.21060160365595
40
0.21060160365595
40
0.421213120944743
40
0.421213120944743
40
0.631488126466471
40
0.631488126466471
40
0.839116239426997
40
0.839116239426997
40
1
40
1
40
1
40
1
41
1
10
33.6028388286042
20
9.69636954125366
30
0
41
1
10
33.6031296556105
20
9.73075270401043
30
0
41
1
10
33.5975070259551
20
9.76560808773607
30
0
41
1
10
33.5754093689247
20
9.83049820753635
30
0
41
1
10
33.5586256018935
20
9.86143476259767
30
0
41
1
10
33.5163383595429
20
9.9150529788113
30
0
41
1
10
33.4902502953765
20
9.93849676973818
30
0
41
1
10
33.4328186585456
20
9.97434967164489
30
0
41
1
10
33.4007334811871
20
9.98739021494589
30
0
41
1
10
33.34215887377
20
9.99994625628275
30
0
41
1
10
33.3154914357367
20
10.001957939554
30
0
41
1
10
33.2892494524132
20
10.0003408569652
30
0
0
SPLINE
5
203
100
AcDbEntity
8
1
62
256
6
ByLayer
370
18
48
1
60
0
100
AcDbSpline
70
4
71
3
72
14
73
10
40
0
40
0
40
0
40
0
40
0.209562190252725
40
0.209562190252725
40
0.419048660097218
40
0.419048660097218
40
0.628042586344193
40
0.628042586344193
40
1
40
1
40
1
40
1
41
1
10
32.1587805434612
20
9.91550497616134
30
0
41
1
10
32.0766126081606
20
9.90973093177234
30
0
41
1
10
31.994096633241
20
9.90441134026671
30
0
41
1
10
31.8317767669575
20
9.89490475934804
30
0
41
1
10
31.7514176992139
20
9.89068494153503
30
0
41
1
10
31.59577107806
20
9.88349617372961
30
0
41
1
10
31.5199400027966
20
9.88049975769209
30
0
41
1
10
31.319734627046
20
9.87402579424088
30
0
41
1
10
31.2007351939601
20
9.87190179283695
30
0
41
1
10
31.0981203716825
20
9.87191940105367
30
0
0
SPLINE
5
204
100
AcDbEntity
8
1
62
256
6
ByLayer
370
18
48
1
60
0
100
AcDbSpline
70
4
71
3
72
8
73
4
40
0
40
0
40
0
40
0
40
1
40
1
40
1
40
1
41
1
10
32.7060768987951
20
9.95610455146348
30
0
41
1
10
32.591741836253
20
9.94664992941921
30
0
41
1
10
32.4750917668497
20
9.93773256454978
30
0
41
1
10
32.3587805434613
20
9.92955922826809
30
0
0
LINE
5
70
100
AcDbEntity
8
80
62
256
6
ByLayer
370
18
48
1
60
0
100
AcDbLine
10
0
20
0
30
0
11
-5
21
0
31
0
39
0
210
0
220
0
230
1
0
LINE
5
71
100
AcDbEntity
8
81
62
256
6
ByLayer
370
18
48
1
60
0
100
AcDbLine
10
33.6
20
10
30
0
11
38.6
21
10
31
0
39
0
210
0
220
0
230
1
0
LINE
5
72
100
AcDbEntity
8
SK1
62
256
6
ByLayer
370
18
48
1
60
0
100
AcDbLine
10
-0.1
20
-10
30
0
11
-0.1
21
9.75
31
0
39
0
210
0
220
0
230
1
0
LINE
5
74
100
AcDbEntity
8
SK1
62
256
6
ByLayer
370
18
48
1
60
0
100
AcDbLine
10
-91.4
20
-10
30
0
11
-1.227723
21
-10
31
0
39
0
210
0
220
0
230
1
0
LINE
5
75
100
AcDbEntity
8
SK1
62
256
6
ByLayer
370
18
48
1
60
0
100
AcDbLine
10
-91.4
20
-10
30
0
11
-91.4
21
9.9
31
0
39
0
210
0
220
0
230
1
0
LINE
5
76
100
AcDbEntity
8
SK1
62
256
6
ByLayer
370
13
48
1
60
0
100
AcDbLine
10
-1.227723
20
9.75
30
0
11
-1.227723
21
-10
31
0
39
0
210
0
220
0
230
1
0
LINE
5
77
100
AcDbEntity
8
SK1
62
256
6
ByLayer
370
18
48
1
60
0
100
AcDbLine
10
-0.1
20
9.75
30
0
11
-1.227723
21
9.75
31
0
39
0
210
0
220
0
230
1
0
LINE
5
78
100
AcDbEntity
8
SK1
62
256
6
ByLayer
370
18
48
1
60
0
100
AcDbLine
10
-1.227723
20
9.75
30
0
11
-1.6
21
9.75
31
0
39
0
210
0
220
0
230
1
0
LINE
5
79
100
AcDbEntity
8
SK1
62
256
6
ByLayer
370
18
48
1
60
0
100
AcDbLine
10
-91.4
20
9.9
30
0
11
-2.276387
21
9.9
31
0
39
0
210
0
220
0
230
1
0
LINE
5
7A
100
AcDbEntity
8
SK1
62
256
6
ByLayer
370
18
48
1
60
0
100
AcDbLine
10
-1.227723
20
-10
30
0
11
-0.1
21
-10
31
0
39
0
210
0
220
0
230
1
0
LINE
5
7B
100
AcDbEntity
8
1
62
256
6
ByLayer
370
13
48
1
60
0
100
AcDbLine
10
0.317758
20
-10
30
0
11
0.317758
21
9.75
31
0
39
0
210
0
220
0
230
1
0
LINE
5
7D
100
AcDbEntity
8
1
62
256
6
ByLayer
370
18
48
1
60
0
100
AcDbLine
10
6
20
-6.991224
30
0
11
1.11858
21
-9.598401
31
0
39
0
210
0
220
0
230
1
0
LINE
5
7E
100
AcDbEntity
8
1
62
256
6
ByLayer
370
18
48
1
60
0
100
AcDbLine
10
29.015611
20
7.758431
30
0
11
29.013022
21
7.75
31
0
39
0
210
0
220
0
230
1
0
LINE
5
7F
100
AcDbEntity
8
1
62
256
6
ByLayer
370
18
48
1
60
0
100
AcDbLine
10
0.317758
20
-10
30
0
11
0.366667
21
-10
31
0
39
0
210
0
220
0
230
1
0
LINE
5
80
100
AcDbEntity
8
1
62
256
6
ByLayer
370
13
48
1
60
0
100
AcDbLine
10
19.890738
20
9.75
30
0
11
19.890738
21
7.75
31
0
39
0
210
0
220
0
230
1
0
LINE
5
81
100
AcDbEntity
8
1
62
256
6
ByLayer
370
18
48
1
60
0
100
AcDbLine
10
19.890738
20
7.75
30
0
11
7.6
21
7.75
31
0
39
0
210
0
220
0
230
1
0
LINE
5
82
100
AcDbEntity
8
1
62
256
6
ByLayer
370
18
48
1
60
0
100
AcDbLine
10
1.11858
20
9.75
30
0
11
0.317758
21
9.75
31
0
39
0
210
0
220
0
230
1
0
LINE
5
83
100
AcDbEntity
8
1
62
256
6
ByLayer
370
13
48
1
60
0
100
AcDbLine
10
24.890738
20
7.75
30
0
11
24.890738
21
9.75
31
0
39
0
210
0
220
0
230
1
0
LINE
5
84
100
AcDbEntity
8
1
62
256
6
ByLayer
370
18
48
1
60
0
100
AcDbLine
10
29.013022
20
9.75
30
0
11
29.015611
21
9.741569
31
0
39
0
210
0
220
0
230
1
0
LINE
5
85
100
AcDbEntity
8
1
62
256
6
ByLayer
370
18
48
1
60
0
100
AcDbLine
10
0.366667
20
-10
30
0
11
1.11858
21
-9.598401
31
0
39
0
210
0
220
0
230
1
0
LINE
5
86
100
AcDbEntity
8
1
62
256
6
ByLayer
370
18
48
1
60
0
100
AcDbLine
10
-0.1
20
-10
30
0
11
-0.1
21
9.75
31
0
39
0
210
0
220
0
230
1
0
LINE
5
87
100
AcDbEntity
8
1
62
256
6
ByLayer
370
18
48
1
60
0
100
AcDbLine
10
16.170141
20
-1.559328
30
0
11
6
21
-6.991224
31
0
39
0
210
0
220
0
230
1
0
LINE
5
88
100
AcDbEntity
8
1
62
256
6
ByLayer
370
18
48
1
60
0
100
AcDbLine
10
0.317758
20
9.75
30
0
11
-0.1
21
9.75
31
0
39
0
210
0
220
0
230
1
0
LINE
5
89
100
AcDbEntity
8
1
62
256
6
ByLayer
370
18
48
1
60
0
100
AcDbLine
10
19.890738
20
9.75
30
0
11
1.11858
21
9.75
31
0
39
0
210
0
220
0
230
1
0
LINE
5
8A
100
AcDbEntity
8
1
62
256
6
ByLayer
370
18
48
1
60
0
100
AcDbLine
10
16.170141
20
-1.559328
30
0
11
16.170141
21
6.15
31
0
39
0
210
0
220
0
230
1
0
LINE
5
8B
100
AcDbEntity
8
1
62
256
6
ByLayer
370
18
48
1
60
0
100
AcDbLine
10
-0.1
20
-10
30
0
11
0.317758
21
-10
31
0
39
0
210
0
220
0
230
1
0
LINE
5
8C
100
AcDbEntity
8
1
62
256
6
ByLayer
370
18
48
1
60
0
100
AcDbLine
10
24.890738
20
7.75
30
0
11
19.890738
21
7.75
31
0
39
0
210
0
220
0
230
1
0
LINE
5
8D
100
AcDbEntity
8
1
62
256
6
ByLayer
370
18
48
1
60
0
100
AcDbLine
10
29.013022
20
7.75
30
0
11
24.890738
21
7.75
31
0
39
0
210
0
220
0
230
1
0
LINE
5
8E
100
AcDbEntity
8
1
62
256
6
ByLayer
370
18
48
1
60
0
100
AcDbLine
10
6
20
-6.991224
30
0
11
6
21
6.15
31
0
39
0
210
0
220
0
230
1
0
LINE
5
8F
100
AcDbEntity
8
1
62
256
6
ByLayer
370
18
48
1
60
0
100
AcDbLine
10
24.890738
20
9.75
30
0
11
19.890738
21
9.75
31
0
39
0
210
0
220
0
230
1
0
LINE
5
90
100
AcDbEntity
8
1
62
256
6
ByLayer
370
13
48
1
60
0
100
AcDbLine
10
6
20
6.15
30
0
11
16.170141
21
6.15
31
0
39
0
210
0
220
0
230
1
0
LINE
5
91
100
AcDbEntity
8
1
62
256
6
ByLayer
370
18
48
1
60
0
100
AcDbLine
10
1.11858
20
-9.598401
30
0
11
1.11858
21
9.75
31
0
39
0
210
0
220
0
230
1
0
LINE
5
92
100
AcDbEntity
8
1
62
256
6
ByLayer
370
18
48
1
60
0
100
AcDbLine
10
29.013022
20
9.75
30
0
11
24.890738
21
9.75
31
0
39
0
210
0
220
0
230
1
0
LINE
5
93
100
AcDbEntity
8
1
62
256
6
ByLayer
370
18
48
1
60
0
100
AcDbLine
10
29.015611
20
7.758431
30
0
11
29.015611
21
9.741569
31
0
39
0
210
0
220
0
230
1
0
LINE
5
94
100
AcDbEntity
8
1
62
256
6
ByLayer
370
13
48
1
60
0
100
AcDbLine
10
0.317758
20
-10
30
0
11
0.317758
21
9.75
31
0
39
0
210
0
220
0
230
1
0
LINE
5
95
100
AcDbEntity
8
1
62
256
6
ByLayer
370
13
48
1
60
0
100
AcDbLine
10
-1.227723
20
9.75
30
0
11
-1.227723
21
-10
31
0
39
0
210
0
220
0
230
1
0
LINE
5
96
100
AcDbEntity
8
1
62
256
6
ByLayer
370
13
48
1
60
0
100
AcDbLine
10
29.015598
20
8.947335
30
0
11
29.152254
21
8.947335
31
0
39
0
210
0
220
0
230
1
0
LINE
5
97
100
AcDbEntity
8
1
62
256
6
ByLayer
370
13
48
1
60
0
100
AcDbLine
10
30.311238
20
7.75
30
0
11
30.311238
21
7.977886
31
0
39
0
210
0
220
0
230
1
0
LINE
5
98
100
AcDbEntity
8
1
62
256
6
ByLayer
370
13
48
1
60
0
100
AcDbLine
10
30.311238
20
7.977886
30
0
11
30.637348
21
7.961829
31
0
39
0
210
0
220
0
230
1
0
LINE
5
99
100
AcDbEntity
8
1
62
256
6
ByLayer
370
13
48
1
60
0
100
AcDbLine
10
30.830259
20
7.63536
30
0
11
30.818821
21
7.798931
31
0
39
0
210
0
220
0
230
1
0
LINE
5
9A
100
AcDbEntity
8
1
62
256
6
ByLayer
370
13
48
1
60
0
100
AcDbLine
10
30.830259
20
9.86464
30
0
11
30.818821
21
9.701069
31
0
39
0
210
0
220
0
230
1
0
LINE
5
9B
100
AcDbEntity
8
1
62
256
6
ByLayer
370
13
48
1
60
0
100
AcDbLine
10
30.637348
20
9.538171
30
0
11
30.311238
21
9.522114
31
0
39
0
210
0
220
0
230
1
0
LINE
5
9C
100
AcDbEntity
8
1
62
256
6
ByLayer
370
13
48
1
60
0
100
AcDbLine
10
30.311238
20
9.522114
30
0
11
30.311238
21
9.75
31
0
39
0
210
0
220
0
230
1
0
LINE
5
9D
100
AcDbEntity
8
1
62
256
6
ByLayer
370
13
48
1
60
0
100
AcDbLine
10
31.09812
20
7.816567
30
0
11
31.09812
21
7.628081
31
0
39
0
210
0
220
0
230
1
0
LINE
5
9E
100
AcDbEntity
8
1
62
256
6
ByLayer
370
13
48
1
60
0
100
AcDbLine
10
32.158781
20
7.717002
30
0
11
32.158781
21
7.584495
31
0
39
0
210
0
220
0
230
1
0
LINE
5
9F
100
AcDbEntity
8
1
62
256
6
ByLayer
370
13
48
1
60
0
100
AcDbLine
10
32.158781
20
9.782998
30
0
11
32.158781
21
9.915505
31
0
39
0
210
0
220
0
230
1
0
LINE
5
A0
100
AcDbEntity
8
1
62
256
6
ByLayer
370
13
48
1
60
0
100
AcDbLine
10
31.09812
20
9.683433
30
0
11
31.09812
21
9.871919
31
0
39
0
210
0
220
0
230
1
0
LINE
5
A1
100
AcDbEntity
8
1
62
256
6
ByLayer
370
13
48
1
60
0
100
AcDbLine
10
30.607425
20
8.242132
30
0
11
30.147776
21
8.264764
31
0
39
0
210
0
220
0
230
1
0
LINE
5
A2
100
AcDbEntity
8
1
62
256
6
ByLayer
370
13
48
1
60
0
100
AcDbLine
10
30.147776
20
9.235236
30
0
11
30.607425
21
9.257868
31
0
39
0
210
0
220
0
230
1
0
LINE
5
A3
100
AcDbEntity
8
1
62
256
6
ByLayer
370
13
48
1
60
0
100
AcDbLine
10
30.637348
20
7.961829
30
0
11
30.784585
21
8.117882
31
0
39
0
210
0
220
0
230
1
0
LINE
5
A4
100
AcDbEntity
8
1
62
256
6
ByLayer
370
13
48
1
60
0
100
AcDbLine
10
30.995173
20
9.685733
30
0
11
31.008193
21
9.871935
31
0
39
0
210
0
220
0
230
1
0
LINE
5
A5
100
AcDbEntity
8
1
62
256
6
ByLayer
370
13
48
1
60
0
100
AcDbLine
10
30.784585
20
9.382118
30
0
11
30.637348
21
9.538171
31
0
39
0
210
0
220
0
230
1
0
LINE
5
A6
100
AcDbEntity
8
1
62
256
6
ByLayer
370
13
48
1
60
0
100
AcDbLine
10
30.995173
20
7.814267
30
0
11
31.008193
21
7.628065
31
0
39
0
210
0
220
0
230
1
0
LINE
5
A7
100
AcDbEntity
8
1
62
256
6
ByLayer
370
13
48
1
60
0
100
AcDbLine
10
30.659386
20
9.213592
30
0
11
30.036893
21
9.213592
31
0
39
0
210
0
220
0
230
1
0
LINE
5
A8
100
AcDbEntity
8
1
62
256
6
ByLayer
370
13
48
1
60
0
100
AcDbLine
10
30.659386
20
8.286408
30
0
11
30.036893
21
8.286408
31
0
39
0
210
0
220
0
230
1
0
LINE
5
A9
100
AcDbEntity
8
1
62
256
6
ByLayer
370
13
48
1
60
0
100
AcDbLine
10
30.242833
20
7.977886
30
0
11
30.311238
21
7.977886
31
0
39
0
210
0
220
0
230
1
0
LINE
5
AA
100
AcDbEntity
8
1
62
256
6
ByLayer
370
13
48
1
60
0
100
AcDbLine
10
30.242833
20
9.522114
30
0
11
30.311238
21
9.522114
31
0
39
0
210
0
220
0
230
1
0
LINE
5
AB
100
AcDbEntity
8
1
62
256
6
ByLayer
370
13
48
1
60
0
100
AcDbLine
10
30.242833
20
7.977886
30
0
11
30.242833
21
7.75
31
0
39
0
210
0
220
0
230
1
0
LINE
5
AC
100
AcDbEntity
8
1
62
256
6
ByLayer
370
13
48
1
60
0
100
AcDbLine
10
30.242833
20
9.75
30
0
11
30.242833
21
9.522114
31
0
39
0
210
0
220
0
230
1
0
LINE
5
AD
100
AcDbEntity
8
1
62
256
6
ByLayer
370
13
48
1
60
0
100
AcDbLine
10
30.070241
20
9.420672
30
0
11
29.959359
21
9.399029
31
0
39
0
210
0
220
0
230
1
0
LINE
5
AE
100
AcDbEntity
8
1
62
256
6
ByLayer
370
13
48
1
60
0
100
AcDbLine
10
29.317283
20
9.633917
30
0
11
29.317283
21
9.75
31
0
39
0
210
0
220
0
230
1
0
LINE
5
AF
100
AcDbEntity
8
1
62
256
6
ByLayer
370
13
48
1
60
0
100
AcDbLine
10
29.317283
20
7.75
30
0
11
29.317283
21
7.866083
31
0
39
0
210
0
220
0
230
1
0
LINE
5
B0
100
AcDbEntity
8
1
62
256
6
ByLayer
370
13
48
1
60
0
100
AcDbLine
10
29.959359
20
8.100971
30
0
11
30.070241
21
8.079328
31
0
39
0
210
0
220
0
230
1
0
LINE
5
B1
100
AcDbEntity
8
1
62
256
6
ByLayer
370
13
48
1
60
0
100
AcDbLine
10
30.147776
20
8.264764
30
0
11
30.036893
21
8.286408
31
0
39
0
210
0
220
0
230
1
0
LINE
5
B2
100
AcDbEntity
8
1
62
256
6
ByLayer
370
13
48
1
60
0
100
AcDbLine
10
30.036893
20
9.213592
30
0
11
30.147776
21
9.235236
31
0
39
0
210
0
220
0
230
1
0
LINE
5
B3
100
AcDbEntity
8
1
62
256
6
ByLayer
370
13
48
1
60
0
100
AcDbLine
10
24.890738
20
7.75
30
0
11
24.890738
21
9.75
31
0
39
0
210
0
220
0
230
1
0
LINE
5
B4
100
AcDbEntity
8
1
62
256
6
ByLayer
370
13
48
1
60
0
100
AcDbLine
10
31.911268
20
9.149659
30
0
11
31.911268
21
8.75
31
0
39
0
210
0
220
0
230
1
0
LINE
5
B5
100
AcDbEntity
8
1
62
256
6
ByLayer
370
13
48
1
60
0
100
AcDbLine
10
29.23041
20
9.75
30
0
11
29.23041
21
9.625983
31
0
39
0
210
0
220
0
230
1
0
LINE
5
B6
100
AcDbEntity
8
1
62
256
6
ByLayer
370
13
48
1
60
0
100
AcDbLine
10
29.23041
20
7.874017
30
0
11
29.23041
21
7.75
31
0
39
0
210
0
220
0
230
1
0
LINE
5
B7
100
AcDbEntity
8
1
62
256
6
ByLayer
370
13
48
1
60
0
100
AcDbLine
10
29.06942
20
9.117998
30
0
11
29.388749
21
9.117998
31
0
39
0
210
0
220
0
230
1
0
LINE
5
B8
100
AcDbEntity
8
1
62
256
6
ByLayer
370
13
48
1
60
0
100
AcDbLine
10
29.015612
20
9.568506
30
0
11
29.06942
21
9.117998
31
0
39
0
210
0
220
0
230
1
0
LINE
5
B9
100
AcDbEntity
8
1
62
256
6
ByLayer
370
13
48
1
60
0
100
AcDbLine
10
29.234752
20
9.575984
30
0
11
29.014718
21
9.575984
31
0
39
0
210
0
220
0
230
1
0
LINE
5
BA
100
AcDbEntity
8
1
62
256
6
ByLayer
370
13
48
1
60
0
100
AcDbLine
10
29.234752
20
7.924016
30
0
11
29.014718
21
7.924016
31
0
39
0
210
0
220
0
230
1
0
LINE
5
BB
100
AcDbEntity
8
1
62
256
6
ByLayer
370
13
48
1
60
0
100
AcDbLine
10
29.015612
20
7.931494
30
0
11
29.06942
21
8.382002
31
0
39
0
210
0
220
0
230
1
0
LINE
5
BC
100
AcDbEntity
8
1
62
256
6
ByLayer
370
13
48
1
60
0
100
AcDbLine
10
29.06942
20
8.382002
30
0
11
29.388749
21
8.382002
31
0
39
0
210
0
220
0
230
1
0
LINE
5
BD
100
AcDbEntity
8
1
62
256
6
ByLayer
370
13
48
1
60
0
100
AcDbLine
10
33.600117
20
9.374579
30
0
11
33.525693
21
9.374579
31
0
39
0
210
0
220
0
230
1
0
LINE
5
BE
100
AcDbEntity
8
1
62
256
6
ByLayer
370
13
48
1
60
0
100
AcDbLine
10
33.135516
20
9.68335
30
0
11
33.135516
21
9.990867
31
0
39
0
210
0
220
0
230
1
0
LINE
5
BF
100
AcDbEntity
8
1
62
256
6
ByLayer
370
13
48
1
60
0
100
AcDbLine
10
33.135516
20
7.81665
30
0
11
33.135516
21
7.509133
31
0
39
0
210
0
220
0
230
1
0
LINE
5
C0
100
AcDbEntity
8
1
62
256
6
ByLayer
370
13
48
1
60
0
100
AcDbLine
10
33.600117
20
8.125421
30
0
11
33.525693
21
8.125421
31
0
39
0
210
0
220
0
230
1
0
LINE
5
C1
100
AcDbEntity
8
1
62
256
6
ByLayer
370
13
48
1
60
0
100
AcDbLine
10
31.828922
20
9.13002
30
0
11
31.828922
21
8.75
31
0
39
0
210
0
220
0
230
1
0
LINE
5
C2
100
AcDbEntity
8
1
62
256
6
ByLayer
370
13
48
1
60
0
100
AcDbLine
10
31.828922
20
8.36998
30
0
11
31.828922
21
8.75
31
0
39
0
210
0
220
0
230
1
0
LINE
5
C3
100
AcDbEntity
8
1
62
256
6
ByLayer
370
13
48
1
60
0
100
AcDbLine
10
29.01185
20
9.625438
30
0
11
29.228277
21
9.625438
31
0
39
0
210
0
220
0
230
1
0
LINE
5
C4
100
AcDbEntity
8
1
62
256
6
ByLayer
370
13
48
1
60
0
100
AcDbLine
10
32.706077
20
7.71604
30
0
11
32.706077
21
7.543895
31
0
39
0
210
0
220
0
230
1
0
LINE
5
C5
100
AcDbEntity
8
1
62
256
6
ByLayer
370
13
48
1
60
0
100
AcDbLine
10
29.01185
20
7.874562
30
0
11
29.228277
21
7.874562
31
0
39
0
210
0
220
0
230
1
0
LINE
5
C6
100
AcDbEntity
8
1
62
256
6
ByLayer
370
13
48
1
60
0
100
AcDbLine
10
33.06476
20
7.514235
30
0
11
33.06476
21
7.764024
31
0
39
0
210
0
220
0
230
1
0
LINE
5
C7
100
AcDbEntity
8
1
62
256
6
ByLayer
370
13
48
1
60
0
100
AcDbLine
10
33.06476
20
9.985765
30
0
11
33.06476
21
9.735976
31
0
39
0
210
0
220
0
230
1
0
LINE
5
C8
100
AcDbEntity
8
1
62
256
6
ByLayer
370
13
48
1
60
0
100
AcDbLine
10
32.706077
20
9.78396
30
0
11
32.706077
21
9.956105
31
0
39
0
210
0
220
0
230
1
0
LINE
5
C9
100
AcDbEntity
8
1
62
256
6
ByLayer
370
13
48
1
60
0
100
AcDbLine
10
29.106333
20
8.498976
30
0
11
29.476987
21
8.498976
31
0
39
0
210
0
220
0
230
1
0
LINE
5
CA
100
AcDbEntity
8
1
62
256
6
ByLayer
370
13
48
1
60
0
100
AcDbLine
10
29.106333
20
9.001024
30
0
11
29.476987
21
9.001024
31
0
39
0
210
0
220
0
230
1
0
LINE
5
CB
100
AcDbEntity
8
1
62
256
6
ByLayer
370
13
48
1
60
0
100
AcDbLine
10
32.358781
20
9.786851
30
0
11
32.358781
21
9.929559
31
0
39
0
210
0
220
0
230
1
0
LINE
5
CC
100
AcDbEntity
8
1
62
256
6
ByLayer
370
13
48
1
60
0
100
AcDbLine
10
32.358781
20
7.713149
30
0
11
32.358781
21
7.570441
31
0
39
0
210
0
220
0
230
1
0
LINE
5
CD
100
AcDbEntity
8
1
62
256
6
ByLayer
370
13
48
1
60
0
100
AcDbLine
10
29.14904
20
8.549244
30
0
11
29.599504
21
8.549244
31
0
39
0
210
0
220
0
230
1
0
LINE
5
CE
100
AcDbEntity
8
1
62
256
6
ByLayer
370
13
48
1
60
0
100
AcDbLine
10
29.14904
20
8.950756
30
0
11
29.599504
21
8.950756
31
0
39
0
210
0
220
0
230
1
0
LINE
5
CF
100
AcDbEntity
8
1
62
256
6
ByLayer
370
13
48
1
60
0
100
AcDbLine
10
29.152254
20
8.552665
30
0
11
29.608222
21
8.552665
31
0
39
0
210
0
220
0
230
1
0
LINE
5
D0
100
AcDbEntity
8
1
62
256
6
ByLayer
370
13
48
1
60
0
100
AcDbLine
10
31.911268
20
9.149659
30
0
11
31.815133
21
9.455818
31
0
39
0
210
0
220
0
230
1
0
LINE
5
D1
100
AcDbEntity
8
1
62
256
6
ByLayer
370
13
48
1
60
0
100
AcDbLine
10
32.421706
20
9.501182
30
0
11
32.411268
21
9.197302
31
0
39
0
210
0
220
0
230
1
0
LINE
5
D2
100
AcDbEntity
8
1
62
256
6
ByLayer
370
13
48
1
60
0
100
AcDbLine
10
31.911268
20
8.350341
30
0
11
31.815133
21
8.044182
31
0
39
0
210
0
220
0
230
1
0
LINE
5
D3
100
AcDbEntity
8
1
62
256
6
ByLayer
370
13
48
1
60
0
100
AcDbLine
10
29.152254
20
8.947335
30
0
11
29.608222
21
8.947335
31
0
39
0
210
0
220
0
230
1
0
LINE
5
D4
100
AcDbEntity
8
1
62
256
6
ByLayer
370
13
48
1
60
0
100
AcDbLine
10
33.597026
20
8.311794
30
0
11
33.597026
21
9.188206
31
0
39
0
210
0
220
0
230
1
0
LINE
5
D5
100
AcDbEntity
8
1
62
256
6
ByLayer
370
13
48
1
60
0
100
AcDbLine
10
33.548054
20
8.153117
30
0
11
33.6
21
8.153117
31
0
39
0
210
0
220
0
230
1
0
LINE
5
D6
100
AcDbEntity
8
1
62
256
6
ByLayer
370
13
48
1
60
0
100
AcDbLine
10
33.548054
20
9.346883
30
0
11
33.6
21
9.346883
31
0
39
0
210
0
220
0
230
1
0
LINE
5
D7
100
AcDbEntity
8
1
62
256
6
ByLayer
370
13
48
1
60
0
100
AcDbLine
10
32.421706
20
7.998818
30
0
11
32.411268
21
8.302698
31
0
39
0
210
0
220
0
230
1
0
LINE
5
D8
100
AcDbEntity
8
1
62
256
6
ByLayer
370
13
48
1
60
0
100
AcDbLine
10
31.911268
20
8.350341
30
0
11
31.911268
21
8.75
31
0
39
0
210
0
220
0
230
1
0
LINE
5
D9
100
AcDbEntity
8
1
62
256
6
ByLayer
370
13
48
1
60
0
100
AcDbLine
10
33.544165
20
8.311794
30
0
11
33.597026
21
8.311794
31
0
39
0
210
0
220
0
230
1
0
LINE
5
DA
100
AcDbEntity
8
1
62
256
6
ByLayer
370
13
48
1
60
0
100
AcDbLine
10
33.544165
20
9.188206
30
0
11
33.597026
21
9.188206
31
0
39
0
210
0
220
0
230
1
0
LINE
5
DB
100
AcDbEntity
8
1
62
256
6
ByLayer
370
13
48
1
60
0
100
AcDbLine
10
29.015605
20
9.117998
30
0
11
29.06942
21
9.117998
31
0
39
0
210
0
220
0
230
1
0
LINE
5
DC
100
AcDbEntity
8
1
62
256
6
ByLayer
370
13
48
1
60
0
100
AcDbLine
10
29.015605
20
8.382002
30
0
11
29.06942
21
8.382002
31
0
39
0
210
0
220
0
230
1
0
LINE
5
DD
100
AcDbEntity
8
1
62
256
6
ByLayer
370
13
48
1
60
0
100
AcDbLine
10
33.544165
20
9.188206
30
0
11
33.544165
21
8.311794
31
0
39
0
210
0
220
0
230
1
0
LINE
5
DE
100
AcDbEntity
8
1
62
256
6
ByLayer
370
13
48
1
60
0
100
AcDbLine
10
29.14904
20
8.549244
30
0
11
29.152254
21
8.552665
31
0
39
0
210
0
220
0
230
1
0
LINE
5
DF
100
AcDbEntity
8
1
62
256
6
ByLayer
370
13
48
1
60
0
100
AcDbLine
10
29.14904
20
8.950756
30
0
11
29.152254
21
8.947335
31
0
39
0
210
0
220
0
230
1
0
LINE
5
E0
100
AcDbEntity
8
1
62
256
6
ByLayer
370
13
48
1
60
0
100
AcDbLine
10
32.411268
20
9.197302
30
0
11
32.411268
21
8.302698
31
0
39
0
210
0
220
0
230
1
0
LINE
5
E1
100
AcDbEntity
8
1
62
256
6
ByLayer
370
13
48
1
60
0
100
AcDbLine
10
33.021373
20
9.198773
30
0
11
33.021373
21
8.301227
31
0
39
0
210
0
220
0
230
1
0
LINE
5
E2
100
AcDbEntity
8
1
62
256
6
ByLayer
370
13
48
1
60
0
100
AcDbLine
10
29.015588
20
9.001024
30
0
11
29.106333
21
9.001024
31
0
39
0
210
0
220
0
230
1
0
LINE
5
E3
100
AcDbEntity
8
1
62
256
6
ByLayer
370
13
48
1
60
0
100
AcDbLine
10
29.015588
20
8.498976
30
0
11
29.106333
21
8.498976
31
0
39
0
210
0
220
0
230
1
0
LINE
5
E4
100
AcDbEntity
8
1
62
256
6
ByLayer
370
13
48
1
60
0
100
AcDbLine
10
29.015595
20
8.549244
30
0
11
29.14904
21
8.549244
31
0
39
0
210
0
220
0
230
1
0
LINE
5
E5
100
AcDbEntity
8
1
62
256
6
ByLayer
370
13
48
1
60
0
100
AcDbLine
10
29.015595
20
8.950756
30
0
11
29.14904
21
8.950756
31
0
39
0
210
0
220
0
230
1
0
LINE
5
E6
100
AcDbEntity
8
1
62
256
6
ByLayer
370
13
48
1
60
0
100
AcDbLine
10
19.890738
20
9.75
30
0
11
19.890738
21
7.75
31
0
39
0
210
0
220
0
230
1
0
LINE
5
E7
100
AcDbEntity
8
1
62
256
6
ByLayer
370
13
48
1
60
0
100
AcDbLine
10
29.015598
20
8.552665
30
0
11
29.152254
21
8.552665
31
0
39
0
210
0
220
0
230
1
0
LINE
5
E8
100
AcDbEntity
8
1
62
256
6
ByLayer
370
13
48
1
60
0
100
AcDbLine
10
6
20
6.15
30
0
11
16.170141
21
6.15
31
0
39
0
210
0
220
0
230
1
0
LINE
5
E9
100
AcDbEntity
8
1
62
256
6
ByLayer
370
18
48
1
60
0
100
AcDbLine
10
19.890738
20
7.75
30
0
11
7.6
21
7.75
31
0
39
0
210
0
220
0
230
1
0
LINE
5
EA
100
AcDbEntity
8
1
62
256
6
ByLayer
370
18
48
1
60
0
100
AcDbLine
10
19.890738
20
9.75
30
0
11
1.11858
21
9.75
31
0
39
0
210
0
220
0
230
1
0
LINE
5
EB
100
AcDbEntity
8
1
62
256
6
ByLayer
370
18
48
1
60
0
100
AcDbLine
10
29.013022
20
7.75
30
0
11
24.890738
21
7.75
31
0
39
0
210
0
220
0
230
1
0
LINE
5
EC
100
AcDbEntity
8
1
62
256
6
ByLayer
370
18
48
1
60
0
100
AcDbLine
10
6
20
-6.991224
30
0
11
6
21
6.15
31
0
39
0
210
0
220
0
230
1
0
LINE
5
ED
100
AcDbEntity
8
1
62
256
6
ByLayer
370
18
48
1
60
0
100
AcDbLine
10
29.013022
20
9.75
30
0
11
24.890738
21
9.75
31
0
39
0
210
0
220
0
230
1
0
LINE
5
EE
100
AcDbEntity
8
1
62
256
6
ByLayer
370
18
48
1
60
0
100
AcDbLine
10
24.890738
20
7.75
30
0
11
19.890738
21
7.75
31
0
39
0
210
0
220
0
230
1
0
LINE
5
EF
100
AcDbEntity
8
1
62
256
6
ByLayer
370
18
48
1
60
0
100
AcDbLine
10
24.890738
20
9.75
30
0
11
19.890738
21
9.75
31
0
39
0
210
0
220
0
230
1
0
LINE
5
F0
100
AcDbEntity
8
1
62
256
6
ByLayer
370
18
48
1
60
0
100
AcDbLine
10
29.015611
20
7.758431
30
0
11
29.013022
21
7.75
31
0
39
0
210
0
220
0
230
1
0
LINE
5
F1
100
AcDbEntity
8
1
62
256
6
ByLayer
370
18
48
1
60
0
100
AcDbLine
10
29.015611
20
7.758431
30
0
11
29.015611
21
9.741569
31
0
39
0
210
0
220
0
230
1
0
LINE
5
F2
100
AcDbEntity
8
1
62
256
6
ByLayer
370
18
48
1
60
0
100
AcDbLine
10
29.013022
20
9.75
30
0
11
29.015611
21
9.741569
31
0
39
0
210
0
220
0
230
1
0
LINE
5
F3
100
AcDbEntity
8
1
62
256
6
ByLayer
370
18
48
1
60
0
100
AcDbLine
10
1.11858
20
-9.598401
30
0
11
1.11858
21
9.75
31
0
39
0
210
0
220
0
230
1
0
LINE
5
F4
100
AcDbEntity
8
1
62
256
6
ByLayer
370
18
48
1
60
0
100
AcDbLine
10
1.11858
20
9.75
30
0
11
0.317758
21
9.75
31
0
39
0
210
0
220
0
230
1
0
LINE
5
F5
100
AcDbEntity
8
1
62
256
6
ByLayer
370
18
48
1
60
0
100
AcDbLine
10
-91.4
20
-10
30
0
11
-91.4
21
9.9
31
0
39
0
210
0
220
0
230
1
0
LINE
5
F6
100
AcDbEntity
8
1
62
256
6
ByLayer
370
18
48
1
60
0
100
AcDbLine
10
0.317758
20
9.75
30
0
11
-1.227723
21
9.75
31
0
39
0
210
0
220
0
230
1
0
LINE
5
F7
100
AcDbEntity
8
1
62
256
6
ByLayer
370
18
48
1
60
0
100
AcDbLine
10
-1.227723
20
9.75
30
0
11
-1.6
21
9.75
31
0
39
0
210
0
220
0
230
1
0
LINE
5
F8
100
AcDbEntity
8
1
62
256
6
ByLayer
370
18
48
1
60
0
100
AcDbLine
10
-91.4
20
9.9
30
0
11
-2.276387
21
9.9
31
0
39
0
210
0
220
0
230
1
0
LINE
5
F9
100
AcDbEntity
8
1
62
256
6
ByLayer
370
18
48
1
60
0
100
AcDbLine
10
0.317758
20
-10
30
0
11
0.366667
21
-10
31
0
39
0
210
0
220
0
230
1
0
LINE
5
FA
100
AcDbEntity
8
1
62
256
6
ByLayer
370
18
48
1
60
0
100
AcDbLine
10
-91.4
20
-10
30
0
11
-1.227723
21
-10
31
0
39
0
210
0
220
0
230
1
0
LINE
5
FB
100
AcDbEntity
8
1
62
256
6
ByLayer
370
18
48
1
60
0
100
AcDbLine
10
-1.227723
20
-10
30
0
11
0.317758
21
-10
31
0
39
0
210
0
220
0
230
1
0
LINE
5
FC
100
AcDbEntity
8
1
62
256
6
ByLayer
370
18
48
1
60
0
100
AcDbLine
10
16.170141
20
-1.559328
30
0
11
16.170141
21
6.15
31
0
39
0
210
0
220
0
230
1
0
LINE
5
FD
100
AcDbEntity
8
1
62
256
6
ByLayer
370
18
48
1
60
0
100
AcDbLine
10
0.366667
20
-10
30
0
11
1.11858
21
-9.598401
31
0
39
0
210
0
220
0
230
1
0
LINE
5
FE
100
AcDbEntity
8
1
62
256
6
ByLayer
370
18
48
1
60
0
100
AcDbLine
10
16.170141
20
-1.559328
30
0
11
6
21
-6.991224
31
0
39
0
210
0
220
0
230
1
0
LINE
5
FF
100
AcDbEntity
8
1
62
256
6
ByLayer
370
18
48
1
60
0
100
AcDbLine
10
6
20
-6.991224
30
0
11
1.11858
21
-9.598401
31
0
39
0
210
0
220
0
230
1
0
LINE
5
100
100
AcDbEntity
8
1
62
256
6
ByLayer
370
18
48
1
60
0
100
AcDbLine
10
29.317283
20
9.75
30
0
11
29.23041
21
9.75
31
0
39
0
210
0
220
0
230
1
0
LINE
5
101
100
AcDbEntity
8
1
62
256
6
ByLayer
370
18
48
1
60
0
100
AcDbLine
10
30.311238
20
9.75
30
0
11
30.242833
21
9.75
31
0
39
0
210
0
220
0
230
1
0
LINE
5
102
100
AcDbEntity
8
1
62
256
6
ByLayer
370
18
48
1
60
0
100
AcDbLine
10
30.475747
20
7.722882
30
0
11
30.559449
21
7.674557
31
0
39
0
210
0
220
0
230
1
0
LINE
5
103
100
AcDbEntity
8
1
62
256
6
ByLayer
370
18
48
1
60
0
100
AcDbLine
10
30.645343
20
7.64829
30
0
11
30.830259
21
7.63536
31
0
39
0
210
0
220
0
230
1
0
LINE
5
104
100
AcDbEntity
8
1
62
256
6
ByLayer
370
18
48
1
60
0
100
AcDbLine
10
31.09812
20
9.871919
30
0
11
31.008193
21
9.871935
31
0
39
0
210
0
220
0
230
1
0
LINE
5
105
100
AcDbEntity
8
1
62
256
6
ByLayer
370
18
48
1
60
0
100
AcDbLine
10
32.158781
20
7.584495
30
0
11
32.358781
21
7.570441
31
0
39
0
210
0
220
0
230
1
0
LINE
5
106
100
AcDbEntity
8
1
62
256
6
ByLayer
370
18
48
1
60
0
100
AcDbLine
10
31.008193
20
7.628065
30
0
11
31.09812
21
7.628081
31
0
39
0
210
0
220
0
230
1
0
LINE
5
107
100
AcDbEntity
8
1
62
256
6
ByLayer
370
18
48
1
60
0
100
AcDbLine
10
30.54752
20
9.824628
30
0
11
30.465402
21
9.777217
31
0
39
0
210
0
220
0
230
1
0
LINE
5
108
100
AcDbEntity
8
1
62
256
6
ByLayer
370
18
48
1
60
0
100
AcDbLine
10
29.23041
20
9.75
30
0
11
29.01185
21
9.75
31
0
39
0
210
0
220
0
230
1
0
LINE
5
109
100
AcDbEntity
8
1
62
256
6
ByLayer
370
18
48
1
60
0
100
AcDbLine
10
33.289249
20
10.000341
30
0
11
33.135516
21
9.990867
31
0
39
0
210
0
220
0
230
1
0
LINE
5
10A
100
AcDbEntity
8
1
62
256
6
ByLayer
370
18
48
1
60
0
100
AcDbLine
10
29.317283
20
7.75
30
0
11
30.242833
21
7.75
31
0
39
0
210
0
220
0
230
1
0
LINE
5
10B
100
AcDbEntity
8
1
62
256
6
ByLayer
370
18
48
1
60
0
100
AcDbLine
10
33.600117
20
9.374579
30
0
11
33.602839
21
9.69637
31
0
39
0
210
0
220
0
230
1
0
LINE
5
10C
100
AcDbEntity
8
1
62
256
6
ByLayer
370
18
48
1
60
0
100
AcDbLine
10
29.23041
20
7.75
30
0
11
29.317283
21
7.75
31
0
39
0
210
0
220
0
230
1
0
LINE
5
10D
100
AcDbEntity
8
1
62
256
6
ByLayer
370
18
48
1
60
0
100
AcDbLine
10
32.358781
20
9.929559
30
0
11
32.158781
21
9.915505
31
0
39
0
210
0
220
0
230
1
0
LINE
5
10E
100
AcDbEntity
8
1
62
256
6
ByLayer
370
18
48
1
60
0
100
AcDbLine
10
32.706077
20
7.543895
30
0
11
33.06476
21
7.514235
31
0
39
0
210
0
220
0
230
1
0
LINE
5
10F
100
AcDbEntity
8
1
62
256
6
ByLayer
370
18
48
1
60
0
100
AcDbLine
10
30.311238
20
9.75
30
0
11
30.363694
21
9.75
31
0
39
0
210
0
220
0
230
1
0
LINE
5
110
100
AcDbEntity
8
1
62
256
6
ByLayer
370
18
48
1
60
0
100
AcDbLine
10
33.602839
20
7.80363
30
0
11
33.600117
21
8.125421
31
0
39
0
210
0
220
0
230
1
0
LINE
5
111
100
AcDbEntity
8
1
62
256
6
ByLayer
370
18
48
1
60
0
100
AcDbLine
10
30.830259
20
9.86464
30
0
11
30.63336
21
9.850872
31
0
39
0
210
0
220
0
230
1
0
LINE
5
112
100
AcDbEntity
8
1
62
256
6
ByLayer
370
18
48
1
60
0
100
AcDbLine
10
30.242833
20
9.75
30
0
11
29.317283
21
9.75
31
0
39
0
210
0
220
0
230
1
0
LINE
5
113
100
AcDbEntity
8
1
62
256
6
ByLayer
370
18
48
1
60
0
100
AcDbLine
10
33.06476
20
9.985765
30
0
11
32.706077
21
9.956105
31
0
39
0
210
0
220
0
230
1
0
LINE
5
114
100
AcDbEntity
8
1
62
256
6
ByLayer
370
18
48
1
60
0
100
AcDbLine
10
30.242833
20
7.75
30
0
11
30.311238
21
7.75
31
0
39
0
210
0
220
0
230
1
0
LINE
5
115
100
AcDbEntity
8
1
62
256
6
ByLayer
370
18
48
1
60
0
100
AcDbLine
10
29.01185
20
7.75
30
0
11
29.23041
21
7.75
31
0
39
0
210
0
220
0
230
1
0
LINE
5
116
100
AcDbEntity
8
1
62
256
6
ByLayer
370
18
48
1
60
0
100
AcDbLine
10
33.6
20
8.153117
30
0
11
33.6
21
9.346883
31
0
39
0
210
0
220
0
230
1
0
LINE
5
117
100
AcDbEntity
8
1
62
256
6
ByLayer
370
18
48
1
60
0
100
AcDbLine
10
33.135516
20
7.509133
30
0
11
33.289249
21
7.499659
31
0
39
0
210
0
220
0
230
1
0
LINE
5
118
100
AcDbEntity
8
1
62
256
6
ByLayer
370
18
48
1
60
0
100
AcDbLine
10
30.37444
20
7.75
30
0
11
30.311238
21
7.75
31
0
39
0
210
0
220
0
230
1
0
LINE
5
119
100
AcDbEntity
8
SK2
62
256
6
ByLayer
370
13
48
1
60
0
100
AcDbLine
10
-101
20
10
30
0
11
-101
21
-10
31
0
39
0
210
0
220
0
230
1
0
LINE
5
11B
100
AcDbEntity
8
SK2
62
256
6
ByLayer
370
13
48
1
60
0
100
AcDbLine
10
-93.4
20
-10
30
0
11
-103
21
-10
31
0
39
0
210
0
220
0
230
1
0
LINE
5
11C
100
AcDbEntity
8
SK2
62
256
6
ByLayer
370
13
48
1
60
0
100
AcDbLine
10
-93.4
20
10
30
0
11
-103
21
10
31
0
39
0
210
0
220
0
230
1
0
LINE
5
11D
100
AcDbEntity
8
SK2
62
256
6
ByLayer
370
18
48
1
60
0
100
AcDbLine
10
-101
20
-10
30
0
11
-101.417997
21
-6.825002
31
0
39
0
210
0
220
0
230
1
0
LINE
5
11E
100
AcDbEntity
8
SK2
62
256
6
ByLayer
370
18
48
1
60
0
100
AcDbLine
10
-101
20
-10
30
0
11
-100.582003
21
-6.824998
31
0
39
0
210
0
220
0
230
1
0
LINE
5
11F
100
AcDbEntity
8
SK2
62
256
6
ByLayer
370
18
48
1
60
0
100
AcDbLine
10
-101.417997
20
-6.825002
30
0
11
-100.582003
21
-6.824998
31
0
39
0
210
0
220
0
230
1
0
LINE
5
120
100
AcDbEntity
8
SK2
62
256
6
ByLayer
370
18
48
1
60
0
100
AcDbLine
10
-101
20
10
30
0
11
-100.582003
21
6.825002
31
0
39
0
210
0
220
0
230
1
0
LINE
5
121
100
AcDbEntity
8
SK2
62
256
6
ByLayer
370
18
48
1
60
0
100
AcDbLine
10
-101
20
10
30
0
11
-101.417997
21
6.824998
31
0
39
0
210
0
220
0
230
1
0
LINE
5
122
100
AcDbEntity
8
SK2
62
256
6
ByLayer
370
18
48
1
60
0
100
AcDbLine
10
-100.582003
20
6.825002
30
0
11
-101.417997
21
6.824998
31
0
39
0
210
0
220
0
230
1
0
MTEXT
5
205
100
AcDbEntity
8
SK6
62
256
6
ByLayer
370
18
48
1
60
0
100
AcDbMText
10
-60.525
20
-50.874555
30
0
210
0
220
0
230
1
1
\W0.7766;QD-RFF26-2020S
40
3.5
41
0
44
1.084337
50
0
71
7
72
5
7
iso_b_vert
0
MTEXT
5
209
100
AcDbEntity
8
SK2
62
256
6
ByLayer
370
18
48
1
60
0
100
AcDbMText
10
-101.875
20
-1.169737
30
0
210
0
220
0
230
1
1
\W0.6740;20
40
3.5
41
0
44
1.084337
50
89.9999999999999
71
7
72
5
7
iso_b_vert
0
DIMENSION
5
218
100
AcDbEntity
8
2
62
256
6
ByLayer
370
13
48
1
60
0
100
AcDbDimension
2
DimnDraft3D1
10
58.7
20
10
30
0
11
58.7
21
-2.090789
31
0
70
32
71
5
72
1
41
1
210
0
220
0
230
1
3
Standard
100
AcDbAlignedDimension
13
9.6
23
-10
33
0
14
35.6
24
10
34
0
50
90
100
AcDbRotatedDimension
1001
ACAD
1000
DSTYLE
1002
{
1070
    74
1070
     0
1070
   279
1070
     0
1070
   172
1070
     1
1070
   173
1070
     1
1070
   340
1005
206
1070
   271
1070
     1
1070
    77
1070
     1
1070
    73
1070
     0
1070
   171
1070
     3
1070
   274
1070
     4
1070
   177
1070
     2
1070
   176
1070
     2
1070
   178
1070
     7
1070
    78
1070
     8
1070
    41
1041
3.175
1070
   147
1041
1.75
1070
    42
1041
2.0
1070
    44
1041
2.0
1070
   140
1041
3.5
1070
   343
1005
219
1070
   344
1005
219
1002
}
0
DIMENSION
5
22D
100
AcDbEntity
8
SK2
62
256
6
ByLayer
370
13
48
1
60
0
100
AcDbDimension
2
DimnDraft3D2
10
33.6
20
32.600889
30
0
11
-31.861184
21
32.600889
31
0
70
32
71
5
72
1
41
1
210
0
220
0
230
1
3
Standard
100
AcDbAlignedDimension
13
-91.4
23
-8
33
0
14
33.6
24
12
34
0
50
0
100
AcDbRotatedDimension
1001
ACAD
1000
DSTYLE
1002
{
1070
   279
1070
     0
1070
   172
1070
     1
1070
   173
1070
     1
1070
   340
1005
206
1070
   271
1070
     1
1070
    77
1070
     1
1070
    73
1070
     0
1070
   171
1070
     3
1070
   274
1070
     4
1070
   177
1070
     2
1070
   176
1070
     2
1070
   178
1070
     7
1070
    78
1070
     8
1070
    41
1041
3.175
1070
   147
1041
1.75
1070
    42
1041
2.0
1070
    44
1041
2.0
1070
   140
1041
3.5
1070
   343
1005
219
1070
   344
1005
219
1002
}
0
DIMENSION
5
23B
100
AcDbEntity
8
2
62
256
6
ByLayer
370
13
48
1
60
0
100
AcDbDimension
2
DimnDraft3D3
10
33.6
20
26.600889
30
0
11
12.692105
21
26.600889
31
0
70
32
71
5
72
1
41
1
210
0
220
0
230
1
3
Standard
100
AcDbAlignedDimension
13
0
23
12
33
0
14
33.6
24
12
34
0
50
0
100
AcDbRotatedDimension
1001
ACAD
1000
DSTYLE
1002
{
1070
   279
1070
     0
1070
   172
1070
     1
1070
   173
1070
     1
1070
   340
1005
206
1070
   271
1070
     1
1070
    77
1070
     1
1070
    73
1070
     0
1070
   171
1070
     3
1070
   274
1070
     4
1070
   177
1070
     2
1070
   176
1070
     2
1070
   178
1070
     7
1070
    78
1070
     8
1070
    41
1041
3.175
1070
   147
1041
1.75
1070
    42
1041
2.0
1070
    44
1041
2.0
1070
   140
1041
3.5
1070
   343
1005
219
1070
   344
1005
219
1002
}
0
DIMENSION
5
249
100
AcDbEntity
8
2
62
256
6
ByLayer
370
13
48
1
60
0
100
AcDbDimension
2
DimnDraft3D4
10
7.6
20
-23.1
30
0
11
18.509211
21
-23.1
31
0
70
32
71
5
72
1
41
1
210
0
220
0
230
1
3
Standard
100
AcDbAlignedDimension
13
33.6
23
8
33
0
14
7.6
24
-12
34
0
50
0
100
AcDbRotatedDimension
1001
ACAD
1000
DSTYLE
1002
{
1070
   279
1070
     0
1070
   172
1070
     1
1070
   173
1070
     1
1070
   340
1005
206
1070
   271
1070
     1
1070
    77
1070
     1
1070
    73
1070
     0
1070
   171
1070
     3
1070
   274
1070
     4
1070
   177
1070
     2
1070
   176
1070
     2
1070
   178
1070
     7
1070
    78
1070
     8
1070
    41
1041
3.175
1070
   147
1041
1.75
1070
    42
1041
2.0
1070
    44
1041
2.0
1070
   140
1041
3.5
1070
   343
1005
219
1070
   344
1005
219
1002
}
0
DIMENSION
5
257
100
AcDbEntity
8
2
62
256
6
ByLayer
370
13
48
1
60
0
100
AcDbDimension
2
DimnDraft3D5
10
51.7
20
7.5
30
0
11
51.7
21
-8.355
31
0
70
32
71
5
72
1
41
1
210
0
220
0
230
1
3
Standard
100
AcDbAlignedDimension
13
35.6
23
10
33
0
14
35.6
24
7.5
34
0
50
90
100
AcDbRotatedDimension
1001
ACAD
1000
DSTYLE
1002
{
1070
    74
1070
     0
1070
   279
1070
     0
1070
   172
1070
     1
1070
   173
1070
     1
1070
   340
1005
206
1070
   271
1070
     1
1070
    77
1070
     1
1070
    73
1070
     0
1070
   171
1070
     3
1070
   274
1070
     4
1070
   177
1070
     2
1070
   176
1070
     2
1070
   178
1070
     7
1070
    78
1070
     8
1070
    41
1041
3.175
1070
   147
1041
1.75
1070
    42
1041
2.0
1070
    44
1041
2.0
1070
   140
1041
3.5
1070
   343
1005
219
1070
   344
1005
219
1002
}
0
ENDSEC
0
SECTION
2
OBJECTS
0
DICTIONARY
5
2c1
330
0
100
AcDbDictionary
280
0
281
1
3
ACAD_GROUP
350
2c2
3
ACAD_MLINESTYLE
350
2c3
0
DICTIONARY
5
2c2
330
0
100
AcDbDictionary
280
0
281
1
0
DICTIONARY
5
2c3
330
0
100
AcDbDictionary
280
0
281
1
3
Standard
350
18
0
MLINESTYLE
5
18
330
2c3
100
AcDbMlineStyle
2
Standard
70
0
3

62
256
51
90
52
90
71
2
49
-0.5
62
256
6
ByLayer
49
0.5
62
256
6
ByLayer
0
RASTERVARIABLES
5
2b0
330

100
AcDbRasterVariables
90
0
70
1
71
1
72
1
0
ENDSEC
0
EOF
