0
SECTION
2
HEADER
9
$ACADVER
1
AC1015
9
$DWGCODEPAGE
3
ANSI_1252
9
$HANDSEED
5
2ec
9
$ANGBASE
50
0
9
$ANGDIR
70
0
9
$ATTMODE
70
1
9
$AUNITS
70
0
9
$AUPREC
70
0
9
$CECOLOR
62
256
9
$CELTSCALE
40
1
9
$CELTYPE
6
ByLayer
9
$CELWEIGHT
370
18
9
$CLAYER
8
0
9
$CMLJUST
70
0
9
$CMLSCALE
40
1
9
$CMLSTYLE
2
Standard
9
$DIMSTYLE
2
Standard
9
$TEXTSIZE
40
0.2
9
$TEXTSTYLE
7
Standard
9
$LUNITS
70
2
9
$LUPREC
70
4
9
$EXTNAMES
290
1
9
$INSUNITS
70
4
9
$LTSCALE
40
1
9
$LWDISPLAY
290
1
9
$PDMODE
70
0
9
$PDSIZE
40
0
9
$PLINEGEN
70
0
0
ENDSEC
0
SECTION
2
CLASSES
0
CLASS
1
RASTERVARIABLES
2
AcDbRasterVariables
3
ISM
90
0
280
0
281
0
0
ENDSEC
0
SECTION
2
TABLES
0
TABLE
2
VPORT
5
2e2
100
AcDbSymbolTable
0
VPORT
5
1
100
AcDbSymbolTableRecord
100
AcDbViewportTableRecord
2
*Active
70
0
10
0
20
0
11
1
21
1
12
-1
22
1
13
0
23
0
14
0.5
24
0.5
15
10
25
10
16
0
26
0
36
1
17
0
27
0
37
0
0
ENDTAB
0
TABLE
2
LTYPE
5
2e3
100
AcDbSymbolTable
0
LTYPE
5
14
100
AcDbSymbolTableRecord
100
AcDbLinetypeTableRecord
70
0
2
ByBlock
3

72
65
73
0
40
0
0
LTYPE
5
15
100
AcDbSymbolTableRecord
100
AcDbLinetypeTableRecord
70
0
2
ByLayer
3

72
65
73
0
40
0
0
LTYPE
5
16
100
AcDbSymbolTableRecord
100
AcDbLinetypeTableRecord
70
0
2
CONTINUOUS
3
Solid line
72
65
73
0
40
0
0
LTYPE
5
6A
100
AcDbSymbolTableRecord
100
AcDbLinetypeTableRecord
70
0
2
CENTER
3
____ _ ____ _ ____ _ ____
72
65
73
4
40
47.5
49
22
74
0
49
-8.5
74
0
49
8.5
74
0
49
-8.5
74
0
0
LTYPE
5
6B
100
AcDbSymbolTableRecord
100
AcDbLinetypeTableRecord
70
0
2
DASHED
3
__ __ __ __ __ __ __ __ __
72
65
73
2
40
25.72
49
12.86
74
0
49
-12.86
74
0
0
ENDTAB
0
TABLE
2
LAYER
5
2e4
100
AcDbSymbolTable
0
LAYER
5
10
100
AcDbSymbolTableRecord
100
AcDbLayerTableRecord
2
0
70
0
62
7
6
CONTINUOUS
290
1
370
-3
390
0
0
LAYER
5
6D
100
AcDbSymbolTableRecord
100
AcDbLayerTableRecord
2
81
70
0
62
-3
6
CONTINUOUS
290
1
370
-3
390
0
0
LAYER
5
6F
100
AcDbSymbolTableRecord
100
AcDbLayerTableRecord
2
80
70
0
62
-6
6
CONTINUOUS
290
1
370
-3
390
0
0
LAYER
5
79
100
AcDbSymbolTableRecord
100
AcDbLayerTableRecord
2
1
70
0
62
4
6
CONTINUOUS
290
1
370
-3
390
0
0
LAYER
5
22A
100
AcDbSymbolTableRecord
100
AcDbLayerTableRecord
2
2
70
0
62
7
6
CONTINUOUS
290
1
370
-3
390
0
0
LAYER
5
2cf
100
AcDbSymbolTableRecord
100
AcDbLayerTableRecord
2
SK1
70
0
62
4
6
CONTINUOUS
290
1
370
-3
390
0
0
LAYER
5
2d0
100
AcDbSymbolTableRecord
100
AcDbLayerTableRecord
2
SK2
70
0
62
7
6
CONTINUOUS
290
1
370
-3
390
0
0
LAYER
5
2d1
100
AcDbSymbolTableRecord
100
AcDbLayerTableRecord
2
SK6
70
0
62
5
6
CONTINUOUS
290
1
370
-3
390
0
0
ENDTAB
0
TABLE
2
STYLE
5
2e5
100
AcDbSymbolTable
0
STYLE
5
11
100
AcDbSymbolTableRecord
100
AcDbTextStyleTableRecord
2
Standard
3
txt
70
0
71
0
40
0
41
1
42
0
50
0
0
STYLE
5
224
100
AcDbSymbolTableRecord
100
AcDbTextStyleTableRecord
2
iso_b_vert
3
simplex.shx
70
0
71
0
40
0
41
1
42
0
50
0
0
STYLE
5
225
100
AcDbSymbolTableRecord
100
AcDbTextStyleTableRecord
2
DWGDirectTextStyle
3
simplex
70
0
71
0
40
0
41
1
42
0
50
0
0
ENDTAB
0
TABLE
2
DIMSTYLE
5
2e6
100
AcDbSymbolTable
100
AcDbDimStyleTable
0
DIMSTYLE
105
27
100
AcDbSymbolTableRecord
100
AcDbDimStyleTableRecord
2
Standard
70
0
3
<>
41
0.18
42
0.0625
44
0.18
140
0.18
147
0.09
73
0
74
0
77
1
271
2
275
0
278
52
280
0
340
11
0
ENDTAB
0
TABLE
2
VIEW
5
2e7
100
AcDbSymbolTable
0
ENDTAB
0
TABLE
2
UCS
5
2e8
100
AcDbSymbolTable
0
ENDTAB
0
TABLE
2
APPID
5
2e9
100
AcDbSymbolTable
0
APPID
5
12
100
AcDbSymbolTableRecord
100
AcDbRegAppTableRecord
2
ACAD
70
0
0
ENDTAB
0
TABLE
2
BLOCK_RECORD
5
2ea
100
AcDbSymbolTable
0
BLOCK_RECORD
5
1F
100
AcDbSymbolTableRecord
100
AcDbBlockTableRecord
2
*Model_Space
340
0
70
0
0
BLOCK_RECORD
5
1B
100
AcDbSymbolTableRecord
100
AcDbBlockTableRecord
2
*Paper_Space
340
0
70
0
0
BLOCK_RECORD
5
23
100
AcDbSymbolTableRecord
100
AcDbBlockTableRecord
2
*Paper_Space0
340
0
70
0
0
BLOCK_RECORD
5
228
100
AcDbSymbolTableRecord
100
AcDbBlockTableRecord
2
DimnDraft3D1
340
0
70
0
0
BLOCK_RECORD
5
237
100
AcDbSymbolTableRecord
100
AcDbBlockTableRecord
2
_CLOSED
340
0
70
0
0
BLOCK_RECORD
5
23E
100
AcDbSymbolTableRecord
100
AcDbBlockTableRecord
2
DimnDraft3D2
340
0
70
0
0
BLOCK_RECORD
5
24C
100
AcDbSymbolTableRecord
100
AcDbBlockTableRecord
2
DimnDraft3D3
340
0
70
0
0
BLOCK_RECORD
5
25A
100
AcDbSymbolTableRecord
100
AcDbBlockTableRecord
2
DimnDraft3D4
340
0
70
0
0
BLOCK_RECORD
5
268
100
AcDbSymbolTableRecord
100
AcDbBlockTableRecord
2
DimnDraft3D5
340
0
70
0
0
ENDTAB
0
ENDSEC
0
SECTION
2
BLOCKS
0
BLOCK
5
20
100
AcDbEntity
8
0
100
AcDbBlockBegin
2
*Model_Space
70
0
10
0
20
0
30
0
3
*Model_Space
0
ENDBLK
5
21
100
AcDbEntity
8
0
100
AcDbBlockEnd
0
BLOCK
5
1C
100
AcDbEntity
8
0
100
AcDbBlockBegin
2
*Paper_Space
70
0
10
0
20
0
30
0
3
*Paper_Space
0
ENDBLK
5
1D
100
AcDbEntity
8
0
100
AcDbBlockEnd
0
BLOCK
5
24
100
AcDbEntity
8
0
100
AcDbBlockBegin
2
*Paper_Space0
70
0
10
0
20
0
30
0
3
*Paper_Space0
0
ENDBLK
5
25
100
AcDbEntity
8
0
100
AcDbBlockEnd
0
BLOCK
5
234
100
AcDbEntity
8
0
100
AcDbBlockBegin
2
DimnDraft3D1
70
0
10
0
20
0
30
0
3
DimnDraft3D1
0
MTEXT
5
229
100
AcDbEntity
8
2
62
256
6
ByLayer
370
18
48
1
60
0
100
AcDbMText
10
54.125
20
-0.715789
30
0
210
0
220
0
230
1
1
\W0.6740;26
40
3.5
41
0
44
1.084337
50
90
71
7
72
5
7
iso_b_vert
0
LINE
5
22B
100
AcDbEntity
8
2
62
256
6
ByLayer
370
13
48
1
60
0
100
AcDbLine
10
11.9
20
-12.5
30
0
11
57
21
-12.5
31
0
39
0
210
0
220
0
230
1
0
LINE
5
22C
100
AcDbEntity
8
2
62
256
6
ByLayer
370
13
48
1
60
0
100
AcDbLine
10
31.9
20
13.5
30
0
11
57
21
13.5
31
0
39
0
210
0
220
0
230
1
0
LINE
5
22D
100
AcDbEntity
8
2
62
256
6
ByLayer
370
13
48
1
60
0
100
AcDbLine
10
55
20
-12.5
30
0
11
55
21
13.5
31
0
39
0
210
0
220
0
230
1
0
LINE
5
22E
100
AcDbEntity
8
2
62
256
6
ByLayer
370
13
48
1
60
0
100
AcDbLine
10
55
20
-12.5
30
0
11
54.582003
21
-9.325002
31
0
39
0
210
0
220
0
230
1
0
LINE
5
22F
100
AcDbEntity
8
2
62
256
6
ByLayer
370
13
48
1
60
0
100
AcDbLine
10
55
20
-12.5
30
0
11
55.417997
21
-9.324998
31
0
39
0
210
0
220
0
230
1
0
LINE
5
230
100
AcDbEntity
8
2
62
256
6
ByLayer
370
13
48
1
60
0
100
AcDbLine
10
54.582003
20
-9.325002
30
0
11
55.417997
21
-9.324998
31
0
39
0
210
0
220
0
230
1
0
LINE
5
231
100
AcDbEntity
8
2
62
256
6
ByLayer
370
13
48
1
60
0
100
AcDbLine
10
55
20
13.5
30
0
11
55.417997
21
10.325002
31
0
39
0
210
0
220
0
230
1
0
LINE
5
232
100
AcDbEntity
8
2
62
256
6
ByLayer
370
13
48
1
60
0
100
AcDbLine
10
55
20
13.5
30
0
11
54.582003
21
10.324998
31
0
39
0
210
0
220
0
230
1
0
LINE
5
233
100
AcDbEntity
8
2
62
256
6
ByLayer
370
13
48
1
60
0
100
AcDbLine
10
55.417997
20
10.325002
30
0
11
54.582003
21
10.324998
31
0
39
0
210
0
220
0
230
1
0
ENDBLK
5
235
100
AcDbEntity
8
0
100
AcDbBlockEnd
0
BLOCK
5
238
100
AcDbEntity
8
0
100
AcDbBlockBegin
2
_CLOSED
70
0
10
0
20
0
30
0
3
_CLOSED
0
LINE
5
23A
100
AcDbEntity
8
0
62
256
6
ByLayer
370
-2
48
1
60
0
100
AcDbLine
10
-1
20
0.166667
30
0
11
0
21
0
31
0
39
0
210
0
220
0
230
1
0
LINE
5
23B
100
AcDbEntity
8
0
62
256
6
ByLayer
370
-2
48
1
60
0
100
AcDbLine
10
0
20
0
30
0
11
-1
21
-0.166667
31
0
39
0
210
0
220
0
230
1
0
LINE
5
23C
100
AcDbEntity
8
0
62
256
6
ByLayer
370
-2
48
1
60
0
100
AcDbLine
10
-1
20
0.166667
30
0
11
-1
21
-0.166667
31
0
39
0
210
0
220
0
230
1
0
LINE
5
23D
100
AcDbEntity
8
0
62
256
6
ByLayer
370
-2
48
1
60
0
100
AcDbLine
10
0
20
0
30
0
11
-1
21
0
31
0
39
0
210
0
220
0
230
1
0
ENDBLK
5
239
100
AcDbEntity
8
0
100
AcDbBlockEnd
0
BLOCK
5
249
100
AcDbEntity
8
0
100
AcDbBlockBegin
2
DimnDraft3D2
70
0
10
0
20
0
30
0
3
DimnDraft3D2
0
MTEXT
5
23F
100
AcDbEntity
8
SK2
62
256
6
ByLayer
370
18
48
1
60
0
100
AcDbMText
10
-47.186184
20
36.975049
30
0
210
0
220
0
230
1
1
\W0.6217;150
40
3.5
41
0
44
1.084337
50
0
71
7
72
5
7
iso_b_vert
0
LINE
5
240
100
AcDbEntity
8
SK2
62
256
6
ByLayer
370
13
48
1
60
0
100
AcDbLine
10
-120.1
20
-10.5
30
0
11
-120.1
21
38.100049
31
0
39
0
210
0
220
0
230
1
0
LINE
5
241
100
AcDbEntity
8
SK2
62
256
6
ByLayer
370
13
48
1
60
0
100
AcDbLine
10
29.9
20
15.5
30
0
11
29.9
21
38.100049
31
0
39
0
210
0
220
0
230
1
0
LINE
5
242
100
AcDbEntity
8
SK2
62
256
6
ByLayer
370
13
48
1
60
0
100
AcDbLine
10
-120.1
20
36.100049
30
0
11
29.9
21
36.100049
31
0
39
0
210
0
220
0
230
1
0
LINE
5
243
100
AcDbEntity
8
SK2
62
256
6
ByLayer
370
13
48
1
60
0
100
AcDbLine
10
-120.1
20
36.100049
30
0
11
-116.925002
21
36.518045
31
0
39
0
210
0
220
0
230
1
0
LINE
5
244
100
AcDbEntity
8
SK2
62
256
6
ByLayer
370
13
48
1
60
0
100
AcDbLine
10
-120.1
20
36.100049
30
0
11
-116.924998
21
35.682052
31
0
39
0
210
0
220
0
230
1
0
LINE
5
245
100
AcDbEntity
8
SK2
62
256
6
ByLayer
370
13
48
1
60
0
100
AcDbLine
10
-116.925002
20
36.518045
30
0
11
-116.924998
21
35.682052
31
0
39
0
210
0
220
0
230
1
0
LINE
5
246
100
AcDbEntity
8
SK2
62
256
6
ByLayer
370
13
48
1
60
0
100
AcDbLine
10
29.9
20
36.100049
30
0
11
26.725002
21
35.682052
31
0
39
0
210
0
220
0
230
1
0
LINE
5
247
100
AcDbEntity
8
SK2
62
256
6
ByLayer
370
13
48
1
60
0
100
AcDbLine
10
29.9
20
36.100049
30
0
11
26.724998
21
36.518045
31
0
39
0
210
0
220
0
230
1
0
LINE
5
248
100
AcDbEntity
8
SK2
62
256
6
ByLayer
370
13
48
1
60
0
100
AcDbLine
10
26.725002
20
35.682052
30
0
11
26.724998
21
36.518045
31
0
39
0
210
0
220
0
230
1
0
ENDBLK
5
24A
100
AcDbEntity
8
0
100
AcDbBlockEnd
0
BLOCK
5
257
100
AcDbEntity
8
0
100
AcDbBlockBegin
2
DimnDraft3D3
70
0
10
0
20
0
30
0
3
DimnDraft3D3
0
MTEXT
5
24D
100
AcDbEntity
8
2
62
256
6
ByLayer
370
18
48
1
60
0
100
AcDbMText
10
11.717105
20
30.975049
30
0
210
0
220
0
230
1
1
\W0.7457;29.9
40
3.5
41
0
44
1.084337
50
0
71
7
72
5
7
iso_b_vert
0
LINE
5
24E
100
AcDbEntity
8
2
62
256
6
ByLayer
370
13
48
1
60
0
100
AcDbLine
10
0
20
14.5
30
0
11
0
21
32.100049
31
0
39
0
210
0
220
0
230
1
0
LINE
5
24F
100
AcDbEntity
8
2
62
256
6
ByLayer
370
13
48
1
60
0
100
AcDbLine
10
29.9
20
15.5
30
0
11
29.9
21
32.100049
31
0
39
0
210
0
220
0
230
1
0
LINE
5
250
100
AcDbEntity
8
2
62
256
6
ByLayer
370
13
48
1
60
0
100
AcDbLine
10
0
20
30.100049
30
0
11
29.9
21
30.100049
31
0
39
0
210
0
220
0
230
1
0
LINE
5
251
100
AcDbEntity
8
2
62
256
6
ByLayer
370
13
48
1
60
0
100
AcDbLine
10
0
20
30.100049
30
0
11
3.174998
21
30.518045
31
0
39
0
210
0
220
0
230
1
0
LINE
5
252
100
AcDbEntity
8
2
62
256
6
ByLayer
370
13
48
1
60
0
100
AcDbLine
10
0
20
30.100049
30
0
11
3.175002
21
29.682052
31
0
39
0
210
0
220
0
230
1
0
LINE
5
253
100
AcDbEntity
8
2
62
256
6
ByLayer
370
13
48
1
60
0
100
AcDbLine
10
3.174998
20
30.518045
30
0
11
3.175002
21
29.682052
31
0
39
0
210
0
220
0
230
1
0
LINE
5
254
100
AcDbEntity
8
2
62
256
6
ByLayer
370
13
48
1
60
0
100
AcDbLine
10
29.9
20
30.100049
30
0
11
26.725002
21
29.682052
31
0
39
0
210
0
220
0
230
1
0
LINE
5
255
100
AcDbEntity
8
2
62
256
6
ByLayer
370
13
48
1
60
0
100
AcDbLine
10
29.9
20
30.100049
30
0
11
26.724998
21
30.518045
31
0
39
0
210
0
220
0
230
1
0
LINE
5
256
100
AcDbEntity
8
2
62
256
6
ByLayer
370
13
48
1
60
0
100
AcDbLine
10
26.725002
20
29.682052
30
0
11
26.724998
21
30.518045
31
0
39
0
210
0
220
0
230
1
0
ENDBLK
5
258
100
AcDbEntity
8
0
100
AcDbBlockEnd
0
BLOCK
5
265
100
AcDbEntity
8
0
100
AcDbBlockBegin
2
DimnDraft3D4
70
0
10
0
20
0
30
0
3
DimnDraft3D4
0
MTEXT
5
25B
100
AcDbEntity
8
2
62
256
6
ByLayer
370
18
48
1
60
0
100
AcDbMText
10
18.684211
20
-24.743324
30
0
210
0
220
0
230
1
1
\W0.6740;20
40
3.5
41
0
44
1.084337
50
0
71
7
72
5
7
iso_b_vert
0
LINE
5
25C
100
AcDbEntity
8
2
62
256
6
ByLayer
370
13
48
1
60
0
100
AcDbLine
10
29.9
20
11.5
30
0
11
29.9
21
-27.618324
31
0
39
0
210
0
220
0
230
1
0
LINE
5
25D
100
AcDbEntity
8
2
62
256
6
ByLayer
370
13
48
1
60
0
100
AcDbLine
10
9.9
20
-14.5
30
0
11
9.9
21
-27.618324
31
0
39
0
210
0
220
0
230
1
0
LINE
5
25E
100
AcDbEntity
8
2
62
256
6
ByLayer
370
13
48
1
60
0
100
AcDbLine
10
29.9
20
-25.618324
30
0
11
9.9
21
-25.618324
31
0
39
0
210
0
220
0
230
1
0
LINE
5
25F
100
AcDbEntity
8
2
62
256
6
ByLayer
370
13
48
1
60
0
100
AcDbLine
10
29.9
20
-25.618324
30
0
11
26.725002
21
-26.036321
31
0
39
0
210
0
220
0
230
1
0
LINE
5
260
100
AcDbEntity
8
2
62
256
6
ByLayer
370
13
48
1
60
0
100
AcDbLine
10
29.9
20
-25.618324
30
0
11
26.724998
21
-25.200328
31
0
39
0
210
0
220
0
230
1
0
LINE
5
261
100
AcDbEntity
8
2
62
256
6
ByLayer
370
13
48
1
60
0
100
AcDbLine
10
26.725002
20
-26.036321
30
0
11
26.724998
21
-25.200328
31
0
39
0
210
0
220
0
230
1
0
LINE
5
262
100
AcDbEntity
8
2
62
256
6
ByLayer
370
13
48
1
60
0
100
AcDbLine
10
9.9
20
-25.618324
30
0
11
13.074998
21
-25.200328
31
0
39
0
210
0
220
0
230
1
0
LINE
5
263
100
AcDbEntity
8
2
62
256
6
ByLayer
370
13
48
1
60
0
100
AcDbLine
10
9.9
20
-25.618324
30
0
11
13.075002
21
-26.036321
31
0
39
0
210
0
220
0
230
1
0
LINE
5
264
100
AcDbEntity
8
2
62
256
6
ByLayer
370
13
48
1
60
0
100
AcDbLine
10
13.074998
20
-25.200328
30
0
11
13.075002
21
-26.036321
31
0
39
0
210
0
220
0
230
1
0
ENDBLK
5
266
100
AcDbEntity
8
0
100
AcDbBlockEnd
0
BLOCK
5
273
100
AcDbEntity
8
0
100
AcDbBlockBegin
2
DimnDraft3D5
70
0
10
0
20
0
30
0
3
DimnDraft3D5
0
MTEXT
5
269
100
AcDbEntity
8
2
62
256
6
ByLayer
370
18
48
1
60
0
100
AcDbMText
10
47.125
20
0.554211
30
0
210
0
220
0
230
1
1
\W0.5404;2
40
3.5
41
0
44
1.084337
50
90
71
7
72
5
7
iso_b_vert
0
LINE
5
26A
100
AcDbEntity
8
2
62
256
6
ByLayer
370
13
48
1
60
0
100
AcDbLine
10
31.9
20
13.5
30
0
11
50
21
13.5
31
0
39
0
210
0
220
0
230
1
0
LINE
5
26B
100
AcDbEntity
8
2
62
256
6
ByLayer
370
13
48
1
60
0
100
AcDbLine
10
31.9
20
11.5
30
0
11
50
21
11.5
31
0
39
0
210
0
220
0
230
1
0
LINE
5
26C
100
AcDbEntity
8
2
62
256
6
ByLayer
370
13
48
1
60
0
100
AcDbLine
10
48
20
-0.320789
30
0
11
48
21
22.25
31
0
39
0
210
0
220
0
230
1
0
LINE
5
26D
100
AcDbEntity
8
2
62
256
6
ByLayer
370
13
48
1
60
0
100
AcDbLine
10
48
20
13.5
30
0
11
47.582003
21
16.674998
31
0
39
0
210
0
220
0
230
1
0
LINE
5
26E
100
AcDbEntity
8
2
62
256
6
ByLayer
370
13
48
1
60
0
100
AcDbLine
10
48
20
13.5
30
0
11
48.417997
21
16.675002
31
0
39
0
210
0
220
0
230
1
0
LINE
5
26F
100
AcDbEntity
8
2
62
256
6
ByLayer
370
13
48
1
60
0
100
AcDbLine
10
47.582003
20
16.674998
30
0
11
48.417997
21
16.675002
31
0
39
0
210
0
220
0
230
1
0
LINE
5
270
100
AcDbEntity
8
2
62
256
6
ByLayer
370
13
48
1
60
0
100
AcDbLine
10
48
20
11.5
30
0
11
48.417997
21
8.325002
31
0
39
0
210
0
220
0
230
1
0
LINE
5
271
100
AcDbEntity
8
2
62
256
6
ByLayer
370
13
48
1
60
0
100
AcDbLine
10
48
20
11.5
30
0
11
47.582003
21
8.324998
31
0
39
0
210
0
220
0
230
1
0
LINE
5
272
100
AcDbEntity
8
2
62
256
6
ByLayer
370
13
48
1
60
0
100
AcDbLine
10
48.417997
20
8.325002
30
0
11
47.582003
21
8.324998
31
0
39
0
210
0
220
0
230
1
0
ENDBLK
5
274
100
AcDbEntity
8
0
100
AcDbBlockEnd
0
ENDSEC
0
SECTION
2
ENTITIES
0
ARC
5
135
100
AcDbEntity
8
SK1
62
256
6
ByLayer
370
18
48
1
60
0
100
AcDbCircle
39
0
10
1.227723
20
13.975
30
0
40
1.60000000000008
210
0
220
0
230
-1
100
AcDbArc
50
225.184432
51
270
0
ARC
5
136
100
AcDbEntity
8
1
62
256
6
ByLayer
370
18
48
1
60
0
100
AcDbCircle
39
0
10
1.227723
20
13.975
30
0
40
1.59999999997397
210
0
220
0
230
-1
100
AcDbArc
50
206.944358
51
225.184432
0
ARC
5
137
100
AcDbEntity
8
1
62
256
6
ByLayer
370
18
48
1
60
0
100
AcDbCircle
39
0
10
7.6
20
10.15
30
0
40
1.6
210
0
220
0
230
1
100
AcDbArc
50
90
51
180
0
ARC
5
138
100
AcDbEntity
8
1
62
256
6
ByLayer
370
18
48
1
60
0
100
AcDbCircle
39
0
10
7.6
20
10.15
30
0
40
1.6
210
0
220
0
230
1
100
AcDbArc
50
90
51
180
0
ARC
5
139
100
AcDbEntity
8
1
62
256
6
ByLayer
370
18
48
1
60
0
100
AcDbCircle
39
0
10
1.227723
20
13.975
30
0
40
1.60000000000026
210
0
220
0
230
-1
100
AcDbArc
50
206.944358
51
270
0
ELLIPSE
5
13A
100
AcDbEntity
8
SK1
62
256
6
ByLayer
370
18
48
1
60
0
100
AcDbEllipse
10
-1.227723
20
-12.506981
30
0
11
1.59999999999964
21
1.61702248813142E-15
31
0
210
0
220
0
230
-1
40
0.004363
41
-1.5707963267949
42
-0.788617102648959
0
ELLIPSE
5
13B
100
AcDbEntity
8
1
62
256
6
ByLayer
370
18
48
1
60
0
100
AcDbEllipse
10
-1.227723
20
-12.506981
30
0
11
1.59999999995012
21
1.61702248808137E-15
31
0
210
0
220
0
230
-1
40
0.004363
41
-0.788617102660601
42
-0.261799387798571
0
ELLIPSE
5
13C
100
AcDbEntity
8
1
62
256
6
ByLayer
370
13
48
1
60
0
100
AcDbEllipse
10
21.974248
20
13.369586
30
0
11
0.998914191206393
21
-0.226032306434756
31
0
210
0
220
0
230
-1
40
0.206112
41
1.87325735051603
42
2.07998265368279
0
ELLIPSE
5
13D
100
AcDbEntity
8
1
62
256
6
ByLayer
370
13
48
1
60
0
100
AcDbEllipse
10
29.27413
20
12.5
30
0
11
-6.1541317860938
21
7.53638888751072E-16
31
0
210
0
220
0
230
1
40
0.121869
41
1.12302990717099
42
1.18682389135614
0
ELLIPSE
5
13E
100
AcDbEntity
8
1
62
256
6
ByLayer
370
13
48
1
60
0
100
AcDbEllipse
10
29.27413
20
12.5
30
0
11
-6.1541317860938
21
7.53638888751072E-16
31
0
210
0
220
0
230
1
40
0.121869
41
-1.18682389135615
42
-1.12302990717099
0
ELLIPSE
5
13F
100
AcDbEntity
8
1
62
256
6
ByLayer
370
13
48
1
60
0
100
AcDbEllipse
10
29.27413
20
12.5
30
0
11
6.11757100421471
21
-1.03045062467393E-09
31
0
210
0
220
0
230
-1
40
0.073559
41
-2.06016834867194
42
-1.95476876356964
0
ELLIPSE
5
140
100
AcDbEntity
8
1
62
256
6
ByLayer
370
13
48
1
60
0
100
AcDbEllipse
10
29.27413
20
12.5
30
0
11
6.11757104640044
21
3.04530330863573E-09
31
0
210
0
220
0
230
-1
40
0.073559
41
1.95476876608766
42
2.06016835057
0
ELLIPSE
5
141
100
AcDbEntity
8
1
62
256
6
ByLayer
370
13
48
1
60
0
100
AcDbEllipse
10
26.973627
20
12.5
30
0
11
1.22363010761299
21
-1.31255627219945E-10
31
0
210
0
220
0
230
-1
40
0.367758
41
-2.41547853536019
42
-2.06016834785639
0
ELLIPSE
5
142
100
AcDbEntity
8
1
62
256
6
ByLayer
370
13
48
1
60
0
100
AcDbEllipse
10
26.686071
20
12.5
30
0
11
0.899729522552461
21
0.0397735691149981
31
0
210
0
220
0
230
-1
40
0.498193
41
-1.09832268609065
42
-1.00525798480694
0
ELLIPSE
5
143
100
AcDbEntity
8
1
62
256
6
ByLayer
370
13
48
1
60
0
100
AcDbEllipse
10
26.686071
20
12.5
30
0
11
0.899729509049498
21
-0.0397735621856765
31
0
210
0
220
0
230
-1
40
0.498193
41
1.00525799301125
42
1.09832269544085
0
ELLIPSE
5
144
100
AcDbEntity
8
1
62
256
6
ByLayer
370
13
48
1
60
0
100
AcDbEllipse
10
26.973627
20
12.5
30
0
11
1.22363010706637
21
1.23664837517589E-15
31
0
210
0
220
0
230
-1
40
0.367758
41
2.06016834763588
42
2.41547853526137
0
ELLIPSE
5
145
100
AcDbEntity
8
1
62
256
6
ByLayer
370
13
48
1
60
0
100
AcDbEllipse
10
28.433781
20
11.61922
30
0
11
0.0220590948837
21
0.238984092217269
31
0
210
0
220
0
230
1
40
0.006427
41
0.70483852440799
42
1.50127915029158
0
ELLIPSE
5
146
100
AcDbEntity
8
1
62
256
6
ByLayer
370
13
48
1
60
0
100
AcDbEllipse
10
27.208716
20
11.852384
30
0
11
-0.0309022559569112
21
-0.238002207083828
31
0
210
0
220
0
230
1
40
0.697921
41
1.71098898168886
42
2.36528722147379
0
ELLIPSE
5
147
100
AcDbEntity
8
1
62
256
6
ByLayer
370
13
48
1
60
0
100
AcDbEllipse
10
27.208716
20
13.147616
30
0
11
0.0309022559561243
21
-0.238002207083931
31
0
210
0
220
0
230
1
40
0.697921
41
0.776305432118494
42
1.43060367190734
0
ELLIPSE
5
148
100
AcDbEntity
8
1
62
256
6
ByLayer
370
13
48
1
60
0
100
AcDbEllipse
10
28.433781
20
13.38078
30
0
11
0.0220590948836999
21
-0.238984092217269
31
0
210
0
220
0
230
1
40
0.006427
41
-1.50127915029036
42
-0.70483852440799
0
ELLIPSE
5
149
100
AcDbEntity
8
1
62
256
6
ByLayer
370
13
48
1
60
0
100
AcDbEllipse
10
27.052761
20
13.199524
30
0
11
-0.102096483414469
21
-0.282092729566714
31
0
210
0
220
0
230
1
40
0.694069
41
0.542728458704357
42
1.76594516923873
0
ELLIPSE
5
14A
100
AcDbEntity
8
1
62
256
6
ByLayer
370
13
48
1
60
0
100
AcDbEllipse
10
27.052761
20
11.800476
30
0
11
0.10209648341447
21
-0.282092729566714
31
0
210
0
220
0
230
1
40
0.694069
41
1.37564748435105
42
2.59886419488545
0
ELLIPSE
5
14B
100
AcDbEntity
8
1
62
256
6
ByLayer
370
13
48
1
60
0
100
AcDbEllipse
10
26.38984
20
13.029577
30
0
11
0.0373781701033243
21
-0.145268277334479
31
0
210
0
220
0
230
1
40
0.332441
41
-1.65612709011245
42
-0.517494909403788
0
ELLIPSE
5
14C
100
AcDbEntity
8
1
62
256
6
ByLayer
370
13
48
1
60
0
100
AcDbEllipse
10
26.38984
20
11.970423
30
0
11
0.0373781701033242
21
0.145268277334479
31
0
210
0
220
0
230
1
40
0.332441
41
0.517494909403777
42
1.6561270901123
0
ELLIPSE
5
14D
100
AcDbEntity
8
1
62
256
6
ByLayer
370
13
48
1
60
0
100
AcDbEllipse
10
26.922324
20
12.5
30
0
11
1.24191050856526
21
1.25512326287325E-15
31
0
210
0
220
0
230
-1
40
0.483127
41
2.06016834763924
42
2.41547853527115
0
ELLIPSE
5
14E
100
AcDbEntity
8
1
62
256
6
ByLayer
370
13
48
1
60
0
100
AcDbEllipse
10
26.922324
20
12.5
30
0
11
1.24191050853656
21
1.25512326284425E-15
31
0
210
0
220
0
230
-1
40
0.483127
41
-2.4154785352733
42
-2.06016834763289
0
ELLIPSE
5
14F
100
AcDbEntity
8
1
62
256
6
ByLayer
370
13
48
1
60
0
100
AcDbEllipse
10
26.897945
20
12.485184
30
0
11
0.84701770262621
21
0.19630403537063
31
0
210
0
220
0
230
-1
40
0.854591
41
-0.922000606875881
42
-0.792533402151136
0
ELLIPSE
5
150
100
AcDbEntity
8
1
62
256
6
ByLayer
370
13
48
1
60
0
100
AcDbEllipse
10
26.897945
20
12.514816
30
0
11
0.847017704152899
21
-0.196304042890498
31
0
210
0
220
0
230
-1
40
0.854591
41
0.792533394167326
42
0.922000598561635
0
ELLIPSE
5
151
100
AcDbEntity
8
1
62
256
6
ByLayer
370
13
48
1
60
0
100
AcDbEllipse
10
27.06419
20
13.195388
30
0
11
-0.102096483414469
21
-0.282092729566714
31
0
210
0
220
0
230
1
40
0.694069
41
0.542728458704357
42
1.76594516923879
0
ELLIPSE
5
152
100
AcDbEntity
8
1
62
256
6
ByLayer
370
13
48
1
60
0
100
AcDbEllipse
10
27.161247
20
13.153295
30
0
11
0.136500727004937
21
0.267147059738871
31
0
210
0
220
0
230
1
40
0.677974
41
-1.35487317172662
42
-1.28974538225855
0
ELLIPSE
5
153
100
AcDbEntity
8
1
62
256
6
ByLayer
370
13
48
1
60
0
100
AcDbEllipse
10
27.161247
20
11.846705
30
0
11
-0.136500727005176
21
0.267147059738748
31
0
210
0
220
0
230
1
40
0.677974
41
-1.85184727133185
42
-1.78671948186543
0
ELLIPSE
5
154
100
AcDbEntity
8
1
62
256
6
ByLayer
370
13
48
1
60
0
100
AcDbEllipse
10
27.06419
20
11.804612
30
0
11
0.10209648341447
21
-0.282092729566714
31
0
210
0
220
0
230
1
40
0.694069
41
1.37564748435103
42
2.59886419488533
0
ELLIPSE
5
155
100
AcDbEntity
8
1
62
256
6
ByLayer
370
13
48
1
60
0
100
AcDbEllipse
10
26.044976
20
12.101619
30
0
11
0.0716898187946788
21
0.131759515334514
31
0
210
0
220
0
230
1
40
0.304525
41
0.893380334283835
42
1.73499558700919
0
ELLIPSE
5
156
100
AcDbEntity
8
1
62
256
6
ByLayer
370
13
48
1
60
0
100
AcDbEllipse
10
26.044976
20
12.898381
30
0
11
0.0716898187935411
21
-0.131759515335133
31
0
210
0
220
0
230
1
40
0.304525
41
-1.734995586974
42
-0.893380334272656
0
ELLIPSE
5
157
100
AcDbEntity
8
1
62
256
6
ByLayer
370
13
48
1
60
0
100
AcDbEllipse
10
27.168095
20
11.86856
30
0
11
0.171518916221875
21
0.16787275353098
31
0
210
0
220
0
230
1
40
0.082052
41
0.518298817417084
42
0.779655640506395
0
ELLIPSE
5
158
100
AcDbEntity
8
1
62
256
6
ByLayer
370
13
48
1
60
0
100
AcDbEllipse
10
27.202479
20
11.853337
30
0
11
0.0417762271290194
21
0.236336088752574
31
0
210
0
220
0
230
1
40
0.675324
41
-1.34029986666134
42
-0.746155527792863
0
ELLIPSE
5
159
100
AcDbEntity
8
1
62
256
6
ByLayer
370
13
48
1
60
0
100
AcDbEllipse
10
27.202479
20
13.146663
30
0
11
-0.0417762271294201
21
0.236336088752503
31
0
210
0
220
0
230
1
40
0.675324
41
-2.39543712579791
42
-1.8012927869314
0
ELLIPSE
5
15A
100
AcDbEntity
8
1
62
256
6
ByLayer
370
13
48
1
60
0
100
AcDbEllipse
10
28.191288
20
12.206548
30
0
11
-0.114657467550524
21
-0.383214907245139
31
0
210
0
220
0
230
1
40
0.149521
41
-1.52608952887375
42
-0.632305349725033
0
ELLIPSE
5
15B
100
AcDbEntity
8
1
62
256
6
ByLayer
370
13
48
1
60
0
100
AcDbEllipse
10
26.076259
20
12.979243
30
0
11
0.111438992389702
21
0.278534290483538
31
0
210
0
220
0
230
1
40
0.391057
41
-2.99672437051159
42
-2.16330924043531
0
ELLIPSE
5
15C
100
AcDbEntity
8
1
62
256
6
ByLayer
370
13
48
1
60
0
100
AcDbEllipse
10
26.076259
20
12.020757
30
0
11
-0.111438992389677
21
0.278534290483548
31
0
210
0
220
0
230
1
40
0.391057
41
-0.978283413154624
42
-0.144868283078344
0
ELLIPSE
5
15D
100
AcDbEntity
8
1
62
256
6
ByLayer
370
13
48
1
60
0
100
AcDbEllipse
10
27.152499
20
11.92942
30
0
11
0.29766898486033
21
0.0373252656014786
31
0
210
0
220
0
230
1
40
0.756445
41
0.856307358412547
42
1.39678515212256
0
ELLIPSE
5
15E
100
AcDbEntity
8
1
62
256
6
ByLayer
370
13
48
1
60
0
100
AcDbEllipse
10
27.152499
20
13.07058
30
0
11
-0.297668984860324
21
0.0373252656015258
31
0
210
0
220
0
230
1
40
0.756445
41
1.74480750146724
42
2.28528529517737
0
ELLIPSE
5
15F
100
AcDbEntity
8
1
62
256
6
ByLayer
370
13
48
1
60
0
100
AcDbEllipse
10
28.191288
20
12.793452
30
0
11
-0.114657467550524
21
0.383214907245139
31
0
210
0
220
0
230
1
40
0.149521
41
0.632305349724999
42
1.5260895288737
0
ELLIPSE
5
160
100
AcDbEntity
8
1
62
256
6
ByLayer
370
13
48
1
60
0
100
AcDbEllipse
10
25.948488
20
12.116805
30
0
11
-0.0204696158072206
21
0.148596752416413
31
0
210
0
220
0
230
1
40
0.33919
41
0.367590503029301
42
1.5241058915964
0
ELLIPSE
5
161
100
AcDbEntity
8
1
62
256
6
ByLayer
370
13
48
1
60
0
100
AcDbEllipse
10
25.948488
20
12.883195
30
0
11
0.0204696158039751
21
0.14859675241686
31
0
210
0
220
0
230
1
40
0.33919
41
1.61748676198874
42
2.77400215055223
0
ELLIPSE
5
162
100
AcDbEntity
8
1
62
256
6
ByLayer
370
13
48
1
60
0
100
AcDbEllipse
10
26.067717
20
12.982663
30
0
11
0.111594752970791
21
0.278471921581671
31
0
210
0
220
0
230
1
40
0.394318
41
-2.99660724386032
42
-2.16841033890638
0
ELLIPSE
5
163
100
AcDbEntity
8
1
62
256
6
ByLayer
370
13
48
1
60
0
100
AcDbEllipse
10
26.067717
20
12.017337
30
0
11
-0.111594752970814
21
0.278471921581661
31
0
210
0
220
0
230
1
40
0.394318
41
-0.973182314683535
42
-0.144985409729697
0
ELLIPSE
5
164
100
AcDbEntity
8
1
62
256
6
ByLayer
370
13
48
1
60
0
100
AcDbEllipse
10
25.914981
20
12.893907
30
0
11
0.0722486702513559
21
0.131453906929048
31
0
210
0
220
0
230
1
40
0.303884
41
1.7362873549583
42
2.71919261109665
0
ELLIPSE
5
165
100
AcDbEntity
8
1
62
256
6
ByLayer
370
13
48
1
60
0
100
AcDbEllipse
10
25.914981
20
12.106093
30
0
11
-0.0722486702265449
21
0.131453906942685
31
0
210
0
220
0
230
1
40
0.303884
41
0.42240004219509
42
1.40530529868886
0
ELLIPSE
5
166
100
AcDbEntity
8
1
62
256
6
ByLayer
370
13
48
1
60
0
100
AcDbEllipse
10
27.193937
20
12.369004
30
0
11
0.288517367888856
21
-0.0822054038764276
31
0
210
0
220
0
230
1
40
0.201316
41
0.955679576570811
42
1.50320190071237
0
ELLIPSE
5
167
100
AcDbEntity
8
1
62
256
6
ByLayer
370
13
48
1
60
0
100
AcDbEllipse
10
25.892833
20
12.912554
30
0
11
0.122999586129777
21
0.0858551210581151
31
0
210
0
220
0
230
1
40
0.203946
41
1.85506502495917
42
2.6187424793865
0
ELLIPSE
5
168
100
AcDbEntity
8
1
62
256
6
ByLayer
370
13
48
1
60
0
100
AcDbEllipse
10
25.892833
20
12.087446
30
0
11
-0.122999586130244
21
0.0858551210574456
31
0
210
0
220
0
230
1
40
0.203946
41
0.522850174197116
42
1.28652762863012
0
ELLIPSE
5
169
100
AcDbEntity
8
1
62
256
6
ByLayer
370
13
48
1
60
0
100
AcDbEllipse
10
27.193937
20
12.630996
30
0
11
-0.288517367888757
21
-0.0822054038767749
31
0
210
0
220
0
230
1
40
0.201316
41
1.63839075288008
42
2.18591307702123
0
ELLIPSE
5
16A
100
AcDbEntity
8
1
62
256
6
ByLayer
370
13
48
1
60
0
100
AcDbEllipse
10
25.878252
20
12.938419
30
0
11
0.136631968823999
21
0.0619007681315656
31
0
210
0
220
0
230
1
40
0.148534
41
1.88760878179952
42
2.74962710514687
0
ELLIPSE
5
16B
100
AcDbEntity
8
1
62
256
6
ByLayer
370
13
48
1
60
0
100
AcDbEllipse
10
25.878252
20
12.061581
30
0
11
0.136631968824137
21
-0.0619007681312608
31
0
210
0
220
0
230
1
40
0.148534
41
-2.74962710515912
42
-1.88760878179968
0
ELLIPSE
5
16C
100
AcDbEntity
8
1
62
256
6
ByLayer
370
13
48
1
60
0
100
AcDbEllipse
10
25.738501
20
11.774562
30
0
11
0.132407679423122
21
-0.0704855051041258
31
0
210
0
220
0
230
1
40
0.168583
41
-2.61018272665955
42
-1.87748899426541
0
ELLIPSE
5
16D
100
AcDbEntity
8
1
62
256
6
ByLayer
370
13
48
1
60
0
100
AcDbEllipse
10
25.738501
20
13.225438
30
0
11
0.132407679423122
21
0.0704855051041255
31
0
210
0
220
0
230
1
40
0.168583
41
1.87748899426516
42
2.61018272665897
0
ELLIPSE
5
16E
100
AcDbEntity
8
1
62
256
6
ByLayer
370
13
48
1
60
0
100
AcDbEllipse
10
25.942406
20
12.930874
30
0
11
-0.0486052519780795
21
-0.194003941919095
31
0
210
0
220
0
230
1
40
0.669878
41
-0.55392855880346
42
-0.205864067887627
0
ELLIPSE
5
16F
100
AcDbEntity
8
1
62
256
6
ByLayer
370
13
48
1
60
0
100
AcDbEllipse
10
25.922373
20
12.933936
30
0
11
5.665498452323E-17
21
0.2
31
0
210
0
220
0
230
1
40
0.909654
41
1.90677220782003
42
2.7252107293006
0
ELLIPSE
5
170
100
AcDbEntity
8
1
62
256
6
ByLayer
370
13
48
1
60
0
100
AcDbEllipse
10
25.922373
20
12.066064
30
0
11
5.665498452323E-17
21
0.2
31
0
210
0
220
0
230
1
40
0.909654
41
0.416381924289052
42
1.23482044577494
0
ELLIPSE
5
171
100
AcDbEntity
8
1
62
256
6
ByLayer
370
13
48
1
60
0
100
AcDbEllipse
10
25.942406
20
12.069126
30
0
11
-0.0486052519780804
21
0.194003941919095
31
0
210
0
220
0
230
1
40
0.669878
41
0.205864067887425
42
0.553928558476581
0
ELLIPSE
5
172
100
AcDbEntity
8
1
62
256
6
ByLayer
370
13
48
1
60
0
100
AcDbEllipse
10
25.738501
20
13.225438
30
0
11
4.24912383924225E-17
21
0.15
31
0
210
0
220
0
230
1
40
0.848573
41
1.5707963267949
42
1.90677220780389
0
ELLIPSE
5
173
100
AcDbEntity
8
1
62
256
6
ByLayer
370
13
48
1
60
0
100
AcDbEllipse
10
25.738501
20
11.774562
30
0
11
4.24912383924225E-17
21
0.15
31
0
210
0
220
0
230
1
40
0.848573
41
1.23482044578598
42
1.5707963267949
0
ELLIPSE
5
174
100
AcDbEntity
8
1
62
256
6
ByLayer
370
13
48
1
60
0
100
AcDbEllipse
10
25.434034
20
12.933936
30
0
11
5.665498452323E-17
21
0.2
31
0
210
0
220
0
230
1
40
0.34202
41
1.90677220780374
42
2.72521072930036
0
ELLIPSE
5
175
100
AcDbEntity
8
1
62
256
6
ByLayer
370
13
48
1
60
0
100
AcDbEllipse
10
25.434034
20
12.066064
30
0
11
-3.67381906146713E-17
21
-0.2
31
0
210
0
220
0
230
1
40
0.34202
41
-2.72521072930036
42
-1.90677220780374
0
ELLIPSE
5
176
100
AcDbEntity
8
1
62
256
6
ByLayer
370
13
48
1
60
0
100
AcDbEllipse
10
25.68303
20
10.419859
30
0
11
-3.67381906146715E-16
21
-2.00000000000001
31
0
210
0
220
0
230
1
40
0.34202
41
-2.79252680319096
42
-2.72521072930059
0
ELLIPSE
5
177
100
AcDbEntity
8
1
62
256
6
ByLayer
370
13
48
1
60
0
100
AcDbEllipse
10
25.68303
20
14.580141
30
0
11
5.66549845232303E-16
21
2.00000000000001
31
0
210
0
220
0
230
1
40
0.34202
41
2.72521072930059
42
2.79252680319096
0
ELLIPSE
5
178
100
AcDbEntity
8
1
62
256
6
ByLayer
370
13
48
1
60
0
100
AcDbEllipse
10
25.381103
20
11.774562
30
0
11
-2.75536429610035E-17
21
-0.15
31
0
210
0
220
0
230
1
40
0.34202
41
-1.90677220780369
42
-1.5707963267949
0
ELLIPSE
5
179
100
AcDbEntity
8
1
62
256
6
ByLayer
370
13
48
1
60
0
100
AcDbEllipse
10
25.381103
20
13.225438
30
0
11
4.24912383924225E-17
21
0.15
31
0
210
0
220
0
230
1
40
0.34202
41
1.5707963267949
42
1.90677220780369
0
ELLIPSE
5
17A
100
AcDbEntity
8
1
62
256
6
ByLayer
370
13
48
1
60
0
100
AcDbEllipse
10
29.122654
20
13.391305
30
0
11
0.00588101291965487
21
-0.239927934361631
31
0
210
0
220
0
230
1
40
0.175234
41
-1.50631558565103
42
-0.750535400473582
0
ELLIPSE
5
17B
100
AcDbEntity
8
1
62
256
6
ByLayer
370
13
48
1
60
0
100
AcDbEllipse
10
29.122654
20
11.608695
30
0
11
0.00588101291965508
21
0.239927934361631
31
0
210
0
220
0
230
1
40
0.175234
41
0.750535400473072
42
1.50631558565103
0
ELLIPSE
5
17C
100
AcDbEntity
8
1
62
256
6
ByLayer
370
13
48
1
60
0
100
AcDbEllipse
10
25.427723
20
12.5
30
0
11
5.94877337493915E-17
21
0.21
31
0
210
0
220
0
230
1
40
0.34202
41
-2.7925268031909
42
-0.349065850398889
0
ELLIPSE
5
17D
100
AcDbEntity
8
1
62
256
6
ByLayer
370
13
48
1
60
0
100
AcDbEllipse
10
29.813506
20
11.961955
30
0
11
-0.0833195870797989
21
0.0552977975045282
31
0
210
0
220
0
230
1
40
0.125168
41
-1.63384778655094
42
-1.00901921834433
0
ELLIPSE
5
17E
100
AcDbEntity
8
1
62
256
6
ByLayer
370
13
48
1
60
0
100
AcDbEllipse
10
29.341387
20
12.852129
30
0
11
0.0115886927836045
21
-0.399832092508302
31
0
210
0
220
0
230
1
40
0.406594
41
1.55901218905987
42
2.32325251776611
0
ELLIPSE
5
17F
100
AcDbEntity
8
1
62
256
6
ByLayer
370
13
48
1
60
0
100
AcDbEllipse
10
29.341387
20
12.147871
30
0
11
0.0115886927836044
21
0.399832092508302
31
0
210
0
220
0
230
1
40
0.406594
41
-2.3232525177661
42
-1.55901218905987
0
ELLIPSE
5
180
100
AcDbEntity
8
1
62
256
6
ByLayer
370
13
48
1
60
0
100
AcDbEllipse
10
29.65209
20
11.812207
30
0
11
-0.0532002340369041
21
0.0846742882959086
31
0
210
0
220
0
230
1
40
0.139782
41
-1.576847893878
42
-0.739654044676549
0
ELLIPSE
5
181
100
AcDbEntity
8
1
62
256
6
ByLayer
370
13
48
1
60
0
100
AcDbEllipse
10
29.65209
20
13.187793
30
0
11
-0.0532002340369042
21
-0.0846742882959085
31
0
210
0
220
0
230
1
40
0.139782
41
0.739654044678775
42
1.57684789387807
0
ELLIPSE
5
182
100
AcDbEntity
8
1
62
256
6
ByLayer
370
13
48
1
60
0
100
AcDbEllipse
10
29.813506
20
13.038045
30
0
11
-0.0833195870797989
21
-0.0552977975045282
31
0
210
0
220
0
230
1
40
0.125168
41
1.00901921834427
42
1.63384778655075
0
ELLIPSE
5
183
100
AcDbEntity
8
1
62
256
6
ByLayer
370
13
48
1
60
0
100
AcDbEllipse
10
29.498358
20
11.699622
30
0
11
0.0768343605824262
21
-0.0640037579669329
31
0
210
0
220
0
230
1
40
0.131171
41
1.52167934605455
42
1.98237212656383
0
ELLIPSE
5
184
100
AcDbEntity
8
1
62
256
6
ByLayer
370
13
48
1
60
0
100
AcDbEllipse
10
29.594545
20
11.776324
30
0
11
-0.0526170259943807
21
0.0850379243367727
31
0
210
0
220
0
230
1
40
0.13982
41
-1.57588705481501
42
-0.737799907001994
0
ELLIPSE
5
185
100
AcDbEntity
8
1
62
256
6
ByLayer
370
13
48
1
60
0
100
AcDbEllipse
10
29.498358
20
13.300378
30
0
11
0.0768343605824262
21
0.0640037579669328
31
0
210
0
220
0
230
1
40
0.131171
41
-1.98237212656414
42
-1.52167934605434
0
ELLIPSE
5
186
100
AcDbEntity
8
1
62
256
6
ByLayer
370
13
48
1
60
0
100
AcDbEllipse
10
29.594545
20
13.223676
30
0
11
-0.0526170259943807
21
-0.0850379243367726
31
0
210
0
220
0
230
1
40
0.13982
41
0.737799907001994
42
1.57588705481515
0
ELLIPSE
5
187
100
AcDbEntity
8
1
62
256
6
ByLayer
370
13
48
1
60
0
100
AcDbEllipse
10
28.733781
20
13.383503
30
0
11
-0.00779618045171942
21
-0.239873340682878
31
0
210
0
220
0
230
1
40
0.002272
41
0.730980747429414
42
1.50102006034287
0
ELLIPSE
5
188
100
AcDbEntity
8
1
62
256
6
ByLayer
370
13
48
1
60
0
100
AcDbEllipse
10
29.835851
20
11.996575
30
0
11
-0.0846406472330468
21
0.0532537401125117
31
0
210
0
220
0
230
1
40
0.065248
41
-1.67413113259364
42
-1.04586785899545
0
ELLIPSE
5
189
100
AcDbEntity
8
1
62
256
6
ByLayer
370
13
48
1
60
0
100
AcDbEllipse
10
28.733781
20
11.616497
30
0
11
-0.00779618045171957
21
0.239873340682878
31
0
210
0
220
0
230
1
40
0.002272
41
-1.50102006033926
42
-0.730980747429493
0
ELLIPSE
5
18A
100
AcDbEntity
8
1
62
256
6
ByLayer
370
13
48
1
60
0
100
AcDbEllipse
10
29.835851
20
13.003425
30
0
11
-0.0846406472330468
21
-0.0532537401125116
31
0
210
0
220
0
230
1
40
0.065248
41
1.04586785899545
42
1.6741311325929
0
ELLIPSE
5
18B
100
AcDbEntity
8
1
62
256
6
ByLayer
370
13
48
1
60
0
100
AcDbEllipse
10
21.974248
20
11.630414
30
0
11
0.979582052391202
21
0.301726209244952
31
0
210
0
220
0
230
-1
40
0.270086
41
-2.11639244202697
42
-1.9880759026646
0
ELLIPSE
5
18C
100
AcDbEntity
8
1
62
256
6
ByLayer
370
13
48
1
60
0
100
AcDbEllipse
10
21.974248
20
11.630414
30
0
11
0.998914192406243
21
0.226032306541786
31
0
210
0
220
0
230
-1
40
0.206112
41
-2.07998265396491
42
-1.87325735100836
0
ELLIPSE
5
18D
100
AcDbEntity
8
1
62
256
6
ByLayer
370
13
48
1
60
0
100
AcDbEllipse
10
21.974248
20
13.369586
30
0
11
0.979582054033878
21
-0.301726209427887
31
0
210
0
220
0
230
-1
40
0.270086
41
1.98807590327975
42
2.11639244246857
0
ELLIPSE
5
18E
100
AcDbEntity
8
1
62
256
6
ByLayer
370
18
48
1
60
0
100
AcDbEllipse
10
-1.227723
20
-12.506981
30
0
11
1.59999999999996
21
1.61702248813174E-15
31
0
210
0
220
0
230
-1
40
0.004363
41
-1.5707963267949
42
-0.261799387798662
0
ELLIPSE
5
18F
100
AcDbEntity
8
1
62
256
6
ByLayer
370
18
48
1
60
0
100
AcDbEllipse
10
29.481337
20
11.523913
30
0
11
0.23999827781475
21
-0.0147981978474409
31
0
210
0
220
0
230
-1
40
0.061458
41
1.44512848064369
42
1.74112318426051
0
ELLIPSE
5
190
100
AcDbEntity
8
1
62
256
6
ByLayer
370
18
48
1
60
0
100
AcDbEllipse
10
26.948461
20
11.833076
30
0
11
0.057752929499109
21
0.191891975732293
31
0
210
-1.59650527093405E-15
220
-7.67208394159938E-18
230
1
40
0.998032
41
2.91077570167875
42
-2.91077570167872
0
ELLIPSE
5
191
100
AcDbEntity
8
1
62
256
6
ByLayer
370
18
48
1
60
0
100
AcDbEllipse
10
26.72387
20
13.5
30
0
11
0.201490790302156
21
0
31
0
210
0
220
0
230
1
40
0.992601
41
-1.5707963267949
42
-1.04397591016874
0
ELLIPSE
5
192
100
AcDbEntity
8
1
62
256
6
ByLayer
370
18
48
1
60
0
100
AcDbEllipse
10
29.481337
20
13.476087
30
0
11
0.239998276045898
21
0.0147981977395612
31
0
210
0
220
0
230
-1
40
0.061458
41
-1.74112318544683
42
-1.44512847963203
0
ELLIPSE
5
193
100
AcDbEntity
8
1
62
256
6
ByLayer
370
18
48
1
60
0
100
AcDbEllipse
10
27.063726
20
11.643661
30
0
11
0.302024948153413
21
-0.0186199320929814
31
0
210
0
220
0
230
-1
40
0.060635
41
0.776166089230895
42
1.56278371215992
0
ELLIPSE
5
194
100
AcDbEntity
8
1
62
256
6
ByLayer
370
18
48
1
60
0
100
AcDbEllipse
10
26.948461
20
13.166924
30
0
11
0.0577529294991086
21
-0.191891975732293
31
0
210
-1.62972770132427E-15
220
-2.32673269882162E-18
230
1
40
0.998032
41
2.91077570167872
42
-2.91077570167875
0
ELLIPSE
5
195
100
AcDbEntity
8
1
62
256
6
ByLayer
370
18
48
1
60
0
100
AcDbEllipse
10
29.948748
20
11.996575
30
0
11
1.1330996904646E-16
21
0.4
31
0
210
0
220
0
230
1
40
0.121869
41
1.5707963267949
42
1.64009079051253
0
ELLIPSE
5
196
100
AcDbEntity
8
1
62
256
6
ByLayer
370
18
48
1
60
0
100
AcDbEllipse
10
27.063726
20
13.356339
30
0
11
0.302024948156435
21
0.0186199320932776
31
0
210
0
220
0
230
-1
40
0.060635
41
-1.56278371215529
42
-0.776166089234629
0
ELLIPSE
5
197
100
AcDbEntity
8
1
62
256
6
ByLayer
370
18
48
1
60
0
100
AcDbEllipse
10
26.72387
20
11.5
30
0
11
-0.201490790302156
21
2.46746902040712E-17
31
0
210
0
220
0
230
1
40
0.992601
41
-2.09761674342106
42
-1.5707963267949
0
ELLIPSE
5
198
100
AcDbEntity
8
1
62
256
6
ByLayer
370
18
48
1
60
0
100
AcDbEllipse
10
29.948748
20
13.003425
30
0
11
1.1330996904646E-16
21
0.4
31
0
210
0
220
0
230
1
40
0.121869
41
1.50150186307726
42
1.5707963267949
0
POINT
5
6C
100
AcDbEntity
8
81
62
256
6
ByLayer
370
18
48
1
60
0
100
AcDbPoint
10
29.9
20
13.5
30
0
39
0
210
0
220
0
230
1
50
360
0
POINT
5
6E
100
AcDbEntity
8
80
62
256
6
ByLayer
370
18
48
1
60
0
100
AcDbPoint
10
0
20
0
30
0
39
0
210
0
220
0
230
1
50
360
0
SPLINE
5
199
100
AcDbEntity
8
1
62
256
6
ByLayer
370
18
48
1
60
0
100
AcDbSpline
70
4
71
3
72
18
73
14
40
0
40
0
40
0
40
0
40
0.0037601111914474
40
0.0037601111914474
40
0.237519420810988
40
0.237519420810988
40
0.471870055454746
40
0.471870055454746
40
0.696460601643431
40
0.696460601643431
40
0.906668950074071
40
0.906668950074071
40
1
40
1
40
1
40
1
41
1
10
9.89999999999998
20
11.7500000000006
30
0
41
1
10
9.89698154487098
20
11.7500000000006
30
0
41
1
10
9.89396319870843
20
11.7499914589969
30
0
41
1
10
9.70328795396881
20
11.7489122992064
30
0
41
1
10
9.51267264366538
20
11.7139929340908
30
0
41
1
10
9.15692312519266
20
11.579698156949
30
0
41
1
10
8.98671766137292
20
11.4780681290175
30
0
41
1
10
8.70114614903784
20
11.2258758194323
30
0
41
1
10
8.57969908977518
20
11.0736522845701
30
0
41
1
10
8.4053440557941
20
10.7482420695083
30
0
41
1
10
8.34617229841453
20
10.5722877133427
30
0
41
1
10
8.30626443956425
20
10.3131609778862
30
0
41
1
10
8.29999999999944
20
10.2314484011223
30
0
41
1
10
8.29999999999944
20
10.1500000000006
30
0
0
SPLINE
5
19A
100
AcDbEntity
8
1
62
256
6
ByLayer
370
13
48
1
60
0
100
AcDbSpline
70
4
71
3
72
10
73
6
40
0
40
0
40
0
40
0
40
0.807289382551453
40
0.807289382551453
40
1
40
1
40
1
40
1
41
1
10
27.3262120963125
20
12.87602364729
30
0
41
1
10
27.3302762008164
20
12.9082733833927
30
0
41
1
10
27.3269568435097
20
12.9374109438361
30
0
41
1
10
27.3156280417962
20
12.9676312243273
30
0
41
1
10
27.3131204986914
20
12.9732837463446
30
0
41
1
10
27.3102634152023
20
12.9786430142642
30
0
0
SPLINE
5
19B
100
AcDbEntity
8
1
62
256
6
ByLayer
370
13
48
1
60
0
100
AcDbSpline
70
4
71
3
72
14
73
10
40
0
40
0
40
0
40
0
40
0.140335064029798
40
0.140335064029798
40
0.313324577863399
40
0.313324577863399
40
0.854437087129479
40
0.854437087129479
40
1
40
1
40
1
40
1
41
1
10
27.3102634152023
20
12.9786430142641
30
0
41
1
10
27.3115615907815
20
12.9800371122263
30
0
41
1
10
27.3130492807412
20
12.9813429898791
30
0
41
1
10
27.3164306495378
20
12.9838632740278
30
0
41
1
10
27.318387975026
20
12.9850349218319
30
0
41
1
10
27.3261757331449
20
12.9890286264552
30
0
41
1
10
27.3318897349344
20
12.9905519053905
30
0
41
1
10
27.3386571441607
20
12.9918419509219
30
0
41
1
10
27.3400859075475
20
12.99207471605
30
0
41
1
10
27.341497419172
20
12.9922720357487
30
0
0
SPLINE
5
19C
100
AcDbEntity
8
1
62
256
6
ByLayer
370
13
48
1
60
0
100
AcDbSpline
70
4
71
3
72
8
73
4
40
0
40
0
40
0
40
0
40
1
40
1
40
1
40
1
41
1
10
27.3414974191717
20
12.9922720357484
30
0
41
1
10
27.3434065060311
20
12.9925389130716
30
0
41
1
10
27.3452888609443
20
12.9927476545089
30
0
41
1
10
27.3471477503401
20
12.9929105358018
30
0
0
SPLINE
5
19D
100
AcDbEntity
8
1
62
256
6
ByLayer
370
13
48
1
60
0
100
AcDbSpline
70
4
71
3
72
12
73
8
40
0
40
0
40
0
40
0
40
0.271863792020762
40
0.271863792020762
40
0.680333498425164
40
0.680333498425164
40
1
40
1
40
1
40
1
41
1
10
27.3471477503394
20
12.9929105358011
30
0
41
1
10
27.4254708389114
20
12.999773432519
30
0
41
1
10
27.5132950984392
20
13.0121973521708
30
0
41
1
10
27.746593161407
20
13.0520044897383
30
0
41
1
10
27.9026236458242
20
13.0843239174031
30
0
41
1
10
28.1875983266003
20
13.1484749101487
30
0
41
1
10
28.3183646565651
20
13.1826158859148
30
0
41
1
10
28.4495881472218
20
13.1986503182985
30
0
0
SPLINE
5
19E
100
AcDbEntity
8
1
62
256
6
ByLayer
370
13
48
1
60
0
100
AcDbSpline
70
4
71
3
72
8
73
4
40
0
40
0
40
0
40
0
40
1
40
1
40
1
40
1
41
1
10
28.4495881472218
20
13.1986503182985
30
0
41
1
10
28.5417788954044
20
13.2099152702574
30
0
41
1
10
28.6354245830992
20
13.2076164705896
30
0
41
1
10
28.7283398883331
20
13.2049010003718
30
0
0
SPLINE
5
19F
100
AcDbEntity
8
1
62
256
6
ByLayer
370
13
48
1
60
0
100
AcDbSpline
70
4
71
3
72
8
73
4
40
0
40
0
40
0
40
0
40
1
40
1
40
1
40
1
41
1
10
28.7283398883331
20
13.2049010003718
30
0
41
1
10
28.8522136636574
20
13.2012807620611
30
0
41
1
10
28.9768571353024
20
13.2097956584959
30
0
41
1
10
29.0982800289245
20
13.2151367062893
30
0
0
SPLINE
5
1A0
100
AcDbEntity
8
1
62
256
6
ByLayer
370
13
48
1
60
0
100
AcDbSpline
70
4
71
3
72
10
73
6
40
0
40
0
40
0
40
0
40
0.860053459941695
40
0.860053459941695
40
1
40
1
40
1
40
1
41
1
10
29.0982800289245
20
13.2151367062893
30
0
41
1
10
29.2321716826563
20
13.2210262193819
30
0
41
1
10
29.3692183325878
20
13.2095836640923
30
0
41
1
10
29.5209193574704
20
13.168413654881
30
0
41
1
10
29.5422592203893
20
13.1620874003107
30
0
41
1
10
29.5636089363248
20
13.1558030543976
30
0
0
SPLINE
5
1A1
100
AcDbEntity
8
1
62
256
6
ByLayer
370
13
48
1
60
0
100
AcDbSpline
70
4
71
3
72
8
73
4
40
0
40
0
40
0
40
0
40
1
40
1
40
1
40
1
41
1
10
29.5636089363248
20
13.1558030543976
30
0
41
1
10
29.5827084170632
20
13.1440184752056
30
0
41
1
10
29.6017609506472
20
13.1321598308402
30
0
41
1
10
29.6207683583679
20
13.120231768134
30
0
0
SPLINE
5
1A2
100
AcDbEntity
8
1
62
256
6
ByLayer
370
13
48
1
60
0
100
AcDbSpline
70
4
71
3
72
10
73
6
40
0
40
0
40
0
40
0
40
0.776503433583243
40
0.776503433583243
40
1
40
1
40
1
40
1
41
1
10
29.6207683583679
20
13.120231768134
30
0
41
1
10
29.5774725026343
20
13.1219383146504
30
0
41
1
10
29.5344378625006
20
13.1232204973636
30
0
41
1
10
29.4776224808541
20
13.1274562186955
30
0
41
1
10
29.4648810790715
20
13.1282587372995
30
0
41
1
10
29.4521447262338
20
13.1288275760476
30
0
0
SPLINE
5
1A3
100
AcDbEntity
8
1
62
256
6
ByLayer
370
13
48
1
60
0
100
AcDbSpline
70
4
71
3
72
10
73
6
40
0
40
0
40
0
40
0
40
0.802218039223748
40
0.802218039223748
40
1
40
1
40
1
40
1
41
1
10
29.4521447262338
20
13.1288275760476
30
0
41
1
10
29.3127836505348
20
13.1350518052958
30
0
41
1
10
29.1644549248777
20
13.1407163123796
30
0
41
1
10
28.9792703339537
20
13.1479206677343
30
0
41
1
10
28.9422443273126
20
13.1493561988228
30
0
41
1
10
28.9052430294063
20
13.1506663292368
30
0
0
SPLINE
5
1A4
100
AcDbEntity
8
1
62
256
6
ByLayer
370
13
48
1
60
0
100
AcDbSpline
70
4
71
3
72
16
73
12
40
0
40
0
40
0
40
0
40
0.0308303102605419
40
0.0308303102605419
40
0.572662020821238
40
0.572662020821238
40
0.596525876635503
40
0.596525876635503
40
0.811742896024901
40
0.811742896024901
40
1
40
1
40
1
40
1
41
1
10
28.9052430294063
20
13.1506663292368
30
0
41
1
10
28.8993536372725
20
13.1508748589964
30
0
41
1
10
28.8934642432982
20
13.1510835221544
30
0
41
1
10
28.784075321957
20
13.1549620910437
30
0
41
1
10
28.6804680881193
20
13.158111168951
30
0
41
1
10
28.5725520075114
20
13.1631688400588
30
0
41
1
10
28.5679952849823
20
13.1633547224004
30
0
41
1
10
28.522362695753
20
13.1649536566257
30
0
41
1
10
28.4811924961802
20
13.1645455929527
30
0
41
1
10
28.4042684809455
20
13.161896194307
30
0
41
1
10
28.3684207998393
20
13.1597829228679
30
0
41
1
10
28.3328798390933
20
13.1552148887243
30
0
0
SPLINE
5
1A5
100
AcDbEntity
8
1
62
256
6
ByLayer
370
13
48
1
60
0
100
AcDbSpline
70
4
71
3
72
12
73
8
40
0
40
0
40
0
40
0
40
0.491351269778757
40
0.491351269778757
40
0.753050934981407
40
0.753050934981407
40
1
40
1
40
1
40
1
41
1
10
28.3328798390933
20
13.1552148887243
30
0
41
1
10
28.2879752829179
20
13.1494433636584
30
0
41
1
10
28.2433932389101
20
13.1415848637049
30
0
41
1
10
28.1762335559799
20
13.1256195972339
30
0
41
1
10
28.1531371669221
20
13.1185272590249
30
0
41
1
10
28.1083199167815
20
13.1051803992469
30
0
41
1
10
28.0865899596688
20
13.0988083240891
30
0
41
1
10
28.0649336450021
20
13.0924467301169
30
0
0
SPLINE
5
1A6
100
AcDbEntity
8
1
62
256
6
ByLayer
370
13
48
1
60
0
100
AcDbSpline
70
4
71
3
72
12
73
8
40
0
40
0
40
0
40
0
40
0.244915547318589
40
0.244915547318589
40
0.864563982028735
40
0.864563982028735
40
1
40
1
40
1
40
1
41
1
10
28.0649336450021
20
13.0924467301169
30
0
41
1
10
27.9994204230127
20
13.0732020652458
30
0
41
1
10
27.9343929566216
20
13.0541271200118
30
0
41
1
10
27.7105405998204
20
12.9885593373685
30
0
41
1
10
27.5555221571248
20
12.943363985579
30
0
41
1
10
27.3855701545792
20
12.8934963381848
30
0
41
1
10
27.3555057237629
20
12.8846581500256
30
0
41
1
10
27.3262120963125
20
12.87602364729
30
0
0
SPLINE
5
1A7
100
AcDbEntity
8
1
62
256
6
ByLayer
370
13
48
1
60
0
100
AcDbSpline
70
4
71
3
72
8
73
4
40
0
40
0
40
0
40
0
40
1
40
1
40
1
40
1
41
1
10
27.3471477503394
20
12.0070894641992
30
0
41
1
10
27.3452888609435
20
12.0072523454921
30
0
41
1
10
27.3434065060322
20
12.0074610869278
30
0
41
1
10
27.3414974191728
20
12.0077279642509
30
0
0
SPLINE
5
1A8
100
AcDbEntity
8
1
62
256
6
ByLayer
370
13
48
1
60
0
100
AcDbSpline
70
4
71
3
72
14
73
10
40
0
40
0
40
0
40
0
40
0.538704325353333
40
0.538704325353333
40
0.684467013462083
40
0.684467013462083
40
0.858675811811913
40
0.858675811811913
40
1
40
1
40
1
40
1
41
1
10
27.3414974191717
20
12.0077279642519
30
0
41
1
10
27.336304109803
20
12.0084539534838
30
0
41
1
10
27.3308274196762
20
12.0096041019004
30
0
41
1
10
27.3235066860402
20
12.0124571748844
30
0
41
1
10
27.3219066564685
20
12.0131606340485
30
0
41
1
10
27.3183879750259
20
12.0149650781685
30
0
41
1
10
27.3164306495377
20
12.0161367259725
30
0
41
1
10
27.3130492807491
20
12.0186570101153
30
0
41
1
10
27.3115615907703
20
12.0199628877189
30
0
41
1
10
27.3102634151937
20
12.0213569856712
30
0
0
SPLINE
5
1A9
100
AcDbEntity
8
1
62
256
6
ByLayer
370
13
48
1
60
0
100
AcDbSpline
70
4
71
3
72
10
73
6
40
0
40
0
40
0
40
0
40
0.429405505457208
40
0.429405505457208
40
1
40
1
40
1
40
1
41
1
10
27.3102634152023
20
12.0213569857361
30
0
41
1
10
27.316591143752
20
12.0332264297865
30
0
41
1
10
27.3213513498927
20
12.0464507894656
30
0
41
1
10
27.3283387413341
20
12.0798013645514
30
0
41
1
10
27.3290939581086
20
12.1011080228434
30
0
41
1
10
27.3262120963125
20
12.1239763527103
30
0
0
SPLINE
5
1AA
100
AcDbEntity
8
1
62
256
6
ByLayer
370
13
48
1
60
0
100
AcDbSpline
70
4
71
3
72
12
73
8
40
0
40
0
40
0
40
0
40
0.244915547318584
40
0.244915547318584
40
0.864563982028716
40
0.864563982028716
40
1
40
1
40
1
40
1
41
1
10
28.0649336450021
20
11.9075532698834
30
0
41
1
10
27.9994204230127
20
11.9267979347545
30
0
41
1
10
27.9343929566216
20
11.9458728799885
30
0
41
1
10
27.7105405998204
20
12.0114406626318
30
0
41
1
10
27.5555221571248
20
12.0566360144213
30
0
41
1
10
27.3855701545792
20
12.1065036618155
30
0
41
1
10
27.3555057237629
20
12.1153418499747
30
0
41
1
10
27.3262120963125
20
12.1239763527103
30
0
0
SPLINE
5
1AB
100
AcDbEntity
8
1
62
256
6
ByLayer
370
13
48
1
60
0
100
AcDbSpline
70
4
71
3
72
12
73
8
40
0
40
0
40
0
40
0
40
0.491351269778757
40
0.491351269778757
40
0.753050934981407
40
0.753050934981407
40
1
40
1
40
1
40
1
41
1
10
28.3328798390933
20
11.844785111276
30
0
41
1
10
28.2879752829179
20
11.8505566363419
30
0
41
1
10
28.2433932389101
20
11.8584151362954
30
0
41
1
10
28.1762335559799
20
11.8743804027664
30
0
41
1
10
28.1531371669221
20
11.8814727409754
30
0
41
1
10
28.1083199167815
20
11.8948196007533
30
0
41
1
10
28.0865899596688
20
11.9011916759113
30
0
41
1
10
28.0649336450021
20
11.9075532698834
30
0
0
SPLINE
5
1AC
100
AcDbEntity
8
1
62
256
6
ByLayer
370
13
48
1
60
0
100
AcDbSpline
70
4
71
3
72
16
73
12
40
0
40
0
40
0
40
0
40
0.0308303102605419
40
0.0308303102605419
40
0.572662020821238
40
0.572662020821238
40
0.596525876635503
40
0.596525876635503
40
0.811742896024901
40
0.811742896024901
40
1
40
1
40
1
40
1
41
1
10
28.9052430294063
20
11.8493336707635
30
0
41
1
10
28.8993536372725
20
11.8491251410039
30
0
41
1
10
28.8934642432982
20
11.8489164778459
30
0
41
1
10
28.784075321957
20
11.8450379089566
30
0
41
1
10
28.6804680881193
20
11.8418888310493
30
0
41
1
10
28.5725520075114
20
11.8368311599415
30
0
41
1
10
28.5679952849823
20
11.8366452775999
30
0
41
1
10
28.522362695753
20
11.8350463433746
30
0
41
1
10
28.4811924961802
20
11.8354544070476
30
0
41
1
10
28.4042684809455
20
11.8381038056932
30
0
41
1
10
28.3684207998393
20
11.8402170771324
30
0
41
1
10
28.3328798390933
20
11.844785111276
30
0
0
SPLINE
5
1AD
100
AcDbEntity
8
1
62
256
6
ByLayer
370
13
48
1
60
0
100
AcDbSpline
70
4
71
3
72
10
73
6
40
0
40
0
40
0
40
0
40
0.802218039223748
40
0.802218039223748
40
1
40
1
40
1
40
1
41
1
10
29.4521447262338
20
11.8711724239527
30
0
41
1
10
29.3127836505348
20
11.8649481947045
30
0
41
1
10
29.1644549248777
20
11.8592836876207
30
0
41
1
10
28.9792703339537
20
11.852079332266
30
0
41
1
10
28.9422443273126
20
11.8506438011775
30
0
41
1
10
28.9052430294063
20
11.8493336707635
30
0
0
SPLINE
5
1AE
100
AcDbEntity
8
1
62
256
6
ByLayer
370
13
48
1
60
0
100
AcDbSpline
70
4
71
3
72
10
73
6
40
0
40
0
40
0
40
0
40
0.776503433583243
40
0.776503433583243
40
1
40
1
40
1
40
1
41
1
10
29.6207683583679
20
11.8797682318663
30
0
41
1
10
29.5774725026343
20
11.8780616853499
30
0
41
1
10
29.5344378625006
20
11.8767795026367
30
0
41
1
10
29.4776224808541
20
11.8725437813048
30
0
41
1
10
29.4648810790715
20
11.8717412627008
30
0
41
1
10
29.4521447262338
20
11.8711724239527
30
0
0
SPLINE
5
1AF
100
AcDbEntity
8
1
62
256
6
ByLayer
370
13
48
1
60
0
100
AcDbSpline
70
4
71
3
72
8
73
4
40
0
40
0
40
0
40
0
40
1
40
1
40
1
40
1
41
1
10
29.5636089363248
20
11.8441969456027
30
0
41
1
10
29.5827084170632
20
11.8559815247947
30
0
41
1
10
29.6017609506472
20
11.8678401691601
30
0
41
1
10
29.6207683583679
20
11.8797682318663
30
0
0
SPLINE
5
1B0
100
AcDbEntity
8
1
62
256
6
ByLayer
370
13
48
1
60
0
100
AcDbSpline
70
4
71
3
72
10
73
6
40
0
40
0
40
0
40
0
40
0.860053459941695
40
0.860053459941695
40
1
40
1
40
1
40
1
41
1
10
29.0982800289245
20
11.7848632937109
30
0
41
1
10
29.2321716826563
20
11.7789737806184
30
0
41
1
10
29.3692183325878
20
11.7904163359079
30
0
41
1
10
29.5209193574704
20
11.8315863451193
30
0
41
1
10
29.5422592203893
20
11.8379125996896
30
0
41
1
10
29.5636089363248
20
11.8441969456027
30
0
0
SPLINE
5
1B1
100
AcDbEntity
8
1
62
256
6
ByLayer
370
13
48
1
60
0
100
AcDbSpline
70
4
71
3
72
8
73
4
40
0
40
0
40
0
40
0
40
1
40
1
40
1
40
1
41
1
10
28.7283398883331
20
11.7950989996285
30
0
41
1
10
28.8522136636574
20
11.7987192379392
30
0
41
1
10
28.9768571353024
20
11.7902043415044
30
0
41
1
10
29.0982800289245
20
11.7848632937109
30
0
0
SPLINE
5
1B2
100
AcDbEntity
8
1
62
256
6
ByLayer
370
13
48
1
60
0
100
AcDbSpline
70
4
71
3
72
8
73
4
40
0
40
0
40
0
40
0
40
1
40
1
40
1
40
1
41
1
10
28.4495881472218
20
11.8013496817018
30
0
41
1
10
28.5417788954044
20
11.7900847297429
30
0
41
1
10
28.6354245830992
20
11.7923835294107
30
0
41
1
10
28.7283398883331
20
11.7950989996285
30
0
0
SPLINE
5
1B3
100
AcDbEntity
8
1
62
256
6
ByLayer
370
13
48
1
60
0
100
AcDbSpline
70
4
71
3
72
12
73
8
40
0
40
0
40
0
40
0
40
0.271863792020766
40
0.271863792020766
40
0.680333498425166
40
0.680333498425166
40
1
40
1
40
1
40
1
41
1
10
27.3471477503394
20
12.0070894641992
30
0
41
1
10
27.4254708389114
20
12.0002265674814
30
0
41
1
10
27.5132950984392
20
11.9878026478295
30
0
41
1
10
27.746593161407
20
11.947995510262
30
0
41
1
10
27.9026236458242
20
11.9156760825972
30
0
41
1
10
28.1875983266003
20
11.8515250898516
30
0
41
1
10
28.3183646565651
20
11.8173841140855
30
0
41
1
10
28.4495881472218
20
11.8013496817018
30
0
0
SPLINE
5
1B4
100
AcDbEntity
8
1
62
256
6
ByLayer
370
13
48
1
60
0
100
AcDbSpline
70
4
71
3
72
18
73
14
40
0
40
0
40
0
40
0
40
0.447407316387175
40
0.447407316387175
40
0.605547053795674
40
0.605547053795674
40
0.784635535666972
40
0.784635535666972
40
0.885678387143329
40
0.885678387143329
40
0.977084410920521
40
0.977084410920521
40
1
40
1
40
1
40
1
41
1
10
26.3984332400776
20
12.8971827025369
30
0
41
1
10
26.4440476624861
20
12.9179864043048
30
0
41
1
10
26.4884120317077
20
12.9462496616411
30
0
41
1
10
26.5394879059807
20
12.997777451865
30
0
41
1
10
26.5521556621418
20
13.0127285401693
30
0
41
1
10
26.5761327225129
20
13.047527445881
30
0
41
1
10
26.5872348583249
20
13.0680760266395
30
0
41
1
10
26.5999368895843
20
13.1027292169991
30
0
41
1
10
26.6036086002949
20
13.1158956876693
30
0
41
1
10
26.6083103046788
20
13.1415381874816
30
0
41
1
10
26.6095747514646
20
13.1540765211719
30
0
41
1
10
26.6097949440652
20
13.1697495022305
30
0
41
1
10
26.6097712271323
20
13.1729074558066
30
0
41
1
10
26.6096790521406
20
13.1760622894366
30
0
0
SPLINE
5
1B5
100
AcDbEntity
8
1
62
256
6
ByLayer
370
13
48
1
60
0
100
AcDbSpline
70
4
71
3
72
18
73
14
40
0
40
0
40
0
40
0
40
0.0976852199958056
40
0.0976852199958056
40
0.212989397473362
40
0.212989397473362
40
0.394159987615223
40
0.394159987615223
40
0.774111539176557
40
0.774111539176557
40
0.851520792185893
40
0.851520792185893
40
1
40
1
40
1
40
1
41
1
10
26.6096790521406
20
11.8239377105637
30
0
41
1
10
26.6100703037073
20
11.8373289089633
30
0
41
1
10
26.6092072189939
20
11.8508331045984
30
0
41
1
10
26.6048326306339
20
11.879445868368
30
0
41
1
10
26.6008494527307
20
11.8946141172527
30
0
41
1
10
26.5875217769499
20
11.931389985016
30
0
41
1
10
26.5762967783069
20
11.9522339475063
30
0
41
1
10
26.5367316649357
20
12.0096579975629
30
0
41
1
10
26.5023540549561
20
12.0406344456298
30
0
41
1
10
26.4587483922281
20
12.0700548557611
30
0
41
1
10
26.4511702800925
20
12.0748308807321
30
0
41
1
10
26.4287968496802
20
12.0880443631914
30
0
41
1
10
26.413730117624
20
12.0958407391614
30
0
41
1
10
26.398433240088
20
12.1028172974822
30
0
0
SPLINE
5
1B6
100
AcDbEntity
8
1
62
256
6
ByLayer
370
13
48
1
60
0
100
AcDbSpline
70
4
71
3
72
12
73
8
40
0
40
0
40
0
40
0
40
0.167536140690989
40
0.167536140690989
40
0.701521703333122
40
0.701521703333122
40
1
40
1
40
1
40
1
41
1
10
27.1514801084146
20
12.8997616476619
30
0
41
1
10
27.1542826384415
20
12.8973856341193
30
0
41
1
10
27.156923133606
20
12.894880693032
30
0
41
1
10
27.1670778771217
20
12.8838905315069
30
0
41
1
10
27.172872622145
20
12.8739873826125
30
0
41
1
10
27.1767050040373
20
12.8563515626589
30
0
41
1
10
27.1770407186253
20
12.8494951137509
30
0
41
1
10
27.1762277573114
20
12.8423482075947
30
0
0
SPLINE
5
1B7
100
AcDbEntity
8
1
62
256
6
ByLayer
370
13
48
1
60
0
100
AcDbSpline
70
4
71
3
72
14
73
10
40
0
40
0
40
0
40
0
40
0.418540706662839
40
0.418540706662839
40
0.495635548088754
40
0.495635548088754
40
0.9192675759406
40
0.9192675759406
40
1
40
1
40
1
40
1
41
1
10
27.1762277573114
20
12.8423482075946
30
0
41
1
10
27.1729405983399
20
12.813450133005
30
0
41
1
10
27.1733660154213
20
12.7789598918285
30
0
41
1
10
27.1796751136804
20
12.7351750834223
30
0
41
1
10
27.1808357853226
20
12.7281820025018
30
0
41
1
10
27.1893735192745
20
12.6828210409001
30
0
41
1
10
27.2018447500132
20
12.6416106796634
30
0
41
1
10
27.2226367698616
20
12.5939423424977
30
0
41
1
10
27.226193922031
20
12.5862451008932
30
0
41
1
10
27.2299358617497
20
12.578597325114
30
0
0
SPLINE
5
1B8
100
AcDbEntity
8
1
62
256
6
ByLayer
370
13
48
1
60
0
100
AcDbSpline
70
4
71
3
72
14
73
10
40
0
40
0
40
0
40
0
40
0.335733568867722
40
0.335733568867722
40
0.507284823780995
40
0.507284823780995
40
0.847453801813234
40
0.847453801813234
40
1
40
1
40
1
40
1
41
1
10
27.2299358617497
20
12.5785973251141
30
0
41
1
10
27.237814020394
20
12.5624959457778
30
0
41
1
10
27.2439375481741
20
12.544982412773
30
0
41
1
10
27.2485739754979
20
12.5176754709811
30
0
41
1
10
27.2493588445425
20
12.5081717946767
30
0
41
1
10
27.2491329115972
20
12.4802122051373
30
0
41
1
10
27.2455495425812
20
12.4615180281881
30
0
41
1
10
27.2367872446761
20
12.4364237855239
30
0
41
1
10
27.2335488022127
20
12.4287868020077
30
0
41
1
10
27.2299358617498
20
12.4214026748862
30
0
0
SPLINE
5
1B9
100
AcDbEntity
8
1
62
256
6
ByLayer
370
13
48
1
60
0
100
AcDbSpline
70
4
71
3
72
12
73
8
40
0
40
0
40
0
40
0
40
0.060976756616879
40
0.060976756616879
40
0.525861690105106
40
0.525861690105106
40
1
40
1
40
1
40
1
41
1
10
27.2299358617497
20
12.4214026748862
30
0
41
1
10
27.2271003220153
20
12.4156073992452
30
0
41
1
10
27.2243711082764
20
12.4097842705313
30
0
41
1
10
27.2021069872871
20
12.3601747398966
30
0
41
1
10
27.1884144324718
20
12.3146499427754
30
0
41
1
10
27.1735997997306
20
12.2303584508619
30
0
41
1
10
27.1725076756419
20
12.1903557773655
30
0
41
1
10
27.1762277573114
20
12.1576517924057
30
0
0
SPLINE
5
1BA
100
AcDbEntity
8
1
62
256
6
ByLayer
370
13
48
1
60
0
100
AcDbSpline
70
4
71
3
72
10
73
6
40
0
40
0
40
0
40
0
40
0.579743919086243
40
0.579743919086243
40
1
40
1
40
1
40
1
41
1
10
27.1762277573114
20
12.1576517924057
30
0
41
1
10
27.1777925092618
20
12.1438957438034
30
0
41
1
10
27.174921505156
20
12.1312224503525
30
0
41
1
10
27.1645276574484
20
12.1129763667138
30
0
41
1
10
27.1584959094317
20
12.1061864200014
30
0
41
1
10
27.1514801084147
20
12.1002383523382
30
0
0
SPLINE
5
1BB
100
AcDbEntity
8
1
62
256
6
ByLayer
370
13
48
1
60
0
100
AcDbSpline
70
4
71
3
72
8
73
4
40
0
40
0
40
0
40
0
40
1
40
1
40
1
40
1
41
1
10
26.0586453076088
20
12.2012139734553
30
0
41
1
10
26.0709068417096
20
12.2043983721381
30
0
41
1
10
26.0832654919602
20
12.2074602232957
30
0
41
1
10
26.0957009625836
20
12.2104019371784
30
0
0
SPLINE
5
1BC
100
AcDbEntity
8
1
62
256
6
ByLayer
370
13
48
1
60
0
100
AcDbSpline
70
4
71
3
72
10
73
6
40
0
40
0
40
0
40
0
40
0.333728436493078
40
0.333728436493078
40
1
40
1
40
1
40
1
41
1
10
26.0957009625832
20
12.2104019371797
30
0
41
1
10
26.0966662675297
20
12.210630288084
30
0
41
1
10
26.0976317049565
20
12.2108586165774
30
0
41
1
10
26.1005249812794
20
12.2115427237428
30
0
41
1
10
26.1024532131263
20
12.2119984356068
30
0
41
1
10
26.104381960042
20
12.2124540580291
30
0
0
SPLINE
5
1BD
100
AcDbEntity
8
1
62
256
6
ByLayer
370
13
48
1
60
0
100
AcDbSpline
70
4
71
3
72
28
73
24
40
0
40
0
40
0
40
0
40
0.120400997037726
40
0.120400997037726
40
0.267193145137956
40
0.267193145137956
40
0.387937930337117
40
0.387937930337117
40
0.465259875154669
40
0.465259875154669
40
0.495901986784595
40
0.495901986784595
40
0.581704825079178
40
0.581704825079178
40
0.603681926078793
40
0.603681926078793
40
0.705282320663386
40
0.705282320663386
40
0.836662945425109
40
0.836662945425109
40
0.962212936191202
40
0.962212936191202
40
1
40
1
40
1
40
1
41
1
10
26.1043819600417
20
12.2124540580397
30
0
41
1
10
26.1386117615898
20
12.2205400671307
30
0
41
1
10
26.1717745161216
20
12.2315675962353
30
0
41
1
10
26.2403563386755
20
12.2634646788147
30
0
41
1
10
26.2755506139921
20
12.2863309713596
30
0
41
1
10
26.3293957511653
20
12.339107523858
30
0
41
1
10
26.3505128568283
20
12.3678921210837
30
0
41
1
10
26.3742896735612
20
12.4212598363757
30
0
41
1
10
26.3810059815831
20
12.4441935086992
30
0
41
1
10
26.385458778987
20
12.4769320277292
30
0
41
1
10
26.3861866916511
20
12.4864311566734
30
0
41
1
10
26.3867918153238
20
12.5220628941169
30
0
41
1
10
26.3827627697971
20
12.5487193548659
30
0
41
1
10
26.373008547855
20
12.5795583665451
30
0
41
1
10
26.3707421946394
20
12.5858255544197
30
0
41
1
10
26.3568990508134
20
12.6198796284099
30
0
41
1
10
26.3406033083254
20
12.6453435087639
30
0
41
1
10
26.2970837039401
20
12.69540862105
30
0
41
1
10
26.2674044337148
20
12.7186029538279
30
0
41
1
10
26.204685404423
20
12.7548185668162
30
0
41
1
10
26.1712334060984
20
12.7686098275065
30
0
41
1
10
26.1258807591636
20
12.7821493674625
30
0
41
1
10
26.115191249574
20
12.7849924941043
30
0
41
1
10
26.1043819600419
20
12.7875459419617
30
0
0
SPLINE
5
1BE
100
AcDbEntity
8
1
62
256
6
ByLayer
370
13
48
1
60
0
100
AcDbSpline
70
4
71
3
72
12
73
8
40
0
40
0
40
0
40
0
40
0.334418366090769
40
0.334418366090769
40
0.734677033774883
40
0.734677033774883
40
1
40
1
40
1
40
1
41
1
10
28.4337805434612
20
11.6359613273677
30
0
41
1
10
28.3022679617029
20
11.6500379362416
30
0
41
1
10
28.1723193598528
20
11.684207280011
30
0
41
1
10
27.8995089617334
20
11.755584964976
30
0
41
1
10
27.7541870739038
20
11.7914503671827
30
0
41
1
10
27.5350503526795
20
11.8382861598417
30
0
41
1
10
27.4522182729484
20
11.8538577140953
30
0
41
1
10
27.3775115598652
20
11.8642855723129
30
0
0
SPLINE
5
1BF
100
AcDbEntity
8
1
62
256
6
ByLayer
370
13
48
1
60
0
100
AcDbSpline
70
4
71
3
72
12
73
8
40
0
40
0
40
0
40
0
40
0.334418366090769
40
0.334418366090769
40
0.734677033774883
40
0.734677033774883
40
1
40
1
40
1
40
1
41
1
10
28.4337805434612
20
13.3640386726325
30
0
41
1
10
28.3022679617029
20
13.3499620637587
30
0
41
1
10
28.1723193598528
20
13.3157927199893
30
0
41
1
10
27.8995089617334
20
13.2444150350243
30
0
41
1
10
27.7541870739038
20
13.2085496328176
30
0
41
1
10
27.5350503526795
20
13.1617138401586
30
0
41
1
10
27.4522182729484
20
13.146142285905
30
0
41
1
10
27.3775115598652
20
13.1357144276874
30
0
0
SPLINE
5
1C0
100
AcDbEntity
8
1
62
256
6
ByLayer
370
13
48
1
60
0
100
AcDbSpline
70
4
71
3
72
10
73
6
40
0
40
0
40
0
40
0
40
0.666271563875835
40
0.666271563875835
40
1
40
1
40
1
40
1
41
1
10
26.1043819600418
20
12.7875459419606
30
0
41
1
10
26.1024532131249
20
12.7880015643831
30
0
41
1
10
26.1005249812773
20
12.788457276258
30
0
41
1
10
26.0976317049543
20
12.7891413834234
30
0
41
1
10
26.0966662675286
20
12.7893697119172
30
0
41
1
10
26.0957009625832
20
12.7895980628213
30
0
0
SPLINE
5
1C1
100
AcDbEntity
8
1
62
256
6
ByLayer
370
13
48
1
60
0
100
AcDbSpline
70
4
71
3
72
8
73
4
40
0
40
0
40
0
40
0
40
1
40
1
40
1
40
1
41
1
10
26.0957009625832
20
12.7895980628206
30
0
41
1
10
26.0832654919591
20
12.7925397767034
30
0
41
1
10
26.070906841708
20
12.7956016278626
30
0
41
1
10
26.0586453076064
20
12.7987860265456
30
0
0
SPLINE
5
1C2
100
AcDbEntity
8
1
62
256
6
ByLayer
370
13
48
1
60
0
100
AcDbSpline
70
4
71
3
72
8
73
4
40
0
40
0
40
0
40
0
40
1
40
1
40
1
40
1
41
1
10
27.3775115598652
20
13.1357144276874
30
0
41
1
10
27.3760463384844
20
13.1366406915516
30
0
41
1
10
27.3745825957789
20
13.1375624116319
30
0
41
1
10
27.3731203716814
20
13.138479529067
30
0
0
SPLINE
5
1C3
100
AcDbEntity
8
1
62
256
6
ByLayer
370
13
48
1
60
0
100
AcDbSpline
70
4
71
3
72
8
73
4
40
0
40
0
40
0
40
0
40
1
40
1
40
1
40
1
41
1
10
27.3731203716814
20
11.8615204709333
30
0
41
1
10
27.3745825957789
20
11.8624375883684
30
0
41
1
10
27.3760463384843
20
11.8633593084491
30
0
41
1
10
27.3775115598651
20
11.8642855723133
30
0
0
SPLINE
5
1C4
100
AcDbEntity
8
1
62
256
6
ByLayer
370
13
48
1
60
0
100
AcDbSpline
70
4
71
3
72
18
73
14
40
0
40
0
40
0
40
0
40
0.0161194639884916
40
0.0161194639884916
40
0.0830400526233481
40
0.0830400526233481
40
0.164187348294867
40
0.164187348294867
40
0.329246171114526
40
0.329246171114526
40
0.49267383795864
40
0.49267383795864
40
1
40
1
40
1
40
1
41
1
10
26.5583760306418
20
13.1760622894366
30
0
41
1
10
26.5583760306418
20
13.1744780810598
30
0
41
1
10
26.5583070506514
20
13.1728922683906
30
0
41
1
10
26.5576154305964
20
13.1648549822652
30
0
41
1
10
26.5558959531471
20
13.1584492064006
30
0
41
1
10
26.5503990140808
20
13.1453283761616
30
0
41
1
10
26.5462332916851
20
13.1386406851305
30
0
41
1
10
26.532021466155
20
13.120237804991
30
0
41
1
10
26.5201790807021
20
13.1099343842207
30
0
41
1
10
26.495503040914
20
13.09200652968
30
0
41
1
10
26.4824167868289
20
13.0842529850826
30
0
41
1
10
26.4277159291731
20
13.0557823594788
30
0
41
1
10
26.3832430916057
20
13.041079981146
30
0
41
1
10
26.3385371190036
20
13.0295769367158
30
0
0
SPLINE
5
1C5
100
AcDbEntity
8
1
62
256
6
ByLayer
370
13
48
1
60
0
100
AcDbSpline
70
4
71
3
72
16
73
12
40
0
40
0
40
0
40
0
40
0.17415962102223
40
0.17415962102223
40
0.671976092746537
40
0.671976092746537
40
0.83822694518602
40
0.83822694518602
40
0.929660782988591
40
0.929660782988591
40
1
40
1
40
1
40
1
41
1
10
26.3385371190036
20
11.9704230632845
30
0
41
1
10
26.3539422148971
20
11.9664592639931
30
0
41
1
10
26.3692599827102
20
11.9620769089279
30
0
41
1
10
26.4274830378249
20
11.943338367182
30
0
41
1
10
26.4706632046931
20
11.9260409995772
30
0
41
1
10
26.5203257985211
20
11.8899587946457
30
0
41
1
10
26.5323080918469
20
11.8795169898803
30
0
41
1
10
26.5471462242705
20
11.8601041780891
30
0
41
1
10
26.5517437069761
20
11.8524010922578
30
0
41
1
10
26.5570278864055
20
11.8377021112504
30
0
41
1
10
26.5583760306417
20
11.8307790595826
30
0
41
1
10
26.5583760306418
20
11.8239377105637
30
0
0
SPLINE
5
1C6
100
AcDbEntity
8
1
62
256
6
ByLayer
370
13
48
1
60
0
100
AcDbSpline
70
4
71
3
72
8
73
4
40
0
40
0
40
0
40
0
40
1
40
1
40
1
40
1
41
1
10
25.6871982348828
20
11.7745620718648
30
0
41
1
10
25.7371072022262
20
11.8683165329924
30
0
41
1
10
25.7829751479405
20
11.9645190035592
30
0
41
1
10
25.8269486592887
20
12.0615806009029
30
0
0
SPLINE
5
1C7
100
AcDbEntity
8
1
62
256
6
ByLayer
370
13
48
1
60
0
100
AcDbSpline
70
4
71
3
72
8
73
4
40
0
40
0
40
0
40
0
40
1
40
1
40
1
40
1
41
1
10
25.8269486592887
20
12.0615806009029
30
0
41
1
10
25.8310517239117
20
12.0706371896104
30
0
41
1
10
25.8358959391856
20
12.0793747430597
30
0
41
1
10
25.8415296908639
20
12.0874458879869
30
0
0
SPLINE
5
1C8
100
AcDbEntity
8
1
62
256
6
ByLayer
370
13
48
1
60
0
100
AcDbSpline
70
4
71
3
72
10
73
6
40
0
40
0
40
0
40
0
40
0.607627674029775
40
0.607627674029775
40
1
40
1
40
1
40
1
41
1
10
25.841529690864
20
12.0874458879869
30
0
41
1
10
25.8449483939528
20
12.0923436629809
30
0
41
1
10
25.8493450872493
20
12.0965107952172
30
0
41
1
10
25.8571218081436
20
12.1022567548796
30
0
41
1
10
25.8603603656147
20
12.1042690918396
30
0
41
1
10
25.8636781743631
20
12.106092599986
30
0
0
SPLINE
5
1C9
100
AcDbEntity
8
1
62
256
6
ByLayer
370
13
48
1
60
0
100
AcDbSpline
70
4
71
3
72
8
73
4
40
0
40
0
40
0
40
0
40
1
40
1
40
1
40
1
41
1
10
25.863678174367
20
12.10609259998
30
0
41
1
10
25.8740398294939
20
12.111787491991
30
0
41
1
10
25.8856192161749
20
12.1152116946455
30
0
41
1
10
25.8971847075066
20
12.116804873234
30
0
0
SPLINE
5
1CA
100
AcDbEntity
8
1
62
256
6
ByLayer
370
13
48
1
60
0
100
AcDbSpline
70
4
71
3
72
10
73
6
40
0
40
0
40
0
40
0
40
0.468522557911306
40
0.468522557911306
40
1
40
1
40
1
40
1
41
1
10
25.8971847075066
20
12.1168048732339
30
0
41
1
10
25.9125073622826
20
12.1189156115332
30
0
41
1
10
25.9281890938236
20
12.1191911881564
30
0
41
1
10
25.9608326130715
20
12.1151109789596
30
0
41
1
10
25.9781649337055
20
12.1100564694878
30
0
41
1
10
25.9936729304055
20
12.101618631276
30
0
0
SPLINE
5
1CB
100
AcDbEntity
8
1
62
256
6
ByLayer
370
13
48
1
60
0
100
AcDbSpline
70
4
71
3
72
10
73
6
40
0
40
0
40
0
40
0
40
0.39285874077214
40
0.39285874077214
40
1
40
1
40
1
40
1
41
1
10
25.9936729304044
20
12.898381368724
30
0
41
1
10
25.9821344359051
20
12.892103320587
30
0
41
1
10
25.969596920594
20
12.8876963072919
30
0
41
1
10
25.937371840694
20
12.8808045950247
30
0
41
1
10
25.9169301631213
20
12.8804751353547
30
0
41
1
10
25.8971847075165
20
12.8831951267632
30
0
0
SPLINE
5
1CC
100
AcDbEntity
8
1
62
256
6
ByLayer
370
13
48
1
60
0
100
AcDbSpline
70
4
71
3
72
10
73
6
40
0
40
0
40
0
40
0
40
0.0840681653027228
40
0.0840681653027228
40
1
40
1
40
1
40
1
41
1
10
25.8971847075162
20
12.8831951267647
30
0
41
1
10
25.8962010455789
20
12.8833306289315
30
0
41
1
10
25.8952188661862
20
12.8834789710652
30
0
41
1
10
25.8836819996079
20
12.8853794606592
30
0
41
1
10
25.8731694732705
20
12.8886908664037
30
0
41
1
10
25.8636781743698
20
12.8939074000187
30
0
0
SPLINE
5
1CD
100
AcDbEntity
8
1
62
256
6
ByLayer
370
13
48
1
60
0
100
AcDbSpline
70
4
71
3
72
10
73
6
40
0
40
0
40
0
40
0
40
0.300964641608717
40
0.300964641608717
40
1
40
1
40
1
40
1
41
1
10
25.8636781743711
20
12.8939074000275
30
0
41
1
10
25.8611279033247
20
12.8953090600934
30
0
41
1
10
25.8586265623859
20
12.8968214099124
30
0
41
1
10
25.8506729861664
20
12.9022689969567
30
0
41
1
10
25.8454582450927
20
12.9069259032561
30
0
41
1
10
25.8415296908643
20
12.9125541120131
30
0
0
SPLINE
5
1CE
100
AcDbEntity
8
1
62
256
6
ByLayer
370
13
48
1
60
0
100
AcDbSpline
70
4
71
3
72
8
73
4
40
0
40
0
40
0
40
0
40
1
40
1
40
1
40
1
41
1
10
25.8415296908642
20
12.912554112013
30
0
41
1
10
25.8358959391855
20
12.9206252569406
30
0
41
1
10
25.8310517239113
20
12.9293628103906
30
0
41
1
10
25.8269486592881
20
12.9384193990987
30
0
0
SPLINE
5
1CF
100
AcDbEntity
8
1
62
256
6
ByLayer
370
13
48
1
60
0
100
AcDbSpline
70
4
71
3
72
8
73
4
40
0
40
0
40
0
40
0
40
1
40
1
40
1
40
1
41
1
10
25.8269486592881
20
12.9384193990987
30
0
41
1
10
25.7829751479401
20
13.035480996442
30
0
41
1
10
25.737107202226
20
13.1316834670083
30
0
41
1
10
25.6871982348828
20
13.2254379281355
30
0
0
SPLINE
5
1D0
100
AcDbEntity
8
1
62
256
6
ByLayer
370
13
48
1
60
0
100
AcDbSpline
70
4
71
3
72
12
73
8
40
0
40
0
40
0
40
0
40
0.597224160982647
40
0.597224160982647
40
0.806459478729557
40
0.806459478729557
40
1
40
1
40
1
40
1
41
1
10
27.3674054923344
20
13.1201361512412
30
0
41
1
10
27.3517404047312
20
13.0979055664361
30
0
41
1
10
27.3345712719748
20
13.0738599803604
30
0
41
1
10
27.3107775882301
20
13.0417353100999
30
0
41
1
10
27.304453368985
20
13.0333072274138
30
0
41
1
10
27.2922252793235
20
13.017284664602
30
0
41
1
10
27.2863036863561
20
13.0096468026522
30
0
41
1
10
27.2803879305321
20
13.0021621555487
30
0
0
SPLINE
5
1D1
100
AcDbEntity
8
1
62
256
6
ByLayer
370
13
48
1
60
0
100
AcDbSpline
70
4
71
3
72
12
73
8
40
0
40
0
40
0
40
0
40
0.0216552127699091
40
0.0216552127699091
40
0.549266071356395
40
0.549266071356395
40
1
40
1
40
1
40
1
41
1
10
27.151480108414
20
12.8997616476614
30
0
41
1
10
27.1524880633972
20
12.9001878663268
30
0
41
1
10
27.1534955429719
20
12.9006216315159
30
0
41
1
10
27.1789531871476
20
12.9117766388711
30
0
41
1
10
27.2033813442807
20
12.9271393850377
30
0
41
1
10
27.2454052205908
20
12.9621963608506
30
0
41
1
10
27.2638645140883
20
12.9812566373515
30
0
41
1
10
27.280387930535
20
13.0021621555524
30
0
0
SPLINE
5
1D2
100
AcDbEntity
8
1
62
256
6
ByLayer
370
13
48
1
60
0
100
AcDbSpline
70
4
71
3
72
12
73
8
40
0
40
0
40
0
40
0
40
0.365727906004492
40
0.365727906004492
40
0.978437105133119
40
0.978437105133119
40
1
40
1
40
1
40
1
41
1
10
27.2803879305321
20
11.9978378444515
30
0
41
1
10
27.2669233419134
20
12.0148733167061
30
0
41
1
10
27.2521983132535
20
12.0306689331555
30
0
41
1
10
27.2111353907574
20
12.0678273903518
30
0
41
1
10
27.1828055733672
20
12.0865353536121
30
0
41
1
10
27.1534955383431
20
12.099378366117
30
0
41
1
10
27.1524880622417
20
12.0998121330793
30
0
41
1
10
27.1514801084146
20
12.1002383523383
30
0
0
SPLINE
5
1D3
100
AcDbEntity
8
1
62
256
6
ByLayer
370
13
48
1
60
0
100
AcDbSpline
70
4
71
3
72
12
73
8
40
0
40
0
40
0
40
0
40
0.597224160967102
40
0.597224160967102
40
0.806459478710096
40
0.806459478710096
40
1
40
1
40
1
40
1
41
1
10
27.3674054923344
20
11.8798638487592
30
0
41
1
10
27.3517404047311
20
11.9020944335642
30
0
41
1
10
27.3345712719747
20
11.92614001964
30
0
41
1
10
27.3107775882299
20
11.9582646899007
30
0
41
1
10
27.3044533689847
20
11.9666927725869
30
0
41
1
10
27.2922252793233
20
11.9827153353987
30
0
41
1
10
27.2863036863559
20
11.9903531973483
30
0
41
1
10
27.2803879305321
20
11.9978378444515
30
0
0
SPLINE
5
1D4
100
AcDbEntity
8
1
62
256
6
ByLayer
370
13
48
1
60
0
100
AcDbSpline
70
4
71
3
72
8
73
4
40
0
40
0
40
0
40
0
40
1
40
1
40
1
40
1
41
1
10
27.2803879305321
20
13.0021621555487
30
0
41
1
10
27.2917464413886
20
12.9927522673272
30
0
41
1
10
27.3018184386868
20
12.984823200056
30
0
41
1
10
27.3102634151926
20
12.9786430142484
30
0
0
SPLINE
5
1D5
100
AcDbEntity
8
1
62
256
6
ByLayer
370
13
48
1
60
0
100
AcDbSpline
70
4
71
3
72
12
73
8
40
0
40
0
40
0
40
0
40
0.488366722420296
40
0.488366722420296
40
0.942436355362905
40
0.942436355362905
40
1
40
1
40
1
40
1
41
1
10
27.3262120963125
20
12.1239763527103
30
0
41
1
10
27.3283429607195
20
12.1528521350315
30
0
41
1
10
27.3319548858697
20
12.1894615899801
30
0
41
1
10
27.3453657154375
20
12.2678945846357
30
0
41
1
10
27.3548755278662
20
12.3102238376022
30
0
41
1
10
27.370230143123
20
12.3580762022233
30
0
41
1
10
27.3720501662501
20
12.3635398806852
30
0
41
1
10
27.3739430174867
20
12.3690044581436
30
0
0
SPLINE
5
1D6
100
AcDbEntity
8
1
62
256
6
ByLayer
370
13
48
1
60
0
100
AcDbSpline
70
4
71
3
72
12
73
8
40
0
40
0
40
0
40
0
40
0.037828268420456
40
0.037828268420456
40
0.727108891322556
40
0.727108891322556
40
1
40
1
40
1
40
1
41
1
10
27.3739430174867
20
12.3690044581436
30
0
41
1
10
27.3824023364264
20
12.3673264896966
30
0
41
1
10
27.3909189581296
20
12.365630553786
30
0
41
1
10
27.5536057521076
20
12.3331104680884
30
0
41
1
10
27.7281123770015
20
12.2961313369891
30
0
41
1
10
27.9808681739289
20
12.2401532648695
30
0
41
1
10
28.0546315555727
20
12.2235457402805
30
0
41
1
10
28.1289221872925
20
12.2065481078891
30
0
0
SPLINE
5
1D7
100
AcDbEntity
8
1
62
256
6
ByLayer
370
13
48
1
60
0
100
AcDbSpline
70
4
71
3
72
24
73
20
40
0
40
0
40
0
40
0
40
0.0291918203657016
40
0.0291918203657016
40
0.136396538158131
40
0.136396538158131
40
0.265987867368488
40
0.265987867368488
40
0.377753358158994
40
0.377753358158994
40
0.50483938938664
40
0.50483938938664
40
0.632110922025969
40
0.632110922025969
40
0.762713398901978
40
0.762713398901978
40
0.901999958850298
40
0.901999958850298
40
1
40
1
40
1
40
1
41
1
10
25.9817115471211
20
12.6973354503652
30
0
41
1
10
25.9860998093753
20
12.6955525180881
30
0
41
1
10
25.990300333935
20
12.6935896440997
30
0
41
1
10
26.0087793745321
20
12.6838018941156
30
0
41
1
10
26.0208255768154
20
12.6739872306036
30
0
41
1
10
26.0430843368215
20
12.6490766153709
30
0
41
1
10
26.0527903934534
20
12.6328892296933
30
0
41
1
10
26.066954912446
20
12.5990559663066
30
0
41
1
10
26.07204803846
20
12.5815679934932
30
0
41
1
10
26.0794867440361
20
12.5422501559067
30
0
41
1
10
26.081458605176
20
12.519513095272
30
0
41
1
10
26.0811100662915
20
12.4748526681442
30
0
41
1
10
26.0787796342844
20
12.452237004302
30
0
41
1
10
26.0700744334302
20
12.4103534440445
30
0
41
1
10
26.0634978563533
20
12.3905252454902
30
0
41
1
10
26.0457369932043
20
12.3548332867655
30
0
41
1
10
26.0340799608658
20
12.3387254463232
30
0
41
1
10
26.008701419119
20
12.3164795397683
30
0
41
1
10
25.9962344198634
20
12.3085651310199
30
0
41
1
10
25.9817115471211
20
12.3026645496351
30
0
0
SPLINE
5
1D8
100
AcDbEntity
8
1
62
256
6
ByLayer
370
13
48
1
60
0
100
AcDbSpline
70
4
71
3
72
12
73
8
40
0
40
0
40
0
40
0
40
0.365724954919257
40
0.365724954919257
40
0.979118069631435
40
0.979118069631435
40
1
40
1
40
1
40
1
41
1
10
27.3102634152023
20
12.0213569857362
30
0
41
1
10
27.2937361056157
20
12.036024354936
30
0
41
1
10
27.2756371518841
20
12.0491968539291
30
0
41
1
10
27.2250623637126
20
12.0789550131522
30
0
41
1
10
27.1900751797186
20
12.0924443233668
30
0
41
1
10
27.1538899332389
20
12.0997723242546
30
0
41
1
10
27.1526851799038
20
12.1000088022536
30
0
41
1
10
27.1514801084145
20
12.1002383523383
30
0
0
SPLINE
5
1D9
100
AcDbEntity
8
1
62
256
6
ByLayer
370
13
48
1
60
0
100
AcDbSpline
70
4
71
3
72
12
73
8
40
0
40
0
40
0
40
0
40
0.0209717280275962
40
0.0209717280275962
40
0.549261945584352
40
0.549261945584352
40
1
40
1
40
1
40
1
41
1
10
27.1514801084148
20
12.8997616476618
30
0
41
1
10
27.1526851798995
20
12.8999911977523
30
0
41
1
10
27.1538899332219
20
12.9002276757696
30
0
41
1
10
27.1853191773472
20
12.9065925218024
30
0
41
1
10
27.2154975045281
20
12.9174441360661
30
0
41
1
10
27.2672856302101
20
12.9448808616104
30
0
41
1
10
27.2899815347171
20
12.9606436037982
30
0
41
1
10
27.3102634152025
20
12.9786430142639
30
0
0
SPLINE
5
1DA
100
AcDbEntity
8
1
62
256
6
ByLayer
370
13
48
1
60
0
100
AcDbSpline
70
4
71
3
72
12
73
8
40
0
40
0
40
0
40
0
40
0.49164663932398
40
0.49164663932398
40
0.875373657848572
40
0.875373657848572
40
1
40
1
40
1
40
1
41
1
10
27.3739430174867
20
12.6309955418567
30
0
41
1
10
27.3580682635103
20
12.6768252515877
30
0
41
1
10
27.3471504774151
20
12.7231670121618
30
0
41
1
10
27.3341440987431
20
12.7967259420695
30
0
41
1
10
27.330526825236
20
12.8266866388054
30
0
41
1
10
27.3274054244723
20
12.8606049644805
30
0
41
1
10
27.3267634910172
20
12.8685515841167
30
0
41
1
10
27.3262120963126
20
12.87602364729
30
0
0
SPLINE
5
1DB
100
AcDbEntity
8
1
62
256
6
ByLayer
370
13
48
1
60
0
100
AcDbSpline
70
4
71
3
72
12
73
8
40
0
40
0
40
0
40
0
40
0.0378282684204534
40
0.0378282684204534
40
0.727108891322555
40
0.727108891322555
40
1
40
1
40
1
40
1
41
1
10
27.3739430174867
20
12.6309955418567
30
0
41
1
10
27.3824023364264
20
12.6326735103037
30
0
41
1
10
27.3909189581296
20
12.6343694462142
30
0
41
1
10
27.5536057521076
20
12.6668895319119
30
0
41
1
10
27.7281123770015
20
12.7038686630112
30
0
41
1
10
27.9808681739289
20
12.7598467351308
30
0
41
1
10
28.0546315555727
20
12.7764542597197
30
0
41
1
10
28.1289221872925
20
12.7934518921111
30
0
0
SPLINE
5
1DC
100
AcDbEntity
8
1
62
256
6
ByLayer
370
13
48
1
60
0
100
AcDbSpline
70
4
71
3
72
8
73
4
40
0
40
0
40
0
40
0
40
1
40
1
40
1
40
1
41
1
10
27.3775115598657
20
13.1357144276889
30
0
41
1
10
27.3742211632921
20
13.13058249659
30
0
41
1
10
27.3708498814567
20
13.1253842052671
30
0
41
1
10
27.3674054923343
20
13.1201361512406
30
0
0
SPLINE
5
1DD
100
AcDbEntity
8
1
62
256
6
ByLayer
370
13
48
1
60
0
100
AcDbSpline
70
4
71
3
72
8
73
4
40
0
40
0
40
0
40
0
40
1
40
1
40
1
40
1
41
1
10
27.3775115598653
20
11.8642855723124
30
0
41
1
10
27.3742211632919
20
11.8694175034109
30
0
41
1
10
27.3708498814565
20
11.8746157947331
30
0
41
1
10
27.3674054923344
20
11.8798638487592
30
0
0
SPLINE
5
1DE
100
AcDbEntity
8
1
62
256
6
ByLayer
370
13
48
1
60
0
100
AcDbSpline
70
4
71
3
72
10
73
6
40
0
40
0
40
0
40
0
40
0.543977242056965
40
0.543977242056965
40
1
40
1
40
1
40
1
41
1
10
26.0586453076065
20
12.2012139734525
30
0
41
1
10
26.0348598955802
20
12.2202070756869
30
0
41
1
10
26.0082267241209
20
12.2343696780033
30
0
41
1
10
25.9582400099704
20
12.250018224756
30
0
41
1
10
25.9345424108346
20
12.2533664556958
30
0
41
1
10
25.9112725012788
20
12.2529796356327
30
0
0
SPLINE
5
1DF
100
AcDbEntity
8
1
62
256
6
ByLayer
370
13
48
1
60
0
100
AcDbSpline
70
4
71
3
72
10
73
6
40
0
40
0
40
0
40
0
40
0.594671969867266
40
0.594671969867266
40
1
40
1
40
1
40
1
41
1
10
25.9112725012887
20
12.7470203643677
30
0
41
1
10
25.9414272134587
20
12.7465190969441
30
0
41
1
10
25.9724285425084
20
12.7523704300969
30
0
41
1
10
26.0214044990009
20
12.7729973709051
30
0
41
1
10
26.0407983096893
20
12.7845348605077
30
0
41
1
10
26.0586453076066
20
12.7987860265434
30
0
0
SPLINE
5
1E0
100
AcDbEntity
8
1
62
256
6
ByLayer
370
13
48
1
60
0
100
AcDbSpline
70
4
71
3
72
10
73
6
40
0
40
0
40
0
40
0
40
0.441584000439074
40
0.441584000439074
40
1
40
1
40
1
40
1
41
1
10
25.8682618588516
20
12.7476220303154
30
0
41
1
10
25.8831578146862
20
12.7402108637551
30
0
41
1
10
25.8983157146139
20
12.7330147908951
30
0
41
1
10
25.9331615279671
20
12.7172455045128
30
0
41
1
10
25.9530007239137
20
12.7088054948342
30
0
41
1
10
25.9731579439907
20
12.7007556517995
30
0
0
SPLINE
5
1E1
100
AcDbEntity
8
1
62
256
6
ByLayer
370
13
48
1
60
0
100
AcDbSpline
70
4
71
3
72
10
73
6
40
0
40
0
40
0
40
0
40
0.317001517206847
40
0.317001517206847
40
1
40
1
40
1
40
1
41
1
10
25.9112725012775
20
12.7470203643691
30
0
41
1
10
25.9064777423953
20
12.7463787947717
30
0
41
1
10
25.901749086712
20
12.7459595095346
30
0
41
1
10
25.8870718822178
20
12.7453408373381
30
0
41
1
10
25.8773952454518
20
12.7459646929497
30
0
41
1
10
25.8682618588516
20
12.7476220303154
30
0
0
SPLINE
5
1E2
100
AcDbEntity
8
1
62
256
6
ByLayer
370
13
48
1
60
0
100
AcDbSpline
70
4
71
3
72
10
73
6
40
0
40
0
40
0
40
0
40
0.357650901073067
40
0.357650901073067
40
1
40
1
40
1
40
1
41
1
10
25.8682618588516
20
12.2523779696849
30
0
41
1
10
25.8730683572598
20
12.2532501532197
30
0
41
1
10
25.8780213367011
20
12.253836693947
30
0
41
1
10
25.8921229263445
20
12.2546642862729
30
0
41
1
10
25.9015680505855
20
12.2542781535931
30
0
41
1
10
25.9112725012795
20
12.2529796356328
30
0
0
SPLINE
5
1E3
100
AcDbEntity
8
1
62
256
6
ByLayer
370
13
48
1
60
0
100
AcDbSpline
70
4
71
3
72
10
73
6
40
0
40
0
40
0
40
0
40
0.558477308496816
40
0.558477308496816
40
1
40
1
40
1
40
1
41
1
10
25.9731579439905
20
12.2992443482018
30
0
41
1
10
25.9529985124188
20
12.2911936220003
30
0
41
1
10
25.9331571738854
20
12.2827526429753
30
0
41
1
10
25.8983115077505
20
12.266983212059
30
0
41
1
10
25.8831557478674
20
12.2597881079434
30
0
41
1
10
25.8682618588516
20
12.2523779696849
30
0
0
SPLINE
5
1E4
100
AcDbEntity
8
1
62
256
6
ByLayer
370
13
48
1
60
0
100
AcDbSpline
70
4
71
3
72
12
73
8
40
0
40
0
40
0
40
0
40
0.709988165001255
40
0.709988165001255
40
0.92220788847233
40
0.92220788847233
40
1
40
1
40
1
40
1
41
1
10
25.8327064157301
20
12.7830078502643
30
0
41
1
10
25.849201252382
20
12.7708226006108
30
0
41
1
10
25.8677573595242
20
12.761092671194
30
0
41
1
10
25.8928332682202
20
12.7521079456906
30
0
41
1
10
25.8987365689449
20
12.7502680486856
30
0
41
1
10
25.9068788977592
20
12.7480904827853
30
0
41
1
10
25.9090724396469
20
12.7475389387769
30
0
41
1
10
25.9112725012799
20
12.7470203643754
30
0
0
SPLINE
5
1E5
100
AcDbEntity
8
1
62
256
6
ByLayer
370
13
48
1
60
0
100
AcDbSpline
70
4
71
3
72
10
73
6
40
0
40
0
40
0
40
0
40
0.735193443551149
40
0.735193443551149
40
1
40
1
40
1
40
1
41
1
10
25.9112725012795
20
12.2529796356318
30
0
41
1
10
25.8906991613073
20
12.2481303135475
30
0
41
1
10
25.8704915627687
20
12.2402853497846
30
0
41
1
10
25.8454099006124
20
12.2258210525649
30
0
41
1
10
25.8389206110604
20
12.2215827694321
30
0
41
1
10
25.8327064157472
20
12.2169921497828
30
0
0
SPLINE
5
1E6
100
AcDbEntity
8
1
62
256
6
ByLayer
370
13
48
1
60
0
100
AcDbSpline
70
4
71
3
72
10
73
6
40
0
40
0
40
0
40
0
40
0.333804371559252
40
0.333804371559252
40
1
40
1
40
1
40
1
41
1
10
25.9731579439905
20
12.7007556517984
30
0
41
1
10
25.9741089610471
20
12.7003751106531
30
0
41
1
10
25.975060222121
20
12.6999945630473
30
0
41
1
10
25.9779107035581
20
12.6988545134037
30
0
41
1
10
25.9798106484521
20
12.6980949926789
30
0
41
1
10
25.9817115471211
20
12.6973354503652
30
0
0
SPLINE
5
1E7
100
AcDbEntity
8
1
62
256
6
ByLayer
370
13
48
1
60
0
100
AcDbSpline
70
4
71
3
72
10
73
6
40
0
40
0
40
0
40
0
40
0.666195628071545
40
0.666195628071545
40
1
40
1
40
1
40
1
41
1
10
25.9817115471211
20
12.3026645496351
30
0
41
1
10
25.9798106484531
20
12.3019050073218
30
0
41
1
10
25.9779107035602
20
12.3011454865974
30
0
41
1
10
25.9750602221231
20
12.3000054369538
30
0
41
1
10
25.9741089610481
20
12.2996248893471
30
0
41
1
10
25.9731579439904
20
12.2992443482013
30
0
0
SPLINE
5
1E8
100
AcDbEntity
8
1
62
256
6
ByLayer
370
13
48
1
60
0
100
AcDbSpline
70
4
71
3
72
10
73
6
40
0
40
0
40
0
40
0
40
0.741839809293022
40
0.741839809293022
40
1
40
1
40
1
40
1
41
1
10
25.7775223795399
20
12.8506956624415
30
0
41
1
10
25.7872637205793
20
12.8313441513892
30
0
41
1
10
25.8004639767516
20
12.8134926877042
30
0
41
1
10
25.8211300943468
20
12.7928685447189
30
0
41
1
10
25.8267956571449
20
12.7877800252316
30
0
41
1
10
25.8327064157229
20
12.7830078502549
30
0
0
SPLINE
5
1E9
100
AcDbEntity
8
1
62
256
6
ByLayer
370
13
48
1
60
0
100
AcDbSpline
70
4
71
3
72
10
73
6
40
0
40
0
40
0
40
0
40
0.344098564729953
40
0.344098564729953
40
1
40
1
40
1
40
1
41
1
10
25.8327064157477
20
12.2169921497819
30
0
41
1
10
25.8248480305401
20
12.2106475175771
30
0
41
1
10
25.8174164333951
20
12.2037396753543
30
0
41
1
10
25.7974612534847
20
12.182377952837
30
0
41
1
10
25.7861446779715
20
12.1664328317493
30
0
41
1
10
25.7775223795392
20
12.1493043375579
30
0
0
SPLINE
5
1EA
100
AcDbEntity
8
1
62
256
6
ByLayer
370
13
48
1
60
0
100
AcDbSpline
70
4
71
3
72
8
73
4
40
0
40
0
40
0
40
0
40
1
40
1
40
1
40
1
41
1
10
25.7484695777326
20
12.888965802309
30
0
41
1
10
25.756844178597
20
12.8752564294815
30
0
41
1
10
25.7665807416806
20
12.8623705665707
30
0
41
1
10
25.7775223795411
20
12.8506956624427
30
0
0
SPLINE
5
1EB
100
AcDbEntity
8
1
62
256
6
ByLayer
370
13
48
1
60
0
100
AcDbSpline
70
4
71
3
72
8
73
4
40
0
40
0
40
0
40
0
40
1
40
1
40
1
40
1
41
1
10
25.7775223795389
20
12.1493043375581
30
0
41
1
10
25.766580741679
20
12.1376294334304
30
0
41
1
10
25.7568441785981
20
12.1247435705164
30
0
41
1
10
25.7484695777341
20
12.1110341976896
30
0
0
SPLINE
5
1EC
100
AcDbEntity
8
1
62
256
6
ByLayer
370
13
48
1
60
0
100
AcDbSpline
70
4
71
3
72
8
73
4
40
0
40
0
40
0
40
0
40
1
40
1
40
1
40
1
41
1
10
25.7484695777332
20
12.1110341976923
30
0
41
1
10
25.706994641852
20
12.0145071910671
30
0
41
1
10
25.6641587550012
20
11.9185101555478
30
0
41
1
10
25.6183319361237
20
11.8240156686542
30
0
0
SPLINE
5
1ED
100
AcDbEntity
8
1
62
256
6
ByLayer
370
13
48
1
60
0
100
AcDbSpline
70
4
71
3
72
8
73
4
40
0
40
0
40
0
40
0
40
1
40
1
40
1
40
1
41
1
10
25.6183319361237
20
13.1759843313461
30
0
41
1
10
25.664158755001
20
13.0814898444529
30
0
41
1
10
25.7069946418517
20
12.9854928089339
30
0
41
1
10
25.7484695777328
20
12.8889658023091
30
0
0
SPLINE
5
1EE
100
AcDbEntity
8
1
62
256
6
ByLayer
370
13
48
1
60
0
100
AcDbSpline
70
4
71
3
72
10
73
6
40
0
40
0
40
0
40
0
40
0.779724613001554
40
0.779724613001554
40
1
40
1
40
1
40
1
41
1
10
25.8487905068831
20
12.7510243555531
30
0
41
1
10
25.8522814951948
20
12.7510243555529
30
0
41
1
10
25.8570719807736
20
12.7503640906471
30
0
41
1
10
25.864621012228
20
12.7485876292614
30
0
41
1
10
25.8664035390181
20
12.7481314246255
30
0
41
1
10
25.8682618588516
20
12.7476220303154
30
0
0
SPLINE
5
1EF
100
AcDbEntity
8
1
62
256
6
ByLayer
370
13
48
1
60
0
100
AcDbSpline
70
4
71
3
72
8
73
4
40
0
40
0
40
0
40
0
40
1
40
1
40
1
40
1
41
1
10
25.7775223795398
20
12.8506956624417
30
0
41
1
10
25.7675268649006
20
12.8564877190547
30
0
41
1
10
25.7585032631411
20
12.8623184993727
30
0
41
1
10
25.7506142807834
20
12.8679978802779
30
0
0
SPLINE
5
1F0
100
AcDbEntity
8
1
62
256
6
ByLayer
370
13
48
1
60
0
100
AcDbSpline
70
4
71
3
72
8
73
4
40
0
40
0
40
0
40
0
40
1
40
1
40
1
40
1
41
1
10
25.7506142807802
20
12.1320021197204
30
0
41
1
10
25.7585032631378
20
12.1376815006255
30
0
41
1
10
25.7675268648999
20
12.1435122809451
30
0
41
1
10
25.777522379539
20
12.1493043375582
30
0
0
SPLINE
5
1F1
100
AcDbEntity
8
1
62
256
6
ByLayer
370
13
48
1
60
0
100
AcDbSpline
70
4
71
3
72
10
73
6
40
0
40
0
40
0
40
0
40
0.220275387008479
40
0.220275387008479
40
1
40
1
40
1
40
1
41
1
10
25.8682618588516
20
12.2523779696849
30
0
41
1
10
25.866403539018
20
12.2518685753748
30
0
41
1
10
25.8646210122277
20
12.2514123707388
30
0
41
1
10
25.8570719807734
20
12.2496359093533
30
0
41
1
10
25.8522814951945
20
12.2489756444473
30
0
41
1
10
25.8487905068828
20
12.2489756444472
30
0
0
SPLINE
5
1F2
100
AcDbEntity
8
1
62
256
6
ByLayer
370
13
48
1
60
0
100
AcDbSpline
70
4
71
3
72
10
73
6
40
0
40
0
40
0
40
0
40
0.491839191976824
40
0.491839191976824
40
1
40
1
40
1
40
1
41
1
10
27.3739430174867
20
12.3690044581436
30
0
41
1
10
27.3840171195627
20
12.4106011713084
30
0
41
1
10
27.389736079367
20
12.4544038552024
30
0
41
1
10
27.390089674138
20
12.5427325714019
30
0
41
1
10
27.3843433987004
20
12.5880515979806
30
0
41
1
10
27.3739430174867
20
12.6309955418567
30
0
0
SPLINE
5
1F3
100
AcDbEntity
8
1
62
256
6
ByLayer
370
13
48
1
60
0
100
AcDbSpline
70
4
71
3
72
8
73
4
40
0
40
0
40
0
40
0
40
1
40
1
40
1
40
1
41
1
10
25.748469577733
20
12.8889658023102
30
0
41
1
10
25.7491523507354
20
12.8820363964477
30
0
41
1
10
25.7498660198604
20
12.8750447310776
30
0
41
1
10
25.7506142807769
20
12.8679978802822
30
0
0
SPLINE
5
1F4
100
AcDbEntity
8
1
62
256
6
ByLayer
370
13
48
1
60
0
100
AcDbSpline
70
4
71
3
72
8
73
4
40
0
40
0
40
0
40
0
40
1
40
1
40
1
40
1
41
1
10
25.7506142807767
20
12.1320021197169
30
0
41
1
10
25.7498660198604
20
12.1249552689227
30
0
41
1
10
25.7491523507355
20
12.1179636035537
30
0
41
1
10
25.7484695777332
20
12.1110341976923
30
0
0
SPLINE
5
1F5
100
AcDbEntity
8
1
62
256
6
ByLayer
370
13
48
1
60
0
100
AcDbSpline
70
4
71
3
72
16
73
12
40
0
40
0
40
0
40
0
40
0.565035752121982
40
0.565035752121982
40
0.802127499925977
40
0.802127499925977
40
0.909039374754918
40
0.909039374754918
40
0.963879000672096
40
0.963879000672096
40
1
40
1
40
1
40
1
41
1
10
29.4753143467793
20
13.2655358859603
30
0
41
1
10
29.4686286509489
20
13.2799284591269
30
0
41
1
10
29.4618879302625
20
13.2946338300973
30
0
41
1
10
29.4523712685777
20
13.3156562005705
30
0
41
1
10
29.4495577546969
20
13.3219044171267
30
0
41
1
10
29.4454904861867
20
13.3309860410471
30
0
41
1
10
29.4442279534699
20
13.3338119993627
30
0
41
1
10
29.4423215351283
20
13.3380898023811
30
0
41
1
10
29.4416757755847
20
13.3395406698467
30
0
41
1
10
29.4406068513423
20
13.3419453874198
30
0
41
1
10
29.4401828059207
20
13.3428988877765
30
0
41
1
10
29.4397600217523
20
13.3438529003173
30
0
0
SPLINE
5
1F6
100
AcDbEntity
8
1
62
256
6
ByLayer
370
13
48
1
60
0
100
AcDbSpline
70
4
71
3
72
10
73
6
40
0
40
0
40
0
40
0
40
0.484066971714713
40
0.484066971714713
40
1
40
1
40
1
40
1
41
1
10
29.5636089363248
20
13.1558030543976
30
0
41
1
10
29.5463854867531
20
13.1706675235359
30
0
41
1
10
29.5300210449059
20
13.1867285583765
30
0
41
1
10
29.4997771424429
20
13.2228211129405
30
0
41
1
10
29.485689560494
20
13.243200735471
30
0
41
1
10
29.4753143467793
20
13.2655358859603
30
0
0
SPLINE
5
1F7
100
AcDbEntity
8
1
62
256
6
ByLayer
370
13
48
1
60
0
100
AcDbSpline
70
4
71
3
72
16
73
12
40
0
40
0
40
0
40
0
40
0.565035752121982
40
0.565035752121982
40
0.802127499925978
40
0.802127499925978
40
0.909039374754918
40
0.909039374754918
40
0.963879000672096
40
0.963879000672096
40
1
40
1
40
1
40
1
41
1
10
29.4753143467793
20
11.73446411404
30
0
41
1
10
29.4686286509485
20
11.7200715408735
30
0
41
1
10
29.4618879302625
20
11.705366169903
30
0
41
1
10
29.4523712685777
20
11.6843437994298
30
0
41
1
10
29.4495577546969
20
11.6780955828736
30
0
41
1
10
29.4454904861867
20
11.6690139589532
30
0
41
1
10
29.4442279534699
20
11.6661880006375
30
0
41
1
10
29.4423215351283
20
11.6619101976192
30
0
41
1
10
29.4416757755847
20
11.6604593301536
30
0
41
1
10
29.4406068513423
20
11.6580546125805
30
0
41
1
10
29.4401828059207
20
11.6571011122238
30
0
41
1
10
29.4397600217523
20
11.656147099683
30
0
0
SPLINE
5
1F8
100
AcDbEntity
8
1
62
256
6
ByLayer
370
13
48
1
60
0
100
AcDbSpline
70
4
71
3
72
8
73
4
40
0
40
0
40
0
40
0
40
1
40
1
40
1
40
1
41
1
10
29.4397600217522
20
11.656147099683
30
0
41
1
10
29.3220556485929
20
11.6316738094458
30
0
41
1
10
29.2008781086109
20
11.6222473193139
30
0
41
1
10
29.0810768987951
20
11.6251838363334
30
0
0
SPLINE
5
1F9
100
AcDbEntity
8
1
62
256
6
ByLayer
370
13
48
1
60
0
100
AcDbSpline
70
4
71
3
72
8
73
4
40
0
40
0
40
0
40
0
40
1
40
1
40
1
40
1
41
1
10
29.4397600217522
20
13.3438529003173
30
0
41
1
10
29.3220556485929
20
13.3683261905545
30
0
41
1
10
29.2008781086109
20
13.3777526806864
30
0
41
1
10
29.0810768987951
20
13.3748161636669
30
0
0
SPLINE
5
1FA
100
AcDbEntity
8
1
62
256
6
ByLayer
370
13
48
1
60
0
100
AcDbSpline
70
4
71
3
72
10
73
6
40
0
40
0
40
0
40
0
40
0.484066971714709
40
0.484066971714709
40
1
40
1
40
1
40
1
41
1
10
29.5636089363248
20
11.8441969456027
30
0
41
1
10
29.5463854867531
20
11.8293324764644
30
0
41
1
10
29.5300210449059
20
11.8132714416238
30
0
41
1
10
29.4997771424429
20
11.7771788870598
30
0
41
1
10
29.485689560494
20
11.7567992645292
30
0
41
1
10
29.4753143467793
20
11.73446411404
30
0
0
SPLINE
5
1FB
100
AcDbEntity
8
1
62
256
6
ByLayer
370
13
48
1
60
0
100
AcDbSpline
70
4
71
3
72
10
73
6
40
0
40
0
40
0
40
0
40
0.176628710800224
40
0.176628710800224
40
1
40
1
40
1
40
1
41
1
10
29.8256635776615
20
13.0311208872974
30
0
41
1
10
29.8183722025778
20
13.0421071180089
30
0
41
1
10
29.8104894309624
20
13.0527108699266
30
0
41
1
10
29.7638040682909
20
13.1097655753228
30
0
41
1
10
29.7154493527108
20
13.1486994667985
30
0
41
1
10
29.6642473322785
20
13.1808693205402
30
0
0
SPLINE
5
1FC
100
AcDbEntity
8
1
62
256
6
ByLayer
370
13
48
1
60
0
100
AcDbSpline
70
4
71
3
72
8
73
4
40
0
40
0
40
0
40
0
40
1
40
1
40
1
40
1
41
1
10
29.6642473322785
20
13.1808693205401
30
0
41
1
10
29.6451065349848
20
13.1928953430338
30
0
41
1
10
29.625925565824
20
13.2048575679294
30
0
41
1
10
29.6067026707552
20
13.2167516913739
30
0
0
SPLINE
5
1FD
100
AcDbEntity
8
1
62
256
6
ByLayer
370
13
48
1
60
0
100
AcDbSpline
70
4
71
3
72
10
73
6
40
0
40
0
40
0
40
0
40
0.502273026272322
40
0.502273026272322
40
1
40
1
40
1
40
1
41
1
10
29.6067026707552
20
13.2167516913739
30
0
41
1
10
29.5891255877275
20
13.2276274722891
30
0
41
1
10
29.5719685584501
20
13.2392520639038
30
0
41
1
10
29.5393998135679
20
13.2643377244975
30
0
41
1
10
29.5236090237987
20
13.2777355137773
30
0
41
1
10
29.5105155637419
20
13.2934537725688
30
0
0
SPLINE
5
1FE
100
AcDbEntity
8
1
62
256
6
ByLayer
370
13
48
1
60
0
100
AcDbSpline
70
4
71
3
72
10
73
6
40
0
40
0
40
0
40
0
40
0.502273026272322
40
0.502273026272322
40
1
40
1
40
1
40
1
41
1
10
29.6067026707552
20
11.7832483086264
30
0
41
1
10
29.5891255877275
20
11.7723725277112
30
0
41
1
10
29.5719685584501
20
11.7607479360965
30
0
41
1
10
29.5393998135679
20
11.7356622755028
30
0
41
1
10
29.5236090237987
20
11.722264486223
30
0
41
1
10
29.5105155637419
20
11.7065462274315
30
0
0
SPLINE
5
1FF
100
AcDbEntity
8
1
62
256
6
ByLayer
370
13
48
1
60
0
100
AcDbSpline
70
4
71
3
72
8
73
4
40
0
40
0
40
0
40
0
40
1
40
1
40
1
40
1
41
1
10
29.6642473322785
20
11.8191306794602
30
0
41
1
10
29.6451065349848
20
11.8071046569665
30
0
41
1
10
29.625925565824
20
11.7951424320709
30
0
41
1
10
29.6067026707552
20
11.7832483086264
30
0
0
SPLINE
5
200
100
AcDbEntity
8
1
62
256
6
ByLayer
370
13
48
1
60
0
100
AcDbSpline
70
4
71
3
72
10
73
6
40
0
40
0
40
0
40
0
40
0.176628710800224
40
0.176628710800224
40
1
40
1
40
1
40
1
41
1
10
29.8256635776615
20
11.9688791127028
30
0
41
1
10
29.8183722025778
20
11.9578928819914
30
0
41
1
10
29.8104894309624
20
11.9472891300738
30
0
41
1
10
29.7638040682909
20
11.8902344246775
30
0
41
1
10
29.7154493527108
20
11.8513005332018
30
0
41
1
10
29.6642473322785
20
11.8191306794602
30
0
0
SPLINE
5
201
100
AcDbEntity
8
1
62
256
6
ByLayer
370
13
48
1
60
0
100
AcDbSpline
70
4
71
3
72
10
73
6
40
0
40
0
40
0
40
0
40
0.828685679108716
40
0.828685679108716
40
1
40
1
40
1
40
1
41
1
10
29.6207683583679
20
13.120231768134
30
0
41
1
10
29.6686097493866
20
13.0948789414494
30
0
41
1
10
29.7147633392972
20
13.0640732076025
30
0
41
1
10
29.7604070337687
20
13.0171710550486
30
0
41
1
10
29.7679488590383
20
13.0086600414275
30
0
41
1
10
29.7749800271743
20
12.9997620498899
30
0
0
SPLINE
5
202
100
AcDbEntity
8
1
62
256
6
ByLayer
370
13
48
1
60
0
100
AcDbSpline
70
4
71
3
72
10
73
6
40
0
40
0
40
0
40
0
40
0.828685679108716
40
0.828685679108716
40
1
40
1
40
1
40
1
41
1
10
29.6207683583679
20
11.8797682318663
30
0
41
1
10
29.6686097493866
20
11.9051210585508
30
0
41
1
10
29.7147633392972
20
11.9359267923978
30
0
41
1
10
29.7604070337687
20
11.9828289449517
30
0
41
1
10
29.7679488590383
20
11.9913399585728
30
0
41
1
10
29.7749800271743
20
12.0002379501104
30
0
0
SPLINE
5
203
100
AcDbEntity
8
1
62
256
6
ByLayer
370
13
48
1
60
0
100
AcDbSpline
70
4
71
3
72
10
73
6
40
0
40
0
40
0
40
0
40
0.595894712070617
40
0.595894712070617
40
1
40
1
40
1
40
1
41
1
10
29.796439687712
20
12.9719580408749
30
0
41
1
10
29.8128914645872
20
12.9501903503934
30
0
41
1
10
29.8267183907984
20
12.9257700986574
30
0
41
1
10
29.840810212682
20
12.8820989810866
30
0
41
1
10
29.8440390421828
20
12.8633404430768
30
0
41
1
10
29.8441651422481
20
12.8447404067392
30
0
0
SPLINE
5
204
100
AcDbEntity
8
1
62
256
6
ByLayer
370
13
48
1
60
0
100
AcDbSpline
70
4
71
3
72
12
73
8
40
0
40
0
40
0
40
0
40
0.0880792633922689
40
0.0880792633922689
40
0.576107189837383
40
0.576107189837383
40
1
40
1
40
1
40
1
41
1
10
29.5040818169429
20
12.852129040249
30
0
41
1
10
29.5140661440234
20
12.8524184249717
30
0
41
1
10
29.5240551161812
20
12.8525607797166
30
0
41
1
10
29.5893799480028
20
12.8524346063381
30
0
41
1
10
29.6447000295702
20
12.8503756036341
30
0
41
1
10
29.7480735369365
20
12.8477193102371
30
0
41
1
10
29.7961214732615
20
12.8463032538925
30
0
41
1
10
29.8441651422481
20
12.8447404067392
30
0
0
SPLINE
5
205
100
AcDbEntity
8
1
62
256
6
ByLayer
370
13
48
1
60
0
100
AcDbSpline
70
4
71
3
72
8
73
4
40
0
40
0
40
0
40
0
40
1
40
1
40
1
40
1
41
1
10
29.7749800271743
20
12.9997620498899
30
0
41
1
10
29.782226373284
20
12.9905917491494
30
0
41
1
10
29.7893744966751
20
12.9813061430799
30
0
41
1
10
29.796439687712
20
12.9719580408749
30
0
0
SPLINE
5
206
100
AcDbEntity
8
1
62
256
6
ByLayer
370
13
48
1
60
0
100
AcDbSpline
70
4
71
3
72
12
73
8
40
0
40
0
40
0
40
0
40
0.0880792633922689
40
0.0880792633922689
40
0.576107189837383
40
0.576107189837383
40
1
40
1
40
1
40
1
41
1
10
29.5040818169429
20
12.1478709597513
30
0
41
1
10
29.5140661440234
20
12.1475815750286
30
0
41
1
10
29.5240551161812
20
12.1474392202837
30
0
41
1
10
29.5893799480028
20
12.1475653936622
30
0
41
1
10
29.6447000295702
20
12.1496243963662
30
0
41
1
10
29.7480735369365
20
12.1522806897632
30
0
41
1
10
29.7961214732615
20
12.1536967461078
30
0
41
1
10
29.8441651422481
20
12.1552595932611
30
0
0
SPLINE
5
207
100
AcDbEntity
8
1
62
256
6
ByLayer
370
13
48
1
60
0
100
AcDbSpline
70
4
71
3
72
10
73
6
40
0
40
0
40
0
40
0
40
0.595894712070617
40
0.595894712070617
40
1
40
1
40
1
40
1
41
1
10
29.796439687712
20
12.0280419591254
30
0
41
1
10
29.8128914645872
20
12.0498096496069
30
0
41
1
10
29.8267183907984
20
12.0742299013429
30
0
41
1
10
29.840810212682
20
12.1179010189137
30
0
41
1
10
29.8440390421828
20
12.1366595569236
30
0
41
1
10
29.8441651422481
20
12.1552595932611
30
0
0
SPLINE
5
208
100
AcDbEntity
8
1
62
256
6
ByLayer
370
13
48
1
60
0
100
AcDbSpline
70
4
71
3
72
8
73
4
40
0
40
0
40
0
40
0
40
1
40
1
40
1
40
1
41
1
10
29.7749800271743
20
12.0002379501104
30
0
41
1
10
29.782226373284
20
12.0094082508508
30
0
41
1
10
29.7893744966751
20
12.0186938569204
30
0
41
1
10
29.796439687712
20
12.0280419591254
30
0
0
SPLINE
5
209
100
AcDbEntity
8
1
62
256
6
ByLayer
370
13
48
1
60
0
100
AcDbSpline
70
4
71
3
72
16
73
12
40
0
40
0
40
0
40
0
40
0.550547840515593
40
0.550547840515593
40
0.792876062772848
40
0.792876062772848
40
0.904227776395907
40
0.904227776395907
40
0.964015152759446
40
0.964015152759446
40
1
40
1
40
1
40
1
41
1
10
29.510515563742
20
11.7065462274315
30
0
41
1
10
29.4975450008677
20
11.6975094806364
30
0
41
1
10
29.4844768135886
20
11.6882917173062
30
0
41
1
10
29.4657548110491
20
11.6749274917643
30
0
41
1
10
29.460032266874
20
11.6708210094465
30
0
41
1
10
29.4517104802333
20
11.664817303218
30
0
41
1
10
29.4490936305623
20
11.6629247392647
30
0
41
1
10
29.4450796636702
20
11.6600145017369
30
0
41
1
10
29.4436787273479
20
11.6589974209557
30
0
41
1
10
29.4414390369606
20
11.6573692054916
30
0
41
1
10
29.4405990425508
20
11.6567584330256
30
0
41
1
10
29.4397600217523
20
11.656147099683
30
0
0
SPLINE
5
20A
100
AcDbEntity
8
1
62
256
6
ByLayer
370
13
48
1
60
0
100
AcDbSpline
70
4
71
3
72
16
73
12
40
0
40
0
40
0
40
0
40
0.550547840515593
40
0.550547840515593
40
0.792876062772848
40
0.792876062772848
40
0.904227776395907
40
0.904227776395907
40
0.964015152759446
40
0.964015152759446
40
1
40
1
40
1
40
1
41
1
10
29.510515563742
20
13.2934537725688
30
0
41
1
10
29.4975450008677
20
13.3024905193639
30
0
41
1
10
29.4844768135886
20
13.311708282694
30
0
41
1
10
29.4657548110491
20
13.325072508236
30
0
41
1
10
29.460032266874
20
13.3291789905538
30
0
41
1
10
29.4517104802333
20
13.3351826967823
30
0
41
1
10
29.4490936305623
20
13.3370752607355
30
0
41
1
10
29.4450796636702
20
13.3399854982634
30
0
41
1
10
29.4436787273479
20
13.3410025790446
30
0
41
1
10
29.4414390369606
20
13.3426307945087
30
0
41
1
10
29.4405990425508
20
13.3432415669747
30
0
41
1
10
29.4397600217523
20
13.3438529003173
30
0
0
SPLINE
5
20B
100
AcDbEntity
8
1
62
256
6
ByLayer
370
13
48
1
60
0
100
AcDbSpline
70
4
71
3
72
8
73
4
40
0
40
0
40
0
40
0
40
1
40
1
40
1
40
1
41
1
10
29.0810768987951
20
13.3748161636669
30
0
41
1
10
28.9666740375911
20
13.3715081378727
30
0
41
1
10
28.8499584372937
20
13.3625338394281
30
0
41
1
10
28.7337805434613
20
13.3667617720502
30
0
0
SPLINE
5
20C
100
AcDbEntity
8
1
62
256
6
ByLayer
370
13
48
1
60
0
100
AcDbSpline
70
4
71
3
72
8
73
4
40
0
40
0
40
0
40
0
40
1
40
1
40
1
40
1
41
1
10
29.0810768987951
20
11.6251838363334
30
0
41
1
10
28.9666740375911
20
11.6284918621276
30
0
41
1
10
28.8499584372937
20
11.6374661605721
30
0
41
1
10
28.7337805434613
20
11.6332382279501
30
0
0
SPLINE
5
20D
100
AcDbEntity
8
1
62
256
6
ByLayer
370
13
48
1
60
0
100
AcDbSpline
70
4
71
3
72
10
73
6
40
0
40
0
40
0
40
0
40
0.202374079532489
40
0.202374079532489
40
1
40
1
40
1
40
1
41
1
10
28.8939768523292
20
12.8533326201234
30
0
41
1
10
28.9366335743464
20
12.8521473391054
30
0
41
1
10
28.9793460209674
20
12.8516530985145
30
0
41
1
10
29.1872289032592
20
12.8488211110948
30
0
41
1
10
29.3524723046481
20
12.8489066014581
30
0
41
1
10
29.5040818169429
20
12.852129040249
30
0
0
SPLINE
5
20E
100
AcDbEntity
8
1
62
256
6
ByLayer
370
13
48
1
60
0
100
AcDbSpline
70
4
71
3
72
10
73
6
40
0
40
0
40
0
40
0
40
0.202374079532489
40
0.202374079532489
40
1
40
1
40
1
40
1
41
1
10
28.8939768523292
20
12.1466673798769
30
0
41
1
10
28.9366335743464
20
12.1478526608949
30
0
41
1
10
28.9793460209674
20
12.1483469014858
30
0
41
1
10
29.1872289032592
20
12.1511788889055
30
0
41
1
10
29.3524723046481
20
12.1510933985422
30
0
41
1
10
29.5040818169429
20
12.1478709597513
30
0
0
SPLINE
5
20F
100
AcDbEntity
8
1
62
256
6
ByLayer
370
13
48
1
60
0
100
AcDbSpline
70
4
71
3
72
10
73
6
40
0
40
0
40
0
40
0
40
0.412056726398416
40
0.412056726398416
40
1
40
1
40
1
40
1
41
1
10
29.8970257408962
20
12.1552595932611
30
0
41
1
10
29.8970257408962
20
12.1321400552951
30
0
41
1
10
29.89385361432
20
12.1088467272363
30
0
41
1
10
29.8795476699584
20
12.0547785364101
30
0
41
1
10
29.8654870839336
20
12.024308798738
30
0
41
1
10
29.8480375085945
20
11.9965747213283
30
0
0
SPLINE
5
210
100
AcDbEntity
8
1
62
256
6
ByLayer
370
13
48
1
60
0
100
AcDbSpline
70
4
71
3
72
8
73
4
40
0
40
0
40
0
40
0
40
1
40
1
40
1
40
1
41
1
10
28.7337805434613
20
13.3667617720502
30
0
41
1
10
28.6338294385697
20
13.3700103066638
30
0
41
1
10
28.5333593139737
20
13.3732301528135
30
0
41
1
10
28.4337805434612
20
13.3640386726325
30
0
0
SPLINE
5
211
100
AcDbEntity
8
1
62
256
6
ByLayer
370
13
48
1
60
0
100
AcDbSpline
70
4
71
3
72
8
73
4
40
0
40
0
40
0
40
0
40
1
40
1
40
1
40
1
41
1
10
28.7337805434613
20
11.6332382279501
30
0
41
1
10
28.6338294385697
20
11.6299896933365
30
0
41
1
10
28.5333593139737
20
11.6267698471868
30
0
41
1
10
28.4337805434612
20
11.6359613273677
30
0
0
SPLINE
5
212
100
AcDbEntity
8
1
62
256
6
ByLayer
370
13
48
1
60
0
100
AcDbSpline
70
4
71
3
72
10
73
6
40
0
40
0
40
0
40
0
40
0.412056726398416
40
0.412056726398416
40
1
40
1
40
1
40
1
41
1
10
29.8970257408962
20
12.8447404067392
30
0
41
1
10
29.8970257408962
20
12.8678599447052
30
0
41
1
10
29.89385361432
20
12.891153272764
30
0
41
1
10
29.8795476699584
20
12.9452214635901
30
0
41
1
10
29.8654870839336
20
12.9756912012622
30
0
41
1
10
29.8480375085945
20
13.003425278672
30
0
0
SPLINE
5
213
100
AcDbEntity
8
1
62
256
6
ByLayer
370
13
48
1
60
0
100
AcDbSpline
70
4
71
3
72
16
73
12
40
0
40
0
40
0
40
0
40
0.144623406732697
40
0.144623406732697
40
0.340113210683642
40
0.340113210683642
40
0.361421053906806
40
0.361421053906806
40
0.96509055241744
40
0.96509055241744
40
1
40
1
40
1
40
1
41
1
10
28.3939768523292
20
12.8496971097123
30
0
41
1
10
28.4176378728546
20
12.8544288071241
30
0
41
1
10
28.4416309953235
20
12.8576440347644
30
0
41
1
10
28.498193352456
20
12.8624010940094
30
0
41
1
10
28.5308631318152
20
12.8635562358424
30
0
41
1
10
28.5670552818253
20
12.8635632497733
30
0
41
1
10
28.5706149406199
20
12.8635471207075
30
0
41
1
10
28.6749938211815
20
12.8625248103495
30
0
41
1
10
28.7757429102796
20
12.8577435474232
30
0
41
1
10
28.8823238693043
20
12.8537723162084
30
0
41
1
10
28.8881503958336
20
12.8535533885348
30
0
41
1
10
28.8939768523292
20
12.8533326201234
30
0
0
SPLINE
5
214
100
AcDbEntity
8
1
62
256
6
ByLayer
370
13
48
1
60
0
100
AcDbSpline
70
4
71
3
72
16
73
12
40
0
40
0
40
0
40
0
40
0.144623406732697
40
0.144623406732697
40
0.340113210683642
40
0.340113210683642
40
0.361421053906806
40
0.361421053906806
40
0.96509055241744
40
0.96509055241744
40
1
40
1
40
1
40
1
41
1
10
28.3939768523292
20
12.150302890288
30
0
41
1
10
28.4176378728546
20
12.1455711928762
30
0
41
1
10
28.4416309953235
20
12.1423559652359
30
0
41
1
10
28.498193352456
20
12.1375989059909
30
0
41
1
10
28.5308631318152
20
12.1364437641579
30
0
41
1
10
28.5670552818253
20
12.136436750227
30
0
41
1
10
28.5706149406199
20
12.1364528792927
30
0
41
1
10
28.6749938211815
20
12.1374751896508
30
0
41
1
10
28.7757429102796
20
12.1422564525771
30
0
41
1
10
28.8823238693043
20
12.146227683792
30
0
41
1
10
28.8881503958336
20
12.1464466114655
30
0
41
1
10
28.8939768523292
20
12.1466673798769
30
0
0
SPLINE
5
215
100
AcDbEntity
8
1
62
256
6
ByLayer
370
13
48
1
60
0
100
AcDbSpline
70
4
71
3
72
8
73
4
40
0
40
0
40
0
40
0
40
1
40
1
40
1
40
1
41
1
10
29.8480375085945
20
11.9965747213283
30
0
41
1
10
29.8406822121478
20
11.9872224084124
30
0
41
1
10
29.8332278664848
20
11.9779738840854
30
0
41
1
10
29.8256635776615
20
11.9688791127028
30
0
0
SPLINE
5
216
100
AcDbEntity
8
1
62
256
6
ByLayer
370
13
48
1
60
0
100
AcDbSpline
70
4
71
3
72
8
73
4
40
0
40
0
40
0
40
0
40
1
40
1
40
1
40
1
41
1
10
29.8480375085945
20
13.003425278672
30
0
41
1
10
29.8406822121478
20
13.0127775915879
30
0
41
1
10
29.8332278664848
20
13.0220261159149
30
0
41
1
10
29.8256635776615
20
13.0311208872975
30
0
0
SPLINE
5
217
100
AcDbEntity
8
1
62
256
6
ByLayer
370
13
48
1
60
0
100
AcDbSpline
70
4
71
3
72
16
73
12
40
0
40
0
40
0
40
0
40
0.0002204728141812
40
0.0002204728141812
40
0.28207049074326
40
0.28207049074326
40
0.563941110555105
40
0.563941110555105
40
0.999779527185927
40
0.999779527185927
40
1
40
1
40
1
40
1
41
1
10
28.1289221872924
20
12.2065481078891
30
0
41
1
10
28.1289414547824
20
12.2065436903693
30
0
41
1
10
28.1289607223292
20
12.2065392728712
30
0
41
1
10
28.1536114636835
20
12.2008875190504
30
0
41
1
10
28.1783272225084
20
12.1952097446844
30
0
41
1
10
28.227843685161
20
12.1837294870885
30
0
41
1
10
28.2526291596669
20
12.1778065022058
30
0
41
1
10
28.3159850762818
20
12.1636141249574
30
0
41
1
10
28.3548717009099
20
12.1562967453004
30
0
41
1
10
28.3939373139163
20
12.1503089494876
30
0
41
1
10
28.3939570831493
20
12.1503059200612
30
0
41
1
10
28.3939768523292
20
12.150302890288
30
0
0
SPLINE
5
218
100
AcDbEntity
8
1
62
256
6
ByLayer
370
13
48
1
60
0
100
AcDbSpline
70
4
71
3
72
16
73
12
40
0
40
0
40
0
40
0
40
0.0002204728141812
40
0.0002204728141812
40
0.28207049074326
40
0.28207049074326
40
0.563941110555105
40
0.563941110555105
40
0.999779527185927
40
0.999779527185927
40
1
40
1
40
1
40
1
41
1
10
28.1289221872924
20
12.7934518921112
30
0
41
1
10
28.1289414547825
20
12.7934563097774
30
0
41
1
10
28.1289607223292
20
12.7934607271291
30
0
41
1
10
28.1536114636835
20
12.7991124809499
30
0
41
1
10
28.1783272225084
20
12.8047902553159
30
0
41
1
10
28.227843685161
20
12.8162705129118
30
0
41
1
10
28.2526291596669
20
12.8221934977945
30
0
41
1
10
28.3159850762818
20
12.8363858750429
30
0
41
1
10
28.3548717009099
20
12.8437032546999
30
0
41
1
10
28.3939373139163
20
12.8496910505127
30
0
41
1
10
28.3939570830919
20
12.8496940803138
30
0
41
1
10
28.3939768523292
20
12.8496971097123
30
0
0
SPLINE
5
219
100
AcDbEntity
8
1
62
256
6
ByLayer
370
13
48
1
60
0
100
AcDbSpline
70
4
71
3
72
8
73
4
40
0
40
0
40
0
40
0
40
1
40
1
40
1
40
1
41
1
10
28.1289221872924
20
12.5000000000001
30
0
41
1
10
28.2172737423047
20
12.5000000000001
30
0
41
1
10
28.305625297317
20
12.5000000000001
30
0
41
1
10
28.3939768523292
20
12.5000000000001
30
0
0
SPLINE
5
21A
100
AcDbEntity
8
1
62
256
6
ByLayer
370
18
48
1
60
0
100
AcDbSpline
70
4
71
3
72
18
73
14
40
0
40
0
40
0
40
0
40
0.0037601111914474
40
0.0037601111914474
40
0.237519420810988
40
0.237519420810988
40
0.471870055454746
40
0.471870055454746
40
0.696460601643431
40
0.696460601643431
40
0.906668950074071
40
0.906668950074071
40
1
40
1
40
1
40
1
41
1
10
9.89999999999998
20
11.7500000000006
30
0
41
1
10
9.89698154487098
20
11.7500000000006
30
0
41
1
10
9.89396319870843
20
11.7499914589969
30
0
41
1
10
9.70328795396881
20
11.7489122992064
30
0
41
1
10
9.51267264366538
20
11.7139929340908
30
0
41
1
10
9.15692312519266
20
11.579698156949
30
0
41
1
10
8.98671766137292
20
11.4780681290175
30
0
41
1
10
8.70114614903784
20
11.2258758194323
30
0
41
1
10
8.57969908977518
20
11.0736522845701
30
0
41
1
10
8.4053440557941
20
10.7482420695083
30
0
41
1
10
8.34617229841453
20
10.5722877133427
30
0
41
1
10
8.30626443956425
20
10.3131609778862
30
0
41
1
10
8.29999999999944
20
10.2314484011223
30
0
41
1
10
8.29999999999944
20
10.1500000000006
30
0
0
SPLINE
5
21B
100
AcDbEntity
8
1
62
256
6
ByLayer
370
18
48
1
60
0
100
AcDbSpline
70
4
71
3
72
10
73
6
40
0
40
0
40
0
40
0
40
0.756102769204547
40
0.756102769204547
40
1
40
1
40
1
40
1
41
1
10
21.4466320131342
20
13.3000000000001
30
0
41
1
10
21.4335358577321
20
13.3000000000001
30
0
41
1
10
21.4207202080259
20
13.3000000000001
30
0
41
1
10
21.4042092102193
20
13.3000000000001
30
0
41
1
10
21.4002140960562
20
13.3000000000001
30
0
41
1
10
21.3962544185031
20
13.3000000000001
30
0
0
SPLINE
5
21C
100
AcDbEntity
8
1
62
256
6
ByLayer
370
18
48
1
60
0
100
AcDbSpline
70
4
71
3
72
14
73
10
40
0
40
0
40
0
40
0
40
0.209394252568555
40
0.209394252568555
40
0.418674140634421
40
0.418674140634421
40
0.627952529466336
40
0.627952529466336
40
1
40
1
40
1
40
1
41
1
10
27.3731203716814
20
11.6175548863899
30
0
41
1
10
27.4313095888795
20
11.6175615656765
30
0
41
1
10
27.4945415508062
20
11.6169753063951
30
0
41
1
10
27.6284652768354
20
11.6146399901324
30
0
41
1
10
27.6996116692105
20
11.6128835616816
30
0
41
1
10
27.8473813033078
20
11.6082648544238
30
0
41
1
10
27.9245105149097
20
11.6053867750796
30
0
41
1
10
28.1423341909035
20
11.5960228161006
30
0
41
1
10
28.2889070981155
20
11.5883391731626
30
0
41
1
10
28.4337805434601
20
11.5794402024623
30
0
0
SPLINE
5
21D
100
AcDbEntity
8
1
62
256
6
ByLayer
370
18
48
1
60
0
100
AcDbSpline
70
4
71
3
72
14
73
10
40
0
40
0
40
0
40
0
40
0.209828521639199
40
0.209828521639199
40
0.4195901540272
40
0.4195901540272
40
0.628965113592846
40
0.628965113592846
40
1
40
1
40
1
40
1
41
1
10
28.4337805434612
20
13.4205597975385
30
0
41
1
10
28.3514732695809
20
13.4155040054509
30
0
41
1
10
28.2688292147961
20
13.4108473322728
30
0
41
1
10
28.1062811533078
20
13.4025274023627
30
0
41
1
10
28.0258208334326
20
13.3988354262642
30
0
41
1
10
27.8699639724299
20
13.3925463359725
30
0
41
1
10
27.7940252483449
20
13.3899257207046
30
0
41
1
10
27.5941103545506
20
13.3842831645629
30
0
41
1
10
27.4754747567342
20
13.3824333647959
30
0
41
1
10
27.3731203716824
20
13.3824451136096
30
0
0
SPLINE
5
21E
100
AcDbEntity
8
1
62
256
6
ByLayer
370
18
48
1
60
0
100
AcDbSpline
70
4
71
3
72
8
73
4
40
0
40
0
40
0
40
0
40
1
40
1
40
1
40
1
41
1
10
29.0810768987951
20
13.4621903895593
30
0
41
1
10
28.9667232362903
20
13.4539252392096
30
0
41
1
10
28.8500733165824
20
13.4461309239926
30
0
41
1
10
28.7337805434612
20
13.4389875446231
30
0
0
SPLINE
5
21F
100
AcDbEntity
8
1
62
256
6
ByLayer
370
18
48
1
60
0
100
AcDbSpline
70
4
71
3
72
10
73
6
40
0
40
0
40
0
40
0
40
0.575849552148122
40
0.575849552148122
40
1
40
1
40
1
40
1
41
1
10
21.3962544185031
20
11.7000000000002
30
0
41
1
10
21.4055992325651
20
11.7000000000002
30
0
41
1
10
21.4151434423376
20
11.7000000000002
30
0
41
1
10
21.4320239080445
20
11.7000000000002
30
0
41
1
10
21.4392832271311
20
11.7000000000002
30
0
41
1
10
21.4466320131342
20
11.7000000000002
30
0
0
SPLINE
5
220
100
AcDbEntity
8
1
62
256
6
ByLayer
370
18
48
1
60
0
100
AcDbSpline
70
4
71
3
72
8
73
4
40
0
40
0
40
0
40
0
40
1
40
1
40
1
40
1
41
1
10
28.7337805434612
20
11.5610124553772
30
0
41
1
10
28.8500733165824
20
11.5538690760077
30
0
41
1
10
28.9667232362903
20
11.5460747607907
30
0
41
1
10
29.0810768987951
20
11.537809610441
30
0
0
SPLINE
5
221
100
AcDbEntity
8
1
62
256
6
ByLayer
370
18
48
1
60
0
100
AcDbSpline
70
4
71
3
72
16
73
12
40
0
40
0
40
0
40
0
40
0.211440290976243
40
0.211440290976243
40
0.422896736694443
40
0.422896736694443
40
0.633935131411306
40
0.633935131411306
40
0.842399597812144
40
0.842399597812144
40
1
40
1
40
1
40
1
41
1
10
29.9019409516835
20
13.2467596663438
30
0
41
1
10
29.9021828121519
20
13.275353736606
30
0
41
1
10
29.897509865013
20
13.3043407703647
30
0
41
1
10
29.8791355265766
20
13.3583068798294
30
0
41
1
10
29.8651770288146
20
13.3840356042092
30
0
41
1
10
29.8300123990848
20
13.4286165768613
30
0
41
1
10
29.8083234948748
20
13.4481045899969
30
0
41
1
10
29.7605708510196
20
13.477920953699
30
0
41
1
10
29.7338898983738
20
13.4887706018445
30
0
41
1
10
29.6856899076454
20
13.4991283575005
30
0
41
1
10
29.6640691721776
20
13.5008470845583
30
0
41
1
10
29.6427579923014
20
13.4996990601014
30
0
0
SPLINE
5
222
100
AcDbEntity
8
1
62
256
6
ByLayer
370
18
48
1
60
0
100
AcDbSpline
70
4
71
3
72
16
73
12
40
0
40
0
40
0
40
0
40
0.203363754276493
40
0.203363754276493
40
0.40658604208921
40
0.40658604208921
40
0.611967971554986
40
0.611967971554986
40
0.82073821984358
40
0.82073821984358
40
1
40
1
40
1
40
1
41
1
10
29.6427579923014
20
11.500300939899
30
0
41
1
10
29.6700970081209
20
11.4988281984097
30
0
41
1
10
29.6980262240332
20
11.5021219869862
30
0
41
1
10
29.7504076479783
20
11.5175889246357
30
0
41
1
10
29.7755789022368
20
11.5299616867162
30
0
41
1
10
29.8201132665787
20
11.562022668119
30
0
41
1
10
29.8400202557988
20
11.5822177473148
30
0
41
1
10
29.8720355922843
20
11.62780499164
30
0
41
1
10
29.8844520380368
20
11.6538995672215
30
0
41
1
10
29.8988187436013
20
11.7043263112233
30
0
41
1
10
29.9021467885115
20
11.7289051756223
30
0
41
1
10
29.9019409516835
20
11.7532403336565
30
0
0
LINE
5
70
100
AcDbEntity
8
80
62
256
6
ByLayer
370
18
48
1
60
0
100
AcDbLine
10
0
20
0
30
0
11
-5
21
0
31
0
39
0
210
0
220
0
230
1
0
LINE
5
71
100
AcDbEntity
8
81
62
256
6
ByLayer
370
18
48
1
60
0
100
AcDbLine
10
29.9
20
13.5
30
0
11
34.9
21
13.5
31
0
39
0
210
0
220
0
230
1
0
LINE
5
72
100
AcDbEntity
8
SK1
62
256
6
ByLayer
370
13
48
1
60
0
100
AcDbLine
10
-1.227723
20
12.375
30
0
11
-1.227723
21
-12.5
31
0
39
0
210
0
220
0
230
1
0
LINE
5
74
100
AcDbEntity
8
SK1
62
256
6
ByLayer
370
18
48
1
60
0
100
AcDbLine
10
-0.1
20
-12.502029
30
0
11
-0.1
21
12.839993
31
0
39
0
210
0
220
0
230
1
0
LINE
5
75
100
AcDbEntity
8
SK1
62
256
6
ByLayer
370
18
48
1
60
0
100
AcDbLine
10
-120.1
20
-12.5
30
0
11
-120.1
21
12.375
31
0
39
0
210
0
220
0
230
1
0
LINE
5
76
100
AcDbEntity
8
SK1
62
256
6
ByLayer
370
18
48
1
60
0
100
AcDbLine
10
-120.1
20
12.375
30
0
11
-1.227723
21
12.375
31
0
39
0
210
0
220
0
230
1
0
LINE
5
77
100
AcDbEntity
8
SK1
62
256
6
ByLayer
370
18
48
1
60
0
100
AcDbLine
10
-120.1
20
-12.5
30
0
11
-1.227723
21
-12.5
31
0
39
0
210
0
220
0
230
1
0
LINE
5
78
100
AcDbEntity
8
1
62
256
6
ByLayer
370
18
48
1
60
0
100
AcDbLine
10
25.315611
20
11.75
30
0
11
25.315611
21
13.25
31
0
39
0
210
0
220
0
230
1
0
LINE
5
7A
100
AcDbEntity
8
1
62
256
6
ByLayer
370
18
48
1
60
0
100
AcDbLine
10
6
20
-9.795539
30
0
11
6
21
10.15
31
0
39
0
210
0
220
0
230
1
0
LINE
5
7B
100
AcDbEntity
8
1
62
256
6
ByLayer
370
18
48
1
60
0
100
AcDbLine
10
0.198592
20
13.25
30
0
11
0.317758
21
13.25
31
0
39
0
210
0
220
0
230
1
0
LINE
5
7C
100
AcDbEntity
8
1
62
256
6
ByLayer
370
18
48
1
60
0
100
AcDbLine
10
16.190738
20
11.75
30
0
11
21.190738
21
11.75
31
0
39
0
210
0
220
0
230
1
0
LINE
5
7D
100
AcDbEntity
8
1
62
256
6
ByLayer
370
13
48
1
60
0
100
AcDbLine
10
6
20
10.15
30
0
11
8.3
21
10.15
31
0
39
0
210
0
220
0
230
1
0
LINE
5
7E
100
AcDbEntity
8
1
62
256
6
ByLayer
370
18
48
1
60
0
100
AcDbLine
10
1.125279
20
-12.518324
30
0
11
1.125279
21
13.25
31
0
39
0
210
0
220
0
230
1
0
LINE
5
7F
100
AcDbEntity
8
1
62
256
6
ByLayer
370
18
48
1
60
0
100
AcDbLine
10
21.190738
20
13.25
30
0
11
25.315611
21
13.25
31
0
39
0
210
0
220
0
230
1
0
LINE
5
80
100
AcDbEntity
8
1
62
256
6
ByLayer
370
13
48
1
60
0
100
AcDbLine
10
21.190738
20
11.75
30
0
11
21.190738
21
13.25
31
0
39
0
210
0
220
0
230
1
0
LINE
5
81
100
AcDbEntity
8
1
62
256
6
ByLayer
370
18
48
1
60
0
100
AcDbLine
10
7.6
20
11.75
30
0
11
16.190738
21
11.75
31
0
39
0
210
0
220
0
230
1
0
LINE
5
82
100
AcDbEntity
8
1
62
256
6
ByLayer
370
18
48
1
60
0
100
AcDbLine
10
1.125279
20
13.25
30
0
11
16.190738
21
13.25
31
0
39
0
210
0
220
0
230
1
0
LINE
5
83
100
AcDbEntity
8
1
62
256
6
ByLayer
370
18
48
1
60
0
100
AcDbLine
10
21.190738
20
11.75
30
0
11
25.315611
21
11.75
31
0
39
0
210
0
220
0
230
1
0
LINE
5
84
100
AcDbEntity
8
1
62
256
6
ByLayer
370
18
48
1
60
0
100
AcDbLine
10
0.317758
20
-12.505174
30
0
11
1.125279
21
-12.518324
31
0
39
0
210
0
220
0
230
1
0
LINE
5
85
100
AcDbEntity
8
1
62
256
6
ByLayer
370
13
48
1
60
0
100
AcDbLine
10
0.317758
20
-12.505174
30
0
11
0.317758
21
13.25
31
0
39
0
210
0
220
0
230
1
0
LINE
5
86
100
AcDbEntity
8
1
62
256
6
ByLayer
370
18
48
1
60
0
100
AcDbLine
10
16.190738
20
13.25
30
0
11
21.190738
21
13.25
31
0
39
0
210
0
220
0
230
1
0
LINE
5
87
100
AcDbEntity
8
1
62
256
6
ByLayer
370
18
48
1
60
0
100
AcDbLine
10
0.317758
20
13.25
30
0
11
1.125279
21
13.25
31
0
39
0
210
0
220
0
230
1
0
LINE
5
88
100
AcDbEntity
8
1
62
256
6
ByLayer
370
18
48
1
60
0
100
AcDbLine
10
-0.1
20
-12.502029
30
0
11
-0.1
21
12.839993
31
0
39
0
210
0
220
0
230
1
0
LINE
5
89
100
AcDbEntity
8
1
62
256
6
ByLayer
370
18
48
1
60
0
100
AcDbLine
10
8.3
20
-7.722119
30
0
11
6
21
-9.795539
31
0
39
0
210
0
220
0
230
1
0
LINE
5
8A
100
AcDbEntity
8
1
62
256
6
ByLayer
370
18
48
1
60
0
100
AcDbLine
10
6
20
-9.795539
30
0
11
2.979673
21
-12.518324
31
0
39
0
210
0
220
0
230
1
0
LINE
5
8B
100
AcDbEntity
8
1
62
256
6
ByLayer
370
13
48
1
60
0
100
AcDbLine
10
16.190738
20
13.25
30
0
11
16.190738
21
11.75
31
0
39
0
210
0
220
0
230
1
0
LINE
5
8C
100
AcDbEntity
8
1
62
256
6
ByLayer
370
18
48
1
60
0
100
AcDbLine
10
8.3
20
10.15
30
0
11
8.3
21
-7.722119
31
0
39
0
210
0
220
0
230
1
0
LINE
5
8D
100
AcDbEntity
8
1
62
256
6
ByLayer
370
18
48
1
60
0
100
AcDbLine
10
2.979673
20
-12.518324
30
0
11
1.125279
21
-12.518324
31
0
39
0
210
0
220
0
230
1
0
LINE
5
8E
100
AcDbEntity
8
1
62
256
6
ByLayer
370
13
48
1
60
0
100
AcDbLine
10
16.190738
20
13.25
30
0
11
16.190738
21
11.75
31
0
39
0
210
0
220
0
230
1
0
LINE
5
8F
100
AcDbEntity
8
1
62
256
6
ByLayer
370
13
48
1
60
0
100
AcDbLine
10
20.565685
20
11.750008
30
0
11
20.565685
21
11.7
31
0
39
0
210
0
220
0
230
1
0
LINE
5
90
100
AcDbEntity
8
1
62
256
6
ByLayer
370
13
48
1
60
0
100
AcDbLine
10
20.565685
20
13.249992
30
0
11
20.565685
21
13.3
31
0
39
0
210
0
220
0
230
1
0
LINE
5
91
100
AcDbEntity
8
1
62
256
6
ByLayer
370
13
48
1
60
0
100
AcDbLine
10
21.190738
20
11.75
30
0
11
21.190738
21
13.25
31
0
39
0
210
0
220
0
230
1
0
LINE
5
92
100
AcDbEntity
8
1
62
256
6
ByLayer
370
13
48
1
60
0
100
AcDbLine
10
0.317758
20
-12.505174
30
0
11
0.317758
21
13.25
31
0
39
0
210
0
220
0
230
1
0
LINE
5
93
100
AcDbEntity
8
1
62
256
6
ByLayer
370
13
48
1
60
0
100
AcDbLine
10
-1.227723
20
12.375
30
0
11
-1.227723
21
-12.5
31
0
39
0
210
0
220
0
230
1
0
LINE
5
94
100
AcDbEntity
8
1
62
256
6
ByLayer
370
13
48
1
60
0
100
AcDbLine
10
26.968752
20
11.804612
30
0
11
27.052761
21
11.800476
31
0
39
0
210
0
220
0
230
1
0
LINE
5
95
100
AcDbEntity
8
1
62
256
6
ByLayer
370
13
48
1
60
0
100
AcDbLine
10
27.065017
20
11.625199
30
0
11
27.052761
21
11.800476
31
0
39
0
210
0
220
0
230
1
0
LINE
5
96
100
AcDbEntity
8
1
62
256
6
ByLayer
370
13
48
1
60
0
100
AcDbLine
10
27.065017
20
13.374801
30
0
11
27.052761
21
13.199524
31
0
39
0
210
0
220
0
230
1
0
LINE
5
97
100
AcDbEntity
8
1
62
256
6
ByLayer
370
13
48
1
60
0
100
AcDbLine
10
26.609679
20
11.7
30
0
11
26.609679
21
11.823938
31
0
39
0
210
0
220
0
230
1
0
LINE
5
98
100
AcDbEntity
8
1
62
256
6
ByLayer
370
13
48
1
60
0
100
AcDbLine
10
27.052761
20
13.199524
30
0
11
26.968752
21
13.195388
31
0
39
0
210
0
220
0
230
1
0
LINE
5
99
100
AcDbEntity
8
1
62
256
6
ByLayer
370
13
48
1
60
0
100
AcDbLine
10
26.609679
20
13.176062
30
0
11
26.609679
21
13.3
31
0
39
0
210
0
220
0
230
1
0
LINE
5
9A
100
AcDbEntity
8
1
62
256
6
ByLayer
370
13
48
1
60
0
100
AcDbLine
10
26.982448
20
12.917233
30
0
11
26.968752
21
13.195388
31
0
39
0
210
0
220
0
230
1
0
LINE
5
9B
100
AcDbEntity
8
1
62
256
6
ByLayer
370
13
48
1
60
0
100
AcDbLine
10
26.968752
20
11.804612
30
0
11
26.982448
21
12.082767
31
0
39
0
210
0
220
0
230
1
0
LINE
5
9C
100
AcDbEntity
8
1
62
256
6
ByLayer
370
13
48
1
60
0
100
AcDbLine
10
27.077886
20
12.917233
30
0
11
26.982448
21
12.917233
31
0
39
0
210
0
220
0
230
1
0
LINE
5
9D
100
AcDbEntity
8
1
62
256
6
ByLayer
370
13
48
1
60
0
100
AcDbLine
10
27.077886
20
12.082767
30
0
11
26.982448
21
12.082767
31
0
39
0
210
0
220
0
230
1
0
LINE
5
9E
100
AcDbEntity
8
1
62
256
6
ByLayer
370
13
48
1
60
0
100
AcDbLine
10
28.433781
20
11.635961
30
0
11
28.433781
21
11.57944
31
0
39
0
210
0
220
0
230
1
0
LINE
5
9F
100
AcDbEntity
8
1
62
256
6
ByLayer
370
13
48
1
60
0
100
AcDbLine
10
28.433781
20
13.364039
30
0
11
28.433781
21
13.42056
31
0
39
0
210
0
220
0
230
1
0
LINE
5
A0
100
AcDbEntity
8
1
62
256
6
ByLayer
370
13
48
1
60
0
100
AcDbLine
10
27.37312
20
11.86152
30
0
11
27.37312
21
11.617555
31
0
39
0
210
0
220
0
230
1
0
LINE
5
A1
100
AcDbEntity
8
1
62
256
6
ByLayer
370
13
48
1
60
0
100
AcDbLine
10
27.264634
20
11.815291
30
0
11
27.278462
21
11.617544
31
0
39
0
210
0
220
0
230
1
0
LINE
5
A2
100
AcDbEntity
8
1
62
256
6
ByLayer
370
13
48
1
60
0
100
AcDbLine
10
27.37312
20
13.13848
30
0
11
27.37312
21
13.382445
31
0
39
0
210
0
220
0
230
1
0
LINE
5
A3
100
AcDbEntity
8
1
62
256
6
ByLayer
370
13
48
1
60
0
100
AcDbLine
10
27.052761
20
11.800476
30
0
11
27.264634
21
11.815291
31
0
39
0
210
0
220
0
230
1
0
LINE
5
A4
100
AcDbEntity
8
1
62
256
6
ByLayer
370
13
48
1
60
0
100
AcDbLine
10
27.066456
20
12.921369
30
0
11
27.052761
21
13.199524
31
0
39
0
210
0
220
0
230
1
0
LINE
5
A5
100
AcDbEntity
8
1
62
256
6
ByLayer
370
13
48
1
60
0
100
AcDbLine
10
27.264634
20
13.184709
30
0
11
27.278462
21
13.382456
31
0
39
0
210
0
220
0
230
1
0
LINE
5
A6
100
AcDbEntity
8
1
62
256
6
ByLayer
370
13
48
1
60
0
100
AcDbLine
10
27.264634
20
13.184709
30
0
11
27.052761
21
13.199524
31
0
39
0
210
0
220
0
230
1
0
LINE
5
A7
100
AcDbEntity
8
1
62
256
6
ByLayer
370
13
48
1
60
0
100
AcDbLine
10
27.052761
20
11.800476
30
0
11
27.066456
21
12.078631
31
0
39
0
210
0
220
0
230
1
0
LINE
5
A8
100
AcDbEntity
8
1
62
256
6
ByLayer
370
13
48
1
60
0
100
AcDbLine
10
26.609679
20
13.176062
30
0
11
26.558376
21
13.176062
31
0
39
0
210
0
220
0
230
1
0
LINE
5
A9
100
AcDbEntity
8
1
62
256
6
ByLayer
370
13
48
1
60
0
100
AcDbLine
10
26.609679
20
11.823938
30
0
11
26.558376
21
11.823938
31
0
39
0
210
0
220
0
230
1
0
LINE
5
AA
100
AcDbEntity
8
1
62
256
6
ByLayer
370
13
48
1
60
0
100
AcDbLine
10
27.066456
20
12.078631
30
0
11
26.982448
21
12.082767
31
0
39
0
210
0
220
0
230
1
0
LINE
5
AB
100
AcDbEntity
8
1
62
256
6
ByLayer
370
13
48
1
60
0
100
AcDbLine
10
26.982448
20
12.917233
30
0
11
27.066456
21
12.921369
31
0
39
0
210
0
220
0
230
1
0
LINE
5
AC
100
AcDbEntity
8
1
62
256
6
ByLayer
370
13
48
1
60
0
100
AcDbLine
10
26.558376
20
11.823938
30
0
11
26.558376
21
11.7
31
0
39
0
210
0
220
0
230
1
0
LINE
5
AD
100
AcDbEntity
8
1
62
256
6
ByLayer
370
13
48
1
60
0
100
AcDbLine
10
26.558376
20
13.3
30
0
11
26.558376
21
13.176062
31
0
39
0
210
0
220
0
230
1
0
LINE
5
AE
100
AcDbEntity
8
1
62
256
6
ByLayer
370
13
48
1
60
0
100
AcDbLine
10
25.687198
20
11.7
30
0
11
25.687198
21
11.774562
31
0
39
0
210
0
220
0
230
1
0
LINE
5
AF
100
AcDbEntity
8
1
62
256
6
ByLayer
370
13
48
1
60
0
100
AcDbLine
10
27.276063
20
13.180572
30
0
11
27.264634
21
13.184709
31
0
39
0
210
0
220
0
230
1
0
LINE
5
B0
100
AcDbEntity
8
1
62
256
6
ByLayer
370
13
48
1
60
0
100
AcDbLine
10
25.687198
20
13.225438
30
0
11
25.687198
21
13.3
31
0
39
0
210
0
220
0
230
1
0
LINE
5
B1
100
AcDbEntity
8
1
62
256
6
ByLayer
370
13
48
1
60
0
100
AcDbLine
10
27.264634
20
11.815291
30
0
11
27.276063
21
11.819428
31
0
39
0
210
0
220
0
230
1
0
LINE
5
B2
100
AcDbEntity
8
1
62
256
6
ByLayer
370
13
48
1
60
0
100
AcDbLine
10
27.077886
20
12.082767
30
0
11
27.066456
21
12.078631
31
0
39
0
210
0
220
0
230
1
0
LINE
5
B3
100
AcDbEntity
8
1
62
256
6
ByLayer
370
13
48
1
60
0
100
AcDbLine
10
27.066456
20
12.921369
30
0
11
27.077886
21
12.917233
31
0
39
0
210
0
220
0
230
1
0
LINE
5
B4
100
AcDbEntity
8
1
62
256
6
ByLayer
370
13
48
1
60
0
100
AcDbLine
10
28.128922
20
12.793452
30
0
11
28.128922
21
12.5
31
0
39
0
210
0
220
0
230
1
0
LINE
5
B5
100
AcDbEntity
8
1
62
256
6
ByLayer
370
13
48
1
60
0
100
AcDbLine
10
25.687198
20
13.225438
30
0
11
25.611215
21
13.225438
31
0
39
0
210
0
220
0
230
1
0
LINE
5
B6
100
AcDbEntity
8
1
62
256
6
ByLayer
370
13
48
1
60
0
100
AcDbLine
10
25.687198
20
11.774562
30
0
11
25.611215
21
11.774562
31
0
39
0
210
0
220
0
230
1
0
LINE
5
B7
100
AcDbEntity
8
1
62
256
6
ByLayer
370
13
48
1
60
0
100
AcDbLine
10
28.128922
20
12.206548
30
0
11
28.128922
21
12.5
31
0
39
0
210
0
220
0
230
1
0
LINE
5
B8
100
AcDbEntity
8
1
62
256
6
ByLayer
370
13
48
1
60
0
100
AcDbLine
10
25.611215
20
13.3
30
0
11
25.611215
21
13.225438
31
0
39
0
210
0
220
0
230
1
0
LINE
5
B9
100
AcDbEntity
8
1
62
256
6
ByLayer
370
13
48
1
60
0
100
AcDbLine
10
25.611215
20
11.774562
30
0
11
25.611215
21
11.7
31
0
39
0
210
0
220
0
230
1
0
LINE
5
BA
100
AcDbEntity
8
1
62
256
6
ByLayer
370
13
48
1
60
0
100
AcDbLine
10
25.618332
20
11.824016
30
0
11
25.332668
21
11.824016
31
0
39
0
210
0
220
0
230
1
0
LINE
5
BB
100
AcDbEntity
8
1
62
256
6
ByLayer
370
13
48
1
60
0
100
AcDbLine
10
25.332668
20
11.824016
30
0
11
25.369454
21
12.132002
31
0
39
0
210
0
220
0
230
1
0
LINE
5
BC
100
AcDbEntity
8
1
62
256
6
ByLayer
370
13
48
1
60
0
100
AcDbLine
10
25.369454
20
12.132002
30
0
11
25.750614
21
12.132002
31
0
39
0
210
0
220
0
230
1
0
LINE
5
BD
100
AcDbEntity
8
1
62
256
6
ByLayer
370
13
48
1
60
0
100
AcDbLine
10
25.369454
20
12.867998
30
0
11
25.750614
21
12.867998
31
0
39
0
210
0
220
0
230
1
0
LINE
5
BE
100
AcDbEntity
8
1
62
256
6
ByLayer
370
13
48
1
60
0
100
AcDbLine
10
25.332668
20
13.175984
30
0
11
25.369454
21
12.867998
31
0
39
0
210
0
220
0
230
1
0
LINE
5
BF
100
AcDbEntity
8
1
62
256
6
ByLayer
370
13
48
1
60
0
100
AcDbLine
10
25.618332
20
13.175984
30
0
11
25.332668
21
13.175984
31
0
39
0
210
0
220
0
230
1
0
LINE
5
C0
100
AcDbEntity
8
1
62
256
6
ByLayer
370
13
48
1
60
0
100
AcDbLine
10
25.406367
20
12.751024
30
0
11
25.848791
21
12.751024
31
0
39
0
210
0
220
0
230
1
0
LINE
5
C1
100
AcDbEntity
8
1
62
256
6
ByLayer
370
13
48
1
60
0
100
AcDbLine
10
25.406367
20
12.248976
30
0
11
25.848791
21
12.248976
31
0
39
0
210
0
220
0
230
1
0
LINE
5
C2
100
AcDbEntity
8
1
62
256
6
ByLayer
370
13
48
1
60
0
100
AcDbLine
10
25.449075
20
12.299244
30
0
11
25.973158
21
12.299244
31
0
39
0
210
0
220
0
230
1
0
LINE
5
C3
100
AcDbEntity
8
1
62
256
6
ByLayer
370
13
48
1
60
0
100
AcDbLine
10
25.449075
20
12.700756
30
0
11
25.973158
21
12.700756
31
0
39
0
210
0
220
0
230
1
0
LINE
5
C4
100
AcDbEntity
8
1
62
256
6
ByLayer
370
13
48
1
60
0
100
AcDbLine
10
25.3298
20
11.774562
30
0
11
25.611215
21
11.774562
31
0
39
0
210
0
220
0
230
1
0
LINE
5
C5
100
AcDbEntity
8
1
62
256
6
ByLayer
370
13
48
1
60
0
100
AcDbLine
10
25.3298
20
13.225438
30
0
11
25.611215
21
13.225438
31
0
39
0
210
0
220
0
230
1
0
LINE
5
C6
100
AcDbEntity
8
1
62
256
6
ByLayer
370
13
48
1
60
0
100
AcDbLine
10
25.3298
20
11.7
30
0
11
25.3298
21
11.774562
31
0
39
0
210
0
220
0
230
1
0
LINE
5
C7
100
AcDbEntity
8
1
62
256
6
ByLayer
370
13
48
1
60
0
100
AcDbLine
10
25.3298
20
13.3
30
0
11
25.3298
21
13.225438
31
0
39
0
210
0
220
0
230
1
0
LINE
5
C8
100
AcDbEntity
8
1
62
256
6
ByLayer
370
13
48
1
60
0
100
AcDbLine
10
29.900117
20
13.031121
30
0
11
29.825664
21
13.031121
31
0
39
0
210
0
220
0
230
1
0
LINE
5
C9
100
AcDbEntity
8
1
62
256
6
ByLayer
370
13
48
1
60
0
100
AcDbLine
10
29.510516
20
13.293454
30
0
11
29.510516
21
13.492575
31
0
39
0
210
0
220
0
230
1
0
LINE
5
CA
100
AcDbEntity
8
1
62
256
6
ByLayer
370
13
48
1
60
0
100
AcDbLine
10
29.510516
20
11.706546
30
0
11
29.510516
21
11.507425
31
0
39
0
210
0
220
0
230
1
0
LINE
5
CB
100
AcDbEntity
8
1
62
256
6
ByLayer
370
13
48
1
60
0
100
AcDbLine
10
29.900117
20
11.968879
30
0
11
29.825664
21
11.968879
31
0
39
0
210
0
220
0
230
1
0
LINE
5
CC
100
AcDbEntity
8
1
62
256
6
ByLayer
370
13
48
1
60
0
100
AcDbLine
10
25.452289
20
12.302665
30
0
11
25.981712
21
12.302665
31
0
39
0
210
0
220
0
230
1
0
LINE
5
CD
100
AcDbEntity
8
1
62
256
6
ByLayer
370
13
48
1
60
0
100
AcDbLine
10
25.452289
20
12.697335
30
0
11
25.981712
21
12.697335
31
0
39
0
210
0
220
0
230
1
0
LINE
5
CE
100
AcDbEntity
8
1
62
256
6
ByLayer
370
13
48
1
60
0
100
AcDbLine
10
29.081077
20
11.625184
30
0
11
29.081077
21
11.53781
31
0
39
0
210
0
220
0
230
1
0
LINE
5
CF
100
AcDbEntity
8
1
62
256
6
ByLayer
370
13
48
1
60
0
100
AcDbLine
10
29.081077
20
13.374816
30
0
11
29.081077
21
13.46219
31
0
39
0
210
0
220
0
230
1
0
LINE
5
D0
100
AcDbEntity
8
1
62
256
6
ByLayer
370
13
48
1
60
0
100
AcDbLine
10
29.43976
20
11.511885
30
0
11
29.43976
21
11.656147
31
0
39
0
210
0
220
0
230
1
0
LINE
5
D1
100
AcDbEntity
8
1
62
256
6
ByLayer
370
13
48
1
60
0
100
AcDbLine
10
25.449075
20
12.700756
30
0
11
25.452289
21
12.697335
31
0
39
0
210
0
220
0
230
1
0
LINE
5
D2
100
AcDbEntity
8
1
62
256
6
ByLayer
370
13
48
1
60
0
100
AcDbLine
10
25.449075
20
12.299244
30
0
11
25.452289
21
12.302665
31
0
39
0
210
0
220
0
230
1
0
LINE
5
D3
100
AcDbEntity
8
1
62
256
6
ByLayer
370
13
48
1
60
0
100
AcDbLine
10
29.43976
20
13.488115
30
0
11
29.43976
21
13.343853
31
0
39
0
210
0
220
0
230
1
0
LINE
5
D4
100
AcDbEntity
8
1
62
256
6
ByLayer
370
13
48
1
60
0
100
AcDbLine
10
28.733781
20
13.366762
30
0
11
28.733781
21
13.438988
31
0
39
0
210
0
220
0
230
1
0
LINE
5
D5
100
AcDbEntity
8
1
62
256
6
ByLayer
370
13
48
1
60
0
100
AcDbLine
10
28.733781
20
11.633238
30
0
11
28.733781
21
11.561012
31
0
39
0
210
0
220
0
230
1
0
LINE
5
D6
100
AcDbEntity
8
1
62
256
6
ByLayer
370
13
48
1
60
0
100
AcDbLine
10
28.905243
20
11.849334
30
0
11
28.893977
21
12.146667
31
0
39
0
210
0
220
0
230
1
0
LINE
5
D7
100
AcDbEntity
8
1
62
256
6
ByLayer
370
13
48
1
60
0
100
AcDbLine
10
28.905243
20
13.150666
30
0
11
28.893977
21
12.853333
31
0
39
0
210
0
220
0
230
1
0
LINE
5
D8
100
AcDbEntity
8
1
62
256
6
ByLayer
370
13
48
1
60
0
100
AcDbLine
10
29.844165
20
12.15526
30
0
11
29.897026
21
12.15526
31
0
39
0
210
0
220
0
230
1
0
LINE
5
D9
100
AcDbEntity
8
1
62
256
6
ByLayer
370
13
48
1
60
0
100
AcDbLine
10
28.393977
20
12.849697
30
0
11
28.33288
21
13.155215
31
0
39
0
210
0
220
0
230
1
0
LINE
5
DA
100
AcDbEntity
8
1
62
256
6
ByLayer
370
13
48
1
60
0
100
AcDbLine
10
29.844165
20
12.84474
30
0
11
29.897026
21
12.84474
31
0
39
0
210
0
220
0
230
1
0
LINE
5
DB
100
AcDbEntity
8
1
62
256
6
ByLayer
370
13
48
1
60
0
100
AcDbLine
10
28.393977
20
12.150303
30
0
11
28.33288
21
11.844785
31
0
39
0
210
0
220
0
230
1
0
LINE
5
DC
100
AcDbEntity
8
1
62
256
6
ByLayer
370
13
48
1
60
0
100
AcDbLine
10
29.848038
20
11.996575
30
0
11
29.9
21
11.996575
31
0
39
0
210
0
220
0
230
1
0
LINE
5
DD
100
AcDbEntity
8
1
62
256
6
ByLayer
370
13
48
1
60
0
100
AcDbLine
10
29.848038
20
13.003425
30
0
11
29.9
21
13.003425
31
0
39
0
210
0
220
0
230
1
0
LINE
5
DE
100
AcDbEntity
8
1
62
256
6
ByLayer
370
13
48
1
60
0
100
AcDbLine
10
21.226482
20
11.7
30
0
11
21.197265
21
11.750004
31
0
39
0
210
0
220
0
230
1
0
LINE
5
DF
100
AcDbEntity
8
1
62
256
6
ByLayer
370
13
48
1
60
0
100
AcDbLine
10
29.897026
20
12.15526
30
0
11
29.897026
21
12.84474
31
0
39
0
210
0
220
0
230
1
0
LINE
5
E0
100
AcDbEntity
8
1
62
256
6
ByLayer
370
13
48
1
60
0
100
AcDbLine
10
25.315558
20
12.697335
30
0
11
25.452289
21
12.697335
31
0
39
0
210
0
220
0
230
1
0
LINE
5
E1
100
AcDbEntity
8
1
62
256
6
ByLayer
370
13
48
1
60
0
100
AcDbLine
10
21.632227
20
11.75
30
0
11
21.632227
21
11.7
31
0
39
0
210
0
220
0
230
1
0
LINE
5
E2
100
AcDbEntity
8
1
62
256
6
ByLayer
370
13
48
1
60
0
100
AcDbLine
10
25.315562
20
11.774562
30
0
11
25.3298
21
11.774562
31
0
39
0
210
0
220
0
230
1
0
LINE
5
E3
100
AcDbEntity
8
1
62
256
6
ByLayer
370
13
48
1
60
0
100
AcDbLine
10
29.504082
20
12.852129
30
0
11
29.504082
21
12.147871
31
0
39
0
210
0
220
0
230
1
0
LINE
5
E4
100
AcDbEntity
8
1
62
256
6
ByLayer
370
13
48
1
60
0
100
AcDbLine
10
29.844165
20
12.84474
30
0
11
29.844165
21
12.15526
31
0
39
0
210
0
220
0
230
1
0
LINE
5
E5
100
AcDbEntity
8
1
62
256
6
ByLayer
370
13
48
1
60
0
100
AcDbLine
10
28.893977
20
12.853333
30
0
11
28.893977
21
12.146667
31
0
39
0
210
0
220
0
230
1
0
LINE
5
E6
100
AcDbEntity
8
1
62
256
6
ByLayer
370
13
48
1
60
0
100
AcDbLine
10
25.332668
20
11.824016
30
0
11
25.31556
21
11.824016
31
0
39
0
210
0
220
0
230
1
0
LINE
5
E7
100
AcDbEntity
8
1
62
256
6
ByLayer
370
13
48
1
60
0
100
AcDbLine
10
25.315562
20
13.225438
30
0
11
25.3298
21
13.225438
31
0
39
0
210
0
220
0
230
1
0
LINE
5
E8
100
AcDbEntity
8
1
62
256
6
ByLayer
370
13
48
1
60
0
100
AcDbLine
10
21.632227
20
13.25
30
0
11
21.632227
21
13.3
31
0
39
0
210
0
220
0
230
1
0
LINE
5
E9
100
AcDbEntity
8
1
62
256
6
ByLayer
370
13
48
1
60
0
100
AcDbLine
10
25.332668
20
13.175984
30
0
11
25.31556
21
13.175984
31
0
39
0
210
0
220
0
230
1
0
LINE
5
EA
100
AcDbEntity
8
1
62
256
6
ByLayer
370
13
48
1
60
0
100
AcDbLine
10
25.315577
20
12.132002
30
0
11
25.369454
21
12.132002
31
0
39
0
210
0
220
0
230
1
0
LINE
5
EB
100
AcDbEntity
8
1
62
256
6
ByLayer
370
13
48
1
60
0
100
AcDbLine
10
25.315577
20
12.867998
30
0
11
25.369454
21
12.867998
31
0
39
0
210
0
220
0
230
1
0
LINE
5
EC
100
AcDbEntity
8
1
62
256
6
ByLayer
370
13
48
1
60
0
100
AcDbLine
10
28.393977
20
12.150303
30
0
11
28.393977
21
12.5
31
0
39
0
210
0
220
0
230
1
0
LINE
5
ED
100
AcDbEntity
8
1
62
256
6
ByLayer
370
13
48
1
60
0
100
AcDbLine
10
28.393977
20
12.849697
30
0
11
28.393977
21
12.5
31
0
39
0
210
0
220
0
230
1
0
LINE
5
EE
100
AcDbEntity
8
1
62
256
6
ByLayer
370
13
48
1
60
0
100
AcDbLine
10
25.315557
20
12.248976
30
0
11
25.406367
21
12.248976
31
0
39
0
210
0
220
0
230
1
0
LINE
5
EF
100
AcDbEntity
8
1
62
256
6
ByLayer
370
13
48
1
60
0
100
AcDbLine
10
25.315557
20
12.751024
30
0
11
25.406367
21
12.751024
31
0
39
0
210
0
220
0
230
1
0
LINE
5
F0
100
AcDbEntity
8
1
62
256
6
ByLayer
370
13
48
1
60
0
100
AcDbLine
10
25.315556
20
12.299244
30
0
11
25.449075
21
12.299244
31
0
39
0
210
0
220
0
230
1
0
LINE
5
F1
100
AcDbEntity
8
1
62
256
6
ByLayer
370
13
48
1
60
0
100
AcDbLine
10
25.315556
20
12.700756
30
0
11
25.449075
21
12.700756
31
0
39
0
210
0
220
0
230
1
0
LINE
5
F2
100
AcDbEntity
8
1
62
256
6
ByLayer
370
13
48
1
60
0
100
AcDbLine
10
21.226482
20
13.3
30
0
11
21.197265
21
13.249996
31
0
39
0
210
0
220
0
230
1
0
LINE
5
F3
100
AcDbEntity
8
1
62
256
6
ByLayer
370
13
48
1
60
0
100
AcDbLine
10
25.315558
20
12.302665
30
0
11
25.452289
21
12.302665
31
0
39
0
210
0
220
0
230
1
0
LINE
5
F4
100
AcDbEntity
8
1
62
256
6
ByLayer
370
13
48
1
60
0
100
AcDbLine
10
6
20
10.15
30
0
11
8.3
21
10.15
31
0
39
0
210
0
220
0
230
1
0
LINE
5
F5
100
AcDbEntity
8
1
62
256
6
ByLayer
370
18
48
1
60
0
100
AcDbLine
10
1.125279
20
13.25
30
0
11
16.190738
21
13.25
31
0
39
0
210
0
220
0
230
1
0
LINE
5
F6
100
AcDbEntity
8
1
62
256
6
ByLayer
370
18
48
1
60
0
100
AcDbLine
10
21.190738
20
11.75
30
0
11
25.315611
21
11.75
31
0
39
0
210
0
220
0
230
1
0
LINE
5
F7
100
AcDbEntity
8
1
62
256
6
ByLayer
370
18
48
1
60
0
100
AcDbLine
10
16.190738
20
11.75
30
0
11
21.190738
21
11.75
31
0
39
0
210
0
220
0
230
1
0
LINE
5
F8
100
AcDbEntity
8
1
62
256
6
ByLayer
370
18
48
1
60
0
100
AcDbLine
10
21.190738
20
13.25
30
0
11
25.315611
21
13.25
31
0
39
0
210
0
220
0
230
1
0
LINE
5
F9
100
AcDbEntity
8
1
62
256
6
ByLayer
370
18
48
1
60
0
100
AcDbLine
10
16.190738
20
13.25
30
0
11
21.190738
21
13.25
31
0
39
0
210
0
220
0
230
1
0
LINE
5
FA
100
AcDbEntity
8
1
62
256
6
ByLayer
370
18
48
1
60
0
100
AcDbLine
10
7.6
20
11.75
30
0
11
16.190738
21
11.75
31
0
39
0
210
0
220
0
230
1
0
LINE
5
FB
100
AcDbEntity
8
1
62
256
6
ByLayer
370
18
48
1
60
0
100
AcDbLine
10
6
20
-9.795539
30
0
11
6
21
10.15
31
0
39
0
210
0
220
0
230
1
0
LINE
5
FC
100
AcDbEntity
8
1
62
256
6
ByLayer
370
18
48
1
60
0
100
AcDbLine
10
8.3
20
10.15
30
0
11
8.3
21
-7.722119
31
0
39
0
210
0
220
0
230
1
0
LINE
5
FD
100
AcDbEntity
8
1
62
256
6
ByLayer
370
18
48
1
60
0
100
AcDbLine
10
25.315611
20
11.75
30
0
11
25.315611
21
13.25
31
0
39
0
210
0
220
0
230
1
0
LINE
5
FE
100
AcDbEntity
8
1
62
256
6
ByLayer
370
18
48
1
60
0
100
AcDbLine
10
0.317758
20
13.25
30
0
11
1.125279
21
13.25
31
0
39
0
210
0
220
0
230
1
0
LINE
5
FF
100
AcDbEntity
8
1
62
256
6
ByLayer
370
18
48
1
60
0
100
AcDbLine
10
-120.1
20
-12.5
30
0
11
-120.1
21
12.375
31
0
39
0
210
0
220
0
230
1
0
LINE
5
100
100
AcDbEntity
8
1
62
256
6
ByLayer
370
18
48
1
60
0
100
AcDbLine
10
1.125279
20
-12.518324
30
0
11
1.125279
21
13.25
31
0
39
0
210
0
220
0
230
1
0
LINE
5
101
100
AcDbEntity
8
1
62
256
6
ByLayer
370
18
48
1
60
0
100
AcDbLine
10
0.198592
20
13.25
30
0
11
0.317758
21
13.25
31
0
39
0
210
0
220
0
230
1
0
LINE
5
102
100
AcDbEntity
8
1
62
256
6
ByLayer
370
18
48
1
60
0
100
AcDbLine
10
-120.1
20
12.375
30
0
11
-1.227723
21
12.375
31
0
39
0
210
0
220
0
230
1
0
LINE
5
103
100
AcDbEntity
8
1
62
256
6
ByLayer
370
18
48
1
60
0
100
AcDbLine
10
2.979673
20
-12.518324
30
0
11
1.125279
21
-12.518324
31
0
39
0
210
0
220
0
230
1
0
LINE
5
104
100
AcDbEntity
8
1
62
256
6
ByLayer
370
18
48
1
60
0
100
AcDbLine
10
0.317758
20
-12.505174
30
0
11
1.125279
21
-12.518324
31
0
39
0
210
0
220
0
230
1
0
LINE
5
105
100
AcDbEntity
8
1
62
256
6
ByLayer
370
18
48
1
60
0
100
AcDbLine
10
-120.1
20
-12.5
30
0
11
-1.227723
21
-12.5
31
0
39
0
210
0
220
0
230
1
0
LINE
5
106
100
AcDbEntity
8
1
62
256
6
ByLayer
370
18
48
1
60
0
100
AcDbLine
10
6
20
-9.795539
30
0
11
2.979673
21
-12.518324
31
0
39
0
210
0
220
0
230
1
0
LINE
5
107
100
AcDbEntity
8
1
62
256
6
ByLayer
370
18
48
1
60
0
100
AcDbLine
10
8.3
20
-7.722119
30
0
11
6
21
-9.795539
31
0
39
0
210
0
220
0
230
1
0
LINE
5
108
100
AcDbEntity
8
1
62
256
6
ByLayer
370
18
48
1
60
0
100
AcDbLine
10
26.848426
20
13.340541
30
0
11
26.825177
21
13.327118
31
0
39
0
210
0
220
0
230
1
0
LINE
5
109
100
AcDbEntity
8
1
62
256
6
ByLayer
370
18
48
1
60
0
100
AcDbLine
10
26.609679
20
13.3
30
0
11
26.72387
21
13.3
31
0
39
0
210
0
220
0
230
1
0
LINE
5
10A
100
AcDbEntity
8
1
62
256
6
ByLayer
370
18
48
1
60
0
100
AcDbLine
10
21.226482
20
11.7
30
0
11
21.396254
21
11.7
31
0
39
0
210
0
220
0
230
1
0
LINE
5
10B
100
AcDbEntity
8
1
62
256
6
ByLayer
370
18
48
1
60
0
100
AcDbLine
10
29.642758
20
13.499699
30
0
11
29.510516
21
13.492575
31
0
39
0
210
0
220
0
230
1
0
LINE
5
10C
100
AcDbEntity
8
1
62
256
6
ByLayer
370
18
48
1
60
0
100
AcDbLine
10
26.609679
20
13.3
30
0
11
26.558376
21
13.3
31
0
39
0
210
0
220
0
230
1
0
LINE
5
10D
100
AcDbEntity
8
1
62
256
6
ByLayer
370
18
48
1
60
0
100
AcDbLine
10
28.433781
20
11.57944
30
0
11
28.733781
21
11.561012
31
0
39
0
210
0
220
0
230
1
0
LINE
5
10E
100
AcDbEntity
8
1
62
256
6
ByLayer
370
18
48
1
60
0
100
AcDbLine
10
29.900117
20
13.031121
30
0
11
29.901941
21
13.24676
31
0
39
0
210
0
220
0
230
1
0
LINE
5
10F
100
AcDbEntity
8
1
62
256
6
ByLayer
370
18
48
1
60
0
100
AcDbLine
10
20.15
20
11.7
30
0
11
20.565685
21
11.7
31
0
39
0
210
0
220
0
230
1
0
LINE
5
110
100
AcDbEntity
8
1
62
256
6
ByLayer
370
18
48
1
60
0
100
AcDbLine
10
20.565685
20
11.7
30
0
11
21.226482
21
11.7
31
0
39
0
210
0
220
0
230
1
0
LINE
5
111
100
AcDbEntity
8
1
62
256
6
ByLayer
370
18
48
1
60
0
100
AcDbLine
10
26.936053
20
11.633086
30
0
11
27.065017
21
11.625199
31
0
39
0
210
0
220
0
230
1
0
LINE
5
112
100
AcDbEntity
8
1
62
256
6
ByLayer
370
18
48
1
60
0
100
AcDbLine
10
29.081077
20
11.53781
30
0
11
29.43976
21
11.511885
31
0
39
0
210
0
220
0
230
1
0
LINE
5
113
100
AcDbEntity
8
1
62
256
6
ByLayer
370
18
48
1
60
0
100
AcDbLine
10
25.611215
20
13.3
30
0
11
25.3298
21
13.3
31
0
39
0
210
0
220
0
230
1
0
LINE
5
114
100
AcDbEntity
8
1
62
256
6
ByLayer
370
18
48
1
60
0
100
AcDbLine
10
26.558376
20
11.7
30
0
11
25.687198
21
11.7
31
0
39
0
210
0
220
0
230
1
0
LINE
5
115
100
AcDbEntity
8
1
62
256
6
ByLayer
370
18
48
1
60
0
100
AcDbLine
10
29.43976
20
13.488115
30
0
11
29.081077
21
13.46219
31
0
39
0
210
0
220
0
230
1
0
LINE
5
116
100
AcDbEntity
8
1
62
256
6
ByLayer
370
18
48
1
60
0
100
AcDbLine
10
29.510516
20
11.507425
30
0
11
29.642758
21
11.500301
31
0
39
0
210
0
220
0
230
1
0
LINE
5
117
100
AcDbEntity
8
1
62
256
6
ByLayer
370
18
48
1
60
0
100
AcDbLine
10
25.3298
20
11.7
30
0
11
25.611215
21
11.7
31
0
39
0
210
0
220
0
230
1
0
LINE
5
118
100
AcDbEntity
8
1
62
256
6
ByLayer
370
18
48
1
60
0
100
AcDbLine
10
28.733781
20
13.438988
30
0
11
28.433781
21
13.42056
31
0
39
0
210
0
220
0
230
1
0
LINE
5
119
100
AcDbEntity
8
1
62
256
6
ByLayer
370
18
48
1
60
0
100
AcDbLine
10
25.687198
20
13.3
30
0
11
25.611215
21
13.3
31
0
39
0
210
0
220
0
230
1
0
LINE
5
11A
100
AcDbEntity
8
1
62
256
6
ByLayer
370
18
48
1
60
0
100
AcDbLine
10
26.72387
20
11.7
30
0
11
26.609679
21
11.7
31
0
39
0
210
0
220
0
230
1
0
LINE
5
11B
100
AcDbEntity
8
1
62
256
6
ByLayer
370
18
48
1
60
0
100
AcDbLine
10
21.226482
20
13.3
30
0
11
20.565685
21
13.3
31
0
39
0
210
0
220
0
230
1
0
LINE
5
11C
100
AcDbEntity
8
1
62
256
6
ByLayer
370
18
48
1
60
0
100
AcDbLine
10
26.558376
20
11.7
30
0
11
26.609679
21
11.7
31
0
39
0
210
0
220
0
230
1
0
LINE
5
11D
100
AcDbEntity
8
1
62
256
6
ByLayer
370
18
48
1
60
0
100
AcDbLine
10
27.278462
20
11.617544
30
0
11
27.37312
21
11.617555
31
0
39
0
210
0
220
0
230
1
0
LINE
5
11E
100
AcDbEntity
8
1
62
256
6
ByLayer
370
18
48
1
60
0
100
AcDbLine
10
21.632227
20
13.3
30
0
11
21.446632
21
13.3
31
0
39
0
210
0
220
0
230
1
0
LINE
5
11F
100
AcDbEntity
8
1
62
256
6
ByLayer
370
18
48
1
60
0
100
AcDbLine
10
25.687198
20
13.3
30
0
11
26.558376
21
13.3
31
0
39
0
210
0
220
0
230
1
0
LINE
5
120
100
AcDbEntity
8
1
62
256
6
ByLayer
370
18
48
1
60
0
100
AcDbLine
10
20.565685
20
13.3
30
0
11
20.15
21
13.3
31
0
39
0
210
0
220
0
230
1
0
LINE
5
121
100
AcDbEntity
8
1
62
256
6
ByLayer
370
18
48
1
60
0
100
AcDbLine
10
26.825177
20
11.672882
30
0
11
26.848426
21
11.659459
31
0
39
0
210
0
220
0
230
1
0
LINE
5
122
100
AcDbEntity
8
1
62
256
6
ByLayer
370
18
48
1
60
0
100
AcDbLine
10
27.37312
20
13.382445
30
0
11
27.278462
21
13.382456
31
0
39
0
210
0
220
0
230
1
0
LINE
5
123
100
AcDbEntity
8
1
62
256
6
ByLayer
370
18
48
1
60
0
100
AcDbLine
10
21.396254
20
13.3
30
0
11
21.226482
21
13.3
31
0
39
0
210
0
220
0
230
1
0
LINE
5
124
100
AcDbEntity
8
1
62
256
6
ByLayer
370
18
48
1
60
0
100
AcDbLine
10
29.901941
20
11.75324
30
0
11
29.900117
21
11.968879
31
0
39
0
210
0
220
0
230
1
0
LINE
5
125
100
AcDbEntity
8
1
62
256
6
ByLayer
370
18
48
1
60
0
100
AcDbLine
10
25.611215
20
11.7
30
0
11
25.687198
21
11.7
31
0
39
0
210
0
220
0
230
1
0
LINE
5
126
100
AcDbEntity
8
1
62
256
6
ByLayer
370
18
48
1
60
0
100
AcDbLine
10
25.3298
20
13.3
30
0
11
21.632227
21
13.3
31
0
39
0
210
0
220
0
230
1
0
LINE
5
127
100
AcDbEntity
8
1
62
256
6
ByLayer
370
18
48
1
60
0
100
AcDbLine
10
21.632227
20
11.7
30
0
11
25.3298
21
11.7
31
0
39
0
210
0
220
0
230
1
0
LINE
5
128
100
AcDbEntity
8
1
62
256
6
ByLayer
370
18
48
1
60
0
100
AcDbLine
10
27.065017
20
13.374801
30
0
11
26.936053
21
13.366914
31
0
39
0
210
0
220
0
230
1
0
LINE
5
129
100
AcDbEntity
8
1
62
256
6
ByLayer
370
18
48
1
60
0
100
AcDbLine
10
29.9
20
11.996575
30
0
11
29.9
21
13.003425
31
0
39
0
210
0
220
0
230
1
0
LINE
5
12A
100
AcDbEntity
8
1
62
256
6
ByLayer
370
18
48
1
60
0
100
AcDbLine
10
21.446632
20
11.7
30
0
11
21.632227
21
11.7
31
0
39
0
210
0
220
0
230
1
0
LINE
5
12B
100
AcDbEntity
8
SK2
62
256
6
ByLayer
370
13
48
1
60
0
100
AcDbLine
10
-129.7
20
12.5
30
0
11
-129.7
21
-12.5
31
0
39
0
210
0
220
0
230
1
0
LINE
5
12D
100
AcDbEntity
8
SK2
62
256
6
ByLayer
370
13
48
1
60
0
100
AcDbLine
10
-122.1
20
-12.5
30
0
11
-131.7
21
-12.5
31
0
39
0
210
0
220
0
230
1
0
LINE
5
12E
100
AcDbEntity
8
SK2
62
256
6
ByLayer
370
13
48
1
60
0
100
AcDbLine
10
-122.1
20
12.5
30
0
11
-131.7
21
12.5
31
0
39
0
210
0
220
0
230
1
0
LINE
5
12F
100
AcDbEntity
8
SK2
62
256
6
ByLayer
370
18
48
1
60
0
100
AcDbLine
10
-129.7
20
-12.5
30
0
11
-130.117997
21
-9.325002
31
0
39
0
210
0
220
0
230
1
0
LINE
5
130
100
AcDbEntity
8
SK2
62
256
6
ByLayer
370
18
48
1
60
0
100
AcDbLine
10
-129.7
20
-12.5
30
0
11
-129.282003
21
-9.324998
31
0
39
0
210
0
220
0
230
1
0
LINE
5
131
100
AcDbEntity
8
SK2
62
256
6
ByLayer
370
18
48
1
60
0
100
AcDbLine
10
-130.117997
20
-9.325002
30
0
11
-129.282003
21
-9.324998
31
0
39
0
210
0
220
0
230
1
0
LINE
5
132
100
AcDbEntity
8
SK2
62
256
6
ByLayer
370
18
48
1
60
0
100
AcDbLine
10
-129.7
20
12.5
30
0
11
-129.282003
21
9.325002
31
0
39
0
210
0
220
0
230
1
0
LINE
5
133
100
AcDbEntity
8
SK2
62
256
6
ByLayer
370
18
48
1
60
0
100
AcDbLine
10
-129.7
20
12.5
30
0
11
-130.117997
21
9.324998
31
0
39
0
210
0
220
0
230
1
0
LINE
5
134
100
AcDbEntity
8
SK2
62
256
6
ByLayer
370
18
48
1
60
0
100
AcDbLine
10
-129.282003
20
9.325002
30
0
11
-130.117997
21
9.324998
31
0
39
0
210
0
220
0
230
1
0
MTEXT
5
223
100
AcDbEntity
8
SK6
62
256
6
ByLayer
370
18
48
1
60
0
100
AcDbMText
10
-76.725
20
-50.384138
30
0
210
0
220
0
230
1
1
\W0.7818;QD-RFE20-2525A
40
3.5
41
0
44
1.084337
50
0
71
7
72
5
7
iso_b_vert
0
MTEXT
5
227
100
AcDbEntity
8
SK2
62
256
6
ByLayer
370
18
48
1
60
0
100
AcDbMText
10
-130.575
20
-1.169737
30
0
210
0
220
0
230
1
1
\W0.6740;25
40
3.5
41
0
44
1.084337
50
89.9999999999999
71
7
72
5
7
iso_b_vert
0
DIMENSION
5
236
100
AcDbEntity
8
2
62
256
6
ByLayer
370
13
48
1
60
0
100
AcDbDimension
2
DimnDraft3D1
10
55
20
13.5
30
0
11
55
21
-1.590789
31
0
70
32
71
5
72
1
41
1
210
0
220
0
230
1
3
Standard
100
AcDbAlignedDimension
13
11.9
23
-12.5
33
0
14
31.9
24
13.5
34
0
50
90
100
AcDbRotatedDimension
1001
ACAD
1000
DSTYLE
1002
{
1070
    74
1070
     0
1070
   279
1070
     0
1070
   172
1070
     1
1070
   173
1070
     1
1070
   340
1005
224
1070
   271
1070
     1
1070
    77
1070
     1
1070
    73
1070
     0
1070
   171
1070
     3
1070
   274
1070
     4
1070
   177
1070
     2
1070
   176
1070
     2
1070
   178
1070
     7
1070
    78
1070
     8
1070
    41
1041
3.175
1070
   147
1041
1.75
1070
    42
1041
2.0
1070
    44
1041
2.0
1070
   140
1041
3.5
1070
   343
1005
237
1070
   344
1005
237
1002
}
0
DIMENSION
5
24B
100
AcDbEntity
8
SK2
62
256
6
ByLayer
370
13
48
1
60
0
100
AcDbDimension
2
DimnDraft3D2
10
29.9
20
36.100049
30
0
11
-48.061184
21
36.100049
31
0
70
32
71
5
72
1
41
1
210
0
220
0
230
1
3
Standard
100
AcDbAlignedDimension
13
-120.1
23
-10.5
33
0
14
29.9
24
15.5
34
0
50
0
100
AcDbRotatedDimension
1001
ACAD
1000
DSTYLE
1002
{
1070
   279
1070
     0
1070
   172
1070
     1
1070
   173
1070
     1
1070
   340
1005
224
1070
   271
1070
     1
1070
    77
1070
     1
1070
    73
1070
     0
1070
   171
1070
     3
1070
   274
1070
     4
1070
   177
1070
     2
1070
   176
1070
     2
1070
   178
1070
     7
1070
    78
1070
     8
1070
    41
1041
3.175
1070
   147
1041
1.75
1070
    42
1041
2.0
1070
    44
1041
2.0
1070
   140
1041
3.5
1070
   343
1005
237
1070
   344
1005
237
1002
}
0
DIMENSION
5
259
100
AcDbEntity
8
2
62
256
6
ByLayer
370
13
48
1
60
0
100
AcDbDimension
2
DimnDraft3D3
10
29.9
20
30.100049
30
0
11
10.842105
21
30.100049
31
0
70
32
71
5
72
1
41
1
210
0
220
0
230
1
3
Standard
100
AcDbAlignedDimension
13
0
23
14.5
33
0
14
29.9
24
15.5
34
0
50
0
100
AcDbRotatedDimension
1001
ACAD
1000
DSTYLE
1002
{
1070
   279
1070
     0
1070
   172
1070
     1
1070
   173
1070
     1
1070
   340
1005
224
1070
   271
1070
     1
1070
    77
1070
     1
1070
    73
1070
     0
1070
   171
1070
     3
1070
   274
1070
     4
1070
   177
1070
     2
1070
   176
1070
     2
1070
   178
1070
     7
1070
    78
1070
     8
1070
    41
1041
3.175
1070
   147
1041
1.75
1070
    42
1041
2.0
1070
    44
1041
2.0
1070
   140
1041
3.5
1070
   343
1005
237
1070
   344
1005
237
1002
}
0
DIMENSION
5
267
100
AcDbEntity
8
2
62
256
6
ByLayer
370
13
48
1
60
0
100
AcDbDimension
2
DimnDraft3D4
10
9.9
20
-25.618324
30
0
11
17.809211
21
-25.618324
31
0
70
32
71
5
72
1
41
1
210
0
220
0
230
1
3
Standard
100
AcDbAlignedDimension
13
29.9
23
11.5
33
0
14
9.9
24
-14.5
34
0
50
0
100
AcDbRotatedDimension
1001
ACAD
1000
DSTYLE
1002
{
1070
   279
1070
     0
1070
   172
1070
     1
1070
   173
1070
     1
1070
   340
1005
224
1070
   271
1070
     1
1070
    77
1070
     1
1070
    73
1070
     0
1070
   171
1070
     3
1070
   274
1070
     4
1070
   177
1070
     2
1070
   176
1070
     2
1070
   178
1070
     7
1070
    78
1070
     8
1070
    41
1041
3.175
1070
   147
1041
1.75
1070
    42
1041
2.0
1070
    44
1041
2.0
1070
   140
1041
3.5
1070
   343
1005
237
1070
   344
1005
237
1002
}
0
DIMENSION
5
275
100
AcDbEntity
8
2
62
256
6
ByLayer
370
13
48
1
60
0
100
AcDbDimension
2
DimnDraft3D5
10
48
20
11.5
30
0
11
48
21
-0.320789
31
0
70
32
71
5
72
1
41
1
210
0
220
0
230
1
3
Standard
100
AcDbAlignedDimension
13
31.9
23
13.5
33
0
14
31.9
24
11.5
34
0
50
90
100
AcDbRotatedDimension
1001
ACAD
1000
DSTYLE
1002
{
1070
    74
1070
     0
1070
   279
1070
     0
1070
   172
1070
     1
1070
   173
1070
     1
1070
   340
1005
224
1070
   271
1070
     1
1070
    77
1070
     1
1070
    73
1070
     0
1070
   171
1070
     3
1070
   274
1070
     4
1070
   177
1070
     2
1070
   176
1070
     2
1070
   178
1070
     7
1070
    78
1070
     8
1070
    41
1041
3.175
1070
   147
1041
1.75
1070
    42
1041
2.0
1070
    44
1041
2.0
1070
   140
1041
3.5
1070
   343
1005
237
1070
   344
1005
237
1002
}
0
ENDSEC
0
SECTION
2
OBJECTS
0
DICTIONARY
5
2df
330
0
100
AcDbDictionary
280
0
281
1
3
ACAD_GROUP
350
2e0
3
ACAD_MLINESTYLE
350
2e1
0
DICTIONARY
5
2e0
330
0
100
AcDbDictionary
280
0
281
1
0
DICTIONARY
5
2e1
330
0
100
AcDbDictionary
280
0
281
1
3
Standard
350
18
0
MLINESTYLE
5
18
330
2e1
100
AcDbMlineStyle
2
Standard
70
0
3

62
256
51
90
52
90
71
2
49
-0.5
62
256
6
ByLayer
49
0.5
62
256
6
ByLayer
0
RASTERVARIABLES
5
2ce
330

100
AcDbRasterVariables
90
0
70
1
71
1
72
1
0
ENDSEC
0
EOF
