0
SECTION
2
HEADER
9
$ACADVER
1
AC1015
9
$DWGCODEPAGE
3
ANSI_1252
9
$HANDSEED
5
2f6
9
$ANGBASE
50
0
9
$ANGDIR
70
0
9
$ATTMODE
70
1
9
$AUNITS
70
0
9
$AUPREC
70
0
9
$CECOLOR
62
256
9
$CELTSCALE
40
1
9
$CELTYPE
6
ByLayer
9
$CELWEIGHT
370
18
9
$CLAYER
8
0
9
$CMLJUST
70
0
9
$CMLSCALE
40
1
9
$CMLSTYLE
2
Standard
9
$DIMSTYLE
2
Standard
9
$TEXTSIZE
40
0.2
9
$TEXTSTYLE
7
Standard
9
$LUNITS
70
2
9
$LUPREC
70
4
9
$EXTNAMES
290
1
9
$INSUNITS
70
4
9
$LTSCALE
40
1
9
$LWDISPLAY
290
1
9
$PDMODE
70
0
9
$PDSIZE
40
0
9
$PLINEGEN
70
0
0
ENDSEC
0
SECTION
2
CLASSES
0
CLASS
1
RASTERVARIABLES
2
AcDbRasterVariables
3
ISM
90
0
280
0
281
0
0
ENDSEC
0
SECTION
2
TABLES
0
TABLE
2
VPORT
5
2ec
100
AcDbSymbolTable
0
VPORT
5
1
100
AcDbSymbolTableRecord
100
AcDbViewportTableRecord
2
*Active
70
0
10
0
20
0
11
1
21
1
12
-1
22
1
13
0
23
0
14
0.5
24
0.5
15
10
25
10
16
0
26
0
36
1
17
0
27
0
37
0
0
ENDTAB
0
TABLE
2
LTYPE
5
2ed
100
AcDbSymbolTable
0
LTYPE
5
14
100
AcDbSymbolTableRecord
100
AcDbLinetypeTableRecord
70
0
2
ByBlock
3

72
65
73
0
40
0
0
LTYPE
5
15
100
AcDbSymbolTableRecord
100
AcDbLinetypeTableRecord
70
0
2
ByLayer
3

72
65
73
0
40
0
0
LTYPE
5
16
100
AcDbSymbolTableRecord
100
AcDbLinetypeTableRecord
70
0
2
CONTINUOUS
3
Solid line
72
65
73
0
40
0
0
LTYPE
5
6A
100
AcDbSymbolTableRecord
100
AcDbLinetypeTableRecord
70
0
2
CENTER
3
____ _ ____ _ ____ _ ____
72
65
73
4
40
47.5
49
22
74
0
49
-8.5
74
0
49
8.5
74
0
49
-8.5
74
0
0
LTYPE
5
6B
100
AcDbSymbolTableRecord
100
AcDbLinetypeTableRecord
70
0
2
DASHED
3
__ __ __ __ __ __ __ __ __
72
65
73
2
40
25.72
49
12.86
74
0
49
-12.86
74
0
0
ENDTAB
0
TABLE
2
LAYER
5
2ee
100
AcDbSymbolTable
0
LAYER
5
10
100
AcDbSymbolTableRecord
100
AcDbLayerTableRecord
2
0
70
0
62
7
6
CONTINUOUS
290
1
370
-3
390
0
0
LAYER
5
6D
100
AcDbSymbolTableRecord
100
AcDbLayerTableRecord
2
81
70
0
62
-3
6
CONTINUOUS
290
1
370
-3
390
0
0
LAYER
5
6F
100
AcDbSymbolTableRecord
100
AcDbLayerTableRecord
2
80
70
0
62
-6
6
CONTINUOUS
290
1
370
-3
390
0
0
LAYER
5
73
100
AcDbSymbolTableRecord
100
AcDbLayerTableRecord
2
1
70
0
62
4
6
CONTINUOUS
290
1
370
-3
390
0
0
LAYER
5
234
100
AcDbSymbolTableRecord
100
AcDbLayerTableRecord
2
2
70
0
62
7
6
CONTINUOUS
290
1
370
-3
390
0
0
LAYER
5
2d9
100
AcDbSymbolTableRecord
100
AcDbLayerTableRecord
2
SK1
70
0
62
4
6
CONTINUOUS
290
1
370
-3
390
0
0
LAYER
5
2da
100
AcDbSymbolTableRecord
100
AcDbLayerTableRecord
2
SK2
70
0
62
7
6
CONTINUOUS
290
1
370
-3
390
0
0
LAYER
5
2db
100
AcDbSymbolTableRecord
100
AcDbLayerTableRecord
2
SK6
70
0
62
5
6
CONTINUOUS
290
1
370
-3
390
0
0
ENDTAB
0
TABLE
2
STYLE
5
2ef
100
AcDbSymbolTable
0
STYLE
5
11
100
AcDbSymbolTableRecord
100
AcDbTextStyleTableRecord
2
Standard
3
txt
70
0
71
0
40
0
41
1
42
0
50
0
0
STYLE
5
22E
100
AcDbSymbolTableRecord
100
AcDbTextStyleTableRecord
2
iso_b_vert
3
simplex.shx
70
0
71
0
40
0
41
1
42
0
50
0
0
STYLE
5
22F
100
AcDbSymbolTableRecord
100
AcDbTextStyleTableRecord
2
DWGDirectTextStyle
3
simplex
70
0
71
0
40
0
41
1
42
0
50
0
0
ENDTAB
0
TABLE
2
DIMSTYLE
5
2f0
100
AcDbSymbolTable
100
AcDbDimStyleTable
0
DIMSTYLE
105
27
100
AcDbSymbolTableRecord
100
AcDbDimStyleTableRecord
2
Standard
70
0
3
<>
41
0.18
42
0.0625
44
0.18
140
0.18
147
0.09
73
0
74
0
77
1
271
2
275
0
278
52
280
0
340
11
0
ENDTAB
0
TABLE
2
VIEW
5
2f1
100
AcDbSymbolTable
0
ENDTAB
0
TABLE
2
UCS
5
2f2
100
AcDbSymbolTable
0
ENDTAB
0
TABLE
2
APPID
5
2f3
100
AcDbSymbolTable
0
APPID
5
12
100
AcDbSymbolTableRecord
100
AcDbRegAppTableRecord
2
ACAD
70
0
0
ENDTAB
0
TABLE
2
BLOCK_RECORD
5
2f4
100
AcDbSymbolTable
0
BLOCK_RECORD
5
1F
100
AcDbSymbolTableRecord
100
AcDbBlockTableRecord
2
*Model_Space
340
0
70
0
0
BLOCK_RECORD
5
1B
100
AcDbSymbolTableRecord
100
AcDbBlockTableRecord
2
*Paper_Space
340
0
70
0
0
BLOCK_RECORD
5
23
100
AcDbSymbolTableRecord
100
AcDbBlockTableRecord
2
*Paper_Space0
340
0
70
0
0
BLOCK_RECORD
5
232
100
AcDbSymbolTableRecord
100
AcDbBlockTableRecord
2
DimnDraft3D1
340
0
70
0
0
BLOCK_RECORD
5
241
100
AcDbSymbolTableRecord
100
AcDbBlockTableRecord
2
_CLOSED
340
0
70
0
0
BLOCK_RECORD
5
248
100
AcDbSymbolTableRecord
100
AcDbBlockTableRecord
2
DimnDraft3D2
340
0
70
0
0
BLOCK_RECORD
5
256
100
AcDbSymbolTableRecord
100
AcDbBlockTableRecord
2
DimnDraft3D3
340
0
70
0
0
BLOCK_RECORD
5
264
100
AcDbSymbolTableRecord
100
AcDbBlockTableRecord
2
DimnDraft3D4
340
0
70
0
0
BLOCK_RECORD
5
272
100
AcDbSymbolTableRecord
100
AcDbBlockTableRecord
2
DimnDraft3D5
340
0
70
0
0
ENDTAB
0
ENDSEC
0
SECTION
2
BLOCKS
0
BLOCK
5
20
100
AcDbEntity
8
0
100
AcDbBlockBegin
2
*Model_Space
70
0
10
0
20
0
30
0
3
*Model_Space
0
ENDBLK
5
21
100
AcDbEntity
8
0
100
AcDbBlockEnd
0
BLOCK
5
1C
100
AcDbEntity
8
0
100
AcDbBlockBegin
2
*Paper_Space
70
0
10
0
20
0
30
0
3
*Paper_Space
0
ENDBLK
5
1D
100
AcDbEntity
8
0
100
AcDbBlockEnd
0
BLOCK
5
24
100
AcDbEntity
8
0
100
AcDbBlockBegin
2
*Paper_Space0
70
0
10
0
20
0
30
0
3
*Paper_Space0
0
ENDBLK
5
25
100
AcDbEntity
8
0
100
AcDbBlockEnd
0
BLOCK
5
23E
100
AcDbEntity
8
0
100
AcDbBlockBegin
2
DimnDraft3D1
70
0
10
0
20
0
30
0
3
DimnDraft3D1
0
MTEXT
5
233
100
AcDbEntity
8
2
62
256
6
ByLayer
370
18
48
1
60
0
100
AcDbMText
10
54.125
20
-0.778289
30
0
210
0
220
0
230
1
1
\W0.5321;16
40
3.5
41
0
44
1.084337
50
90
71
7
72
5
7
iso_b_vert
0
LINE
5
235
100
AcDbEntity
8
2
62
256
6
ByLayer
370
13
48
1
60
0
100
AcDbLine
10
11.9
20
-8
30
0
11
57
21
-8
31
0
39
0
210
0
220
0
230
1
0
LINE
5
236
100
AcDbEntity
8
2
62
256
6
ByLayer
370
13
48
1
60
0
100
AcDbLine
10
31.9
20
8
30
0
11
57
21
8
31
0
39
0
210
0
220
0
230
1
0
LINE
5
237
100
AcDbEntity
8
2
62
256
6
ByLayer
370
13
48
1
60
0
100
AcDbLine
10
55
20
-8
30
0
11
55
21
8
31
0
39
0
210
0
220
0
230
1
0
LINE
5
238
100
AcDbEntity
8
2
62
256
6
ByLayer
370
13
48
1
60
0
100
AcDbLine
10
55
20
-8
30
0
11
54.582003
21
-4.825002
31
0
39
0
210
0
220
0
230
1
0
LINE
5
239
100
AcDbEntity
8
2
62
256
6
ByLayer
370
13
48
1
60
0
100
AcDbLine
10
55
20
-8
30
0
11
55.417997
21
-4.824998
31
0
39
0
210
0
220
0
230
1
0
LINE
5
23A
100
AcDbEntity
8
2
62
256
6
ByLayer
370
13
48
1
60
0
100
AcDbLine
10
54.582003
20
-4.825002
30
0
11
55.417997
21
-4.824998
31
0
39
0
210
0
220
0
230
1
0
LINE
5
23B
100
AcDbEntity
8
2
62
256
6
ByLayer
370
13
48
1
60
0
100
AcDbLine
10
55
20
8
30
0
11
55.417997
21
4.825002
31
0
39
0
210
0
220
0
230
1
0
LINE
5
23C
100
AcDbEntity
8
2
62
256
6
ByLayer
370
13
48
1
60
0
100
AcDbLine
10
55
20
8
30
0
11
54.582003
21
4.824998
31
0
39
0
210
0
220
0
230
1
0
LINE
5
23D
100
AcDbEntity
8
2
62
256
6
ByLayer
370
13
48
1
60
0
100
AcDbLine
10
55.417997
20
4.825002
30
0
11
54.582003
21
4.824998
31
0
39
0
210
0
220
0
230
1
0
ENDBLK
5
23F
100
AcDbEntity
8
0
100
AcDbBlockEnd
0
BLOCK
5
242
100
AcDbEntity
8
0
100
AcDbBlockBegin
2
_CLOSED
70
0
10
0
20
0
30
0
3
_CLOSED
0
LINE
5
244
100
AcDbEntity
8
0
62
256
6
ByLayer
370
-2
48
1
60
0
100
AcDbLine
10
-1
20
0.166667
30
0
11
0
21
0
31
0
39
0
210
0
220
0
230
1
0
LINE
5
245
100
AcDbEntity
8
0
62
256
6
ByLayer
370
-2
48
1
60
0
100
AcDbLine
10
0
20
0
30
0
11
-1
21
-0.166667
31
0
39
0
210
0
220
0
230
1
0
LINE
5
246
100
AcDbEntity
8
0
62
256
6
ByLayer
370
-2
48
1
60
0
100
AcDbLine
10
-1
20
0.166667
30
0
11
-1
21
-0.166667
31
0
39
0
210
0
220
0
230
1
0
LINE
5
247
100
AcDbEntity
8
0
62
256
6
ByLayer
370
-2
48
1
60
0
100
AcDbLine
10
0
20
0
30
0
11
-1
21
0
31
0
39
0
210
0
220
0
230
1
0
ENDBLK
5
243
100
AcDbEntity
8
0
100
AcDbBlockEnd
0
BLOCK
5
253
100
AcDbEntity
8
0
100
AcDbBlockBegin
2
DimnDraft3D2
70
0
10
0
20
0
30
0
3
DimnDraft3D2
0
MTEXT
5
249
100
AcDbEntity
8
SK2
62
256
6
ByLayer
370
18
48
1
60
0
100
AcDbMText
10
-34.686184
20
31.475049
30
0
210
0
220
0
230
1
1
\W0.6217;125
40
3.5
41
0
44
1.084337
50
0
71
7
72
5
7
iso_b_vert
0
LINE
5
24A
100
AcDbEntity
8
SK2
62
256
6
ByLayer
370
13
48
1
60
0
100
AcDbLine
10
-95.1
20
-6
30
0
11
-95.1
21
32.600049
31
0
39
0
210
0
220
0
230
1
0
LINE
5
24B
100
AcDbEntity
8
SK2
62
256
6
ByLayer
370
13
48
1
60
0
100
AcDbLine
10
29.9
20
10
30
0
11
29.9
21
32.600049
31
0
39
0
210
0
220
0
230
1
0
LINE
5
24C
100
AcDbEntity
8
SK2
62
256
6
ByLayer
370
13
48
1
60
0
100
AcDbLine
10
-95.1
20
30.600049
30
0
11
29.9
21
30.600049
31
0
39
0
210
0
220
0
230
1
0
LINE
5
24D
100
AcDbEntity
8
SK2
62
256
6
ByLayer
370
13
48
1
60
0
100
AcDbLine
10
-95.1
20
30.600049
30
0
11
-91.925002
21
31.018045
31
0
39
0
210
0
220
0
230
1
0
LINE
5
24E
100
AcDbEntity
8
SK2
62
256
6
ByLayer
370
13
48
1
60
0
100
AcDbLine
10
-95.1
20
30.600049
30
0
11
-91.924998
21
30.182052
31
0
39
0
210
0
220
0
230
1
0
LINE
5
24F
100
AcDbEntity
8
SK2
62
256
6
ByLayer
370
13
48
1
60
0
100
AcDbLine
10
-91.925002
20
31.018045
30
0
11
-91.924998
21
30.182052
31
0
39
0
210
0
220
0
230
1
0
LINE
5
250
100
AcDbEntity
8
SK2
62
256
6
ByLayer
370
13
48
1
60
0
100
AcDbLine
10
29.9
20
30.600049
30
0
11
26.725002
21
30.182052
31
0
39
0
210
0
220
0
230
1
0
LINE
5
251
100
AcDbEntity
8
SK2
62
256
6
ByLayer
370
13
48
1
60
0
100
AcDbLine
10
29.9
20
30.600049
30
0
11
26.724998
21
31.018045
31
0
39
0
210
0
220
0
230
1
0
LINE
5
252
100
AcDbEntity
8
SK2
62
256
6
ByLayer
370
13
48
1
60
0
100
AcDbLine
10
26.725002
20
30.182052
30
0
11
26.724998
21
31.018045
31
0
39
0
210
0
220
0
230
1
0
ENDBLK
5
254
100
AcDbEntity
8
0
100
AcDbBlockEnd
0
BLOCK
5
261
100
AcDbEntity
8
0
100
AcDbBlockBegin
2
DimnDraft3D3
70
0
10
0
20
0
30
0
3
DimnDraft3D3
0
MTEXT
5
257
100
AcDbEntity
8
2
62
256
6
ByLayer
370
18
48
1
60
0
100
AcDbMText
10
11.717105
20
25.475049
30
0
210
0
220
0
230
1
1
\W0.7457;29.9
40
3.5
41
0
44
1.084337
50
0
71
7
72
5
7
iso_b_vert
0
LINE
5
258
100
AcDbEntity
8
2
62
256
6
ByLayer
370
13
48
1
60
0
100
AcDbLine
10
0
20
10
30
0
11
0
21
26.600049
31
0
39
0
210
0
220
0
230
1
0
LINE
5
259
100
AcDbEntity
8
2
62
256
6
ByLayer
370
13
48
1
60
0
100
AcDbLine
10
29.9
20
10
30
0
11
29.9
21
26.600049
31
0
39
0
210
0
220
0
230
1
0
LINE
5
25A
100
AcDbEntity
8
2
62
256
6
ByLayer
370
13
48
1
60
0
100
AcDbLine
10
0
20
24.600049
30
0
11
29.9
21
24.600049
31
0
39
0
210
0
220
0
230
1
0
LINE
5
25B
100
AcDbEntity
8
2
62
256
6
ByLayer
370
13
48
1
60
0
100
AcDbLine
10
0
20
24.600049
30
0
11
3.174998
21
25.018045
31
0
39
0
210
0
220
0
230
1
0
LINE
5
25C
100
AcDbEntity
8
2
62
256
6
ByLayer
370
13
48
1
60
0
100
AcDbLine
10
0
20
24.600049
30
0
11
3.175002
21
24.182052
31
0
39
0
210
0
220
0
230
1
0
LINE
5
25D
100
AcDbEntity
8
2
62
256
6
ByLayer
370
13
48
1
60
0
100
AcDbLine
10
3.174998
20
25.018045
30
0
11
3.175002
21
24.182052
31
0
39
0
210
0
220
0
230
1
0
LINE
5
25E
100
AcDbEntity
8
2
62
256
6
ByLayer
370
13
48
1
60
0
100
AcDbLine
10
29.9
20
24.600049
30
0
11
26.725002
21
24.182052
31
0
39
0
210
0
220
0
230
1
0
LINE
5
25F
100
AcDbEntity
8
2
62
256
6
ByLayer
370
13
48
1
60
0
100
AcDbLine
10
29.9
20
24.600049
30
0
11
26.724998
21
25.018045
31
0
39
0
210
0
220
0
230
1
0
LINE
5
260
100
AcDbEntity
8
2
62
256
6
ByLayer
370
13
48
1
60
0
100
AcDbLine
10
26.725002
20
24.182052
30
0
11
26.724998
21
25.018045
31
0
39
0
210
0
220
0
230
1
0
ENDBLK
5
262
100
AcDbEntity
8
0
100
AcDbBlockEnd
0
BLOCK
5
26F
100
AcDbEntity
8
0
100
AcDbBlockBegin
2
DimnDraft3D4
70
0
10
0
20
0
30
0
3
DimnDraft3D4
0
MTEXT
5
265
100
AcDbEntity
8
2
62
256
6
ByLayer
370
18
48
1
60
0
100
AcDbMText
10
18.684211
20
-20.225
30
0
210
0
220
0
230
1
1
\W0.6740;20
40
3.5
41
0
44
1.084337
50
0
71
7
72
5
7
iso_b_vert
0
LINE
5
266
100
AcDbEntity
8
2
62
256
6
ByLayer
370
13
48
1
60
0
100
AcDbLine
10
29.9
20
6
30
0
11
29.9
21
-23.1
31
0
39
0
210
0
220
0
230
1
0
LINE
5
267
100
AcDbEntity
8
2
62
256
6
ByLayer
370
13
48
1
60
0
100
AcDbLine
10
9.9
20
-10
30
0
11
9.9
21
-23.1
31
0
39
0
210
0
220
0
230
1
0
LINE
5
268
100
AcDbEntity
8
2
62
256
6
ByLayer
370
13
48
1
60
0
100
AcDbLine
10
29.9
20
-21.1
30
0
11
9.9
21
-21.1
31
0
39
0
210
0
220
0
230
1
0
LINE
5
269
100
AcDbEntity
8
2
62
256
6
ByLayer
370
13
48
1
60
0
100
AcDbLine
10
29.9
20
-21.1
30
0
11
26.725002
21
-21.517997
31
0
39
0
210
0
220
0
230
1
0
LINE
5
26A
100
AcDbEntity
8
2
62
256
6
ByLayer
370
13
48
1
60
0
100
AcDbLine
10
29.9
20
-21.1
30
0
11
26.724998
21
-20.682003
31
0
39
0
210
0
220
0
230
1
0
LINE
5
26B
100
AcDbEntity
8
2
62
256
6
ByLayer
370
13
48
1
60
0
100
AcDbLine
10
26.725002
20
-21.517997
30
0
11
26.724998
21
-20.682003
31
0
39
0
210
0
220
0
230
1
0
LINE
5
26C
100
AcDbEntity
8
2
62
256
6
ByLayer
370
13
48
1
60
0
100
AcDbLine
10
9.9
20
-21.1
30
0
11
13.074998
21
-20.682003
31
0
39
0
210
0
220
0
230
1
0
LINE
5
26D
100
AcDbEntity
8
2
62
256
6
ByLayer
370
13
48
1
60
0
100
AcDbLine
10
9.9
20
-21.1
30
0
11
13.075002
21
-21.517997
31
0
39
0
210
0
220
0
230
1
0
LINE
5
26E
100
AcDbEntity
8
2
62
256
6
ByLayer
370
13
48
1
60
0
100
AcDbLine
10
13.074998
20
-20.682003
30
0
11
13.075002
21
-21.517997
31
0
39
0
210
0
220
0
230
1
0
ENDBLK
5
270
100
AcDbEntity
8
0
100
AcDbBlockEnd
0
BLOCK
5
27D
100
AcDbEntity
8
0
100
AcDbBlockBegin
2
DimnDraft3D5
70
0
10
0
20
0
30
0
3
DimnDraft3D5
0
MTEXT
5
273
100
AcDbEntity
8
2
62
256
6
ByLayer
370
18
48
1
60
0
100
AcDbMText
10
47.125
20
-4.945789
30
0
210
0
220
0
230
1
1
\W0.5404;2
40
3.5
41
0
44
1.084337
50
90
71
7
72
5
7
iso_b_vert
0
LINE
5
274
100
AcDbEntity
8
2
62
256
6
ByLayer
370
13
48
1
60
0
100
AcDbLine
10
31.9
20
8
30
0
11
50
21
8
31
0
39
0
210
0
220
0
230
1
0
LINE
5
275
100
AcDbEntity
8
2
62
256
6
ByLayer
370
13
48
1
60
0
100
AcDbLine
10
31.9
20
6
30
0
11
50
21
6
31
0
39
0
210
0
220
0
230
1
0
LINE
5
276
100
AcDbEntity
8
2
62
256
6
ByLayer
370
13
48
1
60
0
100
AcDbLine
10
48
20
-5.820789
30
0
11
48
21
16.75
31
0
39
0
210
0
220
0
230
1
0
LINE
5
277
100
AcDbEntity
8
2
62
256
6
ByLayer
370
13
48
1
60
0
100
AcDbLine
10
48
20
8
30
0
11
47.582003
21
11.174998
31
0
39
0
210
0
220
0
230
1
0
LINE
5
278
100
AcDbEntity
8
2
62
256
6
ByLayer
370
13
48
1
60
0
100
AcDbLine
10
48
20
8
30
0
11
48.417997
21
11.175002
31
0
39
0
210
0
220
0
230
1
0
LINE
5
279
100
AcDbEntity
8
2
62
256
6
ByLayer
370
13
48
1
60
0
100
AcDbLine
10
47.582003
20
11.174998
30
0
11
48.417997
21
11.175002
31
0
39
0
210
0
220
0
230
1
0
LINE
5
27A
100
AcDbEntity
8
2
62
256
6
ByLayer
370
13
48
1
60
0
100
AcDbLine
10
48
20
6
30
0
11
48.417997
21
2.825002
31
0
39
0
210
0
220
0
230
1
0
LINE
5
27B
100
AcDbEntity
8
2
62
256
6
ByLayer
370
13
48
1
60
0
100
AcDbLine
10
48
20
6
30
0
11
47.582003
21
2.824998
31
0
39
0
210
0
220
0
230
1
0
LINE
5
27C
100
AcDbEntity
8
2
62
256
6
ByLayer
370
13
48
1
60
0
100
AcDbLine
10
48.417997
20
2.825002
30
0
11
47.582003
21
2.824998
31
0
39
0
210
0
220
0
230
1
0
ENDBLK
5
27E
100
AcDbEntity
8
0
100
AcDbBlockEnd
0
ENDSEC
0
SECTION
2
ENTITIES
0
ARC
5
13F
100
AcDbEntity
8
SK1
62
256
6
ByLayer
370
18
48
1
60
0
100
AcDbCircle
39
0
10
-0.4
20
8.75
30
0
40
1
210
0
220
0
230
1
100
AcDbArc
50
238.211669
51
256.836937
0
ARC
5
140
100
AcDbEntity
8
1
62
256
6
ByLayer
370
18
48
1
60
0
100
AcDbCircle
39
0
10
7.6
20
5.25
30
0
40
1
210
0
220
0
230
1
100
AcDbArc
50
90
51
180
0
ARC
5
141
100
AcDbEntity
8
1
62
256
6
ByLayer
370
18
48
1
60
0
100
AcDbCircle
39
0
10
7.6
20
5.25
30
0
40
1
210
0
220
0
230
1
100
AcDbArc
50
90
51
180
0
ARC
5
142
100
AcDbEntity
8
1
62
256
6
ByLayer
370
18
48
1
60
0
100
AcDbCircle
39
0
10
-0.4
20
8.75
30
0
40
1
210
0
220
0
230
1
100
AcDbArc
50
238.211669
51
256.836937
0
ELLIPSE
5
143
100
AcDbEntity
8
1
62
256
6
ByLayer
370
13
48
1
60
0
100
AcDbEllipse
10
21.974248
20
7.869586
30
0
11
0.998914190333117
21
-0.226032306361904
31
0
210
0
220
0
230
-1
40
0.206112
41
1.87325735012335
42
2.07998265343975
0
ELLIPSE
5
144
100
AcDbEntity
8
1
62
256
6
ByLayer
370
13
48
1
60
0
100
AcDbEllipse
10
29.27413
20
7
30
0
11
-6.1541317860938
21
7.53638888751072E-16
31
0
210
0
220
0
230
1
40
0.121869
41
1.12302990717099
42
1.18682389135614
0
ELLIPSE
5
145
100
AcDbEntity
8
1
62
256
6
ByLayer
370
13
48
1
60
0
100
AcDbEllipse
10
29.27413
20
7
30
0
11
-6.1541317860938
21
7.53638888751072E-16
31
0
210
0
220
0
230
1
40
0.121869
41
-1.18682389135615
42
-1.12302990717099
0
ELLIPSE
5
146
100
AcDbEntity
8
1
62
256
6
ByLayer
370
13
48
1
60
0
100
AcDbEllipse
10
29.27413
20
7
30
0
11
6.1175709701529
21
6.23670833521734E-10
31
0
210
0
220
0
230
-1
40
0.073559
41
-2.06016834703605
42
-1.95476876143812
0
ELLIPSE
5
147
100
AcDbEntity
8
1
62
256
6
ByLayer
370
13
48
1
60
0
100
AcDbEllipse
10
29.27413
20
7
30
0
11
6.11757095278457
21
-1.45817258640194E-09
31
0
210
0
220
0
230
-1
40
0.073559
41
1.95476876038368
42
2.06016834623596
0
ELLIPSE
5
148
100
AcDbEntity
8
1
62
256
6
ByLayer
370
13
48
1
60
0
100
AcDbEllipse
10
26.973627
20
7
30
0
11
1.22363010715196
21
1.23664837526239E-15
31
0
210
0
220
0
230
-1
40
0.367758
41
-2.41547853524256
42
-2.06016834763972
0
ELLIPSE
5
149
100
AcDbEntity
8
1
62
256
6
ByLayer
370
13
48
1
60
0
100
AcDbEllipse
10
26.686071
20
7
30
0
11
0.89972953197252
21
0.0397735739684465
31
0
210
0
220
0
230
-1
40
0.498193
41
-1.09832267943968
42
-1.00525797894898
0
ELLIPSE
5
14A
100
AcDbEntity
8
1
62
256
6
ByLayer
370
13
48
1
60
0
100
AcDbEllipse
10
26.686071
20
7
30
0
11
0.899729550210799
21
-0.0397735833404888
31
0
210
0
220
0
230
-1
40
0.498193
41
1.00525796776213
42
1.09832266671016
0
ELLIPSE
5
14B
100
AcDbEntity
8
1
62
256
6
ByLayer
370
13
48
1
60
0
100
AcDbEllipse
10
26.973627
20
7
30
0
11
1.22363010720913
21
1.23664837532017E-15
31
0
210
0
220
0
230
-1
40
0.367758
41
2.06016834764449
42
2.41547853522491
0
ELLIPSE
5
14C
100
AcDbEntity
8
1
62
256
6
ByLayer
370
13
48
1
60
0
100
AcDbEllipse
10
27.208716
20
7.647616
30
0
11
0.0309022559561243
21
-0.238002207083931
31
0
210
0
220
0
230
1
40
0.697921
41
0.77630543211831
42
1.43060367190732
0
ELLIPSE
5
14D
100
AcDbEntity
8
1
62
256
6
ByLayer
370
13
48
1
60
0
100
AcDbEllipse
10
28.433781
20
6.11922
30
0
11
0.0220590948837
21
0.238984092217269
31
0
210
0
220
0
230
1
40
0.006427
41
0.704838524415454
42
1.50127915029099
0
ELLIPSE
5
14E
100
AcDbEntity
8
1
62
256
6
ByLayer
370
13
48
1
60
0
100
AcDbEllipse
10
28.433781
20
7.88078
30
0
11
0.0220590948836999
21
-0.238984092217269
31
0
210
0
220
0
230
1
40
0.006427
41
-1.50127915029228
42
-0.704838524422289
0
ELLIPSE
5
14F
100
AcDbEntity
8
1
62
256
6
ByLayer
370
13
48
1
60
0
100
AcDbEllipse
10
27.208716
20
6.352384
30
0
11
-0.0309022559569112
21
-0.238002207083828
31
0
210
0
220
0
230
1
40
0.697921
41
1.71098898168887
42
2.36528722147378
0
ELLIPSE
5
150
100
AcDbEntity
8
1
62
256
6
ByLayer
370
13
48
1
60
0
100
AcDbEllipse
10
27.052761
20
7.699524
30
0
11
-0.102096483414469
21
-0.282092729566714
31
0
210
0
220
0
230
1
40
0.694069
41
0.542728458704416
42
1.76594516923878
0
ELLIPSE
5
151
100
AcDbEntity
8
1
62
256
6
ByLayer
370
13
48
1
60
0
100
AcDbEllipse
10
27.052761
20
6.300476
30
0
11
0.10209648341447
21
-0.282092729566714
31
0
210
0
220
0
230
1
40
0.694069
41
1.37564748435104
42
2.59886419488539
0
ELLIPSE
5
152
100
AcDbEntity
8
1
62
256
6
ByLayer
370
13
48
1
60
0
100
AcDbEllipse
10
26.38984
20
7.529577
30
0
11
0.0373781701033243
21
-0.145268277334479
31
0
210
0
220
0
230
1
40
0.332441
41
-1.6561270901124
42
-0.517494909403315
0
ELLIPSE
5
153
100
AcDbEntity
8
1
62
256
6
ByLayer
370
13
48
1
60
0
100
AcDbEllipse
10
26.38984
20
6.470423
30
0
11
0.0373781701033242
21
0.145268277334479
31
0
210
0
220
0
230
1
40
0.332441
41
0.517494909403331
42
1.65612709011245
0
ELLIPSE
5
154
100
AcDbEntity
8
1
62
256
6
ByLayer
370
13
48
1
60
0
100
AcDbEllipse
10
26.922324
20
7
30
0
11
1.24191050901493
21
1.45814620916448E-10
31
0
210
0
220
0
230
-1
40
0.483127
41
2.06016834782892
42
2.41547853535392
0
ELLIPSE
5
155
100
AcDbEntity
8
1
62
256
6
ByLayer
370
13
48
1
60
0
100
AcDbEllipse
10
26.922324
20
7
30
0
11
1.24191050884972
21
1.25512326316074E-15
31
0
210
0
220
0
230
-1
40
0.483127
41
-2.41547853519435
42
-2.06016834765144
0
ELLIPSE
5
156
100
AcDbEntity
8
1
62
256
6
ByLayer
370
13
48
1
60
0
100
AcDbEllipse
10
26.897945
20
7.014816
30
0
11
0.847017702276253
21
-0.196304033617361
31
0
210
0
220
0
230
-1
40
0.854591
41
0.792533403999178
42
0.922000608801706
0
ELLIPSE
5
157
100
AcDbEntity
8
1
62
256
6
ByLayer
370
13
48
1
60
0
100
AcDbEllipse
10
26.897945
20
6.985184
30
0
11
0.84701770270803
21
0.196304035682682
31
0
210
0
220
0
230
-1
40
0.854591
41
-0.922000606496866
42
-0.792533401784142
0
ELLIPSE
5
158
100
AcDbEntity
8
1
62
256
6
ByLayer
370
13
48
1
60
0
100
AcDbEllipse
10
27.06419
20
7.695388
30
0
11
-0.102096483414469
21
-0.282092729566714
31
0
210
0
220
0
230
1
40
0.694069
41
0.542728458704416
42
1.76594516923875
0
ELLIPSE
5
159
100
AcDbEntity
8
1
62
256
6
ByLayer
370
13
48
1
60
0
100
AcDbEllipse
10
27.161247
20
7.653295
30
0
11
0.136500727004937
21
0.267147059738871
31
0
210
0
220
0
230
1
40
0.677974
41
-1.35487317172655
42
-1.28974538225853
0
ELLIPSE
5
15A
100
AcDbEntity
8
1
62
256
6
ByLayer
370
13
48
1
60
0
100
AcDbEllipse
10
27.161247
20
6.346705
30
0
11
-0.136500727005176
21
0.267147059738748
31
0
210
0
220
0
230
1
40
0.677974
41
-1.85184727133188
42
-1.78671948186546
0
ELLIPSE
5
15B
100
AcDbEntity
8
1
62
256
6
ByLayer
370
13
48
1
60
0
100
AcDbEllipse
10
27.06419
20
6.304612
30
0
11
0.10209648341447
21
-0.282092729566714
31
0
210
0
220
0
230
1
40
0.694069
41
1.37564748435105
42
2.59886419488532
0
ELLIPSE
5
15C
100
AcDbEntity
8
1
62
256
6
ByLayer
370
13
48
1
60
0
100
AcDbEllipse
10
26.044976
20
6.601619
30
0
11
0.0716898187946788
21
0.131759515334514
31
0
210
0
220
0
230
1
40
0.304525
41
0.893380334284111
42
1.7349955870091
0
ELLIPSE
5
15D
100
AcDbEntity
8
1
62
256
6
ByLayer
370
13
48
1
60
0
100
AcDbEllipse
10
26.044976
20
7.398381
30
0
11
0.0716898187935411
21
-0.131759515335133
31
0
210
0
220
0
230
1
40
0.304525
41
-1.73499558697386
42
-0.893380334272766
0
ELLIPSE
5
15E
100
AcDbEntity
8
1
62
256
6
ByLayer
370
13
48
1
60
0
100
AcDbEllipse
10
27.168095
20
6.36856
30
0
11
0.171518916221875
21
0.16787275353098
31
0
210
0
220
0
230
1
40
0.082052
41
0.5182988174177
42
0.779655640506902
0
ELLIPSE
5
15F
100
AcDbEntity
8
1
62
256
6
ByLayer
370
13
48
1
60
0
100
AcDbEllipse
10
27.202479
20
6.353337
30
0
11
0.0417762271290194
21
0.236336088752574
31
0
210
0
220
0
230
1
40
0.675324
41
-1.34029986666134
42
-0.746155527792933
0
ELLIPSE
5
160
100
AcDbEntity
8
1
62
256
6
ByLayer
370
13
48
1
60
0
100
AcDbEllipse
10
27.202479
20
7.646663
30
0
11
-0.0417762271294201
21
0.236336088752503
31
0
210
0
220
0
230
1
40
0.675324
41
-2.39543712579809
42
-1.80129278693145
0
ELLIPSE
5
161
100
AcDbEntity
8
1
62
256
6
ByLayer
370
13
48
1
60
0
100
AcDbEllipse
10
28.191288
20
6.706548
30
0
11
-0.114657467550524
21
-0.383214907245139
31
0
210
0
220
0
230
1
40
0.149521
41
-1.52608952887373
42
-0.632305349725387
0
ELLIPSE
5
162
100
AcDbEntity
8
1
62
256
6
ByLayer
370
13
48
1
60
0
100
AcDbEllipse
10
26.076259
20
7.479243
30
0
11
0.111438992389702
21
0.278534290483538
31
0
210
0
220
0
230
1
40
0.391057
41
-2.99672437051159
42
-2.1633092404352
0
ELLIPSE
5
163
100
AcDbEntity
8
1
62
256
6
ByLayer
370
13
48
1
60
0
100
AcDbEllipse
10
26.076259
20
6.520757
30
0
11
-0.111438992389677
21
0.278534290483548
31
0
210
0
220
0
230
1
40
0.391057
41
-0.978283413154567
42
-0.144868283078228
0
ELLIPSE
5
164
100
AcDbEntity
8
1
62
256
6
ByLayer
370
13
48
1
60
0
100
AcDbEllipse
10
27.152499
20
6.42942
30
0
11
0.29766898486033
21
0.0373252656014786
31
0
210
0
220
0
230
1
40
0.756445
41
0.856307358412499
42
1.39678515212256
0
ELLIPSE
5
165
100
AcDbEntity
8
1
62
256
6
ByLayer
370
13
48
1
60
0
100
AcDbEllipse
10
27.152499
20
7.57058
30
0
11
-0.297668984860324
21
0.0373252656015258
31
0
210
0
220
0
230
1
40
0.756445
41
1.74480750146738
42
2.28528529517742
0
ELLIPSE
5
166
100
AcDbEntity
8
1
62
256
6
ByLayer
370
13
48
1
60
0
100
AcDbEllipse
10
28.191288
20
7.293452
30
0
11
-0.114657467550524
21
0.383214907245139
31
0
210
0
220
0
230
1
40
0.149521
41
0.632305349725198
42
1.52608952887374
0
ELLIPSE
5
167
100
AcDbEntity
8
1
62
256
6
ByLayer
370
13
48
1
60
0
100
AcDbEllipse
10
25.948488
20
6.616805
30
0
11
-0.0204696158072206
21
0.148596752416413
31
0
210
0
220
0
230
1
40
0.33919
41
0.367590503029039
42
1.52410589159645
0
ELLIPSE
5
168
100
AcDbEntity
8
1
62
256
6
ByLayer
370
13
48
1
60
0
100
AcDbEllipse
10
25.948488
20
7.383195
30
0
11
0.0204696158039751
21
0.14859675241686
31
0
210
0
220
0
230
1
40
0.33919
41
1.61748676198877
42
2.77400215055172
0
ELLIPSE
5
169
100
AcDbEntity
8
1
62
256
6
ByLayer
370
13
48
1
60
0
100
AcDbEllipse
10
26.067717
20
7.482663
30
0
11
0.111594752970791
21
0.278471921581671
31
0
210
0
220
0
230
1
40
0.394318
41
-2.99660724386033
42
-2.16841033890644
0
ELLIPSE
5
16A
100
AcDbEntity
8
1
62
256
6
ByLayer
370
13
48
1
60
0
100
AcDbEllipse
10
26.067717
20
6.517337
30
0
11
-0.111594752970814
21
0.278471921581661
31
0
210
0
220
0
230
1
40
0.394318
41
-0.973182314683367
42
-0.144985409729447
0
ELLIPSE
5
16B
100
AcDbEntity
8
1
62
256
6
ByLayer
370
13
48
1
60
0
100
AcDbEllipse
10
25.914981
20
7.393907
30
0
11
0.0722486702513559
21
0.131453906929048
31
0
210
0
220
0
230
1
40
0.303884
41
1.7362873549583
42
2.7191926110964
0
ELLIPSE
5
16C
100
AcDbEntity
8
1
62
256
6
ByLayer
370
13
48
1
60
0
100
AcDbEllipse
10
25.914981
20
6.606093
30
0
11
-0.0722486702265449
21
0.131453906942685
31
0
210
0
220
0
230
1
40
0.303884
41
0.422400042195125
42
1.40530529868886
0
ELLIPSE
5
16D
100
AcDbEntity
8
1
62
256
6
ByLayer
370
13
48
1
60
0
100
AcDbEllipse
10
27.193937
20
6.869004
30
0
11
0.288517367888856
21
-0.0822054038764276
31
0
210
0
220
0
230
1
40
0.201316
41
0.955679576570765
42
1.50320190071237
0
ELLIPSE
5
16E
100
AcDbEntity
8
1
62
256
6
ByLayer
370
13
48
1
60
0
100
AcDbEllipse
10
25.892833
20
7.412554
30
0
11
0.122999586129777
21
0.0858551210581151
31
0
210
0
220
0
230
1
40
0.203946
41
1.85506502495933
42
2.61874247938707
0
ELLIPSE
5
16F
100
AcDbEntity
8
1
62
256
6
ByLayer
370
13
48
1
60
0
100
AcDbEllipse
10
25.892833
20
6.587446
30
0
11
-0.122999586130244
21
0.0858551210574456
31
0
210
0
220
0
230
1
40
0.203946
41
0.522850174197054
42
1.28652762862982
0
ELLIPSE
5
170
100
AcDbEntity
8
1
62
256
6
ByLayer
370
13
48
1
60
0
100
AcDbEllipse
10
27.193937
20
7.130996
30
0
11
-0.288517367888757
21
-0.0822054038767749
31
0
210
0
220
0
230
1
40
0.201316
41
1.63839075288005
42
2.18591307702126
0
ELLIPSE
5
171
100
AcDbEntity
8
1
62
256
6
ByLayer
370
13
48
1
60
0
100
AcDbEllipse
10
25.878252
20
7.438419
30
0
11
0.136631968823999
21
0.0619007681315656
31
0
210
0
220
0
230
1
40
0.148534
41
1.88760878179955
42
2.74962710514657
0
ELLIPSE
5
172
100
AcDbEntity
8
1
62
256
6
ByLayer
370
13
48
1
60
0
100
AcDbEllipse
10
25.878252
20
6.561581
30
0
11
0.136631968824137
21
-0.0619007681312608
31
0
210
0
220
0
230
1
40
0.148534
41
-2.74962710515964
42
-1.88760878179988
0
ELLIPSE
5
173
100
AcDbEntity
8
1
62
256
6
ByLayer
370
13
48
1
60
0
100
AcDbEllipse
10
25.738501
20
6.274562
30
0
11
0.132407679423122
21
-0.0704855051041258
31
0
210
0
220
0
230
1
40
0.168583
41
-2.61018272665905
42
-1.87748899426516
0
ELLIPSE
5
174
100
AcDbEntity
8
1
62
256
6
ByLayer
370
13
48
1
60
0
100
AcDbEllipse
10
25.738501
20
7.725438
30
0
11
0.132407679423122
21
0.0704855051041255
31
0
210
0
220
0
230
1
40
0.168583
41
1.87748899426507
42
2.61018272665909
0
ELLIPSE
5
175
100
AcDbEntity
8
1
62
256
6
ByLayer
370
13
48
1
60
0
100
AcDbEllipse
10
25.942406
20
7.430874
30
0
11
-0.0486052519780795
21
-0.194003941919095
31
0
210
0
220
0
230
1
40
0.669878
41
-0.553928558803263
42
-0.205864067887412
0
ELLIPSE
5
176
100
AcDbEntity
8
1
62
256
6
ByLayer
370
13
48
1
60
0
100
AcDbEllipse
10
25.922373
20
7.433936
30
0
11
5.665498452323E-17
21
0.2
31
0
210
0
220
0
230
1
40
0.909654
41
1.90677220782005
42
2.72521072930061
0
ELLIPSE
5
177
100
AcDbEntity
8
1
62
256
6
ByLayer
370
13
48
1
60
0
100
AcDbEllipse
10
25.922373
20
6.566064
30
0
11
5.665498452323E-17
21
0.2
31
0
210
0
220
0
230
1
40
0.909654
41
0.416381924289194
42
1.23482044577494
0
ELLIPSE
5
178
100
AcDbEntity
8
1
62
256
6
ByLayer
370
13
48
1
60
0
100
AcDbEllipse
10
25.942406
20
6.569126
30
0
11
-0.0486052519780804
21
0.194003941919095
31
0
210
0
220
0
230
1
40
0.669878
41
0.205864067887317
42
0.55392855847657
0
ELLIPSE
5
179
100
AcDbEntity
8
1
62
256
6
ByLayer
370
13
48
1
60
0
100
AcDbEllipse
10
25.738501
20
6.274562
30
0
11
4.24912383924225E-17
21
0.15
31
0
210
0
220
0
230
1
40
0.848573
41
1.234820445786
42
1.5707963267949
0
ELLIPSE
5
17A
100
AcDbEntity
8
1
62
256
6
ByLayer
370
13
48
1
60
0
100
AcDbEllipse
10
25.738501
20
7.725438
30
0
11
4.24912383924225E-17
21
0.15
31
0
210
0
220
0
230
1
40
0.848573
41
1.5707963267949
42
1.90677220780379
0
ELLIPSE
5
17B
100
AcDbEntity
8
1
62
256
6
ByLayer
370
13
48
1
60
0
100
AcDbEllipse
10
25.434034
20
7.433936
30
0
11
5.665498452323E-17
21
0.2
31
0
210
0
220
0
230
1
40
0.34202
41
1.90677220780381
42
2.72521072930055
0
ELLIPSE
5
17C
100
AcDbEntity
8
1
62
256
6
ByLayer
370
13
48
1
60
0
100
AcDbEllipse
10
25.434034
20
6.566064
30
0
11
-3.67381906146713E-17
21
-0.2
31
0
210
0
220
0
230
1
40
0.34202
41
-2.72521072930055
42
-1.90677220780381
0
ELLIPSE
5
17D
100
AcDbEntity
8
1
62
256
6
ByLayer
370
13
48
1
60
0
100
AcDbEllipse
10
25.68303
20
4.919859
30
0
11
-3.67381906146715E-16
21
-2.00000000000001
31
0
210
0
220
0
230
1
40
0.34202
41
-2.79252680319094
42
-2.72521072930059
0
ELLIPSE
5
17E
100
AcDbEntity
8
1
62
256
6
ByLayer
370
13
48
1
60
0
100
AcDbEllipse
10
25.381103
20
6.274562
30
0
11
-2.75536429610035E-17
21
-0.15
31
0
210
0
220
0
230
1
40
0.34202
41
-1.90677220780386
42
-1.5707963267949
0
ELLIPSE
5
17F
100
AcDbEntity
8
1
62
256
6
ByLayer
370
13
48
1
60
0
100
AcDbEllipse
10
25.68303
20
9.080141
30
0
11
5.66549845232303E-16
21
2.00000000000001
31
0
210
0
220
0
230
1
40
0.34202
41
2.72521072930059
42
2.79252680319094
0
ELLIPSE
5
180
100
AcDbEntity
8
1
62
256
6
ByLayer
370
13
48
1
60
0
100
AcDbEllipse
10
25.381103
20
7.725438
30
0
11
4.24912383924225E-17
21
0.15
31
0
210
0
220
0
230
1
40
0.34202
41
1.5707963267949
42
1.90677220780386
0
ELLIPSE
5
181
100
AcDbEntity
8
1
62
256
6
ByLayer
370
13
48
1
60
0
100
AcDbEllipse
10
29.122654
20
6.108695
30
0
11
0.00588101291965508
21
0.239927934361631
31
0
210
0
220
0
230
1
40
0.175234
41
0.750535400473072
42
1.50631558565103
0
ELLIPSE
5
182
100
AcDbEntity
8
1
62
256
6
ByLayer
370
13
48
1
60
0
100
AcDbEllipse
10
29.122654
20
7.891305
30
0
11
0.00588101291965487
21
-0.239927934361631
31
0
210
0
220
0
230
1
40
0.175234
41
-1.50631558565101
42
-0.750535400472837
0
ELLIPSE
5
183
100
AcDbEntity
8
1
62
256
6
ByLayer
370
13
48
1
60
0
100
AcDbEllipse
10
25.427723
20
7
30
0
11
5.94877337493915E-17
21
0.21
31
0
210
0
220
0
230
1
40
0.34202
41
-2.7925268031909
42
-0.349065850398889
0
ELLIPSE
5
184
100
AcDbEntity
8
1
62
256
6
ByLayer
370
13
48
1
60
0
100
AcDbEllipse
10
29.65209
20
6.312207
30
0
11
-0.0532002340369041
21
0.0846742882959086
31
0
210
0
220
0
230
1
40
0.139782
41
-1.57684789387821
42
-0.739654044677402
0
ELLIPSE
5
185
100
AcDbEntity
8
1
62
256
6
ByLayer
370
13
48
1
60
0
100
AcDbEllipse
10
29.813506
20
6.461955
30
0
11
-0.0833195870797989
21
0.0552977975045282
31
0
210
0
220
0
230
1
40
0.125168
41
-1.63384778655093
42
-1.00901921834427
0
ELLIPSE
5
186
100
AcDbEntity
8
1
62
256
6
ByLayer
370
13
48
1
60
0
100
AcDbEllipse
10
29.65209
20
7.687793
30
0
11
-0.0532002340369042
21
-0.0846742882959085
31
0
210
0
220
0
230
1
40
0.139782
41
0.739654044677307
42
1.57684789387807
0
ELLIPSE
5
187
100
AcDbEntity
8
1
62
256
6
ByLayer
370
13
48
1
60
0
100
AcDbEllipse
10
29.813506
20
7.538045
30
0
11
-0.0833195870797989
21
-0.0552977975045282
31
0
210
0
220
0
230
1
40
0.125168
41
1.00901921834395
42
1.6338477865509
0
ELLIPSE
5
188
100
AcDbEntity
8
1
62
256
6
ByLayer
370
13
48
1
60
0
100
AcDbEllipse
10
29.341387
20
6.647871
30
0
11
0.0115886927836044
21
0.399832092508302
31
0
210
0
220
0
230
1
40
0.406594
41
-2.32325251776616
42
-1.55901218905987
0
ELLIPSE
5
189
100
AcDbEntity
8
1
62
256
6
ByLayer
370
13
48
1
60
0
100
AcDbEllipse
10
29.341387
20
7.352129
30
0
11
0.0115886927836045
21
-0.399832092508302
31
0
210
0
220
0
230
1
40
0.406594
41
1.55901218905987
42
2.32325251776611
0
ELLIPSE
5
18A
100
AcDbEntity
8
1
62
256
6
ByLayer
370
13
48
1
60
0
100
AcDbEllipse
10
29.594545
20
6.276324
30
0
11
-0.0526170259943807
21
0.0850379243367727
31
0
210
0
220
0
230
1
40
0.13982
41
-1.57588705481523
42
-0.737799907002159
0
ELLIPSE
5
18B
100
AcDbEntity
8
1
62
256
6
ByLayer
370
13
48
1
60
0
100
AcDbEllipse
10
29.498358
20
6.199622
30
0
11
0.0768343605824262
21
-0.0640037579669329
31
0
210
0
220
0
230
1
40
0.131171
41
1.52167934605469
42
1.98237212656361
0
ELLIPSE
5
18C
100
AcDbEntity
8
1
62
256
6
ByLayer
370
13
48
1
60
0
100
AcDbEllipse
10
29.498358
20
7.800378
30
0
11
0.0768343605824262
21
0.0640037579669328
31
0
210
0
220
0
230
1
40
0.131171
41
-1.98237212656373
42
-1.52167934605455
0
ELLIPSE
5
18D
100
AcDbEntity
8
1
62
256
6
ByLayer
370
13
48
1
60
0
100
AcDbEllipse
10
29.594545
20
7.723676
30
0
11
-0.0526170259943807
21
-0.0850379243367726
31
0
210
0
220
0
230
1
40
0.13982
41
0.737799907002136
42
1.57588705481515
0
ELLIPSE
5
18E
100
AcDbEntity
8
1
62
256
6
ByLayer
370
13
48
1
60
0
100
AcDbEllipse
10
28.733781
20
7.883503
30
0
11
-0.00779618045171942
21
-0.239873340682878
31
0
210
0
220
0
230
1
40
0.002272
41
0.730980747429414
42
1.50102006034284
0
ELLIPSE
5
18F
100
AcDbEntity
8
1
62
256
6
ByLayer
370
13
48
1
60
0
100
AcDbEllipse
10
29.835851
20
7.503425
30
0
11
-0.0846406472330468
21
-0.0532537401125116
31
0
210
0
220
0
230
1
40
0.065248
41
1.04586785899545
42
1.67413113259343
0
ELLIPSE
5
190
100
AcDbEntity
8
1
62
256
6
ByLayer
370
13
48
1
60
0
100
AcDbEllipse
10
28.733781
20
6.116497
30
0
11
-0.00779618045171957
21
0.239873340682878
31
0
210
0
220
0
230
1
40
0.002272
41
-1.50102006034288
42
-0.730980747429493
0
ELLIPSE
5
191
100
AcDbEntity
8
1
62
256
6
ByLayer
370
13
48
1
60
0
100
AcDbEllipse
10
29.835851
20
6.496575
30
0
11
-0.0846406472330468
21
0.0532537401125117
31
0
210
0
220
0
230
1
40
0.065248
41
-1.67413113259329
42
-1.04586785899404
0
ELLIPSE
5
192
100
AcDbEntity
8
1
62
256
6
ByLayer
370
13
48
1
60
0
100
AcDbEllipse
10
21.974248
20
7.869586
30
0
11
0.979582052882234
21
-0.301726209299278
31
0
210
0
220
0
230
-1
40
0.270086
41
1.98807590284819
42
2.11639244215866
0
ELLIPSE
5
193
100
AcDbEntity
8
1
62
256
6
ByLayer
370
13
48
1
60
0
100
AcDbEllipse
10
21.974248
20
6.130414
30
0
11
0.998914192540265
21
0.226032306550145
31
0
210
0
220
0
230
-1
40
0.206112
41
-2.07998265402836
42
-1.87325735109249
0
ELLIPSE
5
194
100
AcDbEntity
8
1
62
256
6
ByLayer
370
13
48
1
60
0
100
AcDbEllipse
10
21.974248
20
6.130414
30
0
11
0.97958205337266
21
0.301726209354051
31
0
210
0
220
0
230
-1
40
0.270086
41
-2.11639244229061
42
-1.98807590303194
0
ELLIPSE
5
195
100
AcDbEntity
8
1
62
256
6
ByLayer
370
18
48
1
60
0
100
AcDbEllipse
10
29.481337
20
6.023913
30
0
11
0.23999827686381
21
-0.0147981977899532
31
0
210
0
220
0
230
-1
40
0.061458
41
1.44512848006543
42
1.74112318486358
0
ELLIPSE
5
196
100
AcDbEntity
8
1
62
256
6
ByLayer
370
18
48
1
60
0
100
AcDbEllipse
10
26.948461
20
6.333076
30
0
11
0.057752929499109
21
0.191891975732293
31
0
210
-1.59650527093405E-15
220
-7.67208394159938E-18
230
1
40
0.998032
41
2.91077570167875
42
-2.91077570167872
0
ELLIPSE
5
197
100
AcDbEntity
8
1
62
256
6
ByLayer
370
18
48
1
60
0
100
AcDbEllipse
10
26.72387
20
8
30
0
11
0.201490790302156
21
0
31
0
210
0
220
0
230
1
40
0.992601
41
-1.5707963267949
42
-1.04397591016874
0
ELLIPSE
5
198
100
AcDbEntity
8
1
62
256
6
ByLayer
370
18
48
1
60
0
100
AcDbEllipse
10
29.481337
20
7.976087
30
0
11
0.239998276384619
21
0.0147981977609135
31
0
210
0
220
0
230
-1
40
0.061458
41
-1.74112318517263
42
-1.44512847977915
0
ELLIPSE
5
199
100
AcDbEntity
8
1
62
256
6
ByLayer
370
18
48
1
60
0
100
AcDbEllipse
10
27.063726
20
6.143661
30
0
11
0.302024948160459
21
-0.0186199320937011
31
0
210
0
220
0
230
-1
40
0.060635
41
0.77616608923305
42
1.56278371214479
0
ELLIPSE
5
19A
100
AcDbEntity
8
1
62
256
6
ByLayer
370
18
48
1
60
0
100
AcDbEllipse
10
26.948461
20
7.666924
30
0
11
0.0577529294991086
21
-0.191891975732293
31
0
210
-1.62972770132427E-15
220
-2.32673269882162E-18
230
1
40
0.998032
41
2.91077570167872
42
-2.91077570167875
0
ELLIPSE
5
19B
100
AcDbEntity
8
1
62
256
6
ByLayer
370
18
48
1
60
0
100
AcDbEllipse
10
29.948748
20
6.496575
30
0
11
1.1330996904646E-16
21
0.4
31
0
210
0
220
0
230
1
40
0.121869
41
1.5707963267949
42
1.64009079051256
0
ELLIPSE
5
19C
100
AcDbEntity
8
1
62
256
6
ByLayer
370
18
48
1
60
0
100
AcDbEllipse
10
27.063726
20
7.856339
30
0
11
0.302024948166501
21
0.0186199320943694
31
0
210
0
220
0
230
-1
40
0.060635
41
-1.56278371212809
42
-0.776166089229434
0
ELLIPSE
5
19D
100
AcDbEntity
8
1
62
256
6
ByLayer
370
18
48
1
60
0
100
AcDbEllipse
10
26.72387
20
6
30
0
11
-0.201490790302156
21
2.46746902040712E-17
31
0
210
0
220
0
230
1
40
0.992601
41
-2.09761674342106
42
-1.5707963267949
0
ELLIPSE
5
19E
100
AcDbEntity
8
1
62
256
6
ByLayer
370
18
48
1
60
0
100
AcDbEllipse
10
29.948748
20
7.503425
30
0
11
1.1330996904646E-16
21
0.4
31
0
210
0
220
0
230
1
40
0.121869
41
1.50150186307724
42
1.5707963267949
0
POINT
5
6C
100
AcDbEntity
8
81
62
256
6
ByLayer
370
18
48
1
60
0
100
AcDbPoint
10
29.9
20
8
30
0
39
0
210
0
220
0
230
1
50
360
0
POINT
5
6E
100
AcDbEntity
8
80
62
256
6
ByLayer
370
18
48
1
60
0
100
AcDbPoint
10
0
20
0
30
0
39
0
210
0
220
0
230
1
50
360
0
SPLINE
5
19F
100
AcDbEntity
8
SK1
62
256
6
ByLayer
370
18
48
1
60
0
100
AcDbSpline
70
4
71
3
72
8
73
4
40
0
40
0
40
0
40
0
40
1
40
1
40
1
40
1
41
1
10
-0.62772318076631
20
7.77627408736305
30
0
41
1
10
-0.55313192740303
20
7.75882959168641
30
0
41
1
10
-0.475824100695149
20
7.75000000000051
30
0
41
1
10
-0.399999999999977
20
7.75000000000051
30
0
0
SPLINE
5
1A0
100
AcDbEntity
8
1
62
256
6
ByLayer
370
18
48
1
60
0
100
AcDbSpline
70
4
71
3
72
18
73
14
40
0
40
0
40
0
40
0
40
0.183499023283767
40
0.183499023283767
40
0.366547057815201
40
0.366547057815201
40
0.5578745932706
40
0.5578745932706
40
0.770665275205146
40
0.770665275205146
40
0.995878266566041
40
0.995878266566041
40
1
40
1
40
1
40
1
41
1
10
18.1424492346408
20
5.25000000000051
30
0
41
1
10
18.1424492346408
20
5.35222200972339
30
0
41
1
10
18.1586759897969
20
5.45585564966982
30
0
41
1
10
18.2196165072835
20
5.64817554077672
30
0
41
1
10
18.2649661240308
20
5.73945502199109
30
0
41
1
10
18.3788344120234
20
5.903706252869
30
0
41
1
10
18.4496207709842
20
5.97777651173581
30
0
41
1
10
18.613286688842
20
6.10552949410041
30
0
41
1
10
18.7097396361622
20
6.15770599633504
30
0
41
1
10
18.9148301105224
20
6.23015095038369
30
0
41
1
10
19.0262630939546
20
6.24931641966134
30
0
41
1
10
19.13842232285
20
6.24999391912351
30
0
41
1
10
19.1404357594383
20
6.25000000000065
30
0
41
1
10
19.1424492346408
20
6.25000000000065
30
0
0
SPLINE
5
1A1
100
AcDbEntity
8
1
62
256
6
ByLayer
370
18
48
1
60
0
100
AcDbSpline
70
4
71
3
72
18
73
14
40
0
40
0
40
0
40
0
40
0.0044321731170428
40
0.0044321731170428
40
0.2452433456402
40
0.2452433456402
40
0.486958440254783
40
0.486958440254783
40
0.713766628202683
40
0.713766628202683
40
0.92122496420774
40
0.92122496420774
40
1
40
1
40
1
40
1
41
1
10
10.4447368421052
20
6.25000000000068
30
0
41
1
10
10.4428400269771
20
6.25000000000068
30
0
41
1
10
10.440943364838
20
6.24999279657371
30
0
41
1
10
10.3359807238365
20
6.24919543141911
30
0
41
1
10
10.2310455613012
20
6.226613108165
30
0
41
1
10
10.0348281619237
20
6.13909434580151
30
0
41
1
10
9.94069963004731
20
6.07256185484633
30
0
41
1
10
9.78529918886673
20
5.90830177924713
30
0
41
1
10
9.72011235718443
20
5.81013869851608
30
0
41
1
10
9.6291909733192
20
5.60277315695834
30
0
41
1
10
9.59933971412076
20
5.49217574149094
30
0
41
1
10
9.5817134229446
20
5.33716313767991
30
0
41
1
10
9.5792397660814
20
5.2935281079954
30
0
41
1
10
9.57923976608143
20
5.25000000000063
30
0
0
SPLINE
5
1A2
100
AcDbEntity
8
1
62
256
6
ByLayer
370
13
48
1
60
0
100
AcDbSpline
70
4
71
3
72
10
73
6
40
0
40
0
40
0
40
0
40
0.807289382551453
40
0.807289382551453
40
1
40
1
40
1
40
1
41
1
10
27.3262120963125
20
7.37602364728997
30
0
41
1
10
27.3302762008164
20
7.40827338339267
30
0
41
1
10
27.3269568435098
20
7.43741094383611
30
0
41
1
10
27.3156280417962
20
7.46763122432733
30
0
41
1
10
27.3131204986914
20
7.47328374634458
30
0
41
1
10
27.3102634152023
20
7.47864301426415
30
0
0
SPLINE
5
1A3
100
AcDbEntity
8
1
62
256
6
ByLayer
370
13
48
1
60
0
100
AcDbSpline
70
4
71
3
72
14
73
10
40
0
40
0
40
0
40
0
40
0.140335064029798
40
0.140335064029798
40
0.313324577863399
40
0.313324577863399
40
0.854437087129479
40
0.854437087129479
40
1
40
1
40
1
40
1
41
1
10
27.3102634152023
20
7.47864301426412
30
0
41
1
10
27.3115615907816
20
7.48003711222631
30
0
41
1
10
27.3130492807413
20
7.4813429898791
30
0
41
1
10
27.3164306495378
20
7.48386327402781
30
0
41
1
10
27.318387975026
20
7.48503492183184
30
0
41
1
10
27.3261757331449
20
7.48902862645522
30
0
41
1
10
27.3318897349344
20
7.49055190539048
30
0
41
1
10
27.3386571441608
20
7.49184195092192
30
0
41
1
10
27.3400859075476
20
7.49207471604998
30
0
41
1
10
27.341497419172
20
7.4922720357487
30
0
0
SPLINE
5
1A4
100
AcDbEntity
8
1
62
256
6
ByLayer
370
13
48
1
60
0
100
AcDbSpline
70
4
71
3
72
8
73
4
40
0
40
0
40
0
40
0
40
1
40
1
40
1
40
1
41
1
10
27.3414974191718
20
7.49227203574841
30
0
41
1
10
27.3434065060312
20
7.49253891307157
30
0
41
1
10
27.3452888609444
20
7.49274765450886
30
0
41
1
10
27.3471477503402
20
7.49291053580177
30
0
0
SPLINE
5
1A5
100
AcDbEntity
8
1
62
256
6
ByLayer
370
13
48
1
60
0
100
AcDbSpline
70
4
71
3
72
12
73
8
40
0
40
0
40
0
40
0
40
0.271863792020762
40
0.271863792020762
40
0.680333498425164
40
0.680333498425164
40
1
40
1
40
1
40
1
41
1
10
27.3471477503395
20
7.49291053580112
30
0
41
1
10
27.4254708389115
20
7.49977343251896
30
0
41
1
10
27.5132950984392
20
7.51219735217077
30
0
41
1
10
27.746593161407
20
7.55200448973832
30
0
41
1
10
27.9026236458243
20
7.58432391740305
30
0
41
1
10
28.1875983266003
20
7.64847491014865
30
0
41
1
10
28.3183646565652
20
7.6826158859148
30
0
41
1
10
28.4495881472218
20
7.69865031829846
30
0
0
SPLINE
5
1A6
100
AcDbEntity
8
1
62
256
6
ByLayer
370
13
48
1
60
0
100
AcDbSpline
70
4
71
3
72
8
73
4
40
0
40
0
40
0
40
0
40
1
40
1
40
1
40
1
41
1
10
28.4495881472218
20
7.69865031829846
30
0
41
1
10
28.5417788954044
20
7.70991527025743
30
0
41
1
10
28.6354245830993
20
7.70761647058961
30
0
41
1
10
28.7283398883332
20
7.70490100037179
30
0
0
SPLINE
5
1A7
100
AcDbEntity
8
1
62
256
6
ByLayer
370
13
48
1
60
0
100
AcDbSpline
70
4
71
3
72
8
73
4
40
0
40
0
40
0
40
0
40
1
40
1
40
1
40
1
41
1
10
28.7283398883332
20
7.70490100037179
30
0
41
1
10
28.8522136636575
20
7.70128076206106
30
0
41
1
10
28.9768571353025
20
7.70979565849589
30
0
41
1
10
29.0982800289245
20
7.71513670628934
30
0
0
SPLINE
5
1A8
100
AcDbEntity
8
1
62
256
6
ByLayer
370
13
48
1
60
0
100
AcDbSpline
70
4
71
3
72
10
73
6
40
0
40
0
40
0
40
0
40
0.860053459941695
40
0.860053459941695
40
1
40
1
40
1
40
1
41
1
10
29.0982800289245
20
7.71513670628934
30
0
41
1
10
29.2321716826563
20
7.72102621938191
30
0
41
1
10
29.3692183325878
20
7.70958366409235
30
0
41
1
10
29.5209193574704
20
7.66841365488102
30
0
41
1
10
29.5422592203894
20
7.66208740031067
30
0
41
1
10
29.5636089363249
20
7.65580305439761
30
0
0
SPLINE
5
1A9
100
AcDbEntity
8
1
62
256
6
ByLayer
370
13
48
1
60
0
100
AcDbSpline
70
4
71
3
72
8
73
4
40
0
40
0
40
0
40
0
40
1
40
1
40
1
40
1
41
1
10
29.5636089363249
20
7.65580305439761
30
0
41
1
10
29.5827084170632
20
7.64401847520557
30
0
41
1
10
29.6017609506473
20
7.63215983084015
30
0
41
1
10
29.620768358368
20
7.620231768134
30
0
0
SPLINE
5
1AA
100
AcDbEntity
8
1
62
256
6
ByLayer
370
13
48
1
60
0
100
AcDbSpline
70
4
71
3
72
10
73
6
40
0
40
0
40
0
40
0
40
0.776503433583243
40
0.776503433583243
40
1
40
1
40
1
40
1
41
1
10
29.620768358368
20
7.620231768134
30
0
41
1
10
29.5774725026343
20
7.62193831465038
30
0
41
1
10
29.5344378625006
20
7.62322049736358
30
0
41
1
10
29.4776224808541
20
7.62745621869547
30
0
41
1
10
29.4648810790715
20
7.62825873729943
30
0
41
1
10
29.4521447262339
20
7.62882757604763
30
0
0
SPLINE
5
1AB
100
AcDbEntity
8
1
62
256
6
ByLayer
370
13
48
1
60
0
100
AcDbSpline
70
4
71
3
72
10
73
6
40
0
40
0
40
0
40
0
40
0.802218039223748
40
0.802218039223748
40
1
40
1
40
1
40
1
41
1
10
29.4521447262339
20
7.62882757604763
30
0
41
1
10
29.3127836505349
20
7.63505180529574
30
0
41
1
10
29.1644549248778
20
7.64071631237957
30
0
41
1
10
28.9792703339538
20
7.6479206677343
30
0
41
1
10
28.9422443273126
20
7.6493561988228
30
0
41
1
10
28.9052430294063
20
7.65066632923683
30
0
0
SPLINE
5
1AC
100
AcDbEntity
8
1
62
256
6
ByLayer
370
13
48
1
60
0
100
AcDbSpline
70
4
71
3
72
16
73
12
40
0
40
0
40
0
40
0
40
0.0308303102605419
40
0.0308303102605419
40
0.572662020821238
40
0.572662020821238
40
0.596525876635503
40
0.596525876635503
40
0.811742896024901
40
0.811742896024901
40
1
40
1
40
1
40
1
41
1
10
28.9052430294063
20
7.65066632923683
30
0
41
1
10
28.8993536372725
20
7.65087485899636
30
0
41
1
10
28.8934642432982
20
7.65108352215438
30
0
41
1
10
28.7840753219571
20
7.6549620910437
30
0
41
1
10
28.6804680881194
20
7.658111168951
30
0
41
1
10
28.5725520075115
20
7.66316884005877
30
0
41
1
10
28.5679952849824
20
7.66335472240036
30
0
41
1
10
28.5223626957531
20
7.66495365662573
30
0
41
1
10
28.4811924961803
20
7.66454559295263
30
0
41
1
10
28.4042684809455
20
7.66189619430705
30
0
41
1
10
28.3684207998394
20
7.65978292286789
30
0
41
1
10
28.3328798390934
20
7.65521488872432
30
0
0
SPLINE
5
1AD
100
AcDbEntity
8
1
62
256
6
ByLayer
370
13
48
1
60
0
100
AcDbSpline
70
4
71
3
72
12
73
8
40
0
40
0
40
0
40
0
40
0.491351269778757
40
0.491351269778757
40
0.753050934981407
40
0.753050934981407
40
1
40
1
40
1
40
1
41
1
10
28.3328798390934
20
7.65521488872432
30
0
41
1
10
28.287975282918
20
7.64944336365841
30
0
41
1
10
28.2433932389101
20
7.64158486370491
30
0
41
1
10
28.1762335559799
20
7.62561959723388
30
0
41
1
10
28.1531371669221
20
7.61852725902486
30
0
41
1
10
28.1083199167816
20
7.60518039924693
30
0
41
1
10
28.0865899596689
20
7.59880832408905
30
0
41
1
10
28.0649336450022
20
7.59244673011691
30
0
0
SPLINE
5
1AE
100
AcDbEntity
8
1
62
256
6
ByLayer
370
13
48
1
60
0
100
AcDbSpline
70
4
71
3
72
12
73
8
40
0
40
0
40
0
40
0
40
0.244915547318589
40
0.244915547318589
40
0.864563982028735
40
0.864563982028735
40
1
40
1
40
1
40
1
41
1
10
28.0649336450022
20
7.59244673011691
30
0
41
1
10
27.9994204230128
20
7.57320206524579
30
0
41
1
10
27.9343929566216
20
7.5541271200118
30
0
41
1
10
27.7105405998204
20
7.48855933736851
30
0
41
1
10
27.5555221571248
20
7.443363985579
30
0
41
1
10
27.3855701545793
20
7.39349633818483
30
0
41
1
10
27.355505723763
20
7.38465815002562
30
0
41
1
10
27.3262120963126
20
7.37602364729
30
0
0
SPLINE
5
1AF
100
AcDbEntity
8
1
62
256
6
ByLayer
370
13
48
1
60
0
100
AcDbSpline
70
4
71
3
72
8
73
4
40
0
40
0
40
0
40
0
40
1
40
1
40
1
40
1
41
1
10
27.3471477503394
20
6.50708946419917
30
0
41
1
10
27.3452888609436
20
6.50725234549211
30
0
41
1
10
27.3434065060323
20
6.50746108692778
30
0
41
1
10
27.3414974191729
20
6.5077279642509
30
0
0
SPLINE
5
1B0
100
AcDbEntity
8
1
62
256
6
ByLayer
370
13
48
1
60
0
100
AcDbSpline
70
4
71
3
72
14
73
10
40
0
40
0
40
0
40
0
40
0.538704325353333
40
0.538704325353333
40
0.684467013462083
40
0.684467013462083
40
0.858675811811913
40
0.858675811811913
40
1
40
1
40
1
40
1
41
1
10
27.3414974191717
20
6.50772796425187
30
0
41
1
10
27.336304109803
20
6.50845395348375
30
0
41
1
10
27.3308274196763
20
6.50960410190038
30
0
41
1
10
27.3235066860403
20
6.51245717488436
30
0
41
1
10
27.3219066564685
20
6.51316063404852
30
0
41
1
10
27.318387975026
20
6.51496507816847
30
0
41
1
10
27.3164306495378
20
6.51613672597253
30
0
41
1
10
27.3130492807491
20
6.51865701011533
30
0
41
1
10
27.3115615907704
20
6.51996288771889
30
0
41
1
10
27.3102634151938
20
6.52135698567119
30
0
0
SPLINE
5
1B1
100
AcDbEntity
8
1
62
256
6
ByLayer
370
13
48
1
60
0
100
AcDbSpline
70
4
71
3
72
10
73
6
40
0
40
0
40
0
40
0
40
0.429405505457208
40
0.429405505457208
40
1
40
1
40
1
40
1
41
1
10
27.3102634152023
20
6.52135698573613
30
0
41
1
10
27.3165911437521
20
6.53322642978651
30
0
41
1
10
27.3213513498928
20
6.54645078946555
30
0
41
1
10
27.3283387413341
20
6.57980136455143
30
0
41
1
10
27.3290939581086
20
6.60110802284345
30
0
41
1
10
27.3262120963125
20
6.62397635271032
30
0
0
SPLINE
5
1B2
100
AcDbEntity
8
1
62
256
6
ByLayer
370
13
48
1
60
0
100
AcDbSpline
70
4
71
3
72
12
73
8
40
0
40
0
40
0
40
0
40
0.244915547318584
40
0.244915547318584
40
0.864563982028716
40
0.864563982028716
40
1
40
1
40
1
40
1
41
1
10
28.0649336450022
20
6.40755326988338
30
0
41
1
10
27.9994204230128
20
6.42679793475449
30
0
41
1
10
27.9343929566216
20
6.44587287998849
30
0
41
1
10
27.7105405998204
20
6.51144066263177
30
0
41
1
10
27.5555221571248
20
6.55663601442129
30
0
41
1
10
27.3855701545793
20
6.60650366181545
30
0
41
1
10
27.355505723763
20
6.61534184997467
30
0
41
1
10
27.3262120963125
20
6.62397635271032
30
0
0
SPLINE
5
1B3
100
AcDbEntity
8
1
62
256
6
ByLayer
370
13
48
1
60
0
100
AcDbSpline
70
4
71
3
72
12
73
8
40
0
40
0
40
0
40
0
40
0.491351269778757
40
0.491351269778757
40
0.753050934981407
40
0.753050934981407
40
1
40
1
40
1
40
1
41
1
10
28.3328798390934
20
6.34478511127597
30
0
41
1
10
28.287975282918
20
6.35055663634188
30
0
41
1
10
28.2433932389101
20
6.35841513629538
30
0
41
1
10
28.1762335559799
20
6.3743804027664
30
0
41
1
10
28.1531371669221
20
6.38147274097542
30
0
41
1
10
28.1083199167816
20
6.39481960075335
30
0
41
1
10
28.0865899596689
20
6.40119167591124
30
0
41
1
10
28.0649336450022
20
6.40755326988338
30
0
0
SPLINE
5
1B4
100
AcDbEntity
8
1
62
256
6
ByLayer
370
13
48
1
60
0
100
AcDbSpline
70
4
71
3
72
16
73
12
40
0
40
0
40
0
40
0
40
0.0308303102605419
40
0.0308303102605419
40
0.572662020821238
40
0.572662020821238
40
0.596525876635503
40
0.596525876635503
40
0.811742896024901
40
0.811742896024901
40
1
40
1
40
1
40
1
41
1
10
28.9052430294063
20
6.34933367076346
30
0
41
1
10
28.8993536372725
20
6.34912514100392
30
0
41
1
10
28.8934642432982
20
6.3489164778459
30
0
41
1
10
28.7840753219571
20
6.34503790895658
30
0
41
1
10
28.6804680881194
20
6.34188883104929
30
0
41
1
10
28.5725520075115
20
6.33683115994151
30
0
41
1
10
28.5679952849824
20
6.33664527759993
30
0
41
1
10
28.5223626957531
20
6.33504634337456
30
0
41
1
10
28.4811924961803
20
6.33545440704765
30
0
41
1
10
28.4042684809455
20
6.33810380569324
30
0
41
1
10
28.3684207998394
20
6.34021707713239
30
0
41
1
10
28.3328798390934
20
6.34478511127597
30
0
0
SPLINE
5
1B5
100
AcDbEntity
8
1
62
256
6
ByLayer
370
13
48
1
60
0
100
AcDbSpline
70
4
71
3
72
10
73
6
40
0
40
0
40
0
40
0
40
0.802218039223748
40
0.802218039223748
40
1
40
1
40
1
40
1
41
1
10
29.4521447262339
20
6.37117242395266
30
0
41
1
10
29.3127836505349
20
6.36494819470454
30
0
41
1
10
29.1644549248778
20
6.35928368762072
30
0
41
1
10
28.9792703339538
20
6.35207933226599
30
0
41
1
10
28.9422443273126
20
6.35064380117748
30
0
41
1
10
28.9052430294063
20
6.34933367076346
30
0
0
SPLINE
5
1B6
100
AcDbEntity
8
1
62
256
6
ByLayer
370
13
48
1
60
0
100
AcDbSpline
70
4
71
3
72
10
73
6
40
0
40
0
40
0
40
0
40
0.776503433583243
40
0.776503433583243
40
1
40
1
40
1
40
1
41
1
10
29.620768358368
20
6.37976823186628
30
0
41
1
10
29.5774725026343
20
6.3780616853499
30
0
41
1
10
29.5344378625006
20
6.37677950263671
30
0
41
1
10
29.4776224808541
20
6.37254378130481
30
0
41
1
10
29.4648810790715
20
6.37174126270085
30
0
41
1
10
29.4521447262339
20
6.37117242395266
30
0
0
SPLINE
5
1B7
100
AcDbEntity
8
1
62
256
6
ByLayer
370
13
48
1
60
0
100
AcDbSpline
70
4
71
3
72
8
73
4
40
0
40
0
40
0
40
0
40
1
40
1
40
1
40
1
41
1
10
29.5636089363249
20
6.34419694560268
30
0
41
1
10
29.5827084170632
20
6.35598152479471
30
0
41
1
10
29.6017609506473
20
6.36784016916013
30
0
41
1
10
29.620768358368
20
6.37976823186628
30
0
0
SPLINE
5
1B8
100
AcDbEntity
8
1
62
256
6
ByLayer
370
13
48
1
60
0
100
AcDbSpline
70
4
71
3
72
10
73
6
40
0
40
0
40
0
40
0
40
0.860053459941695
40
0.860053459941695
40
1
40
1
40
1
40
1
41
1
10
29.0982800289245
20
6.28486329371094
30
0
41
1
10
29.2321716826563
20
6.27897378061837
30
0
41
1
10
29.3692183325878
20
6.29041633590793
30
0
41
1
10
29.5209193574704
20
6.33158634511926
30
0
41
1
10
29.5422592203894
20
6.33791259968962
30
0
41
1
10
29.5636089363249
20
6.34419694560268
30
0
0
SPLINE
5
1B9
100
AcDbEntity
8
1
62
256
6
ByLayer
370
13
48
1
60
0
100
AcDbSpline
70
4
71
3
72
8
73
4
40
0
40
0
40
0
40
0
40
1
40
1
40
1
40
1
41
1
10
28.7283398883332
20
6.29509899962849
30
0
41
1
10
28.8522136636575
20
6.29871923793922
30
0
41
1
10
28.9768571353025
20
6.29020434150439
30
0
41
1
10
29.0982800289245
20
6.28486329371094
30
0
0
SPLINE
5
1BA
100
AcDbEntity
8
1
62
256
6
ByLayer
370
13
48
1
60
0
100
AcDbSpline
70
4
71
3
72
8
73
4
40
0
40
0
40
0
40
0
40
1
40
1
40
1
40
1
41
1
10
28.4495881472218
20
6.30134968170182
30
0
41
1
10
28.5417788954044
20
6.29008472974286
30
0
41
1
10
28.6354245830993
20
6.29238352941067
30
0
41
1
10
28.7283398883332
20
6.29509899962849
30
0
0
SPLINE
5
1BB
100
AcDbEntity
8
1
62
256
6
ByLayer
370
13
48
1
60
0
100
AcDbSpline
70
4
71
3
72
12
73
8
40
0
40
0
40
0
40
0
40
0.271863792020766
40
0.271863792020766
40
0.680333498425166
40
0.680333498425166
40
1
40
1
40
1
40
1
41
1
10
27.3471477503394
20
6.50708946419917
30
0
41
1
10
27.4254708389115
20
6.50022656748135
30
0
41
1
10
27.5132950984392
20
6.48780264782951
30
0
41
1
10
27.746593161407
20
6.44799551026196
30
0
41
1
10
27.9026236458243
20
6.41567608259723
30
0
41
1
10
28.1875983266003
20
6.35152508985163
30
0
41
1
10
28.3183646565652
20
6.31738411408548
30
0
41
1
10
28.4495881472218
20
6.30134968170182
30
0
0
SPLINE
5
1BC
100
AcDbEntity
8
1
62
256
6
ByLayer
370
13
48
1
60
0
100
AcDbSpline
70
4
71
3
72
18
73
14
40
0
40
0
40
0
40
0
40
0.447407316387175
40
0.447407316387175
40
0.605547053795674
40
0.605547053795674
40
0.784635535666972
40
0.784635535666972
40
0.885678387143329
40
0.885678387143329
40
0.977084410920521
40
0.977084410920521
40
1
40
1
40
1
40
1
41
1
10
26.3984332400777
20
7.39718270253687
30
0
41
1
10
26.4440476624862
20
7.41798640430474
30
0
41
1
10
26.4884120317077
20
7.4462496616411
30
0
41
1
10
26.5394879059808
20
7.49777745186503
30
0
41
1
10
26.5521556621418
20
7.51272854016932
30
0
41
1
10
26.576132722513
20
7.54752744588097
30
0
41
1
10
26.587234858325
20
7.56807602663946
30
0
41
1
10
26.5999368895843
20
7.60272921699914
30
0
41
1
10
26.603608600295
20
7.61589568766934
30
0
41
1
10
26.6083103046789
20
7.64153818748153
30
0
41
1
10
26.6095747514646
20
7.65407652117187
30
0
41
1
10
26.6097949440652
20
7.66974950223047
30
0
41
1
10
26.6097712271323
20
7.67290745580658
30
0
41
1
10
26.6096790521406
20
7.67606228943654
30
0
0
SPLINE
5
1BD
100
AcDbEntity
8
1
62
256
6
ByLayer
370
13
48
1
60
0
100
AcDbSpline
70
4
71
3
72
18
73
14
40
0
40
0
40
0
40
0
40
0.0976852199958056
40
0.0976852199958056
40
0.212989397473362
40
0.212989397473362
40
0.394159987615223
40
0.394159987615223
40
0.774111539176557
40
0.774111539176557
40
0.851520792185893
40
0.851520792185893
40
1
40
1
40
1
40
1
41
1
10
26.6096790521406
20
6.32393771056374
30
0
41
1
10
26.6100703037074
20
6.33732890896329
30
0
41
1
10
26.609207218994
20
6.35083310459839
30
0
41
1
10
26.6048326306339
20
6.37944586836792
30
0
41
1
10
26.6008494527307
20
6.3946141172527
30
0
41
1
10
26.58752177695
20
6.43138998501598
30
0
41
1
10
26.5762967783069
20
6.45223394750624
30
0
41
1
10
26.5367316649358
20
6.50965799756293
30
0
41
1
10
26.5023540549562
20
6.54063444562979
30
0
41
1
10
26.4587483922282
20
6.57005485576113
30
0
41
1
10
26.4511702800926
20
6.57483088073209
30
0
41
1
10
26.4287968496803
20
6.58804436319141
30
0
41
1
10
26.4137301176241
20
6.59584073916139
30
0
41
1
10
26.398433240088
20
6.60281729748223
30
0
0
SPLINE
5
1BE
100
AcDbEntity
8
1
62
256
6
ByLayer
370
13
48
1
60
0
100
AcDbSpline
70
4
71
3
72
12
73
8
40
0
40
0
40
0
40
0
40
0.167536140690989
40
0.167536140690989
40
0.701521703333122
40
0.701521703333122
40
1
40
1
40
1
40
1
41
1
10
27.1514801084146
20
7.3997616476619
30
0
41
1
10
27.1542826384416
20
7.39738563411927
30
0
41
1
10
27.1569231336061
20
7.39488069303204
30
0
41
1
10
27.1670778771218
20
7.38389053150686
30
0
41
1
10
27.172872622145
20
7.37398738261254
30
0
41
1
10
27.1767050040374
20
7.35635156265894
30
0
41
1
10
27.1770407186254
20
7.34949511375092
30
0
41
1
10
27.1762277573114
20
7.34234820759474
30
0
0
SPLINE
5
1BF
100
AcDbEntity
8
1
62
256
6
ByLayer
370
13
48
1
60
0
100
AcDbSpline
70
4
71
3
72
14
73
10
40
0
40
0
40
0
40
0
40
0.418540706662839
40
0.418540706662839
40
0.495635548088754
40
0.495635548088754
40
0.9192675759406
40
0.9192675759406
40
1
40
1
40
1
40
1
41
1
10
27.1762277573115
20
7.34234820759463
30
0
41
1
10
27.17294059834
20
7.31345013300498
30
0
41
1
10
27.1733660154214
20
7.27895989182849
30
0
41
1
10
27.1796751136804
20
7.23517508342229
30
0
41
1
10
27.1808357853226
20
7.2281820025018
30
0
41
1
10
27.1893735192745
20
7.18282104090011
30
0
41
1
10
27.2018447500133
20
7.14161067966342
30
0
41
1
10
27.2226367698617
20
7.09394234249766
30
0
41
1
10
27.2261939220311
20
7.08624510089314
30
0
41
1
10
27.2299358617498
20
7.07859732511403
30
0
0
SPLINE
5
1C0
100
AcDbEntity
8
1
62
256
6
ByLayer
370
13
48
1
60
0
100
AcDbSpline
70
4
71
3
72
14
73
10
40
0
40
0
40
0
40
0
40
0.335733568867722
40
0.335733568867722
40
0.507284823780995
40
0.507284823780995
40
0.847453801813234
40
0.847453801813234
40
1
40
1
40
1
40
1
41
1
10
27.2299358617498
20
7.07859732511406
30
0
41
1
10
27.2378140203941
20
7.06249594577781
30
0
41
1
10
27.2439375481741
20
7.04498241277301
30
0
41
1
10
27.248573975498
20
7.01767547098109
30
0
41
1
10
27.2493588445425
20
7.00817179467666
30
0
41
1
10
27.2491329115973
20
6.98021220513724
30
0
41
1
10
27.2455495425813
20
6.9615180281881
30
0
41
1
10
27.2367872446762
20
6.93642378552386
30
0
41
1
10
27.2335488022128
20
6.92878680200772
30
0
41
1
10
27.2299358617499
20
6.9214026748862
30
0
0
SPLINE
5
1C1
100
AcDbEntity
8
1
62
256
6
ByLayer
370
13
48
1
60
0
100
AcDbSpline
70
4
71
3
72
12
73
8
40
0
40
0
40
0
40
0
40
0.060976756616879
40
0.060976756616879
40
0.525861690105106
40
0.525861690105106
40
1
40
1
40
1
40
1
41
1
10
27.2299358617498
20
6.92140267488622
30
0
41
1
10
27.2271003220153
20
6.91560739924518
30
0
41
1
10
27.2243711082765
20
6.9097842705313
30
0
41
1
10
27.2021069872871
20
6.86017473989656
30
0
41
1
10
27.1884144324719
20
6.81464994277539
30
0
41
1
10
27.1735997997307
20
6.7303584508619
30
0
41
1
10
27.172507675642
20
6.69035577736554
30
0
41
1
10
27.1762277573115
20
6.65765179240566
30
0
0
SPLINE
5
1C2
100
AcDbEntity
8
1
62
256
6
ByLayer
370
13
48
1
60
0
100
AcDbSpline
70
4
71
3
72
10
73
6
40
0
40
0
40
0
40
0
40
0.579743919086243
40
0.579743919086243
40
1
40
1
40
1
40
1
41
1
10
27.1762277573115
20
6.65765179240566
30
0
41
1
10
27.1777925092618
20
6.64389574380343
30
0
41
1
10
27.1749215051561
20
6.63122245035251
30
0
41
1
10
27.1645276574485
20
6.61297636671378
30
0
41
1
10
27.1584959094318
20
6.60618642000139
30
0
41
1
10
27.1514801084147
20
6.60023835233818
30
0
0
SPLINE
5
1C3
100
AcDbEntity
8
1
62
256
6
ByLayer
370
13
48
1
60
0
100
AcDbSpline
70
4
71
3
72
8
73
4
40
0
40
0
40
0
40
0
40
1
40
1
40
1
40
1
41
1
10
26.0586453076089
20
6.70121397345531
30
0
41
1
10
26.0709068417097
20
6.70439837213806
30
0
41
1
10
26.0832654919603
20
6.7074602232957
30
0
41
1
10
26.0957009625837
20
6.7104019371784
30
0
0
SPLINE
5
1C4
100
AcDbEntity
8
1
62
256
6
ByLayer
370
13
48
1
60
0
100
AcDbSpline
70
4
71
3
72
10
73
6
40
0
40
0
40
0
40
0
40
0.333728436493078
40
0.333728436493078
40
1
40
1
40
1
40
1
41
1
10
26.0957009625833
20
6.71040193717971
30
0
41
1
10
26.0966662675297
20
6.71063028808399
30
0
41
1
10
26.0976317049566
20
6.71085861657744
30
0
41
1
10
26.1005249812795
20
6.71154272374284
30
0
41
1
10
26.1024532131263
20
6.71199843560683
30
0
41
1
10
26.1043819600421
20
6.71245405802909
30
0
0
SPLINE
5
1C5
100
AcDbEntity
8
1
62
256
6
ByLayer
370
13
48
1
60
0
100
AcDbSpline
70
4
71
3
72
28
73
24
40
0
40
0
40
0
40
0
40
0.120400997037726
40
0.120400997037726
40
0.267193145137956
40
0.267193145137956
40
0.387937930337117
40
0.387937930337117
40
0.465259875154669
40
0.465259875154669
40
0.495901986784595
40
0.495901986784595
40
0.581704825079178
40
0.581704825079178
40
0.603681926078793
40
0.603681926078793
40
0.705282320663386
40
0.705282320663386
40
0.836662945425109
40
0.836662945425109
40
0.962212936191202
40
0.962212936191202
40
1
40
1
40
1
40
1
41
1
10
26.1043819600418
20
6.71245405803964
30
0
41
1
10
26.1386117615899
20
6.72054006713068
30
0
41
1
10
26.1717745161216
20
6.73156759623532
30
0
41
1
10
26.2403563386755
20
6.76346467881473
30
0
41
1
10
26.2755506139921
20
6.7863309713596
30
0
41
1
10
26.3293957511653
20
6.83910752385799
30
0
41
1
10
26.3505128568284
20
6.86789212108371
30
0
41
1
10
26.3742896735613
20
6.9212598363757
30
0
41
1
10
26.3810059815832
20
6.94419350869919
30
0
41
1
10
26.3854587789871
20
6.97693202772925
30
0
41
1
10
26.3861866916511
20
6.98643115667338
30
0
41
1
10
26.3867918153238
20
7.02206289411686
30
0
41
1
10
26.3827627697972
20
7.04871935486594
30
0
41
1
10
26.373008547855
20
7.07955836654506
30
0
41
1
10
26.3707421946395
20
7.0858255544197
30
0
41
1
10
26.3568990508134
20
7.11987962840993
30
0
41
1
10
26.3406033083254
20
7.14534350876394
30
0
41
1
10
26.2970837039401
20
7.19540862105004
30
0
41
1
10
26.2674044337148
20
7.21860295382794
30
0
41
1
10
26.2046854044231
20
7.25481856681623
30
0
41
1
10
26.1712334060984
20
7.26860982750654
30
0
41
1
10
26.1258807591637
20
7.28214936746252
30
0
41
1
10
26.115191249574
20
7.28499249410425
30
0
41
1
10
26.104381960042
20
7.2875459419617
30
0
0
SPLINE
5
1C6
100
AcDbEntity
8
1
62
256
6
ByLayer
370
13
48
1
60
0
100
AcDbSpline
70
4
71
3
72
10
73
6
40
0
40
0
40
0
40
0
40
0.666271563875835
40
0.666271563875835
40
1
40
1
40
1
40
1
41
1
10
26.1043819600418
20
7.28754594196062
30
0
41
1
10
26.102453213125
20
7.28800156438314
30
0
41
1
10
26.1005249812773
20
7.28845727625796
30
0
41
1
10
26.0976317049544
20
7.28914138342336
30
0
41
1
10
26.0966662675287
20
7.28936971191723
30
0
41
1
10
26.0957009625833
20
7.28959806282126
30
0
0
SPLINE
5
1C7
100
AcDbEntity
8
1
62
256
6
ByLayer
370
13
48
1
60
0
100
AcDbSpline
70
4
71
3
72
8
73
4
40
0
40
0
40
0
40
0
40
1
40
1
40
1
40
1
41
1
10
26.0957009625833
20
7.28959806282057
30
0
41
1
10
26.0832654919591
20
7.29253977670345
30
0
41
1
10
26.0709068417081
20
7.29560162786262
30
0
41
1
10
26.0586453076065
20
7.2987860265456
30
0
0
SPLINE
5
1C8
100
AcDbEntity
8
1
62
256
6
ByLayer
370
13
48
1
60
0
100
AcDbSpline
70
4
71
3
72
8
73
4
40
0
40
0
40
0
40
0
40
1
40
1
40
1
40
1
41
1
10
27.3731203716815
20
6.36152047093327
30
0
41
1
10
27.3745825957789
20
6.36243758836841
30
0
41
1
10
27.3760463384843
20
6.36335930844905
30
0
41
1
10
27.3775115598652
20
6.36428557231326
30
0
0
SPLINE
5
1C9
100
AcDbEntity
8
1
62
256
6
ByLayer
370
13
48
1
60
0
100
AcDbSpline
70
4
71
3
72
12
73
8
40
0
40
0
40
0
40
0
40
0.334418366090769
40
0.334418366090769
40
0.734677033774883
40
0.734677033774883
40
1
40
1
40
1
40
1
41
1
10
28.4337805434613
20
6.13596132736774
30
0
41
1
10
28.302267961703
20
6.15003793624157
30
0
41
1
10
28.1723193598529
20
6.18420728001098
30
0
41
1
10
27.8995089617335
20
6.25558496497598
30
0
41
1
10
27.7541870739038
20
6.29145036718268
30
0
41
1
10
27.5350503526796
20
6.33828615984166
30
0
41
1
10
27.4522182729485
20
6.35385771409528
30
0
41
1
10
27.3775115598653
20
6.36428557231289
30
0
0
SPLINE
5
1CA
100
AcDbEntity
8
1
62
256
6
ByLayer
370
13
48
1
60
0
100
AcDbSpline
70
4
71
3
72
12
73
8
40
0
40
0
40
0
40
0
40
0.334418366090769
40
0.334418366090769
40
0.734677033774883
40
0.734677033774883
40
1
40
1
40
1
40
1
41
1
10
28.4337805434613
20
7.86403867263255
30
0
41
1
10
28.302267961703
20
7.84996206375871
30
0
41
1
10
28.1723193598529
20
7.8157927199893
30
0
41
1
10
27.8995089617335
20
7.7444150350243
30
0
41
1
10
27.7541870739038
20
7.70854963281761
30
0
41
1
10
27.5350503526796
20
7.66171384015863
30
0
41
1
10
27.4522182729485
20
7.646142285905
30
0
41
1
10
27.3775115598653
20
7.63571442768739
30
0
0
SPLINE
5
1CB
100
AcDbEntity
8
1
62
256
6
ByLayer
370
13
48
1
60
0
100
AcDbSpline
70
4
71
3
72
8
73
4
40
0
40
0
40
0
40
0
40
1
40
1
40
1
40
1
41
1
10
27.3775115598653
20
7.63571442768739
30
0
41
1
10
27.3760463384844
20
7.63664069155161
30
0
41
1
10
27.3745825957789
20
7.63756241163188
30
0
41
1
10
27.3731203716815
20
7.63847952906701
30
0
0
SPLINE
5
1CC
100
AcDbEntity
8
1
62
256
6
ByLayer
370
13
48
1
60
0
100
AcDbSpline
70
4
71
3
72
18
73
14
40
0
40
0
40
0
40
0
40
0.0161194639884916
40
0.0161194639884916
40
0.0830400526233481
40
0.0830400526233481
40
0.164187348294867
40
0.164187348294867
40
0.329246171114526
40
0.329246171114526
40
0.49267383795864
40
0.49267383795864
40
1
40
1
40
1
40
1
41
1
10
26.5583760306418
20
7.67606228943654
30
0
41
1
10
26.5583760306418
20
7.67447808105982
30
0
41
1
10
26.5583070506514
20
7.67289226839063
30
0
41
1
10
26.5576154305964
20
7.66485498226518
30
0
41
1
10
26.5558959531472
20
7.65844920640058
30
0
41
1
10
26.5503990140808
20
7.64532837616164
30
0
41
1
10
26.5462332916851
20
7.63864068513053
30
0
41
1
10
26.5320214661551
20
7.62023780499101
30
0
41
1
10
26.5201790807022
20
7.60993438422065
30
0
41
1
10
26.4955030409141
20
7.59200652967996
30
0
41
1
10
26.4824167868289
20
7.58425298508263
30
0
41
1
10
26.4277159291732
20
7.55578235947885
30
0
41
1
10
26.3832430916057
20
7.54107998114605
30
0
41
1
10
26.3385371190037
20
7.52957693671579
30
0
0
SPLINE
5
1CD
100
AcDbEntity
8
1
62
256
6
ByLayer
370
13
48
1
60
0
100
AcDbSpline
70
4
71
3
72
16
73
12
40
0
40
0
40
0
40
0
40
0.17415962102223
40
0.17415962102223
40
0.671976092746537
40
0.671976092746537
40
0.83822694518602
40
0.83822694518602
40
0.929660782988591
40
0.929660782988591
40
1
40
1
40
1
40
1
41
1
10
26.3385371190037
20
6.4704230632845
30
0
41
1
10
26.3539422148971
20
6.46645926399307
30
0
41
1
10
26.3692599827103
20
6.46207690892794
30
0
41
1
10
26.4274830378249
20
6.44333836718198
30
0
41
1
10
26.4706632046932
20
6.42604099957725
30
0
41
1
10
26.5203257985212
20
6.38995879464571
30
0
41
1
10
26.532308091847
20
6.37951698988033
30
0
41
1
10
26.5471462242706
20
6.36010417808913
30
0
41
1
10
26.5517437069761
20
6.35240109225777
30
0
41
1
10
26.5570278864055
20
6.33770211125042
30
0
41
1
10
26.5583760306418
20
6.33077905958257
30
0
41
1
10
26.5583760306418
20
6.32393771056374
30
0
0
SPLINE
5
1CE
100
AcDbEntity
8
1
62
256
6
ByLayer
370
13
48
1
60
0
100
AcDbSpline
70
4
71
3
72
8
73
4
40
0
40
0
40
0
40
0
40
1
40
1
40
1
40
1
41
1
10
25.6871982348829
20
6.27456207186484
30
0
41
1
10
25.7371072022262
20
6.3683165329924
30
0
41
1
10
25.7829751479405
20
6.46451900355919
30
0
41
1
10
25.8269486592888
20
6.56158060090286
30
0
0
SPLINE
5
1CF
100
AcDbEntity
8
1
62
256
6
ByLayer
370
13
48
1
60
0
100
AcDbSpline
70
4
71
3
72
8
73
4
40
0
40
0
40
0
40
0
40
1
40
1
40
1
40
1
41
1
10
25.8269486592888
20
6.56158060090286
30
0
41
1
10
25.8310517239117
20
6.57063718961041
30
0
41
1
10
25.8358959391856
20
6.57937474305973
30
0
41
1
10
25.841529690864
20
6.58744588798692
30
0
0
SPLINE
5
1D0
100
AcDbEntity
8
1
62
256
6
ByLayer
370
13
48
1
60
0
100
AcDbSpline
70
4
71
3
72
10
73
6
40
0
40
0
40
0
40
0
40
0.607627674029775
40
0.607627674029775
40
1
40
1
40
1
40
1
41
1
10
25.841529690864
20
6.58744588798686
30
0
41
1
10
25.8449483939528
20
6.59234366298094
30
0
41
1
10
25.8493450872493
20
6.59651079521723
30
0
41
1
10
25.8571218081437
20
6.60225675487965
30
0
41
1
10
25.8603603656148
20
6.60426909183965
30
0
41
1
10
25.8636781743631
20
6.60609259998597
30
0
0
SPLINE
5
1D1
100
AcDbEntity
8
1
62
256
6
ByLayer
370
13
48
1
60
0
100
AcDbSpline
70
4
71
3
72
8
73
4
40
0
40
0
40
0
40
0
40
1
40
1
40
1
40
1
41
1
10
25.863678174367
20
6.60609259998
30
0
41
1
10
25.874039829494
20
6.61178749199101
30
0
41
1
10
25.8856192161749
20
6.6152116946455
30
0
41
1
10
25.8971847075067
20
6.61680487323397
30
0
0
SPLINE
5
1D2
100
AcDbEntity
8
1
62
256
6
ByLayer
370
13
48
1
60
0
100
AcDbSpline
70
4
71
3
72
10
73
6
40
0
40
0
40
0
40
0
40
0.468522557911306
40
0.468522557911306
40
1
40
1
40
1
40
1
41
1
10
25.8971847075067
20
6.61680487323389
30
0
41
1
10
25.9125073622826
20
6.61891561153317
30
0
41
1
10
25.9281890938237
20
6.61919118815644
30
0
41
1
10
25.9608326130716
20
6.61511097895956
30
0
41
1
10
25.9781649337056
20
6.61005646948783
30
0
41
1
10
25.9936729304055
20
6.60161863127598
30
0
0
SPLINE
5
1D3
100
AcDbEntity
8
1
62
256
6
ByLayer
370
13
48
1
60
0
100
AcDbSpline
70
4
71
3
72
10
73
6
40
0
40
0
40
0
40
0
40
0.39285874077214
40
0.39285874077214
40
1
40
1
40
1
40
1
41
1
10
25.9936729304045
20
7.39838136872399
30
0
41
1
10
25.9821344359051
20
7.39210332058698
30
0
41
1
10
25.9695969205941
20
7.38769630729192
30
0
41
1
10
25.937371840694
20
7.38080459502467
30
0
41
1
10
25.9169301631214
20
7.38047513535471
30
0
41
1
10
25.8971847075166
20
7.38319512676316
30
0
0
SPLINE
5
1D4
100
AcDbEntity
8
1
62
256
6
ByLayer
370
13
48
1
60
0
100
AcDbSpline
70
4
71
3
72
10
73
6
40
0
40
0
40
0
40
0
40
0.0840681653027228
40
0.0840681653027228
40
1
40
1
40
1
40
1
41
1
10
25.8971847075162
20
7.38319512676466
30
0
41
1
10
25.896201045579
20
7.38333062893147
30
0
41
1
10
25.8952188661863
20
7.38347897106524
30
0
41
1
10
25.883681999608
20
7.38537946065921
30
0
41
1
10
25.8731694732705
20
7.38869086640372
30
0
41
1
10
25.8636781743698
20
7.39390740001872
30
0
0
SPLINE
5
1D5
100
AcDbEntity
8
1
62
256
6
ByLayer
370
13
48
1
60
0
100
AcDbSpline
70
4
71
3
72
10
73
6
40
0
40
0
40
0
40
0
40
0.300964641608717
40
0.300964641608717
40
1
40
1
40
1
40
1
41
1
10
25.8636781743711
20
7.3939074000275
30
0
41
1
10
25.8611279033248
20
7.39530906009341
30
0
41
1
10
25.858626562386
20
7.39682140991241
30
0
41
1
10
25.8506729861664
20
7.40226899695674
30
0
41
1
10
25.8454582450928
20
7.40692590325605
30
0
41
1
10
25.8415296908643
20
7.41255411201311
30
0
0
SPLINE
5
1D6
100
AcDbEntity
8
1
62
256
6
ByLayer
370
13
48
1
60
0
100
AcDbSpline
70
4
71
3
72
8
73
4
40
0
40
0
40
0
40
0
40
1
40
1
40
1
40
1
41
1
10
25.8415296908642
20
7.41255411201294
30
0
41
1
10
25.8358959391855
20
7.42062525694064
30
0
41
1
10
25.8310517239113
20
7.42936281039056
30
0
41
1
10
25.8269486592881
20
7.43841939909871
30
0
0
SPLINE
5
1D7
100
AcDbEntity
8
1
62
256
6
ByLayer
370
13
48
1
60
0
100
AcDbSpline
70
4
71
3
72
8
73
4
40
0
40
0
40
0
40
0
40
1
40
1
40
1
40
1
41
1
10
25.8269486592882
20
7.43841939909873
30
0
41
1
10
25.7829751479401
20
7.53548099644198
30
0
41
1
10
25.737107202226
20
7.63168346700832
30
0
41
1
10
25.6871982348829
20
7.72543792813548
30
0
0
SPLINE
5
1D8
100
AcDbEntity
8
1
62
256
6
ByLayer
370
13
48
1
60
0
100
AcDbSpline
70
4
71
3
72
12
73
8
40
0
40
0
40
0
40
0
40
0.597224160982647
40
0.597224160982647
40
0.806459478729557
40
0.806459478729557
40
1
40
1
40
1
40
1
41
1
10
27.3674054923344
20
7.62013615124116
30
0
41
1
10
27.3517404047312
20
7.59790556643614
30
0
41
1
10
27.3345712719748
20
7.57385998036043
30
0
41
1
10
27.3107775882302
20
7.54173531009985
30
0
41
1
10
27.304453368985
20
7.53330722741384
30
0
41
1
10
27.2922252793236
20
7.51728466460196
30
0
41
1
10
27.2863036863561
20
7.50964680265216
30
0
41
1
10
27.2803879305322
20
7.50216215554872
30
0
0
SPLINE
5
1D9
100
AcDbEntity
8
1
62
256
6
ByLayer
370
13
48
1
60
0
100
AcDbSpline
70
4
71
3
72
12
73
8
40
0
40
0
40
0
40
0
40
0.0216552127699091
40
0.0216552127699091
40
0.549266071356395
40
0.549266071356395
40
1
40
1
40
1
40
1
41
1
10
27.1514801084141
20
7.39976164766139
30
0
41
1
10
27.1524880633972
20
7.4001878663268
30
0
41
1
10
27.1534955429719
20
7.40062163151586
30
0
41
1
10
27.1789531871477
20
7.41177663887112
30
0
41
1
10
27.2033813442808
20
7.42713938503766
30
0
41
1
10
27.2454052205908
20
7.46219636085058
30
0
41
1
10
27.2638645140883
20
7.48125663735152
30
0
41
1
10
27.280387930535
20
7.50216215555236
30
0
0
SPLINE
5
1DA
100
AcDbEntity
8
1
62
256
6
ByLayer
370
13
48
1
60
0
100
AcDbSpline
70
4
71
3
72
12
73
8
40
0
40
0
40
0
40
0
40
0.365727906004492
40
0.365727906004492
40
0.978437105133119
40
0.978437105133119
40
1
40
1
40
1
40
1
41
1
10
27.2803879305322
20
6.49783784445154
30
0
41
1
10
27.2669233419134
20
6.51487331670614
30
0
41
1
10
27.2521983132536
20
6.53066893315554
30
0
41
1
10
27.2111353907575
20
6.56782739035174
30
0
41
1
10
27.1828055733672
20
6.58653535361213
30
0
41
1
10
27.1534955383431
20
6.59937836611701
30
0
41
1
10
27.1524880622417
20
6.5998121330793
30
0
41
1
10
27.1514801084146
20
6.60023835233835
30
0
0
SPLINE
5
1DB
100
AcDbEntity
8
1
62
256
6
ByLayer
370
13
48
1
60
0
100
AcDbSpline
70
4
71
3
72
12
73
8
40
0
40
0
40
0
40
0
40
0.597224160967102
40
0.597224160967102
40
0.806459478710096
40
0.806459478710096
40
1
40
1
40
1
40
1
41
1
10
27.3674054923344
20
6.37986384875916
30
0
41
1
10
27.3517404047312
20
6.4020944335642
30
0
41
1
10
27.3345712719747
20
6.42614001964
30
0
41
1
10
27.31077758823
20
6.45826468990074
30
0
41
1
10
27.3044533689847
20
6.46669277258687
30
0
41
1
10
27.2922252793233
20
6.48271533539867
30
0
41
1
10
27.286303686356
20
6.49035319734827
30
0
41
1
10
27.2803879305322
20
6.49783784445151
30
0
0
SPLINE
5
1DC
100
AcDbEntity
8
1
62
256
6
ByLayer
370
13
48
1
60
0
100
AcDbSpline
70
4
71
3
72
8
73
4
40
0
40
0
40
0
40
0
40
1
40
1
40
1
40
1
41
1
10
27.2803879305322
20
7.50216215554872
30
0
41
1
10
27.2917464413887
20
7.49275226732712
30
0
41
1
10
27.3018184386869
20
7.48482320005596
30
0
41
1
10
27.3102634151927
20
7.47864301424838
30
0
0
SPLINE
5
1DD
100
AcDbEntity
8
1
62
256
6
ByLayer
370
13
48
1
60
0
100
AcDbSpline
70
4
71
3
72
12
73
8
40
0
40
0
40
0
40
0
40
0.488366722420296
40
0.488366722420296
40
0.942436355362905
40
0.942436355362905
40
1
40
1
40
1
40
1
41
1
10
27.3262120963125
20
6.62397635271032
30
0
41
1
10
27.3283429607195
20
6.65285213503145
30
0
41
1
10
27.3319548858697
20
6.68946158998006
30
0
41
1
10
27.3453657154376
20
6.76789458463571
30
0
41
1
10
27.3548755278663
20
6.81022383760222
30
0
41
1
10
27.3702301431231
20
6.85807620222326
30
0
41
1
10
27.3720501662502
20
6.86353988068515
30
0
41
1
10
27.3739430174868
20
6.86900445814359
30
0
0
SPLINE
5
1DE
100
AcDbEntity
8
1
62
256
6
ByLayer
370
13
48
1
60
0
100
AcDbSpline
70
4
71
3
72
12
73
8
40
0
40
0
40
0
40
0
40
0.037828268420456
40
0.037828268420456
40
0.727108891322556
40
0.727108891322556
40
1
40
1
40
1
40
1
41
1
10
27.3739430174868
20
6.86900445814359
30
0
41
1
10
27.3824023364264
20
6.86732648969664
30
0
41
1
10
27.3909189581297
20
6.86563055378605
30
0
41
1
10
27.5536057521077
20
6.83311046808842
30
0
41
1
10
27.7281123770015
20
6.79613133698913
30
0
41
1
10
27.980868173929
20
6.74015326486946
30
0
41
1
10
28.0546315555727
20
6.72354574028054
30
0
41
1
10
28.1289221872925
20
6.70654810788915
30
0
0
SPLINE
5
1DF
100
AcDbEntity
8
1
62
256
6
ByLayer
370
13
48
1
60
0
100
AcDbSpline
70
4
71
3
72
24
73
20
40
0
40
0
40
0
40
0
40
0.0291918203657016
40
0.0291918203657016
40
0.136396538158131
40
0.136396538158131
40
0.265987867368488
40
0.265987867368488
40
0.377753358158994
40
0.377753358158994
40
0.50483938938664
40
0.50483938938664
40
0.632110922025969
40
0.632110922025969
40
0.762713398901978
40
0.762713398901978
40
0.901999958850298
40
0.901999958850298
40
1
40
1
40
1
40
1
41
1
10
25.9817115471212
20
7.19733545036519
30
0
41
1
10
25.9860998093753
20
7.19555251808811
30
0
41
1
10
25.990300333935
20
7.19358964409966
30
0
41
1
10
26.0087793745321
20
7.18380189411556
30
0
41
1
10
26.0208255768154
20
7.17398723060364
30
0
41
1
10
26.0430843368216
20
7.14907661537086
30
0
41
1
10
26.0527903934534
20
7.13288922969335
30
0
41
1
10
26.0669549124461
20
7.09905596630662
30
0
41
1
10
26.0720480384601
20
7.08156799349317
30
0
41
1
10
26.0794867440362
20
7.04225015590671
30
0
41
1
10
26.0814586051761
20
7.01951309527198
30
0
41
1
10
26.0811100662916
20
6.97485266814422
30
0
41
1
10
26.0787796342845
20
6.95223700430199
30
0
41
1
10
26.0700744334302
20
6.91035344404443
30
0
41
1
10
26.0634978563534
20
6.89052524549024
30
0
41
1
10
26.0457369932044
20
6.85483328676548
30
0
41
1
10
26.0340799608659
20
6.83872544632319
30
0
41
1
10
26.008701419119
20
6.81647953976832
30
0
41
1
10
25.9962344198634
20
6.80856513101986
30
0
41
1
10
25.9817115471212
20
6.8026645496351
30
0
0
SPLINE
5
1E0
100
AcDbEntity
8
1
62
256
6
ByLayer
370
13
48
1
60
0
100
AcDbSpline
70
4
71
3
72
12
73
8
40
0
40
0
40
0
40
0
40
0.365724954919257
40
0.365724954919257
40
0.979118069631435
40
0.979118069631435
40
1
40
1
40
1
40
1
41
1
10
27.3102634152023
20
6.52135698573616
30
0
41
1
10
27.2937361056158
20
6.53602435493599
30
0
41
1
10
27.2756371518841
20
6.54919685392915
30
0
41
1
10
27.2250623637126
20
6.57895501315221
30
0
41
1
10
27.1900751797186
20
6.59244432336678
30
0
41
1
10
27.153889933239
20
6.59977232425456
30
0
41
1
10
27.1526851799038
20
6.60000880225365
30
0
41
1
10
27.1514801084146
20
6.60023835233829
30
0
0
SPLINE
5
1E1
100
AcDbEntity
8
1
62
256
6
ByLayer
370
13
48
1
60
0
100
AcDbSpline
70
4
71
3
72
12
73
8
40
0
40
0
40
0
40
0
40
0.0209717280275962
40
0.0209717280275962
40
0.549261945584352
40
0.549261945584352
40
1
40
1
40
1
40
1
41
1
10
27.1514801084149
20
7.39976164766176
30
0
41
1
10
27.1526851798996
20
7.39999119775234
30
0
41
1
10
27.153889933222
20
7.40022767576963
30
0
41
1
10
27.1853191773473
20
7.40659252180242
30
0
41
1
10
27.2154975045281
20
7.41744413606614
30
0
41
1
10
27.2672856302101
20
7.44488086161036
30
0
41
1
10
27.2899815347171
20
7.46064360379816
30
0
41
1
10
27.3102634152025
20
7.47864301426387
30
0
0
SPLINE
5
1E2
100
AcDbEntity
8
1
62
256
6
ByLayer
370
13
48
1
60
0
100
AcDbSpline
70
4
71
3
72
12
73
8
40
0
40
0
40
0
40
0
40
0.49164663932398
40
0.49164663932398
40
0.875373657848572
40
0.875373657848572
40
1
40
1
40
1
40
1
41
1
10
27.3739430174868
20
7.13099554185669
30
0
41
1
10
27.3580682635103
20
7.17682525158767
30
0
41
1
10
27.3471504774152
20
7.22316701216181
30
0
41
1
10
27.3341440987431
20
7.29672594206951
30
0
41
1
10
27.3305268252361
20
7.32668663880537
30
0
41
1
10
27.3274054244724
20
7.3606049644805
30
0
41
1
10
27.3267634910173
20
7.36855158411669
30
0
41
1
10
27.3262120963127
20
7.37602364729003
30
0
0
SPLINE
5
1E3
100
AcDbEntity
8
1
62
256
6
ByLayer
370
13
48
1
60
0
100
AcDbSpline
70
4
71
3
72
12
73
8
40
0
40
0
40
0
40
0
40
0.0378282684204534
40
0.0378282684204534
40
0.727108891322555
40
0.727108891322555
40
1
40
1
40
1
40
1
41
1
10
27.3739430174868
20
7.13099554185669
30
0
41
1
10
27.3824023364264
20
7.13267351030365
30
0
41
1
10
27.3909189581297
20
7.13436944621424
30
0
41
1
10
27.5536057521077
20
7.16688953191186
30
0
41
1
10
27.7281123770015
20
7.20386866301115
30
0
41
1
10
27.980868173929
20
7.25984673513082
30
0
41
1
10
28.0546315555727
20
7.27645425971974
30
0
41
1
10
28.1289221872925
20
7.29345189211114
30
0
0
SPLINE
5
1E4
100
AcDbEntity
8
1
62
256
6
ByLayer
370
13
48
1
60
0
100
AcDbSpline
70
4
71
3
72
8
73
4
40
0
40
0
40
0
40
0
40
1
40
1
40
1
40
1
41
1
10
27.3775115598657
20
7.63571442768892
30
0
41
1
10
27.3742211632922
20
7.63058249658999
30
0
41
1
10
27.3708498814568
20
7.6253842052671
30
0
41
1
10
27.3674054923343
20
7.62013615124062
30
0
0
SPLINE
5
1E5
100
AcDbEntity
8
1
62
256
6
ByLayer
370
13
48
1
60
0
100
AcDbSpline
70
4
71
3
72
8
73
4
40
0
40
0
40
0
40
0
40
1
40
1
40
1
40
1
41
1
10
27.3775115598654
20
6.36428557231238
30
0
41
1
10
27.374221163292
20
6.36941750341094
30
0
41
1
10
27.3708498814566
20
6.3746157947331
30
0
41
1
10
27.3674054923344
20
6.37986384875916
30
0
0
SPLINE
5
1E6
100
AcDbEntity
8
1
62
256
6
ByLayer
370
13
48
1
60
0
100
AcDbSpline
70
4
71
3
72
10
73
6
40
0
40
0
40
0
40
0
40
0.543977242056965
40
0.543977242056965
40
1
40
1
40
1
40
1
41
1
10
26.0586453076065
20
6.70121397345244
30
0
41
1
10
26.0348598955803
20
6.72020707568689
30
0
41
1
10
26.008226724121
20
6.73436967800328
30
0
41
1
10
25.9582400099704
20
6.75001822475596
30
0
41
1
10
25.9345424108347
20
6.75336645569584
30
0
41
1
10
25.9112725012789
20
6.7529796356327
30
0
0
SPLINE
5
1E7
100
AcDbEntity
8
1
62
256
6
ByLayer
370
13
48
1
60
0
100
AcDbSpline
70
4
71
3
72
10
73
6
40
0
40
0
40
0
40
0
40
0.594671969867266
40
0.594671969867266
40
1
40
1
40
1
40
1
41
1
10
25.9112725012888
20
7.24702036436773
30
0
41
1
10
25.9414272134588
20
7.24651909694407
30
0
41
1
10
25.9724285425085
20
7.25237043009688
30
0
41
1
10
26.021404499001
20
7.27299737090507
30
0
41
1
10
26.0407983096893
20
7.2845348605077
30
0
41
1
10
26.0586453076067
20
7.29878602654338
30
0
0
SPLINE
5
1E8
100
AcDbEntity
8
1
62
256
6
ByLayer
370
13
48
1
60
0
100
AcDbSpline
70
4
71
3
72
10
73
6
40
0
40
0
40
0
40
0
40
0.441584000439074
40
0.441584000439074
40
1
40
1
40
1
40
1
41
1
10
25.8682618588517
20
7.24762203031543
30
0
41
1
10
25.8831578146863
20
7.24021086375507
30
0
41
1
10
25.898315714614
20
7.23301479089514
30
0
41
1
10
25.9331615279672
20
7.21724550451285
30
0
41
1
10
25.9530007239138
20
7.20880549483422
30
0
41
1
10
25.9731579439907
20
7.20075565179943
30
0
0
SPLINE
5
1E9
100
AcDbEntity
8
1
62
256
6
ByLayer
370
13
48
1
60
0
100
AcDbSpline
70
4
71
3
72
10
73
6
40
0
40
0
40
0
40
0
40
0.317001517206847
40
0.317001517206847
40
1
40
1
40
1
40
1
41
1
10
25.9112725012775
20
7.24702036436912
30
0
41
1
10
25.9064777423954
20
7.24637879477174
30
0
41
1
10
25.9017490867121
20
7.2459595095346
30
0
41
1
10
25.8870718822178
20
7.24534083733812
30
0
41
1
10
25.8773952454519
20
7.24596469294968
30
0
41
1
10
25.8682618588517
20
7.24762203031543
30
0
0
SPLINE
5
1EA
100
AcDbEntity
8
1
62
256
6
ByLayer
370
13
48
1
60
0
100
AcDbSpline
70
4
71
3
72
10
73
6
40
0
40
0
40
0
40
0
40
0.357650901073067
40
0.357650901073067
40
1
40
1
40
1
40
1
41
1
10
25.8682618588517
20
6.75237796968486
30
0
41
1
10
25.8730683572599
20
6.75325015321974
30
0
41
1
10
25.8780213367012
20
6.75383669394699
30
0
41
1
10
25.8921229263446
20
6.75466428627286
30
0
41
1
10
25.9015680505855
20
6.75427815359311
30
0
41
1
10
25.9112725012796
20
6.75297963563281
30
0
0
SPLINE
5
1EB
100
AcDbEntity
8
1
62
256
6
ByLayer
370
13
48
1
60
0
100
AcDbSpline
70
4
71
3
72
10
73
6
40
0
40
0
40
0
40
0
40
0.558477308496816
40
0.558477308496816
40
1
40
1
40
1
40
1
41
1
10
25.9731579439905
20
6.79924434820185
30
0
41
1
10
25.9529985124188
20
6.79119362200035
30
0
41
1
10
25.9331571738854
20
6.78275264297528
30
0
41
1
10
25.8983115077506
20
6.76698321205899
30
0
41
1
10
25.8831557478674
20
6.75978810794336
30
0
41
1
10
25.8682618588517
20
6.75237796968486
30
0
0
SPLINE
5
1EC
100
AcDbEntity
8
1
62
256
6
ByLayer
370
13
48
1
60
0
100
AcDbSpline
70
4
71
3
72
12
73
8
40
0
40
0
40
0
40
0
40
0.709988165001255
40
0.709988165001255
40
0.92220788847233
40
0.92220788847233
40
1
40
1
40
1
40
1
41
1
10
25.8327064157302
20
7.28300785026434
30
0
41
1
10
25.8492012523821
20
7.27082260061084
30
0
41
1
10
25.8677573595242
20
7.26109267119401
30
0
41
1
10
25.8928332682202
20
7.25210794569054
30
0
41
1
10
25.898736568945
20
7.2502680486856
30
0
41
1
10
25.9068788977593
20
7.24809048278527
30
0
41
1
10
25.9090724396469
20
7.2475389387769
30
0
41
1
10
25.9112725012799
20
7.24702036437535
30
0
0
SPLINE
5
1ED
100
AcDbEntity
8
1
62
256
6
ByLayer
370
13
48
1
60
0
100
AcDbSpline
70
4
71
3
72
10
73
6
40
0
40
0
40
0
40
0
40
0.735193443551149
40
0.735193443551149
40
1
40
1
40
1
40
1
41
1
10
25.9112725012795
20
6.75297963563179
30
0
41
1
10
25.8906991613073
20
6.74813031354751
30
0
41
1
10
25.8704915627688
20
6.74028534978461
30
0
41
1
10
25.8454099006125
20
6.72582105256492
30
0
41
1
10
25.8389206110604
20
6.7215827694321
30
0
41
1
10
25.8327064157473
20
6.71699214978278
30
0
0
SPLINE
5
1EE
100
AcDbEntity
8
1
62
256
6
ByLayer
370
13
48
1
60
0
100
AcDbSpline
70
4
71
3
72
10
73
6
40
0
40
0
40
0
40
0
40
0.333804371559252
40
0.333804371559252
40
1
40
1
40
1
40
1
41
1
10
25.9731579439905
20
7.20075565179843
30
0
41
1
10
25.9741089610472
20
7.20037511065306
30
0
41
1
10
25.975060222121
20
7.19999456304734
30
0
41
1
10
25.9779107035582
20
7.19885451340369
30
0
41
1
10
25.9798106484521
20
7.19809499267888
30
0
41
1
10
25.9817115471212
20
7.19733545036519
30
0
0
SPLINE
5
1EF
100
AcDbEntity
8
1
62
256
6
ByLayer
370
13
48
1
60
0
100
AcDbSpline
70
4
71
3
72
10
73
6
40
0
40
0
40
0
40
0
40
0.666195628071545
40
0.666195628071545
40
1
40
1
40
1
40
1
41
1
10
25.9817115471212
20
6.8026645496351
30
0
41
1
10
25.9798106484532
20
6.80190500732181
30
0
41
1
10
25.9779107035603
20
6.80114548659742
30
0
41
1
10
25.9750602221232
20
6.8000054369538
30
0
41
1
10
25.9741089610481
20
6.79962488934709
30
0
41
1
10
25.9731579439905
20
6.79924434820129
30
0
0
SPLINE
5
1F0
100
AcDbEntity
8
1
62
256
6
ByLayer
370
13
48
1
60
0
100
AcDbSpline
70
4
71
3
72
10
73
6
40
0
40
0
40
0
40
0
40
0.741839809293022
40
0.741839809293022
40
1
40
1
40
1
40
1
41
1
10
25.7775223795399
20
7.35069566244152
30
0
41
1
10
25.7872637205793
20
7.33134415138917
30
0
41
1
10
25.8004639767516
20
7.31349268770416
30
0
41
1
10
25.8211300943468
20
7.29286854471894
30
0
41
1
10
25.826795657145
20
7.28778002523157
30
0
41
1
10
25.832706415723
20
7.2830078502549
30
0
0
SPLINE
5
1F1
100
AcDbEntity
8
1
62
256
6
ByLayer
370
13
48
1
60
0
100
AcDbSpline
70
4
71
3
72
10
73
6
40
0
40
0
40
0
40
0
40
0.344098564729953
40
0.344098564729953
40
1
40
1
40
1
40
1
41
1
10
25.8327064157477
20
6.7169921497819
30
0
41
1
10
25.8248480305402
20
6.71064751757709
30
0
41
1
10
25.8174164333952
20
6.70373967535429
30
0
41
1
10
25.7974612534848
20
6.68237795283696
30
0
41
1
10
25.7861446779715
20
6.66643283174929
30
0
41
1
10
25.7775223795393
20
6.64930433755791
30
0
0
SPLINE
5
1F2
100
AcDbEntity
8
1
62
256
6
ByLayer
370
13
48
1
60
0
100
AcDbSpline
70
4
71
3
72
8
73
4
40
0
40
0
40
0
40
0
40
1
40
1
40
1
40
1
41
1
10
25.7484695777327
20
7.38896580230897
30
0
41
1
10
25.7568441785971
20
7.37525642948151
30
0
41
1
10
25.7665807416807
20
7.36237056657075
30
0
41
1
10
25.7775223795412
20
7.35069566244266
30
0
0
SPLINE
5
1F3
100
AcDbEntity
8
1
62
256
6
ByLayer
370
13
48
1
60
0
100
AcDbSpline
70
4
71
3
72
8
73
4
40
0
40
0
40
0
40
0
40
1
40
1
40
1
40
1
41
1
10
25.777522379539
20
6.64930433755808
30
0
41
1
10
25.7665807416791
20
6.63762943343042
30
0
41
1
10
25.7568441785982
20
6.62474357051644
30
0
41
1
10
25.7484695777341
20
6.61103419768963
30
0
0
SPLINE
5
1F4
100
AcDbEntity
8
1
62
256
6
ByLayer
370
13
48
1
60
0
100
AcDbSpline
70
4
71
3
72
8
73
4
40
0
40
0
40
0
40
0
40
1
40
1
40
1
40
1
41
1
10
25.7484695777333
20
6.61103419769228
30
0
41
1
10
25.706994641852
20
6.51450719106714
30
0
41
1
10
25.6641587550012
20
6.41851015554778
30
0
41
1
10
25.6183319361238
20
6.32401566865425
30
0
0
SPLINE
5
1F5
100
AcDbEntity
8
1
62
256
6
ByLayer
370
13
48
1
60
0
100
AcDbSpline
70
4
71
3
72
8
73
4
40
0
40
0
40
0
40
0
40
1
40
1
40
1
40
1
41
1
10
25.6183319361238
20
7.67598433134606
30
0
41
1
10
25.6641587550011
20
7.58148984445285
30
0
41
1
10
25.7069946418517
20
7.48549280893386
30
0
41
1
10
25.7484695777328
20
7.38896580230906
30
0
0
SPLINE
5
1F6
100
AcDbEntity
8
1
62
256
6
ByLayer
370
13
48
1
60
0
100
AcDbSpline
70
4
71
3
72
10
73
6
40
0
40
0
40
0
40
0
40
0.779724613001554
40
0.779724613001554
40
1
40
1
40
1
40
1
41
1
10
25.8487905068832
20
7.25102435555308
30
0
41
1
10
25.8522814951949
20
7.25102435555289
30
0
41
1
10
25.8570719807737
20
7.25036409064705
30
0
41
1
10
25.864621012228
20
7.24858762926138
30
0
41
1
10
25.8664035390181
20
7.24813142462546
30
0
41
1
10
25.8682618588517
20
7.24762203031543
30
0
0
SPLINE
5
1F7
100
AcDbEntity
8
1
62
256
6
ByLayer
370
13
48
1
60
0
100
AcDbSpline
70
4
71
3
72
8
73
4
40
0
40
0
40
0
40
0
40
1
40
1
40
1
40
1
41
1
10
25.7775223795399
20
7.35069566244167
30
0
41
1
10
25.7675268649006
20
7.35648771905471
30
0
41
1
10
25.7585032631411
20
7.36231849937272
30
0
41
1
10
25.7506142807835
20
7.36799788027787
30
0
0
SPLINE
5
1F8
100
AcDbEntity
8
1
62
256
6
ByLayer
370
13
48
1
60
0
100
AcDbSpline
70
4
71
3
72
8
73
4
40
0
40
0
40
0
40
0
40
1
40
1
40
1
40
1
41
1
10
25.7506142807803
20
6.63200211972037
30
0
41
1
10
25.7585032631378
20
6.63768150062549
30
0
41
1
10
25.7675268648999
20
6.64351228094515
30
0
41
1
10
25.7775223795391
20
6.64930433755816
30
0
0
SPLINE
5
1F9
100
AcDbEntity
8
1
62
256
6
ByLayer
370
13
48
1
60
0
100
AcDbSpline
70
4
71
3
72
10
73
6
40
0
40
0
40
0
40
0
40
0.220275387008479
40
0.220275387008479
40
1
40
1
40
1
40
1
41
1
10
25.8682618588517
20
6.75237796968486
30
0
41
1
10
25.8664035390181
20
6.7518685753748
30
0
41
1
10
25.8646210122278
20
6.75141237073882
30
0
41
1
10
25.8570719807735
20
6.74963590935329
30
0
41
1
10
25.8522814951945
20
6.74897564444734
30
0
41
1
10
25.8487905068829
20
6.7489756444472
30
0
0
SPLINE
5
1FA
100
AcDbEntity
8
1
62
256
6
ByLayer
370
13
48
1
60
0
100
AcDbSpline
70
4
71
3
72
10
73
6
40
0
40
0
40
0
40
0
40
0.491839191976824
40
0.491839191976824
40
1
40
1
40
1
40
1
41
1
10
27.3739430174868
20
6.86900445814359
30
0
41
1
10
27.3840171195627
20
6.9106011713084
30
0
41
1
10
27.3897360793671
20
6.9544038552024
30
0
41
1
10
27.3900896741381
20
7.0427325714019
30
0
41
1
10
27.3843433987005
20
7.08805159798064
30
0
41
1
10
27.3739430174868
20
7.13099554185669
30
0
0
SPLINE
5
1FB
100
AcDbEntity
8
1
62
256
6
ByLayer
370
13
48
1
60
0
100
AcDbSpline
70
4
71
3
72
8
73
4
40
0
40
0
40
0
40
0
40
1
40
1
40
1
40
1
41
1
10
25.7484695777331
20
7.38896580231022
30
0
41
1
10
25.7491523507354
20
7.38203639644769
30
0
41
1
10
25.7498660198605
20
7.37504473107759
30
0
41
1
10
25.7506142807769
20
7.36799788028225
30
0
0
SPLINE
5
1FC
100
AcDbEntity
8
1
62
256
6
ByLayer
370
13
48
1
60
0
100
AcDbSpline
70
4
71
3
72
8
73
4
40
0
40
0
40
0
40
0
40
1
40
1
40
1
40
1
41
1
10
25.7506142807768
20
6.63200211971687
30
0
41
1
10
25.7498660198605
20
6.62495526892266
30
0
41
1
10
25.7491523507355
20
6.61796360355373
30
0
41
1
10
25.7484695777333
20
6.61103419769228
30
0
0
SPLINE
5
1FD
100
AcDbEntity
8
1
62
256
6
ByLayer
370
13
48
1
60
0
100
AcDbSpline
70
4
71
3
72
8
73
4
40
0
40
0
40
0
40
0
40
1
40
1
40
1
40
1
41
1
10
29.4397600217523
20
6.15614709968301
30
0
41
1
10
29.322055648593
20
6.13167380944577
30
0
41
1
10
29.200878108611
20
6.12224731931386
30
0
41
1
10
29.0810768987952
20
6.12518383633341
30
0
0
SPLINE
5
1FE
100
AcDbEntity
8
1
62
256
6
ByLayer
370
13
48
1
60
0
100
AcDbSpline
70
4
71
3
72
10
73
6
40
0
40
0
40
0
40
0
40
0.484066971714709
40
0.484066971714709
40
1
40
1
40
1
40
1
41
1
10
29.5636089363249
20
6.34419694560268
30
0
41
1
10
29.5463854867532
20
6.32933247646437
30
0
41
1
10
29.5300210449059
20
6.31327144162381
30
0
41
1
10
29.4997771424429
20
6.27717888705982
30
0
41
1
10
29.485689560494
20
6.25679926452924
30
0
41
1
10
29.4753143467794
20
6.23446411404001
30
0
0
SPLINE
5
1FF
100
AcDbEntity
8
1
62
256
6
ByLayer
370
13
48
1
60
0
100
AcDbSpline
70
4
71
3
72
16
73
12
40
0
40
0
40
0
40
0
40
0.565035752121982
40
0.565035752121982
40
0.802127499925978
40
0.802127499925978
40
0.909039374754918
40
0.909039374754918
40
0.963879000672096
40
0.963879000672096
40
1
40
1
40
1
40
1
41
1
10
29.4753143467794
20
6.23446411404001
30
0
41
1
10
29.4686286509486
20
6.22007154087351
30
0
41
1
10
29.4618879302626
20
6.20536616990299
30
0
41
1
10
29.4523712685778
20
6.18434379942983
30
0
41
1
10
29.4495577546969
20
6.17809558287362
30
0
41
1
10
29.4454904861868
20
6.1690139589532
30
0
41
1
10
29.44422795347
20
6.16618800063753
30
0
41
1
10
29.4423215351283
20
6.16191019761922
30
0
41
1
10
29.4416757755847
20
6.1604593301536
30
0
41
1
10
29.4406068513424
20
6.15805461258046
30
0
41
1
10
29.4401828059207
20
6.15710111222378
30
0
41
1
10
29.4397600217523
20
6.15614709968301
30
0
0
SPLINE
5
200
100
AcDbEntity
8
1
62
256
6
ByLayer
370
13
48
1
60
0
100
AcDbSpline
70
4
71
3
72
8
73
4
40
0
40
0
40
0
40
0
40
1
40
1
40
1
40
1
41
1
10
29.4397600217523
20
7.84385290031727
30
0
41
1
10
29.322055648593
20
7.86832619055451
30
0
41
1
10
29.200878108611
20
7.87775268068643
30
0
41
1
10
29.0810768987952
20
7.87481616366688
30
0
0
SPLINE
5
201
100
AcDbEntity
8
1
62
256
6
ByLayer
370
13
48
1
60
0
100
AcDbSpline
70
4
71
3
72
16
73
12
40
0
40
0
40
0
40
0
40
0.565035752121982
40
0.565035752121982
40
0.802127499925977
40
0.802127499925977
40
0.909039374754918
40
0.909039374754918
40
0.963879000672096
40
0.963879000672096
40
1
40
1
40
1
40
1
41
1
10
29.4753143467794
20
7.76553588596028
30
0
41
1
10
29.4686286509489
20
7.77992845912692
30
0
41
1
10
29.4618879302626
20
7.7946338300973
30
0
41
1
10
29.4523712685778
20
7.81565620057046
30
0
41
1
10
29.4495577546969
20
7.82190441712666
30
0
41
1
10
29.4454904861868
20
7.83098604104708
30
0
41
1
10
29.44422795347
20
7.83381199936275
30
0
41
1
10
29.4423215351283
20
7.83808980238106
30
0
41
1
10
29.4416757755847
20
7.83954066984668
30
0
41
1
10
29.4406068513424
20
7.84194538741983
30
0
41
1
10
29.4401828059207
20
7.8428988877765
30
0
41
1
10
29.4397600217523
20
7.84385290031727
30
0
0
SPLINE
5
202
100
AcDbEntity
8
1
62
256
6
ByLayer
370
13
48
1
60
0
100
AcDbSpline
70
4
71
3
72
10
73
6
40
0
40
0
40
0
40
0
40
0.484066971714713
40
0.484066971714713
40
1
40
1
40
1
40
1
41
1
10
29.5636089363249
20
7.65580305439761
30
0
41
1
10
29.5463854867532
20
7.67066752353591
30
0
41
1
10
29.5300210449059
20
7.68672855837647
30
0
41
1
10
29.4997771424429
20
7.72282111294047
30
0
41
1
10
29.485689560494
20
7.74320073547105
30
0
41
1
10
29.4753143467794
20
7.76553588596028
30
0
0
SPLINE
5
203
100
AcDbEntity
8
1
62
256
6
ByLayer
370
13
48
1
60
0
100
AcDbSpline
70
4
71
3
72
10
73
6
40
0
40
0
40
0
40
0
40
0.176628710800224
40
0.176628710800224
40
1
40
1
40
1
40
1
41
1
10
29.8256635776615
20
7.53112088729745
30
0
41
1
10
29.8183722025778
20
7.54210711800886
30
0
41
1
10
29.8104894309625
20
7.55271086992656
30
0
41
1
10
29.763804068291
20
7.60976557532283
30
0
41
1
10
29.7154493527109
20
7.64869946679849
30
0
41
1
10
29.6642473322786
20
7.68086932054015
30
0
0
SPLINE
5
204
100
AcDbEntity
8
1
62
256
6
ByLayer
370
13
48
1
60
0
100
AcDbSpline
70
4
71
3
72
8
73
4
40
0
40
0
40
0
40
0
40
1
40
1
40
1
40
1
41
1
10
29.6642473322786
20
7.68086932054012
30
0
41
1
10
29.6451065349848
20
7.6928953430338
30
0
41
1
10
29.625925565824
20
7.70485756792939
30
0
41
1
10
29.6067026707552
20
7.71675169137384
30
0
0
SPLINE
5
205
100
AcDbEntity
8
1
62
256
6
ByLayer
370
13
48
1
60
0
100
AcDbSpline
70
4
71
3
72
10
73
6
40
0
40
0
40
0
40
0
40
0.502273026272322
40
0.502273026272322
40
1
40
1
40
1
40
1
41
1
10
29.6067026707553
20
7.71675169137387
30
0
41
1
10
29.5891255877276
20
7.7276274722891
30
0
41
1
10
29.5719685584501
20
7.73925206390382
30
0
41
1
10
29.539399813568
20
7.76433772449752
30
0
41
1
10
29.5236090237988
20
7.77773551377726
30
0
41
1
10
29.510515563742
20
7.79345377256877
30
0
0
SPLINE
5
206
100
AcDbEntity
8
1
62
256
6
ByLayer
370
13
48
1
60
0
100
AcDbSpline
70
4
71
3
72
10
73
6
40
0
40
0
40
0
40
0
40
0.502273026272322
40
0.502273026272322
40
1
40
1
40
1
40
1
41
1
10
29.6067026707553
20
6.28324830862641
30
0
41
1
10
29.5891255877276
20
6.27237252771118
30
0
41
1
10
29.5719685584501
20
6.26074793609646
30
0
41
1
10
29.539399813568
20
6.23566227550276
30
0
41
1
10
29.5236090237988
20
6.22226448622303
30
0
41
1
10
29.510515563742
20
6.20654622743152
30
0
0
SPLINE
5
207
100
AcDbEntity
8
1
62
256
6
ByLayer
370
13
48
1
60
0
100
AcDbSpline
70
4
71
3
72
8
73
4
40
0
40
0
40
0
40
0
40
1
40
1
40
1
40
1
41
1
10
29.6642473322786
20
6.31913067946016
30
0
41
1
10
29.6451065349848
20
6.30710465696649
30
0
41
1
10
29.625925565824
20
6.29514243207089
30
0
41
1
10
29.6067026707552
20
6.28324830862644
30
0
0
SPLINE
5
208
100
AcDbEntity
8
1
62
256
6
ByLayer
370
13
48
1
60
0
100
AcDbSpline
70
4
71
3
72
10
73
6
40
0
40
0
40
0
40
0
40
0.176628710800224
40
0.176628710800224
40
1
40
1
40
1
40
1
41
1
10
29.8256635776615
20
6.46887911270284
30
0
41
1
10
29.8183722025778
20
6.45789288199143
30
0
41
1
10
29.8104894309625
20
6.44728913007373
30
0
41
1
10
29.763804068291
20
6.39023442467746
30
0
41
1
10
29.7154493527109
20
6.35130053320179
30
0
41
1
10
29.6642473322786
20
6.31913067946013
30
0
0
SPLINE
5
209
100
AcDbEntity
8
1
62
256
6
ByLayer
370
13
48
1
60
0
100
AcDbSpline
70
4
71
3
72
10
73
6
40
0
40
0
40
0
40
0
40
0.828685679108716
40
0.828685679108716
40
1
40
1
40
1
40
1
41
1
10
29.620768358368
20
6.37976823186628
30
0
41
1
10
29.6686097493867
20
6.40512105855083
30
0
41
1
10
29.7147633392972
20
6.43592679239777
30
0
41
1
10
29.7604070337688
20
6.48282894495165
30
0
41
1
10
29.7679488590384
20
6.49133995857275
30
0
41
1
10
29.7749800271744
20
6.5002379501104
30
0
0
SPLINE
5
20A
100
AcDbEntity
8
1
62
256
6
ByLayer
370
13
48
1
60
0
100
AcDbSpline
70
4
71
3
72
10
73
6
40
0
40
0
40
0
40
0
40
0.828685679108716
40
0.828685679108716
40
1
40
1
40
1
40
1
41
1
10
29.620768358368
20
7.620231768134
30
0
41
1
10
29.6686097493867
20
7.59487894144945
30
0
41
1
10
29.7147633392972
20
7.56407320760252
30
0
41
1
10
29.7604070337688
20
7.51717105504864
30
0
41
1
10
29.7679488590384
20
7.50866004142753
30
0
41
1
10
29.7749800271744
20
7.49976204988988
30
0
0
SPLINE
5
20B
100
AcDbEntity
8
1
62
256
6
ByLayer
370
13
48
1
60
0
100
AcDbSpline
70
4
71
3
72
12
73
8
40
0
40
0
40
0
40
0
40
0.0880792633922689
40
0.0880792633922689
40
0.576107189837383
40
0.576107189837383
40
1
40
1
40
1
40
1
41
1
10
29.504081816943
20
6.64787095975126
30
0
41
1
10
29.5140661440235
20
6.64758157502862
30
0
41
1
10
29.5240551161812
20
6.6474392202837
30
0
41
1
10
29.5893799480028
20
6.64756539366221
30
0
41
1
10
29.6447000295703
20
6.64962439636619
30
0
41
1
10
29.7480735369366
20
6.65228068976322
30
0
41
1
10
29.7961214732616
20
6.65369674610781
30
0
41
1
10
29.8441651422482
20
6.65525959326112
30
0
0
SPLINE
5
20C
100
AcDbEntity
8
1
62
256
6
ByLayer
370
13
48
1
60
0
100
AcDbSpline
70
4
71
3
72
10
73
6
40
0
40
0
40
0
40
0
40
0.595894712070617
40
0.595894712070617
40
1
40
1
40
1
40
1
41
1
10
29.796439687712
20
6.5280419591254
30
0
41
1
10
29.8128914645872
20
6.54980964960691
30
0
41
1
10
29.8267183907984
20
6.5742299013429
30
0
41
1
10
29.840810212682
20
6.61790101891367
30
0
41
1
10
29.8440390421828
20
6.63665955692355
30
0
41
1
10
29.8441651422482
20
6.65525959326112
30
0
0
SPLINE
5
20D
100
AcDbEntity
8
1
62
256
6
ByLayer
370
13
48
1
60
0
100
AcDbSpline
70
4
71
3
72
8
73
4
40
0
40
0
40
0
40
0
40
1
40
1
40
1
40
1
41
1
10
29.7749800271743
20
6.5002379501104
30
0
41
1
10
29.7822263732841
20
6.50940825085084
30
0
41
1
10
29.7893744966752
20
6.51869385692035
30
0
41
1
10
29.796439687712
20
6.5280419591254
30
0
0
SPLINE
5
20E
100
AcDbEntity
8
1
62
256
6
ByLayer
370
13
48
1
60
0
100
AcDbSpline
70
4
71
3
72
8
73
4
40
0
40
0
40
0
40
0
40
1
40
1
40
1
40
1
41
1
10
29.7749800271743
20
7.49976204988988
30
0
41
1
10
29.7822263732841
20
7.49059174914944
30
0
41
1
10
29.7893744966752
20
7.48130614307993
30
0
41
1
10
29.796439687712
20
7.47195804087488
30
0
0
SPLINE
5
20F
100
AcDbEntity
8
1
62
256
6
ByLayer
370
13
48
1
60
0
100
AcDbSpline
70
4
71
3
72
10
73
6
40
0
40
0
40
0
40
0
40
0.595894712070617
40
0.595894712070617
40
1
40
1
40
1
40
1
41
1
10
29.796439687712
20
7.47195804087488
30
0
41
1
10
29.8128914645872
20
7.45019035039337
30
0
41
1
10
29.8267183907984
20
7.42577009865738
30
0
41
1
10
29.840810212682
20
7.38209898108661
30
0
41
1
10
29.8440390421828
20
7.36334044307674
30
0
41
1
10
29.8441651422482
20
7.34474040673916
30
0
0
SPLINE
5
210
100
AcDbEntity
8
1
62
256
6
ByLayer
370
13
48
1
60
0
100
AcDbSpline
70
4
71
3
72
16
73
12
40
0
40
0
40
0
40
0
40
0.550547840515593
40
0.550547840515593
40
0.792876062772848
40
0.792876062772848
40
0.904227776395907
40
0.904227776395907
40
0.964015152759446
40
0.964015152759446
40
1
40
1
40
1
40
1
41
1
10
29.510515563742
20
7.79345377256882
30
0
41
1
10
29.4975450008677
20
7.80249051936389
30
0
41
1
10
29.4844768135886
20
7.81170828269404
30
0
41
1
10
29.4657548110492
20
7.82507250823602
30
0
41
1
10
29.4600322668741
20
7.8291789905538
30
0
41
1
10
29.4517104802334
20
7.83518269678231
30
0
41
1
10
29.4490936305623
20
7.83707526073553
30
0
41
1
10
29.4450796636703
20
7.83998549826339
30
0
41
1
10
29.443678727348
20
7.84100257904458
30
0
41
1
10
29.4414390369607
20
7.84263079450866
30
0
41
1
10
29.4405990425508
20
7.84324156697471
30
0
41
1
10
29.4397600217523
20
7.84385290031733
30
0
0
SPLINE
5
211
100
AcDbEntity
8
1
62
256
6
ByLayer
370
13
48
1
60
0
100
AcDbSpline
70
4
71
3
72
12
73
8
40
0
40
0
40
0
40
0
40
0.0880792633922689
40
0.0880792633922689
40
0.576107189837383
40
0.576107189837383
40
1
40
1
40
1
40
1
41
1
10
29.504081816943
20
7.35212904024903
30
0
41
1
10
29.5140661440235
20
7.35241842497166
30
0
41
1
10
29.5240551161812
20
7.35256077971658
30
0
41
1
10
29.5893799480028
20
7.35243460633808
30
0
41
1
10
29.6447000295703
20
7.35037560363409
30
0
41
1
10
29.7480735369366
20
7.34771931023707
30
0
41
1
10
29.7961214732616
20
7.34630325389247
30
0
41
1
10
29.8441651422482
20
7.34474040673916
30
0
0
SPLINE
5
212
100
AcDbEntity
8
1
62
256
6
ByLayer
370
13
48
1
60
0
100
AcDbSpline
70
4
71
3
72
16
73
12
40
0
40
0
40
0
40
0
40
0.550547840515593
40
0.550547840515593
40
0.792876062772848
40
0.792876062772848
40
0.904227776395907
40
0.904227776395907
40
0.964015152759446
40
0.964015152759446
40
1
40
1
40
1
40
1
41
1
10
29.510515563742
20
6.20654622743146
30
0
41
1
10
29.4975450008677
20
6.1975094806364
30
0
41
1
10
29.4844768135886
20
6.18829171730624
30
0
41
1
10
29.4657548110492
20
6.17492749176427
30
0
41
1
10
29.4600322668741
20
6.17082100944648
30
0
41
1
10
29.4517104802334
20
6.16481730321797
30
0
41
1
10
29.4490936305623
20
6.16292473926475
30
0
41
1
10
29.4450796636703
20
6.1600145017369
30
0
41
1
10
29.443678727348
20
6.1589974209557
30
0
41
1
10
29.4414390369607
20
6.15736920549162
30
0
41
1
10
29.4405990425508
20
6.15675843302557
30
0
41
1
10
29.4397600217523
20
6.15614709968295
30
0
0
SPLINE
5
213
100
AcDbEntity
8
1
62
256
6
ByLayer
370
13
48
1
60
0
100
AcDbSpline
70
4
71
3
72
8
73
4
40
0
40
0
40
0
40
0
40
1
40
1
40
1
40
1
41
1
10
29.0810768987952
20
7.87481616366688
30
0
41
1
10
28.9666740375912
20
7.87150813787267
30
0
41
1
10
28.8499584372938
20
7.86253383942815
30
0
41
1
10
28.7337805434614
20
7.86676177205018
30
0
0
SPLINE
5
214
100
AcDbEntity
8
1
62
256
6
ByLayer
370
13
48
1
60
0
100
AcDbSpline
70
4
71
3
72
10
73
6
40
0
40
0
40
0
40
0
40
0.202374079532489
40
0.202374079532489
40
1
40
1
40
1
40
1
41
1
10
28.8939768523293
20
6.64666737987685
30
0
41
1
10
28.9366335743464
20
6.64785266089487
30
0
41
1
10
28.9793460209675
20
6.64834690148581
30
0
41
1
10
29.1872289032592
20
6.65117888890546
30
0
41
1
10
29.3524723046482
20
6.65109339854223
30
0
41
1
10
29.504081816943
20
6.64787095975126
30
0
0
SPLINE
5
215
100
AcDbEntity
8
1
62
256
6
ByLayer
370
13
48
1
60
0
100
AcDbSpline
70
4
71
3
72
8
73
4
40
0
40
0
40
0
40
0
40
1
40
1
40
1
40
1
41
1
10
29.0810768987952
20
6.12518383633341
30
0
41
1
10
28.9666740375912
20
6.12849186212762
30
0
41
1
10
28.8499584372938
20
6.13746616057213
30
0
41
1
10
28.7337805434614
20
6.1332382279501
30
0
0
SPLINE
5
216
100
AcDbEntity
8
1
62
256
6
ByLayer
370
13
48
1
60
0
100
AcDbSpline
70
4
71
3
72
10
73
6
40
0
40
0
40
0
40
0
40
0.202374079532489
40
0.202374079532489
40
1
40
1
40
1
40
1
41
1
10
28.8939768523293
20
7.35333262012344
30
0
41
1
10
28.9366335743464
20
7.35214733910541
30
0
41
1
10
28.9793460209675
20
7.35165309851447
30
0
41
1
10
29.1872289032592
20
7.34882111109482
30
0
41
1
10
29.3524723046482
20
7.34890660145805
30
0
41
1
10
29.504081816943
20
7.35212904024903
30
0
0
SPLINE
5
217
100
AcDbEntity
8
1
62
256
6
ByLayer
370
13
48
1
60
0
100
AcDbSpline
70
4
71
3
72
8
73
4
40
0
40
0
40
0
40
0
40
1
40
1
40
1
40
1
41
1
10
28.7337805434614
20
7.86676177205018
30
0
41
1
10
28.6338294385697
20
7.87001030666377
30
0
41
1
10
28.5333593139738
20
7.87323015281345
30
0
41
1
10
28.4337805434613
20
7.86403867263255
30
0
0
SPLINE
5
218
100
AcDbEntity
8
1
62
256
6
ByLayer
370
13
48
1
60
0
100
AcDbSpline
70
4
71
3
72
8
73
4
40
0
40
0
40
0
40
0
40
1
40
1
40
1
40
1
41
1
10
28.7337805434614
20
6.1332382279501
30
0
41
1
10
28.6338294385697
20
6.12998969333651
30
0
41
1
10
28.5333593139738
20
6.12676984718684
30
0
41
1
10
28.4337805434613
20
6.13596132736774
30
0
0
SPLINE
5
219
100
AcDbEntity
8
1
62
256
6
ByLayer
370
13
48
1
60
0
100
AcDbSpline
70
4
71
3
72
10
73
6
40
0
40
0
40
0
40
0
40
0.412056726398416
40
0.412056726398416
40
1
40
1
40
1
40
1
41
1
10
29.8970257408963
20
6.65525959326112
30
0
41
1
10
29.8970257408963
20
6.63214005529514
30
0
41
1
10
29.8938536143201
20
6.60884672723631
30
0
41
1
10
29.8795476699584
20
6.55477853641014
30
0
41
1
10
29.8654870839337
20
6.52430879873805
30
0
41
1
10
29.8480375085946
20
6.49657472132827
30
0
0
SPLINE
5
21A
100
AcDbEntity
8
1
62
256
6
ByLayer
370
13
48
1
60
0
100
AcDbSpline
70
4
71
3
72
10
73
6
40
0
40
0
40
0
40
0
40
0.412056726398416
40
0.412056726398416
40
1
40
1
40
1
40
1
41
1
10
29.8970257408963
20
7.34474040673916
30
0
41
1
10
29.8970257408963
20
7.36785994470515
30
0
41
1
10
29.8938536143201
20
7.39115327276397
30
0
41
1
10
29.8795476699584
20
7.44522146359014
30
0
41
1
10
29.8654870839337
20
7.47569120126224
30
0
41
1
10
29.8480375085946
20
7.50342527867201
30
0
0
SPLINE
5
21B
100
AcDbEntity
8
1
62
256
6
ByLayer
370
13
48
1
60
0
100
AcDbSpline
70
4
71
3
72
16
73
12
40
0
40
0
40
0
40
0
40
0.144623406732697
40
0.144623406732697
40
0.340113210683642
40
0.340113210683642
40
0.361421053906806
40
0.361421053906806
40
0.96509055241744
40
0.96509055241744
40
1
40
1
40
1
40
1
41
1
10
28.3939768523293
20
6.650302890288
30
0
41
1
10
28.4176378728546
20
6.64557119287619
30
0
41
1
10
28.4416309953236
20
6.64235596523585
30
0
41
1
10
28.4981933524561
20
6.6375989059909
30
0
41
1
10
28.5308631318152
20
6.63644376415792
30
0
41
1
10
28.5670552818254
20
6.63643675022698
30
0
41
1
10
28.5706149406199
20
6.63645287929273
30
0
41
1
10
28.6749938211816
20
6.63747518965076
30
0
41
1
10
28.7757429102796
20
6.64225645257707
30
0
41
1
10
28.8823238693043
20
6.64622768379192
30
0
41
1
10
28.8881503958337
20
6.64644661146545
30
0
41
1
10
28.8939768523293
20
6.64666737987685
30
0
0
SPLINE
5
21C
100
AcDbEntity
8
1
62
256
6
ByLayer
370
13
48
1
60
0
100
AcDbSpline
70
4
71
3
72
16
73
12
40
0
40
0
40
0
40
0
40
0.144623406732697
40
0.144623406732697
40
0.340113210683642
40
0.340113210683642
40
0.361421053906806
40
0.361421053906806
40
0.96509055241744
40
0.96509055241744
40
1
40
1
40
1
40
1
41
1
10
28.3939768523293
20
7.34969710971228
30
0
41
1
10
28.4176378728546
20
7.35442880712409
30
0
41
1
10
28.4416309953236
20
7.35764403476443
30
0
41
1
10
28.4981933524561
20
7.36240109400939
30
0
41
1
10
28.5308631318152
20
7.36355623584237
30
0
41
1
10
28.5670552818254
20
7.36356324977331
30
0
41
1
10
28.5706149406199
20
7.36354712070755
30
0
41
1
10
28.6749938211816
20
7.36252481034953
30
0
41
1
10
28.7757429102796
20
7.35774354742321
30
0
41
1
10
28.8823238693043
20
7.35377231620836
30
0
41
1
10
28.8881503958337
20
7.35355338853483
30
0
41
1
10
28.8939768523293
20
7.35333262012344
30
0
0
SPLINE
5
21D
100
AcDbEntity
8
1
62
256
6
ByLayer
370
13
48
1
60
0
100
AcDbSpline
70
4
71
3
72
8
73
4
40
0
40
0
40
0
40
0
40
1
40
1
40
1
40
1
41
1
10
29.8480375085946
20
6.49657472132827
30
0
41
1
10
29.8406822121479
20
6.48722240841243
30
0
41
1
10
29.8332278664848
20
6.47797388408537
30
0
41
1
10
29.8256635776615
20
6.46887911270281
30
0
0
SPLINE
5
21E
100
AcDbEntity
8
1
62
256
6
ByLayer
370
13
48
1
60
0
100
AcDbSpline
70
4
71
3
72
8
73
4
40
0
40
0
40
0
40
0
40
1
40
1
40
1
40
1
41
1
10
29.8480375085946
20
7.50342527867201
30
0
41
1
10
29.8406822121479
20
7.51277759158785
30
0
41
1
10
29.8332278664848
20
7.52202611591491
30
0
41
1
10
29.8256635776615
20
7.53112088729748
30
0
0
SPLINE
5
21F
100
AcDbEntity
8
1
62
256
6
ByLayer
370
13
48
1
60
0
100
AcDbSpline
70
4
71
3
72
16
73
12
40
0
40
0
40
0
40
0
40
0.0002204728141812
40
0.0002204728141812
40
0.28207049074326
40
0.28207049074326
40
0.563941110555105
40
0.563941110555105
40
0.999779527185927
40
0.999779527185927
40
1
40
1
40
1
40
1
41
1
10
28.1289221872925
20
6.70654810788906
30
0
41
1
10
28.1289414547824
20
6.7065436903693
30
0
41
1
10
28.1289607223292
20
6.70653927287123
30
0
41
1
10
28.1536114636835
20
6.70088751905041
30
0
41
1
10
28.1783272225085
20
6.69520974468443
30
0
41
1
10
28.2278436851611
20
6.68372948708847
30
0
41
1
10
28.252629159667
20
6.67780650220578
30
0
41
1
10
28.3159850762819
20
6.66361412495743
30
0
41
1
10
28.3548717009099
20
6.65629674530035
30
0
41
1
10
28.3939373139163
20
6.6503089494876
30
0
41
1
10
28.3939570831494
20
6.65030592006119
30
0
41
1
10
28.3939768523293
20
6.650302890288
30
0
0
SPLINE
5
220
100
AcDbEntity
8
1
62
256
6
ByLayer
370
13
48
1
60
0
100
AcDbSpline
70
4
71
3
72
16
73
12
40
0
40
0
40
0
40
0
40
0.0002204728141812
40
0.0002204728141812
40
0.28207049074326
40
0.28207049074326
40
0.563941110555105
40
0.563941110555105
40
0.999779527185927
40
0.999779527185927
40
1
40
1
40
1
40
1
41
1
10
28.1289221872925
20
7.29345189211122
30
0
41
1
10
28.1289414547826
20
7.29345630977744
30
0
41
1
10
28.1289607223292
20
7.29346072712906
30
0
41
1
10
28.1536114636835
20
7.29911248094987
30
0
41
1
10
28.1783272225085
20
7.30479025531585
30
0
41
1
10
28.2278436851611
20
7.31627051291181
30
0
41
1
10
28.252629159667
20
7.3221934977945
30
0
41
1
10
28.3159850762819
20
7.33638587504285
30
0
41
1
10
28.3548717009099
20
7.34370325469993
30
0
41
1
10
28.3939373139163
20
7.34969105051269
30
0
41
1
10
28.393957083092
20
7.34969408031384
30
0
41
1
10
28.3939768523293
20
7.34969710971228
30
0
0
SPLINE
5
221
100
AcDbEntity
8
1
62
256
6
ByLayer
370
13
48
1
60
0
100
AcDbSpline
70
4
71
3
72
8
73
4
40
0
40
0
40
0
40
0
40
1
40
1
40
1
40
1
41
1
10
28.1289221872925
20
7.00000000000014
30
0
41
1
10
28.2172737423048
20
7.00000000000014
30
0
41
1
10
28.305625297317
20
7.00000000000014
30
0
41
1
10
28.3939768523293
20
7.00000000000014
30
0
0
SPLINE
5
222
100
AcDbEntity
8
1
62
256
6
ByLayer
370
18
48
1
60
0
100
AcDbSpline
70
4
71
3
72
18
73
14
40
0
40
0
40
0
40
0
40
0.0044321731170428
40
0.0044321731170428
40
0.2452433456402
40
0.2452433456402
40
0.486958440254783
40
0.486958440254783
40
0.713766628202683
40
0.713766628202683
40
0.92122496420774
40
0.92122496420774
40
1
40
1
40
1
40
1
41
1
10
10.4447368421052
20
6.25000000000068
30
0
41
1
10
10.4428400269771
20
6.25000000000068
30
0
41
1
10
10.440943364838
20
6.24999279657371
30
0
41
1
10
10.3359807238365
20
6.24919543141911
30
0
41
1
10
10.2310455613012
20
6.226613108165
30
0
41
1
10
10.0348281619237
20
6.13909434580151
30
0
41
1
10
9.94069963004731
20
6.07256185484633
30
0
41
1
10
9.78529918886673
20
5.90830177924713
30
0
41
1
10
9.72011235718443
20
5.81013869851608
30
0
41
1
10
9.6291909733192
20
5.60277315695834
30
0
41
1
10
9.59933971412076
20
5.49217574149094
30
0
41
1
10
9.5817134229446
20
5.33716313767991
30
0
41
1
10
9.5792397660814
20
5.2935281079954
30
0
41
1
10
9.57923976608143
20
5.25000000000063
30
0
0
SPLINE
5
223
100
AcDbEntity
8
1
62
256
6
ByLayer
370
18
48
1
60
0
100
AcDbSpline
70
4
71
3
72
8
73
4
40
0
40
0
40
0
40
0
40
1
40
1
40
1
40
1
41
1
10
-0.62772318076631
20
7.77627408736305
30
0
41
1
10
-0.55313192740303
20
7.75882959168641
30
0
41
1
10
-0.475824100695149
20
7.75000000000051
30
0
41
1
10
-0.399999999999977
20
7.75000000000051
30
0
0
SPLINE
5
224
100
AcDbEntity
8
1
62
256
6
ByLayer
370
18
48
1
60
0
100
AcDbSpline
70
4
71
3
72
18
73
14
40
0
40
0
40
0
40
0
40
0.183499023283767
40
0.183499023283767
40
0.366547057815201
40
0.366547057815201
40
0.5578745932706
40
0.5578745932706
40
0.770665275205146
40
0.770665275205146
40
0.995878266566041
40
0.995878266566041
40
1
40
1
40
1
40
1
41
1
10
18.1424492346408
20
5.25000000000051
30
0
41
1
10
18.1424492346408
20
5.35222200972339
30
0
41
1
10
18.1586759897969
20
5.45585564966982
30
0
41
1
10
18.2196165072835
20
5.64817554077672
30
0
41
1
10
18.2649661240308
20
5.73945502199109
30
0
41
1
10
18.3788344120234
20
5.903706252869
30
0
41
1
10
18.4496207709842
20
5.97777651173581
30
0
41
1
10
18.613286688842
20
6.10552949410041
30
0
41
1
10
18.7097396361622
20
6.15770599633504
30
0
41
1
10
18.9148301105224
20
6.23015095038369
30
0
41
1
10
19.0262630939546
20
6.24931641966134
30
0
41
1
10
19.13842232285
20
6.24999391912351
30
0
41
1
10
19.1404357594383
20
6.25000000000065
30
0
41
1
10
19.1424492346408
20
6.25000000000065
30
0
0
SPLINE
5
225
100
AcDbEntity
8
1
62
256
6
ByLayer
370
18
48
1
60
0
100
AcDbSpline
70
4
71
3
72
10
73
6
40
0
40
0
40
0
40
0
40
0.756102769204547
40
0.756102769204547
40
1
40
1
40
1
40
1
41
1
10
21.4466320131342
20
7.80000000000015
30
0
41
1
10
21.4335358577321
20
7.80000000000015
30
0
41
1
10
21.420720208026
20
7.80000000000015
30
0
41
1
10
21.4042092102193
20
7.80000000000015
30
0
41
1
10
21.4002140960562
20
7.80000000000015
30
0
41
1
10
21.3962544185032
20
7.80000000000015
30
0
0
SPLINE
5
226
100
AcDbEntity
8
1
62
256
6
ByLayer
370
18
48
1
60
0
100
AcDbSpline
70
4
71
3
72
14
73
10
40
0
40
0
40
0
40
0
40
0.209394252568555
40
0.209394252568555
40
0.418674140634421
40
0.418674140634421
40
0.627952529466336
40
0.627952529466336
40
1
40
1
40
1
40
1
41
1
10
27.3731203716815
20
6.11755488638985
30
0
41
1
10
27.4313095888796
20
6.11756156567648
30
0
41
1
10
27.4945415508062
20
6.11697530639509
30
0
41
1
10
27.6284652768354
20
6.11463999013245
30
0
41
1
10
27.6996116692106
20
6.11288356168163
30
0
41
1
10
27.8473813033078
20
6.10826485442377
30
0
41
1
10
27.9245105149097
20
6.10538677507964
30
0
41
1
10
28.1423341909036
20
6.09602281610063
30
0
41
1
10
28.2889070981155
20
6.08833917316258
30
0
41
1
10
28.4337805434602
20
6.07944020246231
30
0
0
SPLINE
5
227
100
AcDbEntity
8
1
62
256
6
ByLayer
370
18
48
1
60
0
100
AcDbSpline
70
4
71
3
72
14
73
10
40
0
40
0
40
0
40
0
40
0.209828521639199
40
0.209828521639199
40
0.4195901540272
40
0.4195901540272
40
0.628965113592846
40
0.628965113592846
40
1
40
1
40
1
40
1
41
1
10
28.4337805434613
20
7.92055979753852
30
0
41
1
10
28.351473269581
20
7.91550400545089
30
0
41
1
10
28.2688292147962
20
7.91084733227277
30
0
41
1
10
28.1062811533078
20
7.90252740236272
30
0
41
1
10
28.0258208334327
20
7.89883542626421
30
0
41
1
10
27.86996397243
20
7.89254633597253
30
0
41
1
10
27.7940252483449
20
7.88992572070455
30
0
41
1
10
27.5941103545506
20
7.8842831645629
30
0
41
1
10
27.4754747567343
20
7.88243336479587
30
0
41
1
10
27.3731203716825
20
7.88244511360961
30
0
0
SPLINE
5
228
100
AcDbEntity
8
1
62
256
6
ByLayer
370
18
48
1
60
0
100
AcDbSpline
70
4
71
3
72
8
73
4
40
0
40
0
40
0
40
0
40
1
40
1
40
1
40
1
41
1
10
29.0810768987952
20
7.96219038955928
30
0
41
1
10
28.9667232362904
20
7.95392523920961
30
0
41
1
10
28.8500733165824
20
7.94613092399257
30
0
41
1
10
28.7337805434613
20
7.9389875446231
30
0
0
SPLINE
5
229
100
AcDbEntity
8
1
62
256
6
ByLayer
370
18
48
1
60
0
100
AcDbSpline
70
4
71
3
72
10
73
6
40
0
40
0
40
0
40
0
40
0.575849552148122
40
0.575849552148122
40
1
40
1
40
1
40
1
41
1
10
21.3962544185032
20
6.20000000000013
30
0
41
1
10
21.4055992325651
20
6.20000000000013
30
0
41
1
10
21.4151434423377
20
6.20000000000013
30
0
41
1
10
21.4320239080446
20
6.20000000000013
30
0
41
1
10
21.4392832271312
20
6.20000000000013
30
0
41
1
10
21.4466320131342
20
6.20000000000013
30
0
0
SPLINE
5
22A
100
AcDbEntity
8
1
62
256
6
ByLayer
370
18
48
1
60
0
100
AcDbSpline
70
4
71
3
72
8
73
4
40
0
40
0
40
0
40
0
40
1
40
1
40
1
40
1
41
1
10
28.7337805434613
20
6.06101245537718
30
0
41
1
10
28.8500733165824
20
6.05386907600772
30
0
41
1
10
28.9667232362904
20
6.04607476079067
30
0
41
1
10
29.0810768987952
20
6.037809610441
30
0
0
SPLINE
5
22B
100
AcDbEntity
8
1
62
256
6
ByLayer
370
18
48
1
60
0
100
AcDbSpline
70
4
71
3
72
16
73
12
40
0
40
0
40
0
40
0
40
0.211440290976243
40
0.211440290976243
40
0.422896736694443
40
0.422896736694443
40
0.633935131411306
40
0.633935131411306
40
0.842399597812144
40
0.842399597812144
40
1
40
1
40
1
40
1
41
1
10
29.9019409516835
20
7.74675966634379
30
0
41
1
10
29.902182812152
20
7.77535373660592
30
0
41
1
10
29.897509865013
20
7.80434077036472
30
0
41
1
10
29.8791355265766
20
7.8583068798294
30
0
41
1
10
29.8651770288147
20
7.8840356042092
30
0
41
1
10
29.8300123990849
20
7.92861657686123
30
0
41
1
10
29.8083234948748
20
7.94810458999692
30
0
41
1
10
29.7605708510197
20
7.97792095369903
30
0
41
1
10
29.7338898983738
20
7.98877060184455
30
0
41
1
10
29.6856899076455
20
7.9991283575005
30
0
41
1
10
29.6640691721777
20
8.00084708455827
30
0
41
1
10
29.6427579923015
20
7.99969906010134
30
0
0
SPLINE
5
22C
100
AcDbEntity
8
1
62
256
6
ByLayer
370
18
48
1
60
0
100
AcDbSpline
70
4
71
3
72
16
73
12
40
0
40
0
40
0
40
0
40
0.203363754276493
40
0.203363754276493
40
0.40658604208921
40
0.40658604208921
40
0.611967971554986
40
0.611967971554986
40
0.82073821984358
40
0.82073821984358
40
1
40
1
40
1
40
1
41
1
10
29.6427579923015
20
6.00030093989895
30
0
41
1
10
29.6700970081209
20
5.99882819840968
30
0
41
1
10
29.6980262240333
20
6.00212198698623
30
0
41
1
10
29.7504076479784
20
6.01758892463565
30
0
41
1
10
29.7755789022368
20
6.02996168671615
30
0
41
1
10
29.8201132665787
20
6.062022668119
30
0
41
1
10
29.8400202557989
20
6.08221774731484
30
0
41
1
10
29.8720355922844
20
6.12780499164003
30
0
41
1
10
29.8844520380369
20
6.15389956722149
30
0
41
1
10
29.8988187436013
20
6.2043263112233
30
0
41
1
10
29.9021467885115
20
6.22890517562232
30
0
41
1
10
29.9019409516835
20
6.25324033365649
30
0
0
LINE
5
70
100
AcDbEntity
8
80
62
256
6
ByLayer
370
18
48
1
60
0
100
AcDbLine
10
0
20
0
30
0
11
-5
21
0
31
0
39
0
210
0
220
0
230
1
0
LINE
5
71
100
AcDbEntity
8
81
62
256
6
ByLayer
370
18
48
1
60
0
100
AcDbLine
10
29.9
20
8
30
0
11
34.9
21
8
31
0
39
0
210
0
220
0
230
1
0
LINE
5
72
100
AcDbEntity
8
1
62
256
6
ByLayer
370
18
48
1
60
0
100
AcDbLine
10
-0.1
20
-8
30
0
11
0.917758
21
-8
31
0
39
0
210
0
220
0
230
1
0
LINE
5
74
100
AcDbEntity
8
SK1
62
256
6
ByLayer
370
13
48
1
60
0
100
AcDbLine
10
-0.627723
20
7.776274
30
0
11
-0.627723
21
-8
31
0
39
0
210
0
220
0
230
1
0
LINE
5
76
100
AcDbEntity
8
SK1
62
256
6
ByLayer
370
18
48
1
60
0
100
AcDbLine
10
-0.1
20
7.75
30
0
11
-0.4
21
7.75
31
0
39
0
210
0
220
0
230
1
0
LINE
5
77
100
AcDbEntity
8
SK1
62
256
6
ByLayer
370
18
48
1
60
0
100
AcDbLine
10
-0.627723
20
-8
30
0
11
-0.1
21
-8
31
0
39
0
210
0
220
0
230
1
0
LINE
5
78
100
AcDbEntity
8
SK1
62
256
6
ByLayer
370
18
48
1
60
0
100
AcDbLine
10
-95.1
20
7.9
30
0
11
-0.926783
21
7.9
31
0
39
0
210
0
220
0
230
1
0
LINE
5
79
100
AcDbEntity
8
SK1
62
256
6
ByLayer
370
18
48
1
60
0
100
AcDbLine
10
-95.1
20
-8
30
0
11
-0.627723
21
-8
31
0
39
0
210
0
220
0
230
1
0
LINE
5
7A
100
AcDbEntity
8
SK1
62
256
6
ByLayer
370
18
48
1
60
0
100
AcDbLine
10
-0.1
20
-8
30
0
11
-0.1
21
7.75
31
0
39
0
210
0
220
0
230
1
0
LINE
5
7B
100
AcDbEntity
8
SK1
62
256
6
ByLayer
370
18
48
1
60
0
100
AcDbLine
10
-95.1
20
-8
30
0
11
-95.1
21
7.9
31
0
39
0
210
0
220
0
230
1
0
LINE
5
7C
100
AcDbEntity
8
1
62
256
6
ByLayer
370
18
48
1
60
0
100
AcDbLine
10
1.71858
20
7.75
30
0
11
0.917758
21
7.75
31
0
39
0
210
0
220
0
230
1
0
LINE
5
7D
100
AcDbEntity
8
1
62
256
6
ByLayer
370
18
48
1
60
0
100
AcDbLine
10
0.917758
20
7.75
30
0
11
-0.1
21
7.75
31
0
39
0
210
0
220
0
230
1
0
LINE
5
7E
100
AcDbEntity
8
1
62
256
6
ByLayer
370
18
48
1
60
0
100
AcDbLine
10
9.57924
20
5.25
30
0
11
9.57924
21
-4.241697
31
0
39
0
210
0
220
0
230
1
0
LINE
5
7F
100
AcDbEntity
8
1
62
256
6
ByLayer
370
18
48
1
60
0
100
AcDbLine
10
21.190738
20
7.75
30
0
11
16.190738
21
7.75
31
0
39
0
210
0
220
0
230
1
0
LINE
5
80
100
AcDbEntity
8
1
62
256
6
ByLayer
370
18
48
1
60
0
100
AcDbLine
10
6.6
20
-5.779891
30
0
11
2.3
21
-8
31
0
39
0
210
0
220
0
230
1
0
LINE
5
81
100
AcDbEntity
8
1
62
256
6
ByLayer
370
13
48
1
60
0
100
AcDbLine
10
16.190738
20
7.75
30
0
11
16.190738
21
6.25
31
0
39
0
210
0
220
0
230
1
0
LINE
5
82
100
AcDbEntity
8
1
62
256
6
ByLayer
370
18
48
1
60
0
100
AcDbLine
10
9.57924
20
-4.241697
30
0
11
6.6
21
-5.779891
31
0
39
0
210
0
220
0
230
1
0
LINE
5
83
100
AcDbEntity
8
1
62
256
6
ByLayer
370
18
48
1
60
0
100
AcDbLine
10
21.190738
20
6.25
30
0
11
16.190738
21
6.25
31
0
39
0
210
0
220
0
230
1
0
LINE
5
84
100
AcDbEntity
8
1
62
256
6
ByLayer
370
18
48
1
60
0
100
AcDbLine
10
1.71858
20
-8
30
0
11
1.71858
21
7.75
31
0
39
0
210
0
220
0
230
1
0
LINE
5
85
100
AcDbEntity
8
1
62
256
6
ByLayer
370
18
48
1
60
0
100
AcDbLine
10
25.315611
20
7.75
30
0
11
21.190738
21
7.75
31
0
39
0
210
0
220
0
230
1
0
LINE
5
86
100
AcDbEntity
8
1
62
256
6
ByLayer
370
13
48
1
60
0
100
AcDbLine
10
0.917758
20
-8
30
0
11
0.917758
21
7.75
31
0
39
0
210
0
220
0
230
1
0
LINE
5
87
100
AcDbEntity
8
1
62
256
6
ByLayer
370
18
48
1
60
0
100
AcDbLine
10
16.190738
20
6.25
30
0
11
7.6
21
6.25
31
0
39
0
210
0
220
0
230
1
0
LINE
5
88
100
AcDbEntity
8
1
62
256
6
ByLayer
370
18
48
1
60
0
100
AcDbLine
10
25.315611
20
6.25
30
0
11
21.190738
21
6.25
31
0
39
0
210
0
220
0
230
1
0
LINE
5
89
100
AcDbEntity
8
1
62
256
6
ByLayer
370
13
48
1
60
0
100
AcDbLine
10
6.6
20
5.25
30
0
11
9.57924
21
5.25
31
0
39
0
210
0
220
0
230
1
0
LINE
5
8A
100
AcDbEntity
8
1
62
256
6
ByLayer
370
13
48
1
60
0
100
AcDbLine
10
21.190738
20
6.25
30
0
11
21.190738
21
7.75
31
0
39
0
210
0
220
0
230
1
0
LINE
5
8B
100
AcDbEntity
8
1
62
256
6
ByLayer
370
13
48
1
60
0
100
AcDbLine
10
9.57924
20
5.25
30
0
11
18.142449
21
5.25
31
0
39
0
210
0
220
0
230
1
0
LINE
5
8C
100
AcDbEntity
8
1
62
256
6
ByLayer
370
18
48
1
60
0
100
AcDbLine
10
25.315611
20
6.25
30
0
11
25.315611
21
7.75
31
0
39
0
210
0
220
0
230
1
0
LINE
5
8D
100
AcDbEntity
8
1
62
256
6
ByLayer
370
18
48
1
60
0
100
AcDbLine
10
6.6
20
-5.779891
30
0
11
6.6
21
5.25
31
0
39
0
210
0
220
0
230
1
0
LINE
5
8E
100
AcDbEntity
8
1
62
256
6
ByLayer
370
18
48
1
60
0
100
AcDbLine
10
18.142449
20
0.179525
30
0
11
18.142449
21
5.25
31
0
39
0
210
0
220
0
230
1
0
LINE
5
8F
100
AcDbEntity
8
1
62
256
6
ByLayer
370
18
48
1
60
0
100
AcDbLine
10
16.190738
20
7.75
30
0
11
1.71858
21
7.75
31
0
39
0
210
0
220
0
230
1
0
LINE
5
90
100
AcDbEntity
8
1
62
256
6
ByLayer
370
18
48
1
60
0
100
AcDbLine
10
-0.1
20
-8
30
0
11
-0.1
21
7.75
31
0
39
0
210
0
220
0
230
1
0
LINE
5
91
100
AcDbEntity
8
1
62
256
6
ByLayer
370
18
48
1
60
0
100
AcDbLine
10
18.142449
20
0.179525
30
0
11
9.57924
21
-4.241697
31
0
39
0
210
0
220
0
230
1
0
LINE
5
92
100
AcDbEntity
8
1
62
256
6
ByLayer
370
18
48
1
60
0
100
AcDbLine
10
2.3
20
-8
30
0
11
1.71858
21
-8
31
0
39
0
210
0
220
0
230
1
0
LINE
5
93
100
AcDbEntity
8
1
62
256
6
ByLayer
370
18
48
1
60
0
100
AcDbLine
10
0.917758
20
-8
30
0
11
1.71858
21
-8
31
0
39
0
210
0
220
0
230
1
0
LINE
5
94
100
AcDbEntity
8
1
62
256
6
ByLayer
370
13
48
1
60
0
100
AcDbLine
10
-0.627723
20
7.776274
30
0
11
-0.627723
21
-8
31
0
39
0
210
0
220
0
230
1
0
LINE
5
95
100
AcDbEntity
8
1
62
256
6
ByLayer
370
13
48
1
60
0
100
AcDbLine
10
6.6
20
5.25
30
0
11
9.57924
21
5.25
31
0
39
0
210
0
220
0
230
1
0
LINE
5
96
100
AcDbEntity
8
1
62
256
6
ByLayer
370
13
48
1
60
0
100
AcDbLine
10
20.565685
20
7.749992
30
0
11
20.565685
21
7.8
31
0
39
0
210
0
220
0
230
1
0
LINE
5
97
100
AcDbEntity
8
1
62
256
6
ByLayer
370
13
48
1
60
0
100
AcDbLine
10
20.565685
20
6.250008
30
0
11
20.565685
21
6.2
31
0
39
0
210
0
220
0
230
1
0
LINE
5
98
100
AcDbEntity
8
1
62
256
6
ByLayer
370
13
48
1
60
0
100
AcDbLine
10
16.190738
20
7.75
30
0
11
16.190738
21
6.25
31
0
39
0
210
0
220
0
230
1
0
LINE
5
99
100
AcDbEntity
8
1
62
256
6
ByLayer
370
13
48
1
60
0
100
AcDbLine
10
0.917758
20
-8
30
0
11
0.917758
21
7.75
31
0
39
0
210
0
220
0
230
1
0
LINE
5
9A
100
AcDbEntity
8
1
62
256
6
ByLayer
370
13
48
1
60
0
100
AcDbLine
10
21.190738
20
6.25
30
0
11
21.190738
21
7.75
31
0
39
0
210
0
220
0
230
1
0
LINE
5
9B
100
AcDbEntity
8
1
62
256
6
ByLayer
370
13
48
1
60
0
100
AcDbLine
10
26.609679
20
6.2
30
0
11
26.609679
21
6.323938
31
0
39
0
210
0
220
0
230
1
0
LINE
5
9C
100
AcDbEntity
8
1
62
256
6
ByLayer
370
13
48
1
60
0
100
AcDbLine
10
26.968752
20
6.304612
30
0
11
27.052761
21
6.300476
31
0
39
0
210
0
220
0
230
1
0
LINE
5
9D
100
AcDbEntity
8
1
62
256
6
ByLayer
370
13
48
1
60
0
100
AcDbLine
10
27.065017
20
6.125199
30
0
11
27.052761
21
6.300476
31
0
39
0
210
0
220
0
230
1
0
LINE
5
9E
100
AcDbEntity
8
1
62
256
6
ByLayer
370
13
48
1
60
0
100
AcDbLine
10
27.065017
20
7.874801
30
0
11
27.052761
21
7.699524
31
0
39
0
210
0
220
0
230
1
0
LINE
5
9F
100
AcDbEntity
8
1
62
256
6
ByLayer
370
13
48
1
60
0
100
AcDbLine
10
27.052761
20
7.699524
30
0
11
26.968752
21
7.695388
31
0
39
0
210
0
220
0
230
1
0
LINE
5
A0
100
AcDbEntity
8
1
62
256
6
ByLayer
370
13
48
1
60
0
100
AcDbLine
10
26.609679
20
7.676062
30
0
11
26.609679
21
7.8
31
0
39
0
210
0
220
0
230
1
0
LINE
5
A1
100
AcDbEntity
8
1
62
256
6
ByLayer
370
13
48
1
60
0
100
AcDbLine
10
26.982448
20
7.417233
30
0
11
26.968752
21
7.695388
31
0
39
0
210
0
220
0
230
1
0
LINE
5
A2
100
AcDbEntity
8
1
62
256
6
ByLayer
370
13
48
1
60
0
100
AcDbLine
10
26.968752
20
6.304612
30
0
11
26.982448
21
6.582767
31
0
39
0
210
0
220
0
230
1
0
LINE
5
A3
100
AcDbEntity
8
1
62
256
6
ByLayer
370
13
48
1
60
0
100
AcDbLine
10
27.077886
20
7.417233
30
0
11
26.982448
21
7.417233
31
0
39
0
210
0
220
0
230
1
0
LINE
5
A4
100
AcDbEntity
8
1
62
256
6
ByLayer
370
13
48
1
60
0
100
AcDbLine
10
27.077886
20
6.582767
30
0
11
26.982448
21
6.582767
31
0
39
0
210
0
220
0
230
1
0
LINE
5
A5
100
AcDbEntity
8
1
62
256
6
ByLayer
370
13
48
1
60
0
100
AcDbLine
10
27.37312
20
6.36152
30
0
11
27.37312
21
6.117555
31
0
39
0
210
0
220
0
230
1
0
LINE
5
A6
100
AcDbEntity
8
1
62
256
6
ByLayer
370
13
48
1
60
0
100
AcDbLine
10
28.433781
20
6.135961
30
0
11
28.433781
21
6.07944
31
0
39
0
210
0
220
0
230
1
0
LINE
5
A7
100
AcDbEntity
8
1
62
256
6
ByLayer
370
13
48
1
60
0
100
AcDbLine
10
28.433781
20
7.864039
30
0
11
28.433781
21
7.92056
31
0
39
0
210
0
220
0
230
1
0
LINE
5
A8
100
AcDbEntity
8
1
62
256
6
ByLayer
370
13
48
1
60
0
100
AcDbLine
10
27.37312
20
7.63848
30
0
11
27.37312
21
7.882445
31
0
39
0
210
0
220
0
230
1
0
LINE
5
A9
100
AcDbEntity
8
1
62
256
6
ByLayer
370
13
48
1
60
0
100
AcDbLine
10
27.264634
20
7.684709
30
0
11
27.278462
21
7.882456
31
0
39
0
210
0
220
0
230
1
0
LINE
5
AA
100
AcDbEntity
8
1
62
256
6
ByLayer
370
13
48
1
60
0
100
AcDbLine
10
27.264634
20
6.315291
30
0
11
27.278462
21
6.117544
31
0
39
0
210
0
220
0
230
1
0
LINE
5
AB
100
AcDbEntity
8
1
62
256
6
ByLayer
370
13
48
1
60
0
100
AcDbLine
10
27.264634
20
7.684709
30
0
11
27.052761
21
7.699524
31
0
39
0
210
0
220
0
230
1
0
LINE
5
AC
100
AcDbEntity
8
1
62
256
6
ByLayer
370
13
48
1
60
0
100
AcDbLine
10
27.052761
20
6.300476
30
0
11
27.264634
21
6.315291
31
0
39
0
210
0
220
0
230
1
0
LINE
5
AD
100
AcDbEntity
8
1
62
256
6
ByLayer
370
13
48
1
60
0
100
AcDbLine
10
27.066456
20
7.421369
30
0
11
27.052761
21
7.699524
31
0
39
0
210
0
220
0
230
1
0
LINE
5
AE
100
AcDbEntity
8
1
62
256
6
ByLayer
370
13
48
1
60
0
100
AcDbLine
10
27.052761
20
6.300476
30
0
11
27.066456
21
6.578631
31
0
39
0
210
0
220
0
230
1
0
LINE
5
AF
100
AcDbEntity
8
1
62
256
6
ByLayer
370
13
48
1
60
0
100
AcDbLine
10
26.609679
20
7.676062
30
0
11
26.558376
21
7.676062
31
0
39
0
210
0
220
0
230
1
0
LINE
5
B0
100
AcDbEntity
8
1
62
256
6
ByLayer
370
13
48
1
60
0
100
AcDbLine
10
27.066456
20
6.578631
30
0
11
26.982448
21
6.582767
31
0
39
0
210
0
220
0
230
1
0
LINE
5
B1
100
AcDbEntity
8
1
62
256
6
ByLayer
370
13
48
1
60
0
100
AcDbLine
10
26.609679
20
6.323938
30
0
11
26.558376
21
6.323938
31
0
39
0
210
0
220
0
230
1
0
LINE
5
B2
100
AcDbEntity
8
1
62
256
6
ByLayer
370
13
48
1
60
0
100
AcDbLine
10
26.982448
20
7.417233
30
0
11
27.066456
21
7.421369
31
0
39
0
210
0
220
0
230
1
0
LINE
5
B3
100
AcDbEntity
8
1
62
256
6
ByLayer
370
13
48
1
60
0
100
AcDbLine
10
26.558376
20
6.323938
30
0
11
26.558376
21
6.2
31
0
39
0
210
0
220
0
230
1
0
LINE
5
B4
100
AcDbEntity
8
1
62
256
6
ByLayer
370
13
48
1
60
0
100
AcDbLine
10
26.558376
20
7.8
30
0
11
26.558376
21
7.676062
31
0
39
0
210
0
220
0
230
1
0
LINE
5
B5
100
AcDbEntity
8
1
62
256
6
ByLayer
370
13
48
1
60
0
100
AcDbLine
10
25.687198
20
6.2
30
0
11
25.687198
21
6.274562
31
0
39
0
210
0
220
0
230
1
0
LINE
5
B6
100
AcDbEntity
8
1
62
256
6
ByLayer
370
13
48
1
60
0
100
AcDbLine
10
25.687198
20
7.725438
30
0
11
25.687198
21
7.8
31
0
39
0
210
0
220
0
230
1
0
LINE
5
B7
100
AcDbEntity
8
1
62
256
6
ByLayer
370
13
48
1
60
0
100
AcDbLine
10
27.264634
20
6.315291
30
0
11
27.276063
21
6.319428
31
0
39
0
210
0
220
0
230
1
0
LINE
5
B8
100
AcDbEntity
8
1
62
256
6
ByLayer
370
13
48
1
60
0
100
AcDbLine
10
27.276063
20
7.680572
30
0
11
27.264634
21
7.684709
31
0
39
0
210
0
220
0
230
1
0
LINE
5
B9
100
AcDbEntity
8
1
62
256
6
ByLayer
370
13
48
1
60
0
100
AcDbLine
10
27.066456
20
7.421369
30
0
11
27.077886
21
7.417233
31
0
39
0
210
0
220
0
230
1
0
LINE
5
BA
100
AcDbEntity
8
1
62
256
6
ByLayer
370
13
48
1
60
0
100
AcDbLine
10
27.077886
20
6.582767
30
0
11
27.066456
21
6.578631
31
0
39
0
210
0
220
0
230
1
0
LINE
5
BB
100
AcDbEntity
8
1
62
256
6
ByLayer
370
13
48
1
60
0
100
AcDbLine
10
25.611215
20
7.8
30
0
11
25.611215
21
7.725438
31
0
39
0
210
0
220
0
230
1
0
LINE
5
BC
100
AcDbEntity
8
1
62
256
6
ByLayer
370
13
48
1
60
0
100
AcDbLine
10
25.611215
20
6.274562
30
0
11
25.611215
21
6.2
31
0
39
0
210
0
220
0
230
1
0
LINE
5
BD
100
AcDbEntity
8
1
62
256
6
ByLayer
370
13
48
1
60
0
100
AcDbLine
10
25.687198
20
7.725438
30
0
11
25.611215
21
7.725438
31
0
39
0
210
0
220
0
230
1
0
LINE
5
BE
100
AcDbEntity
8
1
62
256
6
ByLayer
370
13
48
1
60
0
100
AcDbLine
10
25.687198
20
6.274562
30
0
11
25.611215
21
6.274562
31
0
39
0
210
0
220
0
230
1
0
LINE
5
BF
100
AcDbEntity
8
1
62
256
6
ByLayer
370
13
48
1
60
0
100
AcDbLine
10
28.128922
20
7.293452
30
0
11
28.128922
21
7
31
0
39
0
210
0
220
0
230
1
0
LINE
5
C0
100
AcDbEntity
8
1
62
256
6
ByLayer
370
13
48
1
60
0
100
AcDbLine
10
28.128922
20
6.706548
30
0
11
28.128922
21
7
31
0
39
0
210
0
220
0
230
1
0
LINE
5
C1
100
AcDbEntity
8
1
62
256
6
ByLayer
370
13
48
1
60
0
100
AcDbLine
10
25.618332
20
6.324016
30
0
11
25.332668
21
6.324016
31
0
39
0
210
0
220
0
230
1
0
LINE
5
C2
100
AcDbEntity
8
1
62
256
6
ByLayer
370
13
48
1
60
0
100
AcDbLine
10
25.332668
20
6.324016
30
0
11
25.369454
21
6.632002
31
0
39
0
210
0
220
0
230
1
0
LINE
5
C3
100
AcDbEntity
8
1
62
256
6
ByLayer
370
13
48
1
60
0
100
AcDbLine
10
25.369454
20
6.632002
30
0
11
25.750614
21
6.632002
31
0
39
0
210
0
220
0
230
1
0
LINE
5
C4
100
AcDbEntity
8
1
62
256
6
ByLayer
370
13
48
1
60
0
100
AcDbLine
10
25.369454
20
7.367998
30
0
11
25.750614
21
7.367998
31
0
39
0
210
0
220
0
230
1
0
LINE
5
C5
100
AcDbEntity
8
1
62
256
6
ByLayer
370
13
48
1
60
0
100
AcDbLine
10
25.332668
20
7.675984
30
0
11
25.369454
21
7.367998
31
0
39
0
210
0
220
0
230
1
0
LINE
5
C6
100
AcDbEntity
8
1
62
256
6
ByLayer
370
13
48
1
60
0
100
AcDbLine
10
25.618332
20
7.675984
30
0
11
25.332668
21
7.675984
31
0
39
0
210
0
220
0
230
1
0
LINE
5
C7
100
AcDbEntity
8
1
62
256
6
ByLayer
370
13
48
1
60
0
100
AcDbLine
10
25.406367
20
7.251024
30
0
11
25.848791
21
7.251024
31
0
39
0
210
0
220
0
230
1
0
LINE
5
C8
100
AcDbEntity
8
1
62
256
6
ByLayer
370
13
48
1
60
0
100
AcDbLine
10
25.406367
20
6.748976
30
0
11
25.848791
21
6.748976
31
0
39
0
210
0
220
0
230
1
0
LINE
5
C9
100
AcDbEntity
8
1
62
256
6
ByLayer
370
13
48
1
60
0
100
AcDbLine
10
25.449075
20
7.200756
30
0
11
25.973158
21
7.200756
31
0
39
0
210
0
220
0
230
1
0
LINE
5
CA
100
AcDbEntity
8
1
62
256
6
ByLayer
370
13
48
1
60
0
100
AcDbLine
10
25.449075
20
6.799244
30
0
11
25.973158
21
6.799244
31
0
39
0
210
0
220
0
230
1
0
LINE
5
CB
100
AcDbEntity
8
1
62
256
6
ByLayer
370
13
48
1
60
0
100
AcDbLine
10
25.3298
20
6.274562
30
0
11
25.611215
21
6.274562
31
0
39
0
210
0
220
0
230
1
0
LINE
5
CC
100
AcDbEntity
8
1
62
256
6
ByLayer
370
13
48
1
60
0
100
AcDbLine
10
25.3298
20
7.725438
30
0
11
25.611215
21
7.725438
31
0
39
0
210
0
220
0
230
1
0
LINE
5
CD
100
AcDbEntity
8
1
62
256
6
ByLayer
370
13
48
1
60
0
100
AcDbLine
10
25.3298
20
7.8
30
0
11
25.3298
21
7.725438
31
0
39
0
210
0
220
0
230
1
0
LINE
5
CE
100
AcDbEntity
8
1
62
256
6
ByLayer
370
13
48
1
60
0
100
AcDbLine
10
25.3298
20
6.2
30
0
11
25.3298
21
6.274562
31
0
39
0
210
0
220
0
230
1
0
LINE
5
CF
100
AcDbEntity
8
1
62
256
6
ByLayer
370
13
48
1
60
0
100
AcDbLine
10
29.900117
20
7.531121
30
0
11
29.825664
21
7.531121
31
0
39
0
210
0
220
0
230
1
0
LINE
5
D0
100
AcDbEntity
8
1
62
256
6
ByLayer
370
13
48
1
60
0
100
AcDbLine
10
29.510516
20
7.793454
30
0
11
29.510516
21
7.992575
31
0
39
0
210
0
220
0
230
1
0
LINE
5
D1
100
AcDbEntity
8
1
62
256
6
ByLayer
370
13
48
1
60
0
100
AcDbLine
10
29.510516
20
6.206546
30
0
11
29.510516
21
6.007425
31
0
39
0
210
0
220
0
230
1
0
LINE
5
D2
100
AcDbEntity
8
1
62
256
6
ByLayer
370
13
48
1
60
0
100
AcDbLine
10
29.900117
20
6.468879
30
0
11
29.825664
21
6.468879
31
0
39
0
210
0
220
0
230
1
0
LINE
5
D3
100
AcDbEntity
8
1
62
256
6
ByLayer
370
13
48
1
60
0
100
AcDbLine
10
29.081077
20
7.874816
30
0
11
29.081077
21
7.96219
31
0
39
0
210
0
220
0
230
1
0
LINE
5
D4
100
AcDbEntity
8
1
62
256
6
ByLayer
370
13
48
1
60
0
100
AcDbLine
10
25.452289
20
6.802665
30
0
11
25.981712
21
6.802665
31
0
39
0
210
0
220
0
230
1
0
LINE
5
D5
100
AcDbEntity
8
1
62
256
6
ByLayer
370
13
48
1
60
0
100
AcDbLine
10
29.43976
20
7.988115
30
0
11
29.43976
21
7.843853
31
0
39
0
210
0
220
0
230
1
0
LINE
5
D6
100
AcDbEntity
8
1
62
256
6
ByLayer
370
13
48
1
60
0
100
AcDbLine
10
29.43976
20
6.011885
30
0
11
29.43976
21
6.156147
31
0
39
0
210
0
220
0
230
1
0
LINE
5
D7
100
AcDbEntity
8
1
62
256
6
ByLayer
370
13
48
1
60
0
100
AcDbLine
10
25.452289
20
7.197335
30
0
11
25.981712
21
7.197335
31
0
39
0
210
0
220
0
230
1
0
LINE
5
D8
100
AcDbEntity
8
1
62
256
6
ByLayer
370
13
48
1
60
0
100
AcDbLine
10
29.081077
20
6.125184
30
0
11
29.081077
21
6.03781
31
0
39
0
210
0
220
0
230
1
0
LINE
5
D9
100
AcDbEntity
8
1
62
256
6
ByLayer
370
13
48
1
60
0
100
AcDbLine
10
25.449075
20
6.799244
30
0
11
25.452289
21
6.802665
31
0
39
0
210
0
220
0
230
1
0
LINE
5
DA
100
AcDbEntity
8
1
62
256
6
ByLayer
370
13
48
1
60
0
100
AcDbLine
10
25.449075
20
7.200756
30
0
11
25.452289
21
7.197335
31
0
39
0
210
0
220
0
230
1
0
LINE
5
DB
100
AcDbEntity
8
1
62
256
6
ByLayer
370
13
48
1
60
0
100
AcDbLine
10
28.733781
20
7.866762
30
0
11
28.733781
21
7.938988
31
0
39
0
210
0
220
0
230
1
0
LINE
5
DC
100
AcDbEntity
8
1
62
256
6
ByLayer
370
13
48
1
60
0
100
AcDbLine
10
28.905243
20
6.349334
30
0
11
28.893977
21
6.646667
31
0
39
0
210
0
220
0
230
1
0
LINE
5
DD
100
AcDbEntity
8
1
62
256
6
ByLayer
370
13
48
1
60
0
100
AcDbLine
10
28.733781
20
6.133238
30
0
11
28.733781
21
6.061012
31
0
39
0
210
0
220
0
230
1
0
LINE
5
DE
100
AcDbEntity
8
1
62
256
6
ByLayer
370
13
48
1
60
0
100
AcDbLine
10
28.905243
20
7.650666
30
0
11
28.893977
21
7.353333
31
0
39
0
210
0
220
0
230
1
0
LINE
5
DF
100
AcDbEntity
8
1
62
256
6
ByLayer
370
13
48
1
60
0
100
AcDbLine
10
29.844165
20
6.65526
30
0
11
29.897026
21
6.65526
31
0
39
0
210
0
220
0
230
1
0
LINE
5
E0
100
AcDbEntity
8
1
62
256
6
ByLayer
370
13
48
1
60
0
100
AcDbLine
10
29.844165
20
7.34474
30
0
11
29.897026
21
7.34474
31
0
39
0
210
0
220
0
230
1
0
LINE
5
E1
100
AcDbEntity
8
1
62
256
6
ByLayer
370
13
48
1
60
0
100
AcDbLine
10
28.393977
20
6.650303
30
0
11
28.33288
21
6.344785
31
0
39
0
210
0
220
0
230
1
0
LINE
5
E2
100
AcDbEntity
8
1
62
256
6
ByLayer
370
13
48
1
60
0
100
AcDbLine
10
28.393977
20
7.349697
30
0
11
28.33288
21
7.655215
31
0
39
0
210
0
220
0
230
1
0
LINE
5
E3
100
AcDbEntity
8
1
62
256
6
ByLayer
370
13
48
1
60
0
100
AcDbLine
10
29.897026
20
6.65526
30
0
11
29.897026
21
7.34474
31
0
39
0
210
0
220
0
230
1
0
LINE
5
E4
100
AcDbEntity
8
1
62
256
6
ByLayer
370
13
48
1
60
0
100
AcDbLine
10
29.848038
20
6.496575
30
0
11
29.9
21
6.496575
31
0
39
0
210
0
220
0
230
1
0
LINE
5
E5
100
AcDbEntity
8
1
62
256
6
ByLayer
370
13
48
1
60
0
100
AcDbLine
10
9.57924
20
5.25
30
0
11
18.142449
21
5.25
31
0
39
0
210
0
220
0
230
1
0
LINE
5
E6
100
AcDbEntity
8
1
62
256
6
ByLayer
370
13
48
1
60
0
100
AcDbLine
10
29.848038
20
7.503425
30
0
11
29.9
21
7.503425
31
0
39
0
210
0
220
0
230
1
0
LINE
5
E7
100
AcDbEntity
8
1
62
256
6
ByLayer
370
13
48
1
60
0
100
AcDbLine
10
21.226482
20
7.8
30
0
11
21.197265
21
7.749996
31
0
39
0
210
0
220
0
230
1
0
LINE
5
E8
100
AcDbEntity
8
1
62
256
6
ByLayer
370
13
48
1
60
0
100
AcDbLine
10
25.315558
20
6.802665
30
0
11
25.452289
21
6.802665
31
0
39
0
210
0
220
0
230
1
0
LINE
5
E9
100
AcDbEntity
8
1
62
256
6
ByLayer
370
13
48
1
60
0
100
AcDbLine
10
28.893977
20
7.353333
30
0
11
28.893977
21
6.646667
31
0
39
0
210
0
220
0
230
1
0
LINE
5
EA
100
AcDbEntity
8
1
62
256
6
ByLayer
370
13
48
1
60
0
100
AcDbLine
10
21.632227
20
6.25
30
0
11
21.632227
21
6.2
31
0
39
0
210
0
220
0
230
1
0
LINE
5
EB
100
AcDbEntity
8
1
62
256
6
ByLayer
370
13
48
1
60
0
100
AcDbLine
10
29.844165
20
7.34474
30
0
11
29.844165
21
6.65526
31
0
39
0
210
0
220
0
230
1
0
LINE
5
EC
100
AcDbEntity
8
1
62
256
6
ByLayer
370
13
48
1
60
0
100
AcDbLine
10
25.315562
20
7.725438
30
0
11
25.3298
21
7.725438
31
0
39
0
210
0
220
0
230
1
0
LINE
5
ED
100
AcDbEntity
8
1
62
256
6
ByLayer
370
13
48
1
60
0
100
AcDbLine
10
25.332668
20
6.324016
30
0
11
25.31556
21
6.324016
31
0
39
0
210
0
220
0
230
1
0
LINE
5
EE
100
AcDbEntity
8
1
62
256
6
ByLayer
370
13
48
1
60
0
100
AcDbLine
10
29.504082
20
7.352129
30
0
11
29.504082
21
6.647871
31
0
39
0
210
0
220
0
230
1
0
LINE
5
EF
100
AcDbEntity
8
1
62
256
6
ByLayer
370
13
48
1
60
0
100
AcDbLine
10
25.315562
20
6.274562
30
0
11
25.3298
21
6.274562
31
0
39
0
210
0
220
0
230
1
0
LINE
5
F0
100
AcDbEntity
8
1
62
256
6
ByLayer
370
13
48
1
60
0
100
AcDbLine
10
21.632227
20
7.75
30
0
11
21.632227
21
7.8
31
0
39
0
210
0
220
0
230
1
0
LINE
5
F1
100
AcDbEntity
8
1
62
256
6
ByLayer
370
13
48
1
60
0
100
AcDbLine
10
25.332668
20
7.675984
30
0
11
25.31556
21
7.675984
31
0
39
0
210
0
220
0
230
1
0
LINE
5
F2
100
AcDbEntity
8
1
62
256
6
ByLayer
370
13
48
1
60
0
100
AcDbLine
10
25.315577
20
6.632002
30
0
11
25.369454
21
6.632002
31
0
39
0
210
0
220
0
230
1
0
LINE
5
F3
100
AcDbEntity
8
1
62
256
6
ByLayer
370
13
48
1
60
0
100
AcDbLine
10
28.393977
20
6.650303
30
0
11
28.393977
21
7
31
0
39
0
210
0
220
0
230
1
0
LINE
5
F4
100
AcDbEntity
8
1
62
256
6
ByLayer
370
13
48
1
60
0
100
AcDbLine
10
25.315577
20
7.367998
30
0
11
25.369454
21
7.367998
31
0
39
0
210
0
220
0
230
1
0
LINE
5
F5
100
AcDbEntity
8
1
62
256
6
ByLayer
370
13
48
1
60
0
100
AcDbLine
10
25.315557
20
6.748976
30
0
11
25.406367
21
6.748976
31
0
39
0
210
0
220
0
230
1
0
LINE
5
F6
100
AcDbEntity
8
1
62
256
6
ByLayer
370
13
48
1
60
0
100
AcDbLine
10
28.393977
20
7.349697
30
0
11
28.393977
21
7
31
0
39
0
210
0
220
0
230
1
0
LINE
5
F7
100
AcDbEntity
8
1
62
256
6
ByLayer
370
13
48
1
60
0
100
AcDbLine
10
25.315557
20
7.251024
30
0
11
25.406367
21
7.251024
31
0
39
0
210
0
220
0
230
1
0
LINE
5
F8
100
AcDbEntity
8
1
62
256
6
ByLayer
370
13
48
1
60
0
100
AcDbLine
10
25.315556
20
7.200756
30
0
11
25.449075
21
7.200756
31
0
39
0
210
0
220
0
230
1
0
LINE
5
F9
100
AcDbEntity
8
1
62
256
6
ByLayer
370
13
48
1
60
0
100
AcDbLine
10
25.315556
20
6.799244
30
0
11
25.449075
21
6.799244
31
0
39
0
210
0
220
0
230
1
0
LINE
5
FA
100
AcDbEntity
8
1
62
256
6
ByLayer
370
13
48
1
60
0
100
AcDbLine
10
21.226482
20
6.2
30
0
11
21.197265
21
6.250004
31
0
39
0
210
0
220
0
230
1
0
LINE
5
FB
100
AcDbEntity
8
1
62
256
6
ByLayer
370
13
48
1
60
0
100
AcDbLine
10
25.315558
20
7.197335
30
0
11
25.452289
21
7.197335
31
0
39
0
210
0
220
0
230
1
0
LINE
5
FC
100
AcDbEntity
8
1
62
256
6
ByLayer
370
18
48
1
60
0
100
AcDbLine
10
25.315611
20
7.75
30
0
11
21.190738
21
7.75
31
0
39
0
210
0
220
0
230
1
0
LINE
5
FD
100
AcDbEntity
8
1
62
256
6
ByLayer
370
18
48
1
60
0
100
AcDbLine
10
21.190738
20
6.25
30
0
11
16.190738
21
6.25
31
0
39
0
210
0
220
0
230
1
0
LINE
5
FE
100
AcDbEntity
8
1
62
256
6
ByLayer
370
18
48
1
60
0
100
AcDbLine
10
21.190738
20
7.75
30
0
11
16.190738
21
7.75
31
0
39
0
210
0
220
0
230
1
0
LINE
5
FF
100
AcDbEntity
8
1
62
256
6
ByLayer
370
18
48
1
60
0
100
AcDbLine
10
16.190738
20
6.25
30
0
11
7.6
21
6.25
31
0
39
0
210
0
220
0
230
1
0
LINE
5
100
100
AcDbEntity
8
1
62
256
6
ByLayer
370
18
48
1
60
0
100
AcDbLine
10
16.190738
20
7.75
30
0
11
1.71858
21
7.75
31
0
39
0
210
0
220
0
230
1
0
LINE
5
101
100
AcDbEntity
8
1
62
256
6
ByLayer
370
18
48
1
60
0
100
AcDbLine
10
25.315611
20
6.25
30
0
11
21.190738
21
6.25
31
0
39
0
210
0
220
0
230
1
0
LINE
5
102
100
AcDbEntity
8
1
62
256
6
ByLayer
370
18
48
1
60
0
100
AcDbLine
10
9.57924
20
5.25
30
0
11
9.57924
21
-4.241697
31
0
39
0
210
0
220
0
230
1
0
LINE
5
103
100
AcDbEntity
8
1
62
256
6
ByLayer
370
18
48
1
60
0
100
AcDbLine
10
6.6
20
-5.779891
30
0
11
6.6
21
5.25
31
0
39
0
210
0
220
0
230
1
0
LINE
5
104
100
AcDbEntity
8
1
62
256
6
ByLayer
370
18
48
1
60
0
100
AcDbLine
10
25.315611
20
6.25
30
0
11
25.315611
21
7.75
31
0
39
0
210
0
220
0
230
1
0
LINE
5
105
100
AcDbEntity
8
1
62
256
6
ByLayer
370
18
48
1
60
0
100
AcDbLine
10
1.71858
20
-8
30
0
11
1.71858
21
7.75
31
0
39
0
210
0
220
0
230
1
0
LINE
5
106
100
AcDbEntity
8
1
62
256
6
ByLayer
370
18
48
1
60
0
100
AcDbLine
10
-95.1
20
-8
30
0
11
-95.1
21
7.9
31
0
39
0
210
0
220
0
230
1
0
LINE
5
107
100
AcDbEntity
8
1
62
256
6
ByLayer
370
18
48
1
60
0
100
AcDbLine
10
1.71858
20
7.75
30
0
11
0.917758
21
7.75
31
0
39
0
210
0
220
0
230
1
0
LINE
5
108
100
AcDbEntity
8
1
62
256
6
ByLayer
370
18
48
1
60
0
100
AcDbLine
10
0.917758
20
7.75
30
0
11
-0.4
21
7.75
31
0
39
0
210
0
220
0
230
1
0
LINE
5
109
100
AcDbEntity
8
1
62
256
6
ByLayer
370
18
48
1
60
0
100
AcDbLine
10
-95.1
20
7.9
30
0
11
-0.926783
21
7.9
31
0
39
0
210
0
220
0
230
1
0
LINE
5
10A
100
AcDbEntity
8
1
62
256
6
ByLayer
370
18
48
1
60
0
100
AcDbLine
10
-95.1
20
-8
30
0
11
-0.627723
21
-8
31
0
39
0
210
0
220
0
230
1
0
LINE
5
10B
100
AcDbEntity
8
1
62
256
6
ByLayer
370
18
48
1
60
0
100
AcDbLine
10
2.3
20
-8
30
0
11
1.71858
21
-8
31
0
39
0
210
0
220
0
230
1
0
LINE
5
10C
100
AcDbEntity
8
1
62
256
6
ByLayer
370
18
48
1
60
0
100
AcDbLine
10
-0.627723
20
-8
30
0
11
0.917758
21
-8
31
0
39
0
210
0
220
0
230
1
0
LINE
5
10D
100
AcDbEntity
8
1
62
256
6
ByLayer
370
18
48
1
60
0
100
AcDbLine
10
0.917758
20
-8
30
0
11
1.71858
21
-8
31
0
39
0
210
0
220
0
230
1
0
LINE
5
10E
100
AcDbEntity
8
1
62
256
6
ByLayer
370
18
48
1
60
0
100
AcDbLine
10
18.142449
20
0.179525
30
0
11
18.142449
21
5.25
31
0
39
0
210
0
220
0
230
1
0
LINE
5
10F
100
AcDbEntity
8
1
62
256
6
ByLayer
370
18
48
1
60
0
100
AcDbLine
10
18.142449
20
0.179525
30
0
11
9.57924
21
-4.241697
31
0
39
0
210
0
220
0
230
1
0
LINE
5
110
100
AcDbEntity
8
1
62
256
6
ByLayer
370
18
48
1
60
0
100
AcDbLine
10
9.57924
20
-4.241697
30
0
11
6.6
21
-5.779891
31
0
39
0
210
0
220
0
230
1
0
LINE
5
111
100
AcDbEntity
8
1
62
256
6
ByLayer
370
18
48
1
60
0
100
AcDbLine
10
6.6
20
-5.779891
30
0
11
2.3
21
-8
31
0
39
0
210
0
220
0
230
1
0
LINE
5
112
100
AcDbEntity
8
1
62
256
6
ByLayer
370
18
48
1
60
0
100
AcDbLine
10
26.848426
20
7.840541
30
0
11
26.825177
21
7.827118
31
0
39
0
210
0
220
0
230
1
0
LINE
5
113
100
AcDbEntity
8
1
62
256
6
ByLayer
370
18
48
1
60
0
100
AcDbLine
10
26.609679
20
7.8
30
0
11
26.72387
21
7.8
31
0
39
0
210
0
220
0
230
1
0
LINE
5
114
100
AcDbEntity
8
1
62
256
6
ByLayer
370
18
48
1
60
0
100
AcDbLine
10
21.226482
20
6.2
30
0
11
21.396254
21
6.2
31
0
39
0
210
0
220
0
230
1
0
LINE
5
115
100
AcDbEntity
8
1
62
256
6
ByLayer
370
18
48
1
60
0
100
AcDbLine
10
29.642758
20
7.999699
30
0
11
29.510516
21
7.992575
31
0
39
0
210
0
220
0
230
1
0
LINE
5
116
100
AcDbEntity
8
1
62
256
6
ByLayer
370
18
48
1
60
0
100
AcDbLine
10
26.609679
20
7.8
30
0
11
26.558376
21
7.8
31
0
39
0
210
0
220
0
230
1
0
LINE
5
117
100
AcDbEntity
8
1
62
256
6
ByLayer
370
18
48
1
60
0
100
AcDbLine
10
28.433781
20
6.07944
30
0
11
28.733781
21
6.061012
31
0
39
0
210
0
220
0
230
1
0
LINE
5
118
100
AcDbEntity
8
1
62
256
6
ByLayer
370
18
48
1
60
0
100
AcDbLine
10
29.900117
20
7.531121
30
0
11
29.901941
21
7.74676
31
0
39
0
210
0
220
0
230
1
0
LINE
5
119
100
AcDbEntity
8
1
62
256
6
ByLayer
370
18
48
1
60
0
100
AcDbLine
10
20.15
20
6.2
30
0
11
20.565685
21
6.2
31
0
39
0
210
0
220
0
230
1
0
LINE
5
11A
100
AcDbEntity
8
1
62
256
6
ByLayer
370
18
48
1
60
0
100
AcDbLine
10
20.565685
20
6.2
30
0
11
21.226482
21
6.2
31
0
39
0
210
0
220
0
230
1
0
LINE
5
11B
100
AcDbEntity
8
1
62
256
6
ByLayer
370
18
48
1
60
0
100
AcDbLine
10
26.936053
20
6.133086
30
0
11
27.065017
21
6.125199
31
0
39
0
210
0
220
0
230
1
0
LINE
5
11C
100
AcDbEntity
8
1
62
256
6
ByLayer
370
18
48
1
60
0
100
AcDbLine
10
29.081077
20
6.03781
30
0
11
29.43976
21
6.011885
31
0
39
0
210
0
220
0
230
1
0
LINE
5
11D
100
AcDbEntity
8
1
62
256
6
ByLayer
370
18
48
1
60
0
100
AcDbLine
10
25.611215
20
7.8
30
0
11
25.3298
21
7.8
31
0
39
0
210
0
220
0
230
1
0
LINE
5
11E
100
AcDbEntity
8
1
62
256
6
ByLayer
370
18
48
1
60
0
100
AcDbLine
10
26.558376
20
6.2
30
0
11
25.687198
21
6.2
31
0
39
0
210
0
220
0
230
1
0
LINE
5
11F
100
AcDbEntity
8
1
62
256
6
ByLayer
370
18
48
1
60
0
100
AcDbLine
10
29.43976
20
7.988115
30
0
11
29.081077
21
7.96219
31
0
39
0
210
0
220
0
230
1
0
LINE
5
120
100
AcDbEntity
8
1
62
256
6
ByLayer
370
18
48
1
60
0
100
AcDbLine
10
29.510516
20
6.007425
30
0
11
29.642758
21
6.000301
31
0
39
0
210
0
220
0
230
1
0
LINE
5
121
100
AcDbEntity
8
1
62
256
6
ByLayer
370
18
48
1
60
0
100
AcDbLine
10
25.3298
20
6.2
30
0
11
25.611215
21
6.2
31
0
39
0
210
0
220
0
230
1
0
LINE
5
122
100
AcDbEntity
8
1
62
256
6
ByLayer
370
18
48
1
60
0
100
AcDbLine
10
28.733781
20
7.938988
30
0
11
28.433781
21
7.92056
31
0
39
0
210
0
220
0
230
1
0
LINE
5
123
100
AcDbEntity
8
1
62
256
6
ByLayer
370
18
48
1
60
0
100
AcDbLine
10
25.687198
20
7.8
30
0
11
25.611215
21
7.8
31
0
39
0
210
0
220
0
230
1
0
LINE
5
124
100
AcDbEntity
8
1
62
256
6
ByLayer
370
18
48
1
60
0
100
AcDbLine
10
26.72387
20
6.2
30
0
11
26.609679
21
6.2
31
0
39
0
210
0
220
0
230
1
0
LINE
5
125
100
AcDbEntity
8
1
62
256
6
ByLayer
370
18
48
1
60
0
100
AcDbLine
10
21.226482
20
7.8
30
0
11
20.565685
21
7.8
31
0
39
0
210
0
220
0
230
1
0
LINE
5
126
100
AcDbEntity
8
1
62
256
6
ByLayer
370
18
48
1
60
0
100
AcDbLine
10
26.558376
20
6.2
30
0
11
26.609679
21
6.2
31
0
39
0
210
0
220
0
230
1
0
LINE
5
127
100
AcDbEntity
8
1
62
256
6
ByLayer
370
18
48
1
60
0
100
AcDbLine
10
27.278462
20
6.117544
30
0
11
27.37312
21
6.117555
31
0
39
0
210
0
220
0
230
1
0
LINE
5
128
100
AcDbEntity
8
1
62
256
6
ByLayer
370
18
48
1
60
0
100
AcDbLine
10
21.632227
20
7.8
30
0
11
21.446632
21
7.8
31
0
39
0
210
0
220
0
230
1
0
LINE
5
129
100
AcDbEntity
8
1
62
256
6
ByLayer
370
18
48
1
60
0
100
AcDbLine
10
25.687198
20
7.8
30
0
11
26.558376
21
7.8
31
0
39
0
210
0
220
0
230
1
0
LINE
5
12A
100
AcDbEntity
8
1
62
256
6
ByLayer
370
18
48
1
60
0
100
AcDbLine
10
20.565685
20
7.8
30
0
11
20.15
21
7.8
31
0
39
0
210
0
220
0
230
1
0
LINE
5
12B
100
AcDbEntity
8
1
62
256
6
ByLayer
370
18
48
1
60
0
100
AcDbLine
10
26.825177
20
6.172882
30
0
11
26.848426
21
6.159459
31
0
39
0
210
0
220
0
230
1
0
LINE
5
12C
100
AcDbEntity
8
1
62
256
6
ByLayer
370
18
48
1
60
0
100
AcDbLine
10
27.37312
20
7.882445
30
0
11
27.278462
21
7.882456
31
0
39
0
210
0
220
0
230
1
0
LINE
5
12D
100
AcDbEntity
8
1
62
256
6
ByLayer
370
18
48
1
60
0
100
AcDbLine
10
21.396254
20
7.8
30
0
11
21.226482
21
7.8
31
0
39
0
210
0
220
0
230
1
0
LINE
5
12E
100
AcDbEntity
8
1
62
256
6
ByLayer
370
18
48
1
60
0
100
AcDbLine
10
29.901941
20
6.25324
30
0
11
29.900117
21
6.468879
31
0
39
0
210
0
220
0
230
1
0
LINE
5
12F
100
AcDbEntity
8
1
62
256
6
ByLayer
370
18
48
1
60
0
100
AcDbLine
10
25.611215
20
6.2
30
0
11
25.687198
21
6.2
31
0
39
0
210
0
220
0
230
1
0
LINE
5
130
100
AcDbEntity
8
1
62
256
6
ByLayer
370
18
48
1
60
0
100
AcDbLine
10
25.3298
20
7.8
30
0
11
21.632227
21
7.8
31
0
39
0
210
0
220
0
230
1
0
LINE
5
131
100
AcDbEntity
8
1
62
256
6
ByLayer
370
18
48
1
60
0
100
AcDbLine
10
21.632227
20
6.2
30
0
11
25.3298
21
6.2
31
0
39
0
210
0
220
0
230
1
0
LINE
5
132
100
AcDbEntity
8
1
62
256
6
ByLayer
370
18
48
1
60
0
100
AcDbLine
10
27.065017
20
7.874801
30
0
11
26.936053
21
7.866914
31
0
39
0
210
0
220
0
230
1
0
LINE
5
133
100
AcDbEntity
8
1
62
256
6
ByLayer
370
18
48
1
60
0
100
AcDbLine
10
29.9
20
6.496575
30
0
11
29.9
21
7.503425
31
0
39
0
210
0
220
0
230
1
0
LINE
5
134
100
AcDbEntity
8
1
62
256
6
ByLayer
370
18
48
1
60
0
100
AcDbLine
10
21.446632
20
6.2
30
0
11
21.632227
21
6.2
31
0
39
0
210
0
220
0
230
1
0
LINE
5
135
100
AcDbEntity
8
SK2
62
256
6
ByLayer
370
13
48
1
60
0
100
AcDbLine
10
-104.7
20
8
30
0
11
-104.7
21
-8
31
0
39
0
210
0
220
0
230
1
0
LINE
5
137
100
AcDbEntity
8
SK2
62
256
6
ByLayer
370
13
48
1
60
0
100
AcDbLine
10
-97.1
20
-8
30
0
11
-106.7
21
-8
31
0
39
0
210
0
220
0
230
1
0
LINE
5
138
100
AcDbEntity
8
SK2
62
256
6
ByLayer
370
13
48
1
60
0
100
AcDbLine
10
-97.1
20
8
30
0
11
-106.7
21
8
31
0
39
0
210
0
220
0
230
1
0
LINE
5
139
100
AcDbEntity
8
SK2
62
256
6
ByLayer
370
18
48
1
60
0
100
AcDbLine
10
-104.7
20
-8
30
0
11
-105.117997
21
-4.825002
31
0
39
0
210
0
220
0
230
1
0
LINE
5
13A
100
AcDbEntity
8
SK2
62
256
6
ByLayer
370
18
48
1
60
0
100
AcDbLine
10
-104.7
20
-8
30
0
11
-104.282003
21
-4.824998
31
0
39
0
210
0
220
0
230
1
0
LINE
5
13B
100
AcDbEntity
8
SK2
62
256
6
ByLayer
370
18
48
1
60
0
100
AcDbLine
10
-105.117997
20
-4.825002
30
0
11
-104.282003
21
-4.824998
31
0
39
0
210
0
220
0
230
1
0
LINE
5
13C
100
AcDbEntity
8
SK2
62
256
6
ByLayer
370
18
48
1
60
0
100
AcDbLine
10
-104.7
20
8
30
0
11
-104.282003
21
4.825002
31
0
39
0
210
0
220
0
230
1
0
LINE
5
13D
100
AcDbEntity
8
SK2
62
256
6
ByLayer
370
18
48
1
60
0
100
AcDbLine
10
-104.7
20
8
30
0
11
-105.117997
21
4.824998
31
0
39
0
210
0
220
0
230
1
0
LINE
5
13E
100
AcDbEntity
8
SK2
62
256
6
ByLayer
370
18
48
1
60
0
100
AcDbLine
10
-104.282003
20
4.825002
30
0
11
-105.117997
21
4.824998
31
0
39
0
210
0
220
0
230
1
0
MTEXT
5
22D
100
AcDbEntity
8
SK6
62
256
6
ByLayer
370
18
48
1
60
0
100
AcDbMText
10
-64.225
20
-50.874976
30
0
210
0
220
0
230
1
1
\W0.7377;QD-RFE20-1616S
40
3.5
41
0
44
1.084337
50
0
71
7
72
5
7
iso_b_vert
0
MTEXT
5
231
100
AcDbEntity
8
SK2
62
256
6
ByLayer
370
18
48
1
60
0
100
AcDbMText
10
-105.575
20
-0.732237
30
0
210
0
220
0
230
1
1
\W0.5321;16
40
3.5
41
0
44
1.084337
50
89.9999999999999
71
7
72
5
7
iso_b_vert
0
DIMENSION
5
240
100
AcDbEntity
8
2
62
256
6
ByLayer
370
13
48
1
60
0
100
AcDbDimension
2
DimnDraft3D1
10
55
20
8
30
0
11
55
21
-1.653289
31
0
70
32
71
5
72
1
41
1
210
0
220
0
230
1
3
Standard
100
AcDbAlignedDimension
13
11.9
23
-8
33
0
14
31.9
24
8
34
0
50
90
100
AcDbRotatedDimension
1001
ACAD
1000
DSTYLE
1002
{
1070
    74
1070
     0
1070
   279
1070
     0
1070
   172
1070
     1
1070
   173
1070
     1
1070
   340
1005
22E
1070
   271
1070
     1
1070
    77
1070
     1
1070
    73
1070
     0
1070
   171
1070
     3
1070
   274
1070
     4
1070
   177
1070
     2
1070
   176
1070
     2
1070
   178
1070
     7
1070
    78
1070
     8
1070
    41
1041
3.175
1070
   147
1041
1.75
1070
    42
1041
2.0
1070
    44
1041
2.0
1070
   140
1041
3.5
1070
   343
1005
241
1070
   344
1005
241
1002
}
0
DIMENSION
5
255
100
AcDbEntity
8
SK2
62
256
6
ByLayer
370
13
48
1
60
0
100
AcDbDimension
2
DimnDraft3D2
10
29.9
20
30.600049
30
0
11
-35.561184
21
30.600049
31
0
70
32
71
5
72
1
41
1
210
0
220
0
230
1
3
Standard
100
AcDbAlignedDimension
13
-95.1
23
-6
33
0
14
29.9
24
10
34
0
50
0
100
AcDbRotatedDimension
1001
ACAD
1000
DSTYLE
1002
{
1070
   279
1070
     0
1070
   172
1070
     1
1070
   173
1070
     1
1070
   340
1005
22E
1070
   271
1070
     1
1070
    77
1070
     1
1070
    73
1070
     0
1070
   171
1070
     3
1070
   274
1070
     4
1070
   177
1070
     2
1070
   176
1070
     2
1070
   178
1070
     7
1070
    78
1070
     8
1070
    41
1041
3.175
1070
   147
1041
1.75
1070
    42
1041
2.0
1070
    44
1041
2.0
1070
   140
1041
3.5
1070
   343
1005
241
1070
   344
1005
241
1002
}
0
DIMENSION
5
263
100
AcDbEntity
8
2
62
256
6
ByLayer
370
13
48
1
60
0
100
AcDbDimension
2
DimnDraft3D3
10
29.9
20
24.600049
30
0
11
10.842105
21
24.600049
31
0
70
32
71
5
72
1
41
1
210
0
220
0
230
1
3
Standard
100
AcDbAlignedDimension
13
0
23
10
33
0
14
29.9
24
10
34
0
50
0
100
AcDbRotatedDimension
1001
ACAD
1000
DSTYLE
1002
{
1070
   279
1070
     0
1070
   172
1070
     1
1070
   173
1070
     1
1070
   340
1005
22E
1070
   271
1070
     1
1070
    77
1070
     1
1070
    73
1070
     0
1070
   171
1070
     3
1070
   274
1070
     4
1070
   177
1070
     2
1070
   176
1070
     2
1070
   178
1070
     7
1070
    78
1070
     8
1070
    41
1041
3.175
1070
   147
1041
1.75
1070
    42
1041
2.0
1070
    44
1041
2.0
1070
   140
1041
3.5
1070
   343
1005
241
1070
   344
1005
241
1002
}
0
DIMENSION
5
271
100
AcDbEntity
8
2
62
256
6
ByLayer
370
13
48
1
60
0
100
AcDbDimension
2
DimnDraft3D4
10
9.9
20
-21.1
30
0
11
17.809211
21
-21.1
31
0
70
32
71
5
72
1
41
1
210
0
220
0
230
1
3
Standard
100
AcDbAlignedDimension
13
29.9
23
6
33
0
14
9.9
24
-10
34
0
50
0
100
AcDbRotatedDimension
1001
ACAD
1000
DSTYLE
1002
{
1070
   279
1070
     0
1070
   172
1070
     1
1070
   173
1070
     1
1070
   340
1005
22E
1070
   271
1070
     1
1070
    77
1070
     1
1070
    73
1070
     0
1070
   171
1070
     3
1070
   274
1070
     4
1070
   177
1070
     2
1070
   176
1070
     2
1070
   178
1070
     7
1070
    78
1070
     8
1070
    41
1041
3.175
1070
   147
1041
1.75
1070
    42
1041
2.0
1070
    44
1041
2.0
1070
   140
1041
3.5
1070
   343
1005
241
1070
   344
1005
241
1002
}
0
DIMENSION
5
27F
100
AcDbEntity
8
2
62
256
6
ByLayer
370
13
48
1
60
0
100
AcDbDimension
2
DimnDraft3D5
10
48
20
6
30
0
11
48
21
-5.820789
31
0
70
32
71
5
72
1
41
1
210
0
220
0
230
1
3
Standard
100
AcDbAlignedDimension
13
31.9
23
8
33
0
14
31.9
24
6
34
0
50
90
100
AcDbRotatedDimension
1001
ACAD
1000
DSTYLE
1002
{
1070
    74
1070
     0
1070
   279
1070
     0
1070
   172
1070
     1
1070
   173
1070
     1
1070
   340
1005
22E
1070
   271
1070
     1
1070
    77
1070
     1
1070
    73
1070
     0
1070
   171
1070
     3
1070
   274
1070
     4
1070
   177
1070
     2
1070
   176
1070
     2
1070
   178
1070
     7
1070
    78
1070
     8
1070
    41
1041
3.175
1070
   147
1041
1.75
1070
    42
1041
2.0
1070
    44
1041
2.0
1070
   140
1041
3.5
1070
   343
1005
241
1070
   344
1005
241
1002
}
0
ENDSEC
0
SECTION
2
OBJECTS
0
DICTIONARY
5
2e9
330
0
100
AcDbDictionary
280
0
281
1
3
ACAD_GROUP
350
2ea
3
ACAD_MLINESTYLE
350
2eb
0
DICTIONARY
5
2ea
330
0
100
AcDbDictionary
280
0
281
1
0
DICTIONARY
5
2eb
330
0
100
AcDbDictionary
280
0
281
1
3
Standard
350
18
0
MLINESTYLE
5
18
330
2eb
100
AcDbMlineStyle
2
Standard
70
0
3

62
256
51
90
52
90
71
2
49
-0.5
62
256
6
ByLayer
49
0.5
62
256
6
ByLayer
0
RASTERVARIABLES
5
2d8
330

100
AcDbRasterVariables
90
0
70
1
71
1
72
1
0
ENDSEC
0
EOF
