0
SECTION
2
HEADER
9
$ACADVER
1
AC1015
9
$DWGCODEPAGE
3
ANSI_1252
9
$HANDSEED
5
298
9
$ANGBASE
50
0
9
$ANGDIR
70
0
9
$ATTMODE
70
1
9
$AUNITS
70
0
9
$AUPREC
70
0
9
$CECOLOR
62
256
9
$CELTSCALE
40
1
9
$CELTYPE
6
ByLayer
9
$CELWEIGHT
370
18
9
$CLAYER
8
0
9
$CMLJUST
70
0
9
$CMLSCALE
40
1
9
$CMLSTYLE
2
Standard
9
$DIMSTYLE
2
Standard
9
$TEXTSIZE
40
0.2
9
$TEXTSTYLE
7
Standard
9
$LUNITS
70
2
9
$LUPREC
70
4
9
$EXTNAMES
290
1
9
$INSUNITS
70
4
9
$LTSCALE
40
1
9
$LWDISPLAY
290
1
9
$PDMODE
70
0
9
$PDSIZE
40
0
9
$PLINEGEN
70
0
0
ENDSEC
0
SECTION
2
CLASSES
0
CLASS
1
RASTERVARIABLES
2
AcDbRasterVariables
3
ISM
90
0
280
0
281
0
0
ENDSEC
0
SECTION
2
TABLES
0
TABLE
2
VPORT
5
28e
100
AcDbSymbolTable
0
VPORT
5
1
100
AcDbSymbolTableRecord
100
AcDbViewportTableRecord
2
*Active
70
0
10
0
20
0
11
1
21
1
12
-1
22
1
13
0
23
0
14
0.5
24
0.5
15
10
25
10
16
0
26
0
36
1
17
0
27
0
37
0
0
ENDTAB
0
TABLE
2
LTYPE
5
28f
100
AcDbSymbolTable
0
LTYPE
5
14
100
AcDbSymbolTableRecord
100
AcDbLinetypeTableRecord
70
0
2
ByBlock
3

72
65
73
0
40
0
0
LTYPE
5
15
100
AcDbSymbolTableRecord
100
AcDbLinetypeTableRecord
70
0
2
ByLayer
3

72
65
73
0
40
0
0
LTYPE
5
16
100
AcDbSymbolTableRecord
100
AcDbLinetypeTableRecord
70
0
2
CONTINUOUS
3
Solid line
72
65
73
0
40
0
0
LTYPE
5
6A
100
AcDbSymbolTableRecord
100
AcDbLinetypeTableRecord
70
0
2
CENTER
3
____ _ ____ _ ____ _ ____
72
65
73
4
40
47.5
49
22
74
0
49
-8.5
74
0
49
8.5
74
0
49
-8.5
74
0
0
LTYPE
5
6B
100
AcDbSymbolTableRecord
100
AcDbLinetypeTableRecord
70
0
2
DASHED
3
__ __ __ __ __ __ __ __ __
72
65
73
2
40
25.72
49
12.86
74
0
49
-12.86
74
0
0
ENDTAB
0
TABLE
2
LAYER
5
290
100
AcDbSymbolTable
0
LAYER
5
10
100
AcDbSymbolTableRecord
100
AcDbLayerTableRecord
2
0
70
0
62
7
6
CONTINUOUS
290
1
370
-3
390
0
0
LAYER
5
6D
100
AcDbSymbolTableRecord
100
AcDbLayerTableRecord
2
81
70
0
62
-3
6
CONTINUOUS
290
1
370
-3
390
0
0
LAYER
5
6F
100
AcDbSymbolTableRecord
100
AcDbLayerTableRecord
2
80
70
0
62
-6
6
CONTINUOUS
290
1
370
-3
390
0
0
LAYER
5
73
100
AcDbSymbolTableRecord
100
AcDbLayerTableRecord
2
1
70
0
62
4
6
CONTINUOUS
290
1
370
-3
390
0
0
LAYER
5
EE
100
AcDbSymbolTableRecord
100
AcDbLayerTableRecord
2
2
70
0
62
7
6
CONTINUOUS
290
1
370
-3
390
0
0
LAYER
5
27b
100
AcDbSymbolTableRecord
100
AcDbLayerTableRecord
2
SK1
70
0
62
4
6
CONTINUOUS
290
1
370
-3
390
0
0
LAYER
5
27c
100
AcDbSymbolTableRecord
100
AcDbLayerTableRecord
2
SK2
70
0
62
7
6
CONTINUOUS
290
1
370
-3
390
0
0
LAYER
5
27d
100
AcDbSymbolTableRecord
100
AcDbLayerTableRecord
2
SK6
70
0
62
5
6
CONTINUOUS
290
1
370
-3
390
0
0
ENDTAB
0
TABLE
2
STYLE
5
291
100
AcDbSymbolTable
0
STYLE
5
11
100
AcDbSymbolTableRecord
100
AcDbTextStyleTableRecord
2
Standard
3
txt
70
0
71
0
40
0
41
1
42
0
50
0
0
STYLE
5
1FA
100
AcDbSymbolTableRecord
100
AcDbTextStyleTableRecord
2
iso_b_vert
3
simplex.shx
70
0
71
0
40
0
41
1
42
0
50
0
0
STYLE
5
1FB
100
AcDbSymbolTableRecord
100
AcDbTextStyleTableRecord
2
DWGDirectTextStyle
3
simplex
70
0
71
0
40
0
41
1
42
0
50
0
0
ENDTAB
0
TABLE
2
DIMSTYLE
5
292
100
AcDbSymbolTable
100
AcDbDimStyleTable
0
DIMSTYLE
105
27
100
AcDbSymbolTableRecord
100
AcDbDimStyleTableRecord
2
Standard
70
0
3
<>
41
0.18
42
0.0625
44
0.18
140
0.18
147
0.09
73
0
74
0
77
1
271
2
275
0
278
52
280
0
340
11
0
ENDTAB
0
TABLE
2
VIEW
5
293
100
AcDbSymbolTable
0
ENDTAB
0
TABLE
2
UCS
5
294
100
AcDbSymbolTable
0
ENDTAB
0
TABLE
2
APPID
5
295
100
AcDbSymbolTable
0
APPID
5
12
100
AcDbSymbolTableRecord
100
AcDbRegAppTableRecord
2
ACAD
70
0
0
ENDTAB
0
TABLE
2
BLOCK_RECORD
5
296
100
AcDbSymbolTable
0
BLOCK_RECORD
5
1F
100
AcDbSymbolTableRecord
100
AcDbBlockTableRecord
2
*Model_Space
340
0
70
0
0
BLOCK_RECORD
5
1B
100
AcDbSymbolTableRecord
100
AcDbBlockTableRecord
2
*Paper_Space
340
0
70
0
0
BLOCK_RECORD
5
23
100
AcDbSymbolTableRecord
100
AcDbBlockTableRecord
2
*Paper_Space0
340
0
70
0
0
BLOCK_RECORD
5
1FF
100
AcDbSymbolTableRecord
100
AcDbBlockTableRecord
2
DimnDraft3D1
340
0
70
0
0
BLOCK_RECORD
5
20D
100
AcDbSymbolTableRecord
100
AcDbBlockTableRecord
2
_CLOSED
340
0
70
0
0
BLOCK_RECORD
5
214
100
AcDbSymbolTableRecord
100
AcDbBlockTableRecord
2
DimnDraft3D2
340
0
70
0
0
ENDTAB
0
ENDSEC
0
SECTION
2
BLOCKS
0
BLOCK
5
20
100
AcDbEntity
8
0
100
AcDbBlockBegin
2
*Model_Space
70
0
10
0
20
0
30
0
3
*Model_Space
0
ENDBLK
5
21
100
AcDbEntity
8
0
100
AcDbBlockEnd
0
BLOCK
5
1C
100
AcDbEntity
8
0
100
AcDbBlockBegin
2
*Paper_Space
70
0
10
0
20
0
30
0
3
*Paper_Space
0
ENDBLK
5
1D
100
AcDbEntity
8
0
100
AcDbBlockEnd
0
BLOCK
5
24
100
AcDbEntity
8
0
100
AcDbBlockBegin
2
*Paper_Space0
70
0
10
0
20
0
30
0
3
*Paper_Space0
0
ENDBLK
5
25
100
AcDbEntity
8
0
100
AcDbBlockEnd
0
BLOCK
5
20A
100
AcDbEntity
8
0
100
AcDbBlockBegin
2
DimnDraft3D1
70
0
10
0
20
0
30
0
3
DimnDraft3D1
0
MTEXT
5
200
100
AcDbEntity
8
SK2
62
256
6
ByLayer
370
18
48
1
60
0
100
AcDbMText
10
-35.023684
20
23.814079
30
0
210
0
220
0
230
1
1
\W0.7138;225
40
3.5
41
0
44
1.084337
50
0
71
7
72
5
7
iso_b_vert
0
LINE
5
201
100
AcDbEntity
8
SK2
62
256
6
ByLayer
370
13
48
1
60
0
100
AcDbLine
10
-145
20
-2.35
30
0
11
-145
21
24.939079
31
0
39
0
210
0
220
0
230
1
0
LINE
5
202
100
AcDbEntity
8
SK2
62
256
6
ByLayer
370
13
48
1
60
0
100
AcDbLine
10
80
20
2
30
0
11
80
21
24.939079
31
0
39
0
210
0
220
0
230
1
0
LINE
5
203
100
AcDbEntity
8
SK2
62
256
6
ByLayer
370
13
48
1
60
0
100
AcDbLine
10
-145
20
22.939079
30
0
11
80
21
22.939079
31
0
39
0
210
0
220
0
230
1
0
LINE
5
204
100
AcDbEntity
8
SK2
62
256
6
ByLayer
370
13
48
1
60
0
100
AcDbLine
10
-145
20
22.939079
30
0
11
-141.825002
21
23.357076
31
0
39
0
210
0
220
0
230
1
0
LINE
5
205
100
AcDbEntity
8
SK2
62
256
6
ByLayer
370
13
48
1
60
0
100
AcDbLine
10
-145
20
22.939079
30
0
11
-141.824998
21
22.521083
31
0
39
0
210
0
220
0
230
1
0
LINE
5
206
100
AcDbEntity
8
SK2
62
256
6
ByLayer
370
13
48
1
60
0
100
AcDbLine
10
-141.825002
20
23.357076
30
0
11
-141.824998
21
22.521083
31
0
39
0
210
0
220
0
230
1
0
LINE
5
207
100
AcDbEntity
8
SK2
62
256
6
ByLayer
370
13
48
1
60
0
100
AcDbLine
10
80
20
22.939079
30
0
11
76.825002
21
22.521083
31
0
39
0
210
0
220
0
230
1
0
LINE
5
208
100
AcDbEntity
8
SK2
62
256
6
ByLayer
370
13
48
1
60
0
100
AcDbLine
10
80
20
22.939079
30
0
11
76.824998
21
23.357076
31
0
39
0
210
0
220
0
230
1
0
LINE
5
209
100
AcDbEntity
8
SK2
62
256
6
ByLayer
370
13
48
1
60
0
100
AcDbLine
10
76.825002
20
22.521083
30
0
11
76.824998
21
23.357076
31
0
39
0
210
0
220
0
230
1
0
ENDBLK
5
20B
100
AcDbEntity
8
0
100
AcDbBlockEnd
0
BLOCK
5
20E
100
AcDbEntity
8
0
100
AcDbBlockBegin
2
_CLOSED
70
0
10
0
20
0
30
0
3
_CLOSED
0
LINE
5
210
100
AcDbEntity
8
0
62
256
6
ByLayer
370
-2
48
1
60
0
100
AcDbLine
10
-1
20
0.166667
30
0
11
0
21
0
31
0
39
0
210
0
220
0
230
1
0
LINE
5
211
100
AcDbEntity
8
0
62
256
6
ByLayer
370
-2
48
1
60
0
100
AcDbLine
10
0
20
0
30
0
11
-1
21
-0.166667
31
0
39
0
210
0
220
0
230
1
0
LINE
5
212
100
AcDbEntity
8
0
62
256
6
ByLayer
370
-2
48
1
60
0
100
AcDbLine
10
-1
20
0.166667
30
0
11
-1
21
-0.166667
31
0
39
0
210
0
220
0
230
1
0
LINE
5
213
100
AcDbEntity
8
0
62
256
6
ByLayer
370
-2
48
1
60
0
100
AcDbLine
10
0
20
0
30
0
11
-1
21
0
31
0
39
0
210
0
220
0
230
1
0
ENDBLK
5
20F
100
AcDbEntity
8
0
100
AcDbBlockEnd
0
BLOCK
5
21F
100
AcDbEntity
8
0
100
AcDbBlockBegin
2
DimnDraft3D2
70
0
10
0
20
0
30
0
3
DimnDraft3D2
0
MTEXT
5
215
100
AcDbEntity
8
2
62
256
6
ByLayer
370
18
48
1
60
0
100
AcDbMText
10
38.784211
20
-17.225
30
0
210
0
220
0
230
1
1
\W0.6740;80
40
3.5
41
0
44
1.084337
50
0
71
7
72
5
7
iso_b_vert
0
LINE
5
216
100
AcDbEntity
8
2
62
256
6
ByLayer
370
13
48
1
60
0
100
AcDbLine
10
80
20
-2
30
0
11
80
21
-20.1
31
0
39
0
210
0
220
0
230
1
0
LINE
5
217
100
AcDbEntity
8
2
62
256
6
ByLayer
370
13
48
1
60
0
100
AcDbLine
10
0
20
-6.35
30
0
11
0
21
-20.1
31
0
39
0
210
0
220
0
230
1
0
LINE
5
218
100
AcDbEntity
8
2
62
256
6
ByLayer
370
13
48
1
60
0
100
AcDbLine
10
80
20
-18.1
30
0
11
0
21
-18.1
31
0
39
0
210
0
220
0
230
1
0
LINE
5
219
100
AcDbEntity
8
2
62
256
6
ByLayer
370
13
48
1
60
0
100
AcDbLine
10
80
20
-18.1
30
0
11
76.825002
21
-18.517997
31
0
39
0
210
0
220
0
230
1
0
LINE
5
21A
100
AcDbEntity
8
2
62
256
6
ByLayer
370
13
48
1
60
0
100
AcDbLine
10
80
20
-18.1
30
0
11
76.824998
21
-17.682003
31
0
39
0
210
0
220
0
230
1
0
LINE
5
21B
100
AcDbEntity
8
2
62
256
6
ByLayer
370
13
48
1
60
0
100
AcDbLine
10
76.825002
20
-18.517997
30
0
11
76.824998
21
-17.682003
31
0
39
0
210
0
220
0
230
1
0
LINE
5
21C
100
AcDbEntity
8
2
62
256
6
ByLayer
370
13
48
1
60
0
100
AcDbLine
10
0
20
-18.1
30
0
11
3.174998
21
-17.682003
31
0
39
0
210
0
220
0
230
1
0
LINE
5
21D
100
AcDbEntity
8
2
62
256
6
ByLayer
370
13
48
1
60
0
100
AcDbLine
10
0
20
-18.1
30
0
11
3.175002
21
-18.517997
31
0
39
0
210
0
220
0
230
1
0
LINE
5
21E
100
AcDbEntity
8
2
62
256
6
ByLayer
370
13
48
1
60
0
100
AcDbLine
10
3.174998
20
-17.682003
30
0
11
3.175002
21
-18.517997
31
0
39
0
210
0
220
0
230
1
0
ENDBLK
5
220
100
AcDbEntity
8
0
100
AcDbBlockEnd
0
ENDSEC
0
SECTION
2
ENTITIES
0
ELLIPSE
5
F7
100
AcDbEntity
8
SK1
62
256
6
ByLayer
370
18
48
1
60
0
100
AcDbEllipse
10
-53.190571
20
-2.175
30
0
11
1.80410770666824
21
0.300644940472855
31
0
210
0
220
0
230
-1
40
0.528647
41
0.305368807274006
42
-2.83622384631592
0
ELLIPSE
5
F8
100
AcDbEntity
8
SK1
62
256
6
ByLayer
370
18
48
1
60
0
100
AcDbEllipse
10
-53.190571
20
-2.175
30
0
11
1.80410770666824
21
-0.30064494047288
31
0
210
0
220
0
230
-1
40
0.528647
41
2.83622384631577
42
-0.305368807273901
0
ELLIPSE
5
F9
100
AcDbEntity
8
1
62
256
6
ByLayer
370
18
48
1
60
0
100
AcDbEllipse
10
54.4
20
37.320508
30
0
11
5.55120960563322E-08
21
-48.5166601417615
31
0
210
0
220
0
230
-1
40
0.267949
41
0.537696552310839
42
0.619686228547556
0
ELLIPSE
5
FA
100
AcDbEntity
8
1
62
256
6
ByLayer
370
18
48
1
60
0
100
AcDbEllipse
10
74.68273
20
-2.175
30
0
11
2.66150252439711
21
0.988916394174451
31
0
210
0
220
0
230
-1
40
0.055787
41
-2.11289473280696
42
-2.03807019071959
0
ELLIPSE
5
FB
100
AcDbEntity
8
1
62
256
6
ByLayer
370
18
48
1
60
0
100
AcDbEllipse
10
72.439645
20
-2.175
30
0
11
2.04956099299962
21
2.07136638529881E-15
31
0
210
0
220
0
230
-1
40
0.487909
41
1.15805098162413
42
-1.15805098162413
0
ELLIPSE
5
FC
100
AcDbEntity
8
1
62
256
6
ByLayer
370
18
48
1
60
0
100
AcDbEllipse
10
54.4
20
-41.670508
30
0
11
-2.97069053739544E-15
21
48.516660527246
31
0
210
0
220
0
230
-1
40
0.267949
41
-0.619686225961396
42
-0.537696550114705
0
ELLIPSE
5
FD
100
AcDbEntity
8
1
62
256
6
ByLayer
370
18
48
1
60
0
100
AcDbEllipse
10
74.682728
20
-2.175
30
0
11
2.66149985908549
21
-0.98891551900332
31
0
210
0
220
0
230
-1
40
0.055787
41
2.03806981576377
42
2.11289441757752
0
ELLIPSE
5
FE
100
AcDbEntity
8
1
62
256
6
ByLayer
370
18
48
1
60
0
100
AcDbEllipse
10
73.781285
20
-2.175
30
0
11
0.441365437839539
21
0.985398804412669
31
0
210
0
220
0
230
-1
40
0.385762
41
-2.89994299593583
42
-2.20058448960621
0
ELLIPSE
5
FF
100
AcDbEntity
8
1
62
256
6
ByLayer
370
18
48
1
60
0
100
AcDbEllipse
10
73.961181
20
-2.175
30
0
11
-6.12303177171326E-17
21
1.00000000042485
31
0
210
0
220
0
230
-1
40
0.449727
41
-1.74550750758998
42
-1.39608514599981
0
ELLIPSE
5
100
100
AcDbEntity
8
1
62
256
6
ByLayer
370
18
48
1
60
0
100
AcDbEllipse
10
73.781285
20
-2.175
30
0
11
0.441365437809144
21
-0.985398804375708
31
0
210
0
220
0
230
-1
40
0.385762
41
2.20058448958055
42
2.89994299592842
0
ELLIPSE
5
101
100
AcDbEntity
8
1
62
256
6
ByLayer
370
13
48
1
60
0
100
AcDbEllipse
10
78.308021
20
-3.92492
30
0
11
0.0343782006618846
21
0.227416224837304
31
0
210
0
220
0
230
1
40
0.010451
41
0.726227648009844
42
1.50176867939547
0
ELLIPSE
5
102
100
AcDbEntity
8
1
62
256
6
ByLayer
370
13
48
1
60
0
100
AcDbEllipse
10
76.376095
20
-3.836106
30
0
11
-0.0372036955976342
21
0.2269711105711
31
0
210
0
220
0
230
1
40
0.637857
41
-1.62073508670506
42
-0.944424256061015
0
ELLIPSE
5
103
100
AcDbEntity
8
1
62
256
6
ByLayer
370
13
48
1
60
0
100
AcDbEllipse
10
76.376095
20
-0.513894
30
0
11
-0.0372036955976343
21
-0.2269711105711
31
0
210
0
220
0
230
1
40
0.637857
41
0.944424256061094
42
1.620735086705
0
ELLIPSE
5
104
100
AcDbEntity
8
1
62
256
6
ByLayer
370
13
48
1
60
0
100
AcDbEllipse
10
78.308021
20
-0.42508
30
0
11
0.0343782006618846
21
-0.227416224837304
31
0
210
0
220
0
230
1
40
0.010451
41
-1.50176867939547
42
-0.726227648001049
0
ELLIPSE
5
105
100
AcDbEntity
8
1
62
256
6
ByLayer
370
13
48
1
60
0
100
AcDbEllipse
10
74.575688
20
-3.404148
30
0
11
0.117850233694188
21
-0.220479755121021
31
0
210
0
220
0
230
1
40
0.628513
41
1.24669182823346
42
2.6118937159501
0
ELLIPSE
5
106
100
AcDbEntity
8
1
62
256
6
ByLayer
370
13
48
1
60
0
100
AcDbEllipse
10
74.266852
20
-3.473614
30
0
11
-0.00443971027567598
21
-0.249960574836649
31
0
210
0
220
0
230
1
40
0.341973
41
-2.71046133214421
42
-1.56472240806869
0
ELLIPSE
5
107
100
AcDbEntity
8
1
62
256
6
ByLayer
370
13
48
1
60
0
100
AcDbEllipse
10
74.266852
20
-0.876386
30
0
11
-0.00443963165026046
21
0.249960576233153
31
0
210
0
220
0
230
1
40
0.341973
41
1.56472251563661
42
2.71046134076467
0
ELLIPSE
5
108
100
AcDbEntity
8
1
62
256
6
ByLayer
370
13
48
1
60
0
100
AcDbEllipse
10
74.575688
20
-0.945853
30
0
11
0.117850249619683
21
0.220479746608568
31
0
210
0
220
0
230
1
40
0.628513
41
-2.61189376972377
42
-1.24669178283531
0
ELLIPSE
5
109
100
AcDbEntity
8
1
62
256
6
ByLayer
370
13
48
1
60
0
100
AcDbEllipse
10
73.896635
20
-3.467041
30
0
11
0.0041937518783538
21
0.249964822415441
31
0
210
0
220
0
230
1
40
0.341978
41
0.428821208944308
42
1.57653374874632
0
ELLIPSE
5
10A
100
AcDbEntity
8
1
62
256
6
ByLayer
370
13
48
1
60
0
100
AcDbEllipse
10
73.896635
20
-0.882959
30
0
11
0.00419362662096718
21
-0.249964824516899
31
0
210
0
220
0
230
1
40
0.341978
41
-1.57653357738128
42
-0.428821234248745
0
ELLIPSE
5
10B
100
AcDbEntity
8
1
62
256
6
ByLayer
370
13
48
1
60
0
100
AcDbEllipse
10
73.896635
20
-0.882959
30
0
11
0.226769904979307
21
0.105239774779671
31
0
210
0
220
0
230
1
40
0.151449
41
1.8862412812319
42
2.72609499684247
0
ELLIPSE
5
10C
100
AcDbEntity
8
1
62
256
6
ByLayer
370
13
48
1
60
0
100
AcDbEllipse
10
73.896635
20
-0.882959
30
0
11
0.192541275630353
21
-0.159461146297888
31
0
210
0
220
0
230
1
40
0.894807
41
-2.03609417243739
42
-1.0658234986478
0
ELLIPSE
5
10D
100
AcDbEntity
8
1
62
256
6
ByLayer
370
13
48
1
60
0
100
AcDbEllipse
10
73.896635
20
-3.467041
30
0
11
-0.226769904979307
21
0.105239774779671
31
0
210
0
220
0
230
1
40
0.151449
41
0.415497656747538
42
1.25535137235777
0
ELLIPSE
5
10E
100
AcDbEntity
8
1
62
256
6
ByLayer
370
13
48
1
60
0
100
AcDbEllipse
10
73.896635
20
-3.467041
30
0
11
0.192541309773543
21
0.159461105071702
31
0
210
0
220
0
230
1
40
0.894807
41
1.06582322628543
42
2.03609436402997
0
ELLIPSE
5
10F
100
AcDbEntity
8
1
62
256
6
ByLayer
370
13
48
1
60
0
100
AcDbEllipse
10
73.525204
20
-0.082603
30
0
11
0.248127472736107
21
0.0591357431762822
31
0
210
0
220
0
230
-1
40
0.082207
41
-2.68834941612381
42
-1.90295008515958
0
ELLIPSE
5
110
100
AcDbEntity
8
1
62
256
6
ByLayer
370
13
48
1
60
0
100
AcDbEllipse
10
73.525204
20
-4.267397
30
0
11
0.248127472766843
21
-0.0591357431815524
31
0
210
0
220
0
230
-1
40
0.082207
41
1.90295008523554
42
2.68834941612738
0
ELLIPSE
5
111
100
AcDbEntity
8
1
62
256
6
ByLayer
370
13
48
1
60
0
100
AcDbEllipse
10
76.372716
20
-3.837324
30
0
11
0.119667798519678
21
-0.196416949363984
31
0
210
0
220
0
230
1
40
0.597641
41
1.28074896175455
42
1.86084369188812
0
ELLIPSE
5
112
100
AcDbEntity
8
1
62
256
6
ByLayer
370
13
48
1
60
0
100
AcDbEllipse
10
76.372716
20
-0.512676
30
0
11
0.119667798519678
21
0.196416949363984
31
0
210
0
220
0
230
1
40
0.597641
41
-1.86084369188786
42
-1.28074896175455
0
ELLIPSE
5
113
100
AcDbEntity
8
1
62
256
6
ByLayer
370
13
48
1
60
0
100
AcDbEllipse
10
75.495921
20
-1.161889
30
0
11
0.206917527452797
21
0.140303730644702
31
0
210
0
220
0
230
1
40
0.823661
41
-2.20858799582973
42
-1.45669646334284
0
ELLIPSE
5
114
100
AcDbEntity
8
1
62
256
6
ByLayer
370
13
48
1
60
0
100
AcDbEllipse
10
75.495921
20
-3.188111
30
0
11
0.206917580647164
21
-0.140303652194532
31
0
210
0
220
0
230
1
40
0.823661
41
1.45669620350366
42
2.20858804197704
0
ELLIPSE
5
115
100
AcDbEntity
8
1
62
256
6
ByLayer
370
13
48
1
60
0
100
AcDbEllipse
10
73.525204
20
-0.082603
30
0
11
0.249974374823428
21
0.050718048543062
31
0
210
0
220
0
230
-1
40
0.070574
41
-2.69094352031929
42
-1.90554418923379
0
ELLIPSE
5
116
100
AcDbEntity
8
1
62
256
6
ByLayer
370
13
48
1
60
0
100
AcDbEllipse
10
73.525204
20
-4.267397
30
0
11
0.249974374836596
21
-0.0507180485449223
31
0
210
0
220
0
230
-1
40
0.070574
41
1.90554418926482
42
2.690943520318
0
ELLIPSE
5
117
100
AcDbEntity
8
1
62
256
6
ByLayer
370
13
48
1
60
0
100
AcDbEllipse
10
73.316753
20
-4.229426
30
0
11
-0.00727720191311243
21
-0.0186290722344349
31
0
210
0
220
0
230
1
40
0.894205
41
-1.55767186143102
42
-1.23473700712484
0
ELLIPSE
5
118
100
AcDbEntity
8
1
62
256
6
ByLayer
370
13
48
1
60
0
100
AcDbEllipse
10
73.316753
20
-0.120574
30
0
11
-0.00727720191311333
21
0.0186290722344345
31
0
210
0
220
0
230
1
40
0.894205
41
1.23473700712484
42
1.55767186143173
0
ELLIPSE
5
119
100
AcDbEntity
8
1
62
256
6
ByLayer
370
13
48
1
60
0
100
AcDbEllipse
10
75.547237
20
-3.02644
30
0
11
0.249846926115621
21
-0.0087472001563506
31
0
210
0
220
0
230
1
40
0.750608
41
1.02290462445179
42
1.70169781748864
0
ELLIPSE
5
11A
100
AcDbEntity
8
1
62
256
6
ByLayer
370
13
48
1
60
0
100
AcDbEllipse
10
75.547237
20
-1.32356
30
0
11
0.249846921369704
21
0.00874733571328862
31
0
210
0
220
0
230
1
40
0.750608
41
-1.70169787390466
42
-1.02290497692153
0
ELLIPSE
5
11B
100
AcDbEntity
8
1
62
256
6
ByLayer
370
13
48
1
60
0
100
AcDbEllipse
10
73.311319
20
-0.121608
30
0
11
-1.66819192705286E-07
21
0.0199999999993043
31
0
210
0
220
0
230
1
40
0.906308
41
1.57078876731368
42
1.9067646483246
0
ELLIPSE
5
11C
100
AcDbEntity
8
1
62
256
6
ByLayer
370
13
48
1
60
0
100
AcDbEllipse
10
73.311319
20
-4.228392
30
0
11
1.66819193409396E-07
21
0.0199999999993043
31
0
210
0
220
0
230
1
40
0.906308
41
1.23482800526518
42
1.57080388627612
0
ELLIPSE
5
11D
100
AcDbEntity
8
1
62
256
6
ByLayer
370
13
48
1
60
0
100
AcDbEllipse
10
72.947266
20
-4.228428
30
0
11
-0.000516689010875325
21
0.0199933246976595
31
0
210
0
220
0
230
1
40
0.904621
41
1.21142534008811
42
1.54742239321284
0
ELLIPSE
5
11E
100
AcDbEntity
8
1
62
256
6
ByLayer
370
13
48
1
60
0
100
AcDbEllipse
10
72.947266
20
-0.121572
30
0
11
0.000516689010875447
21
0.0199933246976595
31
0
210
0
220
0
230
1
40
0.904621
41
1.59417026037695
42
1.93016731350168
0
ELLIPSE
5
11F
100
AcDbEntity
8
1
62
256
6
ByLayer
370
13
48
1
60
0
100
AcDbEllipse
10
75.681682
20
-1.69626
30
0
11
0.208351294700965
21
0.138165617996779
31
0
210
0
220
0
230
1
40
0.328475
41
-1.88277706446513
42
-1.11088764732327
0
ELLIPSE
5
120
100
AcDbEntity
8
1
62
256
6
ByLayer
370
13
48
1
60
0
100
AcDbEllipse
10
75.681682
20
-2.65374
30
0
11
0.208351341972879
21
-0.138165546711546
31
0
210
0
220
0
230
1
40
0.328475
41
1.11088755728274
42
1.88277708187358
0
ELLIPSE
5
121
100
AcDbEntity
8
1
62
256
6
ByLayer
370
13
48
1
60
0
100
AcDbEllipse
10
74.262268
20
-2.306886
30
0
11
0.249711860133238
21
0.0119994545208677
31
0
210
0
220
0
230
1
40
0.102391
41
1.64627417079787
42
2.70279518242725
0
ELLIPSE
5
122
100
AcDbEntity
8
1
62
256
6
ByLayer
370
13
48
1
60
0
100
AcDbEllipse
10
73.970334
20
-2.739144
30
0
11
0.0801092063469286
21
-0.236817472029547
31
0
210
0
220
0
230
1
40
0.051691
41
1.9961286931845
42
2.99634502504313
0
ELLIPSE
5
123
100
AcDbEntity
8
1
62
256
6
ByLayer
370
13
48
1
60
0
100
AcDbEllipse
10
73.970334
20
-1.610856
30
0
11
0.0801092029984038
21
0.236817473162266
31
0
210
0
220
0
230
1
40
0.051691
41
-2.99634502577189
42
-1.99612899767561
0
ELLIPSE
5
124
100
AcDbEntity
8
1
62
256
6
ByLayer
370
13
48
1
60
0
100
AcDbEllipse
10
74.262268
20
-2.043114
30
0
11
0.249711858181825
21
-0.0119994951302155
31
0
210
0
220
0
230
1
40
0.102391
41
-2.70279516577587
42
-1.64627416293769
0
ELLIPSE
5
125
100
AcDbEntity
8
1
62
256
6
ByLayer
370
13
48
1
60
0
100
AcDbEllipse
10
78.808021
20
-3.925346
30
0
11
-0.0305240551688061
21
0.227965528218746
31
0
210
0
220
0
230
1
40
0.00928
41
-1.50160168305442
42
-0.753203377501857
0
ELLIPSE
5
126
100
AcDbEntity
8
1
62
256
6
ByLayer
370
13
48
1
60
0
100
AcDbEllipse
10
78.808021
20
-0.424654
30
0
11
-0.0305240551688064
21
-0.227965528218746
31
0
210
0
220
0
230
1
40
0.00928
41
0.753203377492076
42
1.50160168305529
0
ELLIPSE
5
127
100
AcDbEntity
8
1
62
256
6
ByLayer
370
13
48
1
60
0
100
AcDbEllipse
10
79.195162
20
-0.474251
30
0
11
-0.0280596719528447
21
-0.228281963391545
31
0
210
0
220
0
230
1
40
0.164219
41
-1.48135376941919
42
-0.778143565892523
0
ELLIPSE
5
128
100
AcDbEntity
8
1
62
256
6
ByLayer
370
13
48
1
60
0
100
AcDbEllipse
10
79.598618
20
-3.687259
30
0
11
-0.055539716034572
21
0.0831585229714857
31
0
210
0
220
0
230
1
40
0.139564
41
-1.58074179094079
42
-0.780385816813227
0
ELLIPSE
5
129
100
AcDbEntity
8
1
62
256
6
ByLayer
370
13
48
1
60
0
100
AcDbEllipse
10
79.195162
20
-3.875749
30
0
11
-0.0280596719528445
21
0.228281963391545
31
0
210
0
220
0
230
1
40
0.164219
41
0.778143565892516
42
1.48135376941913
0
ELLIPSE
5
12A
100
AcDbEntity
8
1
62
256
6
ByLayer
370
13
48
1
60
0
100
AcDbEllipse
10
79.778808
20
-3.563054
30
0
11
-0.057715369185191
21
0.0816635546606754
31
0
210
0
220
0
230
1
40
0.139258
41
-1.58442224103926
42
-0.784038772190048
0
ELLIPSE
5
12B
100
AcDbEntity
8
1
62
256
6
ByLayer
370
13
48
1
60
0
100
AcDbEllipse
10
79.598618
20
-0.662741
30
0
11
-0.0555397160345721
21
-0.0831585229714856
31
0
210
0
220
0
230
1
40
0.139564
41
0.780385816813227
42
1.58074179094093
0
ELLIPSE
5
12C
100
AcDbEntity
8
1
62
256
6
ByLayer
370
13
48
1
60
0
100
AcDbEllipse
10
79.778808
20
-0.786946
30
0
11
-0.057715369185191
21
-0.0816635546606753
31
0
210
0
220
0
230
1
40
0.139258
41
0.784038772190048
42
1.58442224103926
0
ELLIPSE
5
12D
100
AcDbEntity
8
1
62
256
6
ByLayer
370
13
48
1
60
0
100
AcDbEllipse
10
73.960225
20
-1.607435
30
0
11
0.0801330718436643
21
0.236809397611028
31
0
210
0
220
0
230
1
40
0.052378
41
-2.99633978110745
42
-1.9982201134409
0
ELLIPSE
5
12E
100
AcDbEntity
8
1
62
256
6
ByLayer
370
13
48
1
60
0
100
AcDbEllipse
10
73.960225
20
-2.742565
30
0
11
0.0801330753651988
21
-0.236809396419389
31
0
210
0
220
0
230
1
40
0.052378
41
1.99821981134363
42
2.99633978033147
0
ELLIPSE
5
12F
100
AcDbEntity
8
1
62
256
6
ByLayer
370
13
48
1
60
0
100
AcDbEllipse
10
79.521878
20
-0.596955
30
0
11
-0.0785433300445711
21
-0.0618946306678502
31
0
210
0
220
0
230
1
40
0.129812
41
1.15297770919813
42
1.62345594610855
0
ELLIPSE
5
130
100
AcDbEntity
8
1
62
256
6
ByLayer
370
13
48
1
60
0
100
AcDbEllipse
10
79.521878
20
-3.753045
30
0
11
-0.078543330044571
21
0.0618946306678503
31
0
210
0
220
0
230
1
40
0.129812
41
-1.62345594610856
42
-1.15297770919812
0
ELLIPSE
5
131
100
AcDbEntity
8
1
62
256
6
ByLayer
370
13
48
1
60
0
100
AcDbEllipse
10
79.258678
20
-1.097746
30
0
11
0.00447811123902838
21
-0.399974932364181
31
0
210
0
220
0
230
1
40
0.406715
41
1.56624278122701
42
2.28570077964812
0
ELLIPSE
5
132
100
AcDbEntity
8
1
62
256
6
ByLayer
370
13
48
1
60
0
100
AcDbEllipse
10
79.258678
20
-3.252254
30
0
11
0.0044781112390283
21
0.399974932364181
31
0
210
0
220
0
230
1
40
0.406715
41
-2.28570077964811
42
-1.56624278122701
0
ELLIPSE
5
133
100
AcDbEntity
8
1
62
256
6
ByLayer
370
13
48
1
60
0
100
AcDbEllipse
10
79.879987
20
-3.472226
30
0
11
-0.0761825742139186
21
0.0647782014734957
31
0
210
0
220
0
230
1
40
0.131654
41
-1.61858310779802
42
-0.951275497622765
0
ELLIPSE
5
134
100
AcDbEntity
8
1
62
256
6
ByLayer
370
13
48
1
60
0
100
AcDbEllipse
10
79.879987
20
-0.877774
30
0
11
-0.0761825742139186
21
-0.0647782014734956
31
0
210
0
220
0
230
1
40
0.131654
41
0.951275497621364
42
1.61858310779802
0
ELLIPSE
5
135
100
AcDbEntity
8
1
62
256
6
ByLayer
370
13
48
1
60
0
100
AcDbEllipse
10
79.90851
20
-0.912394
30
0
11
-0.0780735047316925
21
-0.0624862213524741
31
0
210
0
220
0
230
1
40
0.076499
41
0.995842833726188
42
1.66608814563582
0
ELLIPSE
5
136
100
AcDbEntity
8
1
62
256
6
ByLayer
370
13
48
1
60
0
100
AcDbEllipse
10
79.90851
20
-3.437606
30
0
11
-0.0780735047316925
21
0.0624862213524742
31
0
210
0
220
0
230
1
40
0.076499
41
-1.66608814563639
42
-0.995842833726362
0
ELLIPSE
5
137
100
AcDbEntity
8
1
62
256
6
ByLayer
370
13
48
1
60
0
100
AcDbEllipse
10
78.548784
20
-1.093834
30
0
11
-0.000921308389249212
21
-0.399998938987158
31
0
210
0
220
0
230
1
40
0.05179
41
1.57091561244836
42
2.39651152074918
0
ELLIPSE
5
138
100
AcDbEntity
8
1
62
256
6
ByLayer
370
13
48
1
60
0
100
AcDbEllipse
10
78.548784
20
-3.256166
30
0
11
-0.000921308389249558
21
0.399998938987158
31
0
210
0
220
0
230
1
40
0.05179
41
-2.39651152074918
42
-1.57091561244836
0
ELLIPSE
5
139
100
AcDbEntity
8
1
62
256
6
ByLayer
370
18
48
1
60
0
100
AcDbEllipse
10
75.372916
20
-4.575
30
0
11
-0.203674870635643
21
0
31
0
210
0
220
0
230
-1
40
0.981957
41
1.5707963267949
42
2.10231488414288
0
ELLIPSE
5
13A
100
AcDbEntity
8
1
62
256
6
ByLayer
370
18
48
1
60
0
100
AcDbEllipse
10
75.700355
20
-4.068023
30
0
11
0.117518340696117
21
0.384385172385799
31
6.93889390390723E-18
210
3.82257415486029E-17
220
6.3651471518811E-18
230
-1
40
0.995153
41
2.91576259201242
42
-2.91576259201242
0
ELLIPSE
5
13B
100
AcDbEntity
8
1
62
256
6
ByLayer
370
18
48
1
60
0
100
AcDbEllipse
10
75.372916
20
0.225
30
0
11
0.203674870635643
21
2.49421540694359E-17
31
0
210
0
220
0
230
-1
40
0.981957
41
1.03927776944691
42
1.5707963267949
0
ELLIPSE
5
13C
100
AcDbEntity
8
1
62
256
6
ByLayer
370
18
48
1
60
0
100
AcDbEllipse
10
80.048748
20
-3.437606
30
0
11
1.1330996904646E-16
21
0.4
31
0
210
0
220
0
230
1
40
0.121869
41
1.5707963267949
42
1.64009079051255
0
ELLIPSE
5
13D
100
AcDbEntity
8
1
62
256
6
ByLayer
370
18
48
1
60
0
100
AcDbEllipse
10
75.700355
20
-0.281977
30
0
11
0.117518340696115
21
-0.3843851723858
31
-3.08148791101958E-33
210
6.6356972414294E-17
220
2.02873623957556E-17
230
-1
40
0.995153
41
2.91576259201242
42
-2.91576259201242
0
ELLIPSE
5
13E
100
AcDbEntity
8
1
62
256
6
ByLayer
370
18
48
1
60
0
100
AcDbEllipse
10
80.048748
20
-0.912394
30
0
11
1.1330996904646E-16
21
0.4
31
0
210
0
220
0
230
1
40
0.121869
41
1.50150186307725
42
1.5707963267949
0
ELLIPSE
5
13F
100
AcDbEntity
8
1
62
256
6
ByLayer
370
18
48
1
60
0
100
AcDbEllipse
10
79.506073
20
-4.661005
30
0
11
0.229994542858154
21
-0.016346433403359
31
0
210
0
220
0
230
-1
40
0.096932
41
1.44202876527304
42
1.73802346908082
0
ELLIPSE
5
140
100
AcDbEntity
8
1
62
256
6
ByLayer
370
18
48
1
60
0
100
AcDbEllipse
10
79.506073
20
0.311005
30
0
11
0.229994543794419
21
0.0163464334666594
31
0
210
0
220
0
230
-1
40
0.096932
41
-1.73802346853989
42
-1.44202876594526
0
POINT
5
6C
100
AcDbEntity
8
81
62
256
6
ByLayer
370
18
48
1
60
0
100
AcDbPoint
10
80
20
0
30
0
39
0
210
0
220
0
230
1
50
360
0
POINT
5
6E
100
AcDbEntity
8
80
62
256
6
ByLayer
370
18
48
1
60
0
100
AcDbPoint
10
0
20
0
30
0
39
0
210
0
220
0
230
1
50
360
0
SPLINE
5
141
100
AcDbEntity
8
1
62
256
6
ByLayer
370
18
48
1
60
0
100
AcDbSpline
70
4
71
3
72
14
73
10
40
0
40
0
40
0
40
0
40
0.278780980744193
40
0.278780980744193
40
0.558124921944407
40
0.558124921944407
40
0.829523624664608
40
0.829523624664608
40
1
40
1
40
1
40
1
41
1
10
73.5183002468191
20
-2.34882372247304
30
0
41
1
10
73.5195924946883
20
-2.36510263736599
30
0
41
1
10
73.5182186222041
20
-2.38170492523472
30
0
41
1
10
73.5101336704446
20
-2.41287933155857
30
0
41
1
10
73.5032869470188
20
-2.4278845768379
30
0
41
1
10
73.4851942803218
20
-2.45368642231696
30
0
41
1
10
73.4738157590793
20
-2.46494557365909
30
0
41
1
10
73.4527561640464
20
-2.47940761040431
30
0
41
1
10
73.4438713151643
20
-2.48415262647006
30
0
41
1
10
73.4345909109063
20
-2.4879013006591
30
0
0
SPLINE
5
142
100
AcDbEntity
8
1
62
256
6
ByLayer
370
18
48
1
60
0
100
AcDbSpline
70
4
71
3
72
12
73
8
40
0
40
0
40
0
40
0
40
0.343652579363562
40
0.343652579363562
40
0.688791604293209
40
0.688791604293209
40
1
40
1
40
1
40
1
41
1
10
73.2141293578713
20
-2.61777611700145
30
0
41
1
10
73.2154207990517
20
-2.60905690307331
30
0
41
1
10
73.2182655745843
20
-2.60037874788588
30
0
41
1
10
73.227000974132
20
-2.58458553255301
30
0
41
1
10
73.2330328421966
20
-2.57727265466926
30
0
41
1
10
73.2466901207222
20
-2.56583556512666
30
0
41
1
10
73.2542548312516
20
-2.56133156063225
30
0
41
1
10
73.2623096355335
20
-2.55802679607106
30
0
0
SPLINE
5
143
100
AcDbEntity
8
1
62
256
6
ByLayer
370
18
48
1
60
0
100
AcDbSpline
70
4
71
3
72
14
73
10
40
0
40
0
40
0
40
0
40
0.265356068618316
40
0.265356068618316
40
0.530793079780762
40
0.530793079780762
40
0.795893133621846
40
0.795893133621846
40
1
40
1
40
1
40
1
41
1
10
73.4345909109056
20
-1.86209869934078
30
0
41
1
10
73.4489094150554
20
-1.86788243520391
30
0
41
1
10
73.4623358090017
20
-1.87611224236321
30
0
41
1
10
73.4851475824261
20
-1.89631274689873
30
0
41
1
10
73.4948417311641
20
-1.90855478251663
30
0
41
1
10
73.509335304755
20
-1.93529665578976
30
0
41
1
10
73.5143432481637
20
-1.95014378259015
30
0
41
1
10
73.5187724147789
20
-1.9770503289916
30
0
41
1
10
73.5192522029562
20
-1.98918414096181
30
0
41
1
10
73.5183002468201
20
-2.00117627752559
30
0
0
SPLINE
5
144
100
AcDbEntity
8
1
62
256
6
ByLayer
370
18
48
1
60
0
100
AcDbSpline
70
4
71
3
72
12
73
8
40
0
40
0
40
0
40
0
40
0.33336504234712
40
0.33336504234712
40
0.667278868672207
40
0.667278868672207
40
1
40
1
40
1
40
1
41
1
10
73.2623096355335
20
-1.79197320392782
30
0
41
1
10
73.2536977761927
20
-1.78843988808808
30
0
41
1
10
73.2456407945203
20
-1.78352628335551
30
0
41
1
10
73.2320586557152
20
-1.7716181661431
30
0
41
1
10
73.2263635439238
20
-1.76446081715625
30
0
41
1
10
73.2180868628451
20
-1.74907950759152
30
0
41
1
10
73.215380783888
20
-1.74067293304188
30
0
41
1
10
73.2141293578705
20
-1.73222388299737
30
0
0
SPLINE
5
145
100
AcDbEntity
8
1
62
256
6
ByLayer
370
13
48
1
60
0
100
AcDbSpline
70
4
71
3
72
8
73
4
40
0
40
0
40
0
40
0
40
1
40
1
40
1
40
1
41
1
10
75.6829840127523
20
-1.47909030476362
30
0
41
1
10
75.6810947661036
20
-1.41639273502076
30
0
41
1
10
75.6631068755878
20
-1.36077877533671
30
0
41
1
10
75.6342900358637
20
-1.31523678045158
30
0
0
SPLINE
5
146
100
AcDbEntity
8
1
62
256
6
ByLayer
370
13
48
1
60
0
100
AcDbSpline
70
4
71
3
72
10
73
6
40
0
40
0
40
0
40
0
40
0.262862791350924
40
0.262862791350924
40
1
40
1
40
1
40
1
41
1
10
75.6342900358642
20
-1.31523678045235
30
0
41
1
10
75.7025775519151
20
-1.25213524311567
30
0
41
1
10
75.7722682487008
20
-1.19051513448275
30
0
41
1
10
76.0422196182249
20
-0.962458214517682
30
0
41
1
10
76.2522353540995
20
-0.806560426118722
30
0
41
1
10
76.4715765647267
20
-0.666172052360167
30
0
0
SPLINE
5
147
100
AcDbEntity
8
1
62
256
6
ByLayer
370
13
48
1
60
0
100
AcDbSpline
70
4
71
3
72
12
73
8
40
0
40
0
40
0
40
0
40
0.0871818958158546
40
0.0871818958158546
40
0.555816072150762
40
0.555816072150762
40
1
40
1
40
1
40
1
41
1
10
76.4715765647289
20
-0.666172052358718
30
0
41
1
10
76.516355622926
20
-0.674432235679376
30
0
41
1
10
76.5625010428803
20
-0.681478607471718
30
0
41
1
10
76.8599208005271
20
-0.718648511145972
30
0
41
1
10
77.1493997212845
20
-0.718622433487781
30
0
41
1
10
77.7340901033075
20
-0.681225217205423
30
0
41
1
10
78.0363033123272
20
-0.642767383534618
30
0
41
1
10
78.3321466497296
20
-0.595354439935505
30
0
0
SPLINE
5
148
100
AcDbEntity
8
1
62
256
6
ByLayer
370
13
48
1
60
0
100
AcDbSpline
70
4
71
3
72
8
73
4
40
0
40
0
40
0
40
0
40
1
40
1
40
1
40
1
41
1
10
78.3321466497296
20
-0.595354439935505
30
0
41
1
10
78.4819028297927
20
-0.571353962583885
30
0
41
1
10
78.6367163407338
20
-0.571993624601049
30
0
41
1
10
78.7872005279842
20
-0.59114925357045
30
0
0
SPLINE
5
149
100
AcDbEntity
8
1
62
256
6
ByLayer
370
13
48
1
60
0
100
AcDbSpline
70
4
71
3
72
8
73
4
40
0
40
0
40
0
40
0
40
1
40
1
40
1
40
1
41
1
10
78.7872005279842
20
-0.59114925357045
30
0
41
1
10
78.9080845009776
20
-0.606536973551698
30
0
41
1
10
79.0296597255468
20
-0.620770570694503
30
0
41
1
10
79.1488622536791
20
-0.633602719761285
30
0
0
SPLINE
5
14A
100
AcDbEntity
8
1
62
256
6
ByLayer
370
13
48
1
60
0
100
AcDbSpline
70
4
71
3
72
8
73
4
40
0
40
0
40
0
40
0
40
1
40
1
40
1
40
1
41
1
10
79.1488622536791
20
-0.633602719761285
30
0
41
1
10
79.2906386357502
20
-0.648864943620055
30
0
41
1
10
79.4304893310889
20
-0.684997641832098
30
0
41
1
10
79.5673140428787
20
-0.727290411531641
30
0
0
SPLINE
5
14B
100
AcDbEntity
8
1
62
256
6
ByLayer
370
13
48
1
60
0
100
AcDbSpline
70
4
71
3
72
8
73
4
40
0
40
0
40
0
40
0
40
1
40
1
40
1
40
1
41
1
10
79.5673140428785
20
-0.727290411531499
30
0
41
1
10
79.6274617011982
20
-0.767462196322185
30
0
41
1
10
79.6869033219913
20
-0.808697502773725
30
0
41
1
10
79.7459718007426
20
-0.850445187598609
30
0
0
SPLINE
5
14C
100
AcDbEntity
8
1
62
256
6
ByLayer
370
13
48
1
60
0
100
AcDbSpline
70
4
71
3
72
8
73
4
40
0
40
0
40
0
40
0
40
1
40
1
40
1
40
1
41
1
10
79.7459718007426
20
-0.850445187598638
30
0
41
1
10
79.6240345464985
20
-0.845598600985568
30
0
41
1
10
79.5024410495939
20
-0.840191278627714
30
0
41
1
10
79.3785881656746
20
-0.834168716829424
30
0
0
SPLINE
5
14D
100
AcDbEntity
8
1
62
256
6
ByLayer
370
13
48
1
60
0
100
AcDbSpline
70
4
71
3
72
12
73
8
40
0
40
0
40
0
40
0
40
0.182835658751355
40
0.182835658751355
40
0.599400569939014
40
0.599400569939014
40
1
40
1
40
1
40
1
41
1
10
79.3785881656746
20
-0.834168716829424
30
0
41
1
10
79.3310683850016
20
-0.831857984881225
30
0
41
1
10
79.2829585315104
20
-0.82966671839759
30
0
41
1
10
79.1239573417232
20
-0.822595055959567
30
0
41
1
10
79.0107346591717
20
-0.81783021213991
30
0
41
1
10
78.7864706205419
20
-0.808744511769191
30
0
41
1
10
78.6749954711981
20
-0.804124281984116
30
0
41
1
10
78.5635072589985
20
-0.799853996512951
30
0
0
SPLINE
5
14E
100
AcDbEntity
8
1
62
256
6
ByLayer
370
13
48
1
60
0
100
AcDbSpline
70
4
71
3
72
16
73
12
40
0
40
0
40
0
40
0
40
0.0921366095856315
40
0.0921366095856315
40
0.290118390674097
40
0.290118390674097
40
0.595936908248371
40
0.595936908248371
40
0.880361355152389
40
0.880361355152389
40
1
40
1
40
1
40
1
41
1
10
78.5635072589985
20
-0.799853996512951
30
0
41
1
10
78.5591982602681
20
-0.799688950771269
30
0
41
1
10
78.5548883609445
20
-0.799542873026468
30
0
41
1
10
78.5413159701824
20
-0.799143283646657
30
0
41
1
10
78.5320505661206
20
-0.798957817109624
30
0
41
1
10
78.5084733436751
20
-0.798723303251876
30
0
41
1
10
78.494157775922
20
-0.798815660087826
30
0
41
1
10
78.4665431360997
20
-0.799411168017684
30
0
41
1
10
78.4532407620858
20
-0.79994394193713
30
0
41
1
10
78.4343574737551
20
-0.800926670636841
30
0
41
1
10
78.4287674124236
20
-0.801245480436734
30
0
41
1
10
78.4231781443762
20
-0.801569704596744
30
0
0
SPLINE
5
14F
100
AcDbEntity
8
1
62
256
6
ByLayer
370
13
48
1
60
0
100
AcDbSpline
70
4
71
3
72
10
73
6
40
0
40
0
40
0
40
0
40
0.526039489910472
40
0.526039489910472
40
1
40
1
40
1
40
1
41
1
10
78.4231781443762
20
-0.801569704596744
30
0
41
1
10
78.3243838115333
20
-0.807300599824856
30
0
41
1
10
78.2257440636944
20
-0.822681653628507
30
0
41
1
10
78.0427884076341
20
-0.868247157103696
30
0
41
1
10
77.9555807587938
20
-0.888868241317567
30
0
41
1
10
77.8688521819128
20
-0.91134481096617
30
0
0
SPLINE
5
150
100
AcDbEntity
8
1
62
256
6
ByLayer
370
13
48
1
60
0
100
AcDbSpline
70
4
71
3
72
13
73
9
40
0
40
0
40
0
40
0
40
0.579075565907237
40
0.579075565907237
40
0.579075565907237
40
0.952945790436294
40
0.952945790436294
40
1
40
1
40
1
40
1
41
1
10
77.8688521819128
20
-0.91134481096617
30
0
41
1
10
77.4253573800224
20
-1.02628088119775
30
0
41
1
10
76.9763277002349
20
-1.14268329366729
30
0
41
1
10
76.557589780142
20
-1.2513862802015
30
0
41
1
10
76.2850802933633
20
-1.32212884649493
30
0
41
1
10
76.021323397112
20
-1.39072429200692
30
0
41
1
10
75.7443878409567
20
-1.46303731008956
30
0
41
1
10
75.7135476384127
20
-1.47109622981773
30
0
41
1
10
75.6829840127523
20
-1.47909030476356
30
0
0
SPLINE
5
151
100
AcDbEntity
8
1
62
256
6
ByLayer
370
13
48
1
60
0
100
AcDbSpline
70
4
71
3
72
8
73
4
40
0
40
0
40
0
40
0
40
1
40
1
40
1
40
1
41
1
10
75.6342903231341
20
-3.03476348500132
30
0
41
1
10
75.6631071748038
20
-2.98922143496037
30
0
41
1
10
75.6810950586271
20
-2.93360740619849
30
0
41
1
10
75.6829842751339
20
-2.87090976386361
30
0
0
SPLINE
5
152
100
AcDbEntity
8
1
62
256
6
ByLayer
370
13
48
1
60
0
100
AcDbSpline
70
4
71
3
72
13
73
9
40
0
40
0
40
0
40
0
40
0.579075643919431
40
0.579075643919431
40
0.579075643919431
40
0.952945918815726
40
0.952945918815726
40
1
40
1
40
1
40
1
41
1
10
77.8688521819128
20
-3.43865518903385
30
0
41
1
10
77.4253573800224
20
-3.32371911880227
30
0
41
1
10
76.9763277002349
20
-3.2073167063327
30
0
41
1
10
76.557589780142
20
-3.09861371979852
30
0
41
1
10
76.2850802933633
20
-3.02787115350509
30
0
41
1
10
76.021323397112
20
-2.95927570799307
30
0
41
1
10
75.7443879299412
20
-2.88696271314595
30
0
41
1
10
75.7135478149083
20
-2.87890381630243
30
0
41
1
10
75.6829842751339
20
-2.87090976386369
30
0
0
SPLINE
5
153
100
AcDbEntity
8
1
62
256
6
ByLayer
370
13
48
1
60
0
100
AcDbSpline
70
4
71
3
72
10
73
6
40
0
40
0
40
0
40
0
40
0.526039489910472
40
0.526039489910472
40
1
40
1
40
1
40
1
41
1
10
78.4231781443762
20
-3.54843029540325
30
0
41
1
10
78.3243838115333
20
-3.54269940017517
30
0
41
1
10
78.2257440636944
20
-3.52731834637152
30
0
41
1
10
78.0427884076341
20
-3.48175284289633
30
0
41
1
10
77.9555807587938
20
-3.46113175868246
30
0
41
1
10
77.8688521819128
20
-3.43865518903385
30
0
0
SPLINE
5
154
100
AcDbEntity
8
1
62
256
6
ByLayer
370
13
48
1
60
0
100
AcDbSpline
70
4
71
3
72
16
73
12
40
0
40
0
40
0
40
0
40
0.0921366095856315
40
0.0921366095856315
40
0.290118390674097
40
0.290118390674097
40
0.595936908248371
40
0.595936908248371
40
0.880361355152389
40
0.880361355152389
40
1
40
1
40
1
40
1
41
1
10
78.5635072589985
20
-3.55014600348704
30
0
41
1
10
78.5591982602681
20
-3.55031104922875
30
0
41
1
10
78.5548883609445
20
-3.55045712697356
30
0
41
1
10
78.5413159701824
20
-3.55085671635337
30
0
41
1
10
78.5320505661206
20
-3.55104218289037
30
0
41
1
10
78.5084733436751
20
-3.55127669674812
30
0
41
1
10
78.494157775922
20
-3.55118433991217
30
0
41
1
10
78.4665431360997
20
-3.55058883198234
30
0
41
1
10
78.4532407620858
20
-3.55005605806289
30
0
41
1
10
78.4343574737551
20
-3.54907332936315
30
0
41
1
10
78.4287674124236
20
-3.54875451956329
30
0
41
1
10
78.4231781443762
20
-3.54843029540325
30
0
0
SPLINE
5
155
100
AcDbEntity
8
1
62
256
6
ByLayer
370
13
48
1
60
0
100
AcDbSpline
70
4
71
3
72
12
73
8
40
0
40
0
40
0
40
0
40
0.182835658751355
40
0.182835658751355
40
0.599400569939014
40
0.599400569939014
40
1
40
1
40
1
40
1
41
1
10
79.3785881656746
20
-3.5158312831706
30
0
41
1
10
79.3310683850016
20
-3.51814201511877
30
0
41
1
10
79.2829585315104
20
-3.52033328160243
30
0
41
1
10
79.1239573417232
20
-3.52740494404045
30
0
41
1
10
79.0107346591717
20
-3.53216978786011
30
0
41
1
10
78.7864706205419
20
-3.5412554882308
30
0
41
1
10
78.6749954711981
20
-3.54587571801588
30
0
41
1
10
78.5635072589985
20
-3.55014600348704
30
0
0
SPLINE
5
156
100
AcDbEntity
8
1
62
256
6
ByLayer
370
13
48
1
60
0
100
AcDbSpline
70
4
71
3
72
8
73
4
40
0
40
0
40
0
40
0
40
1
40
1
40
1
40
1
41
1
10
79.7459718007426
20
-3.49955481240139
30
0
41
1
10
79.6240345464985
20
-3.50440139901445
30
0
41
1
10
79.5024410495939
20
-3.50980872137228
30
0
41
1
10
79.3785881656746
20
-3.5158312831706
30
0
0
SPLINE
5
157
100
AcDbEntity
8
1
62
256
6
ByLayer
370
13
48
1
60
0
100
AcDbSpline
70
4
71
3
72
8
73
4
40
0
40
0
40
0
40
0
40
1
40
1
40
1
40
1
41
1
10
79.5673140428785
20
-3.62270958846852
30
0
41
1
10
79.6274617011982
20
-3.58253780367784
30
0
41
1
10
79.6869033219913
20
-3.5413024972263
30
0
41
1
10
79.7459718007426
20
-3.49955481240139
30
0
0
SPLINE
5
158
100
AcDbEntity
8
1
62
256
6
ByLayer
370
13
48
1
60
0
100
AcDbSpline
70
4
71
3
72
8
73
4
40
0
40
0
40
0
40
0
40
1
40
1
40
1
40
1
41
1
10
79.1488622536791
20
-3.71639728023874
30
0
41
1
10
79.2906386357502
20
-3.70113505637997
30
0
41
1
10
79.4304893310889
20
-3.66500235816793
30
0
41
1
10
79.5673140428787
20
-3.62270958846838
30
0
0
SPLINE
5
159
100
AcDbEntity
8
1
62
256
6
ByLayer
370
13
48
1
60
0
100
AcDbSpline
70
4
71
3
72
8
73
4
40
0
40
0
40
0
40
0
40
1
40
1
40
1
40
1
41
1
10
78.7872005279842
20
-3.75885074642955
30
0
41
1
10
78.9080845009776
20
-3.74346302644833
30
0
41
1
10
79.0296597255468
20
-3.72922942930552
30
0
41
1
10
79.1488622536791
20
-3.71639728023874
30
0
0
SPLINE
5
15A
100
AcDbEntity
8
1
62
256
6
ByLayer
370
13
48
1
60
0
100
AcDbSpline
70
4
71
3
72
8
73
4
40
0
40
0
40
0
40
0
40
1
40
1
40
1
40
1
41
1
10
78.3321466497296
20
-3.75464556006452
30
0
41
1
10
78.4819028297927
20
-3.77864603741611
30
0
41
1
10
78.6367163407338
20
-3.77800637539897
30
0
41
1
10
78.7872005279842
20
-3.75885074642955
30
0
0
SPLINE
5
15B
100
AcDbEntity
8
1
62
256
6
ByLayer
370
13
48
1
60
0
100
AcDbSpline
70
4
71
3
72
12
73
8
40
0
40
0
40
0
40
0
40
0.0871818958158546
40
0.0871818958158546
40
0.555816072150762
40
0.555816072150762
40
1
40
1
40
1
40
1
41
1
10
76.4715765647289
20
-3.68382794764128
30
0
41
1
10
76.516355622926
20
-3.67556776432065
30
0
41
1
10
76.5625010428803
20
-3.66852139252831
30
0
41
1
10
76.8599208005271
20
-3.63135148885405
30
0
41
1
10
77.1493997212845
20
-3.63137756651224
30
0
41
1
10
77.7340901033075
20
-3.6687747827946
30
0
41
1
10
78.0363033123272
20
-3.7072326164654
30
0
41
1
10
78.3321466497296
20
-3.75464556006452
30
0
0
SPLINE
5
15C
100
AcDbEntity
8
1
62
256
6
ByLayer
370
13
48
1
60
0
100
AcDbSpline
70
4
71
3
72
10
73
6
40
0
40
0
40
0
40
0
40
0.262862519552919
40
0.262862519552919
40
1
40
1
40
1
40
1
41
1
10
75.6342903231341
20
-3.03476348500132
30
0
41
1
10
75.7025777473366
20
-3.09786492967734
30
0
41
1
10
75.7722683482755
20
-3.15948494963863
30
0
41
1
10
76.0422196182249
20
-3.38754178548234
30
0
41
1
10
76.2522353540995
20
-3.54343957388127
30
0
41
1
10
76.4715765647267
20
-3.68382794763986
30
0
0
SPLINE
5
15D
100
AcDbEntity
8
1
62
256
6
ByLayer
370
13
48
1
60
0
100
AcDbSpline
70
4
71
3
72
10
73
6
40
0
40
0
40
0
40
0
40
0.812931652353805
40
0.812931652353805
40
1
40
1
40
1
40
1
41
1
10
75.4655618269024
20
-1.38235454486829
30
0
41
1
10
75.4905044130484
20
-1.41070004757913
30
0
41
1
10
75.5093173194924
20
-1.44455203400491
30
0
41
1
10
75.5191608890839
20
-1.49194372824118
30
0
41
1
10
75.5204525785783
20
-1.50117904809591
30
0
41
1
10
75.5211345260092
20
-1.51063481009621
30
0
0
SPLINE
5
15E
100
AcDbEntity
8
1
62
256
6
ByLayer
370
13
48
1
60
0
100
AcDbSpline
70
4
71
3
72
12
73
8
40
0
40
0
40
0
40
0
40
0.419184864075828
40
0.419184864075828
40
0.521895266235895
40
0.521895266235895
40
1
40
1
40
1
40
1
41
1
10
75.5211345260091
20
-1.51063481009621
30
0
41
1
10
75.5237504340724
20
-1.54690652686128
30
0
41
1
10
75.5343283545523
20
-1.5879583166504
30
0
41
1
10
75.5559667433271
20
-1.64006795904896
30
0
41
1
10
75.5606993957358
20
-1.65051845835384
30
0
41
1
10
75.5894233514625
20
-1.70905883581676
30
0
41
1
10
75.6220730803716
20
-1.75837158239094
30
0
41
1
10
75.6609228658779
20
-1.80380381012671
30
0
0
SPLINE
5
15F
100
AcDbEntity
8
1
62
256
6
ByLayer
370
13
48
1
60
0
100
AcDbSpline
70
4
71
3
72
18
73
14
40
0
40
0
40
0
40
0
40
0.303051933317988
40
0.303051933317988
40
0.487257767964007
40
0.487257767964007
40
0.499533009530601
40
0.499533009530601
40
0.667187139568689
40
0.667187139568689
40
0.695147561451768
40
0.695147561451768
40
1
40
1
40
1
40
1
41
1
10
75.6609228658779
20
-1.80380381012671
30
0
41
1
10
75.7135335135174
20
-1.86532844645737
30
0
41
1
10
75.7619362646627
20
-1.93495776464565
30
0
41
1
10
75.8111946407649
20
-2.0602530619002
30
0
41
1
10
75.8231149559066
20
-2.11213641434756
30
0
41
1
10
75.8246102881376
20
-2.16726468122943
30
0
41
1
10
75.8246606321735
20
-2.17077352500459
30
0
41
1
10
75.8247477590766
20
-2.22141151306252
30
0
41
1
10
75.8161442690325
20
-2.26910754887541
30
0
41
1
10
75.7987132174386
20
-2.32085965954761
30
0
41
1
10
75.7960149985793
20
-2.32827941649205
30
0
41
1
10
75.7626142306366
20
-2.41407000894918
30
0
41
1
10
75.7138905703339
20
-2.48425405916152
30
0
41
1
10
75.6609229052364
20
-2.54619625024941
30
0
0
SPLINE
5
160
100
AcDbEntity
8
1
62
256
6
ByLayer
370
13
48
1
60
0
100
AcDbSpline
70
4
71
3
72
12
73
8
40
0
40
0
40
0
40
0
40
0.059394264300233
40
0.059394264300233
40
0.553288200423872
40
0.553288200423872
40
1
40
1
40
1
40
1
41
1
10
75.6609229052364
20
-2.54619625024941
30
0
41
1
10
75.6560249902391
20
-2.55192403881907
30
0
41
1
10
75.651230555261
20
-2.55770167640901
30
0
41
1
10
75.6081599802425
20
-2.61119162141799
30
0
41
1
10
75.5766828886214
20
-2.66264791487333
30
0
41
1
10
75.5357697752028
20
-2.7566007597342
30
0
41
1
10
75.5239217382615
20
-2.80072056892703
30
0
41
1
10
75.5211347111541
20
-2.83936531345202
30
0
0
SPLINE
5
161
100
AcDbEntity
8
1
62
256
6
ByLayer
370
13
48
1
60
0
100
AcDbSpline
70
4
71
3
72
10
73
6
40
0
40
0
40
0
40
0
40
0.812842204044401
40
0.812842204044401
40
1
40
1
40
1
40
1
41
1
10
75.5211347111541
20
-2.83936531345202
30
0
41
1
10
75.5182139494672
20
-2.87986441333746
30
0
41
1
10
75.5036615838422
20
-2.91637851183904
30
0
41
1
10
75.4768473699088
20
-2.95415777118328
30
0
41
1
10
75.4713784689837
20
-2.96103575832032
30
0
41
1
10
75.4655620286946
20
-2.96764574157737
30
0
0
SPLINE
5
162
100
AcDbEntity
8
1
62
256
6
ByLayer
370
13
48
1
60
0
100
AcDbSpline
70
4
71
3
72
8
73
4
40
0
40
0
40
0
40
0
40
1
40
1
40
1
40
1
41
1
10
75.4655620286946
20
-2.96764574157737
30
0
41
1
10
75.3277223079949
20
-2.98681534233666
30
0
41
1
10
75.1898798111548
20
-3.00596608169823
30
0
41
1
10
75.0520355651061
20
-3.02510476850424
30
0
0
SPLINE
5
163
100
AcDbEntity
8
1
62
256
6
ByLayer
370
13
48
1
60
0
100
AcDbSpline
70
4
71
3
72
14
73
10
40
0
40
0
40
0
40
0
40
0.102447041397989
40
0.102447041397989
40
0.525388411553141
40
0.525388411553141
40
0.919987754093892
40
0.919987754093892
40
1
40
1
40
1
40
1
41
1
10
75.0520355651061
20
-3.02510476850424
30
0
41
1
10
75.0324592862908
20
-3.02782279468096
30
0
41
1
10
75.0129161067098
20
-3.03085487778597
30
0
41
1
10
74.9139233159999
20
-3.04780429936991
30
0
41
1
10
74.8351625923797
20
-3.06668657114028
30
0
41
1
10
74.6931025586168
20
-3.10847316959541
30
0
41
1
10
74.6307076370283
20
-3.13320737289391
30
0
41
1
10
74.5654061680181
20
-3.16527776789599
30
0
41
1
10
74.5545512003208
20
-3.17082826636616
30
0
41
1
10
74.5440056455243
20
-3.17645694132926
30
0
0
SPLINE
5
164
100
AcDbEntity
8
1
62
256
6
ByLayer
370
13
48
1
60
0
100
AcDbSpline
70
4
71
3
72
14
73
10
40
0
40
0
40
0
40
0
40
0.15204037662591
40
0.15204037662591
40
0.440443065599007
40
0.440443065599007
40
0.719928934942157
40
0.719928934942157
40
1
40
1
40
1
40
1
41
1
10
74.5440056455243
20
-3.17645694132926
30
0
41
1
10
74.5321089705187
20
-3.1828067747937
30
0
41
1
10
74.5192322013557
20
-3.1889241357255
30
0
41
1
10
74.4798769240089
20
-3.20553135678651
30
0
41
1
10
74.4508842095019
20
-3.21530294432088
30
0
41
1
10
74.3909384751368
20
-3.2308404738734
30
0
41
1
10
74.3593518723186
20
-3.23689465359328
30
0
41
1
10
74.2967214890184
20
-3.24463992750651
30
0
41
1
10
74.2648490497149
20
-3.24641521693681
30
0
41
1
10
74.235163296305
20
-3.24589224943566
30
0
0
SPLINE
5
165
100
AcDbEntity
8
1
62
256
6
ByLayer
370
13
48
1
60
0
100
AcDbSpline
70
4
71
3
72
8
73
4
40
0
40
0
40
0
40
0
40
1
40
1
40
1
40
1
41
1
10
74.235163296305
20
-3.24589224943566
30
0
41
1
10
74.1116779762095
20
-3.24371683524319
30
0
41
1
10
73.9882816195312
20
-3.24130916358487
30
0
41
1
10
73.864905395161
20
-3.23911235010243
30
0
0
SPLINE
5
166
100
AcDbEntity
8
1
62
256
6
ByLayer
370
13
48
1
60
0
100
AcDbSpline
70
4
71
3
72
12
73
8
40
0
40
0
40
0
40
0
40
0.32728025931415
40
0.32728025931415
40
0.707681653994561
40
0.707681653994561
40
1
40
1
40
1
40
1
41
1
10
73.864905395161
20
-3.23911235010243
30
0
41
1
10
73.8385896978139
20
-3.20715815880416
30
0
41
1
10
73.8091013360519
20
-3.16837374585526
30
0
41
1
10
73.7722979245711
20
-3.05694689058413
30
0
41
1
10
73.7633628845556
20
-2.98130336977039
30
0
41
1
10
73.7684540483802
20
-2.83182520771476
30
0
41
1
10
73.7776464530692
20
-2.7602241822064
30
0
41
1
10
73.7928855278384
20
-2.6864533503751
30
0
0
SPLINE
5
167
100
AcDbEntity
8
1
62
256
6
ByLayer
370
13
48
1
60
0
100
AcDbSpline
70
4
71
3
72
12
73
8
40
0
40
0
40
0
40
0
40
0.358487530595534
40
0.358487530595534
40
0.67894909180414
40
0.67894909180414
40
1
40
1
40
1
40
1
41
1
10
73.7928855278384
20
-2.6864533503751
30
0
41
1
10
73.8101021066424
20
-2.68053981220149
30
0
41
1
10
73.8273824407111
20
-2.67478412674376
30
0
41
1
10
73.860215276265
20
-2.66417662105138
30
0
41
1
10
73.8757583280478
20
-2.65929315521402
30
0
41
1
10
73.9069529184184
20
-2.64976028107995
30
0
41
1
10
73.9226059757712
20
-2.6451109009557
30
0
41
1
10
73.9382953258455
20
-2.64058096109656
30
0
0
SPLINE
5
168
100
AcDbEntity
8
1
62
256
6
ByLayer
370
13
48
1
60
0
100
AcDbSpline
70
4
71
3
72
8
73
4
40
0
40
0
40
0
40
0
40
1
40
1
40
1
40
1
41
1
10
73.9382953258455
20
-2.64058096109656
30
0
41
1
10
73.9416733187259
20
-2.63960564315667
30
0
41
1
10
73.9450514372896
20
-2.6386306360636
30
0
41
1
10
73.948429680894
20
-2.63765594159287
30
0
0
SPLINE
5
169
100
AcDbEntity
8
1
62
256
6
ByLayer
370
13
48
1
60
0
100
AcDbSpline
70
4
71
3
72
16
73
12
40
0
40
0
40
0
40
0
40
0.226396549712979
40
0.226396549712979
40
0.49604828471296
40
0.49604828471296
40
0.75456075351648
40
0.75456075351648
40
0.960928711930137
40
0.960928711930137
40
1
40
1
40
1
40
1
41
1
10
73.948429680894
20
-2.63765594159381
30
0
41
1
10
73.9849980284647
20
-2.62710520270258
30
0
41
1
10
74.020752575175
20
-2.61281421940711
30
0
41
1
10
74.0931438135199
20
-2.57297307793402
30
0
41
1
10
74.1295704288592
20
-2.54520547521889
30
0
41
1
10
74.1876067105569
20
-2.4806510232311
30
0
41
1
10
74.2105886007523
20
-2.44325015400875
30
0
41
1
10
74.2363122457502
20
-2.37111253614106
30
0
41
1
10
74.2424833383663
20
-2.33647223818318
30
0
41
1
10
74.242759582289
20
-2.29550157316774
30
0
41
1
10
74.2425919492039
20
-2.28889295060961
30
0
41
1
10
74.2422132359233
20
-2.28229525318818
30
0
0
SPLINE
5
16A
100
AcDbEntity
8
1
62
256
6
ByLayer
370
13
48
1
60
0
100
AcDbSpline
70
4
71
3
72
8
73
4
40
0
40
0
40
0
40
0
40
1
40
1
40
1
40
1
41
1
10
74.2422132359233
20
-2.28229525318818
30
0
41
1
10
74.2381359316433
20
-2.21126309954695
30
0
41
1
10
74.2381359366078
20
-2.1387369795716
30
0
41
1
10
74.2422132508815
20
-2.06770482903812
30
0
0
SPLINE
5
16B
100
AcDbEntity
8
1
62
256
6
ByLayer
370
13
48
1
60
0
100
AcDbSpline
70
4
71
3
72
14
73
10
40
0
40
0
40
0
40
0
40
0.227808198603014
40
0.227808198603014
40
0.466915974097517
40
0.466915974097517
40
0.725559413975037
40
0.725559413975037
40
1
40
1
40
1
40
1
41
1
10
74.2422132508815
20
-2.06770482903812
30
0
41
1
10
74.2443855985
20
-2.0298596906234
30
0
41
1
10
74.2393665326208
20
-1.99115198879704
30
0
41
1
10
74.2156498885991
20
-1.9178805797055
30
0
41
1
10
74.1959293248207
20
-1.88241547141038
30
0
41
1
10
74.1444211748329
20
-1.81869026931989
30
0
41
1
10
74.1110163953101
20
-1.7902004170796
30
0
41
1
10
74.0357732945888
20
-1.74339570610923
30
0
41
1
10
73.9926409003131
20
-1.7250999787278
30
0
41
1
10
73.9484297121925
20
-1.71234411684483
30
0
0
SPLINE
5
16C
100
AcDbEntity
8
1
62
256
6
ByLayer
370
13
48
1
60
0
100
AcDbSpline
70
4
71
3
72
8
73
4
40
0
40
0
40
0
40
0
40
1
40
1
40
1
40
1
41
1
10
73.9484297121925
20
-1.71234411684483
30
0
41
1
10
73.9450514681622
20
-1.7113694220653
30
0
41
1
10
73.9416733491718
20
-1.7103944146649
30
0
41
1
10
73.938295355865
20
-1.70941909641553
30
0
0
SPLINE
5
16D
100
AcDbEntity
8
1
62
256
6
ByLayer
370
13
48
1
60
0
100
AcDbSpline
70
4
71
3
72
12
73
8
40
0
40
0
40
0
40
0
40
0.507485182159569
40
0.507485182159569
40
0.827579760922024
40
0.827579760922024
40
1
40
1
40
1
40
1
41
1
10
73.9382953558651
20
-1.70941909641459
30
0
41
1
10
73.9134968147625
20
-1.70225908527831
30
0
41
1
10
73.8887878028273
20
-1.69480037975305
30
0
41
1
10
73.8486726419301
20
-1.68213679808451
30
0
41
1
10
73.8331982998658
20
-1.67711597209336
30
0
41
1
10
73.8094625902884
20
-1.66919897754514
30
0
41
1
10
73.8011667453271
20
-1.66639111679405
30
0
41
1
10
73.7928855362849
20
-1.66354669263114
30
0
0
SPLINE
5
16E
100
AcDbEntity
8
1
62
256
6
ByLayer
370
13
48
1
60
0
100
AcDbSpline
70
4
71
3
72
14
73
10
40
0
40
0
40
0
40
0
40
0.174964566773922
40
0.174964566773922
40
0.581070400641029
40
0.581070400641029
40
0.936777115762908
40
0.936777115762908
40
1
40
1
40
1
40
1
41
1
10
73.7928855362849
20
-1.66354669263114
30
0
41
1
10
73.783702767459
20
-1.61909382895522
30
0
41
1
10
73.7767060888798
20
-1.57552598573776
30
0
41
1
10
73.7616844548897
20
-1.43826755001078
30
0
41
1
10
73.7641619121848
20
-1.35012401548005
30
0
41
1
10
73.7931235303016
20
-1.21696445512689
30
0
41
1
10
73.8169014232755
20
-1.16609159490531
30
0
41
1
10
73.8539980910054
20
-1.12321640221225
30
0
41
1
10
73.8597682725895
20
-1.11712570825819
30
0
41
1
10
73.8649053974482
20
-1.11088788734577
30
0
0
SPLINE
5
16F
100
AcDbEntity
8
1
62
256
6
ByLayer
370
18
48
1
60
0
100
AcDbSpline
70
4
71
2
72
7
73
4
40
0
40
0
40
0
40
0.708870800350795
40
1
40
1
40
1
41
1
10
73.2986055392391
20
-4.375
30
0
41
1
10
73.0751549314991
20
-4.375
30
0
41
1
10
72.9464550520322
20
-4.375
30
0
41
1
10
72.9314365392391
20
-4.375
30
0
0
SPLINE
5
170
100
AcDbEntity
8
1
62
256
6
ByLayer
370
13
48
1
60
0
100
AcDbSpline
70
4
71
3
72
10
73
6
40
0
40
0
40
0
40
0
40
0.317064872302993
40
0.317064872302993
40
1
40
1
40
1
40
1
41
1
10
73.8649053974482
20
-1.1108878873458
30
0
41
1
10
73.9040236620118
20
-1.11019137507151
30
0
41
1
10
73.9430373997723
20
-1.1093230751531
30
0
41
1
10
74.066452021748
20
-1.10703725449471
30
0
41
1
10
74.1508304836203
20
-1.10559379363778
30
0
41
1
10
74.2351632251839
20
-1.10410815079476
30
0
0
SPLINE
5
171
100
AcDbEntity
8
1
62
256
6
ByLayer
370
13
48
1
60
0
100
AcDbSpline
70
4
71
3
72
14
73
10
40
0
40
0
40
0
40
0
40
0.0629171722654902
40
0.0629171722654902
40
0.360926335929676
40
0.360926335929676
40
0.68129834430082
40
0.68129834430082
40
1
40
1
40
1
40
1
41
1
10
74.2351632251839
20
-1.10410815079476
30
0
41
1
10
74.24194031934
20
-1.1039887625092
30
0
41
1
10
74.2488122949276
20
-1.10398573925644
30
0
41
1
10
74.2880807841643
20
-1.10462751886644
30
0
41
1
10
74.3224484834362
20
-1.10778388994484
30
0
41
1
10
74.391180122346
20
-1.11897288643433
30
0
41
1
10
74.4264982847355
20
-1.12752135134653
30
0
41
1
10
74.4900591762722
20
-1.14807718819298
30
0
41
1
10
74.5192879379177
20
-1.1603505069011
30
0
41
1
10
74.5440056178101
20
-1.17354353452944
30
0
0
SPLINE
5
172
100
AcDbEntity
8
1
62
256
6
ByLayer
370
13
48
1
60
0
100
AcDbSpline
70
4
71
3
72
12
73
8
40
0
40
0
40
0
40
0
40
0.146285672307715
40
0.146285672307715
40
0.570909324013412
40
0.570909324013412
40
1
40
1
40
1
40
1
41
1
10
74.5440056178101
20
-1.17354353452944
30
0
41
1
10
74.5633830780363
20
-1.18388622725971
30
0
41
1
10
74.5838104178634
20
-1.1939731117256
30
0
41
1
10
74.6656707087217
20
-1.23162050666329
30
0
41
1
10
74.7379586329225
20
-1.25603287506357
30
0
41
1
10
74.8898448255197
20
-1.29663726005779
30
0
41
1
10
74.9709017387468
20
-1.31363084598723
30
0
41
1
10
75.0520356091022
20
-1.32489568678844
30
0
0
SPLINE
5
173
100
AcDbEntity
8
1
62
256
6
ByLayer
370
18
48
1
60
0
100
AcDbSpline
70
4
71
3
72
16
73
12
40
0
40
0
40
0
40
0
40
0.0452651449288983
40
0.510303489176081
40
0.742822661299673
40
0.859082247361468
40
0.917212040392366
40
0.946276936907815
40
0.96080938516554
40
0.975341833423264
40
1
40
1
40
1
40
1
41
1
10
73.2986246430131
20
0.0250000000000057
30
0
41
1
10
73.2927891088829
20
0.0250000000000057
30
0
41
1
10
73.227001343463
20
0.0250000000000057
30
0
41
1
10
73.1312377274569
20
0.0250000000000057
30
0
41
1
10
73.0263192243348
20
0.0250000000000057
30
0
41
1
10
72.9738635552327
20
0.0250000000000057
30
0
41
1
10
72.9476303454672
20
0.0250000000000057
30
0
41
1
10
72.9345221056094
20
0.0250000000000057
30
0
41
1
10
72.9270180784932
20
0.0250000000000057
30
0
41
1
10
72.9198259414843
20
0.0250000000000057
30
0
41
1
10
72.9141937008648
20
0.0250000000000057
30
0
41
1
10
72.9105156430153
20
0.0250000000000057
30
0
0
SPLINE
5
174
100
AcDbEntity
8
1
62
256
6
ByLayer
370
13
48
1
60
0
100
AcDbSpline
70
4
71
3
72
8
73
4
40
0
40
0
40
0
40
0
40
1
40
1
40
1
40
1
41
1
10
75.0520356091022
20
-1.32489568678844
30
0
41
1
10
75.1898797708723
20
-1.34403433419811
30
0
41
1
10
75.3277221857777
20
-1.36318501728158
30
0
41
1
10
75.465561826902
20
-1.38235454486781
30
0
0
SPLINE
5
175
100
AcDbEntity
8
1
62
256
6
ByLayer
370
13
48
1
60
0
100
AcDbSpline
70
4
71
3
72
10
73
6
40
0
40
0
40
0
40
0
40
0.429814431875093
40
0.429814431875093
40
1
40
1
40
1
40
1
41
1
10
72.9291721825288
20
-4.22842752540396
30
0
41
1
10
72.9817507403392
20
-4.22704638569593
30
0
41
1
10
73.0334870091772
20
-4.22839388137245
30
0
41
1
10
73.154824648867
20
-4.22839011800841
30
0
41
1
10
73.2240085957053
20
-4.22839120857864
30
0
41
1
10
73.2931927050601
20
-4.22839178564044
30
0
0
SPLINE
5
176
100
AcDbEntity
8
1
62
256
6
ByLayer
370
13
48
1
60
0
100
AcDbSpline
70
4
71
3
72
8
73
4
40
0
40
0
40
0
40
0
40
1
40
1
40
1
40
1
41
1
10
73.2931927050601
20
-4.22839178564044
30
0
41
1
10
73.2950100653161
20
-4.22839180079896
30
0
41
1
10
73.2968341520919
20
-4.22872545215927
30
0
41
1
10
73.2986272418367
20
-4.22942589900293
30
0
0
SPLINE
5
177
100
AcDbEntity
8
1
62
256
6
ByLayer
370
13
48
1
60
0
100
AcDbSpline
70
4
71
3
72
10
73
6
40
0
40
0
40
0
40
0
40
0.66186493310015
40
0.66186493310015
40
1
40
1
40
1
40
1
41
1
10
76.522546519857
20
-3.8237350489126
30
0
41
1
10
76.5218272660526
20
-3.82386603913343
30
0
41
1
10
76.5211157003955
20
-3.82408164255048
30
0
41
1
10
76.5200910301868
20
-3.82456046221952
30
0
41
1
10
76.5197512894157
20
-3.82474989742201
30
0
41
1
10
76.5194240279075
20
-3.8249672236966
30
0
0
SPLINE
5
178
100
AcDbEntity
8
1
62
256
6
ByLayer
370
13
48
1
60
0
100
AcDbSpline
70
4
71
3
72
12
73
8
40
0
40
0
40
0
40
0
40
0.446162353448865
40
0.446162353448865
40
0.913525316268472
40
0.913525316268472
40
1
40
1
40
1
40
1
41
1
10
78.3080209311119
20
-3.90887581209546
30
0
41
1
10
78.0237379010492
20
-3.86237967023021
30
0
41
1
10
77.7341683347816
20
-3.81837739962293
30
0
41
1
10
77.173398570925
20
-3.77700246212592
30
0
41
1
10
76.8958173425284
20
-3.77470275143597
30
0
41
1
10
76.6097198409166
20
-3.80930612689323
30
0
41
1
10
76.5654951334019
20
-3.81591326425351
30
0
41
1
10
76.522546519857
20
-3.8237350489126
30
0
0
SPLINE
5
179
100
AcDbEntity
8
1
62
256
6
ByLayer
370
13
48
1
60
0
100
AcDbSpline
70
4
71
3
72
8
73
4
40
0
40
0
40
0
40
0
40
1
40
1
40
1
40
1
41
1
10
73.2986272418368
20
-0.120574100996663
30
0
41
1
10
73.2968341520921
20
-0.121274547840358
30
0
41
1
10
73.2950100653161
20
-0.121608199201034
30
0
41
1
10
73.2931927050601
20
-0.121608214359554
30
0
0
SPLINE
5
17A
100
AcDbEntity
8
1
62
256
6
ByLayer
370
13
48
1
60
0
100
AcDbSpline
70
4
71
3
72
12
73
8
40
0
40
0
40
0
40
0
40
0.097045488675419
40
0.097045488675419
40
0.46856848705314
40
0.46856848705314
40
1
40
1
40
1
40
1
41
1
10
73.2931927050601
20
-0.121608214359554
30
0
41
1
10
73.2814175811818
20
-0.121608312575375
30
0
41
1
10
73.2696424637538
20
-0.121608431171268
30
0
41
1
10
73.2127882142952
20
-0.121609021246485
30
0
41
1
10
73.167709088726
20
-0.121609513148769
30
0
41
1
10
73.0581471684549
20
-0.121607533133272
30
0
41
1
10
72.9941814061991
20
-0.123280144489229
30
0
41
1
10
72.9291721825288
20
-0.121572474596036
30
0
0
SPLINE
5
17B
100
AcDbEntity
8
1
62
256
6
ByLayer
370
13
48
1
60
0
100
AcDbSpline
70
4
71
3
72
8
73
4
40
0
40
0
40
0
40
0
40
1
40
1
40
1
40
1
41
1
10
76.5194240279072
20
-3.82496722369663
30
0
41
1
10
76.5375224093968
20
-4.05895553917904
30
0
41
1
10
76.5560816104739
20
-4.29290876262758
30
0
41
1
10
76.5751468255074
20
-4.52682028979322
30
0
0
SPLINE
5
17C
100
AcDbEntity
8
1
62
256
6
ByLayer
370
13
48
1
60
0
100
AcDbSpline
70
4
71
3
72
12
73
8
40
0
40
0
40
0
40
0
40
0.446162353448865
40
0.446162353448865
40
0.913525316268472
40
0.913525316268472
40
1
40
1
40
1
40
1
41
1
10
78.3080209311119
20
-0.441124187904563
30
0
41
1
10
78.0237379010492
20
-0.487620329769811
30
0
41
1
10
77.7341683347816
20
-0.531622600377091
30
0
41
1
10
77.173398570925
20
-0.572997537874102
30
0
41
1
10
76.8958173425284
20
-0.575297248564056
30
0
41
1
10
76.6097198409166
20
-0.54069387310679
30
0
41
1
10
76.5654951334019
20
-0.534086735746513
30
0
41
1
10
76.522546519857
20
-0.526264951087427
30
0
0
SPLINE
5
17D
100
AcDbEntity
8
1
62
256
6
ByLayer
370
13
48
1
60
0
100
AcDbSpline
70
4
71
3
72
10
73
6
40
0
40
0
40
0
40
0
40
0.66186493310015
40
0.66186493310015
40
1
40
1
40
1
40
1
41
1
10
76.522546519857
20
-0.526264951087427
30
0
41
1
10
76.5218272660526
20
-0.526133960866559
30
0
41
1
10
76.5211157003955
20
-0.525918357449513
30
0
41
1
10
76.5200910301868
20
-0.5254395377805
30
0
41
1
10
76.5197512894157
20
-0.525250102578013
30
0
41
1
10
76.5194240279075
20
-0.525032776303419
30
0
0
SPLINE
5
17E
100
AcDbEntity
8
1
62
256
6
ByLayer
370
13
48
1
60
0
100
AcDbSpline
70
4
71
3
72
8
73
4
40
0
40
0
40
0
40
0
40
1
40
1
40
1
40
1
41
1
10
76.5194240279072
20
-0.525032776303391
30
0
41
1
10
76.5375224093968
20
-0.291044460820984
30
0
41
1
10
76.5560816104739
20
-0.0570912373724468
30
0
41
1
10
76.5751468255074
20
0.176820289793227
30
0
0
SPLINE
5
17F
100
AcDbEntity
8
1
62
256
6
ByLayer
370
13
48
1
60
0
100
AcDbSpline
70
4
71
3
72
8
73
4
40
0
40
0
40
0
40
0
40
1
40
1
40
1
40
1
41
1
10
75.0823583168192
20
-3.24508738446343
30
0
41
1
10
75.2202111766753
20
-3.22608552822976
30
0
41
1
10
75.3580655312504
20
-3.20709451418918
30
0
41
1
10
75.4959209603993
20
-3.18811130674115
30
0
0
SPLINE
5
180
100
AcDbEntity
8
1
62
256
6
ByLayer
370
13
48
1
60
0
100
AcDbSpline
70
4
71
3
72
10
73
6
40
0
40
0
40
0
40
0
40
0.735245446204665
40
0.735245446204665
40
1
40
1
40
1
40
1
41
1
10
76.3604948530829
20
-3.84476474106967
30
0
41
1
10
76.1351841532663
20
-3.70302994820915
30
0
41
1
10
75.9190513871272
20
-3.54577372589557
30
0
41
1
10
75.6398209448932
20
-3.31516368117914
30
0
41
1
10
75.5671678688689
20
-3.25239907561783
30
0
41
1
10
75.4959209603993
20
-3.18811130674112
30
0
0
SPLINE
5
181
100
AcDbEntity
8
1
62
256
6
ByLayer
370
13
48
1
60
0
100
AcDbSpline
70
4
71
3
72
8
73
4
40
0
40
0
40
0
40
0
40
1
40
1
40
1
40
1
41
1
10
76.4189357069485
20
-4.52110199799975
30
0
41
1
10
76.3989606781221
20
-4.29569954249632
30
0
41
1
10
76.3794949705365
20
-4.07025146852902
30
0
41
1
10
76.360494853083
20
-3.84476474106964
30
0
0
SPLINE
5
182
100
AcDbEntity
8
1
62
256
6
ByLayer
370
13
48
1
60
0
100
AcDbSpline
70
4
71
3
72
8
73
4
40
0
40
0
40
0
40
0
40
1
40
1
40
1
40
1
41
1
10
76.4189357069485
20
0.171101997999728
30
0
41
1
10
76.3989606781221
20
-0.0543004575037003
30
0
41
1
10
76.3794949705365
20
-0.279748531471
30
0
41
1
10
76.360494853083
20
-0.505235258930384
30
0
0
SPLINE
5
183
100
AcDbEntity
8
1
62
256
6
ByLayer
370
13
48
1
60
0
100
AcDbSpline
70
4
71
3
72
8
73
4
40
0
40
0
40
0
40
0
40
1
40
1
40
1
40
1
41
1
10
75.4959206607396
20
-1.16188896364901
30
0
41
1
10
75.3580653291587
20
-1.14290583221438
30
0
41
1
10
75.2202110744688
20
-1.12391487732518
30
0
41
1
10
75.0823583168192
20
-1.1049130633925
30
0
0
SPLINE
5
184
100
AcDbEntity
8
1
62
256
6
ByLayer
370
13
48
1
60
0
100
AcDbSpline
70
4
71
3
72
14
73
10
40
0
40
0
40
0
40
0
40
0.285062144130617
40
0.285062144130617
40
0.566464995147806
40
0.566464995147806
40
0.851712725177373
40
0.851712725177373
40
1
40
1
40
1
40
1
41
1
10
74.1813466597388
20
-3.47361429890137
30
0
41
1
10
74.2354314797172
20
-3.47414104295734
30
0
41
1
10
74.2933676072006
20
-3.4723845162134
30
0
41
1
10
74.4074421942018
20
-3.46465013688493
30
0
41
1
10
74.464968326041
20
-3.45863587430833
30
0
41
1
10
74.5742320266077
20
-3.44310218375514
30
0
41
1
10
74.6271918556632
20
-3.43335361595698
30
0
41
1
10
74.6992914010575
20
-3.41665549093389
30
0
41
1
10
74.7227954896707
20
-3.4105320054565
30
0
41
1
10
74.7445778714942
20
-3.40414777969332
30
0
0
SPLINE
5
185
100
AcDbEntity
8
1
62
256
6
ByLayer
370
13
48
1
60
0
100
AcDbSpline
70
4
71
3
72
10
73
6
40
0
40
0
40
0
40
0
40
0.735245173215393
40
0.735245173215393
40
1
40
1
40
1
40
1
41
1
10
76.3604948530829
20
-0.505235258930355
30
0
41
1
10
76.1351841532663
20
-0.646970051790873
30
0
41
1
10
75.9190513871272
20
-0.804226274104451
30
0
41
1
10
75.6398208411871
20
-1.03483640446939
30
0
41
1
10
75.5671676651882
20
-1.09760110034242
30
0
41
1
10
75.4959206607523
20
-1.16188896363752
30
0
0
SPLINE
5
186
100
AcDbEntity
8
1
62
256
6
ByLayer
370
13
48
1
60
0
100
AcDbSpline
70
4
71
3
72
14
73
10
40
0
40
0
40
0
40
0
40
0.312465139410283
40
0.312465139410283
40
0.633033174040285
40
0.633033174040285
40
0.935779057490139
40
0.935779057490139
40
1
40
1
40
1
40
1
41
1
10
74.7445778714941
20
-0.94585269677458
30
0
41
1
10
74.6990942811235
20
-0.93252185158741
30
0
41
1
10
74.6456101801587
20
-0.920254902968708
30
0
41
1
10
74.5296637122458
20
-0.899683265981139
30
0
41
1
10
74.4652792914177
20
-0.891190921235591
30
0
41
1
10
74.3401538762821
20
-0.880021319762164
30
0
41
1
10
74.2776897780797
20
-0.876898191408628
30
0
41
1
10
74.2062380517514
20
-0.8762618704678
30
0
41
1
10
74.1937073862825
20
-0.876265728680579
30
0
41
1
10
74.1813466597388
20
-0.876386110404979
30
0
0
SPLINE
5
187
100
AcDbEntity
8
1
62
256
6
ByLayer
370
13
48
1
60
0
100
AcDbSpline
70
4
71
3
72
12
73
8
40
0
40
0
40
0
40
0
40
0.456747676619458
40
0.456747676619458
40
0.981156035943025
40
0.981156035943025
40
1
40
1
40
1
40
1
41
1
10
76.4509746186693
20
-0.637382333278367
30
0
41
1
10
76.4395358361747
20
-0.620639319822686
30
0
41
1
10
76.4264052498597
20
-0.601434603949627
30
0
41
1
10
76.3966976735127
20
-0.558032118411631
30
0
41
1
10
76.3794123714819
20
-0.532806860441383
30
0
41
1
10
76.361726655458
20
-0.507030455178693
30
0
41
1
10
76.361110738461
20
-0.50613285386703
30
0
41
1
10
76.3604948530776
20
-0.505235258933169
30
0
0
SPLINE
5
188
100
AcDbEntity
8
1
62
256
6
ByLayer
370
13
48
1
60
0
100
AcDbSpline
70
4
71
3
72
10
73
6
40
0
40
0
40
0
40
0
40
0.648249027969341
40
0.648249027969341
40
1
40
1
40
1
40
1
41
1
10
76.4715765647289
20
-0.666172052358718
30
0
41
1
10
76.4674517415713
20
-0.660721204941524
30
0
41
1
10
76.4630893933127
20
-0.6547365030099
30
0
41
1
10
76.4560766784025
20
-0.644793444559525
30
0
41
1
10
76.4535496776649
20
-0.641151462328651
30
0
41
1
10
76.4509746186698
20
-0.637382333278026
30
0
0
SPLINE
5
189
100
AcDbEntity
8
1
62
256
6
ByLayer
370
13
48
1
60
0
100
AcDbSpline
70
4
71
3
72
10
73
6
40
0
40
0
40
0
40
0
40
0.648249027969341
40
0.648249027969341
40
1
40
1
40
1
40
1
41
1
10
76.4715765647289
20
-3.6838279476413
30
0
41
1
10
76.4674517415713
20
-3.6892787950585
30
0
41
1
10
76.4630893933127
20
-3.69526349699009
30
0
41
1
10
76.4560766784025
20
-3.7052065554405
30
0
41
1
10
76.4535496776649
20
-3.70884853767137
30
0
41
1
10
76.4509746186698
20
-3.712617666722
30
0
0
SPLINE
5
18A
100
AcDbEntity
8
1
62
256
6
ByLayer
370
13
48
1
60
0
100
AcDbSpline
70
4
71
3
72
12
73
8
40
0
40
0
40
0
40
0
40
0.456747676619458
40
0.456747676619458
40
0.981156035943025
40
0.981156035943025
40
1
40
1
40
1
40
1
41
1
10
76.4509746186693
20
-3.71261766672166
30
0
41
1
10
76.4395358361747
20
-3.72936068017731
30
0
41
1
10
76.4264052498597
20
-3.74856539605039
30
0
41
1
10
76.3966976735127
20
-3.79196788158839
30
0
41
1
10
76.3794123714819
20
-3.81719313955861
30
0
41
1
10
76.361726655458
20
-3.8429695448213
30
0
41
1
10
76.361110738461
20
-3.84386714613297
30
0
41
1
10
76.3604948530776
20
-3.84476474106685
30
0
0
SPLINE
5
18B
100
AcDbEntity
8
1
62
256
6
ByLayer
370
13
48
1
60
0
100
AcDbSpline
70
4
71
3
72
10
73
6
40
0
40
0
40
0
40
0
40
0.47226940634438
40
0.47226940634438
40
1
40
1
40
1
40
1
41
1
10
75.8148303211307
20
-1.69626007055285
30
0
41
1
10
75.7820572623393
20
-1.66247984468336
30
0
41
1
10
75.7542413036991
20
-1.62608142070957
30
0
41
1
10
75.7086468495571
20
-1.55154663325735
30
0
41
1
10
75.691635919795
20
-1.51272979083916
30
0
41
1
10
75.6829840127523
20
-1.47909030476362
30
0
0
SPLINE
5
18C
100
AcDbEntity
8
1
62
256
6
ByLayer
370
13
48
1
60
0
100
AcDbSpline
70
4
71
3
72
11
73
7
40
0
40
0
40
0
40
0
40
0.377684193944734
40
0.377684193944734
40
0.377684193944734
40
1
40
1
40
1
40
1
41
1
10
75.8148303211302
20
-1.69626007055353
30
0
41
1
10
76.0560408700062
20
-1.64217577688407
30
0
41
1
10
76.3141929682629
20
-1.58311931650937
30
0
41
1
10
76.5806434977873
20
-1.52147296834372
30
0
41
1
10
77.0160384766795
20
-1.42073940813543
30
0
41
1
10
77.4839774507975
20
-1.31057592999122
30
0
41
1
10
77.9452047820325
20
-1.20124910849188
30
0
0
SPLINE
5
18D
100
AcDbEntity
8
1
62
256
6
ByLayer
370
13
48
1
60
0
100
AcDbSpline
70
4
71
3
72
12
73
8
40
0
40
0
40
0
40
0
40
0.450990104104386
40
0.450990104104386
40
0.941653153234684
40
0.941653153234684
40
1
40
1
40
1
40
1
41
1
10
75.6829842751338
20
-2.87090976386358
30
0
41
1
10
75.6903964617538
20
-2.84209032614819
30
0
41
1
10
75.7039100726209
20
-2.80955166618037
30
0
41
1
10
75.7430512977276
20
-2.73999044455644
30
0
41
1
10
75.7702053188827
20
-2.70200833367767
30
0
41
1
10
75.8067394296903
20
-2.66219705059655
30
0
41
1
10
75.8107449633076
20
-2.65795096106757
30
0
41
1
10
75.814830417275
20
-2.65373995100032
30
0
0
SPLINE
5
18E
100
AcDbEntity
8
1
62
256
6
ByLayer
370
13
48
1
60
0
100
AcDbSpline
70
4
71
3
72
11
73
7
40
0
40
0
40
0
40
0
40
0.37768416286754
40
0.37768416286754
40
0.37768416286754
40
1
40
1
40
1
40
1
41
1
10
75.8148304172784
20
-2.65373995100487
30
0
41
1
10
76.056040938399
20
-2.70782423874735
30
0
41
1
10
76.3141930034681
20
-2.76688069163575
30
0
41
1
10
76.5806434977873
20
-2.82852703165631
30
0
41
1
10
77.0160384766795
20
-2.92926059186459
30
0
41
1
10
77.4839774507975
20
-3.03942407000881
30
0
41
1
10
77.9452047820325
20
-3.14875089150814
30
0
0
SPLINE
5
18F
100
AcDbEntity
8
1
62
256
6
ByLayer
370
13
48
1
60
0
100
AcDbSpline
70
4
71
3
72
12
73
8
40
0
40
0
40
0
40
0
40
0.420702072206737
40
0.420702072206737
40
0.850903768208396
40
0.850903768208396
40
1
40
1
40
1
40
1
41
1
10
75.0823583168192
20
-1.1049130633925
30
0
41
1
10
75.0271333094112
20
-1.09349462679657
30
0
41
1
10
74.9727761511562
20
-1.07465965566288
30
0
41
1
10
74.8730755541151
20
-1.02989037189835
30
0
41
1
10
74.8260346211675
20
-1.00404654300576
30
0
41
1
10
74.7710197947054
20
-0.966259732156374
30
0
41
1
10
74.7574342791626
20
-0.956160656187535
30
0
41
1
10
74.7445778714941
20
-0.94585269677458
30
0
0
SPLINE
5
190
100
AcDbEntity
8
1
62
256
6
ByLayer
370
13
48
1
60
0
100
AcDbSpline
70
4
71
3
72
12
73
8
40
0
40
0
40
0
40
0
40
0.481621165173274
40
0.481621165173274
40
0.901905632903789
40
0.901905632903789
40
1
40
1
40
1
40
1
41
1
10
74.7445778714941
20
-3.40414777969337
30
0
41
1
10
74.7856306266091
20
-3.37123267067508
30
0
41
1
10
74.8349612796708
20
-3.34067378223099
30
0
41
1
10
74.9365142413742
20
-3.29017685857849
30
0
41
1
10
74.9889703855346
20
-3.26891272099041
30
0
41
1
10
75.0562253817947
20
-3.25089611759225
30
0
41
1
10
75.0692587001345
20
-3.24779589228714
30
0
41
1
10
75.0823583168192
20
-3.24508738446346
30
0
0
SPLINE
5
191
100
AcDbEntity
8
1
62
256
6
ByLayer
370
13
48
1
60
0
100
AcDbSpline
70
4
71
3
72
8
73
4
40
0
40
0
40
0
40
0
40
1
40
1
40
1
40
1
41
1
10
74.1813466597388
20
-0.876386110404979
30
0
41
1
10
74.0579410962567
20
-0.878577957030188
30
0
41
1
10
73.9345373502358
20
-0.880889051872032
30
0
41
1
10
73.8111299346595
20
-0.882959441672597
30
0
0
SPLINE
5
192
100
AcDbEntity
8
1
62
256
6
ByLayer
370
13
48
1
60
0
100
AcDbSpline
70
4
71
3
72
8
73
4
40
0
40
0
40
0
40
0
40
1
40
1
40
1
40
1
41
1
10
73.8111298158822
20
-3.46704081426787
30
0
41
1
10
73.9345372709257
20
-3.4691112665875
30
0
41
1
10
74.0579410564829
20
-3.47142241274005
30
0
41
1
10
74.1813466597388
20
-3.47361429890137
30
0
0
SPLINE
5
193
100
AcDbEntity
8
1
62
256
6
ByLayer
370
13
48
1
60
0
100
AcDbSpline
70
4
71
3
72
14
73
10
40
0
40
0
40
0
40
0
40
0.296336902034371
40
0.296336902034371
40
0.500919501582311
40
0.500919501582311
40
0.705835321647557
40
0.705835321647557
40
1
40
1
40
1
40
1
41
1
10
75.8148304172784
20
-2.65373995100487
30
0
41
1
10
75.8660677167673
20
-2.57164589511217
30
0
41
1
10
75.9104038791952
20
-2.48046653058299
30
0
41
1
10
75.956339122512
20
-2.31615625655027
30
0
41
1
10
75.9668678182986
20
-2.24475084156049
30
0
41
1
10
75.9666931573395
20
-2.10327923221655
30
0
41
1
10
75.9559491921173
20
-2.03179727180466
30
0
41
1
10
75.9097690342969
20
-1.86822017796959
30
0
41
1
10
75.8657051166848
20
-1.7777732503863
30
0
41
1
10
75.8148303211301
20
-1.69626007055337
30
0
0
SPLINE
5
194
100
AcDbEntity
8
1
62
256
6
ByLayer
370
13
48
1
60
0
100
AcDbSpline
70
4
71
3
72
8
73
4
40
0
40
0
40
0
40
0
40
1
40
1
40
1
40
1
41
1
10
73.2942061665888
20
-0.12820202726482
30
0
41
1
10
73.2961388882516
20
-0.128096703180944
30
0
41
1
10
73.2980820985356
20
-0.12765036067546
30
0
41
1
10
73.3000011338344
20
-0.126836358219379
30
0
0
SPLINE
5
195
100
AcDbEntity
8
1
62
256
6
ByLayer
370
13
48
1
60
0
100
AcDbSpline
70
4
71
3
72
8
73
4
40
0
40
0
40
0
40
0
40
1
40
1
40
1
40
1
41
1
10
73.2942061665888
20
-4.2217979727352
30
0
41
1
10
73.2961388882516
20
-4.22190329681908
30
0
41
1
10
73.2980820985356
20
-4.22234963932456
30
0
41
1
10
73.3000011338344
20
-4.22316364178062
30
0
0
SPLINE
5
196
100
AcDbEntity
8
1
62
256
6
ByLayer
370
13
48
1
60
0
100
AcDbSpline
70
4
71
3
72
12
73
8
40
0
40
0
40
0
40
0
40
0.456750585004434
40
0.456750585004434
40
0.981156431701552
40
0.981156431701552
40
1
40
1
40
1
40
1
41
1
10
76.5194240279075
20
-0.525032776303391
30
0
41
1
10
76.4993013296112
20
-0.522526316987324
30
0
41
1
10
76.4762146633129
20
-0.519650594564268
30
0
41
1
10
76.4240212508577
20
-0.51314903021742
30
0
41
1
10
76.3936761766719
20
-0.509368895611658
30
0
41
1
10
76.3626553113416
20
-0.50550440339984
30
0
41
1
10
76.3615750708371
20
-0.50536982963277
30
0
41
1
10
76.3604948532723
20
-0.505235258944083
30
0
0
SPLINE
5
197
100
AcDbEntity
8
1
62
256
6
ByLayer
370
13
48
1
60
0
100
AcDbSpline
70
4
71
3
72
12
73
8
40
0
40
0
40
0
40
0
40
0.456750585004434
40
0.456750585004434
40
0.981156431701552
40
0.981156431701552
40
1
40
1
40
1
40
1
41
1
10
76.5194240279075
20
-3.8249672236966
30
0
41
1
10
76.4993013296112
20
-3.8274736830127
30
0
41
1
10
76.4762146633129
20
-3.83034940543575
30
0
41
1
10
76.4240212508577
20
-3.8368509697826
30
0
41
1
10
76.3936761766719
20
-3.84063110438831
30
0
41
1
10
76.3626553113416
20
-3.84449559660018
30
0
41
1
10
76.3615750708371
20
-3.84463017036725
30
0
41
1
10
76.3604948532723
20
-3.84476474105594
30
0
0
SPLINE
5
198
100
AcDbEntity
8
1
62
256
6
ByLayer
370
13
48
1
60
0
100
AcDbSpline
70
4
71
3
72
12
73
8
40
0
40
0
40
0
40
0
40
0.407652787610617
40
0.407652787610617
40
0.80675425507476
40
0.80675425507476
40
1
40
1
40
1
40
1
41
1
10
73.6827261627815
20
-0.965382102988286
30
0
41
1
10
73.6423493903773
20
-1.01413501518678
30
0
41
1
10
73.6100632367462
20
-1.08196156034066
30
0
41
1
10
73.5760713525874
20
-1.2564580751725
30
0
41
1
10
73.5722997161055
20
-1.36296091187631
30
0
41
1
10
73.5864044365501
20
-1.53591564267609
30
0
41
1
10
73.5941788065669
20
-1.59571077174252
30
0
41
1
10
73.6048054173026
20
-1.65695167628201
30
0
0
SPLINE
5
199
100
AcDbEntity
8
1
62
256
6
ByLayer
370
13
48
1
60
0
100
AcDbSpline
70
4
71
3
72
24
73
20
40
0
40
0
40
0
40
0
40
0.25
40
0.3125
40
0.3125
40
0.375
40
0.375
40
0.5
40
0.625
40
0.6875
40
0.6875
40
0.75
40
0.75
40
0.875
40
0.875
40
0.9375
40
0.9990234375
40
0.9990234375
40
1
40
1
40
1
40
1
41
1
10
73.7928855362849
20
-1.6635466926312
30
0
41
1
10
73.7735058405859
20
-1.6674389557445
30
0
41
1
10
73.7500219604898
20
-1.67091350523697
30
0
41
1
10
73.7274462335765
20
-1.67269713844928
30
0
41
1
10
73.7184908164345
20
-1.67327066048082
30
0
41
1
10
73.7140357684625
20
-1.67348817403061
30
0
41
1
10
73.7009086714262
20
-1.67392232899096
30
0
41
1
10
73.6840638506437
20
-1.67392425900061
30
0
41
1
10
73.6646031095877
20
-1.67252785160463
30
0
41
1
10
73.6536539959649
20
-1.67105224955805
30
0
41
1
10
73.646520248346
20
-1.66992325519593
30
0
41
1
10
73.6430323536056
20
-1.66928481169541
30
0
41
1
10
73.6329462679787
20
-1.6671733144766
30
0
41
1
10
73.6266760085805
20
-1.66550177724832
30
0
41
1
10
73.6179576652336
20
-1.66259550431798
30
0
41
1
10
73.6124180704422
20
-1.66054117581672
30
0
41
1
10
73.6073314608476
20
-1.65822397249468
30
0
41
1
10
73.6048818820026
20
-1.65699027831084
30
0
41
1
10
73.6048436355454
20
-1.6569709854777
30
0
41
1
10
73.6048054173026
20
-1.65695167628201
30
0
0
SPLINE
5
19A
100
AcDbEntity
8
1
62
256
6
ByLayer
370
13
48
1
60
0
100
AcDbSpline
70
4
71
3
72
12
73
8
40
0
40
0
40
0
40
0
40
0.308993760133951
40
0.308993760133951
40
0.683588934766892
40
0.683588934766892
40
1
40
1
40
1
40
1
41
1
10
73.6048053546503
20
-2.69304832371802
30
0
41
1
10
73.5879447413016
20
-2.7902155807563
30
0
41
1
10
73.5782978958977
20
-2.88406301165236
30
0
41
1
10
73.57500258097
20
-3.07121322249455
30
0
41
1
10
73.585173772986
20
-3.16284138486327
30
0
41
1
10
73.6242985955955
20
-3.2979913575027
30
0
41
1
10
73.6512264716853
20
-3.34658399466093
30
0
41
1
10
73.6827260440042
20
-3.38461815295219
30
0
0
SPLINE
5
19B
100
AcDbEntity
8
1
62
256
6
ByLayer
370
13
48
1
60
0
100
AcDbSpline
70
4
71
3
72
9
73
5
40
0
40
0
40
0
40
0
40
0.499743409265181
40
1
40
1
40
1
40
1
41
1
10
73.7928855278383
20
-2.68645335037556
30
0
41
1
10
73.7543020074557
20
-2.68085742687805
30
0
41
1
10
73.6770953456626
20
-2.66965983348555
30
0
41
1
10
73.6289102608853
20
-2.6852494935323
30
0
41
1
10
73.6048053546503
20
-2.69304832371802
30
0
0
SPLINE
5
19C
100
AcDbEntity
8
1
62
256
6
ByLayer
370
13
48
1
60
0
100
AcDbSpline
70
4
71
2
72
6
73
3
40
0
40
0
40
0
40
1
40
1
40
1
41
1
10
73.4140087529927
20
-1.65695167628201
30
0
41
1
10
73.5094070851476
20
-1.65695167628201
30
0
41
1
10
73.6048054173026
20
-1.65695167628201
30
0
0
SPLINE
5
19D
100
AcDbEntity
8
1
62
256
6
ByLayer
370
13
48
1
60
0
100
AcDbSpline
70
4
71
2
72
6
73
3
40
0
40
0
40
0
40
1
40
1
40
1
41
1
10
72.93015299629
20
-0.128166287501301
30
0
41
1
10
73.1720808746413
20
-0.892558981891654
30
0
41
1
10
73.4140087529927
20
-1.65695167628201
30
0
0
SPLINE
5
19E
100
AcDbEntity
8
1
62
256
6
ByLayer
370
13
48
1
60
0
100
AcDbSpline
70
4
71
3
72
12
73
8
40
0
40
0
40
0
40
0
40
0.429865222127252
40
0.429865222127252
40
0.859701708003693
40
0.859701708003693
40
1
40
1
40
1
40
1
41
1
10
72.93015299629
20
-0.128166287501301
30
0
41
1
10
72.9827425698599
20
-0.12952536385103
30
0
41
1
10
73.0344895999536
20
-0.128199931196974
30
0
41
1
10
73.1388130934788
20
-0.128203166856878
30
0
41
1
10
73.1909725495536
20
-0.1282030555642
30
0
41
1
10
73.2601566366992
20
-0.128202356623064
30
0
41
1
10
73.277181394467
20
-0.128202169267752
30
0
41
1
10
73.2942061665889
20
-0.12820202726482
30
0
0
SPLINE
5
19F
100
AcDbEntity
8
1
62
256
6
ByLayer
370
13
48
1
60
0
100
AcDbSpline
70
4
71
3
72
12
73
8
40
0
40
0
40
0
40
0
40
0.140298291996301
40
0.140298291996301
40
0.570134777872745
40
0.570134777872745
40
1
40
1
40
1
40
1
41
1
10
73.2942061665888
20
-4.2217979727352
30
0
41
1
10
73.277181394467
20
-4.22179783073224
30
0
41
1
10
73.2601566366992
20
-4.22179764337693
30
0
41
1
10
73.1909725495536
20
-4.22179694443582
30
0
41
1
10
73.1388130934788
20
-4.22179683314315
30
0
41
1
10
73.0344895999536
20
-4.22180006880305
30
0
41
1
10
72.9827425698599
20
-4.22047463614899
30
0
41
1
10
72.93015299629
20
-4.22183371249872
30
0
0
SPLINE
5
1A0
100
AcDbEntity
8
1
62
256
6
ByLayer
370
13
48
1
60
0
100
AcDbSpline
70
4
71
2
72
6
73
3
40
0
40
0
40
0
40
1
40
1
40
1
41
1
10
73.4140087529927
20
-2.69304832371802
30
0
41
1
10
73.5094070538215
20
-2.69304832371802
30
0
41
1
10
73.6048053546503
20
-2.69304832371802
30
0
0
SPLINE
5
1A1
100
AcDbEntity
8
1
62
256
6
ByLayer
370
13
48
1
60
0
100
AcDbSpline
70
4
71
2
72
6
73
3
40
0
40
0
40
0
40
1
40
1
40
1
41
1
10
72.93015299629
20
-4.22183371249872
30
0
41
1
10
73.1720808746413
20
-3.45744101810837
30
0
41
1
10
73.4140087529927
20
-2.69304832371802
30
0
0
SPLINE
5
1A2
100
AcDbEntity
8
1
62
256
6
ByLayer
370
13
48
1
60
0
100
AcDbSpline
70
4
71
3
72
8
73
4
40
0
40
0
40
0
40
0
40
1
40
1
40
1
40
1
41
1
10
79.8921442338084
20
-0.884698244093556
30
0
41
1
10
79.8627647515652
20
-0.850146426731584
30
0
41
1
10
79.8279641482437
20
-0.820019008468478
30
0
41
1
10
79.7909653354443
20
-0.793870255221066
30
0
0
SPLINE
5
1A3
100
AcDbEntity
8
1
62
256
6
ByLayer
370
13
48
1
60
0
100
AcDbSpline
70
4
71
3
72
8
73
4
40
0
40
0
40
0
40
0
40
1
40
1
40
1
40
1
41
1
10
79.7909653354444
20
-0.793870255221094
30
0
41
1
10
79.731390445462
20
-0.751765955649716
30
0
41
1
10
79.6714380804948
20
-0.710180259134205
30
0
41
1
10
79.6107752183728
20
-0.669664891427942
30
0
0
SPLINE
5
1A4
100
AcDbEntity
8
1
62
256
6
ByLayer
370
13
48
1
60
0
100
AcDbSpline
70
4
71
3
72
10
73
6
40
0
40
0
40
0
40
0
40
0.742990102267645
40
0.742990102267645
40
1
40
1
40
1
40
1
41
1
10
79.6107752183728
20
-0.669664891427942
30
0
41
1
10
79.5899301363519
20
-0.65574292775193
30
0
41
1
10
79.5696186119127
20
-0.640678247695888
30
0
41
1
10
79.5453944188342
20
-0.617122806060735
30
0
41
1
10
79.5394295011685
20
-0.610723717033693
30
0
41
1
10
79.5340357485912
20
-0.603879128345937
30
0
0
SPLINE
5
1A5
100
AcDbEntity
8
1
62
256
6
ByLayer
370
13
48
1
60
0
100
AcDbSpline
70
4
71
3
72
10
73
6
40
0
40
0
40
0
40
0
40
0.742990102267645
40
0.742990102267645
40
1
40
1
40
1
40
1
41
1
10
79.6107752183728
20
-3.68033510857208
30
0
41
1
10
79.5899301363519
20
-3.69425707224809
30
0
41
1
10
79.5696186119127
20
-3.70932175230411
30
0
41
1
10
79.5453944188342
20
-3.73287719393929
30
0
41
1
10
79.5394295011685
20
-3.73927628296633
30
0
41
1
10
79.5340357485912
20
-3.74612087165408
30
0
0
SPLINE
5
1A6
100
AcDbEntity
8
1
62
256
6
ByLayer
370
13
48
1
60
0
100
AcDbSpline
70
4
71
3
72
8
73
4
40
0
40
0
40
0
40
0
40
1
40
1
40
1
40
1
41
1
10
79.8921442338084
20
-3.46530175590644
30
0
41
1
10
79.8627647515652
20
-3.49985357326844
30
0
41
1
10
79.8279641482437
20
-3.52998099153155
30
0
41
1
10
79.7909653354443
20
-3.55612974477896
30
0
0
SPLINE
5
1A7
100
AcDbEntity
8
1
62
256
6
ByLayer
370
13
48
1
60
0
100
AcDbSpline
70
4
71
3
72
8
73
4
40
0
40
0
40
0
40
0
40
1
40
1
40
1
40
1
41
1
10
79.7909653354444
20
-3.5561297447789
30
0
41
1
10
79.731390445462
20
-3.59823404435031
30
0
41
1
10
79.6714380804948
20
-3.63981974086582
30
0
41
1
10
79.6107752183728
20
-3.68033510857208
30
0
0
SPLINE
5
1A8
100
AcDbEntity
8
1
62
256
6
ByLayer
370
13
48
1
60
0
100
AcDbSpline
70
4
71
3
72
8
73
4
40
0
40
0
40
0
40
0
40
1
40
1
40
1
40
1
41
1
10
78.8080209311119
20
-3.9093017110321
30
0
41
1
10
78.6428355720662
20
-3.93141964724808
30
0
41
1
10
78.4728063563389
20
-3.93378620016762
30
0
41
1
10
78.3080209311119
20
-3.90887581209546
30
0
0
SPLINE
5
1A9
100
AcDbEntity
8
1
62
256
6
ByLayer
370
13
48
1
60
0
100
AcDbSpline
70
4
71
3
72
8
73
4
40
0
40
0
40
0
40
0
40
1
40
1
40
1
40
1
41
1
10
79.4662283541793
20
-3.79630010813321
30
0
41
1
10
79.3645721130157
20
-3.82609487499752
30
0
41
1
10
79.2601844544977
20
-3.8470578768989
30
0
41
1
10
79.1553172864457
20
-3.85994780604813
30
0
0
SPLINE
5
1AA
100
AcDbEntity
8
1
62
256
6
ByLayer
370
13
48
1
60
0
100
AcDbSpline
70
4
71
3
72
8
73
4
40
0
40
0
40
0
40
0
40
1
40
1
40
1
40
1
41
1
10
78.8080209311119
20
-0.440698288967923
30
0
41
1
10
78.6428355720662
20
-0.418580352751917
30
0
41
1
10
78.4728063563389
20
-0.416213799832377
30
0
41
1
10
78.3080209311119
20
-0.441124187904563
30
0
0
SPLINE
5
1AB
100
AcDbEntity
8
1
62
256
6
ByLayer
370
13
48
1
60
0
100
AcDbSpline
70
4
71
3
72
8
73
4
40
0
40
0
40
0
40
0
40
1
40
1
40
1
40
1
41
1
10
79.4662283541793
20
-0.553699891866813
30
0
41
1
10
79.3645721130157
20
-0.5239051250025
30
0
41
1
10
79.2601844544977
20
-0.502942123101093
30
0
41
1
10
79.1553172864457
20
-0.490052193951868
30
0
0
SPLINE
5
1AC
100
AcDbEntity
8
1
62
256
6
ByLayer
370
13
48
1
60
0
100
AcDbSpline
70
4
71
3
72
22
73
18
40
0
40
0
40
0
40
0
40
0.000222718869746
40
0.000222718869746
40
0.259227458805804
40
0.259227458805804
40
0.465187962680825
40
0.465187962680825
40
0.514638646729743
40
0.514638646729743
40
0.731295224185332
40
0.731295224185332
40
0.772617906475971
40
0.772617906475971
40
0.999777281128767
40
0.999777281128767
40
1
40
1
40
1
40
1
41
1
10
74.035691245647
20
-2.30688578981861
30
0
41
1
10
74.0356932856395
20
-2.3069051972584
30
0
41
1
10
74.0356953283832
20
-2.30692460427048
30
0
41
1
10
74.0380663888124
20
-2.32951350480965
30
0
41
1
10
74.0365596228332
20
-2.35276197490441
30
0
41
1
10
74.0262287382005
20
-2.39213409576004
30
0
41
1
10
74.0188079227838
20
-2.40918281072288
30
0
41
1
10
74.0063644003338
20
-2.42824411736658
30
0
41
1
10
74.0037725995617
20
-2.43188706660772
30
0
41
1
10
73.9892423112083
20
-2.45066866204775
30
0
41
1
10
73.9743667237898
20
-2.46417640598381
30
0
41
1
10
73.9550246963389
20
-2.47698741173866
30
0
41
1
10
73.951823946192
20
-2.47897755151942
30
0
41
1
10
73.9309707186486
20
-2.49117049686009
30
0
41
1
10
73.9118439399919
20
-2.4988045388757
30
0
41
1
10
73.8928770947448
20
-2.50421069195295
30
0
41
1
10
73.8928585800716
20
-2.50421596485731
30
0
41
1
10
73.8928400660951
20
-2.50422124018365
30
0
0
SPLINE
5
1AD
100
AcDbEntity
8
1
62
256
6
ByLayer
370
13
48
1
60
0
100
AcDbSpline
70
4
71
3
72
20
73
16
40
0
40
0
40
0
40
0
40
0.0002232153553158
40
0.0002232153553158
40
0.274386302285847
40
0.274386302285847
40
0.473368417101266
40
0.473368417101266
40
0.521262782240241
40
0.521262782240241
40
0.760382585843684
40
0.760382585843684
40
0.999776784646173
40
0.999776784646173
40
1
40
1
40
1
40
1
41
1
10
73.892840140512
20
-1.84577875981637
30
0
41
1
10
73.8928586544878
20
-1.84578403514209
30
0
41
1
10
73.8928771691604
20
-1.8457893080458
30
0
41
1
10
73.9156355774231
20
-1.85227617640379
30
0
41
1
10
73.9387687151515
20
-1.8620729260991
30
0
41
1
10
73.9740397484175
20
-1.88574044978375
30
0
41
1
10
73.9877700889217
20
-1.89806711364457
30
0
41
1
10
74.0016713970764
20
-1.91530976284724
30
0
41
1
10
74.0042645879512
20
-1.91879474297477
30
0
41
1
10
74.0187113466353
20
-1.93987241635915
30
0
41
1
10
74.0272715785522
20
-1.95980795044031
30
0
41
1
10
74.0367671024569
20
-2.0006198632025
30
0
41
1
10
74.0378953513001
20
-2.02211622819644
30
0
41
1
10
74.0356953494997
20
-2.04307539573725
30
0
41
1
10
74.0356933067495
20
-2.04309480274543
30
0
41
1
10
74.0356912667505
20
-2.04311421018142
30
0
0
SPLINE
5
1AE
100
AcDbEntity
8
1
62
256
6
ByLayer
370
13
48
1
60
0
100
AcDbSpline
70
4
71
3
72
8
73
4
40
0
40
0
40
0
40
0
40
1
40
1
40
1
40
1
41
1
10
79.1553172864457
20
-3.85994780604818
30
0
41
1
10
79.0406647169833
20
-3.87549617363624
30
0
41
1
10
78.9240025737786
20
-3.89199047627042
30
0
41
1
10
78.8080209311119
20
-3.9093017110321
30
0
0
SPLINE
5
1AF
100
AcDbEntity
8
1
62
256
6
ByLayer
370
13
48
1
60
0
100
AcDbSpline
70
4
71
3
72
16
73
12
40
0
40
0
40
0
40
0
40
0.036416957303705
40
0.036416957303705
40
0.0997081083467255
40
0.0997081083467255
40
0.211635380228895
40
0.211635380228895
40
0.452209862564279
40
0.452209862564279
40
1
40
1
40
1
40
1
41
1
10
79.4662283541792
20
-3.79630010813324
30
0
41
1
10
79.4670387760248
20
-3.79567984249096
30
0
41
1
10
79.4678500729596
20
-3.79506001275129
30
0
41
1
10
79.470075804622
20
-3.79336080329111
30
0
41
1
10
79.4714916802361
20
-3.79228191583667
30
0
41
1
10
79.4754161685163
20
-3.7892973191239
30
0
41
1
10
79.477928856633
20
-3.78739298798902
30
0
41
1
10
79.4858553152411
20
-3.78140752845226
30
0
41
1
10
79.4912894215204
20
-3.7773364463489
30
0
41
1
10
79.5091166544244
20
-3.76409176354107
30
0
41
1
10
79.5216024730774
20
-3.75499247733907
30
0
41
1
10
79.5340357485912
20
-3.74612087165408
30
0
0
SPLINE
5
1B0
100
AcDbEntity
8
1
62
256
6
ByLayer
370
13
48
1
60
0
100
AcDbSpline
70
4
71
3
72
8
73
4
40
0
40
0
40
0
40
0
40
1
40
1
40
1
40
1
41
1
10
79.1553172864457
20
-0.49005219395184
30
0
41
1
10
79.0406647169833
20
-0.474503826363758
30
0
41
1
10
78.9240025737786
20
-0.458009523729601
30
0
41
1
10
78.8080209311119
20
-0.440698288967923
30
0
0
SPLINE
5
1B1
100
AcDbEntity
8
1
62
256
6
ByLayer
370
13
48
1
60
0
100
AcDbSpline
70
4
71
3
72
16
73
12
40
0
40
0
40
0
40
0
40
0.0364169573037049
40
0.0364169573037049
40
0.0997081083467255
40
0.0997081083467255
40
0.211635380228895
40
0.211635380228895
40
0.452209862564279
40
0.452209862564279
40
1
40
1
40
1
40
1
41
1
10
79.4662283541792
20
-0.553699891866785
30
0
41
1
10
79.4670387760248
20
-0.554320157509068
30
0
41
1
10
79.4678500729596
20
-0.55493998724873
30
0
41
1
10
79.470075804622
20
-0.556639196708915
30
0
41
1
10
79.4714916802361
20
-0.557718084163355
30
0
41
1
10
79.4754161685163
20
-0.560702680876091
30
0
41
1
10
79.477928856633
20
-0.562607012011
30
0
41
1
10
79.4858553152411
20
-0.568592471547731
30
0
41
1
10
79.4912894215204
20
-0.572663553651125
30
0
41
1
10
79.5091166544244
20
-0.58590823645892
30
0
41
1
10
79.5216024730774
20
-0.59500752266095
30
0
41
1
10
79.5340357485912
20
-0.603879128345937
30
0
0
SPLINE
5
1B2
100
AcDbEntity
8
1
62
256
6
ByLayer
370
13
48
1
60
0
100
AcDbSpline
70
4
71
3
72
16
73
12
40
0
40
0
40
0
40
0
40
0.0364498729883201
40
0.0364498729883201
40
0.0987306192890671
40
0.0987306192890671
40
0.210020225745924
40
0.210020225745924
40
0.450231110269824
40
0.450231110269824
40
1
40
1
40
1
40
1
41
1
10
79.4662283541792
20
-0.553699891866785
30
0
41
1
10
79.4665920879058
20
-0.554658648595137
30
0
41
1
10
79.4669568390965
20
-0.555617016520841
30
0
41
1
10
79.4679468505053
20
-0.558216010603815
30
0
41
1
10
79.4685733701323
20
-0.559856116001811
30
0
41
1
10
79.470323556476
20
-0.564424004684071
30
0
41
1
10
79.4714506814858
20
-0.567350022443065
30
0
41
1
10
79.475025615632
20
-0.576575387473895
30
0
41
1
10
79.4774931433138
20
-0.582861996531477
30
0
41
1
10
79.4856650049043
20
-0.603401850341555
30
0
41
1
10
79.4914797806526
20
-0.617557737726202
30
0
41
1
10
79.4973512174168
20
-0.63138885696398
30
0
0
SPLINE
5
1B3
100
AcDbEntity
8
1
62
256
6
ByLayer
370
13
48
1
60
0
100
AcDbSpline
70
4
71
3
72
10
73
6
40
0
40
0
40
0
40
0
40
0.726515101313405
40
0.726515101313405
40
1
40
1
40
1
40
1
41
1
10
79.5673140428787
20
-0.727290411531641
30
0
41
1
10
79.5467943373434
20
-0.707383072439882
30
0
41
1
10
79.527721005355
20
-0.685360256979948
30
0
41
1
10
79.5068496360731
20
-0.651347796247961
30
0
41
1
10
79.501672486575
20
-0.641568305608217
30
0
41
1
10
79.4973512174149
20
-0.631388856964861
30
0
0
SPLINE
5
1B4
100
AcDbEntity
8
1
62
256
6
ByLayer
370
13
48
1
60
0
100
AcDbSpline
70
4
71
3
72
10
73
6
40
0
40
0
40
0
40
0
40
0.726515101313405
40
0.726515101313405
40
1
40
1
40
1
40
1
41
1
10
79.5673140428787
20
-3.62270958846838
30
0
41
1
10
79.5467943373434
20
-3.64261692756014
30
0
41
1
10
79.527721005355
20
-3.66463974302005
30
0
41
1
10
79.5068496360731
20
-3.69865220375206
30
0
41
1
10
79.501672486575
20
-3.70843169439181
30
0
41
1
10
79.4973512174149
20
-3.71861114303516
30
0
0
SPLINE
5
1B5
100
AcDbEntity
8
1
62
256
6
ByLayer
370
13
48
1
60
0
100
AcDbSpline
70
4
71
3
72
16
73
12
40
0
40
0
40
0
40
0
40
0.0364498729883201
40
0.0364498729883201
40
0.0987306192890671
40
0.0987306192890671
40
0.210020225745924
40
0.210020225745924
40
0.450231110269824
40
0.450231110269824
40
1
40
1
40
1
40
1
41
1
10
79.4662283541792
20
-3.79630010813324
30
0
41
1
10
79.4665920879058
20
-3.79534135140486
30
0
41
1
10
79.4669568390965
20
-3.79438298347915
30
0
41
1
10
79.4679468505053
20
-3.79178398939621
30
0
41
1
10
79.4685733701323
20
-3.79014388399821
30
0
41
1
10
79.470323556476
20
-3.78557599531592
30
0
41
1
10
79.4714506814858
20
-3.78264997755696
30
0
41
1
10
79.475025615632
20
-3.7734246125261
30
0
41
1
10
79.4774931433138
20
-3.76713800346855
30
0
41
1
10
79.4856650049043
20
-3.74659814965847
30
0
41
1
10
79.4914797806526
20
-3.73244226227382
30
0
41
1
10
79.4973512174168
20
-3.71861114303604
30
0
0
SPLINE
5
1B6
100
AcDbEntity
8
1
62
256
6
ByLayer
370
13
48
1
60
0
100
AcDbSpline
70
4
71
3
72
16
73
12
40
0
40
0
40
0
40
0
40
0.0003118173380686
40
0.0003118173380686
40
0.279489245325511
40
0.279489245325511
40
0.55875761252395
40
0.55875761252395
40
0.999688182661868
40
0.999688182661868
40
1
40
1
40
1
40
1
41
1
10
73.7037729407914
20
-1.77442303660118
30
0
41
1
10
73.7037912567827
20
-1.77443069831028
30
0
41
1
10
73.7038095726709
20
-1.77443836023974
30
0
41
1
10
73.720226713854
20
-1.78130557566982
30
0
41
1
10
73.7367050975241
20
-1.78801400420826
30
0
41
1
10
73.7698094845915
20
-1.80113131212022
30
0
41
1
10
73.786437576077
20
-1.80754090304941
30
0
41
1
10
73.8294858918491
20
-1.82368364305961
30
0
41
1
10
73.8560096249246
20
-1.83319561541469
30
0
41
1
10
73.8826933601575
20
-1.8423456256792
30
0
41
1
10
73.8827122186186
20
-1.84235209193099
30
0
41
1
10
73.8827310770045
20
-1.84235855838318
30
0
0
SPLINE
5
1B7
100
AcDbEntity
8
1
62
256
6
ByLayer
370
13
48
1
60
0
100
AcDbSpline
70
4
71
3
72
9
73
5
40
0
40
0
40
0
40
0
40
0.49971069640967
40
1
40
1
40
1
40
1
41
1
10
73.7928855362849
20
-1.66354669263114
30
0
41
1
10
73.7739562259549
20
-1.69214547896811
30
0
41
1
10
73.7360756873431
20
-1.74937616572836
30
0
41
1
10
73.7145446756413
20
-1.76607085975363
30
0
41
1
10
73.7037729407914
20
-1.77442303660118
30
0
0
SPLINE
5
1B8
100
AcDbEntity
8
1
62
256
6
ByLayer
370
13
48
1
60
0
100
AcDbSpline
70
4
71
3
72
16
73
12
40
0
40
0
40
0
40
0
40
0.0003118144544083
40
0.0003118144544083
40
0.278931528860409
40
0.278931528860409
40
0.55807335791413
40
0.55807335791413
40
0.999688185545606
40
0.999688185545606
40
1
40
1
40
1
40
1
41
1
10
73.8827310030705
20
-2.50764144161684
30
0
41
1
10
73.8827121446849
20
-2.50764790806929
30
0
41
1
10
73.8826932862241
20
-2.50765437432116
30
0
41
1
10
73.8658237075292
20
-2.51343905266145
30
0
41
1
10
73.8490299503336
20
-2.51936418941648
30
0
41
1
10
73.8155387444206
20
-2.53152096650959
30
0
41
1
10
73.7988396824678
20
-2.53775383329682
30
0
41
1
10
73.7559042651525
20
-2.55423199052081
30
0
41
1
10
73.7297658847848
20
-2.56470420533557
30
0
41
1
10
73.7038095096562
20
-2.57556163975954
30
0
41
1
10
73.7037911937686
20
-2.57556930168937
30
0
41
1
10
73.7037728777779
20
-2.57557696339885
30
0
0
SPLINE
5
1B9
100
AcDbEntity
8
1
62
256
6
ByLayer
370
13
48
1
60
0
100
AcDbSpline
70
4
71
3
72
24
73
20
40
0
40
0
40
0
40
0
40
0.25
40
0.3125
40
0.3125
40
0.375
40
0.375
40
0.5
40
0.625
40
0.6875
40
0.6875
40
0.75
40
0.75
40
0.875
40
0.875
40
0.9375
40
0.9990234375
40
0.9990234375
40
1
40
1
40
1
40
1
41
1
10
73.7928855278383
20
-2.68645335037431
30
0
41
1
10
73.7832636662611
20
-2.67115850793931
30
0
41
1
10
73.771730379822
20
-2.65368651994487
30
0
41
1
10
73.7608004404685
20
-2.63821829018272
30
0
41
1
10
73.7564782072272
20
-2.63219645880872
30
0
41
1
10
73.7543353507194
20
-2.62925917669298
30
0
41
1
10
73.7480333946262
20
-2.6207687090554
30
0
41
1
10
73.7400009682934
20
-2.61034495769451
30
0
41
1
10
73.7308566270157
20
-2.59948655121249
30
0
41
1
10
73.7257777119109
20
-2.59395925311333
30
0
41
1
10
73.7224844900989
20
-2.59049903251076
30
0
41
1
10
73.7208806452621
20
-2.58887799450687
30
0
41
1
10
73.716263102556
20
-2.5844095510225
30
0
41
1
10
73.713425258485
20
-2.58193324182176
30
0
41
1
10
73.7095321511242
20
-2.57897845517726
30
0
41
1
10
73.7070772953717
20
-2.57727523432101
30
0
41
1
10
73.7048620512314
20
-2.57607245210949
30
0
41
1
10
73.7038058396485
20
-2.57559188761323
30
0
41
1
10
73.7037893512562
20
-2.57558440993435
30
0
41
1
10
73.7037728777784
20
-2.57557696339862
30
0
0
SPLINE
5
1BA
100
AcDbEntity
8
1
62
256
6
ByLayer
370
13
48
1
60
0
100
AcDbSpline
70
4
71
3
72
14
73
10
40
0
40
0
40
0
40
0
40
0.0505559842848517
40
0.0505559842848517
40
0.533727627143306
40
0.533727627143306
40
0.896918867994815
40
0.896918867994815
40
1
40
1
40
1
40
1
41
1
10
79.8700651469456
20
-3.3986141656853
30
0
41
1
10
79.8721585882714
20
-3.3964305521655
30
0
41
1
10
79.8742266116036
20
-3.39422223124336
30
0
41
1
10
79.8955839637868
20
-3.37084628359756
30
0
41
1
10
79.9127357036069
20
-3.34709898521504
30
0
41
1
10
79.9341426255233
20
-3.30170580764838
30
0
41
1
10
79.9406215633697
20
-3.28054786550868
30
0
41
1
10
79.9437467206534
20
-3.25298007058589
30
0
41
1
10
79.9441226460485
20
-3.24677673344607
30
0
41
1
10
79.944165142253
20
-3.24057961181114
30
0
0
SPLINE
5
1BB
100
AcDbEntity
8
1
62
256
6
ByLayer
370
13
48
1
60
0
100
AcDbSpline
70
4
71
3
72
16
73
12
40
0
40
0
40
0
40
0
40
0.001953125
40
0.001953125
40
0.25
40
0.5
40
0.75
40
0.9375
40
0.998046875
40
0.998046875
40
1
40
1
40
1
40
1
41
1
10
73.6048054173026
20
-1.65695167628201
30
0
41
1
10
73.6048376062847
20
-1.65705309453818
30
0
41
1
10
73.6048698691533
20
-1.65715448316817
30
0
41
1
10
73.6090089675087
20
-1.67012842116446
30
0
41
1
10
73.6196461576043
20
-1.69501477711219
30
0
41
1
10
73.6422215823352
20
-1.72806378404667
30
0
41
1
10
73.6681516706902
20
-1.75309792029057
30
0
41
1
10
73.6895266456595
20
-1.76718989477902
30
0
41
1
10
73.7007377477655
20
-1.77296159263858
30
0
41
1
10
73.703594309955
20
-1.77433729313245
30
0
41
1
10
73.7036836094554
20
-1.77438020452271
30
0
41
1
10
73.703772940784
20
-1.77442303659763
30
0
0
SPLINE
5
1BC
100
AcDbEntity
8
1
62
256
6
ByLayer
370
13
48
1
60
0
100
AcDbSpline
70
4
71
3
72
17
73
13
40
0
40
0
40
0
40
0
40
0.001953125
40
0.001953125
40
0.0625
40
0.25
40
0.5
40
0.75
40
0.9375
40
0.998046875
40
0.998046875
40
1
40
1
40
1
40
1
41
1
10
73.7037728777784
20
-2.57557696339862
30
0
41
1
10
73.7036835329031
20
-2.57561980196891
30
0
41
1
10
73.7035942202295
20
-2.57566271964419
30
0
41
1
10
73.7007372482941
20
-2.57703861461519
30
0
41
1
10
73.6895258082259
20
-2.58281038833005
30
0
41
1
10
73.6681578319086
20
-2.59689673944229
30
0
41
1
10
73.6422141768717
20
-2.62194503010252
30
0
41
1
10
73.6214778213814
20
-2.6523024014295
30
0
41
1
10
73.6103018420582
20
-2.67684740971234
30
0
41
1
10
73.605904425656
20
-2.68960252763745
30
0
41
1
10
73.6048697969046
20
-2.69284554715256
30
0
41
1
10
73.6048375387541
20
-2.69294692083119
30
0
41
1
10
73.604805354653
20
-2.6930483237096
30
0
0
SPLINE
5
1BD
100
AcDbEntity
8
1
62
256
6
ByLayer
370
13
48
1
60
0
100
AcDbSpline
70
4
71
3
72
8
73
4
40
0
40
0
40
0
40
0
40
1
40
1
40
1
40
1
41
1
10
79.7459718007426
20
-0.850445187598638
30
0
41
1
10
79.7806983372204
20
-0.871141364814434
30
0
41
1
10
79.8139636111441
20
-0.895146997173242
30
0
41
1
10
79.8426948714027
20
-0.923553248523547
30
0
0
SPLINE
5
1BE
100
AcDbEntity
8
1
62
256
6
ByLayer
370
13
48
1
60
0
100
AcDbSpline
70
4
71
3
72
8
73
4
40
0
40
0
40
0
40
0
40
1
40
1
40
1
40
1
41
1
10
79.8426948714027
20
-0.923553248523604
30
0
41
1
10
79.8519343190549
20
-0.932688179257013
30
0
41
1
10
79.861052890068
20
-0.941985386487687
30
0
41
1
10
79.8700651469456
20
-0.951385834314721
30
0
0
SPLINE
5
1BF
100
AcDbEntity
8
1
62
256
6
ByLayer
370
13
48
1
60
0
100
AcDbSpline
70
4
71
3
72
8
73
4
40
0
40
0
40
0
40
0
40
1
40
1
40
1
40
1
41
1
10
79.4213727254145
20
-1.09774576853135
30
0
41
1
10
79.5956640074145
20
-1.09579440686932
30
0
41
1
10
79.7699434366784
20
-1.10368777956762
30
0
41
1
10
79.9441651422587
20
-1.10942038818823
30
0
0
SPLINE
5
1C0
100
AcDbEntity
8
1
62
256
6
ByLayer
370
13
48
1
60
0
100
AcDbSpline
70
4
71
3
72
8
73
4
40
0
40
0
40
0
40
0
40
1
40
1
40
1
40
1
41
1
10
79.4213727254145
20
-3.25225423146867
30
0
41
1
10
79.5956640074145
20
-3.25420559313071
30
0
41
1
10
79.7699434366784
20
-3.2463122204324
30
0
41
1
10
79.9441651422587
20
-3.24057961181177
30
0
0
SPLINE
5
1C1
100
AcDbEntity
8
1
62
256
6
ByLayer
370
13
48
1
60
0
100
AcDbSpline
70
4
71
3
72
8
73
4
40
0
40
0
40
0
40
0
40
1
40
1
40
1
40
1
41
1
10
79.8426948714027
20
-3.42644675147642
30
0
41
1
10
79.8519343190549
20
-3.41731182074301
30
0
41
1
10
79.861052890068
20
-3.40801461351234
30
0
41
1
10
79.8700651469456
20
-3.3986141656853
30
0
0
SPLINE
5
1C2
100
AcDbEntity
8
1
62
256
6
ByLayer
370
13
48
1
60
0
100
AcDbSpline
70
4
71
3
72
14
73
10
40
0
40
0
40
0
40
0
40
0.0505559842848517
40
0.0505559842848517
40
0.533727627143306
40
0.533727627143306
40
0.896918867994815
40
0.896918867994815
40
1
40
1
40
1
40
1
41
1
10
79.8700651469456
20
-0.951385834314721
30
0
41
1
10
79.8721585882714
20
-0.953569447834496
30
0
41
1
10
79.8742266116036
20
-0.955777768756661
30
0
41
1
10
79.8955839637868
20
-0.979153716402465
30
0
41
1
10
79.9127357036069
20
-1.00290101478498
30
0
41
1
10
79.9341426255233
20
-1.04829419235162
30
0
41
1
10
79.9406215633697
20
-1.06945213449134
30
0
41
1
10
79.9437467206534
20
-1.09701992941413
30
0
41
1
10
79.9441226460485
20
-1.10322326655395
30
0
41
1
10
79.944165142253
20
-1.10942038818888
30
0
0
SPLINE
5
1C3
100
AcDbEntity
8
1
62
256
6
ByLayer
370
13
48
1
60
0
100
AcDbSpline
70
4
71
3
72
8
73
4
40
0
40
0
40
0
40
0
40
1
40
1
40
1
40
1
41
1
10
79.7459718007426
20
-3.49955481240139
30
0
41
1
10
79.7806983372204
20
-3.47885863518559
30
0
41
1
10
79.8139636111441
20
-3.45485300282675
30
0
41
1
10
79.8426948714027
20
-3.42644675147648
30
0
0
SPLINE
5
1C4
100
AcDbEntity
8
1
62
256
6
ByLayer
370
13
48
1
60
0
100
AcDbSpline
70
4
71
3
72
8
73
4
40
0
40
0
40
0
40
0
40
1
40
1
40
1
40
1
41
1
10
73.8928400660951
20
-2.50422124018365
30
0
41
1
10
73.8894702607721
20
-2.5053611578918
30
0
41
1
10
73.8861005726669
20
-2.506501225145
30
0
41
1
10
73.8827310030703
20
-2.50764144161664
30
0
0
SPLINE
5
1C5
100
AcDbEntity
8
1
62
256
6
ByLayer
370
13
48
1
60
0
100
AcDbSpline
70
4
71
3
72
8
73
4
40
0
40
0
40
0
40
0
40
1
40
1
40
1
40
1
41
1
10
73.8827310770045
20
-1.84235855838318
30
0
41
1
10
73.886100646763
20
-1.84349877485377
30
0
41
1
10
73.8894703350288
20
-1.84463884210737
30
0
41
1
10
73.8928401405119
20
-1.84577875981657
30
0
0
SPLINE
5
1C6
100
AcDbEntity
8
1
62
256
6
ByLayer
370
13
48
1
60
0
100
AcDbSpline
70
4
71
3
72
10
73
6
40
0
40
0
40
0
40
0
40
0.478455993418637
40
0.478455993418637
40
1
40
1
40
1
40
1
41
1
10
79.9970257409039
20
-1.10942038818786
30
0
41
1
10
79.9970257409038
20
-1.07524710295144
30
0
41
1
10
79.9899219088571
20
-1.04061042214576
30
0
41
1
10
79.9639730710007
20
-0.974008546876178
30
0
41
1
10
79.9439829972708
20
-0.941489113985853
30
0
41
1
10
79.9206965706902
20
-0.912393852718992
30
0
0
SPLINE
5
1C7
100
AcDbEntity
8
1
62
256
6
ByLayer
370
13
48
1
60
0
100
AcDbSpline
70
4
71
3
72
10
73
6
40
0
40
0
40
0
40
0
40
0.478455993418637
40
0.478455993418637
40
1
40
1
40
1
40
1
41
1
10
79.9970257409039
20
-3.24057961181217
30
0
41
1
10
79.9970257409038
20
-3.27475289704856
30
0
41
1
10
79.9899219088571
20
-3.30938957785423
30
0
41
1
10
79.9639730710007
20
-3.37599145312385
30
0
41
1
10
79.9439829972708
20
-3.40851088601417
30
0
41
1
10
79.9206965706902
20
-3.43760614728103
30
0
0
SPLINE
5
1C8
100
AcDbEntity
8
1
62
256
6
ByLayer
370
13
48
1
60
0
100
AcDbSpline
70
4
71
3
72
8
73
4
40
0
40
0
40
0
40
0
40
1
40
1
40
1
40
1
41
1
10
79.9206965706901
20
-3.437606147281
30
0
41
1
10
79.9112950489699
20
-3.44700354382212
30
0
41
1
10
79.901780692966
20
-3.45625337122974
30
0
41
1
10
79.8921442338085
20
-3.46530175590655
30
0
0
SPLINE
5
1C9
100
AcDbEntity
8
1
62
256
6
ByLayer
370
13
48
1
60
0
100
AcDbSpline
70
4
71
3
72
12
73
8
40
0
40
0
40
0
40
0
40
0.398362077603418
40
0.398362077603418
40
0.817187858883142
40
0.817187858883142
40
1
40
1
40
1
40
1
41
1
10
78.5695
20
-1.09383402262256
30
0
41
1
10
78.6862018964713
20
-1.09405801995894
30
0
41
1
10
78.8027495698944
20
-1.09703204781439
30
0
41
1
10
79.037745272551
20
-1.09883029775409
30
0
41
1
10
79.1566627089886
20
-1.09916075467956
30
0
41
1
10
79.3224222584759
20
-1.09854513668674
30
0
41
1
10
79.3722793677962
20
-1.09820380872904
30
0
41
1
10
79.4213727254145
20
-1.09774576853132
30
0
0
SPLINE
5
1CA
100
AcDbEntity
8
1
62
256
6
ByLayer
370
13
48
1
60
0
100
AcDbSpline
70
4
71
3
72
8
73
4
40
0
40
0
40
0
40
0
40
1
40
1
40
1
40
1
41
1
10
79.9206965706901
20
-0.912393852719021
30
0
41
1
10
79.9112950489699
20
-0.902996456177874
30
0
41
1
10
79.901780692966
20
-0.893746628770288
30
0
41
1
10
79.8921442338085
20
-0.884698244093443
30
0
0
SPLINE
5
1CB
100
AcDbEntity
8
1
62
256
6
ByLayer
370
13
48
1
60
0
100
AcDbSpline
70
4
71
3
72
8
73
4
40
0
40
0
40
0
40
0
40
1
40
1
40
1
40
1
41
1
10
74.0356912667505
20
-2.04311421018142
30
0
41
1
10
74.0314932792738
20
-2.1304751567927
30
0
41
1
10
74.0314932722284
20
-2.21952483942502
30
0
41
1
10
74.0356912456469
20
-2.30688578981861
30
0
0
SPLINE
5
1CC
100
AcDbEntity
8
1
62
256
6
ByLayer
370
13
48
1
60
0
100
AcDbSpline
70
4
71
3
72
12
73
8
40
0
40
0
40
0
40
0
40
0.398362077603418
40
0.398362077603418
40
0.817187858883142
40
0.817187858883142
40
1
40
1
40
1
40
1
41
1
10
78.5695
20
-3.25616597737746
30
0
41
1
10
78.6862018964713
20
-3.25594198004109
30
0
41
1
10
78.8027495698944
20
-3.25296795218563
30
0
41
1
10
79.037745272551
20
-3.25116970224593
30
0
41
1
10
79.1566627089886
20
-3.25083924532046
30
0
41
1
10
79.3224222584759
20
-3.25145486331329
30
0
41
1
10
79.3722793677962
20
-3.25179619127098
30
0
41
1
10
79.4213727254145
20
-3.2522542314687
30
0
0
SPLINE
5
1CD
100
AcDbEntity
8
1
62
256
6
ByLayer
370
13
48
1
60
0
100
AcDbSpline
70
4
71
2
72
6
73
3
40
0
40
0
40
0
40
1
40
1
40
1
41
1
10
73.5128526580647
20
-1.77442303660118
30
0
41
1
10
73.6083127994281
20
-1.77442303660118
30
0
41
1
10
73.7037729407914
20
-1.77442303660118
30
0
0
SPLINE
5
1CE
100
AcDbEntity
8
1
62
256
6
ByLayer
370
13
48
1
60
0
100
AcDbSpline
70
4
71
2
72
6
73
3
40
0
40
0
40
0
40
1
40
1
40
1
41
1
10
73.4140087529927
20
-1.65695167628201
30
0
41
0.916194302198623
10
73.4401472908696
20
-1.73953871640029
30
0
41
1
10
73.5128526580647
20
-1.77442303660118
30
0
0
SPLINE
5
1CF
100
AcDbEntity
8
1
62
256
6
ByLayer
370
13
48
1
60
0
100
AcDbSpline
70
4
71
2
72
6
73
3
40
0
40
0
40
0
40
1
40
1
40
1
41
1
10
73.4140087529927
20
-2.69304832371802
30
0
41
0.916194302198623
10
73.4401472908696
20
-2.6104612835997
30
0
41
1
10
73.5128526580647
20
-2.57557696339885
30
0
0
SPLINE
5
1D0
100
AcDbEntity
8
1
62
256
6
ByLayer
370
13
48
1
60
0
100
AcDbSpline
70
4
71
2
72
6
73
3
40
0
40
0
40
0
40
1
40
1
40
1
41
1
10
73.5128526580647
20
-2.57557696339885
30
0
41
1
10
73.6083127679213
20
-2.57557696339885
30
0
41
1
10
73.703772877778
20
-2.57557696339885
30
0
0
SPLINE
5
1D1
100
AcDbEntity
8
1
62
256
6
ByLayer
370
13
48
1
60
0
100
AcDbSpline
70
4
71
2
72
6
73
3
40
0
40
0
40
0
40
1
40
1
40
1
41
1
10
73.5128526580647
20
-1.77442303660118
30
0
41
0.999533107184471
10
73.5890718752233
20
-1.81099331578964
30
0
41
1
10
73.6671732168404
20
-1.84235855838318
30
0
0
SPLINE
5
1D2
100
AcDbEntity
8
1
62
256
6
ByLayer
370
13
48
1
60
0
100
AcDbSpline
70
4
71
2
72
6
73
3
40
0
40
0
40
0
40
1
40
1
40
1
41
1
10
73.5128526580647
20
-2.57557696339885
30
0
41
0.999533107184471
10
73.5890718752233
20
-2.53900668421039
30
0
41
1
10
73.6671732168404
20
-2.50764144161684
30
0
0
SPLINE
5
1D3
100
AcDbEntity
8
1
62
256
6
ByLayer
370
13
48
1
60
0
100
AcDbSpline
70
4
71
2
72
6
73
3
40
0
40
0
40
0
40
1
40
1
40
1
41
1
10
73.6756897242366
20
-1.84577875981637
30
0
41
0.819152044288974
10
73.8009195004782
20
-1.89607062715738
30
0
41
1
10
73.8009195004782
20
-2.04311421018142
30
0
0
SPLINE
5
1D4
100
AcDbEntity
8
1
62
256
6
ByLayer
370
13
48
1
60
0
100
AcDbSpline
70
4
71
2
72
6
73
3
40
0
40
0
40
0
40
1
40
1
40
1
41
0.97562855400426
10
73.6854305004667
20
-2.17500000000001
30
0
41
0.984765156972764
10
73.7511300946894
20
-2.17500000000001
30
0
41
1
10
73.8009195004782
20
-2.17500000000001
30
0
0
SPLINE
5
1D5
100
AcDbEntity
8
1
62
256
6
ByLayer
370
13
48
1
60
0
100
AcDbSpline
70
4
71
2
72
6
73
3
40
0
40
0
40
0
40
1
40
1
40
1
41
1
10
73.6756897242366
20
-1.84577875981637
30
0
41
1
10
73.7842649323743
20
-1.84577875981637
30
0
41
1
10
73.892840140512
20
-1.84577875981637
30
0
0
SPLINE
5
1D6
100
AcDbEntity
8
1
62
256
6
ByLayer
370
13
48
1
60
0
100
AcDbSpline
70
4
71
2
72
6
73
3
40
0
40
0
40
0
40
1
40
1
40
1
41
0.975098796101376
10
73.5671937242334
20
-2.50422124018362
30
0
41
0.984319126205774
10
73.6290962532596
20
-2.50422124018365
30
0
41
1
10
73.6756897242366
20
-2.50422124018365
30
0
0
SPLINE
5
1D7
100
AcDbEntity
8
1
62
256
6
ByLayer
370
13
48
1
60
0
100
AcDbSpline
70
4
71
2
72
6
73
3
40
0
40
0
40
0
40
1
40
1
40
1
41
1
10
73.6756897242366
20
-2.50422124018365
30
0
41
1
10
73.7842648951658
20
-2.50422124018365
30
0
41
1
10
73.8928400660951
20
-2.50422124018365
30
0
0
SPLINE
5
1D8
100
AcDbEntity
8
1
62
256
6
ByLayer
370
13
48
1
60
0
100
AcDbSpline
70
4
71
2
72
6
73
3
40
0
40
0
40
0
40
1
40
1
40
1
41
1
10
73.6756897242366
20
-2.50422124018365
30
0
41
0.819152044288974
10
73.8009195004782
20
-2.45392937284268
30
0
41
1
10
73.8009195004782
20
-2.30688578981861
30
0
0
SPLINE
5
1D9
100
AcDbEntity
8
1
62
256
6
ByLayer
370
13
48
1
60
0
100
AcDbSpline
70
4
71
2
72
6
73
3
40
0
40
0
40
0
40
1
40
1
40
1
41
1
10
73.8009195004782
20
-2.04311421018142
30
0
41
1
10
73.8009195004782
20
-2.1090571050907
30
0
41
1
10
73.8009195004782
20
-2.17500000000001
30
0
0
SPLINE
5
1DA
100
AcDbEntity
8
1
62
256
6
ByLayer
370
13
48
1
60
0
100
AcDbSpline
70
4
71
2
72
6
73
3
40
0
40
0
40
0
40
1
40
1
40
1
41
1
10
73.8009195004782
20
-2.30688578981861
30
0
41
1
10
73.8009195004782
20
-2.2409428949093
30
0
41
1
10
73.8009195004782
20
-2.17500000000001
30
0
0
SPLINE
5
1DB
100
AcDbEntity
8
1
62
256
6
ByLayer
370
13
48
1
60
0
100
AcDbSpline
70
4
71
2
72
6
73
3
40
0
40
0
40
0
40
1
40
1
40
1
41
0.978554994073205
10
73.3453037529878
20
-2.69304832371802
30
0
41
0.98708692224697
10
73.3837722054825
20
-2.69304832371802
30
0
41
1
10
73.4140087529927
20
-2.69304832371802
30
0
0
SPLINE
5
1DC
100
AcDbEntity
8
1
62
256
6
ByLayer
370
13
48
1
60
0
100
AcDbSpline
70
4
71
2
72
6
73
3
40
0
40
0
40
0
40
1
40
1
40
1
41
0.979327510452615
10
73.34875975299
20
-1.65695167628195
30
0
41
0.987664882551276
10
73.3851424271587
20
-1.65695167628197
30
0
41
1
10
73.4140087529927
20
-1.65695167628201
30
0
0
SPLINE
5
1DD
100
AcDbEntity
8
1
62
256
6
ByLayer
370
13
48
1
60
0
100
AcDbSpline
70
4
71
3
72
10
73
6
40
0
40
0
40
0
40
0
40
0.509182709127215
40
0.509182709127215
40
1
40
1
40
1
40
1
41
1
10
77.9452047820325
20
-3.14875089150814
30
0
41
1
10
78.0291203560374
20
-3.17085188249206
30
0
41
1
10
78.1137414373503
20
-3.19019830238534
30
0
41
1
10
78.2795482262596
20
-3.22891685421715
30
0
41
1
10
78.361943582892
20
-3.24554332150868
30
0
41
1
10
78.4452047820325
20
-3.25172440632005
30
0
0
SPLINE
5
1DE
100
AcDbEntity
8
1
62
256
6
ByLayer
370
13
48
1
60
0
100
AcDbSpline
70
4
71
2
72
6
73
3
40
0
40
0
40
0
40
1
40
1
40
1
41
1
10
73.6671732168404
20
-1.84235855838318
30
0
41
1
10
73.6714314705384
20
-1.84406865909978
30
0
41
1
10
73.6756897242366
20
-1.84577875981637
30
0
0
SPLINE
5
1DF
100
AcDbEntity
8
1
62
256
6
ByLayer
370
13
48
1
60
0
100
AcDbSpline
70
4
71
3
72
10
73
6
40
0
40
0
40
0
40
0
40
0.509182709127215
40
0.509182709127215
40
1
40
1
40
1
40
1
41
1
10
77.9452047820325
20
-1.20124910849188
30
0
41
1
10
78.0291203560374
20
-1.17914811750794
30
0
41
1
10
78.1137414373503
20
-1.15980169761468
30
0
41
1
10
78.2795482262596
20
-1.12108314578288
30
0
41
1
10
78.361943582892
20
-1.10445667849132
30
0
41
1
10
78.4452047820325
20
-1.09827559367997
30
0
0
SPLINE
5
1E0
100
AcDbEntity
8
1
62
256
6
ByLayer
370
13
48
1
60
0
100
AcDbSpline
70
4
71
2
72
6
73
3
40
0
40
0
40
0
40
1
40
1
40
1
41
1
10
73.6671732168404
20
-2.50764144161684
30
0
41
1
10
73.6714314705384
20
-2.50593134090025
30
0
41
1
10
73.6756897242366
20
-2.50422124018365
30
0
0
SPLINE
5
1E1
100
AcDbEntity
8
1
62
256
6
ByLayer
370
13
48
1
60
0
100
AcDbSpline
70
4
71
3
72
20
73
16
40
0
40
0
40
0
40
0
40
0.0004820975609761
40
0.0004820975609761
40
0.133108009856496
40
0.133108009856496
40
0.428100199580249
40
0.428100199580249
40
0.722972669357347
40
0.722972669357347
40
0.911734386886859
40
0.911734386886859
40
0.999517902439265
40
0.999517902439265
40
1
40
1
40
1
40
1
41
1
10
78.4452047820325
20
-1.09827559367997
30
0
41
1
10
78.4452247438524
20
-1.09827435846802
30
0
41
1
10
78.4452447056883
20
-1.09827312351709
30
0
41
1
10
78.4507562054647
20
-1.09793216269566
30
0
41
1
10
78.4562482889806
20
-1.09760061187592
30
0
41
1
10
78.4739568221937
20
-1.09656181248775
30
0
41
1
10
78.4861760798083
20
-1.09589413225657
30
0
41
1
10
78.5106158530261
20
-1.0948190677091
30
0
41
1
10
78.5228380850943
20
-1.09441338110707
30
0
41
1
10
78.5428824360939
20
-1.09399444830976
30
0
41
1
10
78.550706171784
20
-1.09389311870658
30
0
41
1
10
78.5621657649981
20
-1.09383308270984
30
0
41
1
10
78.5658031655838
20
-1.09382706806358
30
0
41
1
10
78.5694600537392
20
-1.09383394632417
30
0
41
1
10
78.5694800268793
20
-1.09383398433331
30
0
41
1
10
78.5695
20
-1.09383402262256
30
0
0
SPLINE
5
1E2
100
AcDbEntity
8
1
62
256
6
ByLayer
370
13
48
1
60
0
100
AcDbSpline
70
4
71
3
72
20
73
16
40
0
40
0
40
0
40
0
40
0.0004820975609761
40
0.0004820975609761
40
0.133108009856496
40
0.133108009856496
40
0.428100199580249
40
0.428100199580249
40
0.722972669357347
40
0.722972669357347
40
0.911734386886859
40
0.911734386886859
40
0.999517902439265
40
0.999517902439265
40
1
40
1
40
1
40
1
41
1
10
78.4452047820325
20
-3.25172440632005
30
0
41
1
10
78.4452247438639
20
-3.25172564134425
30
0
41
1
10
78.4452447056883
20
-3.25172687648293
30
0
41
1
10
78.4507562054647
20
-3.25206783730437
30
0
41
1
10
78.4562482889806
20
-3.2523993881241
30
0
41
1
10
78.4739568221937
20
-3.25343818751227
30
0
41
1
10
78.4861760798083
20
-3.25410586774345
30
0
41
1
10
78.5106158530261
20
-3.25518093229093
30
0
41
1
10
78.5228380850943
20
-3.25558661889295
30
0
41
1
10
78.5428824360939
20
-3.25600555169027
30
0
41
1
10
78.550706171784
20
-3.25610688129345
30
0
41
1
10
78.5621657649981
20
-3.25616691729019
30
0
41
1
10
78.5658031655838
20
-3.25617293193645
30
0
41
1
10
78.5694600537392
20
-3.25616605367583
30
0
41
1
10
78.5694800268757
20
-3.25616601533278
30
0
41
1
10
78.5695
20
-3.25616597737746
30
0
0
SPLINE
5
1E3
100
AcDbEntity
8
1
62
256
6
ByLayer
370
13
48
1
60
0
100
AcDbSpline
70
4
71
3
72
8
73
4
40
0
40
0
40
0
40
0
40
1
40
1
40
1
40
1
41
1
10
78.4452047820325
20
-2.17500000000001
30
0
41
1
10
78.486636521355
20
-2.17500000000001
30
0
41
1
10
78.5280682606775
20
-2.17500000000001
30
0
41
1
10
78.5695
20
-2.17500000000001
30
0
0
SPLINE
5
1E4
100
AcDbEntity
8
1
62
256
6
ByLayer
370
13
48
1
60
0
100
AcDbSpline
70
4
71
2
72
6
73
3
40
0
40
0
40
0
40
1
40
1
40
1
41
0.974867739300415
10
73.4171476580604
20
-1.77442303660119
30
0
41
0.984121778696465
10
73.4718224330959
20
-1.7744230366012
30
0
41
1
10
73.5128526580647
20
-1.77442303660118
30
0
0
SPLINE
5
1E5
100
AcDbEntity
8
1
62
256
6
ByLayer
370
13
48
1
60
0
100
AcDbSpline
70
4
71
2
72
6
73
3
40
0
40
0
40
0
40
1
40
1
40
1
41
0.975080735766812
10
73.5592962168483
20
-1.84235855838315
30
0
41
0.984303763465948
10
73.6208517445468
20
-1.84235855838317
30
0
41
1
10
73.6671732168404
20
-1.84235855838318
30
0
0
SPLINE
5
1E6
100
AcDbEntity
8
1
62
256
6
ByLayer
370
13
48
1
60
0
100
AcDbSpline
70
4
71
2
72
6
73
3
40
0
40
0
40
0
40
1
40
1
40
1
41
0.975098796101376
10
73.5671937242334
20
-1.84577875981636
30
0
41
0.984319126205774
10
73.6290962532596
20
-1.84577875981637
30
0
41
1
10
73.6756897242366
20
-1.84577875981637
30
0
0
SPLINE
5
1E7
100
AcDbEntity
8
1
62
256
6
ByLayer
370
13
48
1
60
0
100
AcDbSpline
70
4
71
2
72
6
73
3
40
0
40
0
40
0
40
1
40
1
40
1
41
0.974883002906293
10
73.4172386580605
20
-2.57557696339884
30
0
41
0.984134869596972
10
73.4718568060573
20
-2.57557696339885
30
0
41
1
10
73.5128526580647
20
-2.57557696339885
30
0
0
SPLINE
5
1E8
100
AcDbEntity
8
1
62
256
6
ByLayer
370
13
48
1
60
0
100
AcDbSpline
70
4
71
2
72
6
73
3
40
0
40
0
40
0
40
1
40
1
40
1
41
0.975080735766812
10
73.5592962168483
20
-2.50764144161686
30
0
41
0.984303763465948
10
73.6208517445468
20
-2.50764144161683
30
0
41
1
10
73.6671732168404
20
-2.50764144161684
30
0
0
SPLINE
5
1E9
100
AcDbEntity
8
1
62
256
6
ByLayer
370
13
48
1
60
0
100
AcDbSpline
70
4
71
2
72
6
73
3
40
0
40
0
40
0
40
1
40
1
40
1
41
0.97562855400426
10
73.6854305004667
20
-2.04311421018139
30
0
41
0.984765156972764
10
73.7511300946894
20
-2.0431142101814
30
0
41
1
10
73.8009195004782
20
-2.04311421018142
30
0
0
SPLINE
5
1EA
100
AcDbEntity
8
1
62
256
6
ByLayer
370
13
48
1
60
0
100
AcDbSpline
70
4
71
2
72
6
73
3
40
0
40
0
40
0
40
1
40
1
40
1
41
0.97562855400426
10
73.6854305004667
20
-2.30688578981863
30
0
41
0.984765156972764
10
73.7511300946894
20
-2.30688578981862
30
0
41
1
10
73.8009195004782
20
-2.30688578981861
30
0
0
SPLINE
5
1EB
100
AcDbEntity
8
1
62
256
6
ByLayer
370
18
48
1
60
0
100
AcDbSpline
70
4
71
3
72
10
73
6
40
0
40
0
40
0
40
0
40
0.162708415110803
40
0.162708415110803
40
1
40
1
40
1
40
1
41
1
10
66.2681266662174
20
-4.35262223355303
30
0
41
1
10
66.2752427814923
20
-4.35511471815727
30
0
41
1
10
66.2823812785674
20
-4.35738854996151
30
0
41
1
10
66.3263525328971
20
-4.37002499120808
30
0
41
1
10
66.3639443231505
20
-4.375
30
0
41
1
10
66.4
20
-4.375
30
0
0
SPLINE
5
1EC
100
AcDbEntity
8
1
62
256
6
ByLayer
370
18
48
1
60
0
100
AcDbSpline
70
4
71
3
72
10
73
6
40
0
40
0
40
0
40
0
40
0.955278663306941
40
0.955278663306941
40
1
40
1
40
1
40
1
41
1
10
66.4
20
0.0250000000000057
30
0
41
1
10
66.3575631985057
20
0.0250000000000057
30
0
41
1
10
66.3128593536871
20
0.0180418949903185
30
0
41
1
10
66.2677727819473
20
0.0025188574226149
30
0
41
1
10
66.2657624289886
20
0.0018079540690792
30
0
41
1
10
66.2637535520552
20
0.0010787746025755
30
0
0
SPLINE
5
1ED
100
AcDbEntity
8
1
62
256
6
ByLayer
370
18
48
1
60
0
100
AcDbSpline
70
4
71
3
72
10
73
6
40
0
40
0
40
0
40
0
40
0.496545174713846
40
0.496545174713846
40
1
40
1
40
1
40
1
41
1
10
76.5751468255074
20
-4.52682028979328
30
0
41
1
10
76.5533466896018
20
-4.52695471874333
30
0
41
1
10
76.5282952678048
20
-4.52652247006591
30
0
41
1
10
76.4755077617421
20
-4.52459799486419
30
0
41
1
10
76.4470112578507
20
-4.5230652317679
30
0
41
1
10
76.4189357069486
20
-4.52110199799975
30
0
0
SPLINE
5
1EE
100
AcDbEntity
8
1
62
256
6
ByLayer
370
18
48
1
60
0
100
AcDbSpline
70
4
71
2
72
7
73
4
40
0
40
0
40
0
40
0.5
40
1
40
1
40
1
41
1
10
73.2986247883348
20
0.0250000000000057
30
0
41
1
10
73.3201857441014
20
0.0250000000000057
30
0
41
1
10
73.3928014367905
20
0.0250000000000057
30
0
41
1
10
73.4396834701053
20
0.0250000000000057
30
0
0
SPLINE
5
1EF
100
AcDbEntity
8
1
62
256
6
ByLayer
370
18
48
1
60
0
100
AcDbSpline
70
4
71
3
72
13
73
9
40
0
40
0
40
0
40
0
40
0.500781235726681
40
0.500781235726681
40
0.500781235726681
40
0.767869301884458
40
0.767869301884458
40
1
40
1
40
1
40
1
41
1
10
78.3080209311119
20
0.240447013416798
30
0
41
1
10
77.9992740849282
20
0.21871061818544
30
0
41
1
10
77.6856286536802
20
0.201736493141254
30
0
41
1
10
77.3930508724
20
0.190969231184852
30
0
41
1
10
77.2354121141052
20
0.185167909575199
30
0
41
1
10
77.081988013643
20
0.181067190049475
30
0
41
1
10
76.8101575856409
20
0.176771208305866
30
0
41
1
10
76.6889476378265
20
0.176118545373811
30
0
41
1
10
76.5751468255074
20
0.176820289793255
30
0
0
SPLINE
5
1F0
100
AcDbEntity
8
1
62
256
6
ByLayer
370
18
48
1
60
0
100
AcDbSpline
70
4
71
3
72
16
73
12
40
0
40
0
40
0
40
0
40
0.201783384739321
40
0.201783384739321
40
0.403377864546656
40
0.403377864546656
40
0.607832959331835
40
0.607832959331835
40
0.816478248427783
40
0.816478248427783
40
1
40
1
40
1
40
1
41
1
10
79.5889153303076
20
-4.68842265319364
30
0
41
1
10
79.6326534239637
20
-4.69098001002209
30
0
41
1
10
79.6773706525875
20
-4.68588647288388
30
0
41
1
10
79.7612881167607
20
-4.66148528853316
30
0
41
1
10
79.8016398650051
20
-4.64186996839942
30
0
41
1
10
79.8732925878941
20
-4.59086827203788
30
0
41
1
10
79.9054344798681
20
-4.55863771627924
30
0
41
1
10
79.957421523965
20
-4.48565127650187
30
0
41
1
10
79.977720099891
20
-4.44373806283926
30
0
41
1
10
80.0017074509187
20
-4.36173971993938
30
0
41
1
10
80.0073562176764
20
-4.32116296264195
30
0
41
1
10
80.007016558107
20
-4.28100654661296
30
0
0
SPLINE
5
1F1
100
AcDbEntity
8
1
62
256
6
ByLayer
370
18
48
1
60
0
100
AcDbSpline
70
4
71
3
72
8
73
4
40
0
40
0
40
0
40
0
40
1
40
1
40
1
40
1
41
1
10
78.8080209311119
20
-4.62564801303841
30
0
41
1
10
78.924354917332
20
-4.63383815824827
30
0
41
1
10
79.0410108992438
20
-4.64304504673854
30
0
41
1
10
79.1553172864457
20
-4.65305113912288
30
0
0
SPLINE
5
1F2
100
AcDbEntity
8
1
62
256
6
ByLayer
370
18
48
1
60
0
100
AcDbSpline
70
4
71
3
72
16
73
12
40
0
40
0
40
0
40
0
40
0.211361443762947
40
0.211361443762947
40
0.422716290819755
40
0.422716290819755
40
0.633949151093206
40
0.633949151093206
40
0.842299705562237
40
0.842299705562237
40
1
40
1
40
1
40
1
41
1
10
80.007016558107
20
-0.0689934533870655
30
0
41
1
10
80.0074064524711
20
-0.0228980045805258
30
0
41
1
10
79.9998556439929
20
0.023829429476649
30
0
41
1
10
79.9702190740798
20
0.110817182941275
30
0
41
1
10
79.9477208985696
20
0.152287934532751
30
0
41
1
10
79.891017377631
20
0.22421228284341
30
0
41
1
10
79.8560136095222
20
0.255679173548629
30
0
41
1
10
79.7789786511116
20
0.303744868801971
30
0
41
1
10
79.7359553177749
20
0.32120690446925
30
0
41
1
10
79.6582018857319
20
0.337762731121927
30
0
41
1
10
79.6232945560288
20
0.340432799048358
30
0
41
1
10
79.5889153303076
20
0.338422653193618
30
0
0
SPLINE
5
1F3
100
AcDbEntity
8
1
62
256
6
ByLayer
370
18
48
1
60
0
100
AcDbSpline
70
4
71
3
72
8
73
4
40
0
40
0
40
0
40
0
40
1
40
1
40
1
40
1
41
1
10
79.1553172864457
20
0.303051139122886
30
0
41
1
10
79.0410108992438
20
0.293045046738513
30
0
41
1
10
78.924354917332
20
0.283838158248244
30
0
41
1
10
78.8080209311119
20
0.275648013038421
30
0
0
SPLINE
5
1F4
100
AcDbEntity
8
1
62
256
6
ByLayer
370
18
48
1
60
0
100
AcDbSpline
70
4
71
3
72
13
73
9
40
0
40
0
40
0
40
0
40
0.200250351048004
40
0.200250351048004
40
0.699726211832344
40
0.699726211832344
40
0.699726211832344
40
1
40
1
40
1
40
1
41
1
10
76.5751468255074
20
-4.52682028979328
30
0
41
1
10
76.6734170081302
20
-4.52621431387053
30
0
41
1
10
76.7771679125051
20
-4.52661687515507
30
0
41
1
10
77.1509426949543
20
-4.53149583707383
30
0
41
1
10
77.4473892371082
20
-4.54129878437806
30
0
41
1
10
77.7497500928555
20
-4.55660700759179
30
0
41
1
10
77.9331836738877
20
-4.56589406360436
30
0
41
1
10
78.1211915582716
20
-4.5772938520515
30
0
41
1
10
78.3080209311119
20
-4.59044701341682
30
0
0
SPLINE
5
1F5
100
AcDbEntity
8
1
62
256
6
ByLayer
370
18
48
1
60
0
100
AcDbSpline
70
4
71
3
72
12
73
8
40
0
40
0
40
0
40
0
40
0.0020745602245391
40
0.0965030327464488
40
0.474216922834087
40
0.851930812921726
40
1
40
1
40
1
40
1
41
1
10
66.6382260241767
20
0.0250000000000057
30
0
41
1
10
66.6395256467883
20
0.0250000000000057
30
0
41
1
10
66.6999814307932
20
0.0250000000000057
30
0
41
1
10
66.997327365087
20
0.0250000000000057
30
0
41
1
10
67.5299646675477
20
0.0250000000000057
30
0
41
1
10
68.0963240516962
20
0.0250000000000057
30
0
41
1
10
68.4259051272087
20
0.0250000000000057
30
0
41
1
10
68.518720237989
20
0.0250000000000057
30
0
0
SPLINE
5
1F6
100
AcDbEntity
8
1
62
256
6
ByLayer
370
18
48
1
60
0
100
AcDbSpline
70
4
71
3
72
10
73
6
40
0
40
0
40
0
40
0
40
0.496604554236898
40
0.496604554236898
40
1
40
1
40
1
40
1
41
1
10
76.4189357069464
20
0.171101997975569
30
0
41
1
10
76.4466398380797
20
0.173039259543401
30
0
41
1
10
76.4747488636876
20
0.174557345042245
30
0
41
1
10
76.5276169252262
20
0.176510368519871
30
0
41
1
10
76.5530543877322
20
0.176956521201475
30
0
41
1
10
76.5751468255074
20
0.176820289793255
30
0
0
SPLINE
5
1F7
100
AcDbEntity
8
1
62
256
6
ByLayer
370
18
48
1
60
0
100
AcDbSpline
70
4
71
3
72
8
73
4
40
0
40
0
40
0
40
0
40
1
40
1
40
1
40
1
41
1
10
73.2986246429738
20
-4.37499999999997
30
0
41
1
10
73.3262795836386
20
-4.37499999999997
30
0
41
1
10
73.3781764584513
20
-4.37499999999997
30
0
41
1
10
73.4396676644657
20
-4.37499999999997
30
0
0
SPLINE
5
1F8
100
AcDbEntity
8
1
62
256
6
ByLayer
370
18
48
1
60
0
100
AcDbSpline
70
4
71
3
72
12
73
8
40
0
40
0
40
0
40
0
40
0.148069187078275
40
0.525783077165912
40
0.903496967253549
40
0.997925439775459
40
1
40
1
40
1
40
1
41
1
10
68.518720237989
20
-4.375
30
0
41
1
10
68.4259051272087
20
-4.375
30
0
41
1
10
68.0963240516962
20
-4.375
30
0
41
1
10
67.5299646675477
20
-4.375
30
0
41
1
10
66.997327365087
20
-4.375
30
0
41
1
10
66.6999814307932
20
-4.375
30
0
41
1
10
66.6395256467883
20
-4.375
30
0
41
1
10
66.6382260241767
20
-4.375
30
0
0
LINE
5
70
100
AcDbEntity
8
80
62
256
6
ByLayer
370
18
48
1
60
0
100
AcDbLine
10
0
20
0
30
0
11
-5
21
0
31
0
39
0
210
0
220
0
230
1
0
LINE
5
71
100
AcDbEntity
8
81
62
256
6
ByLayer
370
18
48
1
60
0
100
AcDbLine
10
80
20
-5
30
0
11
85
21
-5
31
0
39
0
210
0
220
0
230
1
0
LINE
5
72
100
AcDbEntity
8
1
62
256
6
ByLayer
370
18
48
1
60
0
100
AcDbLine
10
0
20
0
30
0
11
0
21
-2.175
31
0
39
0
210
0
220
0
230
1
0
LINE
5
74
100
AcDbEntity
8
SK1
62
256
6
ByLayer
370
18
48
1
60
0
100
AcDbLine
10
-145
20
-4.35
30
0
11
-145
21
-2.175
31
0
39
0
210
0
220
0
230
1
0
LINE
5
76
100
AcDbEntity
8
SK1
62
256
6
ByLayer
370
18
48
1
60
0
100
AcDbLine
10
-54.958997
20
-2.175
30
0
11
-145
21
-2.175
31
0
39
0
210
0
220
0
230
1
0
LINE
5
77
100
AcDbEntity
8
SK1
62
256
6
ByLayer
370
18
48
1
60
0
100
AcDbLine
10
-145
20
-2.175
30
0
11
-145
21
0
31
0
39
0
210
0
220
0
230
1
0
LINE
5
78
100
AcDbEntity
8
SK1
62
256
6
ByLayer
370
18
48
1
60
0
100
AcDbLine
10
0
20
0
30
0
11
0
21
-2.175
31
0
39
0
210
0
220
0
230
1
0
LINE
5
79
100
AcDbEntity
8
SK1
62
256
6
ByLayer
370
18
48
1
60
0
100
AcDbLine
10
0
20
0
30
0
11
-145
21
0
31
0
39
0
210
0
220
0
230
1
0
LINE
5
7A
100
AcDbEntity
8
SK1
62
256
6
ByLayer
370
18
48
1
60
0
100
AcDbLine
10
0
20
-4.35
30
0
11
-145
21
-4.35
31
0
39
0
210
0
220
0
230
1
0
LINE
5
7B
100
AcDbEntity
8
SK1
62
256
6
ByLayer
370
18
48
1
60
0
100
AcDbLine
10
0
20
-2.175
30
0
11
0
21
-4.35
31
0
39
0
210
0
220
0
230
1
0
LINE
5
7C
100
AcDbEntity
8
SK1
62
256
6
ByLayer
370
18
48
1
60
0
100
AcDbLine
10
0
20
-2.175
30
0
11
-51.422146
21
-2.175
31
0
39
0
210
0
220
0
230
1
0
LINE
5
7D
100
AcDbEntity
8
1
62
256
6
ByLayer
370
18
48
1
60
0
100
AcDbLine
10
54.4
20
0
30
0
11
63.389175
21
0
31
0
39
0
210
0
220
0
230
1
0
LINE
5
7E
100
AcDbEntity
8
1
62
256
6
ByLayer
370
18
48
1
60
0
100
AcDbLine
10
47.741934
20
0
30
0
11
0
21
0
31
0
39
0
210
0
220
0
230
1
0
LINE
5
7F
100
AcDbEntity
8
1
62
256
6
ByLayer
370
18
48
1
60
0
100
AcDbLine
10
63.389175
20
0
30
0
11
68.389175
21
0
31
0
39
0
210
0
220
0
230
1
0
LINE
5
80
100
AcDbEntity
8
1
62
256
6
ByLayer
370
18
48
1
60
0
100
AcDbLine
10
68.389175
20
0
30
0
11
72.87957
21
0
31
0
39
0
210
0
220
0
230
1
0
LINE
5
81
100
AcDbEntity
8
1
62
256
6
ByLayer
370
13
48
1
60
0
100
AcDbLine
10
68.389175
20
-4.35
30
0
11
68.389175
21
0
31
0
39
0
210
0
220
0
230
1
0
LINE
5
82
100
AcDbEntity
8
1
62
256
6
ByLayer
370
13
48
1
60
0
100
AcDbLine
10
63.389175
20
0
30
0
11
63.389175
21
-4.35
31
0
39
0
210
0
220
0
230
1
0
LINE
5
83
100
AcDbEntity
8
1
62
256
6
ByLayer
370
18
48
1
60
0
100
AcDbLine
10
46.849863
20
-2.175
30
0
11
0
21
-2.175
31
0
39
0
210
0
220
0
230
1
0
LINE
5
84
100
AcDbEntity
8
1
62
256
6
ByLayer
370
18
48
1
60
0
100
AcDbLine
10
63.389175
20
-4.35
30
0
11
54.4
21
-4.35
31
0
39
0
210
0
220
0
230
1
0
LINE
5
85
100
AcDbEntity
8
1
62
256
6
ByLayer
370
18
48
1
60
0
100
AcDbLine
10
47.741934
20
0
30
0
11
54.4
21
0
31
0
39
0
210
0
220
0
230
1
0
LINE
5
86
100
AcDbEntity
8
1
62
256
6
ByLayer
370
18
48
1
60
0
100
AcDbLine
10
0
20
-2.175
30
0
11
0
21
-4.35
31
0
39
0
210
0
220
0
230
1
0
LINE
5
87
100
AcDbEntity
8
1
62
256
6
ByLayer
370
18
48
1
60
0
100
AcDbLine
10
73.261776
20
-3.091023
30
0
11
72.87957
21
-4.35
31
0
39
0
210
0
220
0
230
1
0
LINE
5
88
100
AcDbEntity
8
1
62
256
6
ByLayer
370
18
48
1
60
0
100
AcDbLine
10
72.87957
20
-4.35
30
0
11
68.389175
21
-4.35
31
0
39
0
210
0
220
0
230
1
0
LINE
5
89
100
AcDbEntity
8
1
62
256
6
ByLayer
370
13
48
1
60
0
100
AcDbLine
10
54.4
20
-4.35
30
0
11
54.4
21
0
31
0
39
0
210
0
220
0
230
1
0
LINE
5
8A
100
AcDbEntity
8
1
62
256
6
ByLayer
370
18
48
1
60
0
100
AcDbLine
10
47.741934
20
-4.35
30
0
11
0
21
-4.35
31
0
39
0
210
0
220
0
230
1
0
LINE
5
8B
100
AcDbEntity
8
1
62
256
6
ByLayer
370
18
48
1
60
0
100
AcDbLine
10
68.389175
20
-4.35
30
0
11
63.389175
21
-4.35
31
0
39
0
210
0
220
0
230
1
0
LINE
5
8C
100
AcDbEntity
8
1
62
256
6
ByLayer
370
18
48
1
60
0
100
AcDbLine
10
54.4
20
-4.35
30
0
11
47.741934
21
-4.35
31
0
39
0
210
0
220
0
230
1
0
LINE
5
8D
100
AcDbEntity
8
1
62
256
6
ByLayer
370
18
48
1
60
0
100
AcDbLine
10
72.87957
20
0
30
0
11
73.261776
21
-1.258977
31
0
39
0
210
0
220
0
230
1
0
LINE
5
8E
100
AcDbEntity
8
1
62
256
6
ByLayer
370
13
48
1
60
0
100
AcDbLine
10
68.609992
20
-4.375
30
0
11
68.609992
21
-4.35
31
0
39
0
210
0
220
0
230
1
0
LINE
5
8F
100
AcDbEntity
8
1
62
256
6
ByLayer
370
13
48
1
60
0
100
AcDbLine
10
68.609992
20
0
30
0
11
68.609992
21
0.025
31
0
39
0
210
0
220
0
230
1
0
LINE
5
90
100
AcDbEntity
8
1
62
256
6
ByLayer
370
13
48
1
60
0
100
AcDbLine
10
68.51872
20
-4.349999
30
0
11
68.51872
21
-4.375
31
0
39
0
210
0
220
0
230
1
0
LINE
5
91
100
AcDbEntity
8
1
62
256
6
ByLayer
370
13
48
1
60
0
100
AcDbLine
10
68.51872
20
0.025
30
0
11
68.51872
21
-1E-06
31
0
39
0
210
0
220
0
230
1
0
LINE
5
92
100
AcDbEntity
8
1
62
256
6
ByLayer
370
13
48
1
60
0
100
AcDbLine
10
66.638226
20
-4.375
30
0
11
66.638226
21
-4.349975
31
0
39
0
210
0
220
0
230
1
0
LINE
5
93
100
AcDbEntity
8
1
62
256
6
ByLayer
370
13
48
1
60
0
100
AcDbLine
10
66.638226
20
-2.5E-05
30
0
11
66.638226
21
0.025
31
0
39
0
210
0
220
0
230
1
0
LINE
5
94
100
AcDbEntity
8
1
62
256
6
ByLayer
370
13
48
1
60
0
100
AcDbLine
10
73.298627
20
-4.229426
30
0
11
73.298627
21
-4.375
31
0
39
0
210
0
220
0
230
1
0
LINE
5
95
100
AcDbEntity
8
1
62
256
6
ByLayer
370
13
48
1
60
0
100
AcDbLine
10
78.308021
20
-3.908876
30
0
11
78.308021
21
-4.590447
31
0
39
0
210
0
220
0
230
1
0
LINE
5
96
100
AcDbEntity
8
1
62
256
6
ByLayer
370
13
48
1
60
0
100
AcDbLine
10
78.308021
20
-0.441124
30
0
11
78.308021
21
0.240447
31
0
39
0
210
0
220
0
230
1
0
LINE
5
97
100
AcDbEntity
8
1
62
256
6
ByLayer
370
13
48
1
60
0
100
AcDbLine
10
73.298627
20
0.025
30
0
11
73.298627
21
-0.120574
31
0
39
0
210
0
220
0
230
1
0
LINE
5
98
100
AcDbEntity
8
1
62
256
6
ByLayer
370
13
48
1
60
0
100
AcDbLine
10
75.082358
20
-4.375
30
0
11
75.082358
21
-3.245087
31
0
39
0
210
0
220
0
230
1
0
LINE
5
99
100
AcDbEntity
8
1
62
256
6
ByLayer
370
13
48
1
60
0
100
AcDbLine
10
75.082358
20
-1.104913
30
0
11
75.082358
21
0.025
31
0
39
0
210
0
220
0
230
1
0
LINE
5
9A
100
AcDbEntity
8
1
62
256
6
ByLayer
370
13
48
1
60
0
100
AcDbLine
10
74.181347
20
-4.375
30
0
11
74.181347
21
-3.473614
31
0
39
0
210
0
220
0
230
1
0
LINE
5
9B
100
AcDbEntity
8
1
62
256
6
ByLayer
370
13
48
1
60
0
100
AcDbLine
10
74.744578
20
-3.404148
30
0
11
74.744578
21
-4.375
31
0
39
0
210
0
220
0
230
1
0
LINE
5
9C
100
AcDbEntity
8
1
62
256
6
ByLayer
370
13
48
1
60
0
100
AcDbLine
10
74.744578
20
0.025
30
0
11
74.744578
21
-0.945853
31
0
39
0
210
0
220
0
230
1
0
LINE
5
9D
100
AcDbEntity
8
1
62
256
6
ByLayer
370
13
48
1
60
0
100
AcDbLine
10
74.181347
20
0.025
30
0
11
74.181347
21
-0.876386
31
0
39
0
210
0
220
0
230
1
0
LINE
5
9E
100
AcDbEntity
8
1
62
256
6
ByLayer
370
13
48
1
60
0
100
AcDbLine
10
75.63429
20
-1.315237
30
0
11
75.495921
21
-1.161889
31
0
39
0
210
0
220
0
230
1
0
LINE
5
9F
100
AcDbEntity
8
1
62
256
6
ByLayer
370
13
48
1
60
0
100
AcDbLine
10
75.495921
20
-3.188111
30
0
11
75.63429
21
-3.034763
31
0
39
0
210
0
220
0
230
1
0
LINE
5
A0
100
AcDbEntity
8
1
62
256
6
ByLayer
370
13
48
1
60
0
100
AcDbLine
10
77.945205
20
-1.201249
30
0
11
77.868852
21
-0.911345
31
0
39
0
210
0
220
0
230
1
0
LINE
5
A1
100
AcDbEntity
8
1
62
256
6
ByLayer
370
13
48
1
60
0
100
AcDbLine
10
77.945205
20
-3.148751
30
0
11
77.868852
21
-3.438655
31
0
39
0
210
0
220
0
230
1
0
LINE
5
A2
100
AcDbEntity
8
1
62
256
6
ByLayer
370
13
48
1
60
0
100
AcDbLine
10
75.082358
20
-3.245087
30
0
11
75.052036
21
-3.025105
31
0
39
0
210
0
220
0
230
1
0
LINE
5
A3
100
AcDbEntity
8
1
62
256
6
ByLayer
370
13
48
1
60
0
100
AcDbLine
10
73.439699
20
-4.375
30
0
11
73.439699
21
-4.267397
31
0
39
0
210
0
220
0
230
1
0
LINE
5
A4
100
AcDbEntity
8
1
62
256
6
ByLayer
370
13
48
1
60
0
100
AcDbLine
10
75.082358
20
-1.104913
30
0
11
75.052036
21
-1.324896
31
0
39
0
210
0
220
0
230
1
0
LINE
5
A5
100
AcDbEntity
8
1
62
256
6
ByLayer
370
13
48
1
60
0
100
AcDbLine
10
73.81113
20
-0.882959
30
0
11
73.439699
21
-0.082603
31
0
39
0
210
0
220
0
230
1
0
LINE
5
A6
100
AcDbEntity
8
1
62
256
6
ByLayer
370
13
48
1
60
0
100
AcDbLine
10
73.439699
20
-0.082603
30
0
11
73.439699
21
0.025
31
0
39
0
210
0
220
0
230
1
0
LINE
5
A7
100
AcDbEntity
8
1
62
256
6
ByLayer
370
13
48
1
60
0
100
AcDbLine
10
73.439699
20
-4.267397
30
0
11
73.81113
21
-3.467041
31
0
39
0
210
0
220
0
230
1
0
LINE
5
A8
100
AcDbEntity
8
1
62
256
6
ByLayer
370
13
48
1
60
0
100
AcDbLine
10
75.495921
20
-3.188111
30
0
11
75.465562
21
-2.967646
31
0
39
0
210
0
220
0
230
1
0
LINE
5
A9
100
AcDbEntity
8
1
62
256
6
ByLayer
370
13
48
1
60
0
100
AcDbLine
10
75.495921
20
-1.161889
30
0
11
75.465562
21
-1.382355
31
0
39
0
210
0
220
0
230
1
0
LINE
5
AA
100
AcDbEntity
8
1
62
256
6
ByLayer
370
13
48
1
60
0
100
AcDbLine
10
77.945205
20
-1.201249
30
0
11
77.945205
21
-3.148751
31
0
39
0
210
0
220
0
230
1
0
LINE
5
AB
100
AcDbEntity
8
1
62
256
6
ByLayer
370
13
48
1
60
0
100
AcDbLine
10
73.294206
20
-0.128202
30
0
11
73.682726
21
-0.965382
31
0
39
0
210
0
220
0
230
1
0
LINE
5
AC
100
AcDbEntity
8
1
62
256
6
ByLayer
370
13
48
1
60
0
100
AcDbLine
10
73.682726
20
-3.384618
30
0
11
73.294206
21
-4.221798
31
0
39
0
210
0
220
0
230
1
0
LINE
5
AD
100
AcDbEntity
8
1
62
256
6
ByLayer
370
13
48
1
60
0
100
AcDbLine
10
80.000117
20
-0.884698
30
0
11
79.892144
21
-0.884698
31
0
39
0
210
0
220
0
230
1
0
LINE
5
AE
100
AcDbEntity
8
1
62
256
6
ByLayer
370
13
48
1
60
0
100
AcDbLine
10
79.534036
20
-0.603879
30
0
11
79.534036
21
0.335214
31
0
39
0
210
0
220
0
230
1
0
LINE
5
AF
100
AcDbEntity
8
1
62
256
6
ByLayer
370
13
48
1
60
0
100
AcDbLine
10
79.534036
20
-3.746121
30
0
11
79.534036
21
-4.685214
31
0
39
0
210
0
220
0
230
1
0
LINE
5
B0
100
AcDbEntity
8
1
62
256
6
ByLayer
370
13
48
1
60
0
100
AcDbLine
10
78.808021
20
-3.909302
30
0
11
78.808021
21
-4.625648
31
0
39
0
210
0
220
0
230
1
0
LINE
5
B1
100
AcDbEntity
8
1
62
256
6
ByLayer
370
13
48
1
60
0
100
AcDbLine
10
79.155317
20
-3.859948
30
0
11
79.155317
21
-4.653051
31
0
39
0
210
0
220
0
230
1
0
LINE
5
B2
100
AcDbEntity
8
1
62
256
6
ByLayer
370
13
48
1
60
0
100
AcDbLine
10
79.466228
20
-4.680268
30
0
11
79.466228
21
-3.7963
31
0
39
0
210
0
220
0
230
1
0
LINE
5
B3
100
AcDbEntity
8
1
62
256
6
ByLayer
370
13
48
1
60
0
100
AcDbLine
10
80.000117
20
-3.465302
30
0
11
79.892144
21
-3.465302
31
0
39
0
210
0
220
0
230
1
0
LINE
5
B4
100
AcDbEntity
8
1
62
256
6
ByLayer
370
13
48
1
60
0
100
AcDbLine
10
78.808021
20
-0.440698
30
0
11
78.808021
21
0.275648
31
0
39
0
210
0
220
0
230
1
0
LINE
5
B5
100
AcDbEntity
8
1
62
256
6
ByLayer
370
13
48
1
60
0
100
AcDbLine
10
79.466228
20
0.330268
30
0
11
79.466228
21
-0.5537
31
0
39
0
210
0
220
0
230
1
0
LINE
5
B6
100
AcDbEntity
8
1
62
256
6
ByLayer
370
13
48
1
60
0
100
AcDbLine
10
79.155317
20
-0.490052
30
0
11
79.155317
21
0.303051
31
0
39
0
210
0
220
0
230
1
0
LINE
5
B7
100
AcDbEntity
8
1
62
256
6
ByLayer
370
13
48
1
60
0
100
AcDbLine
10
79.920697
20
-0.912394
30
0
11
80
21
-0.912394
31
0
39
0
210
0
220
0
230
1
0
LINE
5
B8
100
AcDbEntity
8
1
62
256
6
ByLayer
370
13
48
1
60
0
100
AcDbLine
10
79.920697
20
-3.437606
30
0
11
80
21
-3.437606
31
0
39
0
210
0
220
0
230
1
0
LINE
5
B9
100
AcDbEntity
8
1
62
256
6
ByLayer
370
13
48
1
60
0
100
AcDbLine
10
79.944165
20
-1.10942
30
0
11
79.997026
21
-1.10942
31
0
39
0
210
0
220
0
230
1
0
LINE
5
BA
100
AcDbEntity
8
1
62
256
6
ByLayer
370
13
48
1
60
0
100
AcDbLine
10
79.997026
20
-3.24058
30
0
11
79.997026
21
-1.10942
31
0
39
0
210
0
220
0
230
1
0
LINE
5
BB
100
AcDbEntity
8
1
62
256
6
ByLayer
370
13
48
1
60
0
100
AcDbLine
10
79.944165
20
-3.24058
30
0
11
79.997026
21
-3.24058
31
0
39
0
210
0
220
0
230
1
0
LINE
5
BC
100
AcDbEntity
8
1
62
256
6
ByLayer
370
13
48
1
60
0
100
AcDbLine
10
79.944165
20
-1.10942
30
0
11
79.944165
21
-3.24058
31
0
39
0
210
0
220
0
230
1
0
LINE
5
BD
100
AcDbEntity
8
1
62
256
6
ByLayer
370
13
48
1
60
0
100
AcDbLine
10
79.421373
20
-1.097746
30
0
11
79.421373
21
-3.252254
31
0
39
0
210
0
220
0
230
1
0
LINE
5
BE
100
AcDbEntity
8
1
62
256
6
ByLayer
370
13
48
1
60
0
100
AcDbLine
10
73.667173
20
-1.842359
30
0
11
73.882731
21
-1.842359
31
0
39
0
210
0
220
0
230
1
0
LINE
5
BF
100
AcDbEntity
8
1
62
256
6
ByLayer
370
13
48
1
60
0
100
AcDbLine
10
73.667173
20
-2.507641
30
0
11
73.882731
21
-2.507641
31
0
39
0
210
0
220
0
230
1
0
LINE
5
C0
100
AcDbEntity
8
1
62
256
6
ByLayer
370
13
48
1
60
0
100
AcDbLine
10
73.80092
20
-2.043114
30
0
11
74.035691
21
-2.043114
31
0
39
0
210
0
220
0
230
1
0
LINE
5
C1
100
AcDbEntity
8
1
62
256
6
ByLayer
370
13
48
1
60
0
100
AcDbLine
10
73.80092
20
-2.306886
30
0
11
74.035691
21
-2.306886
31
0
39
0
210
0
220
0
230
1
0
LINE
5
C2
100
AcDbEntity
8
1
62
256
6
ByLayer
370
13
48
1
60
0
100
AcDbLine
10
78.5695
20
-3.256166
30
0
11
78.5695
21
-2.175
31
0
39
0
210
0
220
0
230
1
0
LINE
5
C3
100
AcDbEntity
8
1
62
256
6
ByLayer
370
13
48
1
60
0
100
AcDbLine
10
78.5695
20
-1.093834
30
0
11
78.5695
21
-2.175
31
0
39
0
210
0
220
0
230
1
0
LINE
5
C4
100
AcDbEntity
8
1
62
256
6
ByLayer
370
13
48
1
60
0
100
AcDbLine
10
78.445205
20
-3.251724
30
0
11
78.423178
21
-3.54843
31
0
39
0
210
0
220
0
230
1
0
LINE
5
C5
100
AcDbEntity
8
1
62
256
6
ByLayer
370
13
48
1
60
0
100
AcDbLine
10
78.445205
20
-1.098276
30
0
11
78.423178
21
-0.80157
31
0
39
0
210
0
220
0
230
1
0
LINE
5
C6
100
AcDbEntity
8
1
62
256
6
ByLayer
370
13
48
1
60
0
100
AcDbLine
10
78.445205
20
-1.098276
30
0
11
78.445205
21
-2.175
31
0
39
0
210
0
220
0
230
1
0
LINE
5
C7
100
AcDbEntity
8
1
62
256
6
ByLayer
370
13
48
1
60
0
100
AcDbLine
10
78.445205
20
-3.251724
30
0
11
78.445205
21
-2.175
31
0
39
0
210
0
220
0
230
1
0
LINE
5
C8
100
AcDbEntity
8
1
62
256
6
ByLayer
370
18
48
1
60
0
100
AcDbLine
10
78.308021
20
-4.590447
30
0
11
78.808021
21
-4.625648
31
0
39
0
210
0
220
0
230
1
0
LINE
5
C9
100
AcDbEntity
8
1
62
256
6
ByLayer
370
18
48
1
60
0
100
AcDbLine
10
74.744578
20
0.025
30
0
11
74.181347
21
0.025
31
0
39
0
210
0
220
0
230
1
0
LINE
5
CA
100
AcDbEntity
8
1
62
256
6
ByLayer
370
18
48
1
60
0
100
AcDbLine
10
73.439668
20
-4.375
30
0
11
74.181347
21
-4.375
31
0
39
0
210
0
220
0
230
1
0
LINE
5
CB
100
AcDbEntity
8
1
62
256
6
ByLayer
370
18
48
1
60
0
100
AcDbLine
10
76.418936
20
-4.521102
30
0
11
75.671473
21
-4.468834
31
0
39
0
210
0
220
0
230
1
0
LINE
5
CC
100
AcDbEntity
8
1
62
256
6
ByLayer
370
18
48
1
60
0
100
AcDbLine
10
71.404967
20
-4.375
30
0
11
68.609992
21
-4.375
31
0
39
0
210
0
220
0
230
1
0
LINE
5
CD
100
AcDbEntity
8
1
62
256
6
ByLayer
370
18
48
1
60
0
100
AcDbLine
10
79.155317
20
-4.653051
30
0
11
79.466228
21
-4.680268
31
0
39
0
210
0
220
0
230
1
0
LINE
5
CE
100
AcDbEntity
8
1
62
256
6
ByLayer
370
18
48
1
60
0
100
AcDbLine
10
66.4
20
0.025
30
0
11
66.638226
21
0.025
31
0
39
0
210
0
220
0
230
1
0
LINE
5
CF
100
AcDbEntity
8
1
62
256
6
ByLayer
370
18
48
1
60
0
100
AcDbLine
10
75.082358
20
-4.375
30
0
11
74.744578
21
-4.375
31
0
39
0
210
0
220
0
230
1
0
LINE
5
D0
100
AcDbEntity
8
1
62
256
6
ByLayer
370
18
48
1
60
0
100
AcDbLine
10
75.476147
20
0.052592
30
0
11
75.500168
21
0.066461
31
0
39
0
210
0
220
0
230
1
0
LINE
5
D1
100
AcDbEntity
8
1
62
256
6
ByLayer
370
18
48
1
60
0
100
AcDbLine
10
68.51872
20
-4.375
30
0
11
68.609992
21
-4.375
31
0
39
0
210
0
220
0
230
1
0
LINE
5
D2
100
AcDbEntity
8
1
62
256
6
ByLayer
370
18
48
1
60
0
100
AcDbLine
10
75.671473
20
0.118834
30
0
11
76.418936
21
0.171102
31
0
39
0
210
0
220
0
230
1
0
LINE
5
D3
100
AcDbEntity
8
1
62
256
6
ByLayer
370
18
48
1
60
0
100
AcDbLine
10
68.609992
20
0.025
30
0
11
71.404967
21
0.025
31
0
39
0
210
0
220
0
230
1
0
LINE
5
D4
100
AcDbEntity
8
1
62
256
6
ByLayer
370
18
48
1
60
0
100
AcDbLine
10
80.000117
20
-0.884698
30
0
11
80.007017
21
-0.068993
31
0
39
0
210
0
220
0
230
1
0
LINE
5
D5
100
AcDbEntity
8
1
62
256
6
ByLayer
370
18
48
1
60
0
100
AcDbLine
10
74.181347
20
-4.375
30
0
11
74.744578
21
-4.375
31
0
39
0
210
0
220
0
230
1
0
LINE
5
D6
100
AcDbEntity
8
1
62
256
6
ByLayer
370
18
48
1
60
0
100
AcDbLine
10
79.534036
20
-4.685214
30
0
11
79.588915
21
-4.688423
31
0
39
0
210
0
220
0
230
1
0
LINE
5
D7
100
AcDbEntity
8
1
62
256
6
ByLayer
370
18
48
1
60
0
100
AcDbLine
10
66.638226
20
-4.375
30
0
11
66.4
21
-4.375
31
0
39
0
210
0
220
0
230
1
0
LINE
5
D8
100
AcDbEntity
8
1
62
256
6
ByLayer
370
18
48
1
60
0
100
AcDbLine
10
78.808021
20
0.275648
30
0
11
78.308021
21
0.240447
31
0
39
0
210
0
220
0
230
1
0
LINE
5
D9
100
AcDbEntity
8
1
62
256
6
ByLayer
370
18
48
1
60
0
100
AcDbLine
10
75.372916
20
0.025
30
0
11
75.082358
21
0.025
31
0
39
0
210
0
220
0
230
1
0
LINE
5
DA
100
AcDbEntity
8
1
62
256
6
ByLayer
370
18
48
1
60
0
100
AcDbLine
10
75.500168
20
-4.416461
30
0
11
75.476147
21
-4.402592
31
0
39
0
210
0
220
0
230
1
0
LINE
5
DB
100
AcDbEntity
8
1
62
256
6
ByLayer
370
18
48
1
60
0
100
AcDbLine
10
74.181347
20
0.025
30
0
11
73.439699
21
0.025
31
0
39
0
210
0
220
0
230
1
0
LINE
5
DC
100
AcDbEntity
8
1
62
256
6
ByLayer
370
18
48
1
60
0
100
AcDbLine
10
79.588915
20
0.338423
30
0
11
79.534036
21
0.335214
31
0
39
0
210
0
220
0
230
1
0
LINE
5
DD
100
AcDbEntity
8
1
62
256
6
ByLayer
370
18
48
1
60
0
100
AcDbLine
10
80.007017
20
-4.281007
30
0
11
80.000117
21
-3.465302
31
0
39
0
210
0
220
0
230
1
0
LINE
5
DE
100
AcDbEntity
8
1
62
256
6
ByLayer
370
18
48
1
60
0
100
AcDbLine
10
80
20
-3.437606
30
0
11
80
21
-0.912394
31
0
39
0
210
0
220
0
230
1
0
LINE
5
DF
100
AcDbEntity
8
1
62
256
6
ByLayer
370
18
48
1
60
0
100
AcDbLine
10
68.609992
20
0.025
30
0
11
68.51872
21
0.025
31
0
39
0
210
0
220
0
230
1
0
LINE
5
E0
100
AcDbEntity
8
1
62
256
6
ByLayer
370
18
48
1
60
0
100
AcDbLine
10
75.082358
20
-4.375
30
0
11
75.372916
21
-4.375
31
0
39
0
210
0
220
0
230
1
0
LINE
5
E1
100
AcDbEntity
8
1
62
256
6
ByLayer
370
18
48
1
60
0
100
AcDbLine
10
74.744578
20
0.025
30
0
11
75.082358
21
0.025
31
0
39
0
210
0
220
0
230
1
0
LINE
5
E2
100
AcDbEntity
8
1
62
256
6
ByLayer
370
18
48
1
60
0
100
AcDbLine
10
79.466228
20
0.330268
30
0
11
79.155317
21
0.303051
31
0
39
0
210
0
220
0
230
1
0
LINE
5
E3
100
AcDbEntity
8
SK2
62
256
6
ByLayer
370
13
48
1
60
0
100
AcDbLine
10
-154.6
20
-20.803684
30
0
11
-154.6
21
8.75
31
0
39
0
210
0
220
0
230
1
0
LINE
5
E5
100
AcDbEntity
8
SK2
62
256
6
ByLayer
370
13
48
1
60
0
100
AcDbLine
10
-147
20
-4.35
30
0
11
-156.6
21
-4.35
31
0
39
0
210
0
220
0
230
1
0
LINE
5
E6
100
AcDbEntity
8
SK2
62
256
6
ByLayer
370
13
48
1
60
0
100
AcDbLine
10
-147
20
0
30
0
11
-156.6
21
0
31
0
39
0
210
0
220
0
230
1
0
LINE
5
E7
100
AcDbEntity
8
SK2
62
256
6
ByLayer
370
18
48
1
60
0
100
AcDbLine
10
-154.6
20
-4.35
30
0
11
-154.182003
21
-7.524998
31
0
39
0
210
0
220
0
230
1
0
LINE
5
E8
100
AcDbEntity
8
SK2
62
256
6
ByLayer
370
18
48
1
60
0
100
AcDbLine
10
-154.6
20
-4.35
30
0
11
-155.017997
21
-7.525002
31
0
39
0
210
0
220
0
230
1
0
LINE
5
E9
100
AcDbEntity
8
SK2
62
256
6
ByLayer
370
18
48
1
60
0
100
AcDbLine
10
-154.182003
20
-7.524998
30
0
11
-155.017997
21
-7.525002
31
0
39
0
210
0
220
0
230
1
0
LINE
5
EA
100
AcDbEntity
8
SK2
62
256
6
ByLayer
370
18
48
1
60
0
100
AcDbLine
10
-154.6
20
0
30
0
11
-155.017997
21
3.174998
31
0
39
0
210
0
220
0
230
1
0
LINE
5
EB
100
AcDbEntity
8
SK2
62
256
6
ByLayer
370
18
48
1
60
0
100
AcDbLine
10
-154.6
20
0
30
0
11
-154.182003
21
3.175002
31
0
39
0
210
0
220
0
230
1
0
LINE
5
EC
100
AcDbEntity
8
SK2
62
256
6
ByLayer
370
18
48
1
60
0
100
AcDbLine
10
-155.017997
20
3.174998
30
0
11
-154.182003
21
3.175002
31
0
39
0
210
0
220
0
230
1
0
LINE
5
ED
100
AcDbEntity
8
2
62
256
6
ByLayer
370
18
48
1
60
0
100
AcDbLine
10
98.1
20
-13.75
30
0
11
98.1
21
11.774737
31
0
39
0
210
0
220
0
230
1
0
LINE
5
EF
100
AcDbEntity
8
2
62
256
6
ByLayer
370
18
48
1
60
0
100
AcDbLine
10
82
20
-5
30
0
11
100.1
21
-5
31
0
39
0
210
0
220
0
230
1
0
LINE
5
F0
100
AcDbEntity
8
2
62
256
6
ByLayer
370
18
48
1
60
0
100
AcDbLine
10
82
20
0
30
0
11
100.1
21
0
31
0
39
0
210
0
220
0
230
1
0
LINE
5
F1
100
AcDbEntity
8
2
62
256
6
ByLayer
370
18
48
1
60
0
100
AcDbLine
10
98.1
20
-5
30
0
11
98.517997
21
-8.174998
31
0
39
0
210
0
220
0
230
1
0
LINE
5
F2
100
AcDbEntity
8
2
62
256
6
ByLayer
370
18
48
1
60
0
100
AcDbLine
10
98.1
20
-5
30
0
11
97.682003
21
-8.175002
31
0
39
0
210
0
220
0
230
1
0
LINE
5
F3
100
AcDbEntity
8
2
62
256
6
ByLayer
370
18
48
1
60
0
100
AcDbLine
10
98.517997
20
-8.174998
30
0
11
97.682003
21
-8.175002
31
0
39
0
210
0
220
0
230
1
0
LINE
5
F4
100
AcDbEntity
8
2
62
256
6
ByLayer
370
18
48
1
60
0
100
AcDbLine
10
98.1
20
0
30
0
11
97.682003
21
3.174998
31
0
39
0
210
0
220
0
230
1
0
LINE
5
F5
100
AcDbEntity
8
2
62
256
6
ByLayer
370
18
48
1
60
0
100
AcDbLine
10
98.1
20
0
30
0
11
98.517997
21
3.175002
31
0
39
0
210
0
220
0
230
1
0
LINE
5
F6
100
AcDbEntity
8
2
62
256
6
ByLayer
370
18
48
1
60
0
100
AcDbLine
10
97.682003
20
3.174998
30
0
11
98.517997
21
3.175002
31
0
39
0
210
0
220
0
230
1
0
MTEXT
5
1F9
100
AcDbEntity
8
SK6
62
256
6
ByLayer
370
18
48
1
60
0
100
AcDbMText
10
-64.125
20
-53.20546
30
0
210
0
220
0
230
1
1
\W0.7976;QD-NN2J80C45A
40
3.5
41
0
44
1.084337
50
0
71
7
72
5
7
iso_b_vert
0
MTEXT
5
1FD
100
AcDbEntity
8
SK2
62
256
6
ByLayer
370
18
48
1
60
0
100
AcDbMText
10
-155.475
20
-19.928684
30
0
210
0
220
0
230
1
1
\W0.7861;4.4
40
3.5
41
0
44
1.084337
50
89.9999999999999
71
7
72
5
7
iso_b_vert
0
MTEXT
5
1FE
100
AcDbEntity
8
2
62
256
6
ByLayer
370
18
48
1
60
0
100
AcDbMText
10
97.225
20
11.13
30
0
210
0
220
0
230
1
1
\W0.5404;5
40
3.5
41
0
44
1.084337
50
89.9999999999999
71
7
72
5
7
iso_b_vert
0
DIMENSION
5
20C
100
AcDbEntity
8
SK2
62
256
6
ByLayer
370
13
48
1
60
0
100
AcDbDimension
2
DimnDraft3D1
10
80
20
22.939079
30
0
11
-35.898684
21
22.939079
31
0
70
32
71
5
72
1
41
1
210
0
220
0
230
1
3
Standard
100
AcDbAlignedDimension
13
-145
23
-2.35
33
0
14
80
24
2
34
0
50
0
100
AcDbRotatedDimension
1001
ACAD
1000
DSTYLE
1002
{
1070
   279
1070
     0
1070
   172
1070
     1
1070
   173
1070
     1
1070
   340
1005
1FA
1070
   271
1070
     1
1070
    77
1070
     1
1070
    73
1070
     0
1070
   171
1070
     3
1070
   274
1070
     4
1070
   177
1070
     2
1070
   176
1070
     2
1070
   178
1070
     7
1070
    78
1070
     8
1070
    41
1041
3.175
1070
   147
1041
1.75
1070
    42
1041
2.0
1070
    44
1041
2.0
1070
   140
1041
3.5
1070
   343
1005
20D
1070
   344
1005
20D
1002
}
0
DIMENSION
5
221
100
AcDbEntity
8
2
62
256
6
ByLayer
370
13
48
1
60
0
100
AcDbDimension
2
DimnDraft3D2
10
0
20
-18.1
30
0
11
37.909211
21
-18.1
31
0
70
32
71
5
72
1
41
1
210
0
220
0
230
1
3
Standard
100
AcDbAlignedDimension
13
80
23
-2
33
0
14
0
24
-6.35
34
0
50
0
100
AcDbRotatedDimension
1001
ACAD
1000
DSTYLE
1002
{
1070
   279
1070
     0
1070
   172
1070
     1
1070
   173
1070
     1
1070
   340
1005
1FA
1070
   271
1070
     1
1070
    77
1070
     1
1070
    73
1070
     0
1070
   171
1070
     3
1070
   274
1070
     4
1070
   177
1070
     2
1070
   176
1070
     2
1070
   178
1070
     7
1070
    78
1070
     8
1070
    41
1041
3.175
1070
   147
1041
1.75
1070
    42
1041
2.0
1070
    44
1041
2.0
1070
   140
1041
3.5
1070
   343
1005
20D
1070
   344
1005
20D
1002
}
0
ENDSEC
0
SECTION
2
OBJECTS
0
DICTIONARY
5
28b
330
0
100
AcDbDictionary
280
0
281
1
3
ACAD_GROUP
350
28c
3
ACAD_MLINESTYLE
350
28d
0
DICTIONARY
5
28c
330
0
100
AcDbDictionary
280
0
281
1
0
DICTIONARY
5
28d
330
0
100
AcDbDictionary
280
0
281
1
3
Standard
350
18
0
MLINESTYLE
5
18
330
28d
100
AcDbMlineStyle
2
Standard
70
0
3

62
256
51
90
52
90
71
2
49
-0.5
62
256
6
ByLayer
49
0.5
62
256
6
ByLayer
0
RASTERVARIABLES
5
27a
330

100
AcDbRasterVariables
90
0
70
1
71
1
72
1
0
ENDSEC
0
EOF
