0
SECTION
2
HEADER
9
$ACADVER
1
AC1015
9
$DWGCODEPAGE
3
ANSI_1252
9
$HANDSEED
5
28d
9
$ANGBASE
50
0
9
$ANGDIR
70
0
9
$ATTMODE
70
1
9
$AUNITS
70
0
9
$AUPREC
70
0
9
$CECOLOR
62
256
9
$CELTSCALE
40
1
9
$CELTYPE
6
ByLayer
9
$CELWEIGHT
370
18
9
$CLAYER
8
0
9
$CMLJUST
70
0
9
$CMLSCALE
40
1
9
$CMLSTYLE
2
Standard
9
$DIMSTYLE
2
Standard
9
$TEXTSIZE
40
0.2
9
$TEXTSTYLE
7
Standard
9
$LUNITS
70
2
9
$LUPREC
70
4
9
$EXTNAMES
290
1
9
$INSUNITS
70
4
9
$LTSCALE
40
1
9
$LWDISPLAY
290
1
9
$PDMODE
70
0
9
$PDSIZE
40
0
9
$PLINEGEN
70
0
0
ENDSEC
0
SECTION
2
CLASSES
0
CLASS
1
RASTERVARIABLES
2
AcDbRasterVariables
3
ISM
90
0
280
0
281
0
0
ENDSEC
0
SECTION
2
TABLES
0
TABLE
2
VPORT
5
283
100
AcDbSymbolTable
0
VPORT
5
1
100
AcDbSymbolTableRecord
100
AcDbViewportTableRecord
2
*Active
70
0
10
0
20
0
11
1
21
1
12
-1
22
1
13
0
23
0
14
0.5
24
0.5
15
10
25
10
16
0
26
0
36
1
17
0
27
0
37
0
0
ENDTAB
0
TABLE
2
LTYPE
5
284
100
AcDbSymbolTable
0
LTYPE
5
14
100
AcDbSymbolTableRecord
100
AcDbLinetypeTableRecord
70
0
2
ByBlock
3

72
65
73
0
40
0
0
LTYPE
5
15
100
AcDbSymbolTableRecord
100
AcDbLinetypeTableRecord
70
0
2
ByLayer
3

72
65
73
0
40
0
0
LTYPE
5
16
100
AcDbSymbolTableRecord
100
AcDbLinetypeTableRecord
70
0
2
CONTINUOUS
3
Solid line
72
65
73
0
40
0
0
LTYPE
5
6A
100
AcDbSymbolTableRecord
100
AcDbLinetypeTableRecord
70
0
2
CENTER
3
____ _ ____ _ ____ _ ____
72
65
73
4
40
47.5
49
22
74
0
49
-8.5
74
0
49
8.5
74
0
49
-8.5
74
0
0
LTYPE
5
6B
100
AcDbSymbolTableRecord
100
AcDbLinetypeTableRecord
70
0
2
DASHED
3
__ __ __ __ __ __ __ __ __
72
65
73
2
40
25.72
49
12.86
74
0
49
-12.86
74
0
0
ENDTAB
0
TABLE
2
LAYER
5
285
100
AcDbSymbolTable
0
LAYER
5
10
100
AcDbSymbolTableRecord
100
AcDbLayerTableRecord
2
0
70
0
62
7
6
CONTINUOUS
290
1
370
-3
390
0
0
LAYER
5
6D
100
AcDbSymbolTableRecord
100
AcDbLayerTableRecord
2
81
70
0
62
-3
6
CONTINUOUS
290
1
370
-3
390
0
0
LAYER
5
6F
100
AcDbSymbolTableRecord
100
AcDbLayerTableRecord
2
80
70
0
62
-6
6
CONTINUOUS
290
1
370
-3
390
0
0
LAYER
5
7B
100
AcDbSymbolTableRecord
100
AcDbLayerTableRecord
2
1
70
0
62
4
6
CONTINUOUS
290
1
370
-3
390
0
0
LAYER
5
EA
100
AcDbSymbolTableRecord
100
AcDbLayerTableRecord
2
2
70
0
62
7
6
CONTINUOUS
290
1
370
-3
390
0
0
LAYER
5
270
100
AcDbSymbolTableRecord
100
AcDbLayerTableRecord
2
SK1
70
0
62
4
6
CONTINUOUS
290
1
370
-3
390
0
0
LAYER
5
271
100
AcDbSymbolTableRecord
100
AcDbLayerTableRecord
2
SK2
70
0
62
7
6
CONTINUOUS
290
1
370
-3
390
0
0
LAYER
5
272
100
AcDbSymbolTableRecord
100
AcDbLayerTableRecord
2
SK6
70
0
62
5
6
CONTINUOUS
290
1
370
-3
390
0
0
ENDTAB
0
TABLE
2
STYLE
5
286
100
AcDbSymbolTable
0
STYLE
5
11
100
AcDbSymbolTableRecord
100
AcDbTextStyleTableRecord
2
Standard
3
txt
70
0
71
0
40
0
41
1
42
0
50
0
0
STYLE
5
1EF
100
AcDbSymbolTableRecord
100
AcDbTextStyleTableRecord
2
iso_b_vert
3
simplex.shx
70
0
71
0
40
0
41
1
42
0
50
0
0
STYLE
5
1F0
100
AcDbSymbolTableRecord
100
AcDbTextStyleTableRecord
2
DWGDirectTextStyle
3
simplex
70
0
71
0
40
0
41
1
42
0
50
0
0
ENDTAB
0
TABLE
2
DIMSTYLE
5
287
100
AcDbSymbolTable
100
AcDbDimStyleTable
0
DIMSTYLE
105
27
100
AcDbSymbolTableRecord
100
AcDbDimStyleTableRecord
2
Standard
70
0
3
<>
41
0.18
42
0.0625
44
0.18
140
0.18
147
0.09
73
0
74
0
77
1
271
2
275
0
278
52
280
0
340
11
0
ENDTAB
0
TABLE
2
VIEW
5
288
100
AcDbSymbolTable
0
ENDTAB
0
TABLE
2
UCS
5
289
100
AcDbSymbolTable
0
ENDTAB
0
TABLE
2
APPID
5
28a
100
AcDbSymbolTable
0
APPID
5
12
100
AcDbSymbolTableRecord
100
AcDbRegAppTableRecord
2
ACAD
70
0
0
ENDTAB
0
TABLE
2
BLOCK_RECORD
5
28b
100
AcDbSymbolTable
0
BLOCK_RECORD
5
1F
100
AcDbSymbolTableRecord
100
AcDbBlockTableRecord
2
*Model_Space
340
0
70
0
0
BLOCK_RECORD
5
1B
100
AcDbSymbolTableRecord
100
AcDbBlockTableRecord
2
*Paper_Space
340
0
70
0
0
BLOCK_RECORD
5
23
100
AcDbSymbolTableRecord
100
AcDbBlockTableRecord
2
*Paper_Space0
340
0
70
0
0
BLOCK_RECORD
5
1F4
100
AcDbSymbolTableRecord
100
AcDbBlockTableRecord
2
DimnDraft3D1
340
0
70
0
0
BLOCK_RECORD
5
202
100
AcDbSymbolTableRecord
100
AcDbBlockTableRecord
2
_CLOSED
340
0
70
0
0
BLOCK_RECORD
5
209
100
AcDbSymbolTableRecord
100
AcDbBlockTableRecord
2
DimnDraft3D2
340
0
70
0
0
ENDTAB
0
ENDSEC
0
SECTION
2
BLOCKS
0
BLOCK
5
20
100
AcDbEntity
8
0
100
AcDbBlockBegin
2
*Model_Space
70
0
10
0
20
0
30
0
3
*Model_Space
0
ENDBLK
5
21
100
AcDbEntity
8
0
100
AcDbBlockEnd
0
BLOCK
5
1C
100
AcDbEntity
8
0
100
AcDbBlockBegin
2
*Paper_Space
70
0
10
0
20
0
30
0
3
*Paper_Space
0
ENDBLK
5
1D
100
AcDbEntity
8
0
100
AcDbBlockEnd
0
BLOCK
5
24
100
AcDbEntity
8
0
100
AcDbBlockBegin
2
*Paper_Space0
70
0
10
0
20
0
30
0
3
*Paper_Space0
0
ENDBLK
5
25
100
AcDbEntity
8
0
100
AcDbBlockEnd
0
BLOCK
5
1FF
100
AcDbEntity
8
0
100
AcDbBlockBegin
2
DimnDraft3D1
70
0
10
0
20
0
30
0
3
DimnDraft3D1
0
MTEXT
5
1F5
100
AcDbEntity
8
SK2
62
256
6
ByLayer
370
18
48
1
60
0
100
AcDbMText
10
-17.086184
20
23.811273
30
0
210
0
220
0
230
1
1
\W0.6217;150
40
3.5
41
0
44
1.084337
50
0
71
7
72
5
7
iso_b_vert
0
LINE
5
1F6
100
AcDbEntity
8
SK2
62
256
6
ByLayer
370
13
48
1
60
0
100
AcDbLine
10
-90
20
-1.35
30
0
11
-90
21
24.936273
31
0
39
0
210
0
220
0
230
1
0
LINE
5
1F7
100
AcDbEntity
8
SK2
62
256
6
ByLayer
370
13
48
1
60
0
100
AcDbLine
10
60
20
2
30
0
11
60
21
24.936273
31
0
39
0
210
0
220
0
230
1
0
LINE
5
1F8
100
AcDbEntity
8
SK2
62
256
6
ByLayer
370
13
48
1
60
0
100
AcDbLine
10
-90
20
22.936273
30
0
11
60
21
22.936273
31
0
39
0
210
0
220
0
230
1
0
LINE
5
1F9
100
AcDbEntity
8
SK2
62
256
6
ByLayer
370
13
48
1
60
0
100
AcDbLine
10
-90
20
22.936273
30
0
11
-86.825002
21
23.354269
31
0
39
0
210
0
220
0
230
1
0
LINE
5
1FA
100
AcDbEntity
8
SK2
62
256
6
ByLayer
370
13
48
1
60
0
100
AcDbLine
10
-90
20
22.936273
30
0
11
-86.824998
21
22.518276
31
0
39
0
210
0
220
0
230
1
0
LINE
5
1FB
100
AcDbEntity
8
SK2
62
256
6
ByLayer
370
13
48
1
60
0
100
AcDbLine
10
-86.825002
20
23.354269
30
0
11
-86.824998
21
22.518276
31
0
39
0
210
0
220
0
230
1
0
LINE
5
1FC
100
AcDbEntity
8
SK2
62
256
6
ByLayer
370
13
48
1
60
0
100
AcDbLine
10
60
20
22.936273
30
0
11
56.825002
21
22.518276
31
0
39
0
210
0
220
0
230
1
0
LINE
5
1FD
100
AcDbEntity
8
SK2
62
256
6
ByLayer
370
13
48
1
60
0
100
AcDbLine
10
60
20
22.936273
30
0
11
56.824998
21
23.354269
31
0
39
0
210
0
220
0
230
1
0
LINE
5
1FE
100
AcDbEntity
8
SK2
62
256
6
ByLayer
370
13
48
1
60
0
100
AcDbLine
10
56.825002
20
22.518276
30
0
11
56.824998
21
23.354269
31
0
39
0
210
0
220
0
230
1
0
ENDBLK
5
200
100
AcDbEntity
8
0
100
AcDbBlockEnd
0
BLOCK
5
203
100
AcDbEntity
8
0
100
AcDbBlockBegin
2
_CLOSED
70
0
10
0
20
0
30
0
3
_CLOSED
0
LINE
5
205
100
AcDbEntity
8
0
62
256
6
ByLayer
370
-2
48
1
60
0
100
AcDbLine
10
-1
20
0.166667
30
0
11
0
21
0
31
0
39
0
210
0
220
0
230
1
0
LINE
5
206
100
AcDbEntity
8
0
62
256
6
ByLayer
370
-2
48
1
60
0
100
AcDbLine
10
0
20
0
30
0
11
-1
21
-0.166667
31
0
39
0
210
0
220
0
230
1
0
LINE
5
207
100
AcDbEntity
8
0
62
256
6
ByLayer
370
-2
48
1
60
0
100
AcDbLine
10
-1
20
0.166667
30
0
11
-1
21
-0.166667
31
0
39
0
210
0
220
0
230
1
0
LINE
5
208
100
AcDbEntity
8
0
62
256
6
ByLayer
370
-2
48
1
60
0
100
AcDbLine
10
0
20
0
30
0
11
-1
21
0
31
0
39
0
210
0
220
0
230
1
0
ENDBLK
5
204
100
AcDbEntity
8
0
100
AcDbBlockEnd
0
BLOCK
5
214
100
AcDbEntity
8
0
100
AcDbBlockBegin
2
DimnDraft3D2
70
0
10
0
20
0
30
0
3
DimnDraft3D2
0
MTEXT
5
20A
100
AcDbEntity
8
2
62
256
6
ByLayer
370
18
48
1
60
0
100
AcDbMText
10
28.784211
20
-16.225
30
0
210
0
220
0
230
1
1
\W0.6740;60
40
3.5
41
0
44
1.084337
50
0
71
7
72
5
7
iso_b_vert
0
LINE
5
20B
100
AcDbEntity
8
2
62
256
6
ByLayer
370
13
48
1
60
0
100
AcDbLine
10
60
20
-2
30
0
11
60
21
-19.1
31
0
39
0
210
0
220
0
230
1
0
LINE
5
20C
100
AcDbEntity
8
2
62
256
6
ByLayer
370
13
48
1
60
0
100
AcDbLine
10
0
20
-5.35
30
0
11
0
21
-19.1
31
0
39
0
210
0
220
0
230
1
0
LINE
5
20D
100
AcDbEntity
8
2
62
256
6
ByLayer
370
13
48
1
60
0
100
AcDbLine
10
60
20
-17.1
30
0
11
0
21
-17.1
31
0
39
0
210
0
220
0
230
1
0
LINE
5
20E
100
AcDbEntity
8
2
62
256
6
ByLayer
370
13
48
1
60
0
100
AcDbLine
10
60
20
-17.1
30
0
11
56.825002
21
-17.517997
31
0
39
0
210
0
220
0
230
1
0
LINE
5
20F
100
AcDbEntity
8
2
62
256
6
ByLayer
370
13
48
1
60
0
100
AcDbLine
10
60
20
-17.1
30
0
11
56.824998
21
-16.682003
31
0
39
0
210
0
220
0
230
1
0
LINE
5
210
100
AcDbEntity
8
2
62
256
6
ByLayer
370
13
48
1
60
0
100
AcDbLine
10
56.825002
20
-17.517997
30
0
11
56.824998
21
-16.682003
31
0
39
0
210
0
220
0
230
1
0
LINE
5
211
100
AcDbEntity
8
2
62
256
6
ByLayer
370
13
48
1
60
0
100
AcDbLine
10
0
20
-17.1
30
0
11
3.174998
21
-16.682003
31
0
39
0
210
0
220
0
230
1
0
LINE
5
212
100
AcDbEntity
8
2
62
256
6
ByLayer
370
13
48
1
60
0
100
AcDbLine
10
0
20
-17.1
30
0
11
3.175002
21
-17.517997
31
0
39
0
210
0
220
0
230
1
0
LINE
5
213
100
AcDbEntity
8
2
62
256
6
ByLayer
370
13
48
1
60
0
100
AcDbLine
10
3.174998
20
-16.682003
30
0
11
3.175002
21
-17.517997
31
0
39
0
210
0
220
0
230
1
0
ENDBLK
5
215
100
AcDbEntity
8
0
100
AcDbBlockEnd
0
ENDSEC
0
SECTION
2
ENTITIES
0
ELLIPSE
5
F3
100
AcDbEntity
8
1
62
256
6
ByLayer
370
18
48
1
60
0
100
AcDbEllipse
10
35.9
20
-46.641789
30
0
11
-2.97069053383227E-15
21
48.5166604690531
31
0
210
0
220
0
230
-1
40
0.267949
41
-0.384910836545615
42
-0.278909843674256
0
ELLIPSE
5
F4
100
AcDbEntity
8
1
62
256
6
ByLayer
370
18
48
1
60
0
100
AcDbEllipse
10
35.9
20
43.291789
30
0
11
-2.97069053307539E-15
21
48.5166604566919
31
0
210
0
220
0
230
-1
40
0.267949
41
-2.86268280988824
42
-2.75668181700073
0
ELLIPSE
5
F5
100
AcDbEntity
8
1
62
256
6
ByLayer
370
13
48
1
60
0
100
AcDbEllipse
10
55.764493
20
-1.675
30
0
11
1.63188720432523
21
1.36187443081133E-08
31
0
210
0
220
0
230
-1
40
0.459591
41
-2.00702503291602
42
-1.95476875117573
0
ELLIPSE
5
F6
100
AcDbEntity
8
1
62
256
6
ByLayer
370
13
48
1
60
0
100
AcDbEllipse
10
55.764493
20
-1.675
30
0
11
1.63188703445714
21
-7.65814332294369E-08
31
0
210
0
220
0
230
-1
40
0.459591
41
1.954768697436
42
2.00702498385195
0
ELLIPSE
5
F7
100
AcDbEntity
8
1
62
256
6
ByLayer
370
13
48
1
60
0
100
AcDbEllipse
10
55.64586
20
-1.216644
30
0
11
0.799644302087316
21
0.0600592121781873
31
0
210
0
220
0
230
-1
40
0.397167
41
-1.89004086455658
42
-1.17447974407687
0
ELLIPSE
5
F8
100
AcDbEntity
8
1
62
256
6
ByLayer
370
13
48
1
60
0
100
AcDbEllipse
10
56.290882
20
-0.505285
30
0
11
0.999555377514645
21
0.075074015198514
31
0
210
0
220
0
230
-1
40
0.397167
41
1.60061763939144
42
1.96711290950676
0
ELLIPSE
5
F9
100
AcDbEntity
8
1
62
256
6
ByLayer
370
13
48
1
60
0
100
AcDbEllipse
10
56.290882
20
-2.844715
30
0
11
0.999555377478215
21
-0.0750740151885621
31
0
210
0
220
0
230
-1
40
0.397167
41
-1.96711290950247
42
-1.60061763937412
0
ELLIPSE
5
FA
100
AcDbEntity
8
1
62
256
6
ByLayer
370
13
48
1
60
0
100
AcDbEllipse
10
55.64586
20
-2.133356
30
0
11
0.799644302091735
21
-0.0600592121786693
31
0
210
0
220
0
230
-1
40
0.397167
41
1.1744797440787
42
1.89004086455427
0
ELLIPSE
5
FB
100
AcDbEntity
8
1
62
256
6
ByLayer
370
13
48
1
60
0
100
AcDbEllipse
10
55.926677
20
-2.542234
30
0
11
0.00896052458610176
21
-0.0995977359137338
31
0
210
0
220
0
230
1
40
0.357088
41
1.53868115539879
42
2.73431641369166
0
ELLIPSE
5
FC
100
AcDbEntity
8
1
62
256
6
ByLayer
370
13
48
1
60
0
100
AcDbEllipse
10
55.926677
20
-0.807766
30
0
11
-0.00896052458610162
21
-0.0995977359137338
31
0
210
0
220
0
230
1
40
0.357088
41
0.407276239897407
42
1.60291149819108
0
ELLIPSE
5
FD
100
AcDbEntity
8
1
62
256
6
ByLayer
370
13
48
1
60
0
100
AcDbEllipse
10
55.366384
20
-0.84123
30
0
11
0.0204060592957394
21
-0.0978958259785307
31
0
210
0
220
0
230
1
40
0.335642
41
-1.64064594521366
42
-0.403652442248902
0
ELLIPSE
5
FE
100
AcDbEntity
8
1
62
256
6
ByLayer
370
13
48
1
60
0
100
AcDbEllipse
10
55.64
20
-2.226074
30
0
11
0.89976815444955
21
-0.0577956472339996
31
0
210
0
220
0
230
-1
40
0.353437
41
1.18160228019713
42
1.89716340067768
0
ELLIPSE
5
FF
100
AcDbEntity
8
1
62
256
6
ByLayer
370
13
48
1
60
0
100
AcDbEllipse
10
55.64
20
-1.123926
30
0
11
0.899768154452447
21
0.0577956472343407
31
0
210
0
220
0
230
-1
40
0.353437
41
-1.8971634006761
42
-1.18160228019798
0
ELLIPSE
5
100
100
AcDbEntity
8
1
62
256
6
ByLayer
370
13
48
1
60
0
100
AcDbEllipse
10
55.366384
20
-2.50877
30
0
11
-0.0204060592957399
21
-0.0978958259785306
31
0
210
0
220
0
230
1
40
0.335642
41
-2.73794021134089
42
-1.50094670837614
0
ELLIPSE
5
101
100
AcDbEntity
8
1
62
256
6
ByLayer
370
13
48
1
60
0
100
AcDbEllipse
10
56.285022
20
-2.937433
30
0
11
0.899334981010781
21
-0.078494615377664
31
0
210
0
220
0
230
-1
40
0.44069
41
-1.97573638556202
42
-1.60924111543914
0
ELLIPSE
5
102
100
AcDbEntity
8
1
62
256
6
ByLayer
370
13
48
1
60
0
100
AcDbEllipse
10
56.285022
20
-0.412567
30
0
11
0.89933498117442
21
0.0784946154304245
31
0
210
0
220
0
230
-1
40
0.44069
41
1.60924111552962
42
1.97573638558697
0
ELLIPSE
5
103
100
AcDbEntity
8
1
62
256
6
ByLayer
370
13
48
1
60
0
100
AcDbEllipse
10
55.147318
20
-0.886894
30
0
11
0.0204060592957394
21
-0.0978958259785307
31
0
210
0
220
0
230
1
40
0.335642
41
-1.64064594521366
42
-0.403652442248122
0
ELLIPSE
5
104
100
AcDbEntity
8
1
62
256
6
ByLayer
370
13
48
1
60
0
100
AcDbEllipse
10
55.730291
20
-1.674999
30
0
11
1.6475299676602
21
3.1819787130042E-07
31
0
210
0
220
0
230
-1
40
0.515923
41
-1.99606316259055
42
-1.95476851709209
0
ELLIPSE
5
105
100
AcDbEntity
8
1
62
256
6
ByLayer
370
13
48
1
60
0
100
AcDbEllipse
10
55.147318
20
-2.463106
30
0
11
-0.0204060592957399
21
-0.0978958259785306
31
0
210
0
220
0
230
1
40
0.335642
41
-2.73794021134168
42
-1.50094670837614
0
ELLIPSE
5
106
100
AcDbEntity
8
1
62
256
6
ByLayer
370
13
48
1
60
0
100
AcDbEllipse
10
55.730292
20
-1.675
30
0
11
1.64753089404664
21
9.07286611846242E-08
31
0
210
0
220
0
230
-1
40
0.515924
41
1.95476883234001
42
1.99606345774888
0
ELLIPSE
5
107
100
AcDbEntity
8
1
62
256
6
ByLayer
370
13
48
1
60
0
100
AcDbEllipse
10
56.809145
20
-0.589957
30
0
11
0.0993076742641674
21
0.21849024196115
31
0
210
0
220
0
230
1
40
0.684643
41
-1.8206598792135
42
-1.32093277447541
0
ELLIPSE
5
108
100
AcDbEntity
8
1
62
256
6
ByLayer
370
13
48
1
60
0
100
AcDbEllipse
10
56.809145
20
-2.760043
30
0
11
0.0993076742641672
21
-0.21849024196115
31
0
210
0
220
0
230
1
40
0.684643
41
1.32093277447541
42
1.82065987921347
0
ELLIPSE
5
109
100
AcDbEntity
8
1
62
256
6
ByLayer
370
13
48
1
60
0
100
AcDbEllipse
10
56.765057
20
-2.539167
30
0
11
0.062843009492867
21
-0.0777866065455965
31
0
210
0
220
0
230
1
40
0.861674
41
1.63965370412772
42
2.32457401880056
0
ELLIPSE
5
10A
100
AcDbEntity
8
1
62
256
6
ByLayer
370
13
48
1
60
0
100
AcDbEllipse
10
56.765057
20
-0.810833
30
0
11
-0.0628430094928668
21
-0.0777866065455966
31
0
210
0
220
0
230
1
40
0.861674
41
0.817018634789332
42
1.50193894946236
0
ELLIPSE
5
10B
100
AcDbEntity
8
1
62
256
6
ByLayer
370
13
48
1
60
0
100
AcDbEllipse
10
59.752853
20
-0.520188
30
0
11
-0.0533981556875962
21
-0.0845496124719873
31
0
210
0
220
0
230
1
40
0.139768
41
0.740023965274731
42
1.57717485146108
0
ELLIPSE
5
10C
100
AcDbEntity
8
1
62
256
6
ByLayer
370
13
48
1
60
0
100
AcDbEllipse
10
59.913527
20
-0.669665
30
0
11
-0.0833341889559587
21
-0.055275789917943
31
0
210
0
220
0
230
1
40
0.125151
41
1.00888984397442
42
1.63388084261229
0
ELLIPSE
5
10D
100
AcDbEntity
8
1
62
256
6
ByLayer
370
13
48
1
60
0
100
AcDbEllipse
10
58.258781
20
-3.050588
30
0
11
0.058481849775624
21
0.23276570461909
31
0
210
0
220
0
230
1
40
0.017037
41
0.664838164890934
42
1.50309079968228
0
ELLIPSE
5
10E
100
AcDbEntity
8
1
62
256
6
ByLayer
370
13
48
1
60
0
100
AcDbEllipse
10
57.028622
20
-2.791369
30
0
11
0.0296712398023679
21
0.238158807371448
31
0
210
0
220
0
230
1
40
0.701267
41
-1.43405097029582
42
-0.787275740371959
0
ELLIPSE
5
10F
100
AcDbEntity
8
1
62
256
6
ByLayer
370
13
48
1
60
0
100
AcDbEllipse
10
58.258781
20
-0.299412
30
0
11
0.0584818497756239
21
-0.23276570461909
31
0
210
0
220
0
230
1
40
0.017037
41
-1.5030907996818
42
-0.664838164885526
0
ELLIPSE
5
110
100
AcDbEntity
8
1
62
256
6
ByLayer
370
13
48
1
60
0
100
AcDbEllipse
10
57.028622
20
-0.558631
30
0
11
0.0296712398023679
21
-0.238158807371448
31
0
210
0
220
0
230
1
40
0.701267
41
0.787275740371961
42
1.43405097029582
0
ELLIPSE
5
111
100
AcDbEntity
8
1
62
256
6
ByLayer
370
13
48
1
60
0
100
AcDbEllipse
10
55.06768
20
-0.900711
30
0
11
-0.0453539127209969
21
-0.0210481020734934
31
0
210
0
220
0
230
1
40
0.15145
41
-1.25535186362483
42
-0.415505137037544
0
ELLIPSE
5
112
100
AcDbEntity
8
1
62
256
6
ByLayer
370
13
48
1
60
0
100
AcDbEllipse
10
54.646487
20
-0.128962
30
0
11
-0.0394011819793233
21
-0.0307822490833963
31
0
210
0
220
0
230
1
40
0.218654
41
-1.29790181863666
42
-0.756489013690055
0
ELLIPSE
5
113
100
AcDbEntity
8
1
62
256
6
ByLayer
370
13
48
1
60
0
100
AcDbEllipse
10
55.06768
20
-2.449289
30
0
11
0.0453539127209971
21
-0.0210481020734929
31
0
210
0
220
0
230
1
40
0.15145
41
-2.72608751655375
42
-1.88624078996482
0
ELLIPSE
5
114
100
AcDbEntity
8
1
62
256
6
ByLayer
370
13
48
1
60
0
100
AcDbEllipse
10
54.646487
20
-3.221038
30
0
11
0.0394011819793204
21
-0.0307822490833999
31
0
210
0
220
0
230
1
40
0.218654
41
-2.38510363990262
42
-1.84369083495461
0
ELLIPSE
5
115
100
AcDbEntity
8
1
62
256
6
ByLayer
370
13
48
1
60
0
100
AcDbEllipse
10
55.071676
20
-0.949919
30
0
11
0.0431707448900942
21
-0.0252247256800626
31
0
210
0
220
0
230
1
40
0.873615
41
-2.18027064336936
42
-1.03058312084561
0
ELLIPSE
5
116
100
AcDbEntity
8
1
62
256
6
ByLayer
370
13
48
1
60
0
100
AcDbEllipse
10
55.071676
20
-2.400081
30
0
11
0.0431707448900941
21
0.0252247256800627
31
0
210
0
220
0
230
1
40
0.873615
41
1.03058312084577
42
2.18027064336936
0
ELLIPSE
5
117
100
AcDbEntity
8
1
62
256
6
ByLayer
370
13
48
1
60
0
100
AcDbEllipse
10
56.811038
20
-0.590167
30
0
11
0.0381290273564358
21
-0.236951845894587
31
0
210
0
220
0
230
1
40
0.698537
41
0.804380097280381
42
1.40913325933156
0
ELLIPSE
5
118
100
AcDbEntity
8
1
62
256
6
ByLayer
370
13
48
1
60
0
100
AcDbEllipse
10
55.001973
20
-1.140478
30
0
11
0.0488172744774217
21
-0.0108108146129733
31
0
210
0
220
0
230
1
40
0.649178
41
-2.29846695859463
42
-1.3097377954876
0
ELLIPSE
5
119
100
AcDbEntity
8
1
62
256
6
ByLayer
370
13
48
1
60
0
100
AcDbEllipse
10
56.811038
20
-2.759833
30
0
11
0.038129027356436
21
0.236951845894587
31
0
210
0
220
0
230
1
40
0.698537
41
-1.40913325933159
42
-0.804380097280382
0
ELLIPSE
5
11A
100
AcDbEntity
8
1
62
256
6
ByLayer
370
13
48
1
60
0
100
AcDbEllipse
10
55.001973
20
-2.209522
30
0
11
0.0488172744774217
21
0.0108108146129733
31
0
210
0
220
0
230
1
40
0.649178
41
1.30973779548877
42
2.29846695859522
0
ELLIPSE
5
11B
100
AcDbEntity
8
1
62
256
6
ByLayer
370
13
48
1
60
0
100
AcDbEllipse
10
56.855379
20
-0.886894
30
0
11
-0.0663198302365385
21
-0.0748443726501647
31
0
210
0
220
0
230
1
40
0.871893
41
0.856507032384481
42
1.52920128671758
0
ELLIPSE
5
11C
100
AcDbEntity
8
1
62
256
6
ByLayer
370
13
48
1
60
0
100
AcDbEllipse
10
56.855379
20
-2.463106
30
0
11
0.0663198302365376
21
-0.0748443726501654
31
0
210
0
220
0
230
1
40
0.871893
41
1.61239136687193
42
2.28508562120493
0
ELLIPSE
5
11D
100
AcDbEntity
8
1
62
256
6
ByLayer
370
13
48
1
60
0
100
AcDbEllipse
10
54.629235
20
-0.116479
30
0
11
2.96302531225331E-05
21
-0.0499999912204802
31
0
210
0
220
0
230
1
40
0.687053
41
-1.57120347777985
42
-1.23545988901366
0
ELLIPSE
5
11E
100
AcDbEntity
8
1
62
256
6
ByLayer
370
13
48
1
60
0
100
AcDbEllipse
10
54.629235
20
-3.233521
30
0
11
-2.96302531218853E-05
21
-0.0499999912204802
31
0
210
0
220
0
230
1
40
0.687053
41
-1.90613276457599
42
-1.57038917580995
0
ELLIPSE
5
11F
100
AcDbEntity
8
1
62
256
6
ByLayer
370
13
48
1
60
0
100
AcDbEllipse
10
57.292029
20
-2.162585
30
0
11
0.0874722239911492
21
0.390318600671352
31
0
210
0
220
0
230
1
40
0.698392
41
2.11118245994086
42
2.41494031332485
0
ELLIPSE
5
120
100
AcDbEntity
8
1
62
256
6
ByLayer
370
13
48
1
60
0
100
AcDbEllipse
10
57.292029
20
-1.187415
30
0
11
0.0874722239911491
21
-0.390318600671352
31
0
210
0
220
0
230
1
40
0.698392
41
-2.41494031332493
42
-2.11118245994093
0
ELLIPSE
5
121
100
AcDbEntity
8
1
62
256
6
ByLayer
370
13
48
1
60
0
100
AcDbEllipse
10
55.046066
20
-2.121424
30
0
11
0.0212624954428799
21
-0.0452537985979245
31
0
210
0
220
0
230
1
40
0.397259
41
2.03740170297132
42
2.86665979514822
0
ELLIPSE
5
122
100
AcDbEntity
8
1
62
256
6
ByLayer
370
13
48
1
60
0
100
AcDbEllipse
10
55.046066
20
-1.228576
30
0
11
0.0212624954428813
21
0.0452537985979238
31
0
210
0
220
0
230
1
40
0.397259
41
-2.86665979515096
42
-2.03740170297212
0
ELLIPSE
5
123
100
AcDbEntity
8
1
62
256
6
ByLayer
370
13
48
1
60
0
100
AcDbEllipse
10
56.872998
20
-2.444537
30
0
11
0.0784611863610883
21
-0.0619987276870306
31
0
210
0
220
0
230
1
40
0.873195
41
1.45974972721529
42
2.10501810958191
0
ELLIPSE
5
124
100
AcDbEntity
8
1
62
256
6
ByLayer
370
13
48
1
60
0
100
AcDbEllipse
10
56.872998
20
-0.905463
30
0
11
-0.0784611863611368
21
-0.0619987276869692
31
0
210
0
220
0
230
1
40
0.873195
41
1.03657454400855
42
1.68184292637564
0
ELLIPSE
5
125
100
AcDbEntity
8
1
62
256
6
ByLayer
370
13
48
1
60
0
100
AcDbEllipse
10
56.943585
20
-1.001889
30
0
11
-0.0809620682329366
21
-0.0586953448532788
31
0
210
0
220
0
230
1
40
0.756283
41
1.17291667305377
42
1.92455286660256
0
ELLIPSE
5
126
100
AcDbEntity
8
1
62
256
6
ByLayer
370
13
48
1
60
0
100
AcDbEllipse
10
56.943585
20
-2.348111
30
0
11
0.0809620682329358
21
-0.0586953448532798
31
0
210
0
220
0
230
1
40
0.756283
41
1.21703978698761
42
1.96867598053617
0
ELLIPSE
5
127
100
AcDbEntity
8
1
62
256
6
ByLayer
370
13
48
1
60
0
100
AcDbEllipse
10
55.206238
20
-1.295378
30
0
11
0.0173833813679464
21
0.0468808921866525
31
0
210
0
220
0
230
1
40
0.320428
41
-2.92457512659404
42
-1.97909853952135
0
ELLIPSE
5
128
100
AcDbEntity
8
1
62
256
6
ByLayer
370
13
48
1
60
0
100
AcDbEllipse
10
55.206238
20
-2.054622
30
0
11
0.0173833813678365
21
-0.0468808921866932
31
0
210
0
220
0
230
1
40
0.320428
41
1.97909853952259
42
2.92457512659346
0
ELLIPSE
5
129
100
AcDbEntity
8
1
62
256
6
ByLayer
370
13
48
1
60
0
100
AcDbEllipse
10
55.350151
20
-1.806886
30
0
11
0.0496862814333484
21
0.00559226584901828
31
0
210
0
220
0
230
1
40
0.148777
41
1.39817586461268
42
2.49393692538356
0
ELLIPSE
5
12A
100
AcDbEntity
8
1
62
256
6
ByLayer
370
13
48
1
60
0
100
AcDbEllipse
10
55.215466
20
-2.051202
30
0
11
0.0173706970697337
21
-0.0468855935582727
31
0
210
0
220
0
230
1
40
0.318454
41
1.97468567311116
42
2.92535400620108
0
ELLIPSE
5
12B
100
AcDbEntity
8
1
62
256
6
ByLayer
370
13
48
1
60
0
100
AcDbEllipse
10
55.215466
20
-1.298798
30
0
11
0.0173706970696218
21
0.0468855935583142
31
0
210
0
220
0
230
1
40
0.318454
41
-2.92535400620226
42
-1.9746856731127
0
ELLIPSE
5
12C
100
AcDbEntity
8
1
62
256
6
ByLayer
370
13
48
1
60
0
100
AcDbEllipse
10
55.350151
20
-1.543114
30
0
11
0.0496862814333484
21
-0.00559226584901842
31
0
210
0
220
0
230
1
40
0.148777
41
-2.49393692538384
42
-1.39817586461152
0
ELLIPSE
5
12D
100
AcDbEntity
8
1
62
256
6
ByLayer
370
13
48
1
60
0
100
AcDbEllipse
10
57.090562
20
-1.16006
30
0
11
-0.0637117915960023
21
-0.0770766346672425
31
0
210
0
220
0
230
1
40
0.52278
41
1.17272243764682
42
1.97869210912818
0
ELLIPSE
5
12E
100
AcDbEntity
8
1
62
256
6
ByLayer
370
13
48
1
60
0
100
AcDbEllipse
10
57.090562
20
-2.18994
30
0
11
-0.0637117915966215
21
0.0770766346667307
31
0
210
0
220
0
230
1
40
0.52278
41
-1.97869210881554
42
-1.17272243762716
0
ELLIPSE
5
12F
100
AcDbEntity
8
1
62
256
6
ByLayer
370
13
48
1
60
0
100
AcDbEllipse
10
59.147654
20
-0.249998
30
0
11
-0.00560126668057479
21
-0.239934628204378
31
0
210
0
220
0
230
1
40
0.172043
41
-1.49800588930577
42
-0.732097455141067
0
ELLIPSE
5
130
100
AcDbEntity
8
1
62
256
6
ByLayer
370
13
48
1
60
0
100
AcDbEllipse
10
59.147654
20
-3.100002
30
0
11
-0.00560126668057452
21
0.239934628204378
31
0
210
0
220
0
230
1
40
0.172043
41
0.732097455140572
42
1.49800588930571
0
ELLIPSE
5
131
100
AcDbEntity
8
1
62
256
6
ByLayer
370
13
48
1
60
0
100
AcDbEllipse
10
58.758781
20
-3.103796
30
0
11
-0.00824662055120358
21
0.239858277425409
31
0
210
0
220
0
230
1
40
0.002403
41
-1.50102444918782
42
-0.709373157660993
0
ELLIPSE
5
132
100
AcDbEntity
8
1
62
256
6
ByLayer
370
13
48
1
60
0
100
AcDbEllipse
10
58.758781
20
-0.246204
30
0
11
-0.00824662055120385
21
-0.239858277425409
31
0
210
0
220
0
230
1
40
0.002403
41
0.709373157623299
42
1.50102444918783
0
ELLIPSE
5
133
100
AcDbEntity
8
1
62
256
6
ByLayer
370
13
48
1
60
0
100
AcDbEllipse
10
59.752853
20
-2.829812
30
0
11
-0.0533981556875962
21
0.0845496124719874
31
0
210
0
220
0
230
1
40
0.139768
41
-1.57717485146122
42
-0.740023965275584
0
ELLIPSE
5
134
100
AcDbEntity
8
1
62
256
6
ByLayer
370
13
48
1
60
0
100
AcDbEllipse
10
59.913527
20
-2.680335
30
0
11
-0.0833341889559587
21
0.055275789917943
31
0
210
0
220
0
230
1
40
0.125151
41
-1.63388084261215
42
-1.00888984397443
0
ELLIPSE
5
135
100
AcDbEntity
8
1
62
256
6
ByLayer
370
13
48
1
60
0
100
AcDbEllipse
10
59.258678
20
-2.49772
30
0
11
0.0148293336171678
21
0.399725019062444
31
0
210
0
220
0
230
1
40
0.406503
41
-2.33595515067493
42
-1.5557166718563
0
ELLIPSE
5
136
100
AcDbEntity
8
1
62
256
6
ByLayer
370
13
48
1
60
0
100
AcDbEllipse
10
59.620403
20
-2.911901
30
0
11
-0.051834175938104
21
0.0855173561612944
31
0
210
0
220
0
230
1
40
0.13986
41
-1.57460332353069
42
-0.736311954701842
0
ELLIPSE
5
137
100
AcDbEntity
8
1
62
256
6
ByLayer
370
13
48
1
60
0
100
AcDbEllipse
10
59.523358
20
-2.989274
30
0
11
-0.0777628762498864
21
0.062872371335467
31
0
210
0
220
0
230
1
40
0.13045
41
-1.6218279290307
42
-1.15581636428047
0
ELLIPSE
5
138
100
AcDbEntity
8
1
62
256
6
ByLayer
370
13
48
1
60
0
100
AcDbEllipse
10
59.620403
20
-0.438099
30
0
11
-0.0518341759381041
21
-0.0855173561612944
31
0
210
0
220
0
230
1
40
0.13986
41
0.736311954701735
42
1.57460332353069
0
ELLIPSE
5
139
100
AcDbEntity
8
1
62
256
6
ByLayer
370
13
48
1
60
0
100
AcDbEllipse
10
59.258678
20
-0.85228
30
0
11
0.0148293336171675
21
-0.399725019062444
31
0
210
0
220
0
230
1
40
0.406503
41
1.5557166718563
42
2.3359551506748
0
ELLIPSE
5
13A
100
AcDbEntity
8
1
62
256
6
ByLayer
370
13
48
1
60
0
100
AcDbEllipse
10
59.935862
20
-0.704285
30
0
11
-0.0846493904271149
21
-0.0532398412874971
31
0
210
0
220
0
230
1
40
0.065231
41
1.04577954889882
42
1.67414184501557
0
ELLIPSE
5
13B
100
AcDbEntity
8
1
62
256
6
ByLayer
370
13
48
1
60
0
100
AcDbEllipse
10
59.523358
20
-0.360726
30
0
11
-0.0777628762498865
21
-0.062872371335467
31
0
210
0
220
0
230
1
40
0.13045
41
1.15581636428024
42
1.62182792903077
0
ELLIPSE
5
13C
100
AcDbEntity
8
1
62
256
6
ByLayer
370
13
48
1
60
0
100
AcDbEllipse
10
59.935862
20
-2.645715
30
0
11
-0.0846493904271148
21
0.0532398412874971
31
0
210
0
220
0
230
1
40
0.065231
41
-1.67414184501571
42
-1.0457795488977
0
ELLIPSE
5
13D
100
AcDbEntity
8
1
62
256
6
ByLayer
370
18
48
1
60
0
100
AcDbEllipse
10
59.506337
20
0.301339
30
0
11
0.239994305326694
21
0.0170571478814531
31
0
210
0
220
0
230
-1
40
0.096932
41
-1.73802346921971
42
-1.44202876508361
0
ELLIPSE
5
13E
100
AcDbEntity
8
1
62
256
6
ByLayer
370
18
48
1
60
0
100
AcDbEllipse
10
56.285022
20
-3.622453
30
0
11
0.898944272167037
21
-0.523851341712483
31
0
210
0
220
0
230
-1
40
0.083195
41
-1.85746857517888
42
-1.74744285043035
0
ELLIPSE
5
13F
100
AcDbEntity
8
1
62
256
6
ByLayer
370
18
48
1
60
0
100
AcDbEllipse
10
56.855207
20
0.170241
30
0
11
0.251841824127698
21
0.0179368090001308
31
0
210
0
220
0
230
-1
40
0.095335
41
-1.55727336982155
42
-0.770655746894774
0
ELLIPSE
5
140
100
AcDbEntity
8
1
62
256
6
ByLayer
370
18
48
1
60
0
100
AcDbEllipse
10
59.506337
20
-3.651339
30
0
11
0.239994304191397
21
-0.0170571478032982
31
0
210
0
220
0
230
-1
40
0.096932
41
1.44202876436222
42
1.73802346990853
0
ELLIPSE
5
141
100
AcDbEntity
8
1
62
256
6
ByLayer
370
18
48
1
60
0
100
AcDbEllipse
10
56.370355
20
-0.242363
30
0
11
0.117518340696116
21
-0.3843851723858
31
6.93889390390724E-18
210
5.04725534145592E-18
220
-1.65088283497591E-17
230
-1
40
0.995153
41
-3.0584188357418
42
-2.91576259201242
0
ELLIPSE
5
142
100
AcDbEntity
8
1
62
256
6
ByLayer
370
18
48
1
60
0
100
AcDbEllipse
10
56.285022
20
0.272453
30
0
11
0.898944427492757
21
0.523851439970879
31
0
210
0
220
0
230
-1
40
0.083195
41
1.74744289962252
42
1.857468605953
0
ELLIPSE
5
143
100
AcDbEntity
8
1
62
256
6
ByLayer
370
18
48
1
60
0
100
AcDbEllipse
10
60.048748
20
-2.645715
30
0
11
1.1330996904646E-16
21
0.4
31
0
210
0
220
0
230
1
40
0.121869
41
1.5707963267949
42
1.64009079051253
0
ELLIPSE
5
144
100
AcDbEntity
8
1
62
256
6
ByLayer
370
18
48
1
60
0
100
AcDbEllipse
10
56.855207
20
-3.520241
30
0
11
0.251841824130968
21
-0.0179368090005542
31
0
210
0
220
0
230
-1
40
0.095335
41
0.770655746895856
42
1.55727336981312
0
ELLIPSE
5
145
100
AcDbEntity
8
1
62
256
6
ByLayer
370
18
48
1
60
0
100
AcDbEllipse
10
56.370355
20
-3.107637
30
0
11
0.117518340696115
21
0.3843851723858
31
6.93889390390723E-18
210
5.04725534145587E-18
220
1.65088283497591E-17
230
-1
40
0.995153
41
2.91576259201242
42
3.05841883574182
0
ELLIPSE
5
146
100
AcDbEntity
8
1
62
256
6
ByLayer
370
18
48
1
60
0
100
AcDbEllipse
10
60.048748
20
-0.704285
30
0
11
1.1330996904646E-16
21
0.4
31
0
210
0
220
0
230
1
40
0.121869
41
1.50150186307726
42
1.5707963267949
0
POINT
5
6C
100
AcDbEntity
8
81
62
256
6
ByLayer
370
18
48
1
60
0
100
AcDbPoint
10
60
20
0
30
0
39
0
210
0
220
0
230
1
50
360
0
POINT
5
6E
100
AcDbEntity
8
80
62
256
6
ByLayer
370
18
48
1
60
0
100
AcDbPoint
10
0
20
0
30
0
39
0
210
0
220
0
230
1
50
360
0
SPLINE
5
147
100
AcDbEntity
8
1
62
256
6
ByLayer
370
13
48
1
60
0
100
AcDbSpline
70
4
71
3
72
12
73
8
40
0
40
0
40
0
40
0
40
0.39010501540954
40
0.39010501540954
40
0.395238792461496
40
0.395238792461496
40
1
40
1
40
1
40
1
41
1
10
58.8112677608008
20
-2.49670090128407
30
0
41
1
10
58.893013189497
20
-2.4945931562566
30
0
41
1
10
58.9750694911574
20
-2.49418240403139
30
0
41
1
10
59.0568134956409
20
-2.49389690223873
30
0
41
1
10
59.057878637216
20
-2.49389329552966
30
0
41
1
10
59.1833815366516
20
-2.49348172365146
30
0
41
1
10
59.3061458913858
20
-2.49458564238341
30
0
41
1
10
59.4213727254144
20
-2.49772048223611
30
0
0
SPLINE
5
148
100
AcDbEntity
8
1
62
256
6
ByLayer
370
13
48
1
60
0
100
AcDbSpline
70
4
71
3
72
8
73
4
40
0
40
0
40
0
40
0
40
1
40
1
40
1
40
1
41
1
10
50.0740398113324
20
-3.37500000000003
30
0
41
1
10
50.0740398069724
20
-3.36666633333334
30
0
41
1
10
50.0740398026121
20
-3.35833266666668
30
0
41
1
10
50.0740397982514
20
-3.34999900000002
30
0
0
SPLINE
5
149
100
AcDbEntity
8
1
62
256
6
ByLayer
370
13
48
1
60
0
100
AcDbSpline
70
4
71
3
72
8
73
4
40
0
40
0
40
0
40
0
40
1
40
1
40
1
40
1
41
1
10
50.0083240679326
20
0.0249999999999773
30
0
41
1
10
50.0083240679326
20
0.0166663333332906
30
0
41
1
10
50.0083240679326
20
0.0083326666666323
30
0
41
1
10
50.0083240679326
20
-1.0000000259E-06
30
0
0
SPLINE
5
14A
100
AcDbEntity
8
1
62
256
6
ByLayer
370
13
48
1
60
0
100
AcDbSpline
70
4
71
3
72
8
73
4
40
0
40
0
40
0
40
0
40
1
40
1
40
1
40
1
41
1
10
50.0740397982514
20
-1.0000000259E-06
30
0
41
1
10
50.074039802612
20
0.0083326666666323
30
0
41
1
10
50.0740398069724
20
0.016666333333319
30
0
41
1
10
50.0740398113324
20
0.0249999999999773
30
0
0
SPLINE
5
14B
100
AcDbEntity
8
1
62
256
6
ByLayer
370
13
48
1
60
0
100
AcDbSpline
70
4
71
3
72
8
73
4
40
0
40
0
40
0
40
0
40
1
40
1
40
1
40
1
41
1
10
56.8276010148921
20
-2.47979304080454
30
0
41
1
10
56.8701630922749
20
-2.52521044655361
30
0
41
1
10
56.9131571930301
20
-2.57022863199589
30
0
41
1
10
56.9567233231079
20
-2.61468090508052
30
0
0
SPLINE
5
14C
100
AcDbEntity
8
1
62
256
6
ByLayer
370
13
48
1
60
0
100
AcDbSpline
70
4
71
3
72
10
73
6
40
0
40
0
40
0
40
0
40
0.83890545480639
40
0.83890545480639
40
1
40
1
40
1
40
1
41
1
10
56.8276010148921
20
-2.47979304080451
30
0
41
1
10
56.8536671436958
20
-2.45825642854737
30
0
41
1
10
56.8791716040464
20
-2.43661061307697
30
0
41
1
10
56.9084803863995
20
-2.41061463254385
30
0
41
1
10
56.9131686824076
20
-2.40642059696128
30
0
41
1
10
56.9178211501257
20
-2.4022202390351
30
0
0
SPLINE
5
14D
100
AcDbEntity
8
1
62
256
6
ByLayer
370
13
48
1
60
0
100
AcDbSpline
70
4
71
3
72
10
73
6
40
0
40
0
40
0
40
0
40
0.838937617766275
40
0.838937617766275
40
1
40
1
40
1
40
1
41
1
10
56.9178211501257
20
-0.947779760964949
30
0
41
1
10
56.8935943168163
20
-0.925907202683476
30
0
41
1
10
56.8683899171274
20
-0.904204897173514
30
0
41
1
10
56.83759008949
20
-0.87848111552438
30
0
41
1
10
56.8326058289527
20
-0.874342085690728
30
0
41
1
10
56.8276010148921
20
-0.870206959195542
30
0
0
SPLINE
5
14E
100
AcDbEntity
8
1
62
256
6
ByLayer
370
13
48
1
60
0
100
AcDbSpline
70
4
71
3
72
8
73
4
40
0
40
0
40
0
40
0
40
1
40
1
40
1
40
1
41
1
10
56.8276010148921
20
-0.870206959195514
30
0
41
1
10
56.8701630922749
20
-0.824789553446436
30
0
41
1
10
56.9131571930301
20
-0.779771368004162
30
0
41
1
10
56.9567233231079
20
-0.735319094919532
30
0
0
SPLINE
5
14F
100
AcDbEntity
8
1
62
256
6
ByLayer
370
13
48
1
60
0
100
AcDbSpline
70
4
71
3
72
8
73
4
40
0
40
0
40
0
40
0
40
1
40
1
40
1
40
1
41
1
10
56.9567233231079
20
-0.735319094919532
30
0
41
1
10
57.0273458910486
20
-0.725990481362885
30
0
41
1
10
57.0978685108517
20
-0.71771463917986
30
0
41
1
10
57.1678805766493
20
-0.711977298327014
30
0
0
SPLINE
5
150
100
AcDbEntity
8
1
62
256
6
ByLayer
370
13
48
1
60
0
100
AcDbSpline
70
4
71
3
72
12
73
8
40
0
40
0
40
0
40
0
40
0.0998683717390313
40
0.0998683717390313
40
0.537823266363916
40
0.537823266363916
40
1
40
1
40
1
40
1
41
1
10
57.1678805766493
20
-0.711977298327014
30
0
41
1
10
57.1977300732362
20
-0.709531195155279
30
0
41
1
10
57.228855396395
20
-0.706282535388851
30
0
41
1
10
57.400335943483
20
-0.685330321750968
30
0
41
1
10
57.5643332524474
20
-0.654697302526927
30
0
41
1
10
57.9166201131585
20
-0.579484379261118
30
0
41
1
10
58.112033802554
20
-0.532035877114652
30
0
41
1
10
58.3023602239472
20
-0.483216803475642
30
0
0
SPLINE
5
151
100
AcDbEntity
8
1
62
256
6
ByLayer
370
13
48
1
60
0
100
AcDbSpline
70
4
71
3
72
8
73
4
40
0
40
0
40
0
40
0
40
1
40
1
40
1
40
1
41
1
10
58.3023602239472
20
-0.483216803475614
30
0
41
1
10
58.448921806424
20
-0.445623490707049
30
0
41
1
10
58.6016353978424
20
-0.423172621135791
30
0
41
1
10
58.7528986418118
20
-0.428214608317745
30
0
0
SPLINE
5
152
100
AcDbEntity
8
1
62
256
6
ByLayer
370
13
48
1
60
0
100
AcDbSpline
70
4
71
3
72
8
73
4
40
0
40
0
40
0
40
0
40
1
40
1
40
1
40
1
41
1
10
58.7528986418118
20
-0.428214608317745
30
0
41
1
10
58.8744062234274
20
-0.432264763880568
30
0
41
1
10
58.9966210532666
20
-0.427425137260883
30
0
41
1
10
59.1158957172706
20
-0.427810928023035
30
0
0
SPLINE
5
153
100
AcDbEntity
8
1
62
256
6
ByLayer
370
13
48
1
60
0
100
AcDbSpline
70
4
71
3
72
8
73
4
40
0
40
0
40
0
40
0
40
1
40
1
40
1
40
1
41
1
10
59.1158957172693
20
-0.427810928024883
30
0
41
1
10
59.2755545267195
20
-0.428327340242845
30
0
41
1
10
59.4354150796997
20
-0.46252008941488
30
0
41
1
10
59.5900286630425
20
-0.506331173851294
30
0
0
SPLINE
5
154
100
AcDbEntity
8
1
62
256
6
ByLayer
370
13
48
1
60
0
100
AcDbSpline
70
4
71
3
72
8
73
4
40
0
40
0
40
0
40
0
40
1
40
1
40
1
40
1
41
1
10
59.5900286630425
20
-0.506331173851294
30
0
41
1
10
59.634090020669
20
-0.532994141758138
30
0
41
1
10
59.6778395366007
20
-0.560170960305726
30
0
41
1
10
59.7213895076228
20
-0.587656363149193
30
0
0
SPLINE
5
155
100
AcDbEntity
8
1
62
256
6
ByLayer
370
13
48
1
60
0
100
AcDbSpline
70
4
71
3
72
12
73
8
40
0
40
0
40
0
40
0
40
0.178891096392097
40
0.178891096392097
40
0.986291642515957
40
0.986291642515957
40
1
40
1
40
1
40
1
41
1
10
59.7213895076228
20
-0.587656363149193
30
0
41
1
10
59.7003115269679
20
-0.586820022102074
30
0
41
1
10
59.6792221384666
20
-0.585977001752127
30
0
41
1
10
59.5629014296377
20
-0.581288309680588
30
0
41
1
10
59.4679540502603
20
-0.575644647386724
30
0
41
1
10
59.3689156735318
20
-0.571200871252387
30
0
41
1
10
59.3672607449415
20
-0.571129638346804
30
0
41
1
10
59.3656057053218
20
-0.571061404673628
30
0
0
SPLINE
5
156
100
AcDbEntity
8
1
62
256
6
ByLayer
370
13
48
1
60
0
100
AcDbSpline
70
4
71
3
72
12
73
8
40
0
40
0
40
0
40
0
40
0.609383607481524
40
0.609383607481524
40
0.614539779328588
40
0.614539779328588
40
1
40
1
40
1
40
1
41
1
10
59.3656057053218
20
-0.571061404673628
30
0
41
1
10
59.2600213620046
20
-0.566708392523594
30
0
41
1
10
59.1496097970337
20
-0.56237893954534
30
0
41
1
10
59.0373081383663
20
-0.558107427414768
30
0
41
1
10
59.0363601843113
20
-0.558071372278022
30
0
41
1
10
58.9647049543392
20
-0.555346073262797
30
0
41
1
10
58.8932165299024
20
-0.55254621732621
30
0
41
1
10
58.8219297662852
20
-0.550059627937998
30
0
0
SPLINE
5
157
100
AcDbEntity
8
1
62
256
6
ByLayer
370
13
48
1
60
0
100
AcDbSpline
70
4
71
3
72
16
73
12
40
0
40
0
40
0
40
0
40
0.0442199247554431
40
0.0442199247554431
40
0.0484399555489736
40
0.0484399555489736
40
0.21689535852514
40
0.21689535852514
40
0.889245809545941
40
0.889245809545941
40
1
40
1
40
1
40
1
41
1
10
58.8219297662852
20
-0.550059627937998
30
0
41
1
10
58.8113300785451
20
-0.549689894908795
30
0
41
1
10
58.8007291289449
20
-0.549358572482305
30
0
41
1
10
58.7891179461187
20
-0.548951782680291
30
0
41
1
10
58.7881063966875
20
-0.54891621547722
30
0
41
1
10
58.7467182945273
20
-0.54745605677553
30
0
41
1
10
58.7063476610927
20
-0.545559863191045
30
0
41
1
10
58.5067119730518
20
-0.538816427151744
30
0
41
1
10
58.3453726295508
20
-0.559762614781704
30
0
41
1
10
58.1656324617668
20
-0.607243267787936
30
0
41
1
10
58.1400997197493
20
-0.614412180855425
30
0
41
1
10
58.1146869282979
20
-0.621970920351657
30
0
0
SPLINE
5
158
100
AcDbEntity
8
1
62
256
6
ByLayer
370
13
48
1
60
0
100
AcDbSpline
70
4
71
3
72
12
73
8
40
0
40
0
40
0
40
0
40
0.262655118490606
40
0.262655118490606
40
0.697392919166919
40
0.697392919166919
40
1
40
1
40
1
40
1
41
1
10
58.1146869282979
20
-0.621970920351657
30
0
41
1
10
58.0122143236957
20
-0.652450205760715
30
0
41
1
10
57.909497462749
20
-0.682797526442386
30
0
41
1
10
57.6439453836003
20
-0.760932726164896
30
0
41
1
10
57.4820473482736
20
-0.808225911950444
30
0
41
1
10
57.231433044244
20
-0.881590778886419
30
0
41
1
10
57.1338240971893
20
-0.911814312759901
30
0
41
1
10
57.0455473303952
20
-0.936276201114993
30
0
0
SPLINE
5
159
100
AcDbEntity
8
1
62
256
6
ByLayer
370
13
48
1
60
0
100
AcDbSpline
70
4
71
3
72
8
73
4
40
0
40
0
40
0
40
0
40
1
40
1
40
1
40
1
41
1
10
56.9178211501257
20
-2.4022202390351
30
0
41
1
10
56.9242544977345
20
-2.39641206061077
30
0
41
1
10
56.9301777182171
20
-2.39011835880686
30
0
41
1
10
56.9354962551916
20
-2.38331812558903
30
0
0
SPLINE
5
15A
100
AcDbEntity
8
1
62
256
6
ByLayer
370
13
48
1
60
0
100
AcDbSpline
70
4
71
3
72
8
73
4
40
0
40
0
40
0
40
0
40
1
40
1
40
1
40
1
41
1
10
57.0455473303952
20
-2.41372379888506
30
0
41
1
10
57.0087652449776
20
-2.40353131790019
30
0
41
1
10
56.9720869999075
20
-2.39342644228682
30
0
41
1
10
56.9354962551972
20
-2.38331812559477
30
0
0
SPLINE
5
15B
100
AcDbEntity
8
1
62
256
6
ByLayer
370
13
48
1
60
0
100
AcDbSpline
70
4
71
3
72
12
73
8
40
0
40
0
40
0
40
0
40
0.262655118490606
40
0.262655118490606
40
0.697392919166919
40
0.697392919166919
40
1
40
1
40
1
40
1
41
1
10
58.1146869282979
20
-2.72802907964839
30
0
41
1
10
58.0122143236957
20
-2.69754979423934
30
0
41
1
10
57.909497462749
20
-2.66720247355767
30
0
41
1
10
57.6439453836003
20
-2.58906727383516
30
0
41
1
10
57.4820473482736
20
-2.54177408804961
30
0
41
1
10
57.231433044244
20
-2.46840922111363
30
0
41
1
10
57.1338240971893
20
-2.43818568724012
30
0
41
1
10
57.0455473303952
20
-2.41372379888506
30
0
0
SPLINE
5
15C
100
AcDbEntity
8
1
62
256
6
ByLayer
370
13
48
1
60
0
100
AcDbSpline
70
4
71
3
72
16
73
12
40
0
40
0
40
0
40
0
40
0.0442199247554431
40
0.0442199247554431
40
0.0484399555489736
40
0.0484399555489736
40
0.21689535852514
40
0.21689535852514
40
0.889245809545941
40
0.889245809545941
40
1
40
1
40
1
40
1
41
1
10
58.8219297662852
20
-2.79994037206205
30
0
41
1
10
58.8113300785451
20
-2.80031010509123
30
0
41
1
10
58.8007291289449
20
-2.80064142751775
30
0
41
1
10
58.7891179461187
20
-2.80104821731976
30
0
41
1
10
58.7881063966875
20
-2.80108378452283
30
0
41
1
10
58.7467182945273
20
-2.80254394322452
30
0
41
1
10
58.7063476610927
20
-2.80444013680898
30
0
41
1
10
58.5067119730518
20
-2.81118357284831
30
0
41
1
10
58.3453726295508
20
-2.79023738521835
30
0
41
1
10
58.1656324617668
20
-2.74275673221211
30
0
41
1
10
58.1400997197493
20
-2.73558781914463
30
0
41
1
10
58.1146869282979
20
-2.72802907964839
30
0
0
SPLINE
5
15D
100
AcDbEntity
8
1
62
256
6
ByLayer
370
13
48
1
60
0
100
AcDbSpline
70
4
71
3
72
12
73
8
40
0
40
0
40
0
40
0
40
0.609383607481524
40
0.609383607481524
40
0.614539779328588
40
0.614539779328588
40
1
40
1
40
1
40
1
41
1
10
59.3656057053218
20
-2.77893859532642
30
0
41
1
10
59.2600213620046
20
-2.78329160747646
30
0
41
1
10
59.1496097970337
20
-2.78762106045471
30
0
41
1
10
59.0373081383663
20
-2.79189257258528
30
0
41
1
10
59.0363601843113
20
-2.79192862772203
30
0
41
1
10
58.9647049543392
20
-2.79465392673723
30
0
41
1
10
58.8932165299024
20
-2.79745378267381
30
0
41
1
10
58.8219297662852
20
-2.79994037206205
30
0
0
SPLINE
5
15E
100
AcDbEntity
8
1
62
256
6
ByLayer
370
13
48
1
60
0
100
AcDbSpline
70
4
71
3
72
12
73
8
40
0
40
0
40
0
40
0
40
0.178891096392097
40
0.178891096392097
40
0.986291642515957
40
0.986291642515957
40
1
40
1
40
1
40
1
41
1
10
59.7213895076228
20
-2.76234363685086
30
0
41
1
10
59.7003115269679
20
-2.76317997789798
30
0
41
1
10
59.6792221384666
20
-2.76402299824792
30
0
41
1
10
59.5629014296377
20
-2.76871169031946
30
0
41
1
10
59.4679540502603
20
-2.77435535261333
30
0
41
1
10
59.3689156735318
20
-2.77879912874764
30
0
41
1
10
59.3672607449415
20
-2.77887036165325
30
0
41
1
10
59.3656057053218
20
-2.77893859532642
30
0
0
SPLINE
5
15F
100
AcDbEntity
8
1
62
256
6
ByLayer
370
13
48
1
60
0
100
AcDbSpline
70
4
71
3
72
8
73
4
40
0
40
0
40
0
40
0
40
1
40
1
40
1
40
1
41
1
10
59.5900286630425
20
-2.84366882614873
30
0
41
1
10
59.634090020669
20
-2.81700585824189
30
0
41
1
10
59.6778395366007
20
-2.78982903969432
30
0
41
1
10
59.7213895076228
20
-2.76234363685086
30
0
0
SPLINE
5
160
100
AcDbEntity
8
1
62
256
6
ByLayer
370
13
48
1
60
0
100
AcDbSpline
70
4
71
3
72
8
73
4
40
0
40
0
40
0
40
0
40
1
40
1
40
1
40
1
41
1
10
59.1158957172693
20
-2.92218907197517
30
0
41
1
10
59.2755545267195
20
-2.92167265975718
30
0
41
1
10
59.4354150796997
20
-2.88747991058517
30
0
41
1
10
59.5900286630425
20
-2.84366882614876
30
0
0
SPLINE
5
161
100
AcDbEntity
8
1
62
256
6
ByLayer
370
13
48
1
60
0
100
AcDbSpline
70
4
71
3
72
8
73
4
40
0
40
0
40
0
40
0
40
1
40
1
40
1
40
1
41
1
10
58.7528986418118
20
-2.92178539168231
30
0
41
1
10
58.8744062234274
20
-2.91773523611948
30
0
41
1
10
58.9966210532666
20
-2.92257486273917
30
0
41
1
10
59.1158957172706
20
-2.92218907197702
30
0
0
SPLINE
5
162
100
AcDbEntity
8
1
62
256
6
ByLayer
370
13
48
1
60
0
100
AcDbSpline
70
4
71
3
72
8
73
4
40
0
40
0
40
0
40
0
40
1
40
1
40
1
40
1
41
1
10
58.3023602239472
20
-2.86678319652441
30
0
41
1
10
58.448921806424
20
-2.904376509293
30
0
41
1
10
58.6016353978424
20
-2.92682737886426
30
0
41
1
10
58.7528986418118
20
-2.92178539168231
30
0
0
SPLINE
5
163
100
AcDbEntity
8
1
62
256
6
ByLayer
370
13
48
1
60
0
100
AcDbSpline
70
4
71
3
72
12
73
8
40
0
40
0
40
0
40
0
40
0.0998683717390313
40
0.0998683717390313
40
0.537823266363916
40
0.537823266363916
40
1
40
1
40
1
40
1
41
1
10
57.1678805766493
20
-2.63802270167304
30
0
41
1
10
57.1977300732362
20
-2.64046880484474
30
0
41
1
10
57.228855396395
20
-2.64371746461117
30
0
41
1
10
57.400335943483
20
-2.66466967824908
30
0
41
1
10
57.5643332524474
20
-2.69530269747312
30
0
41
1
10
57.9166201131585
20
-2.77051562073893
30
0
41
1
10
58.112033802554
20
-2.8179641228854
30
0
41
1
10
58.3023602239472
20
-2.86678319652441
30
0
0
SPLINE
5
164
100
AcDbEntity
8
1
62
256
6
ByLayer
370
13
48
1
60
0
100
AcDbSpline
70
4
71
3
72
8
73
4
40
0
40
0
40
0
40
0
40
1
40
1
40
1
40
1
41
1
10
56.9567233231079
20
-2.61468090508052
30
0
41
1
10
57.0273458910486
20
-2.62400951863714
30
0
41
1
10
57.0978685108517
20
-2.63228536082016
30
0
41
1
10
57.1678805766493
20
-2.63802270167304
30
0
0
SPLINE
5
165
100
AcDbEntity
8
1
62
256
6
ByLayer
370
13
48
1
60
0
100
AcDbSpline
70
4
71
3
72
8
73
4
40
0
40
0
40
0
40
0
40
1
40
1
40
1
40
1
41
1
10
57.0455473303952
20
-0.936276201114993
30
0
41
1
10
57.0087652449776
20
-0.946468682099862
30
0
41
1
10
56.9720869999075
20
-0.956573557713199
30
0
41
1
10
56.9354962551972
20
-0.966681874405282
30
0
0
SPLINE
5
166
100
AcDbEntity
8
1
62
256
6
ByLayer
370
13
48
1
60
0
100
AcDbSpline
70
4
71
3
72
8
73
4
40
0
40
0
40
0
40
0
40
1
40
1
40
1
40
1
41
1
10
56.9354962551913
20
-0.966681874410966
30
0
41
1
10
56.9301777182168
20
-0.959881641193221
30
0
41
1
10
56.9242544977345
20
-0.953587939389053
30
0
41
1
10
56.9178211501258
20
-0.947779760964806
30
0
0
SPLINE
5
167
100
AcDbEntity
8
1
62
256
6
ByLayer
370
13
48
1
60
0
100
AcDbSpline
70
4
71
3
72
10
73
6
40
0
40
0
40
0
40
0
40
0.164044484569757
40
0.164044484569757
40
1
40
1
40
1
40
1
41
1
10
55.0749813396558
20
-2.35476367308291
30
0
41
1
10
55.0707623351465
20
-2.34774234091762
30
0
41
1
10
55.0668552617126
20
-2.34020197214537
30
0
41
1
10
55.0428320860096
20
-2.29188793040765
30
0
41
1
10
55.02195353334
20
-2.23854032690858
30
0
41
1
10
55.0077920863591
20
-2.17611463426374
30
0
0
SPLINE
5
168
100
AcDbEntity
8
1
62
256
6
ByLayer
370
13
48
1
60
0
100
AcDbSpline
70
4
71
3
72
14
73
10
40
0
40
0
40
0
40
0
40
0.0985152723692072
40
0.0985152723692072
40
0.414436270780364
40
0.414436270780364
40
0.704242772098099
40
0.704242772098099
40
1
40
1
40
1
40
1
41
1
10
55.0077920863591
20
-2.17611463426374
30
0
41
1
10
55.0070883147007
20
-2.17301230769343
30
0
41
1
10
55.006544409998
20
-2.16987587142859
30
0
41
1
10
55.0050532075373
20
-2.15672910740577
30
0
41
1
10
55.0058382838901
20
-2.14632419249054
30
0
41
1
10
55.0123337680469
20
-2.12760885000455
30
0
41
1
10
55.0177790953188
20
-2.11897387938979
30
0
41
1
10
55.032529463701
20
-2.10431747385852
30
0
41
1
10
55.0420968074831
20
-2.09811614615572
30
0
41
1
10
55.0525569632055
20
-2.09352280113552
30
0
0
SPLINE
5
169
100
AcDbEntity
8
1
62
256
6
ByLayer
370
13
48
1
60
0
100
AcDbSpline
70
4
71
3
72
12
73
8
40
0
40
0
40
0
40
0
40
0.496107925963443
40
0.496107925963443
40
0.747917555821972
40
0.747917555821972
40
1
40
1
40
1
40
1
41
1
10
55.0525569632055
20
-2.09352280113552
30
0
41
1
10
55.0782259885473
20
-2.08225081887664
30
0
41
1
10
55.1044232564924
20
-2.07144475536432
30
0
41
1
10
55.1444918597127
20
-2.05583375319478
30
0
41
1
10
55.1580874387439
20
-2.05069165510213
30
0
41
1
10
55.1854689641485
20
-2.04062828571452
30
0
41
1
10
55.1992572905256
20
-2.03570646437345
30
0
41
1
10
55.2131234278909
20
-2.03089566536371
30
0
0
SPLINE
5
16A
100
AcDbEntity
8
1
62
256
6
ByLayer
370
13
48
1
60
0
100
AcDbSpline
70
4
71
3
72
12
73
8
40
0
40
0
40
0
40
0
40
0.249995921123566
40
0.249995921123566
40
0.499994611291234
40
0.499994611291234
40
1
40
1
40
1
40
1
41
1
10
55.2131234278909
20
-2.03089566536371
30
0
41
1
10
55.2138936076926
20
-2.0306284546669
30
0
41
1
10
55.2146638586453
20
-2.03036124643117
30
0
41
1
10
55.2162045107646
20
-2.02982683191962
30
0
41
1
10
55.2169749119805
20
-2.02955962562717
30
0
41
1
10
55.2192863519125
20
-2.02875800556768
30
0
41
1
10
55.2208276026665
20
-2.02822359902998
30
0
41
1
10
55.2223691335979
20
-2.0276892021632
30
0
0
SPLINE
5
16B
100
AcDbEntity
8
1
62
256
6
ByLayer
370
13
48
1
60
0
100
AcDbSpline
70
4
71
3
72
14
73
10
40
0
40
0
40
0
40
0
40
0.209566828991457
40
0.209566828991457
40
0.477962265361934
40
0.477962265361934
40
0.751790472133232
40
0.751790472133232
40
1
40
1
40
1
40
1
41
1
10
55.2223691335978
20
-2.02768920216241
30
0
41
1
10
55.241617540391
20
-2.0210164276684
30
0
41
1
10
55.2598564545834
20
-2.01181974729411
30
0
41
1
10
55.2965606674395
20
-1.98574066423885
30
0
41
1
10
55.3142538244808
20
-1.96698670930664
30
0
41
1
10
55.3412074732291
20
-1.92388854208281
30
0
41
1
10
55.3507658802402
20
-1.89874347571575
30
0
41
1
10
55.3600817667494
20
-1.84877342279862
30
0
41
1
10
55.3608032158717
20
-1.82347325645381
30
0
41
1
10
55.3578654950162
20
-1.79864292795483
30
0
0
SPLINE
5
16C
100
AcDbEntity
8
1
62
256
6
ByLayer
370
13
48
1
60
0
100
AcDbSpline
70
4
71
3
72
12
73
8
40
0
40
0
40
0
40
0
40
0.484718757846364
40
0.484718757846364
40
0.742368127854248
40
0.742368127854248
40
1
40
1
40
1
40
1
41
1
10
55.3578654950162
20
-1.79864292795483
30
0
41
1
10
55.3555314956403
20
-1.7789153996863
30
0
41
1
10
55.3537340522476
20
-1.75899660938842
30
0
41
1
10
55.3518563021364
20
-1.72837451138042
30
0
41
1
10
55.3513650480974
20
-1.71771274273917
30
0
41
1
10
55.3507097053509
20
-1.69637051304025
30
0
41
1
10
55.3505454016023
20
-1.6856836474108
30
0
41
1
10
55.3505454016023
20
-1.67500000000001
30
0
0
SPLINE
5
16D
100
AcDbEntity
8
1
62
256
6
ByLayer
370
13
48
1
60
0
100
AcDbSpline
70
4
71
3
72
12
73
8
40
0
40
0
40
0
40
0
40
0.484598094488008
40
0.484598094488008
40
0.742275381080524
40
0.742275381080524
40
1
40
1
40
1
40
1
41
1
10
55.3505454016023
20
-1.67500000000001
30
0
41
1
10
55.3505454016023
20
-1.6549195908467
30
0
41
1
10
55.3511276733156
20
-1.63481800306562
30
0
41
1
10
55.3528938955774
20
-1.60418283960505
30
0
41
1
10
55.3536688928945
20
-1.59356363219933
30
0
41
1
10
55.3555334358541
20
-1.57240234596884
30
0
41
1
10
55.3566235745109
20
-1.56185408508171
30
0
41
1
10
55.3578654950162
20
-1.55135707204519
30
0
0
SPLINE
5
16E
100
AcDbEntity
8
1
62
256
6
ByLayer
370
13
48
1
60
0
100
AcDbSpline
70
4
71
3
72
14
73
10
40
0
40
0
40
0
40
0
40
0.250234813702171
40
0.250234813702171
40
0.496416801970183
40
0.496416801970183
40
0.738510482714681
40
0.738510482714681
40
1
40
1
40
1
40
1
41
1
10
55.3578654950162
20
-1.55135707204519
30
0
41
1
10
55.3608258417356
20
-1.52633550426234
30
0
41
1
10
55.3600693337852
20
-1.50083430765665
30
0
41
1
10
55.3510838008997
20
-1.45328979171711
30
0
41
1
10
55.3428512992819
20
-1.43057892883237
30
0
41
1
10
55.3198912433956
20
-1.39070627935487
30
0
41
1
10
55.3049566128546
20
-1.37294743209213
30
0
41
1
10
55.2686169570529
20
-1.34283162874874
30
0
41
1
10
55.246247555362
20
-1.3305886426181
30
0
41
1
10
55.2223691335977
20
-1.32231079783762
30
0
0
SPLINE
5
16F
100
AcDbEntity
8
1
62
256
6
ByLayer
370
13
48
1
60
0
100
AcDbSpline
70
4
71
3
72
12
73
8
40
0
40
0
40
0
40
0
40
0.375005495397418
40
0.375005495397418
40
0.750004420334853
40
0.750004420334853
40
1
40
1
40
1
40
1
41
1
10
55.2223691335977
20
-1.32231079783762
30
0
41
1
10
55.2212129808678
20
-1.32190999861666
30
0
41
1
10
55.2200569857664
20
-1.32150919396437
30
0
41
1
10
55.2177453331293
20
-1.32070758082122
30
0
41
1
10
55.2165896754277
20
-1.32030677227493
30
0
41
1
10
55.2146638565236
20
-1.31963875283282
30
0
41
1
10
55.2138936066319
20
-1.31937154496506
30
0
41
1
10
55.213123427891
20
-1.31910433463631
30
0
0
SPLINE
5
170
100
AcDbEntity
8
1
62
256
6
ByLayer
370
13
48
1
60
0
100
AcDbSpline
70
4
71
3
72
12
73
8
40
0
40
0
40
0
40
0
40
0.497315582869531
40
0.497315582869531
40
0.748831584262143
40
0.748831584262143
40
1
40
1
40
1
40
1
41
1
10
55.213123427891
20
-1.31910433463636
30
0
41
1
10
55.185774958576
20
-1.30961589631846
30
0
41
1
10
55.1587228913462
20
-1.29969424658398
30
0
41
1
10
55.1185879067828
20
-1.28408174978853
30
0
41
1
10
55.1052046989863
20
-1.27872150654554
30
0
41
1
10
55.0786905265708
20
-1.26777385368854
30
0
41
1
10
55.0655562462091
20
-1.26218554522532
30
0
41
1
10
55.0525569632055
20
-1.2564771988645
30
0
0
SPLINE
5
171
100
AcDbEntity
8
1
62
256
6
ByLayer
370
13
48
1
60
0
100
AcDbSpline
70
4
71
3
72
14
73
10
40
0
40
0
40
0
40
0
40
0.146358635709911
40
0.146358635709911
40
0.433881431207652
40
0.433881431207652
40
0.719759865932541
40
0.719759865932541
40
1
40
1
40
1
40
1
41
1
10
55.0525569632055
20
-1.25647719886453
30
0
41
1
10
55.0473223781939
20
-1.25417854713945
30
0
41
1
10
55.0423304731995
20
-1.25150413340393
30
0
41
1
10
55.0288154758868
20
-1.24261666754219
30
0
41
1
10
55.0212172293988
20
-1.23522096149435
30
0
41
1
10
55.0106066155424
20
-1.21890206670335
30
0
41
1
10
55.0074118804341
20
-1.20977058033725
30
0
41
1
10
55.0050958171896
20
-1.19174048006423
30
0
41
1
10
55.0058073973601
20
-1.18263415995332
30
0
41
1
10
55.0077920863591
20
-1.17388536573628
30
0
0
SPLINE
5
172
100
AcDbEntity
8
1
62
256
6
ByLayer
370
13
48
1
60
0
100
AcDbSpline
70
4
71
3
72
10
73
6
40
0
40
0
40
0
40
0
40
0.164022507484308
40
0.164022507484308
40
1
40
1
40
1
40
1
41
1
10
55.0077920863591
20
-1.17388536573628
30
0
41
1
10
55.0106088732772
20
-1.16146856435745
30
0
41
1
10
55.0136935122212
20
-1.14942698769246
30
0
41
1
10
55.0335290779586
20
-1.07934096196212
30
0
41
1
10
55.0537691349527
20
-1.03053800409003
30
0
41
1
10
55.0749813396558
20
-0.995236326917109
30
0
0
SPLINE
5
173
100
AcDbEntity
8
1
62
256
6
ByLayer
370
13
48
1
60
0
100
AcDbSpline
70
4
71
3
72
8
73
4
40
0
40
0
40
0
40
0
40
1
40
1
40
1
40
1
41
1
10
56.8612392286166
20
-0.979612109074935
30
0
41
1
10
56.8678919852692
20
-0.984611799859891
30
0
41
1
10
56.8740636815955
20
-0.990062650854128
30
0
41
1
10
56.8796413868037
20
-0.995996346939421
30
0
0
SPLINE
5
174
100
AcDbEntity
8
1
62
256
6
ByLayer
370
13
48
1
60
0
100
AcDbSpline
70
4
71
3
72
8
73
4
40
0
40
0
40
0
40
0
40
1
40
1
40
1
40
1
41
1
10
56.8796413868037
20
-0.995996346939478
30
0
41
1
10
56.9017885112893
20
-1.0195569871936
30
0
41
1
10
56.9256559333115
20
-1.04869651110917
30
0
41
1
10
56.9531379821875
20
-1.08107843297452
30
0
0
SPLINE
5
175
100
AcDbEntity
8
1
62
256
6
ByLayer
370
13
48
1
60
0
100
AcDbSpline
70
4
71
3
72
10
73
6
40
0
40
0
40
0
40
0
40
0.101705478367115
40
0.101705478367115
40
1
40
1
40
1
40
1
41
1
10
56.9531379821875
20
-1.08107843297452
30
0
41
1
10
56.957057103871
20
-1.08569630890906
30
0
41
1
10
56.961081253706
20
-1.09037089497488
30
0
41
1
10
57.0013120480039
20
-1.13618731353029
30
0
41
1
10
57.0478377355349
20
-1.18086272312175
30
0
41
1
10
57.1030083519938
20
-1.22064094813032
30
0
0
SPLINE
5
176
100
AcDbEntity
8
1
62
256
6
ByLayer
370
13
48
1
60
0
100
AcDbSpline
70
4
71
3
72
22
73
18
40
0
40
0
40
0
40
0
40
0.0535247857815907
40
0.0535247857815907
40
0.344422421150875
40
0.344422421150875
40
0.436152029470063
40
0.436152029470063
40
0.486473184357829
40
0.486473184357829
40
0.536644672635369
40
0.536644672635369
40
0.60048485243454
40
0.60048485243454
40
0.694476768116402
40
0.694476768116402
40
1
40
1
40
1
40
1
41
1
10
57.1030083519938
20
-1.22064094813032
30
0
41
1
10
57.1196320996513
20
-1.23262673363169
30
0
41
1
10
57.1363261903864
20
-1.24487989164317
30
0
41
1
10
57.2432990561216
20
-1.32499613768803
30
0
41
1
10
57.3386373424032
20
-1.39871021685772
30
0
41
1
10
57.4424827579692
20
-1.52231113399878
30
0
41
1
10
57.466024368827
20
-1.55506648643524
30
0
41
1
10
57.4907794752773
20
-1.61197343611209
30
0
41
1
10
57.497197909396
20
-1.63385988478225
30
0
41
1
10
57.5017476526599
20
-1.67813344431394
30
0
41
1
10
57.4998237299356
20
-1.70103866456708
30
0
41
1
10
57.4874292546899
20
-1.74971246356569
30
0
41
1
10
57.4749890844967
20
-1.77545465573371
30
0
41
1
10
57.4390316300354
20
-1.83350518882645
30
0
41
1
10
57.4127472406221
20
-1.8644354276104
30
0
41
1
10
57.2973943411545
20
-1.98591821237454
30
0
41
1
10
57.1976068779859
20
-2.06115315361993
30
0
41
1
10
57.1030083519667
20
-2.12935905188922
30
0
0
SPLINE
5
177
100
AcDbEntity
8
1
62
256
6
ByLayer
370
13
48
1
60
0
100
AcDbSpline
70
4
71
3
72
10
73
6
40
0
40
0
40
0
40
0
40
0.106342453443183
40
0.106342453443183
40
1
40
1
40
1
40
1
41
1
10
57.1030083519667
20
-2.12935905188922
30
0
41
1
10
57.0963895832057
20
-2.13413120942485
30
0
41
1
10
57.0898960212793
20
-2.13896352949854
30
0
41
1
10
57.0307812728787
20
-2.18431184722346
30
0
41
1
10
56.9871169313449
20
-2.22888438924281
30
0
41
1
10
56.9531379821875
20
-2.26892156702553
30
0
0
SPLINE
5
178
100
AcDbEntity
8
1
62
256
6
ByLayer
370
13
48
1
60
0
100
AcDbSpline
70
4
71
3
72
8
73
4
40
0
40
0
40
0
40
0
40
1
40
1
40
1
40
1
41
1
10
56.9531379821875
20
-2.26892156702553
30
0
41
1
10
56.9256559333117
20
-2.30130348889074
30
0
41
1
10
56.9017885112895
20
-2.3304430128062
30
0
41
1
10
56.879641386804
20
-2.35400365306026
30
0
0
SPLINE
5
179
100
AcDbEntity
8
1
62
256
6
ByLayer
370
13
48
1
60
0
100
AcDbSpline
70
4
71
3
72
8
73
4
40
0
40
0
40
0
40
0
40
1
40
1
40
1
40
1
41
1
10
56.879641386804
20
-2.35400365306026
30
0
41
1
10
56.8740636815957
20
-2.35993734914564
30
0
41
1
10
56.8678919852693
20
-2.36538820014008
30
0
41
1
10
56.8612392286166
20
-2.37038789092512
30
0
0
SPLINE
5
17A
100
AcDbEntity
8
1
62
256
6
ByLayer
370
13
48
1
60
0
100
AcDbSpline
70
4
71
3
72
8
73
4
40
0
40
0
40
0
40
0
40
1
40
1
40
1
40
1
41
1
10
56.7709170449828
20
-0.903551501770664
30
0
41
1
10
56.8020351268596
20
-0.928691484109919
30
0
41
1
10
56.8323463374083
20
-0.954010028756414
30
0
41
1
10
56.8612392286166
20
-0.979612109074935
30
0
0
SPLINE
5
17B
100
AcDbEntity
8
1
62
256
6
ByLayer
370
13
48
1
60
0
100
AcDbSpline
70
4
71
3
72
14
73
10
40
0
40
0
40
0
40
0
40
0.266795397634221
40
0.266795397634221
40
0.588216378506765
40
0.588216378506765
40
0.792812125325585
40
0.792812125325585
40
1
40
1
40
1
40
1
41
1
10
56.6117108282576
20
-0.884059660014572
30
0
41
1
10
56.6283191383986
20
-0.883009954583599
30
0
41
1
10
56.6450519942377
20
-0.882472519939711
30
0
41
1
10
56.6810516869464
20
-0.882756774957926
30
0
41
1
10
56.7005882478431
20
-0.883877883980489
30
0
41
1
10
56.7294317577717
20
-0.887957321730653
30
0
41
1
10
56.740075107988
20
-0.890150137692444
30
0
41
1
10
56.7582004556814
20
-0.895841619818412
30
0
41
1
10
56.7658492932568
20
-0.899457316615127
30
0
41
1
10
56.7709170449828
20
-0.903551501770664
30
0
0
SPLINE
5
17C
100
AcDbEntity
8
1
62
256
6
ByLayer
370
13
48
1
60
0
100
AcDbSpline
70
4
71
3
72
12
73
8
40
0
40
0
40
0
40
0
40
0.39010501540954
40
0.39010501540954
40
0.395238792461496
40
0.395238792461496
40
1
40
1
40
1
40
1
41
1
10
58.8112677608008
20
-0.853299098715979
30
0
41
1
10
58.893013189497
20
-0.855406843743452
30
0
41
1
10
58.9750694911574
20
-0.855817595968659
30
0
41
1
10
59.0568134956409
20
-0.856103097761292
30
0
41
1
10
59.057878637216
20
-0.856106704470392
30
0
41
1
10
59.1833815366516
20
-0.856518276348595
30
0
41
1
10
59.3061458913858
20
-0.85541435761661
30
0
41
1
10
59.4213727254144
20
-0.852279517763947
30
0
0
SPLINE
5
17D
100
AcDbEntity
8
1
62
256
6
ByLayer
370
13
48
1
60
0
100
AcDbSpline
70
4
71
3
72
8
73
4
40
0
40
0
40
0
40
0
40
1
40
1
40
1
40
1
41
1
10
56.8612392286166
20
-2.37038789092512
30
0
41
1
10
56.8323463374083
20
-2.39598997124364
30
0
41
1
10
56.8020351268596
20
-2.42130851589013
30
0
41
1
10
56.7709170449827
20
-2.44644849822936
30
0
0
SPLINE
5
17E
100
AcDbEntity
8
1
62
256
6
ByLayer
370
18
48
1
60
0
100
AcDbSpline
70
4
71
3
72
8
73
4
40
0
40
0
40
0
40
0
40
1
40
1
40
1
40
1
41
1
10
53.0940255880445
20
-3.37500000000003
30
0
41
1
10
53.0940255881511
20
-3.36666633333337
30
0
41
1
10
53.0940255882572
20
-3.35833266666668
30
0
41
1
10
53.0940255883627
20
-3.34999900000002
30
0
0
SPLINE
5
17F
100
AcDbEntity
8
1
62
256
6
ByLayer
370
18
48
1
60
0
100
AcDbSpline
70
4
71
3
72
12
73
8
40
0
40
0
40
0
40
0
40
0.279869576118639
40
0.349272013491776
40
0.462233024940469
40
0.575591215056844
40
1
40
1
40
1
40
1
41
1
10
54.1897397170577
20
-3.37500000000003
30
0
41
1
10
54.2305217859358
20
-3.37500000000006
30
0
41
1
10
54.2813329897652
20
-3.37500000000003
30
0
41
1
10
54.3486320961791
20
-3.37500000000003
30
0
41
1
10
54.3911192099325
20
-3.37500000000003
30
0
41
1
10
54.4815867463963
20
-3.37500000000003
30
0
41
1
10
54.5482281661727
20
-3.37500000000003
30
0
41
1
10
54.5948827170793
20
-3.37500000000003
30
0
0
SPLINE
5
180
100
AcDbEntity
8
1
62
256
6
ByLayer
370
13
48
1
60
0
100
AcDbSpline
70
4
71
3
72
14
73
10
40
0
40
0
40
0
40
0
40
0.136203122873046
40
0.136203122873046
40
0.341331556238926
40
0.341331556238926
40
0.593041737013191
40
0.593041737013191
40
1
40
1
40
1
40
1
41
1
10
56.7709170449828
20
-2.44644849822936
30
0
41
1
10
56.7675517247922
20
-2.44916730623601
30
0
41
1
10
56.7630822252157
20
-2.45167561960426
30
0
41
1
10
56.7499298143351
20
-2.45715366405969
30
0
41
1
10
56.7400783636782
20
-2.45980972948473
30
0
41
1
10
56.716289842691
20
-2.46425259463948
30
0
41
1
10
56.7016257900577
20
-2.46579503779995
30
0
41
1
10
56.6625090196811
20
-2.46796223137523
30
0
41
1
10
56.636864179057
20
-2.46753012297455
30
0
41
1
10
56.6117108282576
20
-2.46594033998542
30
0
0
SPLINE
5
181
100
AcDbEntity
8
1
62
256
6
ByLayer
370
18
48
1
60
0
100
AcDbSpline
70
4
71
3
72
8
73
4
40
0
40
0
40
0
40
0
40
1
40
1
40
1
40
1
41
1
10
53.0940255880445
20
0.0249999999999773
30
0
41
1
10
53.0940255881511
20
0.0166663333332906
30
0
41
1
10
53.0940255882572
20
0.0083326666666608
30
0
41
1
10
53.0940255883626
20
-9.999999691E-07
30
0
0
SPLINE
5
182
100
AcDbEntity
8
1
62
256
6
ByLayer
370
13
48
1
60
0
100
AcDbSpline
70
4
71
3
72
10
73
6
40
0
40
0
40
0
40
0
40
0.469742002065314
40
0.469742002065314
40
1
40
1
40
1
40
1
41
1
10
54.1943413365114
20
-3.23395939599209
30
0
41
1
10
54.261670967684
20
-3.23388582902246
30
0
41
1
10
54.3284612712287
20
-3.23371290747906
30
0
41
1
10
54.4678981915866
20
-3.2330182350172
30
0
41
1
10
54.5365014520711
20
-3.2334843421819
30
0
41
1
10
54.5948828441304
20
-3.23352127618699
30
0
0
SPLINE
5
183
100
AcDbEntity
8
1
62
256
6
ByLayer
370
18
48
1
60
0
100
AcDbSpline
70
4
71
2
72
8
73
5
40
0
40
0
40
0
40
0.132603808896914
40
0.132603808896914
40
1
40
1
40
1
41
1
10
54.325754590458
20
0.0249999999999773
30
0
41
1
10
54.3378753748949
20
0.0249999999999773
30
0
41
1
10
54.3462315780005
20
0.0249999999999773
30
0
41
1
10
54.4870084597082
20
0.0249999999999773
30
0
41
1
10
54.5949355904579
20
0.0249999999999773
30
0
0
SPLINE
5
184
100
AcDbEntity
8
1
62
256
6
ByLayer
370
13
48
1
60
0
100
AcDbSpline
70
4
71
3
72
10
73
6
40
0
40
0
40
0
40
0
40
0.271189366890509
40
0.271189366890509
40
1
40
1
40
1
40
1
41
1
10
54.5948828441304
20
-0.11647872381306
30
0
41
1
10
54.5645469964296
20
-0.11649791527654
30
0
41
1
10
54.5316481387211
20
-0.116549667785478
30
0
41
1
10
54.4043566106603
20
-0.116478914703464
30
0
41
1
10
54.2963185202283
20
-0.116385105916436
30
0
41
1
10
54.1916208999759
20
-0.116411117726159
30
0
0
SPLINE
5
185
100
AcDbEntity
8
1
62
256
6
ByLayer
370
13
48
1
60
0
100
AcDbSpline
70
4
71
3
72
8
73
4
40
0
40
0
40
0
40
0
40
1
40
1
40
1
40
1
41
1
10
56.8022670699779
20
-0.586831122952532
30
0
41
1
10
56.7355916320271
20
-0.653824713175652
30
0
41
1
10
56.6702596862046
20
-0.722165871619296
30
0
41
1
10
56.6058506900535
20
-0.79134127455788
30
0
0
SPLINE
5
186
100
AcDbEntity
8
1
62
256
6
ByLayer
370
13
48
1
60
0
100
AcDbSpline
70
4
71
3
72
8
73
4
40
0
40
0
40
0
40
0
40
1
40
1
40
1
40
1
41
1
10
56.8022670699779
20
-2.76316887704752
30
0
41
1
10
56.7355916320271
20
-2.6961752868244
30
0
41
1
10
56.6702596862046
20
-2.62783412838075
30
0
41
1
10
56.6058506900535
20
-2.55865872544214
30
0
0
SPLINE
5
187
100
AcDbEntity
8
1
62
256
6
ByLayer
370
13
48
1
60
0
100
AcDbSpline
70
4
71
3
72
14
73
10
40
0
40
0
40
0
40
0
40
0.379834320808259
40
0.379834320808259
40
0.631210770699312
40
0.631210770699312
40
0.849410729670967
40
0.849410729670967
40
1
40
1
40
1
40
1
41
1
10
56.6058506900545
20
-2.5586587254476
30
0
41
1
10
56.640403372219
20
-2.5522007495149
30
0
41
1
10
56.6752740386825
20
-2.54402942274257
30
0
41
1
10
56.7283312327764
20
-2.52826574822458
30
0
41
1
10
56.7486005534598
20
-2.52126900100598
30
0
41
1
10
56.7820194936537
20
-2.50751721541323
30
0
41
1
10
56.7960160172765
20
-2.50073604052221
30
0
41
1
10
56.8153850045279
20
-2.48923400904204
30
0
41
1
10
56.8221856797106
20
-2.48446533289828
30
0
41
1
10
56.8276010148924
20
-2.47979304080485
30
0
0
SPLINE
5
188
100
AcDbEntity
8
1
62
256
6
ByLayer
370
13
48
1
60
0
100
AcDbSpline
70
4
71
3
72
14
73
10
40
0
40
0
40
0
40
0
40
0.444167189427318
40
0.444167189427318
40
0.907416360928084
40
0.907416360928084
40
0.983345356785529
40
0.983345356785529
40
1
40
1
40
1
40
1
41
1
10
56.9295320689501
20
-0.70986212108383
30
0
41
1
10
56.9148301349194
20
-0.695638872706894
30
0
41
1
10
56.89727086145
20
-0.678655153062209
30
0
41
1
10
56.8587609098673
20
-0.641421050899453
30
0
41
1
10
56.8370796347395
20
-0.620464996365286
30
0
41
1
10
56.8118382446761
20
-0.596077536852704
30
0
41
1
10
56.8082241827248
20
-0.592585957231762
30
0
41
1
10
56.8038292329151
20
-0.588340218966948
30
0
41
1
10
56.8030481406259
20
-0.587585665577222
30
0
41
1
10
56.8022670699778
20
-0.586831122952617
30
0
0
SPLINE
5
189
100
AcDbEntity
8
1
62
256
6
ByLayer
370
13
48
1
60
0
100
AcDbSpline
70
4
71
3
72
10
73
6
40
0
40
0
40
0
40
0
40
0.635676539314332
40
0.635676539314332
40
1
40
1
40
1
40
1
41
1
10
56.9567233231079
20
-0.735319094919532
30
0
41
1
10
56.9517886304992
20
-0.730901900937369
30
0
41
1
10
56.9462831167139
20
-0.725822424161635
30
0
41
1
10
56.9368712173818
20
-0.716924293291697
30
0
41
1
10
56.9332733120423
20
-0.713481551700198
30
0
41
1
10
56.9295320689356
20
-0.709862121098723
30
0
0
SPLINE
5
18A
100
AcDbEntity
8
1
62
256
6
ByLayer
370
13
48
1
60
0
100
AcDbSpline
70
4
71
3
72
14
73
10
40
0
40
0
40
0
40
0
40
0.227211797335153
40
0.227211797335153
40
0.440863858228167
40
0.440863858228167
40
0.754067952335979
40
0.754067952335979
40
1
40
1
40
1
40
1
41
1
10
56.8276010148921
20
-0.870206959195542
30
0
41
1
10
56.8194894327671
20
-0.863208374665533
30
0
41
1
10
56.8081952324148
20
-0.855969137958226
30
0
41
1
10
56.7819004770138
20
-0.842426103696909
30
0
41
1
10
56.7669338023778
20
-0.835965532787725
30
0
41
1
10
56.727116727386
20
-0.821116703884371
30
0
41
1
10
56.7003050585002
20
-0.812984634061081
30
0
41
1
10
56.6509997489857
20
-0.800474299007163
30
0
41
1
10
56.6284130284009
20
-0.795558227596217
30
0
41
1
10
56.6058506900535
20
-0.791341274557766
30
0
0
SPLINE
5
18B
100
AcDbEntity
8
1
62
256
6
ByLayer
370
13
48
1
60
0
100
AcDbSpline
70
4
71
3
72
10
73
6
40
0
40
0
40
0
40
0
40
0.635676539314332
40
0.635676539314332
40
1
40
1
40
1
40
1
41
1
10
56.9567233231079
20
-2.61468090508052
30
0
41
1
10
56.9517886304992
20
-2.61909809906265
30
0
41
1
10
56.9462831167139
20
-2.62417757583842
30
0
41
1
10
56.9368712173818
20
-2.63307570670835
30
0
41
1
10
56.9332733120423
20
-2.63651844829985
30
0
41
1
10
56.9295320689356
20
-2.64013787890133
30
0
0
SPLINE
5
18C
100
AcDbEntity
8
1
62
256
6
ByLayer
370
13
48
1
60
0
100
AcDbSpline
70
4
71
3
72
14
73
10
40
0
40
0
40
0
40
0
40
0.444167189427318
40
0.444167189427318
40
0.907416360928084
40
0.907416360928084
40
0.983345356785529
40
0.983345356785529
40
1
40
1
40
1
40
1
41
1
10
56.9295320689501
20
-2.64013787891622
30
0
41
1
10
56.9148301349194
20
-2.65436112729316
30
0
41
1
10
56.89727086145
20
-2.67134484693784
30
0
41
1
10
56.8587609098673
20
-2.7085789491006
30
0
41
1
10
56.8370796347395
20
-2.72953500363477
30
0
41
1
10
56.8118382446761
20
-2.75392246314735
30
0
41
1
10
56.8082241827248
20
-2.75741404276829
30
0
41
1
10
56.8038292329151
20
-2.76165978103308
30
0
41
1
10
56.8030481406259
20
-2.76241433442283
30
0
41
1
10
56.8022670699778
20
-2.76316887704741
30
0
0
SPLINE
5
18D
100
AcDbEntity
8
1
62
256
6
ByLayer
370
13
48
1
60
0
100
AcDbSpline
70
4
71
3
72
14
73
10
40
0
40
0
40
0
40
0
40
0.444167523254406
40
0.444167523254406
40
0.907416528022182
40
0.907416528022182
40
0.983345421218332
40
0.983345421218332
40
1
40
1
40
1
40
1
41
1
10
56.9786440339733
20
-0.60180919162454
30
0
41
1
10
56.9582612980086
20
-0.600078185493231
30
0
41
1
10
56.9339198409798
20
-0.598011016967774
30
0
41
1
10
56.8805450699942
20
-0.593478344669563
30
0
41
1
10
56.8504996564203
20
-0.59092689785345
30
0
41
1
10
56.8155273744393
20
-0.587957144603791
30
0
41
1
10
56.8105201979462
20
-0.587531950318379
30
0
41
1
10
56.8044313098843
20
-0.587014902606285
30
0
41
1
10
56.8033491786773
20
-0.586923011861671
30
0
41
1
10
56.8022670704387
20
-0.586831122984762
30
0
0
SPLINE
5
18E
100
AcDbEntity
8
1
62
256
6
ByLayer
370
13
48
1
60
0
100
AcDbSpline
70
4
71
3
72
14
73
10
40
0
40
0
40
0
40
0
40
0.444167523254406
40
0.444167523254406
40
0.907416528022182
40
0.907416528022182
40
0.983345421218332
40
0.983345421218332
40
1
40
1
40
1
40
1
41
1
10
56.9786440339733
20
-2.74819080837548
30
0
41
1
10
56.9582612980086
20
-2.74992181450682
30
0
41
1
10
56.9339198409798
20
-2.75198898303225
30
0
41
1
10
56.8805450699942
20
-2.75652165533049
30
0
41
1
10
56.8504996564203
20
-2.75907310214657
30
0
41
1
10
56.8155273744393
20
-2.76204285539623
30
0
41
1
10
56.8105201979462
20
-2.76246804968164
30
0
41
1
10
56.8044313098843
20
-2.76298509739374
30
0
41
1
10
56.8033491786773
20
-2.76307698813838
30
0
41
1
10
56.8022670704387
20
-2.76316887701529
30
0
0
SPLINE
5
18F
100
AcDbEntity
8
1
62
256
6
ByLayer
370
13
48
1
60
0
100
AcDbSpline
70
4
71
3
72
10
73
6
40
0
40
0
40
0
40
0
40
0.497554089050764
40
0.497554089050764
40
1
40
1
40
1
40
1
41
1
10
55.0505794795571
20
-0.900710703687793
30
0
41
1
10
54.9888213319316
20
-0.767635824658953
30
0
41
1
10
54.927713897839
20
-0.634096698364715
30
0
41
1
10
54.7926923078269
20
-0.373107673421202
30
0
41
1
10
54.7192033259221
20
-0.243927867657845
30
0
41
1
10
54.629386110852
20
-0.128962114951918
30
0
0
SPLINE
5
190
100
AcDbEntity
8
1
62
256
6
ByLayer
370
13
48
1
60
0
100
AcDbSpline
70
4
71
3
72
10
73
6
40
0
40
0
40
0
40
0
40
0.502445910949252
40
0.502445910949252
40
1
40
1
40
1
40
1
41
1
10
54.6293861108518
20
-3.22103788504805
30
0
41
1
10
54.719203325922
20
-3.10607213234212
30
0
41
1
10
54.7926923078269
20
-2.97689232657885
30
0
41
1
10
54.927713897839
20
-2.71590330163534
30
0
41
1
10
54.9888213319316
20
-2.5823641753411
30
0
41
1
10
55.0505794795571
20
-2.44928929631226
30
0
0
SPLINE
5
191
100
AcDbEntity
8
1
62
256
6
ByLayer
370
13
48
1
60
0
100
AcDbSpline
70
4
71
3
72
12
73
8
40
0
40
0
40
0
40
0
40
0.463337467097879
40
0.463337467097879
40
0.900600131165872
40
0.900600131165872
40
1
40
1
40
1
40
1
41
1
10
58.2587805434613
20
-0.316153195611321
30
0
41
1
10
58.0818273249508
20
-0.367708412649876
30
0
41
1
10
57.90042203057
20
-0.416902216288605
30
0
41
1
10
57.5720767833214
20
-0.499304847719429
30
0
41
1
10
57.4188276083643
20
-0.534309377892072
30
0
41
1
10
57.256119941952
20
-0.562049502255007
30
0
41
1
10
57.2265505861075
20
-0.566690770669169
30
0
41
1
10
57.1981203716814
20
-0.570483263051869
30
0
0
SPLINE
5
192
100
AcDbEntity
8
1
62
256
6
ByLayer
370
13
48
1
60
0
100
AcDbSpline
70
4
71
3
72
12
73
8
40
0
40
0
40
0
40
0
40
0.463337467097879
40
0.463337467097879
40
0.900600131165872
40
0.900600131165872
40
1
40
1
40
1
40
1
41
1
10
58.2587805434613
20
-3.0338468043887
30
0
41
1
10
58.0818273249508
20
-2.98229158735018
30
0
41
1
10
57.90042203057
20
-2.93309778371145
30
0
41
1
10
57.5720767833214
20
-2.85069515228062
30
0
41
1
10
57.4188276083643
20
-2.81569062210795
30
0
41
1
10
57.256119941952
20
-2.78795049774504
30
0
41
1
10
57.2265505861075
20
-2.78330922933088
30
0
41
1
10
57.1981203716814
20
-2.77951673694818
30
0
0
SPLINE
5
193
100
AcDbEntity
8
1
62
256
6
ByLayer
370
13
48
1
60
0
100
AcDbSpline
70
4
71
3
72
10
73
6
40
0
40
0
40
0
40
0
40
0.536023803633942
40
0.536023803633942
40
1
40
1
40
1
40
1
41
1
10
54.5968060580059
20
-3.21704771112346
30
0
41
1
10
54.5381775714992
20
-3.21700823541846
30
0
41
1
10
54.4692783108239
20
-3.21654367357158
30
0
41
1
10
54.3307615620125
20
-3.21721653574107
30
0
41
1
10
54.2653396280713
20
-3.21740258655029
30
0
41
1
10
54.1994265962998
20
-3.21750018726212
30
0
0
SPLINE
5
194
100
AcDbEntity
8
1
62
256
6
ByLayer
370
13
48
1
60
0
100
AcDbSpline
70
4
71
3
72
17
73
13
40
0
40
0
40
0
40
0
40
0.0114388526231616
40
0.156919219898785
40
0.376506152990371
40
0.493377115563813
40
0.600051337153336
40
0.622975374463504
40
0.655963111497933
40
0.66977308584087
40
0.744435183174586
40
1
40
1
40
1
40
1
41
1.02166924057829
10
54.9642619721898
20
-2.193048323718
30
0
41
1.02166924057829
10
54.9620121846722
20
-2.193048323718
30
0
41
1.02166924057829
10
54.9309928442016
20
-2.193048323718
30
0
41
1.02166924057829
10
54.8508721914324
20
-2.19304832371803
30
0
41
1.02166924057829
10
54.7319780838438
20
-2.193048323718
30
0
41
1.02166924057829
10
54.6034802291129
20
-2.19304832371803
30
0
41
1.02166924057829
10
54.529929800758
20
-2.193048323718
30
0
41
1.02166924057829
10
54.4811802263964
20
-2.193048323718
30
0
41
1.02166924057829
10
54.4626115241027
20
-2.19304832371803
30
0
41
1.02166924057829
10
54.435484909295
20
-2.19304832371803
30
0
41
1.02166924057829
10
54.3621912359768
20
-2.19304832371806
30
0
41
1.02166924057829
10
54.2896954281699
20
-2.19304832371803
30
0
41
1.02166924057829
10
54.2328999721883
20
-2.19304832371806
30
0
0
SPLINE
5
195
100
AcDbEntity
8
1
62
256
6
ByLayer
370
13
48
1
60
0
100
AcDbSpline
70
4
71
3
72
12
73
8
40
0
40
0
40
0
40
0
40
0.0001909827237722
40
0.0001909827237722
40
0.835060855040991
40
0.835060855040991
40
1
40
1
40
1
40
1
41
1
10
54.9642619721898
20
-2.19304832371802
30
0
41
1
10
54.9642649947143
20
-2.19306341729811
30
0
41
1
10
54.9642680166039
20
-2.19307851125012
30
0
41
1
10
54.9774847059302
20
-2.25907185688516
30
0
41
1
10
54.9973504519072
20
-2.31616765760418
30
0
41
1
10
55.0206908788007
20
-2.36819322744591
30
0
41
1
10
55.0245975046497
20
-2.37624173363273
30
0
41
1
10
55.0288949833901
20
-2.38359673415718
30
0
0
SPLINE
5
196
100
AcDbEntity
8
1
62
256
6
ByLayer
370
13
48
1
60
0
100
AcDbSpline
70
4
71
3
72
14
73
10
40
0
40
0
40
0
40
0
40
0.311178400285531
40
0.311178400285531
40
0.543346484169134
40
0.543346484169134
40
0.778369753410881
40
0.778369753410881
40
1
40
1
40
1
40
1
41
1
10
55.0288949833901
20
-2.38359673415718
30
0
41
1
10
55.0305297633023
20
-2.3863946088733
30
0
41
1
10
55.0317726045297
20
-2.39001596098714
30
0
41
1
10
55.0328133247892
20
-2.39775760197176
30
0
41
1
10
55.0328989549484
20
-2.40160472961551
30
0
41
1
10
55.0321296350064
20
-2.41003504871617
30
0
41
1
10
55.0312384651659
20
-2.41476909422252
30
0
41
1
10
55.028603969977
20
-2.42395838058678
30
0
41
1
10
55.0268707498713
20
-2.42855582324555
30
0
41
1
10
55.024898884992
20
-2.43280475477204
30
0
0
SPLINE
5
197
100
AcDbEntity
8
1
62
256
6
ByLayer
370
13
48
1
60
0
100
AcDbSpline
70
4
71
3
72
10
73
6
40
0
40
0
40
0
40
0
40
0.499742345998437
40
0.499742345998437
40
1
40
1
40
1
40
1
41
1
10
55.024898884992
20
-2.43280475477204
30
0
41
1
10
54.9633542951558
20
-2.56541969750899
30
0
41
1
10
54.9028086692735
20
-2.6988035572339
30
0
41
1
10
54.771167250745
20
-2.95990786364803
30
0
41
1
10
54.7000490853336
20
-3.08873176166733
30
0
41
1
10
54.61321284836
20
-3.20456474578506
30
0
0
SPLINE
5
198
100
AcDbEntity
8
1
62
256
6
ByLayer
370
13
48
1
60
0
100
AcDbSpline
70
4
71
3
72
12
73
8
40
0
40
0
40
0
40
0
40
0.375703177063746
40
0.375703177063746
40
0.751775167261341
40
0.751775167261341
40
1
40
1
40
1
40
1
41
1
10
54.61321284836
20
-3.20456474578504
30
0
41
1
10
54.6114646681789
20
-3.20689668616166
30
0
41
1
10
54.6096033447167
20
-3.20913392650124
30
0
41
1
10
54.6056333610879
20
-3.2130704570088
30
0
41
1
10
54.6034623500599
20
-3.21482523894869
30
0
41
1
10
54.599764819209
20
-3.21662758097014
30
0
41
1
10
54.598227371424
20
-3.21704866812155
30
0
41
1
10
54.5968060580059
20
-3.21704771112349
30
0
0
SPLINE
5
199
100
AcDbEntity
8
1
62
256
6
ByLayer
370
13
48
1
60
0
100
AcDbSpline
70
4
71
3
72
12
73
8
40
0
40
0
40
0
40
0
40
0.834949441595139
40
0.834949441595139
40
0.999808961982549
40
0.999808961982549
40
1
40
1
40
1
40
1
41
1
10
55.0288949833901
20
-0.966403265842871
30
0
41
1
10
55.0074358885221
20
-1.0031298358949
30
0
41
1
10
54.9885583727963
20
-1.05648461310844
30
0
41
1
10
54.9698264172732
20
-1.13086714650035
30
0
41
1
10
54.9669159860823
20
-1.14369969313205
30
0
41
1
10
54.964268016604
20
-1.15692148874979
30
0
41
1
10
54.9642649947143
20
-1.15693658270186
30
0
41
1
10
54.9642619721898
20
-1.15695167628203
30
0
0
SPLINE
5
19A
100
AcDbEntity
8
1
62
256
6
ByLayer
370
13
48
1
60
0
100
AcDbSpline
70
4
71
3
72
17
73
13
40
0
40
0
40
0
40
0
40
0.0114388526231616
40
0.156919219898785
40
0.376506152990371
40
0.493377115563813
40
0.600051337153336
40
0.622975374463504
40
0.655963111497933
40
0.66977308584087
40
0.744435183174586
40
1
40
1
40
1
40
1
41
1.02166924057829
10
54.9642619721898
20
-1.15695167628202
30
0
41
1.02166924057829
10
54.9620121846722
20
-1.15695167628202
30
0
41
1.02166924057829
10
54.9309928442016
20
-1.15695167628202
30
0
41
1.02166924057829
10
54.8508721914324
20
-1.15695167628205
30
0
41
1.02166924057829
10
54.7319780838438
20
-1.15695167628202
30
0
41
1.02166924057829
10
54.6034802291129
20
-1.15695167628205
30
0
41
1.02166924057829
10
54.529929800758
20
-1.15695167628202
30
0
41
1.02166924057829
10
54.4811802263964
20
-1.15695167628202
30
0
41
1.02166924057829
10
54.4626115241027
20
-1.15695167628205
30
0
41
1.02166924057829
10
54.435484909295
20
-1.15695167628205
30
0
41
1.02166924057829
10
54.3621912359768
20
-1.15695167628208
30
0
41
1.02166924057829
10
54.2896954281699
20
-1.15695167628205
30
0
41
1.02166924057829
10
54.2328999721883
20
-1.15695167628208
30
0
0
SPLINE
5
19B
100
AcDbEntity
8
1
62
256
6
ByLayer
370
13
48
1
60
0
100
AcDbSpline
70
4
71
3
72
10
73
6
40
0
40
0
40
0
40
0
40
0.725745953634164
40
0.725745953634164
40
1
40
1
40
1
40
1
41
1
10
54.1967651095335
20
-0.132894394430593
30
0
41
1
10
54.3003515864991
20
-0.132869793808481
30
0
41
1
10
54.4069409467158
20
-0.132949612591574
30
0
41
1
10
54.5333197414333
20
-0.133023256155497
30
0
41
1
10
54.5663501006526
20
-0.132972795467481
30
0
41
1
10
54.5968060580059
20
-0.132952288876567
30
0
0
SPLINE
5
19C
100
AcDbEntity
8
1
62
256
6
ByLayer
370
13
48
1
60
0
100
AcDbSpline
70
4
71
3
72
12
73
8
40
0
40
0
40
0
40
0
40
0.233419544939649
40
0.233419544939649
40
0.533242188339535
40
0.533242188339535
40
1
40
1
40
1
40
1
41
1
10
54.5968060580059
20
-0.132952288876567
30
0
41
1
10
54.5981428732452
20
-0.132951388772767
30
0
41
1
10
54.5995818076068
20
-0.133321761301176
30
0
41
1
10
54.6027553138586
20
-0.134788308772187
30
0
41
1
10
54.6045163143434
20
-0.136061892259761
30
0
41
1
10
54.6087030592946
20
-0.139787338390363
30
0
41
1
10
54.6110488801262
20
-0.142548683967561
30
0
41
1
10
54.61321284836
20
-0.145435254215016
30
0
0
SPLINE
5
19D
100
AcDbEntity
8
1
62
256
6
ByLayer
370
13
48
1
60
0
100
AcDbSpline
70
4
71
3
72
12
73
8
40
0
40
0
40
0
40
0
40
0.500303615083402
40
0.500303615083402
40
0.706948141205687
40
0.706948141205687
40
1
40
1
40
1
40
1
41
1
10
54.61321284836
20
-0.145435254215016
30
0
41
1
10
54.7000490853336
20
-0.261268238332718
30
0
41
1
10
54.771167250745
20
-0.390092136352024
30
0
41
1
10
54.8641815336572
20
-0.574581411064088
30
0
41
1
10
54.8905769602075
20
-0.629027965541098
30
0
41
1
10
54.9531524224407
20
-0.761363195060767
30
0
41
1
10
54.9888033962696
20
-0.839417471702802
30
0
41
1
10
55.024898884992
20
-0.917195245228015
30
0
0
SPLINE
5
19E
100
AcDbEntity
8
1
62
256
6
ByLayer
370
13
48
1
60
0
100
AcDbSpline
70
4
71
3
72
16
73
12
40
0
40
0
40
0
40
0
40
0.194932576020356
40
0.194932576020356
40
0.39011325308891
40
0.39011325308891
40
0.582453198361958
40
0.582453198361958
40
0.861227543943274
40
0.861227543943274
40
1
40
1
40
1
40
1
41
1
10
55.024898884992
20
-0.917195245228015
30
0
41
1
10
55.0266351273015
20
-0.920936462369212
30
0
41
1
10
55.0281854797657
20
-0.924937517324508
30
0
41
1
10
55.0306140427218
20
-0.932818954410266
30
0
41
1
10
55.0315219079949
20
-0.936799522577871
30
0
41
1
10
55.0326119921052
20
-0.944139981268904
30
0
41
1
10
55.0328220918345
20
-0.94759619088245
30
0
41
1
10
55.0326331363435
20
-0.955163643779173
30
0
41
1
10
55.0319280541769
20
-0.959015775443106
30
0
41
1
10
55.0302825932795
20
-0.963729918886429
30
0
41
1
10
55.0296297457924
20
-0.965145742960175
30
0
41
1
10
55.0288949833901
20
-0.966403265842871
30
0
0
SPLINE
5
19F
100
AcDbEntity
8
1
62
256
6
ByLayer
370
13
48
1
60
0
100
AcDbSpline
70
4
71
3
72
10
73
6
40
0
40
0
40
0
40
0
40
0.65577982668938
40
0.65577982668938
40
1
40
1
40
1
40
1
41
1
10
56.9805367788458
20
-0.602019282902091
30
0
41
1
10
56.9801191070632
20
-0.602086492417868
30
0
41
1
10
56.9796942374048
20
-0.602093104602261
30
0
41
1
10
56.9790658180181
20
-0.601970301856028
30
0
41
1
10
56.9788510647693
20
-0.601903290778353
30
0
41
1
10
56.9786440339733
20
-0.601809191624682
30
0
0
SPLINE
5
1A0
100
AcDbEntity
8
1
62
256
6
ByLayer
370
13
48
1
60
0
100
AcDbSpline
70
4
71
3
72
14
73
10
40
0
40
0
40
0
40
0
40
0.233154461884277
40
0.233154461884277
40
0.479060596235394
40
0.479060596235394
40
0.710446838090714
40
0.710446838090714
40
1
40
1
40
1
40
1
41
1
10
55.0505794795571
20
-2.44928929631226
30
0
41
1
10
55.0535287299072
20
-2.44039554170004
30
0
41
1
10
55.0564221376373
20
-2.43118558279744
30
0
41
1
10
55.0618332759262
20
-2.41298185125933
30
0
41
1
10
55.0643914009319
20
-2.40379508385018
30
0
41
1
10
55.0685871649079
20
-2.38760146305808
30
0
41
1
10
55.070317522395
20
-2.38031897719873
30
0
41
1
10
55.0733370258103
20
-2.36615458286767
30
0
41
1
10
55.0744553636977
20
-2.35961176835136
30
0
41
1
10
55.0749813396558
20
-2.35476367308291
30
0
0
SPLINE
5
1A1
100
AcDbEntity
8
1
62
256
6
ByLayer
370
13
48
1
60
0
100
AcDbSpline
70
4
71
3
72
8
73
4
40
0
40
0
40
0
40
0
40
1
40
1
40
1
40
1
41
1
10
57.1981203716814
20
-0.570483263051869
30
0
41
1
10
57.12554414311
20
-0.579525240989483
30
0
41
1
10
57.0530161894472
20
-0.590356282687139
30
0
41
1
10
56.9805367788458
20
-0.602019282902091
30
0
0
SPLINE
5
1A2
100
AcDbEntity
8
1
62
256
6
ByLayer
370
13
48
1
60
0
100
AcDbSpline
70
4
71
3
72
16
73
12
40
0
40
0
40
0
40
0
40
0.126440774462018
40
0.126440774462018
40
0.393583756685852
40
0.393583756685852
40
0.589520715253497
40
0.589520715253497
40
0.795096123384776
40
0.795096123384776
40
1
40
1
40
1
40
1
41
1
10
55.0749813396558
20
-0.995236326917109
30
0
41
1
10
55.0747495794539
20
-0.993100116086964
30
0
41
1
10
55.0744061147986
20
-0.990650233615071
30
0
41
1
10
55.0730009566774
20
-0.982178393159415
30
0
41
1
10
55.0715364949884
20
-0.975042022542794
30
0
41
1
10
55.0682103368522
20
-0.960937976746095
30
0
41
1
10
55.0665319974179
20
-0.954322841612509
30
0
41
1
10
55.062680714042
20
-0.940077685942015
30
0
41
1
10
55.0604525899759
20
-0.932286166747815
30
0
41
1
10
55.0557194619694
20
-0.916583008099423
30
0
41
1
10
55.0531724651188
20
-0.908530106783161
30
0
41
1
10
55.0505794795553
20
-0.900710703688645
30
0
0
SPLINE
5
1A3
100
AcDbEntity
8
1
62
256
6
ByLayer
370
13
48
1
60
0
100
AcDbSpline
70
4
71
3
72
10
73
6
40
0
40
0
40
0
40
0
40
0.65577982668938
40
0.65577982668938
40
1
40
1
40
1
40
1
41
1
10
56.9805367788458
20
-2.74798071709796
30
0
41
1
10
56.9801191070632
20
-2.74791350758218
30
0
41
1
10
56.9796942374048
20
-2.74790689539779
30
0
41
1
10
56.9790658180181
20
-2.74802969814402
30
0
41
1
10
56.9788510647693
20
-2.7480967092217
30
0
41
1
10
56.9786440339733
20
-2.74819080837537
30
0
0
SPLINE
5
1A4
100
AcDbEntity
8
1
62
256
6
ByLayer
370
13
48
1
60
0
100
AcDbSpline
70
4
71
3
72
8
73
4
40
0
40
0
40
0
40
0
40
1
40
1
40
1
40
1
41
1
10
57.1981203716814
20
-2.77951673694818
30
0
41
1
10
57.12554414311
20
-2.77047475901057
30
0
41
1
10
57.0530161894472
20
-2.75964371731288
30
0
41
1
10
56.9805367788458
20
-2.74798071709796
30
0
0
SPLINE
5
1A5
100
AcDbEntity
8
1
62
256
6
ByLayer
370
13
48
1
60
0
100
AcDbSpline
70
4
71
3
72
10
73
6
40
0
40
0
40
0
40
0
40
0.895407880007388
40
0.895407880007388
40
1
40
1
40
1
40
1
41
1
10
57.0132739541157
20
-2.31100589334679
30
0
41
1
10
57.0458088830839
20
-2.27726986607112
30
0
41
1
10
57.0859541892358
20
-2.23812178941071
30
0
41
1
10
57.1408552378461
20
-2.19824618286989
30
0
41
1
10
57.1467812438335
20
-2.19406806751886
30
0
41
1
10
57.1528237185017
20
-2.1899402588061
30
0
0
SPLINE
5
1A6
100
AcDbEntity
8
1
62
256
6
ByLayer
370
13
48
1
60
0
100
AcDbSpline
70
4
71
3
72
12
73
8
40
0
40
0
40
0
40
0
40
0.186611634810624
40
0.186611634810624
40
0.693388820832762
40
0.693388820832762
40
1
40
1
40
1
40
1
41
1
10
57.1528237184974
20
-2.18994025879579
30
0
41
1
10
57.2090277271683
20
-2.20098311886318
30
0
41
1
10
57.2680824534451
20
-2.21292804268686
30
0
41
1
10
57.4939294786756
20
-2.25972730463465
30
0
41
1
10
57.6774173301442
20
-2.29981295027667
30
0
41
1
10
57.978376870561
20
-2.36874552480842
30
0
41
1
10
58.0952214954585
20
-2.39625039328968
30
0
41
1
10
58.2112677608007
20
-2.42448593432386
30
0
0
SPLINE
5
1A7
100
AcDbEntity
8
1
62
256
6
ByLayer
370
13
48
1
60
0
100
AcDbSpline
70
4
71
3
72
10
73
6
40
0
40
0
40
0
40
0
40
0.895575341108676
40
0.895575341108676
40
1
40
1
40
1
40
1
41
1
10
57.152823718528
20
-1.16005974121194
30
0
41
1
10
57.1017089957986
20
-1.12514163076943
30
0
41
1
10
57.0590917006009
20
-1.08599637689201
30
0
41
1
10
57.0210320216285
20
-1.04702725431667
30
0
41
1
10
57.0171123387418
20
-1.04297419367199
30
0
41
1
10
57.0132739541157
20
-1.03899410665326
30
0
0
SPLINE
5
1A8
100
AcDbEntity
8
1
62
256
6
ByLayer
370
13
48
1
60
0
100
AcDbSpline
70
4
71
3
72
12
73
8
40
0
40
0
40
0
40
0
40
0.186611634777379
40
0.186611634777379
40
0.69338882082023
40
0.69338882082023
40
1
40
1
40
1
40
1
41
1
10
57.1528237185343
20
-1.16005974119699
30
0
41
1
10
57.2090277271941
20
-1.14901688113164
30
0
41
1
10
57.2680824534585
20
-1.13707195731041
30
0
41
1
10
57.4939294786756
20
-1.0902726953654
30
0
41
1
10
57.6774173301442
20
-1.05018704972335
30
0
41
1
10
57.978376870561
20
-0.981254475191605
30
0
41
1
10
58.0952214954585
20
-0.953749606710375
30
0
41
1
10
58.2112677608007
20
-0.925514065676168
30
0
0
SPLINE
5
1A9
100
AcDbEntity
8
1
62
256
6
ByLayer
370
13
48
1
60
0
100
AcDbSpline
70
4
71
3
72
18
73
14
40
0
40
0
40
0
40
0
40
0.0003522007305194
40
0.0003522007305194
40
0.297488387658359
40
0.297488387658359
40
0.59301932818094
40
0.59301932818094
40
0.905704189131033
40
0.905704189131033
40
0.999647799262026
40
0.999647799262026
40
1
40
1
40
1
40
1
41
1
10
55.0304829603426
20
-2.07557696339885
30
0
41
1
10
55.0304668731361
20
-2.07558484712055
30
0
41
1
10
55.0304507857492
20
-2.07559273339177
30
0
41
1
10
55.016865097381
20
-2.08225640962385
30
0
41
1
10
55.0045872514045
20
-2.09107940230905
30
0
41
1
10
54.9848447184793
20
-2.11180784645691
30
0
41
1
10
54.9771334079903
20
-2.12394305275348
30
0
41
1
10
54.9666355950013
20
-2.15039187649182
30
0
41
1
10
54.9640066394331
20
-2.16508409469992
30
0
41
1
10
54.9637463392745
20
-2.1841215423363
30
0
41
1
10
54.9639024360131
20
-2.18856536596976
30
0
41
1
10
54.9642593256509
20
-2.19301542695894
30
0
41
1
10
54.9642606486735
20
-2.19303187458527
30
0
41
1
10
54.9642619721899
20
-2.19304832371782
30
0
0
SPLINE
5
1AA
100
AcDbEntity
8
1
62
256
6
ByLayer
370
13
48
1
60
0
100
AcDbSpline
70
4
71
3
72
17
73
13
40
0
40
0
40
0
40
0
40
0.118467527994375
40
0.326190253529678
40
0.436746717613832
40
0.537657367172795
40
0.559342826518206
40
0.59054824730331
40
0.603612073413997
40
0.674240202938776
40
0.924100453488898
40
1
40
1
40
1
40
1
41
1.02166924057829
10
55.0304829603475
20
-2.07557696339883
30
0
41
1.02166924057829
10
55.0025181202442
20
-2.07557696339883
30
0
41
1.02166924057829
10
54.921029746144
20
-2.07557696339886
30
0
41
1.02166924057829
10
54.7958987039928
20
-2.07557696339883
30
0
41
1.02166924057829
10
54.6536837810793
20
-2.07557696339886
30
0
41
1.02166924057829
10
54.5730086984349
20
-2.07557696339886
30
0
41
1.02166924057829
10
54.5197953278362
20
-2.07557696339883
30
0
41
1.02166924057829
10
54.500101976915
20
-2.07557696339883
30
0
41
1.02166924057829
10
54.4726113637335
20
-2.07557696339883
30
0
41
1.02166924057829
10
54.3976871203487
20
-2.07557696339886
30
0
41
1.02166924057829
10
54.3056201861388
20
-2.07557696339886
30
0
41
1.02166924057829
10
54.2287411960631
20
-2.07557696339886
30
0
41
1.02166924057829
10
54.210764960354
20
-2.07557696339886
30
0
0
SPLINE
5
1AB
100
AcDbEntity
8
1
62
256
6
ByLayer
370
13
48
1
60
0
100
AcDbSpline
70
4
71
3
72
12
73
8
40
0
40
0
40
0
40
0
40
0.284615438372511
40
0.284615438372511
40
0.667690975958614
40
0.667690975958614
40
1
40
1
40
1
40
1
41
1
10
54.5948828441304
20
-3.23352127618699
30
0
41
1
10
54.5978605568158
20
-3.23352215849096
30
0
41
1
10
54.6010318130271
20
-3.23313144630657
30
0
41
1
10
54.6086278393444
20
-3.2313780844259
30
0
41
1
10
54.6131769281054
20
-3.22971319030393
30
0
41
1
10
54.6215997566267
20
-3.22572772108799
30
0
41
1
10
54.6255317184138
20
-3.22350469015231
30
0
41
1
10
54.6293861108527
20
-3.22103788505467
30
0
0
SPLINE
5
1AC
100
AcDbEntity
8
1
62
256
6
ByLayer
370
13
48
1
60
0
100
AcDbSpline
70
4
71
3
72
12
73
8
40
0
40
0
40
0
40
0
40
0.419389511187602
40
0.419389511187602
40
0.73199563373051
40
0.73199563373051
40
1
40
1
40
1
40
1
41
1
10
54.6293861108518
20
-0.128962114952003
30
0
41
1
10
54.624535459197
20
-0.125857705523515
30
0
41
1
10
54.6195494047903
20
-0.123134104113262
30
0
41
1
10
54.6109438735578
20
-0.119485807829932
30
0
41
1
10
54.6072592207381
20
-0.118266557594183
30
0
41
1
10
54.6006642853839
20
-0.116823897999495
30
0
41
1
10
54.597688192018
20
-0.116477892581145
30
0
41
1
10
54.5948828441303
20
-0.116478723812946
30
0
0
SPLINE
5
1AD
100
AcDbEntity
8
1
62
256
6
ByLayer
370
13
48
1
60
0
100
AcDbSpline
70
4
71
3
72
18
73
14
40
0
40
0
40
0
40
0
40
0.0003510431352723
40
0.0003510431352723
40
0.272262893622951
40
0.272262893622951
40
0.561312801131931
40
0.561312801131931
40
0.853766373242132
40
0.853766373242132
40
0.999648956870035
40
0.999648956870035
40
1
40
1
40
1
40
1
41
1
10
54.9642619721899
20
-1.1569516762822
30
0
41
1
10
54.9642606486735
20
-1.15696812541478
30
0
41
1
10
54.9642593256509
20
-1.15698457304112
30
0
41
1
10
54.9632362148503
20
-1.16974175336142
30
0
41
1
10
54.963881351676
20
-1.18264867128283
30
0
41
1
10
54.9693719002484
20
-1.20822996759261
30
0
41
1
10
54.9745633812585
20
-1.22107549214525
30
0
41
1
10
54.9895898623041
20
-1.24414957744273
30
0
41
1
10
54.9996551870804
20
-1.25459673787952
30
0
41
1
10
55.0173245018117
20
-1.26730029412983
30
0
41
1
10
55.0237139278252
20
-1.27110288932479
30
0
41
1
10
55.0304507857487
20
-1.27440726660822
30
0
41
1
10
55.0304668731359
20
-1.27441515287947
30
0
41
1
10
55.0304829603426
20
-1.27442303660118
30
0
0
SPLINE
5
1AE
100
AcDbEntity
8
1
62
256
6
ByLayer
370
13
48
1
60
0
100
AcDbSpline
70
4
71
3
72
17
73
13
40
0
40
0
40
0
40
0
40
0.118467527994375
40
0.326190253529678
40
0.436746717613832
40
0.537657367172795
40
0.559342826518206
40
0.59054824730331
40
0.603612073413997
40
0.674240202938776
40
0.924100453488898
40
1
40
1
40
1
40
1
41
1.02166924057829
10
55.0304829603475
20
-1.27442303660116
30
0
41
1.02166924057829
10
55.0025181202442
20
-1.27442303660116
30
0
41
1.02166924057829
10
54.921029746144
20
-1.27442303660119
30
0
41
1.02166924057829
10
54.7958987039928
20
-1.27442303660119
30
0
41
1.02166924057829
10
54.6536837810793
20
-1.27442303660119
30
0
41
1.02166924057829
10
54.5730086984349
20
-1.27442303660116
30
0
41
1.02166924057829
10
54.5197953278362
20
-1.27442303660116
30
0
41
1.02166924057829
10
54.500101976915
20
-1.27442303660119
30
0
41
1.02166924057829
10
54.4726113637335
20
-1.27442303660119
30
0
41
1.02166924057829
10
54.3976871203487
20
-1.27442303660119
30
0
41
1.02166924057829
10
54.3056201861388
20
-1.27442303660119
30
0
41
1.02166924057829
10
54.2287411960631
20
-1.27442303660119
30
0
41
1.02166924057829
10
54.210764960354
20
-1.27442303660119
30
0
0
SPLINE
5
1AF
100
AcDbEntity
8
1
62
256
6
ByLayer
370
13
48
1
60
0
100
AcDbSpline
70
4
71
3
72
22
73
18
40
0
40
0
40
0
40
0
40
0.29870209965608
40
0.29870209965608
40
0.393670626081331
40
0.393670626081331
40
0.460670630485623
40
0.460670630485623
40
0.514736103979951
40
0.514736103979951
40
0.568442815189713
40
0.568442815189713
40
0.662542648285732
40
0.662542648285732
40
0.948162779223048
40
0.948162779223048
40
1
40
1
40
1
40
1
41
1
10
57.1528237185025
20
-2.1899402588075
30
0
41
1
10
57.2419293692554
20
-2.11195259630261
30
0
41
1
10
57.3361316772848
20
-2.02540634522793
30
0
41
1
10
57.4431900401125
20
-1.88919971538672
30
0
41
1
10
57.4678625682307
20
-1.85388694589182
30
0
41
1
10
57.5015158097832
20
-1.78832046201381
30
0
41
1
10
57.5130478798159
20
-1.75912414804387
30
0
41
1
10
57.524625712091
20
-1.70427923471988
30
0
41
1
10
57.5263864751528
20
-1.6785708826647
30
0
41
1
10
57.5221313786763
20
-1.62862727210469
30
0
41
1
10
57.5162091749462
20
-1.60393078905847
30
0
41
1
10
57.4931821174293
20
-1.54006742008423
30
0
41
1
10
57.4711990350885
20
-1.5026476551665
30
0
41
1
10
57.3750568619266
20
-1.36446852775248
30
0
41
1
10
57.2849150861722
20
-1.2792415892049
30
0
41
1
10
57.1839523892536
20
-1.18754342103412
30
0
41
1
10
57.1683562737128
20
-1.17365425134278
30
0
41
1
10
57.152823718527
20
-1.16005974121396
30
0
0
SPLINE
5
1B0
100
AcDbEntity
8
1
62
256
6
ByLayer
370
13
48
1
60
0
100
AcDbSpline
70
4
71
3
72
16
73
12
40
0
40
0
40
0
40
0
40
0.0003180357848869
40
0.0003180357848869
40
0.251729887964903
40
0.251729887964903
40
0.50339433347081
40
0.50339433347081
40
0.999681964215131
40
0.999681964215131
40
1
40
1
40
1
40
1
41
1
10
55.0304829603426
20
-1.27442303660118
30
0
41
1
10
55.0304995095588
20
-1.27443085273293
30
0
41
1
10
55.0305160586533
20
-1.27443866872704
30
0
41
1
10
55.043615233039
20
-1.28062495808592
30
0
41
1
10
55.0568468497938
20
-1.28667964423184
30
0
41
1
10
55.0835771699334
20
-1.29854817778042
30
0
41
1
10
55.0970793416627
20
-1.30436319650585
30
0
41
1
10
55.1375333608593
20
-1.32128152223962
30
0
41
1
10
55.1648203203588
20
-1.33204011865541
30
0
41
1
10
55.1924618795183
20
-1.34234535656034
30
0
41
1
10
55.1924795860199
20
-1.34235195754266
30
0
41
1
10
55.1924972924748
20
-1.34235855838315
30
0
0
SPLINE
5
1B1
100
AcDbEntity
8
1
62
256
6
ByLayer
370
13
48
1
60
0
100
AcDbSpline
70
4
71
3
72
18
73
14
40
0
40
0
40
0
40
0
40
0.0147623169458289
40
0.132429609799775
40
0.310035705019725
40
0.404563166262641
40
0.490843309121783
40
0.509384707264254
40
0.536065817484888
40
0.547235587851478
40
0.607623714693444
40
0.821258035813228
40
1
40
1
40
1
40
1
41
1
10
55.1924972924751
20
-1.34235855838307
30
0
41
1
10
55.1879894571145
20
-1.34235855838307
30
0
41
1
10
55.1472798005846
20
-1.34235855838307
30
0
41
1
10
55.0446180997779
20
-1.34235855838307
30
0
41
1
10
54.89569510329
20
-1.34235855838307
30
0
41
1
10
54.7320643366261
20
-1.34235855838307
30
0
41
1
10
54.6402658505686
20
-1.34235855838307
30
0
41
1
10
54.5800833549737
20
-1.34235855838307
30
0
41
1
10
54.5586341405576
20
-1.34235855838307
30
0
41
1
10
54.5305752330293
20
-1.34235855838307
30
0
41
1
10
54.4559545081916
20
-1.34235855838307
30
0
41
1
10
54.3329490835546
20
-1.34235855838307
30
0
41
1
10
54.2239387570523
20
-1.34235855838307
30
0
41
1
10
54.1738222924721
20
-1.34235855838307
30
0
0
SPLINE
5
1B2
100
AcDbEntity
8
1
62
256
6
ByLayer
370
13
48
1
60
0
100
AcDbSpline
70
4
71
3
72
16
73
12
40
0
40
0
40
0
40
0
40
0.0003180203342997
40
0.0003180203342997
40
0.251566631388001
40
0.251566631388001
40
0.503174270286074
40
0.503174270286074
40
0.999681979668716
40
0.999681979668716
40
1
40
1
40
1
40
1
41
1
10
55.1924972924748
20
-2.0076414416169
30
0
41
1
10
55.1924795860199
20
-2.00764804245736
30
0
41
1
10
55.1924618795182
20
-2.00765464343968
30
0
41
1
10
55.1784555263874
20
-2.01287644733145
30
0
41
1
10
55.1645549869885
20
-2.01820915193801
30
0
41
1
10
55.13693675467
20
-2.02911889090012
30
0
41
1
10
55.123216935737
20
-2.03469720241421
30
0
41
1
10
55.0827734687441
20
-2.05163763022495
30
0
41
1
10
55.056361440587
20
-2.06335544664904
30
0
41
1
10
55.0305160586543
20
-2.07556133127335
30
0
41
1
10
55.030499509559
20
-2.07556914726726
30
0
41
1
10
55.0304829603426
20
-2.07557696339885
30
0
0
SPLINE
5
1B3
100
AcDbEntity
8
1
62
256
6
ByLayer
370
13
48
1
60
0
100
AcDbSpline
70
4
71
3
72
18
73
14
40
0
40
0
40
0
40
0
40
0.0147623169457804
40
0.132429609799535
40
0.310035705019195
40
0.404563166261958
40
0.490843309120959
40
0.5093847072634
40
0.53606581748399
40
0.547235587850562
40
0.607623714692429
40
0.821258035811865
40
1
40
1
40
1
40
1
41
1
10
55.1924972924751
20
-2.00764144161698
30
0
41
1
10
55.1879894571144
20
-2.00764144161698
30
0
41
1
10
55.1472798005846
20
-2.00764144161698
30
0
41
1
10
55.0446180997779
20
-2.00764144161698
30
0
41
1
10
54.89569510329
20
-2.00764144161698
30
0
41
1
10
54.7320643366261
20
-2.00764144161698
30
0
41
1
10
54.6402658505686
20
-2.00764144161698
30
0
41
1
10
54.5800833549737
20
-2.00764144161698
30
0
41
1
10
54.5586341405576
20
-2.00764144161698
30
0
41
1
10
54.5305752330293
20
-2.00764144161698
30
0
41
1
10
54.4559545081916
20
-2.00764144161698
30
0
41
1
10
54.3329490835541
20
-2.00764144161695
30
0
41
1
10
54.2239387570513
20
-2.00764144161695
30
0
41
1
10
54.1738222924707
20
-2.00764144161693
30
0
0
SPLINE
5
1B4
100
AcDbEntity
8
1
62
256
6
ByLayer
370
13
48
1
60
0
100
AcDbSpline
70
4
71
3
72
8
73
4
40
0
40
0
40
0
40
0
40
1
40
1
40
1
40
1
41
1
10
57.0132739541157
20
-1.03899410665326
30
0
41
1
10
56.9848441187077
20
-1.01079506358644
30
0
41
1
10
56.9594573268684
20
-0.986155540998254
30
0
41
1
10
56.9354962551919
20
-0.966681874410256
30
0
0
SPLINE
5
1B5
100
AcDbEntity
8
1
62
256
6
ByLayer
370
13
48
1
60
0
100
AcDbSpline
70
4
71
3
72
8
73
4
40
0
40
0
40
0
40
0
40
1
40
1
40
1
40
1
41
1
10
56.9354962551923
20
-2.38331812558951
30
0
41
1
10
56.9594573268689
20
-2.3638444590016
30
0
41
1
10
56.9848441187078
20
-2.33920493641344
30
0
41
1
10
57.0132739541157
20
-2.31100589334676
30
0
0
SPLINE
5
1B6
100
AcDbEntity
8
1
62
256
6
ByLayer
370
13
48
1
60
0
100
AcDbSpline
70
4
71
3
72
18
73
14
40
0
40
0
40
0
40
0
40
0.00023158089382
40
0.00023158089382
40
0.253623359717151
40
0.253623359717151
40
0.529920957096893
40
0.529920957096893
40
0.795188631627136
40
0.795188631627136
40
0.999768419108964
40
0.999768419108964
40
1
40
1
40
1
40
1
41
1
10
55.3100240060454
20
-1.80688578981852
30
0
41
1
10
55.3100266345092
20
-1.80690529852697
30
0
41
1
10
55.3100292610427
20
-1.80692480713506
30
0
41
1
10
55.3129028077692
20
-1.82829051399747
30
0
41
1
10
55.3128100982841
20
-1.85000982796751
30
0
41
1
10
55.306145671286
20
-1.89294963432013
30
0
41
1
10
55.298878144387
20
-1.91459933831234
30
0
41
1
10
55.2774807999278
20
-1.95172720085378
30
0
41
1
10
55.2632336335329
20
-1.96797796273415
30
0
41
1
10
55.2330132258611
20
-1.99051620941773
30
0
41
1
10
55.2178470302409
20
-1.99846757468754
30
0
41
1
10
55.2017399278974
20
-2.00420829945381
30
0
41
1
10
55.2017217604414
20
-2.00421477091118
30
0
41
1
10
55.2017035929297
20
-2.00422124018362
30
0
0
SPLINE
5
1B7
100
AcDbEntity
8
1
62
256
6
ByLayer
370
13
48
1
60
0
100
AcDbSpline
70
4
71
3
72
18
73
14
40
0
40
0
40
0
40
0
40
0.0002325599132508
40
0.0002325599132508
40
0.255891971717352
40
0.255891971717352
40
0.495789486831356
40
0.495789486831356
40
0.744387685796496
40
0.744387685796496
40
0.999767440083953
40
0.999767440083953
40
1
40
1
40
1
40
1
41
1
10
55.2017035929297
20
-1.3457787598164
30
0
41
1
10
55.2017217604414
20
-1.34578522908887
30
0
41
1
10
55.2017399278974
20
-1.34579170054622
30
0
41
1
10
55.2217278570614
20
-1.35291558897333
30
0
41
1
10
55.2403039926446
20
-1.36353309910408
30
0
41
1
10
55.2700010474331
20
-1.38950913745859
30
0
41
1
10
55.281961910292
20
-1.4048697239335
30
0
41
1
10
55.3001095834958
20
-1.43921196863738
30
0
41
1
10
55.3063619410124
20
-1.45876482671605
30
0
41
1
10
55.3128079648331
20
-1.49965424559554
30
0
41
1
10
55.3129248724814
20
-1.52154542805678
30
0
41
1
10
55.3100292610427
20
-1.54307519286499
30
0
41
1
10
55.3100266345092
20
-1.54309470147308
30
0
41
1
10
55.3100240060454
20
-1.54311421018153
30
0
0
SPLINE
5
1B8
100
AcDbEntity
8
1
62
256
6
ByLayer
370
13
48
1
60
0
100
AcDbSpline
70
4
71
3
72
10
73
6
40
0
40
0
40
0
40
0
40
0.848961873468764
40
0.848961873468764
40
1
40
1
40
1
40
1
41
1
10
59.9256851850747
20
-0.67658939307654
30
0
41
1
10
59.8912977154034
20
-0.624746589933295
30
0
41
1
10
59.843874742716
20
-0.581290942168181
30
0
41
1
10
59.7838155264513
20
-0.539285368048638
30
0
41
1
10
59.7744787017949
20
-0.533091432409122
30
0
41
1
10
59.7650107000385
20
-0.527111820947226
30
0
0
SPLINE
5
1B9
100
AcDbEntity
8
1
62
256
6
ByLayer
370
13
48
1
60
0
100
AcDbSpline
70
4
71
3
72
8
73
4
40
0
40
0
40
0
40
0
40
1
40
1
40
1
40
1
41
1
10
59.7650107000385
20
-0.527111820947226
30
0
41
1
10
59.7210937227593
20
-0.499375613512115
30
0
41
1
10
59.6769798114245
20
-0.471945965553317
30
0
41
1
10
59.632560747957
20
-0.445022477104516
30
0
0
SPLINE
5
1BA
100
AcDbEntity
8
1
62
256
6
ByLayer
370
13
48
1
60
0
100
AcDbSpline
70
4
71
3
72
10
73
6
40
0
40
0
40
0
40
0
40
0.657586553479241
40
0.657586553479241
40
1
40
1
40
1
40
1
41
1
10
59.632560747957
20
-0.445022477104516
30
0
41
1
10
59.6092305437702
20
-0.430881465703266
30
0
41
1
10
59.5864384919004
20
-0.415558046143559
30
0
41
1
10
59.5548281900599
20
-0.388649245597776
30
0
41
1
10
59.5444660370968
20
-0.378719806076276
30
0
41
1
10
59.535515563742
20
-0.367649529306249
30
0
0
SPLINE
5
1BB
100
AcDbEntity
8
1
62
256
6
ByLayer
370
13
48
1
60
0
100
AcDbSpline
70
4
71
3
72
10
73
6
40
0
40
0
40
0
40
0
40
0.657586553479241
40
0.657586553479241
40
1
40
1
40
1
40
1
41
1
10
59.632560747957
20
-2.90497752289551
30
0
41
1
10
59.6092305437702
20
-2.91911853429676
30
0
41
1
10
59.5864384919004
20
-2.93444195385649
30
0
41
1
10
59.5548281900599
20
-2.96135075440227
30
0
41
1
10
59.5444660370968
20
-2.97128019392378
30
0
41
1
10
59.535515563742
20
-2.98235047069377
30
0
0
SPLINE
5
1BC
100
AcDbEntity
8
1
62
256
6
ByLayer
370
13
48
1
60
0
100
AcDbSpline
70
4
71
3
72
8
73
4
40
0
40
0
40
0
40
0
40
1
40
1
40
1
40
1
41
1
10
59.7650107000385
20
-2.8228881790528
30
0
41
1
10
59.7210937227593
20
-2.85062438648794
30
0
41
1
10
59.6769798114245
20
-2.87805403444673
30
0
41
1
10
59.632560747957
20
-2.90497752289551
30
0
0
SPLINE
5
1BD
100
AcDbEntity
8
1
62
256
6
ByLayer
370
13
48
1
60
0
100
AcDbSpline
70
4
71
3
72
10
73
6
40
0
40
0
40
0
40
0
40
0.848961873468764
40
0.848961873468764
40
1
40
1
40
1
40
1
41
1
10
59.9256851850747
20
-2.67341060692351
30
0
41
1
10
59.8912977154034
20
-2.72525341006676
30
0
41
1
10
59.843874742716
20
-2.76870905783187
30
0
41
1
10
59.7838155264513
20
-2.81071463195138
30
0
41
1
10
59.7744787017949
20
-2.81690856759093
30
0
41
1
10
59.7650107000385
20
-2.82288817905282
30
0
0
SPLINE
5
1BE
100
AcDbEntity
8
1
62
256
6
ByLayer
370
13
48
1
60
0
100
AcDbSpline
70
4
71
3
72
18
73
14
40
0
40
0
40
0
40
0
40
0.0127522791559415
40
0.121124696794611
40
0.284701179770561
40
0.371761647124526
40
0.451226275306811
40
0.468303035503844
40
0.492876528696067
40
0.503163967029493
40
0.558781863420274
40
0.755540599929018
40
1
40
1
40
1
40
1
41
1
10
55.3100240060454
20
-1.54311421018153
30
0
41
1
10
55.305326900298
20
-1.54311421018153
30
0
41
1
10
55.2604415120432
20
-1.54311421018153
30
0
41
1
10
55.1469736785093
20
-1.54311421018153
30
0
41
1
10
54.9821864796328
20
-1.54311421018153
30
0
41
1
10
54.7999950653448
20
-1.54311421018153
30
0
41
1
10
54.6985561666312
20
-1.54311421018153
30
0
41
1
10
54.6323336814468
20
-1.54311421018153
30
0
41
1
10
54.6093626981952
20
-1.54311421018153
30
0
41
1
10
54.5808112622735
20
-1.54311421018153
30
0
41
1
10
54.5064535903822
20
-1.54311421018153
30
0
41
1
10
54.359885658849
20
-1.54311421018153
30
0
41
1
10
54.226135477767
20
-1.54311421018153
30
0
41
1
10
54.1510660060375
20
-1.54311421018156
30
0
0
SPLINE
5
1BF
100
AcDbEntity
8
1
62
256
6
ByLayer
370
13
48
1
60
0
100
AcDbSpline
70
4
71
3
72
18
73
14
40
0
40
0
40
0
40
0
40
0.0164366124737451
40
0.133179670179742
40
0.309390732067055
40
0.403175713390462
40
0.488778156111644
40
0.507173918101198
40
0.533645457597001
40
0.54472749335088
40
0.604641292722633
40
0.816597591482948
40
1
40
1
40
1
40
1
41
1.02166924057829
10
55.2017035929297
20
-1.34577875981642
30
0
41
1.02166924057829
10
55.1966174631242
20
-1.34577875981642
30
0
41
1.02166924057829
10
55.155108594915
20
-1.34577875981642
30
0
41
1.02166924057829
10
55.0511357540979
20
-1.34577875981642
30
0
41
1.02166924057829
10
54.9012025792835
20
-1.34577875981639
30
0
41
1.02166924057829
10
54.7363899338528
20
-1.34577875981642
30
0
41
1.02166924057829
10
54.6439775791819
20
-1.34577875981639
30
0
41
1.02166924057829
10
54.5834104776404
20
-1.34577875981639
30
0
41
1.02166924057829
10
54.5618643621727
20
-1.34577875981639
30
0
41
1.02166924057829
10
54.5337740921153
20
-1.34577875981639
30
0
41
1.02166924057829
10
54.4591701175924
20
-1.34577875981642
30
0
41
1.02166924057829
10
54.3345034206899
20
-1.34577875981639
30
0
41
1.02166924057829
10
54.2237563950275
20
-1.34577875981636
30
0
41
1.02166924057829
10
54.1718935929186
20
-1.34577875981636
30
0
0
SPLINE
5
1C0
100
AcDbEntity
8
1
62
256
6
ByLayer
370
13
48
1
60
0
100
AcDbSpline
70
4
71
3
72
18
73
14
40
0
40
0
40
0
40
0
40
0.0164366124739405
40
0.133179670181082
40
0.309390732070123
40
0.403175713394449
40
0.488778156116469
40
0.507173918106204
40
0.533645457602267
40
0.544727493356254
40
0.604641292728595
40
0.816597591490987
40
1
40
1
40
1
40
1
41
1.02166924057829
10
55.2017035929298
20
-2.00422124018363
30
0
41
1.02166924057829
10
55.1966174631242
20
-2.00422124018363
30
0
41
1.02166924057829
10
55.155108594915
20
-2.00422124018366
30
0
41
1.02166924057829
10
55.0511357540979
20
-2.00422124018366
30
0
41
1.02166924057829
10
54.9012025792835
20
-2.00422124018366
30
0
41
1.02166924057829
10
54.7363899338528
20
-2.00422124018366
30
0
41
1.02166924057829
10
54.6439775791819
20
-2.00422124018363
30
0
41
1.02166924057829
10
54.5834104776404
20
-2.00422124018363
30
0
41
1.02166924057829
10
54.5618643621727
20
-2.00422124018366
30
0
41
1.02166924057829
10
54.5337740921153
20
-2.00422124018366
30
0
41
1.02166924057829
10
54.4591701175924
20
-2.00422124018366
30
0
41
1.02166924057829
10
54.3345034206926
20
-2.00422124018363
30
0
41
1.02166924057829
10
54.223756395033
20
-2.0042212401836
30
0
41
1.02166924057829
10
54.1718935929269
20
-2.0042212401836
30
0
0
SPLINE
5
1C1
100
AcDbEntity
8
1
62
256
6
ByLayer
370
13
48
1
60
0
100
AcDbSpline
70
4
71
3
72
18
73
14
40
0
40
0
40
0
40
0
40
0.0127522791559415
40
0.121124696794611
40
0.284701179770561
40
0.371761647124526
40
0.451226275306811
40
0.468303035503844
40
0.492876528696067
40
0.503163967029493
40
0.558781863420274
40
0.755540599929018
40
1
40
1
40
1
40
1
41
1
10
55.3100240060454
20
-1.80688578981852
30
0
41
1
10
55.305326900298
20
-1.80688578981852
30
0
41
1
10
55.2604415120432
20
-1.80688578981852
30
0
41
1
10
55.1469736785093
20
-1.80688578981852
30
0
41
1
10
54.9821864796328
20
-1.80688578981852
30
0
41
1
10
54.7999950653448
20
-1.80688578981852
30
0
41
1
10
54.6985561666312
20
-1.80688578981852
30
0
41
1
10
54.6323336814468
20
-1.80688578981852
30
0
41
1
10
54.6093626981952
20
-1.80688578981852
30
0
41
1
10
54.5808112622735
20
-1.80688578981852
30
0
41
1
10
54.5064535903822
20
-1.80688578981852
30
0
41
1
10
54.359885658849
20
-1.80688578981852
30
0
41
1
10
54.226135477767
20
-1.80688578981852
30
0
41
1
10
54.1510660060375
20
-1.80688578981852
30
0
0
SPLINE
5
1C2
100
AcDbEntity
8
1
62
256
6
ByLayer
370
13
48
1
60
0
100
AcDbSpline
70
4
71
3
72
16
73
12
40
0
40
0
40
0
40
0
40
0.0057828244240233
40
0.0057828244240233
40
0.500000493987984
40
0.500000493987984
40
0.750000398281966
40
0.750000398281966
40
0.994217175588821
40
0.994217175588821
40
1
40
1
40
1
40
1
41
1
10
55.2017035929295
20
-2.00422124018354
30
0
41
1
10
55.2016858395656
20
-2.00422783289073
30
0
41
1
10
55.2016680861537
20
-2.0042344255763
30
0
41
1
10
55.200133079949
20
-2.00480445012622
30
0
41
1
10
55.1986161325265
20
-2.00536788673162
30
0
41
1
10
55.1963323013229
20
-2.00621634466603
30
0
41
1
10
55.1955651882595
20
-2.00650136256024
30
0
41
1
10
55.1940488637028
20
-2.00706480755903
30
0
41
1
10
55.1932996485426
20
-2.00734323462731
30
0
41
1
10
55.1925327701838
20
-2.00762825577726
30
0
41
1
10
55.1925150313536
20
-2.00763484870799
30
0
41
1
10
55.1924972924748
20
-2.0076414416169
30
0
0
SPLINE
5
1C3
100
AcDbEntity
8
1
62
256
6
ByLayer
370
13
48
1
60
0
100
AcDbSpline
70
4
71
3
72
16
73
12
40
0
40
0
40
0
40
0
40
0.0057828239042467
40
0.0057828239042467
40
0.249999260186564
40
0.249999260186564
40
0.624999089284546
40
0.624999089284546
40
0.99421717603004
40
0.99421717603004
40
1
40
1
40
1
40
1
41
1
10
55.1924972924748
20
-1.34235855838315
30
0
41
1
10
55.1925150313537
20
-1.34236515129206
30
0
41
1
10
55.1925327701839
20
-1.34237174422282
30
0
41
1
10
55.1932996474864
20
-1.34265676498018
30
0
41
1
10
55.1940488615901
20
-1.3429351916559
30
0
41
1
10
55.1959487019351
20
-1.34364114575817
30
0
41
1
10
55.1970994307141
20
-1.34406867164787
30
0
41
1
10
55.1993834972573
20
-1.34491712638166
30
0
41
1
10
55.2005168297864
20
-1.3453380553749
30
0
41
1
10
55.2016680861533
20
-1.34576557442358
30
0
41
1
10
55.2016858395654
20
-1.34577216710923
30
0
41
1
10
55.2017035929295
20
-1.34577875981648
30
0
0
SPLINE
5
1C4
100
AcDbEntity
8
1
62
256
6
ByLayer
370
13
48
1
60
0
100
AcDbSpline
70
4
71
3
72
16
73
12
40
0
40
0
40
0
40
0
40
0.0355702320994276
40
0.0355702320994276
40
0.0905081710166269
40
0.0905081710166269
40
0.198049233530912
40
0.198049233530912
40
0.436780146594186
40
0.436780146594186
40
1
40
1
40
1
40
1
41
1
10
59.4647600217562
20
-0.315033104600445
30
0
41
1
10
59.4651586810189
20
-0.315999880563083
30
0
41
1
10
59.4655584542085
20
-0.316966219054905
30
0
41
1
10
59.4665771815565
20
-0.319428285232647
30
0
41
1
10
59.4671970808021
20
-0.320923631246416
30
0
41
1
10
59.4690334070427
20
-0.325343939232425
30
0
41
1
10
59.4702528942053
20
-0.328267343931941
30
0
41
1
10
59.4741930527674
20
-0.337665301594058
30
0
41
1
10
59.4769343827304
20
-0.34412708045258
30
0
41
1
10
59.4861946238307
20
-0.365695704131099
30
0
41
1
10
59.4928248586495
20
-0.380702758735993
30
0
41
1
10
59.4995116901682
20
-0.395357180369473
30
0
0
SPLINE
5
1C5
100
AcDbEntity
8
1
62
256
6
ByLayer
370
13
48
1
60
0
100
AcDbSpline
70
4
71
3
72
10
73
6
40
0
40
0
40
0
40
0
40
0.638823417468494
40
0.638823417468494
40
1
40
1
40
1
40
1
41
1
10
59.5900286630425
20
-0.506331173851294
30
0
41
1
10
59.566841990865
20
-0.48664448226134
30
0
41
1
10
59.5449724664755
20
-0.464852852488207
30
0
41
1
10
59.5161775948407
20
-0.426335267197288
30
0
41
1
10
59.5068123576004
20
-0.411356844551989
30
0
41
1
10
59.4995116901682
20
-0.395357180369501
30
0
0
SPLINE
5
1C6
100
AcDbEntity
8
1
62
256
6
ByLayer
370
13
48
1
60
0
100
AcDbSpline
70
4
71
3
72
8
73
4
40
0
40
0
40
0
40
0
40
1
40
1
40
1
40
1
41
1
10
59.4647600217523
20
-0.315033104598513
30
0
41
1
10
59.3478492133727
20
-0.284281549310918
30
0
41
1
10
59.2265101800571
20
-0.269297853384131
30
0
41
1
10
59.1060768987951
20
-0.26648634205452
30
0
0
SPLINE
5
1C7
100
AcDbEntity
8
1
62
256
6
ByLayer
370
13
48
1
60
0
100
AcDbSpline
70
4
71
3
72
8
73
4
40
0
40
0
40
0
40
0
40
1
40
1
40
1
40
1
41
1
10
59.4647600217523
20
-3.03496689540151
30
0
41
1
10
59.3478492133727
20
-3.06571845068913
30
0
41
1
10
59.2265101800571
20
-3.08070214661589
30
0
41
1
10
59.1060768987951
20
-3.08351365794553
30
0
0
SPLINE
5
1C8
100
AcDbEntity
8
1
62
256
6
ByLayer
370
13
48
1
60
0
100
AcDbSpline
70
4
71
3
72
10
73
6
40
0
40
0
40
0
40
0
40
0.638823417468494
40
0.638823417468494
40
1
40
1
40
1
40
1
41
1
10
59.5900286630425
20
-2.84366882614876
30
0
41
1
10
59.566841990865
20
-2.86335551773871
30
0
41
1
10
59.5449724664755
20
-2.88514714751184
30
0
41
1
10
59.5161775948407
20
-2.92366473280274
30
0
41
1
10
59.5068123576004
20
-2.93864315544806
30
0
41
1
10
59.4995116901682
20
-2.95464281963052
30
0
0
SPLINE
5
1C9
100
AcDbEntity
8
1
62
256
6
ByLayer
370
13
48
1
60
0
100
AcDbSpline
70
4
71
3
72
16
73
12
40
0
40
0
40
0
40
0
40
0.0355702320994276
40
0.0355702320994276
40
0.0905081710166269
40
0.0905081710166269
40
0.198049233530912
40
0.198049233530912
40
0.436780146594186
40
0.436780146594186
40
1
40
1
40
1
40
1
41
1
10
59.4647600217562
20
-3.03496689539961
30
0
41
1
10
59.4651586810189
20
-3.03400011943697
30
0
41
1
10
59.4655584542085
20
-3.03303378094515
30
0
41
1
10
59.4665771815565
20
-3.0305717147674
30
0
41
1
10
59.4671970808021
20
-3.02907636875364
30
0
41
1
10
59.4690334070427
20
-3.0246560607676
30
0
41
1
10
59.4702528942053
20
-3.02173265606811
30
0
41
1
10
59.4741930527674
20
-3.01233469840599
30
0
41
1
10
59.4769343827304
20
-3.00587291954747
30
0
41
1
10
59.4861946238307
20
-2.98430429586895
30
0
41
1
10
59.4928248586495
20
-2.96929724126406
30
0
41
1
10
59.4995116901682
20
-2.95464281963058
30
0
0
SPLINE
5
1CA
100
AcDbEntity
8
1
62
256
6
ByLayer
370
13
48
1
60
0
100
AcDbSpline
70
4
71
3
72
8
73
4
40
0
40
0
40
0
40
0
40
1
40
1
40
1
40
1
41
1
10
58.7587805434613
20
-3.08705408719544
30
0
41
1
10
58.5912677337033
20
-3.09281338220234
30
0
41
1
10
58.4213169004326
20
-3.07468369153679
30
0
41
1
10
58.2587805434613
20
-3.0338468043887
30
0
0
SPLINE
5
1CB
100
AcDbEntity
8
1
62
256
6
ByLayer
370
13
48
1
60
0
100
AcDbSpline
70
4
71
3
72
8
73
4
40
0
40
0
40
0
40
0
40
1
40
1
40
1
40
1
41
1
10
58.7587805434613
20
-0.262945912804611
30
0
41
1
10
58.5912677337033
20
-0.257186617797714
30
0
41
1
10
58.4213169004326
20
-0.275316308463232
30
0
41
1
10
58.2587805434613
20
-0.316153195611349
30
0
0
SPLINE
5
1CC
100
AcDbEntity
8
1
62
256
6
ByLayer
370
13
48
1
60
0
100
AcDbSpline
70
4
71
3
72
16
73
12
40
0
40
0
40
0
40
0
40
0.0355303527441879
40
0.0355303527441879
40
0.0917680599187698
40
0.0917680599187698
40
0.200182520092124
40
0.200182520092124
40
0.439533504712099
40
0.439533504712099
40
1
40
1
40
1
40
1
41
1
10
59.4647600217524
20
-0.315033104598513
30
0
41
1
10
59.4655855998636
20
-0.315666832180483
30
0
41
1
10
59.4664120929671
20
-0.316300066197471
30
0
41
1
10
59.4685507889318
20
-0.317937985730993
30
0
41
1
10
59.4698640688781
20
-0.31894229950106
30
0
41
1
10
59.4737129338245
20
-0.321881163086545
30
0
41
1
10
59.4762525536656
20
-0.323814621778808
30
0
41
1
10
59.4844114693382
20
-0.330005878896486
30
0
41
1
10
59.4900517136001
20
-0.334254199673069
30
0
41
1
10
59.5089188273347
20
-0.348350668442976
30
0
41
1
10
59.5222466489562
20
-0.358123401250424
30
0
41
1
10
59.535515563742
20
-0.367649529306249
30
0
0
SPLINE
5
1CD
100
AcDbEntity
8
1
62
256
6
ByLayer
370
13
48
1
60
0
100
AcDbSpline
70
4
71
3
72
16
73
12
40
0
40
0
40
0
40
0
40
0.0355303527441879
40
0.0355303527441879
40
0.0917680599187698
40
0.0917680599187698
40
0.200182520092124
40
0.200182520092124
40
0.4395335047121
40
0.4395335047121
40
1
40
1
40
1
40
1
41
1
10
59.4647600217524
20
-3.03496689540154
30
0
41
1
10
59.4655855998636
20
-3.03433316781957
30
0
41
1
10
59.4664120929671
20
-3.03369993380258
30
0
41
1
10
59.4685507889318
20
-3.03206201426906
30
0
41
1
10
59.4698640688781
20
-3.03105770049899
30
0
41
1
10
59.4737129338245
20
-3.02811883691351
30
0
41
1
10
59.4762525536656
20
-3.02618537822124
30
0
41
1
10
59.4844114693382
20
-3.01999412110357
30
0
41
1
10
59.4900517136001
20
-3.01574580032695
30
0
41
1
10
59.5089188273347
20
-3.00164933155708
30
0
41
1
10
59.5222466489562
20
-2.99187659874963
30
0
41
1
10
59.535515563742
20
-2.98235047069377
30
0
0
SPLINE
5
1CE
100
AcDbEntity
8
1
62
256
6
ByLayer
370
13
48
1
60
0
100
AcDbSpline
70
4
71
3
72
8
73
4
40
0
40
0
40
0
40
0
40
1
40
1
40
1
40
1
41
1
10
59.1060768987951
20
-3.08351365794553
30
0
41
1
10
58.9916360304015
20
-3.08633703117638
30
0
41
1
10
58.8749005955276
20
-3.08258382308387
30
0
41
1
10
58.7587805434613
20
-3.08705408719544
30
0
0
SPLINE
5
1CF
100
AcDbEntity
8
1
62
256
6
ByLayer
370
13
48
1
60
0
100
AcDbSpline
70
4
71
3
72
8
73
4
40
0
40
0
40
0
40
0
40
1
40
1
40
1
40
1
41
1
10
59.1060768987951
20
-0.26648634205452
30
0
41
1
10
58.9916360304015
20
-0.263662968823667
30
0
41
1
10
58.8749005955276
20
-0.267416176916157
30
0
41
1
10
58.7587805434613
20
-0.262945912804611
30
0
0
SPLINE
5
1D0
100
AcDbEntity
8
1
62
256
6
ByLayer
370
13
48
1
60
0
100
AcDbSpline
70
4
71
3
72
10
73
6
40
0
40
0
40
0
40
0
40
0.155061591761412
40
0.155061591761412
40
1
40
1
40
1
40
1
41
1
10
59.7213895076228
20
-2.76234363685086
30
0
41
1
10
59.7304066184318
20
-2.75753779179516
30
0
41
1
10
59.7393274149503
20
-2.75254682948329
30
0
41
1
10
59.7954797246053
20
-2.71942563608573
30
0
41
1
10
59.8409287471059
20
-2.6851627991137
30
0
41
1
10
59.8749811562301
20
-2.64205777075267
30
0
0
SPLINE
5
1D1
100
AcDbEntity
8
1
62
256
6
ByLayer
370
13
48
1
60
0
100
AcDbSpline
70
4
71
3
72
16
73
12
40
0
40
0
40
0
40
0
40
0.0004523985411366
40
0.0004523985411366
40
0.257549970995908
40
0.257549970995908
40
0.515211450419599
40
0.515211450419599
40
0.999547601459687
40
0.999547601459687
40
1
40
1
40
1
40
1
41
1
10
55.3100240060454
20
-1.54311421018153
30
0
41
1
10
55.310021864881
20
-1.54313388553788
30
0
41
1
10
55.310019723233
20
-1.54315356074966
30
0
41
1
10
55.3088010179857
20
-1.55435480088548
30
0
41
1
10
55.3077336238965
20
-1.56558606961437
30
0
41
1
10
55.3059057653384
20
-1.58813775125583
30
0
41
1
10
55.305145500161
20
-1.59946433600544
30
0
41
1
10
55.3034134795949
20
-1.63212556277151
30
0
41
1
10
55.3028425855878
20
-1.65354298808614
30
0
41
1
10
55.3028415235942
20
-1.67496000000017
30
0
41
1
10
55.3028415235928
20
-1.67498000000012
30
0
41
1
10
55.3028415230963
20
-1.67500000000001
30
0
0
SPLINE
5
1D2
100
AcDbEntity
8
1
62
256
6
ByLayer
370
13
48
1
60
0
100
AcDbSpline
70
4
71
3
72
16
73
12
40
0
40
0
40
0
40
0
40
0.0004524024963632
40
0.0004524024963632
40
0.257769385461147
40
0.257769385461147
40
0.515499162994264
40
0.515499162994264
40
0.999547597506527
40
0.999547597506527
40
1
40
1
40
1
40
1
41
1
10
55.3028415230963
20
-1.67500000000001
30
0
41
1
10
55.3028415235923
20
-1.67501999999996
30
0
41
1
10
55.3028415235929
20
-1.67503999999994
30
0
41
1
10
55.3028420886591
20
-1.68643557743411
30
0
41
1
10
55.303003252671
20
-1.69781423372245
30
0
41
1
10
55.3036456179239
20
-1.72055868044208
30
0
41
1
10
55.3041275042308
20
-1.73193062347042
30
0
41
1
10
55.3059682233651
20
-1.76456579193467
30
0
41
1
10
55.307728672899
20
-1.78578916963573
30
0
41
1
10
55.3100197232347
20
-1.80684643925014
30
0
41
1
10
55.3100218648815
20
-1.80686611446211
30
0
41
1
10
55.3100240060454
20
-1.80688578981852
30
0
0
SPLINE
5
1D3
100
AcDbEntity
8
1
62
256
6
ByLayer
370
13
48
1
60
0
100
AcDbSpline
70
4
71
3
72
10
73
6
40
0
40
0
40
0
40
0
40
0.155061591761412
40
0.155061591761412
40
1
40
1
40
1
40
1
41
1
10
59.7213895076228
20
-0.587656363149193
30
0
41
1
10
59.7304066184318
20
-0.592462208204893
30
0
41
1
10
59.7393274149503
20
-0.597453170516758
30
0
41
1
10
59.7954797246053
20
-0.63057436391432
30
0
41
1
10
59.8409287471059
20
-0.664837200886353
30
0
41
1
10
59.8749811562301
20
-0.707942229247379
30
0
0
SPLINE
5
1D4
100
AcDbEntity
8
1
62
256
6
ByLayer
370
13
48
1
60
0
100
AcDbSpline
70
4
71
3
72
10
73
6
40
0
40
0
40
0
40
0
40
0.596085739020482
40
0.596085739020482
40
1
40
1
40
1
40
1
41
1
10
59.8964383490931
20
-2.6142516502749
30
0
41
1
10
59.9128939358857
20
-2.59247618199785
30
0
41
1
10
59.9267245821227
20
-2.56804776040391
30
0
41
1
10
59.94081187438
20
-2.52437537976903
30
0
41
1
10
59.944038381206
20
-2.50562584507239
30
0
41
1
10
59.9441651422481
20
-2.48703447847342
30
0
0
SPLINE
5
1D5
100
AcDbEntity
8
1
62
256
6
ByLayer
370
13
48
1
60
0
100
AcDbSpline
70
4
71
3
72
8
73
4
40
0
40
0
40
0
40
0
40
1
40
1
40
1
40
1
41
1
10
59.8749811562301
20
-2.64205777075267
30
0
41
1
10
59.8822263780105
20
-2.63288645223642
30
0
41
1
10
59.8893737130963
20
-2.62360019305106
30
0
41
1
10
59.8964383490931
20
-2.6142516502749
30
0
0
SPLINE
5
1D6
100
AcDbEntity
8
1
62
256
6
ByLayer
370
13
48
1
60
0
100
AcDbSpline
70
4
71
3
72
8
73
4
40
0
40
0
40
0
40
0
40
1
40
1
40
1
40
1
41
1
10
59.8749811562301
20
-0.707942229247379
30
0
41
1
10
59.8822263780105
20
-0.717113547763631
30
0
41
1
10
59.8893737130963
20
-0.72639980694899
30
0
41
1
10
59.8964383490931
20
-0.735748349725156
30
0
0
SPLINE
5
1D7
100
AcDbEntity
8
1
62
256
6
ByLayer
370
13
48
1
60
0
100
AcDbSpline
70
4
71
3
72
10
73
6
40
0
40
0
40
0
40
0
40
0.596085739020482
40
0.596085739020482
40
1
40
1
40
1
40
1
41
1
10
59.8964383490931
20
-0.735748349725156
30
0
41
1
10
59.9128939358857
20
-0.757523818002198
30
0
41
1
10
59.9267245821227
20
-0.781952239596137
30
0
41
1
10
59.94081187438
20
-0.825624620230997
30
0
41
1
10
59.944038381206
20
-0.844374154927664
30
0
41
1
10
59.9441651422481
20
-0.862965521526604
30
0
0
SPLINE
5
1D8
100
AcDbEntity
8
1
62
256
6
ByLayer
370
13
48
1
60
0
100
AcDbSpline
70
4
71
3
72
18
73
14
40
0
40
0
40
0
40
0
40
0.0063240448349466
40
0.115571666530388
40
0.280469175691898
40
0.368232734070987
40
0.448339110093456
40
0.46555378037985
40
0.490325726475492
40
0.500696245060881
40
0.556763305635787
40
0.7551110446615
40
1
40
1
40
1
40
1
41
1
10
55.302841523097
20
-1.67500000000001
30
0
41
1
10
55.300515411654
20
-1.67500000000001
30
0
41
1
10
55.2578593433939
20
-1.67500000000001
30
0
41
1
10
55.1469736785093
20
-1.67500000000001
30
0
41
1
10
54.9821864796328
20
-1.67500000000001
30
0
41
1
10
54.7999950653448
20
-1.67500000000001
30
0
41
1
10
54.6985561666312
20
-1.67500000000001
30
0
41
1
10
54.6323336814467
20
-1.67500000000001
30
0
41
1
10
54.6093626981952
20
-1.67500000000001
30
0
41
1
10
54.5808112622734
20
-1.67500000000001
30
0
41
1
10
54.5064535903822
20
-1.67500000000001
30
0
41
1
10
54.3603376907836
20
-1.67499999999998
30
0
41
1
10
54.2270644313668
20
-1.67499999999998
30
0
41
1
10
54.1524775231004
20
-1.67499999999998
30
0
0
SPLINE
5
1D9
100
AcDbEntity
8
1
62
256
6
ByLayer
370
13
48
1
60
0
100
AcDbSpline
70
4
71
3
72
12
73
8
40
0
40
0
40
0
40
0
40
0.0075770979408485
40
0.0075770979408485
40
0.524912447401224
40
0.524912447401224
40
1
40
1
40
1
40
1
41
1
10
59.4213727254144
20
-2.49772048223611
30
0
41
1
10
59.4226938848631
20
-2.49776949571611
30
0
41
1
10
59.4240151186688
20
-2.49781616458694
30
0
41
1
10
59.5154638182291
20
-2.50088265283406
30
0
41
1
10
59.6056735270381
20
-2.49611859942033
30
0
41
1
10
59.7786115881781
20
-2.4920622707026
30
0
41
1
10
59.8613940232688
20
-2.48974240968468
30
0
41
1
10
59.9441651422333
20
-2.4870344784687
30
0
0
SPLINE
5
1DA
100
AcDbEntity
8
1
62
256
6
ByLayer
370
13
48
1
60
0
100
AcDbSpline
70
4
71
3
72
12
73
8
40
0
40
0
40
0
40
0
40
0.0075770979408485
40
0.0075770979408485
40
0.524912447401224
40
0.524912447401224
40
1
40
1
40
1
40
1
41
1
10
59.4213727254144
20
-0.852279517763947
30
0
41
1
10
59.4226938848631
20
-0.852230504283938
30
0
41
1
10
59.4240151186688
20
-0.852183835413115
30
0
41
1
10
59.5154638182291
20
-0.849117347165986
30
0
41
1
10
59.6056735270381
20
-0.853881400579724
30
0
41
1
10
59.7786115881781
20
-0.857937729297447
30
0
41
1
10
59.8613940232688
20
-0.860257590315371
30
0
41
1
10
59.9441651422333
20
-0.862965521531351
30
0
0
SPLINE
5
1DB
100
AcDbEntity
8
1
62
256
6
ByLayer
370
13
48
1
60
0
100
AcDbSpline
70
4
71
3
72
16
73
12
40
0
40
0
40
0
40
0
40
0.113631665737396
40
0.113631665737396
40
0.758132216188138
40
0.758132216188138
40
0.942823120098959
40
0.942823120098959
40
0.947778003019264
40
0.947778003019264
40
1
40
1
40
1
40
1
41
1
10
58.2112677608007
20
-2.42448593432386
30
0
41
1
10
58.2332807942053
20
-2.43149000318482
30
0
41
1
10
58.255408813319
20
-2.43814265095625
30
0
41
1
10
58.4026697940169
20
-2.47983042909274
30
0
41
1
10
58.5333481685156
20
-2.50257281856216
30
0
41
1
10
58.7009734748332
20
-2.50108828579684
30
0
41
1
10
58.7386296238165
20
-2.4992820503596
30
0
41
1
10
58.7773004835499
20
-2.4979038955922
30
0
41
1
10
58.7783108496887
20
-2.49786787825877
30
0
41
1
10
58.7899699703881
20
-2.49745223505204
30
0
41
1
10
58.80061882194
20
-2.49707532168603
30
0
41
1
10
58.8112677608008
20
-2.49670090128407
30
0
0
SPLINE
5
1DC
100
AcDbEntity
8
1
62
256
6
ByLayer
370
13
48
1
60
0
100
AcDbSpline
70
4
71
3
72
10
73
6
40
0
40
0
40
0
40
0
40
0.41187861913105
40
0.41187861913105
40
1
40
1
40
1
40
1
41
1
10
59.9970257408783
20
-0.86296552153118
30
0
41
1
10
59.9970257408783
20
-0.839857015627302
30
0
41
1
10
59.9938567437525
20
-0.81657499769824
30
0
41
1
10
59.9795589487909
20
-0.762507586542597
30
0
41
1
10
59.9654981180154
20
-0.732028871131149
30
0
41
1
10
59.9480487400853
20
-0.704285001701919
30
0
0
SPLINE
5
1DD
100
AcDbEntity
8
1
62
256
6
ByLayer
370
13
48
1
60
0
100
AcDbSpline
70
4
71
3
72
16
73
12
40
0
40
0
40
0
40
0
40
0.113631665737396
40
0.113631665737396
40
0.758132216188138
40
0.758132216188138
40
0.942823120098959
40
0.942823120098959
40
0.947778003019264
40
0.947778003019264
40
1
40
1
40
1
40
1
41
1
10
58.2112677608007
20
-0.925514065676168
30
0
41
1
10
58.2332807942053
20
-0.918509996815231
30
0
41
1
10
58.255408813319
20
-0.9118573490438
30
0
41
1
10
58.4026697940169
20
-0.870169570907308
30
0
41
1
10
58.5333481685156
20
-0.847427181437865
30
0
41
1
10
58.7009734748332
20
-0.848911714203211
30
0
41
1
10
58.7386296238165
20
-0.850717949640426
30
0
41
1
10
58.7773004835499
20
-0.852096104407849
30
0
41
1
10
58.7783108496887
20
-0.852132121741278
30
0
41
1
10
58.7899699703881
20
-0.852547764948014
30
0
41
1
10
58.80061882194
20
-0.852924678314025
30
0
41
1
10
58.8112677608008
20
-0.853299098715979
30
0
0
SPLINE
5
1DE
100
AcDbEntity
8
1
62
256
6
ByLayer
370
13
48
1
60
0
100
AcDbSpline
70
4
71
3
72
10
73
6
40
0
40
0
40
0
40
0
40
0.41187861913105
40
0.41187861913105
40
1
40
1
40
1
40
1
41
1
10
59.9970257408783
20
-2.48703447846884
30
0
41
1
10
59.9970257408783
20
-2.51014298437275
30
0
41
1
10
59.9938567437525
20
-2.53342500230181
30
0
41
1
10
59.9795589487909
20
-2.58749241345745
30
0
41
1
10
59.9654981180154
20
-2.6179711288689
30
0
41
1
10
59.9480487400853
20
-2.64571499829813
30
0
0
SPLINE
5
1DF
100
AcDbEntity
8
1
62
256
6
ByLayer
370
13
48
1
60
0
100
AcDbSpline
70
4
71
3
72
8
73
4
40
0
40
0
40
0
40
0
40
1
40
1
40
1
40
1
41
1
10
59.9480487400851
20
-0.704285001701976
30
0
41
1
10
59.9406964490065
20
-0.69493310367983
30
0
41
1
10
59.9332455329699
20
-0.685684625697121
30
0
41
1
10
59.9256851850747
20
-0.67658939307654
30
0
0
SPLINE
5
1E0
100
AcDbEntity
8
1
62
256
6
ByLayer
370
13
48
1
60
0
100
AcDbSpline
70
4
71
3
72
8
73
4
40
0
40
0
40
0
40
0
40
1
40
1
40
1
40
1
41
1
10
59.9480487400851
20
-2.64571499829805
30
0
41
1
10
59.9406964490065
20
-2.65506689632022
30
0
41
1
10
59.9332455329699
20
-2.66431537430293
30
0
41
1
10
59.9256851850747
20
-2.67341060692351
30
0
0
SPLINE
5
1E1
100
AcDbEntity
8
1
62
256
6
ByLayer
370
18
48
1
60
0
100
AcDbSpline
70
4
71
3
72
10
73
6
40
0
40
0
40
0
40
0
40
0.212779332485675
40
0.212779332485675
40
1
40
1
40
1
40
1
41
1
10
48.1869028690683
20
-3.35284146335215
30
0
41
1
10
48.1947459125518
20
-3.35604423742185
30
0
41
1
10
48.2026693586331
20
-3.35889454745455
30
0
41
1
10
48.2401025194281
20
-3.37057772535272
30
0
41
1
10
48.2706763772595
20
-3.37500000000003
30
0
41
1
10
48.3
20
-3.37500000000003
30
0
0
SPLINE
5
1E2
100
AcDbEntity
8
1
62
256
6
ByLayer
370
18
48
1
60
0
100
AcDbSpline
70
4
71
3
72
10
73
6
40
0
40
0
40
0
40
0
40
0.826582342134883
40
0.826582342134883
40
1
40
1
40
1
40
1
41
1
10
48.3
20
0.0249999999999773
30
0
41
1
10
48.269042764099
20
0.0249999999999773
30
0
41
1
10
48.236660104769
20
0.0200532276325021
30
0
41
1
10
48.1991341599142
20
0.0076180534374544
30
0
41
1
10
48.1926581551494
20
0.0052151849029372
30
0
41
1
10
48.18623482071
20
0.002573144879733
30
0
0
SPLINE
5
1E3
100
AcDbEntity
8
1
62
256
6
ByLayer
370
13
48
1
60
0
100
AcDbSpline
70
4
71
3
72
8
73
4
40
0
40
0
40
0
40
0
40
1
40
1
40
1
40
1
41
1
10
50.0083240679326
20
-3.34999900000002
30
0
41
1
10
50.0083240679326
20
-3.35833266666668
30
0
41
1
10
50.0083240679326
20
-3.36666633333337
30
0
41
1
10
50.0083240679326
20
-3.37500000000003
30
0
0
SPLINE
5
1E4
100
AcDbEntity
8
1
62
256
6
ByLayer
370
18
48
1
60
0
100
AcDbSpline
70
4
71
3
72
12
73
8
40
0
40
0
40
0
40
0
40
0.42509336529619
40
0.42509336529619
40
0.63310712595513
40
0.63310712595513
40
1
40
1
40
1
40
1
41
1
10
58.2587805434613
20
0.227436382492868
30
0
41
1
10
58.0933804472914
20
0.21579188504748
30
0
41
1
10
57.9253561091228
20
0.206698603773816
30
0
41
1
10
57.6910861495544
20
0.198077149293738
30
0
41
1
10
57.6154780531596
20
0.195991605795257
30
0
41
1
10
57.4170751815051
20
0.192486272256787
30
0
41
1
10
57.2995633762628
20
0.192742425281779
30
0
41
1
10
57.1981203716823
20
0.195458876867349
30
0
0
SPLINE
5
1E5
100
AcDbEntity
8
1
62
256
6
ByLayer
370
18
48
1
60
0
100
AcDbSpline
70
4
71
3
72
16
73
12
40
0
40
0
40
0
40
0
40
0.211361443762593
40
0.211361443762593
40
0.422716290819052
40
0.422716290819052
40
0.633949151070055
40
0.633949151070055
40
0.842299705561758
40
0.842299705561758
40
1
40
1
40
1
40
1
41
1
10
60.0060954592073
20
0.0302180370058238
30
0
41
1
10
60.0063878799804
20
0.0647896236107215
30
0
41
1
10
60.0007247736217
20
0.0998351991536026
30
0
41
1
10
59.9784973461869
20
0.165076014252065
30
0
41
1
10
59.9616237145543
20
0.196179077945686
30
0
41
1
10
59.9190960738524
20
0.250122339175931
30
0
41
1
10
59.8928432477739
20
0.273722507202422
30
0
41
1
10
59.8350670289677
20
0.309771778645256
30
0
41
1
10
59.8027995289617
20
0.32286830539735
30
0
41
1
10
59.744484454926
20
0.335285175387583
30
0
41
1
10
59.7183039576486
20
0.337287726332392
30
0
41
1
10
59.6925195383577
20
0.335780116941351
30
0
0
SPLINE
5
1E6
100
AcDbEntity
8
1
62
256
6
ByLayer
370
18
48
1
60
0
100
AcDbSpline
70
4
71
3
72
8
73
4
40
0
40
0
40
0
40
0
40
1
40
1
40
1
40
1
41
1
10
58.7587805434613
20
-3.61263738211451
30
0
41
1
10
58.8751145296814
20
-3.62082752732437
30
0
41
1
10
58.9917705115932
20
-3.63003441581463
30
0
41
1
10
59.1060768987951
20
-3.64004050819898
30
0
0
SPLINE
5
1E7
100
AcDbEntity
8
1
62
256
6
ByLayer
370
18
48
1
60
0
100
AcDbSpline
70
4
71
3
72
14
73
10
40
0
40
0
40
0
40
0
40
0.208299027735494
40
0.208299027735494
40
0.416431647973881
40
0.416431647973881
40
0.624564826978372
40
0.624564826978372
40
1
40
1
40
1
40
1
41
1
10
57.1981203716814
20
-3.54545887686831
30
0
41
1
10
57.2559629158584
20
-3.5439099630571
30
0
41
1
10
57.3188120459094
20
-3.54315312537929
30
0
41
1
10
57.4519206443794
20
-3.54326006621409
30
0
41
1
10
57.5226293120466
20
-3.54412295570387
30
0
41
1
10
57.6695068973413
20
-3.5474339807098
30
0
41
1
10
57.7461789808539
20
-3.5498934627584
30
0
41
1
10
57.9647101978241
20
-3.55885493062664
30
0
41
1
10
58.1126668962909
20
-3.56714968961461
30
0
41
1
10
58.25878054346
20
-3.57743638249204
30
0
0
SPLINE
5
1E8
100
AcDbEntity
8
1
62
256
6
ByLayer
370
18
48
1
60
0
100
AcDbSpline
70
4
71
3
72
8
73
4
40
0
40
0
40
0
40
0
40
1
40
1
40
1
40
1
41
1
10
56.285022192013
20
0.150408958013202
30
0
41
1
10
56.2448570829341
20
0.14171659877158
30
0
41
1
10
56.2055404050446
20
0.126808533681043
30
0
41
1
10
56.1699547982735
20
0.106773219966897
30
0
0
SPLINE
5
1E9
100
AcDbEntity
8
1
62
256
6
ByLayer
370
18
48
1
60
0
100
AcDbSpline
70
4
71
3
72
8
73
4
40
0
40
0
40
0
40
0
40
1
40
1
40
1
40
1
41
1
10
59.1060768987951
20
0.290040508198928
30
0
41
1
10
58.9917705115932
20
0.280034415814583
30
0
41
1
10
58.8751145296814
20
0.270827527324315
30
0
41
1
10
58.7587805434613
20
0.262637382114463
30
0
0
SPLINE
5
1EA
100
AcDbEntity
8
1
62
256
6
ByLayer
370
18
48
1
60
0
100
AcDbSpline
70
4
71
3
72
10
73
6
40
0
40
0
40
0
40
0
40
0.658092800347461
40
0.658092800347461
40
1
40
1
40
1
40
1
41
1
10
56.0726381143077
20
-3.40259232107673
30
0
41
1
10
56.0503265951329
20
-3.39031317619188
30
0
41
1
10
56.0257492517909
20
-3.38214038352308
30
0
41
1
10
55.9885109918381
20
-3.37601703054074
30
0
41
1
10
55.9755836924548
20
-3.375
30
0
41
1
10
55.9628139582057
20
-3.375
30
0
0
SPLINE
5
1EB
100
AcDbEntity
8
1
62
256
6
ByLayer
370
18
48
1
60
0
100
AcDbSpline
70
4
71
3
72
8
73
4
40
0
40
0
40
0
40
0
40
1
40
1
40
1
40
1
41
1
10
56.1699547982735
20
-3.45677321996695
30
0
41
1
10
56.2055404050452
20
-3.47680853368141
30
0
41
1
10
56.2448570829354
20
-3.49171659877209
30
0
41
1
10
56.2850221920149
20
-3.50040895801365
30
0
0
SPLINE
5
1EC
100
AcDbEntity
8
1
62
256
6
ByLayer
370
18
48
1
60
0
100
AcDbSpline
70
4
71
3
72
16
73
12
40
0
40
0
40
0
40
0
40
0.201783384736309
40
0.201783384736309
40
0.40337786454364
40
0.40337786454364
40
0.60783295932887
40
0.60783295932887
40
0.816478248424763
40
0.816478248424763
40
1
40
1
40
1
40
1
41
1
10
59.6925195383577
20
-3.68578011694137
30
0
41
1
10
59.7253231085993
20
-3.68769813456268
30
0
41
1
10
59.7588610300669
20
-3.68387798170929
30
0
41
1
10
59.8217991281965
20
-3.66557709344667
30
0
41
1
10
59.8520629393796
20
-3.65086560334643
30
0
41
1
10
59.9058024815465
20
-3.61261433107552
30
0
41
1
10
59.9299089005271
20
-3.58844141425666
30
0
41
1
10
59.9688991836001
20
-3.53370158442382
30
0
41
1
10
59.9841231155448
20
-3.50226667417695
30
0
41
1
10
60.0021136288159
20
-3.44076791700167
30
0
41
1
10
60.0063502038844
20
-3.41033534902809
30
0
41
1
10
60.0060954592073
20
-3.38021803700588
30
0
0
SPLINE
5
1ED
100
AcDbEntity
8
1
62
256
6
ByLayer
370
18
48
1
60
0
100
AcDbSpline
70
4
71
3
72
10
73
6
40
0
40
0
40
0
40
0
40
0.67805397343686
40
0.67805397343686
40
1
40
1
40
1
40
1
41
1
10
55.9628139582057
20
0.0249999999999773
30
0
41
1
10
55.9878743353473
20
0.0249999999999773
30
0
41
1
10
56.0137719550684
20
0.0289984436641078
30
0
41
1
10
56.0500459353043
20
0.0414431130582216
30
0
41
1
10
56.0616013632273
20
0.0465182449652843
30
0
41
1
10
56.0726381143083
20
0.0525923210745134
30
0
0
LINE
5
70
100
AcDbEntity
8
80
62
256
6
ByLayer
370
18
48
1
60
0
100
AcDbLine
10
0
20
0
30
0
11
-5
21
0
31
0
39
0
210
0
220
0
230
1
0
LINE
5
71
100
AcDbEntity
8
81
62
256
6
ByLayer
370
18
48
1
60
0
100
AcDbLine
10
60
20
-4
30
0
11
65
21
-4
31
0
39
0
210
0
220
0
230
1
0
LINE
5
72
100
AcDbEntity
8
SK1
62
256
6
ByLayer
370
18
48
1
60
0
100
AcDbLine
10
-90
20
-3.35
30
0
11
-90
21
-1.675
31
0
39
0
210
0
220
0
230
1
0
LINE
5
74
100
AcDbEntity
8
SK1
62
256
6
ByLayer
370
18
48
1
60
0
100
AcDbLine
10
0
20
-1.675
30
0
11
0
21
-3.35
31
0
39
0
210
0
220
0
230
1
0
LINE
5
75
100
AcDbEntity
8
SK1
62
256
6
ByLayer
370
18
48
1
60
0
100
AcDbLine
10
0
20
0
30
0
11
-90
21
0
31
0
39
0
210
0
220
0
230
1
0
LINE
5
76
100
AcDbEntity
8
SK1
62
256
6
ByLayer
370
18
48
1
60
0
100
AcDbLine
10
-90
20
-1.675
30
0
11
-90
21
0
31
0
39
0
210
0
220
0
230
1
0
LINE
5
77
100
AcDbEntity
8
SK1
62
256
6
ByLayer
370
18
48
1
60
0
100
AcDbLine
10
0
20
-1.675
30
0
11
-90
21
-1.675
31
0
39
0
210
0
220
0
230
1
0
LINE
5
78
100
AcDbEntity
8
SK1
62
256
6
ByLayer
370
18
48
1
60
0
100
AcDbLine
10
0
20
-3.35
30
0
11
-90
21
-3.35
31
0
39
0
210
0
220
0
230
1
0
LINE
5
79
100
AcDbEntity
8
SK1
62
256
6
ByLayer
370
18
48
1
60
0
100
AcDbLine
10
0
20
0
30
0
11
0
21
-1.675
31
0
39
0
210
0
220
0
230
1
0
LINE
5
7A
100
AcDbEntity
8
1
62
256
6
ByLayer
370
18
48
1
60
0
100
AcDbLine
10
0
20
0
30
0
11
0
21
-1.675
31
0
39
0
210
0
220
0
230
1
0
LINE
5
7C
100
AcDbEntity
8
1
62
256
6
ByLayer
370
18
48
1
60
0
100
AcDbLine
10
54.155966
20
-3.35
30
0
11
47.927391
21
-3.35
31
0
39
0
210
0
220
0
230
1
0
LINE
5
7D
100
AcDbEntity
8
1
62
256
6
ByLayer
370
18
48
1
60
0
100
AcDbLine
10
54.301732
20
-2.87534
30
0
11
54.301732
21
-0.47466
31
0
39
0
210
0
220
0
230
1
0
LINE
5
7E
100
AcDbEntity
8
1
62
256
6
ByLayer
370
13
48
1
60
0
100
AcDbLine
10
42.927391
20
0
30
0
11
42.927391
21
-3.35
31
0
39
0
210
0
220
0
230
1
0
LINE
5
7F
100
AcDbEntity
8
1
62
256
6
ByLayer
370
18
48
1
60
0
100
AcDbLine
10
54.301732
20
-2.87534
30
0
11
54.155966
21
-3.35
31
0
39
0
210
0
220
0
230
1
0
LINE
5
80
100
AcDbEntity
8
1
62
256
6
ByLayer
370
18
48
1
60
0
100
AcDbLine
10
35.9
20
-3.35
30
0
11
32.320999
21
-3.35
31
0
39
0
210
0
220
0
230
1
0
LINE
5
81
100
AcDbEntity
8
1
62
256
6
ByLayer
370
18
48
1
60
0
100
AcDbLine
10
32.320999
20
0
30
0
11
0
21
0
31
0
39
0
210
0
220
0
230
1
0
LINE
5
82
100
AcDbEntity
8
1
62
256
6
ByLayer
370
18
48
1
60
0
100
AcDbLine
10
42.927391
20
-3.35
30
0
11
35.9
21
-3.35
31
0
39
0
210
0
220
0
230
1
0
LINE
5
83
100
AcDbEntity
8
1
62
256
6
ByLayer
370
13
48
1
60
0
100
AcDbLine
10
47.927391
20
-3.35
30
0
11
47.927391
21
0
31
0
39
0
210
0
220
0
230
1
0
LINE
5
84
100
AcDbEntity
8
1
62
256
6
ByLayer
370
18
48
1
60
0
100
AcDbLine
10
31.018806
20
-1.675
30
0
11
0
21
-1.675
31
0
39
0
210
0
220
0
230
1
0
LINE
5
85
100
AcDbEntity
8
1
62
256
6
ByLayer
370
18
48
1
60
0
100
AcDbLine
10
32.320999
20
-3.35
30
0
11
0
21
-3.35
31
0
39
0
210
0
220
0
230
1
0
LINE
5
86
100
AcDbEntity
8
1
62
256
6
ByLayer
370
18
48
1
60
0
100
AcDbLine
10
35.9
20
0
30
0
11
42.927391
21
0
31
0
39
0
210
0
220
0
230
1
0
LINE
5
87
100
AcDbEntity
8
1
62
256
6
ByLayer
370
18
48
1
60
0
100
AcDbLine
10
47.927391
20
0
30
0
11
54.155966
21
0
31
0
39
0
210
0
220
0
230
1
0
LINE
5
88
100
AcDbEntity
8
1
62
256
6
ByLayer
370
13
48
1
60
0
100
AcDbLine
10
35.9
20
-3.35
30
0
11
35.9
21
0
31
0
39
0
210
0
220
0
230
1
0
LINE
5
89
100
AcDbEntity
8
1
62
256
6
ByLayer
370
18
48
1
60
0
100
AcDbLine
10
42.927391
20
0
30
0
11
47.927391
21
0
31
0
39
0
210
0
220
0
230
1
0
LINE
5
8A
100
AcDbEntity
8
1
62
256
6
ByLayer
370
18
48
1
60
0
100
AcDbLine
10
0
20
-1.675
30
0
11
0
21
-3.35
31
0
39
0
210
0
220
0
230
1
0
LINE
5
8B
100
AcDbEntity
8
1
62
256
6
ByLayer
370
18
48
1
60
0
100
AcDbLine
10
47.927391
20
-3.35
30
0
11
42.927391
21
-3.35
31
0
39
0
210
0
220
0
230
1
0
LINE
5
8C
100
AcDbEntity
8
1
62
256
6
ByLayer
370
18
48
1
60
0
100
AcDbLine
10
54.155966
20
0
30
0
11
54.301732
21
-0.47466
31
0
39
0
210
0
220
0
230
1
0
LINE
5
8D
100
AcDbEntity
8
1
62
256
6
ByLayer
370
18
48
1
60
0
100
AcDbLine
10
32.320999
20
0
30
0
11
35.9
21
0
31
0
39
0
210
0
220
0
230
1
0
LINE
5
8E
100
AcDbEntity
8
1
62
256
6
ByLayer
370
13
48
1
60
0
100
AcDbLine
10
55.153178
20
-0.979612
30
0
11
56.861239
21
-0.979612
31
0
39
0
210
0
220
0
230
1
0
LINE
5
8F
100
AcDbEntity
8
1
62
256
6
ByLayer
370
13
48
1
60
0
100
AcDbLine
10
55.153178
20
-2.370388
30
0
11
56.861239
21
-2.370388
31
0
39
0
210
0
220
0
230
1
0
LINE
5
90
100
AcDbEntity
8
1
62
256
6
ByLayer
370
13
48
1
60
0
100
AcDbLine
10
55.153178
20
-0.979612
30
0
11
55.372244
21
-0.933948
31
0
39
0
210
0
220
0
230
1
0
LINE
5
91
100
AcDbEntity
8
1
62
256
6
ByLayer
370
13
48
1
60
0
100
AcDbLine
10
56.290882
20
-0.904337
30
0
11
56.611711
21
-0.88406
31
0
39
0
210
0
220
0
230
1
0
LINE
5
92
100
AcDbEntity
8
1
62
256
6
ByLayer
370
13
48
1
60
0
100
AcDbLine
10
58.811268
20
-0.853299
30
0
11
58.811268
21
-2.496701
31
0
39
0
210
0
220
0
230
1
0
LINE
5
93
100
AcDbEntity
8
1
62
256
6
ByLayer
370
13
48
1
60
0
100
AcDbLine
10
56.611711
20
-2.46594
30
0
11
56.290882
21
-2.445663
31
0
39
0
210
0
220
0
230
1
0
LINE
5
94
100
AcDbEntity
8
1
62
256
6
ByLayer
370
13
48
1
60
0
100
AcDbLine
10
54.594883
20
-3.233521
30
0
11
54.594883
21
-3.375
31
0
39
0
210
0
220
0
230
1
0
LINE
5
95
100
AcDbEntity
8
1
62
256
6
ByLayer
370
13
48
1
60
0
100
AcDbLine
10
55.372244
20
-2.416052
30
0
11
55.153178
21
-2.370388
31
0
39
0
210
0
220
0
230
1
0
LINE
5
96
100
AcDbEntity
8
1
62
256
6
ByLayer
370
13
48
1
60
0
100
AcDbLine
10
54.594883
20
0.025
30
0
11
54.594883
21
-0.116479
31
0
39
0
210
0
220
0
230
1
0
LINE
5
97
100
AcDbEntity
8
1
62
256
6
ByLayer
370
13
48
1
60
0
100
AcDbLine
10
55.962511
20
-2.542234
30
0
11
55.962511
21
-3.375
31
0
39
0
210
0
220
0
230
1
0
LINE
5
98
100
AcDbEntity
8
1
62
256
6
ByLayer
370
13
48
1
60
0
100
AcDbLine
10
55.332182
20
-3.375
30
0
11
55.332182
21
-2.50877
31
0
39
0
210
0
220
0
230
1
0
LINE
5
99
100
AcDbEntity
8
1
62
256
6
ByLayer
370
13
48
1
60
0
100
AcDbLine
10
55.962511
20
0.025
30
0
11
55.962511
21
-0.807766
31
0
39
0
210
0
220
0
230
1
0
LINE
5
9A
100
AcDbEntity
8
1
62
256
6
ByLayer
370
13
48
1
60
0
100
AcDbLine
10
55.332182
20
0.025
30
0
11
55.332182
21
-0.84123
31
0
39
0
210
0
220
0
230
1
0
LINE
5
9B
100
AcDbEntity
8
1
62
256
6
ByLayer
370
13
48
1
60
0
100
AcDbLine
10
56.285022
20
-3.500409
30
0
11
56.285022
21
-2.538381
31
0
39
0
210
0
220
0
230
1
0
LINE
5
9C
100
AcDbEntity
8
1
62
256
6
ByLayer
370
13
48
1
60
0
100
AcDbLine
10
56.856902
20
-3.544491
30
0
11
56.802267
21
-2.763169
31
0
39
0
210
0
220
0
230
1
0
LINE
5
9D
100
AcDbEntity
8
1
62
256
6
ByLayer
370
13
48
1
60
0
100
AcDbLine
10
56.856902
20
0.194491
30
0
11
56.802267
21
-0.586831
31
0
39
0
210
0
220
0
230
1
0
LINE
5
9E
100
AcDbEntity
8
1
62
256
6
ByLayer
370
13
48
1
60
0
100
AcDbLine
10
56.285022
20
-2.538381
30
0
11
56.605851
21
-2.558659
31
0
39
0
210
0
220
0
230
1
0
LINE
5
9F
100
AcDbEntity
8
1
62
256
6
ByLayer
370
13
48
1
60
0
100
AcDbLine
10
56.605851
20
-0.791341
30
0
11
56.285022
21
-0.811619
31
0
39
0
210
0
220
0
230
1
0
LINE
5
A0
100
AcDbEntity
8
1
62
256
6
ByLayer
370
13
48
1
60
0
100
AcDbLine
10
56.285022
20
-0.811619
30
0
11
56.285022
21
0.150409
31
0
39
0
210
0
220
0
230
1
0
LINE
5
A1
100
AcDbEntity
8
1
62
256
6
ByLayer
370
13
48
1
60
0
100
AcDbLine
10
56.285022
20
-2.538381
30
0
11
56.290882
21
-2.445663
31
0
39
0
210
0
220
0
230
1
0
LINE
5
A2
100
AcDbEntity
8
1
62
256
6
ByLayer
370
13
48
1
60
0
100
AcDbLine
10
56.605851
20
-2.558659
30
0
11
56.611711
21
-2.46594
31
0
39
0
210
0
220
0
230
1
0
LINE
5
A3
100
AcDbEntity
8
1
62
256
6
ByLayer
370
13
48
1
60
0
100
AcDbLine
10
56.611711
20
-0.88406
30
0
11
56.605851
21
-0.791341
31
0
39
0
210
0
220
0
230
1
0
LINE
5
A4
100
AcDbEntity
8
1
62
256
6
ByLayer
370
13
48
1
60
0
100
AcDbLine
10
56.290882
20
-0.904337
30
0
11
56.285022
21
-0.811619
31
0
39
0
210
0
220
0
230
1
0
LINE
5
A5
100
AcDbEntity
8
1
62
256
6
ByLayer
370
13
48
1
60
0
100
AcDbLine
10
56.978644
20
-0.601809
30
0
11
57.0347
21
0.199835
31
0
39
0
210
0
220
0
230
1
0
LINE
5
A6
100
AcDbEntity
8
1
62
256
6
ByLayer
370
13
48
1
60
0
100
AcDbLine
10
55.332182
20
-0.84123
30
0
11
55.113116
21
-0.886894
31
0
39
0
210
0
220
0
230
1
0
LINE
5
A7
100
AcDbEntity
8
1
62
256
6
ByLayer
370
13
48
1
60
0
100
AcDbLine
10
54.629386
20
-0.128962
30
0
11
54.629386
21
0.025
31
0
39
0
210
0
220
0
230
1
0
LINE
5
A8
100
AcDbEntity
8
1
62
256
6
ByLayer
370
13
48
1
60
0
100
AcDbLine
10
56.978644
20
-2.748191
30
0
11
57.0347
21
-3.549835
31
0
39
0
210
0
220
0
230
1
0
LINE
5
A9
100
AcDbEntity
8
1
62
256
6
ByLayer
370
13
48
1
60
0
100
AcDbLine
10
55.113116
20
-2.463106
30
0
11
55.332182
21
-2.50877
31
0
39
0
210
0
220
0
230
1
0
LINE
5
AA
100
AcDbEntity
8
1
62
256
6
ByLayer
370
13
48
1
60
0
100
AcDbLine
10
54.629386
20
-3.375
30
0
11
54.629386
21
-3.221038
31
0
39
0
210
0
220
0
230
1
0
LINE
5
AB
100
AcDbEntity
8
1
62
256
6
ByLayer
370
13
48
1
60
0
100
AcDbLine
10
58.258781
20
-0.316153
30
0
11
58.258781
21
0.227436
31
0
39
0
210
0
220
0
230
1
0
LINE
5
AC
100
AcDbEntity
8
1
62
256
6
ByLayer
370
13
48
1
60
0
100
AcDbLine
10
57.19812
20
-0.570483
30
0
11
57.19812
21
0.195459
31
0
39
0
210
0
220
0
230
1
0
LINE
5
AD
100
AcDbEntity
8
1
62
256
6
ByLayer
370
13
48
1
60
0
100
AcDbLine
10
57.19812
20
-2.779517
30
0
11
57.19812
21
-3.545459
31
0
39
0
210
0
220
0
230
1
0
LINE
5
AE
100
AcDbEntity
8
1
62
256
6
ByLayer
370
13
48
1
60
0
100
AcDbLine
10
58.258781
20
-3.033847
30
0
11
58.258781
21
-3.577436
31
0
39
0
210
0
220
0
230
1
0
LINE
5
AF
100
AcDbEntity
8
1
62
256
6
ByLayer
370
13
48
1
60
0
100
AcDbLine
10
58.114687
20
-2.728029
30
0
11
58.211268
21
-2.424486
31
0
39
0
210
0
220
0
230
1
0
LINE
5
B0
100
AcDbEntity
8
1
62
256
6
ByLayer
370
13
48
1
60
0
100
AcDbLine
10
58.114687
20
-0.621971
30
0
11
58.211268
21
-0.925514
31
0
39
0
210
0
220
0
230
1
0
LINE
5
B1
100
AcDbEntity
8
1
62
256
6
ByLayer
370
13
48
1
60
0
100
AcDbLine
10
58.211268
20
-0.925514
30
0
11
58.211268
21
-2.424486
31
0
39
0
210
0
220
0
230
1
0
LINE
5
B2
100
AcDbEntity
8
1
62
256
6
ByLayer
370
13
48
1
60
0
100
AcDbLine
10
60.000117
20
-0.676589
30
0
11
59.925685
21
-0.676589
31
0
39
0
210
0
220
0
230
1
0
LINE
5
B3
100
AcDbEntity
8
1
62
256
6
ByLayer
370
13
48
1
60
0
100
AcDbLine
10
59.535516
20
-0.36765
30
0
11
59.535516
21
0.3266
31
0
39
0
210
0
220
0
230
1
0
LINE
5
B4
100
AcDbEntity
8
1
62
256
6
ByLayer
370
13
48
1
60
0
100
AcDbLine
10
59.535516
20
-2.98235
30
0
11
59.535516
21
-3.6766
31
0
39
0
210
0
220
0
230
1
0
LINE
5
B5
100
AcDbEntity
8
1
62
256
6
ByLayer
370
13
48
1
60
0
100
AcDbLine
10
60.000117
20
-2.673411
30
0
11
59.925685
21
-2.673411
31
0
39
0
210
0
220
0
230
1
0
LINE
5
B6
100
AcDbEntity
8
1
62
256
6
ByLayer
370
13
48
1
60
0
100
AcDbLine
10
59.106077
20
-3.083514
30
0
11
59.106077
21
-3.640041
31
0
39
0
210
0
220
0
230
1
0
LINE
5
B7
100
AcDbEntity
8
1
62
256
6
ByLayer
370
13
48
1
60
0
100
AcDbLine
10
59.46476
20
-3.671439
30
0
11
59.46476
21
-3.034967
31
0
39
0
210
0
220
0
230
1
0
LINE
5
B8
100
AcDbEntity
8
1
62
256
6
ByLayer
370
13
48
1
60
0
100
AcDbLine
10
59.46476
20
0.321439
30
0
11
59.46476
21
-0.315033
31
0
39
0
210
0
220
0
230
1
0
LINE
5
B9
100
AcDbEntity
8
1
62
256
6
ByLayer
370
13
48
1
60
0
100
AcDbLine
10
59.106077
20
-0.266486
30
0
11
59.106077
21
0.290041
31
0
39
0
210
0
220
0
230
1
0
LINE
5
BA
100
AcDbEntity
8
1
62
256
6
ByLayer
370
13
48
1
60
0
100
AcDbLine
10
58.758781
20
-3.087054
30
0
11
58.758781
21
-3.612637
31
0
39
0
210
0
220
0
230
1
0
LINE
5
BB
100
AcDbEntity
8
1
62
256
6
ByLayer
370
13
48
1
60
0
100
AcDbLine
10
58.758781
20
-0.262946
30
0
11
58.758781
21
0.262637
31
0
39
0
210
0
220
0
230
1
0
LINE
5
BC
100
AcDbEntity
8
1
62
256
6
ByLayer
370
13
48
1
60
0
100
AcDbLine
10
55.350545
20
-1.675
30
0
11
55.302842
21
-1.675
31
0
39
0
210
0
220
0
230
1
0
LINE
5
BD
100
AcDbEntity
8
1
62
256
6
ByLayer
370
13
48
1
60
0
100
AcDbLine
10
58.82193
20
-2.79994
30
0
11
58.811268
21
-2.496701
31
0
39
0
210
0
220
0
230
1
0
LINE
5
BE
100
AcDbEntity
8
1
62
256
6
ByLayer
370
13
48
1
60
0
100
AcDbLine
10
59.944165
20
-0.862966
30
0
11
59.997026
21
-0.862966
31
0
39
0
210
0
220
0
230
1
0
LINE
5
BF
100
AcDbEntity
8
1
62
256
6
ByLayer
370
13
48
1
60
0
100
AcDbLine
10
58.82193
20
-0.55006
30
0
11
58.811268
21
-0.853299
31
0
39
0
210
0
220
0
230
1
0
LINE
5
C0
100
AcDbEntity
8
1
62
256
6
ByLayer
370
13
48
1
60
0
100
AcDbLine
10
59.944165
20
-2.487034
30
0
11
59.997026
21
-2.487034
31
0
39
0
210
0
220
0
230
1
0
LINE
5
C1
100
AcDbEntity
8
1
62
256
6
ByLayer
370
13
48
1
60
0
100
AcDbLine
10
59.948049
20
-2.645715
30
0
11
60
21
-2.645715
31
0
39
0
210
0
220
0
230
1
0
LINE
5
C2
100
AcDbEntity
8
1
62
256
6
ByLayer
370
13
48
1
60
0
100
AcDbLine
10
59.997026
20
-2.487034
30
0
11
59.997026
21
-0.862966
31
0
39
0
210
0
220
0
230
1
0
LINE
5
C3
100
AcDbEntity
8
1
62
256
6
ByLayer
370
13
48
1
60
0
100
AcDbLine
10
59.948049
20
-0.704285
30
0
11
60
21
-0.704285
31
0
39
0
210
0
220
0
230
1
0
LINE
5
C4
100
AcDbEntity
8
1
62
256
6
ByLayer
370
13
48
1
60
0
100
AcDbLine
10
59.421373
20
-0.85228
30
0
11
59.421373
21
-2.49772
31
0
39
0
210
0
220
0
230
1
0
LINE
5
C5
100
AcDbEntity
8
1
62
256
6
ByLayer
370
13
48
1
60
0
100
AcDbLine
10
59.944165
20
-0.862966
30
0
11
59.944165
21
-2.487034
31
0
39
0
210
0
220
0
230
1
0
LINE
5
C6
100
AcDbEntity
8
1
62
256
6
ByLayer
370
18
48
1
60
0
100
AcDbLine
10
57.19812
20
0.195459
30
0
11
57.0347
21
0.199835
31
0
39
0
210
0
220
0
230
1
0
LINE
5
C7
100
AcDbEntity
8
1
62
256
6
ByLayer
370
18
48
1
60
0
100
AcDbLine
10
50.273333
20
-3.375
30
0
11
52.984409
21
-3.375
31
0
39
0
210
0
220
0
230
1
0
LINE
5
C8
100
AcDbEntity
8
1
62
256
6
ByLayer
370
18
48
1
60
0
100
AcDbLine
10
55.332182
20
-3.375
30
0
11
55.962511
21
-3.375
31
0
39
0
210
0
220
0
230
1
0
LINE
5
C9
100
AcDbEntity
8
1
62
256
6
ByLayer
370
18
48
1
60
0
100
AcDbLine
10
56.341473
20
0.158448
30
0
11
56.856902
21
0.194491
31
0
39
0
210
0
220
0
230
1
0
LINE
5
CA
100
AcDbEntity
8
1
62
256
6
ByLayer
370
18
48
1
60
0
100
AcDbLine
10
55.962511
20
0.025
30
0
11
55.962814
21
0.025
31
0
39
0
210
0
220
0
230
1
0
LINE
5
CB
100
AcDbEntity
8
1
62
256
6
ByLayer
370
18
48
1
60
0
100
AcDbLine
10
59.106077
20
-3.640041
30
0
11
59.46476
21
-3.671439
31
0
39
0
210
0
220
0
230
1
0
LINE
5
CC
100
AcDbEntity
8
1
62
256
6
ByLayer
370
18
48
1
60
0
100
AcDbLine
10
55.962511
20
0.025
30
0
11
55.332182
21
0.025
31
0
39
0
210
0
220
0
230
1
0
LINE
5
CD
100
AcDbEntity
8
1
62
256
6
ByLayer
370
18
48
1
60
0
100
AcDbLine
10
50.07404
20
0.025
30
0
11
50.008324
21
0.025
31
0
39
0
210
0
220
0
230
1
0
LINE
5
CE
100
AcDbEntity
8
1
62
256
6
ByLayer
370
18
48
1
60
0
100
AcDbLine
10
59.69252
20
0.33578
30
0
11
59.535516
21
0.3266
31
0
39
0
210
0
220
0
230
1
0
LINE
5
CF
100
AcDbEntity
8
1
62
256
6
ByLayer
370
18
48
1
60
0
100
AcDbLine
10
55.332182
20
0.025
30
0
11
54.629386
21
0.025
31
0
39
0
210
0
220
0
230
1
0
LINE
5
D0
100
AcDbEntity
8
1
62
256
6
ByLayer
370
18
48
1
60
0
100
AcDbLine
10
58.258781
20
-3.577436
30
0
11
58.758781
21
-3.612637
31
0
39
0
210
0
220
0
230
1
0
LINE
5
D1
100
AcDbEntity
8
1
62
256
6
ByLayer
370
18
48
1
60
0
100
AcDbLine
10
60.000117
20
-0.676589
30
0
11
60.006095
21
0.030218
31
0
39
0
210
0
220
0
230
1
0
LINE
5
D2
100
AcDbEntity
8
1
62
256
6
ByLayer
370
18
48
1
60
0
100
AcDbLine
10
54.594883
20
-3.375
30
0
11
54.629386
21
-3.375
31
0
39
0
210
0
220
0
230
1
0
LINE
5
D3
100
AcDbEntity
8
1
62
256
6
ByLayer
370
18
48
1
60
0
100
AcDbLine
10
59.535516
20
-3.6766
30
0
11
59.69252
21
-3.68578
31
0
39
0
210
0
220
0
230
1
0
LINE
5
D4
100
AcDbEntity
8
1
62
256
6
ByLayer
370
18
48
1
60
0
100
AcDbLine
10
55.962814
20
-3.375
30
0
11
55.962511
21
-3.375
31
0
39
0
210
0
220
0
230
1
0
LINE
5
D5
100
AcDbEntity
8
1
62
256
6
ByLayer
370
18
48
1
60
0
100
AcDbLine
10
60.006095
20
-3.380218
30
0
11
60.000117
21
-2.673411
31
0
39
0
210
0
220
0
230
1
0
LINE
5
D6
100
AcDbEntity
8
1
62
256
6
ByLayer
370
18
48
1
60
0
100
AcDbLine
10
57.0347
20
-3.549835
30
0
11
57.19812
21
-3.545459
31
0
39
0
210
0
220
0
230
1
0
LINE
5
D7
100
AcDbEntity
8
1
62
256
6
ByLayer
370
18
48
1
60
0
100
AcDbLine
10
58.758781
20
0.262637
30
0
11
58.258781
21
0.227436
31
0
39
0
210
0
220
0
230
1
0
LINE
5
D8
100
AcDbEntity
8
1
62
256
6
ByLayer
370
18
48
1
60
0
100
AcDbLine
10
50.008324
20
-3.375
30
0
11
50.07404
21
-3.375
31
0
39
0
210
0
220
0
230
1
0
LINE
5
D9
100
AcDbEntity
8
1
62
256
6
ByLayer
370
18
48
1
60
0
100
AcDbLine
10
56.856902
20
-3.544491
30
0
11
56.341473
21
-3.508448
31
0
39
0
210
0
220
0
230
1
0
LINE
5
DA
100
AcDbEntity
8
1
62
256
6
ByLayer
370
18
48
1
60
0
100
AcDbLine
10
54.629386
20
-3.375
30
0
11
55.332182
21
-3.375
31
0
39
0
210
0
220
0
230
1
0
LINE
5
DB
100
AcDbEntity
8
1
62
256
6
ByLayer
370
18
48
1
60
0
100
AcDbLine
10
59.46476
20
0.321439
30
0
11
59.106077
21
0.290041
31
0
39
0
210
0
220
0
230
1
0
LINE
5
DC
100
AcDbEntity
8
1
62
256
6
ByLayer
370
18
48
1
60
0
100
AcDbLine
10
54.629386
20
0.025
30
0
11
54.594883
21
0.025
31
0
39
0
210
0
220
0
230
1
0
LINE
5
DD
100
AcDbEntity
8
1
62
256
6
ByLayer
370
18
48
1
60
0
100
AcDbLine
10
60
20
-2.645715
30
0
11
60
21
-0.704285
31
0
39
0
210
0
220
0
230
1
0
LINE
5
DE
100
AcDbEntity
8
1
62
256
6
ByLayer
370
18
48
1
60
0
100
AcDbLine
10
50.273333
20
0.025
30
0
11
52.984409
21
0.025
31
0
39
0
210
0
220
0
230
1
0
LINE
5
DF
100
AcDbEntity
8
SK2
62
256
6
ByLayer
370
13
48
1
60
0
100
AcDbLine
10
-99.6
20
-19.435263
30
0
11
-99.6
21
8.75
31
0
39
0
210
0
220
0
230
1
0
LINE
5
E1
100
AcDbEntity
8
SK2
62
256
6
ByLayer
370
13
48
1
60
0
100
AcDbLine
10
-92
20
-3.35
30
0
11
-101.6
21
-3.35
31
0
39
0
210
0
220
0
230
1
0
LINE
5
E2
100
AcDbEntity
8
SK2
62
256
6
ByLayer
370
13
48
1
60
0
100
AcDbLine
10
-92
20
0
30
0
11
-101.6
21
0
31
0
39
0
210
0
220
0
230
1
0
LINE
5
E3
100
AcDbEntity
8
SK2
62
256
6
ByLayer
370
18
48
1
60
0
100
AcDbLine
10
-99.6
20
-3.35
30
0
11
-99.182003
21
-6.524998
31
0
39
0
210
0
220
0
230
1
0
LINE
5
E4
100
AcDbEntity
8
SK2
62
256
6
ByLayer
370
18
48
1
60
0
100
AcDbLine
10
-99.6
20
-3.35
30
0
11
-100.017997
21
-6.525002
31
0
39
0
210
0
220
0
230
1
0
LINE
5
E5
100
AcDbEntity
8
SK2
62
256
6
ByLayer
370
18
48
1
60
0
100
AcDbLine
10
-99.182003
20
-6.524998
30
0
11
-100.017997
21
-6.525002
31
0
39
0
210
0
220
0
230
1
0
LINE
5
E6
100
AcDbEntity
8
SK2
62
256
6
ByLayer
370
18
48
1
60
0
100
AcDbLine
10
-99.6
20
0
30
0
11
-100.017997
21
3.174998
31
0
39
0
210
0
220
0
230
1
0
LINE
5
E7
100
AcDbEntity
8
SK2
62
256
6
ByLayer
370
18
48
1
60
0
100
AcDbLine
10
-99.6
20
0
30
0
11
-99.182003
21
3.175002
31
0
39
0
210
0
220
0
230
1
0
LINE
5
E8
100
AcDbEntity
8
SK2
62
256
6
ByLayer
370
18
48
1
60
0
100
AcDbLine
10
-100.017997
20
3.174998
30
0
11
-99.182003
21
3.175002
31
0
39
0
210
0
220
0
230
1
0
LINE
5
E9
100
AcDbEntity
8
2
62
256
6
ByLayer
370
18
48
1
60
0
100
AcDbLine
10
78.1
20
-12.75
30
0
11
78.1
21
12.143158
31
0
39
0
210
0
220
0
230
1
0
LINE
5
EB
100
AcDbEntity
8
2
62
256
6
ByLayer
370
18
48
1
60
0
100
AcDbLine
10
62
20
-4
30
0
11
80.1
21
-4
31
0
39
0
210
0
220
0
230
1
0
LINE
5
EC
100
AcDbEntity
8
2
62
256
6
ByLayer
370
18
48
1
60
0
100
AcDbLine
10
62
20
0
30
0
11
80.1
21
0
31
0
39
0
210
0
220
0
230
1
0
LINE
5
ED
100
AcDbEntity
8
2
62
256
6
ByLayer
370
18
48
1
60
0
100
AcDbLine
10
78.1
20
-4
30
0
11
78.517997
21
-7.174998
31
0
39
0
210
0
220
0
230
1
0
LINE
5
EE
100
AcDbEntity
8
2
62
256
6
ByLayer
370
18
48
1
60
0
100
AcDbLine
10
78.1
20
-4
30
0
11
77.682003
21
-7.175002
31
0
39
0
210
0
220
0
230
1
0
LINE
5
EF
100
AcDbEntity
8
2
62
256
6
ByLayer
370
18
48
1
60
0
100
AcDbLine
10
78.517997
20
-7.174998
30
0
11
77.682003
21
-7.175002
31
0
39
0
210
0
220
0
230
1
0
LINE
5
F0
100
AcDbEntity
8
2
62
256
6
ByLayer
370
18
48
1
60
0
100
AcDbLine
10
78.1
20
0
30
0
11
77.682003
21
3.174998
31
0
39
0
210
0
220
0
230
1
0
LINE
5
F1
100
AcDbEntity
8
2
62
256
6
ByLayer
370
18
48
1
60
0
100
AcDbLine
10
78.1
20
0
30
0
11
78.517997
21
3.175002
31
0
39
0
210
0
220
0
230
1
0
LINE
5
F2
100
AcDbEntity
8
2
62
256
6
ByLayer
370
18
48
1
60
0
100
AcDbLine
10
77.682003
20
3.174998
30
0
11
78.517997
21
3.175002
31
0
39
0
210
0
220
0
230
1
0
MTEXT
5
1EE
100
AcDbEntity
8
SK6
62
256
6
ByLayer
370
18
48
1
60
0
100
AcDbMText
10
-46.625
20
-52.706864
30
0
210
0
220
0
230
1
1
\W0.7755;QD-NN2H60-25A
40
3.5
41
0
44
1.084337
50
0
71
7
72
5
7
iso_b_vert
0
MTEXT
5
1F2
100
AcDbEntity
8
SK2
62
256
6
ByLayer
370
18
48
1
60
0
100
AcDbMText
10
-100.475
20
-18.560263
30
0
210
0
220
0
230
1
1
\W0.7451;3.4
40
3.5
41
0
44
1.084337
50
89.9999999999999
71
7
72
5
7
iso_b_vert
0
MTEXT
5
1F3
100
AcDbEntity
8
2
62
256
6
ByLayer
370
18
48
1
60
0
100
AcDbMText
10
77.225
20
11.13
30
0
210
0
220
0
230
1
1
\W0.6380;4
40
3.5
41
0
44
1.084337
50
89.9999999999999
71
7
72
5
7
iso_b_vert
0
DIMENSION
5
201
100
AcDbEntity
8
SK2
62
256
6
ByLayer
370
13
48
1
60
0
100
AcDbDimension
2
DimnDraft3D1
10
60
20
22.936273
30
0
11
-17.961184
21
22.936273
31
0
70
32
71
5
72
1
41
1
210
0
220
0
230
1
3
Standard
100
AcDbAlignedDimension
13
-90
23
-1.35
33
0
14
60
24
2
34
0
50
0
100
AcDbRotatedDimension
1001
ACAD
1000
DSTYLE
1002
{
1070
   279
1070
     0
1070
   172
1070
     1
1070
   173
1070
     1
1070
   340
1005
1EF
1070
   271
1070
     1
1070
    77
1070
     1
1070
    73
1070
     0
1070
   171
1070
     3
1070
   274
1070
     4
1070
   177
1070
     2
1070
   176
1070
     2
1070
   178
1070
     7
1070
    78
1070
     8
1070
    41
1041
3.175
1070
   147
1041
1.75
1070
    42
1041
2.0
1070
    44
1041
2.0
1070
   140
1041
3.5
1070
   343
1005
202
1070
   344
1005
202
1002
}
0
DIMENSION
5
216
100
AcDbEntity
8
2
62
256
6
ByLayer
370
13
48
1
60
0
100
AcDbDimension
2
DimnDraft3D2
10
0
20
-17.1
30
0
11
27.909211
21
-17.1
31
0
70
32
71
5
72
1
41
1
210
0
220
0
230
1
3
Standard
100
AcDbAlignedDimension
13
60
23
-2
33
0
14
0
24
-5.35
34
0
50
0
100
AcDbRotatedDimension
1001
ACAD
1000
DSTYLE
1002
{
1070
   279
1070
     0
1070
   172
1070
     1
1070
   173
1070
     1
1070
   340
1005
1EF
1070
   271
1070
     1
1070
    77
1070
     1
1070
    73
1070
     0
1070
   171
1070
     3
1070
   274
1070
     4
1070
   177
1070
     2
1070
   176
1070
     2
1070
   178
1070
     7
1070
    78
1070
     8
1070
    41
1041
3.175
1070
   147
1041
1.75
1070
    42
1041
2.0
1070
    44
1041
2.0
1070
   140
1041
3.5
1070
   343
1005
202
1070
   344
1005
202
1002
}
0
ENDSEC
0
SECTION
2
OBJECTS
0
DICTIONARY
5
280
330
0
100
AcDbDictionary
280
0
281
1
3
ACAD_GROUP
350
281
3
ACAD_MLINESTYLE
350
282
0
DICTIONARY
5
281
330
0
100
AcDbDictionary
280
0
281
1
0
DICTIONARY
5
282
330
0
100
AcDbDictionary
280
0
281
1
3
Standard
350
18
0
MLINESTYLE
5
18
330
282
100
AcDbMlineStyle
2
Standard
70
0
3

62
256
51
90
52
90
71
2
49
-0.5
62
256
6
ByLayer
49
0.5
62
256
6
ByLayer
0
RASTERVARIABLES
5
26f
330

100
AcDbRasterVariables
90
0
70
1
71
1
72
1
0
ENDSEC
0
EOF
